  0
SECTION
  2
HEADER
  9
$ACADVER
  1
AC1012
  9
$DWGCODEPAGE
  3
dos932
  9
$INSBASE
 10
0.0
 20
0.0
 30
0.0
  9
$EXTMIN
 10
10.05047808566086
 20
4.949376903717846
 30
0.0
  9
$EXTMAX
 10
806.2246110975902
 20
563.7825862828226
 30
0.0
  9
$LIMMIN
 10
0.0
 20
0.0
  9
$LIMMAX
 10
840.0
 20
594.0
  9
$ORTHOMODE
 70
     0
  9
$REGENMODE
 70
     1
  9
$FILLMODE
 70
     1
  9
$QTEXTMODE
 70
     0
  9
$MIRRTEXT
 70
     1
  9
$DRAGMODE
 70
     2
  9
$LTSCALE
 40
2.0
  9
$OSMODE
 70
   319
  9
$ATTMODE
 70
     1
  9
$TEXTSIZE
 40
5.0
  9
$TRACEWID
 40
1.0
  9
$TEXTSTYLE
  7
STANDARD
  9
$CLAYER
  8
ZUWAKU
  9
$CELTYPE
  6
BYLAYER
  9
$CECOLOR
 62
   256
  9
$CELTSCALE
 40
1.0
  9
$DELOBJ
 70
     1
  9
$DISPSILH
 70
     0
  9
$DIMSCALE
 40
1.0
  9
$DIMASZ
 40
7.0
  9
$DIMEXO
 40
6.0
  9
$DIMDLI
 40
14.0
  9
$DIMRND
 40
0.0
  9
$DIMDLE
 40
0.0
  9
$DIMEXE
 40
3.0
  9
$DIMTP
 40
0.0
  9
$DIMTM
 40
0.0
  9
$DIMTXT
 40
6.0
  9
$DIMCEN
 40
150.0
  9
$DIMTSZ
 40
0.0
  9
$DIMTOL
 70
     0
  9
$DIMLIM
 70
     0
  9
$DIMTIH
 70
     0
  9
$DIMTOH
 70
     0
  9
$DIMSE1
 70
     0
  9
$DIMSE2
 70
     0
  9
$DIMTAD
 70
     3
  9
$DIMZIN
 70
     0
  9
$DIMBLK
  1

  9
$DIMASO
 70
     1
  9
$DIMSHO
 70
     1
  9
$DIMPOST
  1

  9
$DIMAPOST
  1

  9
$DIMALT
 70
     0
  9
$DIMALTD
 70
     2
  9
$DIMALTF
 40
25.4
  9
$DIMLFAC
 40
1.0
  9
$DIMTOFL
 70
     1
  9
$DIMTVP
 40
0.0
  9
$DIMTIX
 70
     0
  9
$DIMSOXD
 70
     0
  9
$DIMSAH
 70
     1
  9
$DIMBLK1
  1
OPEN
  9
$DIMBLK2
  1
OPEN
  9
$DIMSTYLE
  2
STANDARD
  9
$DIMCLRD
 70
   256
  9
$DIMCLRE
 70
     4
  9
$DIMCLRT
 70
   256
  9
$DIMTFAC
 40
1.0
  9
$DIMGAP
 40
2.0
  9
$DIMJUST
 70
     0
  9
$DIMSD1
 70
     0
  9
$DIMSD2
 70
     0
  9
$DIMTOLJ
 70
     1
  9
$DIMTZIN
 70
     0
  9
$DIMALTZ
 70
     0
  9
$DIMALTTZ
 70
     0
  9
$DIMFIT
 70
     3
  9
$DIMUPT
 70
     0
  9
$DIMUNIT
 70
     2
  9
$DIMDEC
 70
     0
  9
$DIMTDEC
 70
     0
  9
$DIMALTU
 70
     2
  9
$DIMALTTD
 70
     2
  9
$DIMTXSTY
  7
STANDARD
  9
$DIMAUNIT
 70
     0
  9
$LUNITS
 70
     2
  9
$LUPREC
 70
     4
  9
$SKETCHINC
 40
1.0
  9
$FILLETRAD
 40
20.0
  9
$AUNITS
 70
     0
  9
$AUPREC
 70
     0
  9
$MENU
  1
.
  9
$ELEVATION
 40
0.0
  9
$PELEVATION
 40
0.0
  9
$THICKNESS
 40
0.0
  9
$LIMCHECK
 70
     0
  9
$BLIPMODE
 70
     0
  9
$CHAMFERA
 40
20.0
  9
$CHAMFERB
 40
20.0
  9
$CHAMFERC
 40
40.0
  9
$CHAMFERD
 40
0.0
  9
$SKPOLY
 70
     0
  9
$TDCREATE
 40
2450994.354346065
  9
$TDUPDATE
 40
2452422.702984606
  9
$TDINDWG
 40
0.0073362269
  9
$TDUSRTIMER
 40
0.0073362269
  9
$USRTIMER
 70
     1
  9
$ANGBASE
 50
0.0
  9
$ANGDIR
 70
     0
  9
$PDMODE
 70
     1
  9
$PDSIZE
 40
0.0
  9
$PLINEWID
 40
0.0
  9
$COORDS
 70
     1
  9
$SPLFRAME
 70
     0
  9
$SPLINETYPE
 70
     6
  9
$SPLINESEGS
 70
     8
  9
$ATTDIA
 70
     0
  9
$ATTREQ
 70
     1
  9
$HANDLING
 70
 10241
  9
$HANDSEED
  5
789
  9
$SURFTAB1
 70
     6
  9
$SURFTAB2
 70
     6
  9
$SURFTYPE
 70
     6
  9
$SURFU
 70
     6
  9
$SURFV
 70
     6
  9
$UCSNAME
  2

  9
$UCSORG
 10
0.0
 20
0.0
 30
0.0
  9
$UCSXDIR
 10
1.0
 20
0.0
 30
0.0
  9
$UCSYDIR
 10
0.0
 20
1.0
 30
0.0
  9
$PUCSNAME
  2

  9
$PUCSORG
 10
0.0
 20
0.0
 30
0.0
  9
$PUCSXDIR
 10
1.0
 20
0.0
 30
0.0
  9
$PUCSYDIR
 10
0.0
 20
1.0
 30
0.0
  9
$USERI1
 70
     0
  9
$USERI2
 70
     0
  9
$USERI3
 70
     0
  9
$USERI4
 70
     0
  9
$USERI5
 70
     0
  9
$USERR1
 40
0.0
  9
$USERR2
 40
0.0
  9
$USERR3
 40
0.0
  9
$USERR4
 40
0.0
  9
$USERR5
 40
0.0
  9
$WORLDVIEW
 70
     1
  9
$SHADEDGE
 70
     3
  9
$SHADEDIF
 70
    70
  9
$TILEMODE
 70
     1
  9
$MAXACTVP
 70
    16
  9
$PINSBASE
 10
0.0
 20
0.0
 30
0.0
  9
$PLIMCHECK
 70
     0
  9
$PEXTMIN
 10
0.0
 20
0.0
 30
0.0
  9
$PEXTMAX
 10
420.0
 20
297.0
 30
0.0
  9
$PLIMMIN
 10
0.0
 20
0.0
  9
$PLIMMAX
 10
420.0
 20
297.0
  9
$UNITMODE
 70
     0
  9
$VISRETAIN
 70
     0
  9
$PLINEGEN
 70
     0
  9
$PSLTSCALE
 70
     1
  9
$TREEDEPTH
 70
  3020
  9
$PICKSTYLE
 70
     1
  9
$CMLSTYLE
  2
STANDARD
  9
$CMLJUST
 70
     0
  9
$CMLSCALE
 40
1.0
  9
$SAVEIMAGES
 70
     1
  0
ENDSEC
  0
SECTION
  2
CLASSES
  0
CLASS
  1
ACDBDICTIONARYWDFLT
  2
AcDbDictionaryWithDefault
  3
AutoCAD 2000
 90
    32768
280
     0
281
     0
  0
CLASS
  1
ACDBPLACEHOLDER
  2
AcDbPlaceHolder
  3
AutoCAD 2000
 90
    32768
280
     0
281
     0
  0
CLASS
  1
LAYOUT
  2
AcDbLayout
  3
AutoCAD 2000
 90
    32768
280
     0
281
     0
  0
CLASS
  1
LONG_TRANSACTION
  2
AcDbLongTransaction
  3
AutoCAD 2000
 90
    32768
280
     0
281
     0
  0
CLASS
  1
LWPOLYLINE
  2
AcDbPolyline
  3
AutoCAD 2000
 90
    32768
280
     0
281
     1
  0
CLASS
  1
HATCH
  2
AcDbHatch
  3
AutoCAD 2000
 90
    32768
280
     0
281
     1
  0
CLASS
  1
XRECORD
  2
AcDbXrecord
  3
AutoCAD 2000
 90
    32768
280
     0
281
     0
  0
CLASS
  1
LONG_TRANSACTION
  2
AcDbLongTransaction
  3
AutoCAD 2000
 90
    32768
280
     0
281
     0
  0
CLASS
  1
LWPOLYLINE
  2
AcDbPolyline
  3
AutoCAD 2000
 90
    32768
280
     0
281
     1
  0
CLASS
  1
HATCH
  2
AcDbHatch
  3
AutoCAD 2000
 90
    32768
280
     0
281
     1
  0
CLASS
  1
XRECORD
  2
AcDbXrecord
  3
AutoCAD 2000
 90
    32768
280
     0
281
     0
  0
ENDSEC
  0
SECTION
  2
TABLES
  0
TABLE
  2
VPORT
  5
8
330
0
100
AcDbSymbolTable
 70
     2
  0
VPORT
  5
786
330
8
100
AcDbSymbolTableRecord
100
AcDbViewportTableRecord
  2
*ACTIVE
 70
     0
 10
0.0
 20
0.0
 11
1.0
 21
1.0
 12
406.691156504756
 22
297.7119422502093
 13
0.0
 23
0.0
 14
5.0
 24
5.0
 15
0.0
 25
0.0
 16
0.0
 26
0.0
 36
1.0
 17
0.0
 27
0.0
 37
0.0
 40
604.9862976384696
 41
1.70990990990991
 42
50.0
 43
0.0
 44
0.0
 50
0.0
 51
0.0
 71
     0
 72
   100
 73
     1
 74
     0
 75
     0
 76
     0
 77
     0
 78
     0
  0
ENDTAB
  0
TABLE
  2
LTYPE
  5
5
330
0
100
AcDbSymbolTable
 70
     3
  0
LTYPE
  5
14
330
5
100
AcDbSymbolTableRecord
100
AcDbLinetypeTableRecord
  2
BYBLOCK
 70
     0
  3

 72
    65
 73
     0
 40
0.0
  0
LTYPE
  5
15
330
5
100
AcDbSymbolTableRecord
100
AcDbLinetypeTableRecord
  2
BYLAYER
 70
     0
  3

 72
    65
 73
     0
 40
0.0
  0
LTYPE
  5
16
330
5
100
AcDbSymbolTableRecord
100
AcDbLinetypeTableRecord
  2
CONTINUOUS
 70
     0
  3
Solid line
 72
    65
 73
     0
 40
0.0
  0
LTYPE
  5
115
330
5
100
AcDbSymbolTableRecord
100
AcDbLinetypeTableRecord
  2
PHANTOM
 70
     0
  3
______  __  __  ______  __  __  ______  __  __ 
 72
    65
 73
     6
 40
2.5
 49
1.25
 74
     0
 49
-0.25
 74
     0
 49
0.25
 74
     0
 49
-0.25
 74
     0
 49
0.25
 74
     0
 49
-0.25
 74
     0
  0
LTYPE
  5
135
330
5
100
AcDbSymbolTableRecord
100
AcDbLinetypeTableRecord
  2
CENTER
 70
     0
  3
____ _ ____ _ ____ _ ____ _ ____ _ ____ _ ____ 
 72
    65
 73
     4
 40
2.0
 49
1.25
 74
     0
 49
-0.25
 74
     0
 49
0.25
 74
     0
 49
-0.25
 74
     0
  0
ENDTAB
  0
TABLE
  2
LAYER
  5
2
330
0
100
AcDbSymbolTable
 70
     8
  0
LAYER
  5
F
330
2
100
AcDbSymbolTableRecord
100
AcDbLayerTableRecord
  2
0
 70
     0
 62
     7
  6
CONTINUOUS
  0
LAYER
  5
62
330
2
100
AcDbSymbolTableRecord
100
AcDbLayerTableRecord
  2
VIEWPORT
 70
     0
 62
     7
  6
CONTINUOUS
  0
LAYER
  5
65
330
2
100
AcDbSymbolTableRecord
100
AcDbLayerTableRecord
  2
ZUWAKU
 70
     0
 62
     7
  6
CONTINUOUS
  0
LAYER
  5
1F9
330
2
100
AcDbSymbolTableRecord
100
AcDbLayerTableRecord
  2
SEIHIN
 70
     0
 62
     3
  6
CONTINUOUS
  0
LAYER
  5
1FA
330
2
100
AcDbSymbolTableRecord
100
AcDbLayerTableRecord
  2
SUNPOU
 70
     0
 62
     4
  6
CONTINUOUS
  0
LAYER
  5
1FB
330
2
100
AcDbSymbolTableRecord
100
AcDbLayerTableRecord
  2
CENTER_L
 70
     0
 62
     1
  6
CENTER
  0
LAYER
  5
1FC
330
2
100
AcDbSymbolTableRecord
100
AcDbLayerTableRecord
  2
NOKITOI
 70
     0
 62
     8
  6
PHANTOM
  0
LAYER
  5
1FD
330
2
100
AcDbSymbolTableRecord
100
AcDbLayerTableRecord
  2
DEFPOINTS
 70
     0
 62
     7
  6
CONTINUOUS
  0
ENDTAB
  0
TABLE
  2
STYLE
  5
3
330
0
100
AcDbSymbolTable
 70
     1
  0
STYLE
  5
10
330
3
100
AcDbSymbolTableRecord
100
AcDbTextStyleTableRecord
  2
STANDARD
 70
     0
 40
0.0
 41
1.0
 50
0.0
 71
     0
 42
5.0
  3
TXT
  4
bigfont.shx
  0
ENDTAB
  0
TABLE
  2
VIEW
  5
6
330
0
100
AcDbSymbolTable
 70
     0
  0
ENDTAB
  0
TABLE
  2
UCS
  5
7
330
0
100
AcDbSymbolTable
 70
     0
  0
ENDTAB
  0
TABLE
  2
APPID
  5
9
330
0
100
AcDbSymbolTable
 70
     1
  0
APPID
  5
11
330
9
100
AcDbSymbolTableRecord
100
AcDbRegAppTableRecord
  2
ACAD
 70
     0
  0
ENDTAB
  0
TABLE
  2
DIMSTYLE
  5
A
330
0
100
AcDbSymbolTable
 70
     1
  0
DIMSTYLE
105
1D
102
{ACAD_REACTORS
330
3CC
330
3CD
330
3CE
330
3ED
330
445
330
520
330
53A
330
53B
330
54C
330
553
330
556
330
580
330
588
102
}
330
A
100
AcDbSymbolTableRecord
100
AcDbDimStyleTableRecord
  2
STANDARD
 70
     0
  3

  4

  5

  6

  7

 40
1.0
 41
0.18
 42
0.0625
 43
0.38
 44
0.18
 45
0.0
 46
0.0
 47
0.0
 48
0.0
140
0.18
141
0.09
142
0.0
143
25.4
144
1.0
145
0.0
146
1.0
147
0.09
 71
     0
 72
     0
 73
     1
 74
     1
 75
     0
 76
     0
 77
     0
 78
     0
170
     0
171
     2
172
     0
173
     0
174
     0
175
     0
176
     0
177
     0
178
     0
270
     2
271
     4
272
     4
273
     2
274
     2
340
10
275
     0
280
     0
281
     0
282
     0
283
     1
284
     0
285
     0
286
     0
287
     3
288
     0
  0
ENDTAB
  0
TABLE
  2
BLOCK_RECORD
  5
1
330
0
100
AcDbSymbolTable
 70
    14
  0
BLOCK_RECORD
  5
1A
102
{ACAD_XDICTIONARY
360
778
102
}
330
1
100
AcDbSymbolTableRecord
100
AcDbBlockTableRecord
  2
*MODEL_SPACE
  0
BLOCK_RECORD
  5
17
102
{ACAD_XDICTIONARY
360
776
102
}
330
1
100
AcDbSymbolTableRecord
100
AcDbBlockTableRecord
  2
*PAPER_SPACE
  0
BLOCK_RECORD
  5
6D
330
1
100
AcDbSymbolTableRecord
100
AcDbBlockTableRecord
  2
_OPEN
  0
BLOCK_RECORD
  5
596
330
1
100
AcDbSymbolTableRecord
100
AcDbBlockTableRecord
  2
*D1
  0
BLOCK_RECORD
  5
5A2
330
1
100
AcDbSymbolTableRecord
100
AcDbBlockTableRecord
  2
*D2
  0
BLOCK_RECORD
  5
5AF
330
1
100
AcDbSymbolTableRecord
100
AcDbBlockTableRecord
  2
*D3
  0
BLOCK_RECORD
  5
5BB
330
1
100
AcDbSymbolTableRecord
100
AcDbBlockTableRecord
  2
*D4
  0
BLOCK_RECORD
  5
5C7
330
1
100
AcDbSymbolTableRecord
100
AcDbBlockTableRecord
  2
*D5
  0
BLOCK_RECORD
  5
5D3
330
1
100
AcDbSymbolTableRecord
100
AcDbBlockTableRecord
  2
*D6
  0
BLOCK_RECORD
  5
5DF
330
1
100
AcDbSymbolTableRecord
100
AcDbBlockTableRecord
  2
*D7
  0
BLOCK_RECORD
  5
5EB
330
1
100
AcDbSymbolTableRecord
100
AcDbBlockTableRecord
  2
*D8
  0
BLOCK_RECORD
  5
5F7
330
1
100
AcDbSymbolTableRecord
100
AcDbBlockTableRecord
  2
*D9
  0
BLOCK_RECORD
  5
605
330
1
100
AcDbSymbolTableRecord
100
AcDbBlockTableRecord
  2
*D10
  0
BLOCK_RECORD
  5
613
330
1
100
AcDbSymbolTableRecord
100
AcDbBlockTableRecord
  2
*D11
  0
BLOCK_RECORD
  5
61F
330
1
100
AcDbSymbolTableRecord
100
AcDbBlockTableRecord
  2
*D12
  0
BLOCK_RECORD
  5
62B
330
1
100
AcDbSymbolTableRecord
100
AcDbBlockTableRecord
  2
*D13
  0
ENDTAB
  0
ENDSEC
  0
SECTION
  2
BLOCKS
  0
BLOCK
  5
1B
330
1A
100
AcDbEntity
  8
0
100
AcDbBlockBegin
  2
*MODEL_SPACE
 70
     0
 10
0.0
 20
0.0
 30
0.0
  3
*MODEL_SPACE
  1

  0
ENDBLK
  5
1C
330
1A
100
AcDbEntity
  8
0
100
AcDbBlockEnd
  0
BLOCK
  5
18
330
17
100
AcDbEntity
 67
     1
  8
0
100
AcDbBlockBegin
  2
*PAPER_SPACE
 70
     0
 10
0.0
 20
0.0
 30
0.0
  3
*PAPER_SPACE
  1

  0
ENDBLK
  5
19
330
17
100
AcDbEntity
 67
     1
  8
0
100
AcDbBlockEnd
  0
BLOCK
  5
6E
330
6D
100
AcDbEntity
  8
0
100
AcDbBlockBegin
  2
_OPEN
 70
     0
 10
0.0
 20
0.0
 30
0.0
  3
_OPEN
  1

  0
LINE
  5
6F
330
6D
100
AcDbEntity
  8
0
  6
BYBLOCK
 62
     0
100
AcDbLine
 10
-1.0
 20
0.1666666666666666
 30
0.0
 11
0.0
 21
0.0
 31
0.0
  0
LINE
  5
70
330
6D
100
AcDbEntity
  8
0
  6
BYBLOCK
 62
     0
100
AcDbLine
 10
0.0
 20
0.0
 30
0.0
 11
-1.0
 21
-0.1666666666666666
 31
0.0
  0
LINE
  5
71
330
6D
100
AcDbEntity
  8
0
  6
BYBLOCK
 62
     0
100
AcDbLine
 10
0.0
 20
0.0
 30
0.0
 11
-1.0
 21
0.0
 31
0.0
  0
ENDBLK
  5
72
330
6D
100
AcDbEntity
  8
0
100
AcDbBlockEnd
  0
BLOCK
  5
6CB
330
596
100
AcDbEntity
  8
0
100
AcDbBlockBegin
  2
*D1
 70
     1
 10
0.0
 20
0.0
 30
0.0
  3
*D1
  1

  0
LINE
  5
6CC
330
596
100
AcDbEntity
  8
0
  6
BYBLOCK
 62
     4
100
AcDbLine
 10
449.779029242978
 20
426.0588036309295
 30
0.0
 11
404.8484515493546
 21
426.0588036309295
 31
0.0
  0
LINE
  5
6CD
330
596
100
AcDbEntity
  8
0
  6
BYBLOCK
 62
     4
100
AcDbLine
 10
552.578529242978
 20
178.0583036309295
 30
0.0
 11
404.8484515493546
 21
178.0583036309295
 31
0.0
  0
LINE
  5
6CE
330
596
100
AcDbEntity
  8
0
  6
BYBLOCK
 62
     4
100
AcDbLine
 10
407.8484515493546
 20
419.0588036309295
 30
0.0
 11
407.8484515493546
 21
185.0583036309295
 31
0.0
  0
INSERT
  5
6CF
330
596
100
AcDbEntity
  8
0
  6
BYBLOCK
 62
     4
100
AcDbBlockReference
  2
_OPEN
 10
407.8484515493546
 20
426.0588036309295
 30
0.0
 41
7.0
 42
7.0
 43
7.0
 50
90.0
  0
INSERT
  5
6D0
330
596
100
AcDbEntity
  8
0
  6
BYBLOCK
 62
     4
100
AcDbBlockReference
  2
_OPEN
 10
407.8484515493546
 20
178.0583036309295
 30
0.0
 41
7.0
 42
7.0
 43
7.0
 50
270.0
  0
MTEXT
  5
6D1
330
596
100
AcDbEntity
  8
0
  6
BYBLOCK
 62
     4
100
AcDbMText
 10
402.8484515493546
 20
302.0585536309295
 30
0.0
 40
6.0
 41
0.0
 71
     5
 72
     1
  1
\A1;248
 11
0.0
 21
1.0
 31
0.0
1001
ACAD
1000
MTEXTBEGIN
1070
    73
1070
     1
1070
    44
1040
1.0
1070
    74
1070
     0
1000
MTEXTEND
1000
MTEXTBEGIN
1070
    73
1070
     1
1070
    44
1040
1.0
1070
    74
1070
     0
1000
MTEXTEND
  0
POINT
  5
6D2
330
596
100
AcDbEntity
  8
DEFPOINTS
  6
BYBLOCK
 62
     0
100
AcDbPoint
 10
455.779029242978
 20
426.0588036309295
 30
0.0
  0
POINT
  5
6D3
330
596
100
AcDbEntity
  8
DEFPOINTS
  6
BYBLOCK
 62
     0
100
AcDbPoint
 10
558.5785292429781
 20
178.0583036309295
 30
0.0
  0
POINT
  5
6D4
330
596
100
AcDbEntity
  8
DEFPOINTS
  6
BYBLOCK
 62
     0
100
AcDbPoint
 10
407.8484515493546
 20
178.0583036309295
 30
0.0
  0
ENDBLK
  5
6D5
330
596
100
AcDbEntity
  8
0
100
AcDbBlockEnd
  0
BLOCK
  5
6D6
330
5A2
100
AcDbEntity
  8
0
100
AcDbBlockBegin
  2
*D2
 70
     1
 10
0.0
 20
0.0
 30
0.0
  3
*D2
  1

  0
LINE
  5
6D7
330
5A2
100
AcDbEntity
  8
0
  6
BYBLOCK
 62
     4
100
AcDbLine
 10
547.8785292429782
 20
191.0583036309296
 30
0.0
 11
425.5824551894325
 21
191.0583036309296
 31
0.0
  0
LINE
  5
6D8
330
5A2
100
AcDbEntity
  8
0
  6
BYBLOCK
 62
     4
100
AcDbLine
 10
428.5824551894324
 20
221.0585036309295
 30
0.0
 11
428.5824551894324
 21
228.0585036309295
 31
0.0
  0
LINE
  5
6D9
330
5A2
100
AcDbEntity
  8
0
  6
BYBLOCK
 62
     4
100
AcDbLine
 10
428.5824551894324
 20
184.0583036309296
 30
0.0
 11
428.5824551894324
 21
177.0583036309296
 31
0.0
  0
LINE
  5
6DA
330
5A2
100
AcDbEntity
  8
0
  6
BYBLOCK
 62
     4
100
AcDbLine
 10
428.5824551894324
 20
214.0585036309295
 30
0.0
 11
428.5824551894324
 21
191.0583036309296
 31
0.0
  0
INSERT
  5
6DB
330
5A2
100
AcDbEntity
  8
0
  6
BYBLOCK
 62
     4
100
AcDbBlockReference
  2
_OPEN
 10
428.5824551894324
 20
214.0585036309295
 30
0.0
 41
7.0
 42
7.0
 43
7.0
 50
270.0
  0
INSERT
  5
6DC
330
5A2
100
AcDbEntity
  8
0
  6
BYBLOCK
 62
     4
100
AcDbBlockReference
  2
_OPEN
 10
428.5824551894324
 20
191.0583036309296
 30
0.0
 41
7.0
 42
7.0
 43
7.0
 50
90.0
  0
MTEXT
  5
6DD
330
5A2
100
AcDbEntity
  8
0
  6
BYBLOCK
 62
     4
100
AcDbMText
 10
423.5824551894324
 20
202.5584036309296
 30
0.0
 40
6.0
 41
0.0
 71
     5
 72
     1
  1
\A1;23
 11
0.0
 21
1.0
 31
0.0
1001
ACAD
1000
MTEXTBEGIN
1070
    73
1070
     1
1070
    44
1040
1.0
1070
    74
1070
     0
1000
MTEXTEND
1000
MTEXTBEGIN
1070
    73
1070
     1
1070
    44
1040
1.0
1070
    74
1070
     0
1000
MTEXTEND
  0
POINT
  5
6DE
330
5A2
100
AcDbEntity
  8
DEFPOINTS
  6
BYBLOCK
 62
     0
100
AcDbPoint
 10
548.7785292429783
 20
214.0585036309295
 30
0.0
  0
POINT
  5
6DF
330
5A2
100
AcDbEntity
  8
DEFPOINTS
  6
BYBLOCK
 62
     0
100
AcDbPoint
 10
553.8785292429783
 20
191.0583036309296
 30
0.0
  0
POINT
  5
6E0
330
5A2
100
AcDbEntity
  8
DEFPOINTS
  6
BYBLOCK
 62
     0
100
AcDbPoint
 10
428.5824551894324
 20
191.0583036309296
 30
0.0
  0
ENDBLK
  5
6E1
330
5A2
100
AcDbEntity
  8
0
100
AcDbBlockEnd
  0
BLOCK
  5
6E2
330
5AF
100
AcDbEntity
  8
0
100
AcDbBlockBegin
  2
*D3
 70
     1
 10
0.0
 20
0.0
 30
0.0
  3
*D3
  1

  0
LINE
  5
6E3
330
5AF
100
AcDbEntity
  8
0
  6
BYBLOCK
 62
     4
100
AcDbLine
 10
449.779029242978
 20
426.0588036309295
 30
0.0
 11
425.5824551894325
 21
426.0588036309295
 31
0.0
  0
LINE
  5
6E4
330
5AF
100
AcDbEntity
  8
0
  6
BYBLOCK
 62
     4
100
AcDbLine
 10
542.7785292429782
 20
214.0585036309295
 30
0.0
 11
425.5824551894325
 21
214.0585036309295
 31
0.0
  0
LINE
  5
6E5
330
5AF
100
AcDbEntity
  8
0
  6
BYBLOCK
 62
     4
100
AcDbLine
 10
428.5824551894324
 20
419.0588036309295
 30
0.0
 11
428.5824551894324
 21
221.0585036309295
 31
0.0
  0
INSERT
  5
6E6
330
5AF
100
AcDbEntity
  8
0
  6
BYBLOCK
 62
     4
100
AcDbBlockReference
  2
_OPEN
 10
428.5824551894324
 20
426.0588036309295
 30
0.0
 41
7.0
 42
7.0
 43
7.0
 50
90.0
  0
INSERT
  5
6E7
330
5AF
100
AcDbEntity
  8
0
  6
BYBLOCK
 62
     4
100
AcDbBlockReference
  2
_OPEN
 10
428.5824551894324
 20
214.0585036309295
 30
0.0
 41
7.0
 42
7.0
 43
7.0
 50
270.0
  0
MTEXT
  5
6E8
330
5AF
100
AcDbEntity
  8
0
  6
BYBLOCK
 62
     4
100
AcDbMText
 10
423.5824551894324
 20
320.0586536309295
 30
0.0
 40
6.0
 41
0.0
 71
     5
 72
     1
  1
\A1;212
 11
0.0
 21
1.0
 31
0.0
1001
ACAD
1000
MTEXTBEGIN
1070
    73
1070
     1
1070
    44
1040
1.0
1070
    74
1070
     0
1000
MTEXTEND
1000
MTEXTBEGIN
1070
    73
1070
     1
1070
    44
1040
1.0
1070
    74
1070
     0
1000
MTEXTEND
  0
POINT
  5
6E9
330
5AF
100
AcDbEntity
  8
DEFPOINTS
  6
BYBLOCK
 62
     0
100
AcDbPoint
 10
455.779029242978
 20
426.0588036309295
 30
0.0
  0
POINT
  5
6EA
330
5AF
100
AcDbEntity
  8
DEFPOINTS
  6
BYBLOCK
 62
     0
100
AcDbPoint
 10
548.7785292429783
 20
214.0585036309295
 30
0.0
  0
POINT
  5
6EB
330
5AF
100
AcDbEntity
  8
DEFPOINTS
  6
BYBLOCK
 62
     0
100
AcDbPoint
 10
428.5824551894324
 20
214.0585036309295
 30
0.0
  0
ENDBLK
  5
6EC
330
5AF
100
AcDbEntity
  8
0
100
AcDbBlockEnd
  0
BLOCK
  5
724
330
5BB
100
AcDbEntity
  8
0
100
AcDbBlockBegin
  2
*D4
 70
     1
 10
0.0
 20
0.0
 30
0.0
  3
*D4
  1

  0
LINE
  5
725
330
5BB
100
AcDbEntity
  8
0
  6
BYBLOCK
 62
     4
100
AcDbLine
 10
275.9842156637804
 20
208.0589036309296
 30
0.0
 11
275.9842156637804
 21
140.3215007830153
 31
0.0
  0
LINE
  5
726
330
5BB
100
AcDbEntity
  8
0
  6
BYBLOCK
 62
     4
100
AcDbLine
 10
197.9842156637802
 20
208.0591036309295
 30
0.0
 11
197.9842156637802
 21
140.3215007830153
 31
0.0
  0
LINE
  5
727
330
5BB
100
AcDbEntity
  8
0
  6
BYBLOCK
 62
     4
100
AcDbLine
 10
268.9842156637804
 20
143.3215007830153
 30
0.0
 11
204.9842156637802
 21
143.3215007830153
 31
0.0
  0
INSERT
  5
728
330
5BB
100
AcDbEntity
  8
0
  6
BYBLOCK
 62
     4
100
AcDbBlockReference
  2
_OPEN
 10
275.9842156637804
 20
143.3215007830153
 30
0.0
 41
7.0
 42
7.0
 43
7.0
  0
INSERT
  5
729
330
5BB
100
AcDbEntity
  8
0
  6
BYBLOCK
 62
     4
100
AcDbBlockReference
  2
_OPEN
 10
197.9842156637802
 20
143.3215007830153
 30
0.0
 41
7.0
 42
7.0
 43
7.0
 50
180.0
  0
MTEXT
  5
72A
330
5BB
100
AcDbEntity
  8
0
  6
BYBLOCK
 62
     4
100
AcDbMText
 10
236.9842156637803
 20
148.3215007830153
 30
0.0
 40
6.0
 41
0.0
 71
     5
 72
     1
  1
\A1;78
1001
ACAD
1000
MTEXTBEGIN
1070
    73
1070
     1
1070
    44
1040
1.0
1070
    74
1070
     0
1000
MTEXTEND
1000
MTEXTBEGIN
1070
    73
1070
     1
1070
    44
1040
1.0
1070
    74
1070
     0
1000
MTEXTEND
  0
POINT
  5
72B
330
5BB
100
AcDbEntity
  8
DEFPOINTS
  6
BYBLOCK
 62
     0
100
AcDbPoint
 10
275.9842156637804
 20
214.0589036309296
 30
0.0
  0
POINT
  5
72C
330
5BB
100
AcDbEntity
  8
DEFPOINTS
  6
BYBLOCK
 62
     0
100
AcDbPoint
 10
197.9842156637802
 20
214.0591036309295
 30
0.0
  0
POINT
  5
72D
330
5BB
100
AcDbEntity
  8
DEFPOINTS
  6
BYBLOCK
 62
     0
100
AcDbPoint
 10
197.9842156637802
 20
143.3215007830153
 30
0.0
  0
ENDBLK
  5
72E
330
5BB
100
AcDbEntity
  8
0
100
AcDbBlockEnd
  0
BLOCK
  5
6ED
330
5C7
100
AcDbEntity
  8
0
100
AcDbBlockBegin
  2
*D5
 70
     1
 10
0.0
 20
0.0
 30
0.0
  3
*D5
  1

  0
LINE
  5
6EE
330
5C7
100
AcDbEntity
  8
0
  6
BYBLOCK
 62
     4
100
AcDbLine
 10
117.9844856637803
 20
432.0594036309295
 30
0.0
 11
117.9844856637803
 21
474.8455625875421
 31
0.0
  0
LINE
  5
6EF
330
5C7
100
AcDbEntity
  8
0
  6
BYBLOCK
 62
     4
100
AcDbLine
 10
355.9845156637803
 20
432.0590036309294
 30
0.0
 11
355.9845156637803
 21
474.8455625875421
 31
0.0
  0
LINE
  5
6F0
330
5C7
100
AcDbEntity
  8
0
  6
BYBLOCK
 62
     4
100
AcDbLine
 10
124.9844856637803
 20
471.8455625875421
 30
0.0
 11
348.9845156637803
 21
471.8455625875421
 31
0.0
  0
INSERT
  5
6F1
330
5C7
100
AcDbEntity
  8
0
  6
BYBLOCK
 62
     4
100
AcDbBlockReference
  2
_OPEN
 10
117.9844856637803
 20
471.8455625875421
 30
0.0
 41
7.0
 42
7.0
 43
7.0
 50
180.0
  0
INSERT
  5
6F2
330
5C7
100
AcDbEntity
  8
0
  6
BYBLOCK
 62
     4
100
AcDbBlockReference
  2
_OPEN
 10
355.9845156637803
 20
471.8455625875421
 30
0.0
 41
7.0
 42
7.0
 43
7.0
  0
MTEXT
  5
6F3
330
5C7
100
AcDbEntity
  8
0
  6
BYBLOCK
 62
     4
100
AcDbMText
 10
236.9845006637803
 20
476.8455625875421
 30
0.0
 40
6.0
 41
0.0
 71
     5
 72
     1
  1
\A1;238
1001
ACAD
1000
MTEXTBEGIN
1070
    73
1070
     1
1070
    44
1040
1.0
1070
    74
1070
     0
1000
MTEXTEND
1000
MTEXTBEGIN
1070
    73
1070
     1
1070
    44
1040
1.0
1070
    74
1070
     0
1000
MTEXTEND
  0
POINT
  5
6F4
330
5C7
100
AcDbEntity
  8
DEFPOINTS
  6
BYBLOCK
 62
     0
100
AcDbPoint
 10
117.9844856637803
 20
426.0594036309296
 30
0.0
  0
POINT
  5
6F5
330
5C7
100
AcDbEntity
  8
DEFPOINTS
  6
BYBLOCK
 62
     0
100
AcDbPoint
 10
355.9845156637803
 20
426.0590036309294
 30
0.0
  0
POINT
  5
6F6
330
5C7
100
AcDbEntity
  8
DEFPOINTS
  6
BYBLOCK
 62
     0
100
AcDbPoint
 10
355.9845156637803
 20
471.8455625875421
 30
0.0
  0
ENDBLK
  5
6F7
330
5C7
100
AcDbEntity
  8
0
100
AcDbBlockEnd
  0
BLOCK
  5
6F8
330
5D3
100
AcDbEntity
  8
0
100
AcDbBlockBegin
  2
*D6
 70
     1
 10
0.0
 20
0.0
 30
0.0
  3
*D6
  1

  0
LINE
  5
6F9
330
5D3
100
AcDbEntity
  8
0
  6
BYBLOCK
 62
     4
100
AcDbLine
 10
206.9844974788489
 20
432.0591044713013
 30
0.0
 11
206.9844974788489
 21
456.5659967400474
 31
0.0
  0
LINE
  5
6FA
330
5D3
100
AcDbEntity
  8
0
  6
BYBLOCK
 62
     4
100
AcDbLine
 10
266.9844974787656
 20
432.0590036309294
 30
0.0
 11
266.9844974787656
 21
456.5659967400474
 31
0.0
  0
LINE
  5
6FB
330
5D3
100
AcDbEntity
  8
0
  6
BYBLOCK
 62
     4
100
AcDbLine
 10
213.9844974788489
 20
453.5659967400474
 30
0.0
 11
259.9844974787656
 21
453.5659967400474
 31
0.0
  0
INSERT
  5
6FC
330
5D3
100
AcDbEntity
  8
0
  6
BYBLOCK
 62
     4
100
AcDbBlockReference
  2
_OPEN
 10
206.9844974788489
 20
453.5659967400474
 30
0.0
 41
7.0
 42
7.0
 43
7.0
 50
180.0
  0
INSERT
  5
6FD
330
5D3
100
AcDbEntity
  8
0
  6
BYBLOCK
 62
     4
100
AcDbBlockReference
  2
_OPEN
 10
266.9844974787656
 20
453.5659967400474
 30
0.0
 41
7.0
 42
7.0
 43
7.0
  0
MTEXT
  5
6FE
330
5D3
100
AcDbEntity
  8
0
  6
BYBLOCK
 62
     4
100
AcDbMText
 10
236.9844974788072
 20
458.5659967400474
 30
0.0
 40
6.0
 41
0.0
 71
     5
 72
     1
  1
\A1;※a60
1001
ACAD
1000
MTEXTBEGIN
1070
    73
1070
     1
1070
    44
1040
1.0
1070
    74
1070
     0
1000
MTEXTEND
1000
MTEXTBEGIN
1070
    73
1070
     1
1070
    44
1040
1.0
1070
    74
1070
     0
1000
MTEXTEND
  0
POINT
  5
6FF
330
5D3
100
AcDbEntity
  8
DEFPOINTS
  6
BYBLOCK
 62
     0
100
AcDbPoint
 10
206.9844974788489
 20
426.0591044713013
 30
0.0
  0
POINT
  5
700
330
5D3
100
AcDbEntity
  8
DEFPOINTS
  6
BYBLOCK
 62
     0
100
AcDbPoint
 10
266.9844974787656
 20
426.0590036309294
 30
0.0
  0
POINT
  5
701
330
5D3
100
AcDbEntity
  8
DEFPOINTS
  6
BYBLOCK
 62
     0
100
AcDbPoint
 10
266.9844974787656
 20
453.5659967400474
 30
0.0
  0
ENDBLK
  5
702
330
5D3
100
AcDbEntity
  8
0
100
AcDbBlockEnd
  0
BLOCK
  5
73A
330
5DF
100
AcDbEntity
  8
0
100
AcDbBlockBegin
  2
*D7
 70
     1
 10
0.0
 20
0.0
 30
0.0
  3
*D7
  1

  0
LINE
  5
73B
330
5DF
100
AcDbEntity
  8
0
  6
BYBLOCK
 62
     4
100
AcDbLine
 10
616.978529242978
 20
172.0582036309295
 30
0.0
 11
616.978529242978
 21
140.4471282958174
 31
0.0
  0
LINE
  5
73C
330
5DF
100
AcDbEntity
  8
0
  6
BYBLOCK
 62
     4
100
AcDbLine
 10
558.5785292429781
 20
172.0583036309295
 30
0.0
 11
558.5785292429781
 21
140.4471282958174
 31
0.0
  0
LINE
  5
73D
330
5DF
100
AcDbEntity
  8
0
  6
BYBLOCK
 62
     4
100
AcDbLine
 10
609.978529242978
 20
143.4471282958174
 30
0.0
 11
565.5785292429781
 21
143.4471282958174
 31
0.0
  0
INSERT
  5
73E
330
5DF
100
AcDbEntity
  8
0
  6
BYBLOCK
 62
     4
100
AcDbBlockReference
  2
_OPEN
 10
616.978529242978
 20
143.4471282958174
 30
0.0
 41
7.0
 42
7.0
 43
7.0
  0
INSERT
  5
73F
330
5DF
100
AcDbEntity
  8
0
  6
BYBLOCK
 62
     4
100
AcDbBlockReference
  2
_OPEN
 10
558.5785292429781
 20
143.4471282958174
 30
0.0
 41
7.0
 42
7.0
 43
7.0
 50
180.0
  0
MTEXT
  5
740
330
5DF
100
AcDbEntity
  8
0
  6
BYBLOCK
 62
     4
100
AcDbMText
 10
587.778529242978
 20
148.4471282958174
 30
0.0
 40
6.0
 41
0.0
 71
     5
 72
     1
  1
\A1;φ58
1001
ACAD
1000
MTEXTBEGIN
1070
    73
1070
     1
1070
    44
1040
1.0
1070
    74
1070
     0
1000
MTEXTEND
1000
MTEXTBEGIN
1070
    73
1070
     1
1070
    44
1040
1.0
1070
    74
1070
     0
1000
MTEXTEND
  0
POINT
  5
741
330
5DF
100
AcDbEntity
  8
DEFPOINTS
  6
BYBLOCK
 62
     0
100
AcDbPoint
 10
616.978529242978
 20
178.0582036309295
 30
0.0
  0
POINT
  5
742
330
5DF
100
AcDbEntity
  8
DEFPOINTS
  6
BYBLOCK
 62
     0
100
AcDbPoint
 10
558.5785292429781
 20
178.0583036309295
 30
0.0
  0
POINT
  5
743
330
5DF
100
AcDbEntity
  8
DEFPOINTS
  6
BYBLOCK
 62
     0
100
AcDbPoint
 10
558.5785292429781
 20
143.4471282958174
 30
0.0
  0
ENDBLK
  5
744
330
5DF
100
AcDbEntity
  8
0
100
AcDbBlockEnd
  0
BLOCK
  5
72F
330
5EB
100
AcDbEntity
  8
0
100
AcDbBlockBegin
  2
*D8
 70
     1
 10
0.0
 20
0.0
 30
0.0
  3
*D8
  1

  0
LINE
  5
730
330
5EB
100
AcDbEntity
  8
0
  6
BYBLOCK
 62
     4
100
AcDbLine
 10
624.6285292429782
 20
188.0583036309296
 30
0.0
 11
624.6285292429782
 21
117.2930108665136
 31
0.0
  0
LINE
  5
731
330
5EB
100
AcDbEntity
  8
0
  6
BYBLOCK
 62
     4
100
AcDbLine
 10
550.9285292429782
 20
188.0584036309296
 30
0.0
 11
550.9285292429782
 21
117.2930108665136
 31
0.0
  0
LINE
  5
732
330
5EB
100
AcDbEntity
  8
0
  6
BYBLOCK
 62
     4
100
AcDbLine
 10
617.6285292429782
 20
120.2930108665136
 30
0.0
 11
557.9285292429782
 21
120.2930108665136
 31
0.0
  0
INSERT
  5
733
330
5EB
100
AcDbEntity
  8
0
  6
BYBLOCK
 62
     4
100
AcDbBlockReference
  2
_OPEN
 10
624.6285292429782
 20
120.2930108665136
 30
0.0
 41
7.0
 42
7.0
 43
7.0
  0
INSERT
  5
734
330
5EB
100
AcDbEntity
  8
0
  6
BYBLOCK
 62
     4
100
AcDbBlockReference
  2
_OPEN
 10
550.9285292429782
 20
120.2930108665136
 30
0.0
 41
7.0
 42
7.0
 43
7.0
 50
180.0
  0
MTEXT
  5
735
330
5EB
100
AcDbEntity
  8
0
  6
BYBLOCK
 62
     4
100
AcDbMText
 10
587.7785292429782
 20
125.2930108665136
 30
0.0
 40
6.0
 41
0.0
 71
     5
 72
     1
  1
\A1;φ74
1001
ACAD
1000
MTEXTBEGIN
1070
    73
1070
     1
1070
    44
1040
1.0
1070
    74
1070
     0
1000
MTEXTEND
1000
MTEXTBEGIN
1070
    73
1070
     1
1070
    44
1040
1.0
1070
    74
1070
     0
1000
MTEXTEND
  0
POINT
  5
736
330
5EB
100
AcDbEntity
  8
DEFPOINTS
  6
BYBLOCK
 62
     0
100
AcDbPoint
 10
624.6285292429782
 20
194.0583036309296
 30
0.0
  0
POINT
  5
737
330
5EB
100
AcDbEntity
  8
DEFPOINTS
  6
BYBLOCK
 62
     0
100
AcDbPoint
 10
550.9285292429782
 20
194.0584036309296
 30
0.0
  0
POINT
  5
738
330
5EB
100
AcDbEntity
  8
DEFPOINTS
  6
BYBLOCK
 62
     0
100
AcDbPoint
 10
550.9285292429782
 20
120.2930108665136
 30
0.0
  0
ENDBLK
  5
739
330
5EB
100
AcDbEntity
  8
0
100
AcDbBlockEnd
  0
BLOCK
  5
690
330
5F7
100
AcDbEntity
  8
0
100
AcDbBlockBegin
  2
*D9
 70
     1
 10
0.0
 20
0.0
 30
0.0
  3
*D9
  1

  0
LINE
  5
691
330
5F7
100
AcDbEntity
  8
0
  6
BYBLOCK
 62
     4
100
AcDbLine
 10
599.4966584059814
 20
207.9777570089586
 30
0.0
 11
643.3640096627994
 21
207.9777570089586
 31
0.0
  0
LINE
  5
692
330
5F7
100
AcDbEntity
  8
0
  6
BYBLOCK
 62
     4
100
AcDbLine
 10
602.4466584059815
 20
219.9777483069459
 30
0.0
 11
643.3640096627994
 21
219.9777483069459
 31
0.0
  0
LINE
  5
693
330
5F7
100
AcDbEntity
  8
0
  6
BYBLOCK
 62
     4
100
AcDbLine
 10
640.3640096627993
 20
200.9777570089585
 30
0.0
 11
640.3640096627993
 21
193.9777570089585
 31
0.0
  0
LINE
  5
694
330
5F7
100
AcDbEntity
  8
0
  6
BYBLOCK
 62
     4
100
AcDbLine
 10
640.3640096627993
 20
226.9777483069459
 30
0.0
 11
640.3640096627993
 21
262.7777483069459
 31
0.0
  0
LINE
  5
695
330
5F7
100
AcDbEntity
  8
0
  6
BYBLOCK
 62
     4
100
AcDbLine
 10
640.3640096627993
 20
207.9777570089586
 30
0.0
 11
640.3640096627993
 21
219.9777483069459
 31
0.0
  0
INSERT
  5
696
330
5F7
100
AcDbEntity
  8
0
  6
BYBLOCK
 62
     4
100
AcDbBlockReference
  2
_OPEN
 10
640.3640096627993
 20
207.9777570089586
 30
0.0
 41
7.0
 42
7.0
 43
7.0
 50
90.0
  0
INSERT
  5
697
330
5F7
100
AcDbEntity
  8
0
  6
BYBLOCK
 62
     4
100
AcDbBlockReference
  2
_OPEN
 10
640.3640096627993
 20
219.9777483069459
 30
0.0
 41
7.0
 42
7.0
 43
7.0
 50
270.0
  0
MTEXT
  5
698
330
5F7
100
AcDbEntity
  8
0
  6
BYBLOCK
 62
     4
100
AcDbMText
 10
635.3640096627994
 20
248.3777483069459
 30
0.0
 40
6.0
 41
0.0
 71
     5
 72
     1
  1
\A1;※b 12
 11
0.0
 21
1.0
 31
0.0
1001
ACAD
1000
MTEXTBEGIN
1070
    73
1070
     1
1070
    44
1040
1.0
1070
    74
1070
     0
1000
MTEXTEND
1000
MTEXTBEGIN
1070
    73
1070
     1
1070
    44
1040
1.0
1070
    74
1070
     0
1000
MTEXTEND
  0
POINT
  5
699
330
5F7
100
AcDbEntity
  8
DEFPOINTS
  6
BYBLOCK
 62
     0
100
AcDbPoint
 10
593.4966584059814
 20
207.9777570089586
 30
0.0
  0
POINT
  5
69A
330
5F7
100
AcDbEntity
  8
DEFPOINTS
  6
BYBLOCK
 62
     0
100
AcDbPoint
 10
596.4466584059815
 20
219.9777483069459
 30
0.0
  0
POINT
  5
69B
330
5F7
100
AcDbEntity
  8
DEFPOINTS
  6
BYBLOCK
 62
     0
100
AcDbPoint
 10
640.3640096627993
 20
219.9777483069459
 30
0.0
  0
ENDBLK
  5
69C
330
5F7
100
AcDbEntity
  8
0
100
AcDbBlockEnd
  0
BLOCK
  5
69D
330
605
100
AcDbEntity
  8
0
100
AcDbBlockBegin
  2
*D10
 70
     1
 10
0.0
 20
0.0
 30
0.0
  3
*D10
  1

  0
LINE
  5
69E
330
605
100
AcDbEntity
  8
0
  6
BYBLOCK
 62
     4
100
AcDbLine
 10
554.3469584059815
 20
291.6779570089587
 30
0.0
 11
554.3469584059815
 21
279.0375817945205
 31
0.0
  0
LINE
  5
69F
330
605
100
AcDbEntity
  8
0
  6
BYBLOCK
 62
     4
100
AcDbLine
 10
559.5966584059815
 20
246.9316570089585
 30
0.0
 11
559.5966584059815
 21
285.0375817945205
 31
0.0
  0
LINE
  5
6A0
330
605
100
AcDbEntity
  8
0
  6
BYBLOCK
 62
     4
100
AcDbLine
 10
547.3469584059816
 20
282.0375817945205
 30
0.0
 11
540.3469584059815
 21
282.0375817945205
 31
0.0
  0
LINE
  5
6A1
330
605
100
AcDbEntity
  8
0
  6
BYBLOCK
 62
     4
100
AcDbLine
 10
566.5966584059815
 20
282.0375817945205
 30
0.0
 11
581.5966584059815
 21
282.0375817945205
 31
0.0
  0
LINE
  5
6A2
330
605
100
AcDbEntity
  8
0
  6
BYBLOCK
 62
     4
100
AcDbLine
 10
554.3469584059815
 20
282.0375817945205
 30
0.0
 11
559.5966584059815
 21
282.0375817945205
 31
0.0
  0
INSERT
  5
6A3
330
605
100
AcDbEntity
  8
0
  6
BYBLOCK
 62
     4
100
AcDbBlockReference
  2
_OPEN
 10
554.3469584059815
 20
282.0375817945205
 30
0.0
 41
7.0
 42
7.0
 43
7.0
  0
INSERT
  5
6A4
330
605
100
AcDbEntity
  8
0
  6
BYBLOCK
 62
     4
100
AcDbBlockReference
  2
_OPEN
 10
559.5966584059815
 20
282.0375817945205
 30
0.0
 41
7.0
 42
7.0
 43
7.0
 50
180.0
  0
MTEXT
  5
6A5
330
605
100
AcDbEntity
  8
0
  6
BYBLOCK
 62
     4
100
AcDbMText
 10
577.5966584059815
 20
287.0375817945205
 30
0.0
 40
6.0
 41
0.0
 71
     5
 72
     1
  1
\A1;5
1001
ACAD
1000
MTEXTBEGIN
1070
    73
1070
     1
1070
    44
1040
1.0
1070
    74
1070
     0
1000
MTEXTEND
1000
MTEXTBEGIN
1070
    73
1070
     1
1070
    44
1040
1.0
1070
    74
1070
     0
1000
MTEXTEND
  0
POINT
  5
6A6
330
605
100
AcDbEntity
  8
DEFPOINTS
  6
BYBLOCK
 62
     0
100
AcDbPoint
 10
554.3469584059815
 20
297.6779570089586
 30
0.0
  0
POINT
  5
6A7
330
605
100
AcDbEntity
  8
DEFPOINTS
  6
BYBLOCK
 62
     0
100
AcDbPoint
 10
559.5966584059815
 20
240.9316570089585
 30
0.0
  0
POINT
  5
6A8
330
605
100
AcDbEntity
  8
DEFPOINTS
  6
BYBLOCK
 62
     0
100
AcDbPoint
 10
559.5966584059815
 20
282.0375817945205
 30
0.0
  0
ENDBLK
  5
6A9
330
605
100
AcDbEntity
  8
0
100
AcDbBlockEnd
  0
BLOCK
  5
703
330
613
100
AcDbEntity
  8
0
100
AcDbBlockBegin
  2
*D11
 70
     1
 10
0.0
 20
0.0
 30
0.0
  3
*D11
  1

  0
LINE
  5
704
330
613
100
AcDbEntity
  8
0
  6
BYBLOCK
 62
     4
100
AcDbLine
 10
645.7789292429782
 20
372.0582036309296
 30
0.0
 11
645.7789292429782
 21
475.0753458538378
 31
0.0
  0
LINE
  5
705
330
613
100
AcDbEntity
  8
0
  6
BYBLOCK
 62
     4
100
AcDbLine
 10
455.779029242978
 20
432.0588036309294
 30
0.0
 11
455.779029242978
 21
475.0753458538378
 31
0.0
  0
LINE
  5
706
330
613
100
AcDbEntity
  8
0
  6
BYBLOCK
 62
     4
100
AcDbLine
 10
638.7789292429783
 20
472.0753458538379
 30
0.0
 11
462.779029242978
 21
472.0753458538379
 31
0.0
  0
INSERT
  5
707
330
613
100
AcDbEntity
  8
0
  6
BYBLOCK
 62
     4
100
AcDbBlockReference
  2
_OPEN
 10
645.7789292429782
 20
472.0753458538379
 30
0.0
 41
7.0
 42
7.0
 43
7.0
  0
INSERT
  5
708
330
613
100
AcDbEntity
  8
0
  6
BYBLOCK
 62
     4
100
AcDbBlockReference
  2
_OPEN
 10
455.779029242978
 20
472.0753458538379
 30
0.0
 41
7.0
 42
7.0
 43
7.0
 50
180.0
  0
MTEXT
  5
709
330
613
100
AcDbEntity
  8
0
  6
BYBLOCK
 62
     4
100
AcDbMText
 10
550.7789792429782
 20
477.0753458538378
 30
0.0
 40
6.0
 41
0.0
 71
     5
 72
     1
  1
\A1;190
1001
ACAD
1000
MTEXTBEGIN
1070
    73
1070
     1
1070
    44
1040
1.0
1070
    74
1070
     0
1000
MTEXTEND
1000
MTEXTBEGIN
1070
    73
1070
     1
1070
    44
1040
1.0
1070
    74
1070
     0
1000
MTEXTEND
  0
POINT
  5
70A
330
613
100
AcDbEntity
  8
DEFPOINTS
  6
BYBLOCK
 62
     0
100
AcDbPoint
 10
645.7789292429782
 20
366.0582036309296
 30
0.0
  0
POINT
  5
70B
330
613
100
AcDbEntity
  8
DEFPOINTS
  6
BYBLOCK
 62
     0
100
AcDbPoint
 10
455.779029242978
 20
426.0588036309295
 30
0.0
  0
POINT
  5
70C
330
613
100
AcDbEntity
  8
DEFPOINTS
  6
BYBLOCK
 62
     0
100
AcDbPoint
 10
455.779029242978
 20
472.0753458538379
 30
0.0
  0
ENDBLK
  5
70D
330
613
100
AcDbEntity
  8
0
100
AcDbBlockEnd
  0
BLOCK
  5
70E
330
61F
100
AcDbEntity
  8
0
100
AcDbBlockBegin
  2
*D12
 70
     1
 10
0.0
 20
0.0
 30
0.0
  3
*D12
  1

  0
LINE
  5
70F
330
61F
100
AcDbEntity
  8
0
  6
BYBLOCK
 62
     4
100
AcDbLine
 10
645.7789292429782
 20
372.0582036309296
 30
0.0
 11
645.7789292429782
 21
456.8298601481123
 31
0.0
  0
LINE
  5
710
330
61F
100
AcDbEntity
  8
0
  6
BYBLOCK
 62
     4
100
AcDbLine
 10
582.5288292429783
 20
346.7122036309296
 30
0.0
 11
582.5288292429783
 21
456.8298601481123
 31
0.0
  0
LINE
  5
711
330
61F
100
AcDbEntity
  8
0
  6
BYBLOCK
 62
     4
100
AcDbLine
 10
638.7789292429783
 20
453.8298601481123
 30
0.0
 11
589.5288292429783
 21
453.8298601481123
 31
0.0
  0
INSERT
  5
712
330
61F
100
AcDbEntity
  8
0
  6
BYBLOCK
 62
     4
100
AcDbBlockReference
  2
_OPEN
 10
645.7789292429782
 20
453.8298601481123
 30
0.0
 41
7.0
 42
7.0
 43
7.0
  0
INSERT
  5
713
330
61F
100
AcDbEntity
  8
0
  6
BYBLOCK
 62
     4
100
AcDbBlockReference
  2
_OPEN
 10
582.5288292429783
 20
453.8298601481123
 30
0.0
 41
7.0
 42
7.0
 43
7.0
 50
180.0
  0
MTEXT
  5
714
330
61F
100
AcDbEntity
  8
0
  6
BYBLOCK
 62
     4
100
AcDbMText
 10
614.1538792429782
 20
458.8298601481123
 30
0.0
 40
6.0
 41
0.0
 71
     5
 72
     1
  1
\A1;63
1001
ACAD
1000
MTEXTBEGIN
1070
    73
1070
     1
1070
    44
1040
1.0
1070
    74
1070
     0
1000
MTEXTEND
1000
MTEXTBEGIN
1070
    73
1070
     1
1070
    44
1040
1.0
1070
    74
1070
     0
1000
MTEXTEND
  0
POINT
  5
715
330
61F
100
AcDbEntity
  8
DEFPOINTS
  6
BYBLOCK
 62
     0
100
AcDbPoint
 10
645.7789292429782
 20
366.0582036309296
 30
0.0
  0
POINT
  5
716
330
61F
100
AcDbEntity
  8
DEFPOINTS
  6
BYBLOCK
 62
     0
100
AcDbPoint
 10
582.5288292429783
 20
340.7122036309296
 30
0.0
  0
POINT
  5
717
330
61F
100
AcDbEntity
  8
DEFPOINTS
  6
BYBLOCK
 62
     0
100
AcDbPoint
 10
582.5288292429783
 20
453.8298601481123
 30
0.0
  0
ENDBLK
  5
718
330
61F
100
AcDbEntity
  8
0
100
AcDbBlockEnd
  0
BLOCK
  5
719
330
62B
100
AcDbEntity
  8
0
100
AcDbBlockBegin
  2
*D13
 70
     1
 10
0.0
 20
0.0
 30
0.0
  3
*D13
  1

  0
LINE
  5
71A
330
62B
100
AcDbEntity
  8
0
  6
BYBLOCK
 62
     4
100
AcDbLine
 10
651.7789292429783
 20
366.0582036309296
 30
0.0
 11
673.507788745475
 21
366.0582036309296
 31
0.0
  0
LINE
  5
71B
330
62B
100
AcDbEntity
  8
0
  6
BYBLOCK
 62
     4
100
AcDbLine
 10
588.5288292429783
 20
307.7584036309296
 30
0.0
 11
673.507788745475
 21
307.7584036309296
 31
0.0
  0
LINE
  5
71C
330
62B
100
AcDbEntity
  8
0
  6
BYBLOCK
 62
     4
100
AcDbLine
 10
670.5077887454749
 20
359.0582036309296
 30
0.0
 11
670.5077887454749
 21
314.7584036309296
 31
0.0
  0
INSERT
  5
71D
330
62B
100
AcDbEntity
  8
0
  6
BYBLOCK
 62
     4
100
AcDbBlockReference
  2
_OPEN
 10
670.5077887454749
 20
366.0582036309296
 30
0.0
 41
7.0
 42
7.0
 43
7.0
 50
90.0
  0
INSERT
  5
71E
330
62B
100
AcDbEntity
  8
0
  6
BYBLOCK
 62
     4
100
AcDbBlockReference
  2
_OPEN
 10
670.5077887454749
 20
307.7584036309296
 30
0.0
 41
7.0
 42
7.0
 43
7.0
 50
270.0
  0
MTEXT
  5
71F
330
62B
100
AcDbEntity
  8
0
  6
BYBLOCK
 62
     4
100
AcDbMText
 10
665.507788745475
 20
336.9083036309296
 30
0.0
 40
6.0
 41
0.0
 71
     5
 72
     1
  1
\A1;58
 11
0.0
 21
1.0
 31
0.0
1001
ACAD
1000
MTEXTBEGIN
1070
    73
1070
     1
1070
    44
1040
1.0
1070
    74
1070
     0
1000
MTEXTEND
1000
MTEXTBEGIN
1070
    73
1070
     1
1070
    44
1040
1.0
1070
    74
1070
     0
1000
MTEXTEND
  0
POINT
  5
720
330
62B
100
AcDbEntity
  8
DEFPOINTS
  6
BYBLOCK
 62
     0
100
AcDbPoint
 10
645.7789292429782
 20
366.0582036309296
 30
0.0
  0
POINT
  5
721
330
62B
100
AcDbEntity
  8
DEFPOINTS
  6
BYBLOCK
 62
     0
100
AcDbPoint
 10
582.5288292429783
 20
307.7584036309296
 30
0.0
  0
POINT
  5
722
330
62B
100
AcDbEntity
  8
DEFPOINTS
  6
BYBLOCK
 62
     0
100
AcDbPoint
 10
670.5077887454749
 20
307.7584036309296
 30
0.0
  0
ENDBLK
  5
723
330
62B
100
AcDbEntity
  8
0
100
AcDbBlockEnd
  0
ENDSEC
  0
SECTION
  2
ENTITIES
  0
TEXT
  5
11A
330
1A
100
AcDbEntity
  8
ZUWAKU
 62
     7
 48
10.0
100
AcDbText
 10
795.5579444309237
 20
4.974918402528146
 30
0.0
 40
8.0
  1
A1
100
AcDbText
  0
LINE
  5
11B
330
1A
100
AcDbEntity
  8
ZUWAKU
 62
     7
 48
10.0
100
AcDbLine
 10
10.05047808566086
 20
25.78258628282265
 30
0.0
 11
806.0504780856609
 21
25.78258628282253
 31
0.0
  0
LINE
  5
11C
330
1A
100
AcDbEntity
  8
ZUWAKU
  6
CONTINUOUS
 62
     7
100
AcDbLine
 10
806.0504780856609
 20
563.7825862828226
 30
0.0
 11
10.05047808566086
 21
563.7825862828226
 31
0.0
  0
LINE
  5
11D
330
1A
100
AcDbEntity
  8
ZUWAKU
  6
CONTINUOUS
 62
     7
100
AcDbLine
 10
806.0504780856609
 20
13.78258628282265
 30
0.0
 11
10.05047808566086
 21
13.78258628282265
 31
0.0
  0
LINE
  5
11E
330
1A
100
AcDbEntity
  8
ZUWAKU
  6
CONTINUOUS
 62
     7
100
AcDbLine
 10
10.05047808566086
 20
563.7825862828226
 30
0.0
 11
10.05047808566086
 21
13.78258628282265
 31
0.0
  0
LINE
  5
11F
330
1A
100
AcDbEntity
  8
ZUWAKU
 62
     7
 48
10.0
100
AcDbLine
 10
44.55797523147839
 20
13.78258628282265
 30
0.0
 11
44.5579752314784
 21
25.78258628282265
 31
0.0
  0
TEXT
  5
120
330
1A
100
AcDbEntity
  8
ZUWAKU
 62
     7
100
AcDbText
 10
16.05676551180931
 20
15.52294263804401
 30
0.0
 40
8.0
  1
品 種
100
AcDbText
  0
LINE
  5
121
330
1A
100
AcDbEntity
  8
ZUWAKU
 62
     7
 48
10.0
100
AcDbLine
 10
276.1028387068254
 20
13.78258628282265
 30
0.0
 11
276.1028387068254
 21
25.78258628282261
 31
0.0
  0
LINE
  5
122
330
1A
100
AcDbEntity
  8
ZUWAKU
 62
     7
 48
10.0
100
AcDbLine
 10
209.5138526425484
 20
13.78258628282265
 30
0.0
 11
209.5138526425485
 21
25.78258628282263
 31
0.0
  0
TEXT
  5
123
330
1A
100
AcDbEntity
  8
ZUWAKU
 62
     7
100
AcDbText
 10
282.3131429914078
 20
15.64241700452384
 30
0.0
 40
8.0
  1
飾りじょうご　型　１０５－ＵＴ６０
100
AcDbText
  0
TEXT
  5
124
330
1A
100
AcDbEntity
  8
ZUWAKU
 62
     7
100
AcDbText
 10
215.4560837190756
 20
16.18358115302453
 30
0.0
 40
8.0
  1
品名・ｻ ｲ ｽﾞ
100
AcDbText
  0
TEXT
  5
125
330
1A
100
AcDbEntity
  8
ZUWAKU
 62
     7
100
AcDbText
 10
50.3519382305086
 20
16.10306189639755
 30
0.0
 40
8.0
  1
丸トップ　のきとい
100
AcDbText
  0
LINE
  5
126
330
1A
100
AcDbEntity
  8
ZUWAKU
 62
     7
 48
10.0
100
AcDbLine
 10
768.7231079932794
 20
13.78258628282237
 30
0.0
 11
768.7231079932794
 21
25.78258628282254
 31
0.0
  0
LINE
  5
127
330
1A
100
AcDbEntity
  8
ZUWAKU
 62
     7
 48
10.0
100
AcDbLine
 10
733.8119002376948
 20
13.78258628282242
 30
0.0
 11
733.8119002376946
 21
25.78258628282254
 31
0.0
  0
TEXT
  5
128
330
1A
100
AcDbEntity
  8
ZUWAKU
 62
     7
100
AcDbText
 10
739.6955629973526
 20
15.24227755810852
 30
0.0
 40
8.0
  1
尺 度
100
AcDbText
  0
TEXT
  5
129
330
1A
100
AcDbEntity
  8
ZUWAKU
 62
     7
100
AcDbText
 10
779.7374630323229
 20
15.55488920081529
 30
0.0
 40
8.0
  1
1/2
100
AcDbText
  0
TEXT
  5
12A
330
1A
100
AcDbEntity
  8
ZUWAKU
 62
     7
100
AcDbText
 10
654.2531733678779
 20
15.90287984531518
 30
0.0
 40
8.0
  1
ＧＨ９１
100
AcDbText
  0
TEXT
  5
12B
330
1A
100
AcDbEntity
  8
ZUWAKU
 62
     7
100
AcDbText
 10
620.3363288383084
 20
15.6519090944263
 30
0.0
 40
8.0
  1
品 番
100
AcDbText
  0
LINE
  5
12C
330
1A
100
AcDbEntity
  8
ZUWAKU
 62
     7
 48
10.0
100
AcDbLine
 10
614.3351028194128
 20
13.78258628282232
 30
0.0
 11
614.3351028194128
 21
25.78258628282256
 31
0.0
  0
LINE
  5
12D
330
1A
100
AcDbEntity
  8
ZUWAKU
 62
     7
 48
10.0
100
AcDbLine
 10
648.7607587371021
 20
13.78258628282232
 30
0.0
 11
648.7607587371021
 21
25.78258628282255
 31
0.0
  0
TEXT
  5
12E
330
1A
100
AcDbEntity
  8
ZUWAKU
 62
     7
 48
10.0
100
AcDbText
 10
646.2758615931216
 20
4.949376903717848
 30
0.0
 40
8.0
  1
積水化学工業株式会社  建材
100
AcDbText
  0
LINE
  5
12F
330
1A
100
AcDbEntity
  8
ZUWAKU
  6
CONTINUOUS
 62
     7
100
AcDbLine
 10
806.0504780856609
 20
563.7825862828226
 30
0.0
 11
806.0504780856609
 21
13.78258628282265
 31
0.0
  0
DIMENSION
  5
3CC
330
1A
100
AcDbEntity
  8
SUNPOU
  6
CONTINUOUS
100
AcDbDimension
  2
*D1
 10
416.9496643836796
 20
173.5114641420699
 30
0.0
 11
411.9496643836796
 21
297.5117141420698
 31
0.0
 12
9.101212834324996
 22
-4.546839488859632
 32
0.0
 70
    32
  3
STANDARD
100
AcDbAlignedDimension
 13
464.880242077303
 23
421.5119641420698
 33
0.0
 14
567.6797420773031
 24
173.5114641420699
 34
0.0
 50
90.0
100
AcDbRotatedDimension
1001
ACAD
1000
DSTYLE
1002
{
1070
   140
1040
6.0
1070
    74
1070
     0
1070
   172
1070
     1
1070
    73
1070
     0
1070
   272
1070
     2
1070
    77
1070
     3
1070
   173
1070
     1
1070
   147
1040
2.0
1070
    42
1040
6.0
1070
    44
1040
3.0
1070
    43
1040
14.0
1070
   271
1070
     0
1070
   178
1070
     4
1070
   177
1070
     4
1070
   176
1070
     4
1070
   141
1040
150.0
1070
     7
1000
_OPEN
1070
     6
1000
_OPEN
1070
    41
1040
7.0
1002
}
  0
DIMENSION
  5
3CD
330
1A
100
AcDbEntity
  8
SUNPOU
  6
CONTINUOUS
100
AcDbDimension
  2
*D2
 10
437.6836680237574
 20
186.51146414207
 30
0.0
 11
432.6836680237574
 21
198.0115641420699
 31
0.0
 12
9.101212834324996
 22
-4.546839488859632
 32
0.0
 70
    32
  3
STANDARD
100
AcDbAlignedDimension
 13
557.8797420773033
 23
209.5116641420699
 33
0.0
 14
562.9797420773033
 24
186.51146414207
 34
0.0
 50
90.0
100
AcDbRotatedDimension
1001
ACAD
1000
DSTYLE
1002
{
1070
   140
1040
6.0
1070
    74
1070
     0
1070
   172
1070
     1
1070
    73
1070
     0
1070
   272
1070
     2
1070
    77
1070
     3
1070
    75
1070
     1
1070
   173
1070
     1
1070
   147
1040
2.0
1070
    42
1040
6.0
1070
    44
1040
3.0
1070
    43
1040
14.0
1070
   271
1070
     0
1070
   178
1070
     4
1070
   177
1070
     4
1070
   176
1070
     4
1070
   141
1040
150.0
1070
     7
1000
_OPEN
1070
     6
1000
_OPEN
1070
    41
1040
7.0
1002
}
  0
DIMENSION
  5
3CE
330
1A
100
AcDbEntity
  8
SUNPOU
  6
CONTINUOUS
100
AcDbDimension
  2
*D3
 10
437.6836680237574
 20
209.5116641420699
 30
0.0
 11
432.6836680237574
 21
315.5118141420699
 31
0.0
 12
9.101212834324996
 22
-4.546839488859632
 32
0.0
 70
    32
  3
STANDARD
100
AcDbAlignedDimension
 13
464.880242077303
 23
421.5119641420698
 33
0.0
 14
557.8797420773033
 24
209.5116641420699
 34
0.0
 50
90.0
100
AcDbRotatedDimension
1001
ACAD
1000
DSTYLE
1002
{
1070
   140
1040
6.0
1070
    74
1070
     0
1070
   172
1070
     1
1070
    73
1070
     0
1070
   272
1070
     2
1070
    77
1070
     3
1070
   173
1070
     1
1070
   147
1040
2.0
1070
    42
1040
6.0
1070
    44
1040
3.0
1070
    43
1040
14.0
1070
   271
1070
     0
1070
   178
1070
     4
1070
   177
1070
     4
1070
   176
1070
     4
1070
   141
1040
150.0
1070
     7
1000
_OPEN
1070
     6
1000
_OPEN
1070
    41
1040
7.0
1002
}
  0
LINE
  5
3CF
330
1A
100
AcDbEntity
  8
SEIHIN
  6
CONTINUOUS
 62
     3
 48
16.0
100
AcDbLine
 10
282.0851284981052
 20
286.7281641420699
 30
0.0
 11
282.0851284981052
 21
294.8106641420698
 31
0.0
  0
ARC
  5
3D0
330
1A
100
AcDbEntity
  8
SEIHIN
  6
CONTINUOUS
 62
     3
 48
16.0
100
AcDbCircle
 10
279.4558778361997
 20
295.51212155571
 30
0.0
 40
15.00000634571773
100
AcDbArc
 50
275.5670189577584
 51
344.5341655325993
  0
ARC
  5
3D1
330
1A
100
AcDbEntity
  8
SEIHIN
  6
CONTINUOUS
 62
     3
 48
16.0
100
AcDbCircle
 10
277.2846106600765
 20
296.6500492647242
 30
0.0
 40
14.00003209264746
100
AcDbArc
 50
273.3164779131985
 51
346.3415158814427
  0
LINE
  5
3D2
330
1A
100
AcDbEntity
  8
SEIHIN
  6
CONTINUOUS
 62
     3
 48
16.0
100
AcDbLine
 10
262.0851284981053
 20
286.7281641420699
 30
0.0
 11
262.0851284981053
 21
294.81076414207
 31
0.0
  0
LINE
  5
3D3
330
1A
100
AcDbEntity
  8
SEIHIN
  6
CONTINUOUS
 62
     3
 48
16.0
100
AcDbLine
 10
269.0854284981053
 20
294.2335641420699
 30
0.0
 11
262.0851284981053
 21
290.1918641420699
 31
0.0
  0
LINE
  5
3D4
330
1A
100
AcDbEntity
  8
SEIHIN
  6
CONTINUOUS
 62
     3
 48
16.0
100
AcDbLine
 10
262.0851284981053
 20
290.1919641420698
 30
0.0
 11
269.0854284981053
 21
294.2335641420699
 31
0.0
  0
LINE
  5
3D5
330
1A
100
AcDbEntity
  8
SEIHIN
  6
CONTINUOUS
 62
     3
 48
16.0
100
AcDbLine
 10
256.0857284981053
 20
286.7281641420699
 30
0.0
 11
256.0857284981053
 21
294.81076414207
 31
0.0
  0
LINE
  5
3D6
330
1A
100
AcDbEntity
  8
SEIHIN
  6
CONTINUOUS
 62
     3
 48
16.0
100
AcDbLine
 10
249.0854284981053
 20
294.2335641420699
 30
0.0
 11
256.0857284981053
 21
290.1919641420698
 31
0.0
  0
ARC
  5
3D7
330
1A
100
AcDbEntity
  8
SEIHIN
  6
CONTINUOUS
 62
     3
 48
16.0
100
AcDbCircle
 10
275.0685241278655
 20
297.7879605993766
 30
0.0
 40
12.99999645730741
100
AcDbArc
 50
270.0000192612586
 51
348.0592667555338
  0
LINE
  5
3D8
330
1A
100
AcDbEntity
  8
SEIHIN
  6
CONTINUOUS
 62
     3
 48
16.0
100
AcDbLine
 10
275.0847284981054
 20
294.2335641420699
 30
0.0
 11
282.0851284981052
 21
290.1918641420699
 31
0.0
  0
ARC
  5
3D9
330
1A
100
AcDbEntity
  8
SEIHIN
  6
CONTINUOUS
 62
     3
 48
16.0
100
AcDbCircle
 10
8.716379889775168
 20
318.954874780152
 30
0.0
 40
299.9999887159285
100
AcDbArc
 50
348.8098498882061
 51
356.2839773269665
  0
ARC
  5
3DA
330
1A
100
AcDbEntity
  8
SEIHIN
  6
CONTINUOUS
 62
     3
 48
16.0
100
AcDbCircle
 10
7.716290271942284
 20
318.9541805849395
 30
0.0
 40
299.9999398455678
100
AcDbArc
 50
349.007251318897
 51
356.2840904428103
  0
LINE
  5
3DB
330
1A
100
AcDbEntity
  8
SEIHIN
  6
CONTINUOUS
 62
     3
 48
16.0
100
AcDbLine
 10
236.0852284981052
 20
286.7282641420698
 30
0.0
 11
236.0852284981052
 21
294.8108641420698
 31
0.0
  0
LINE
  5
3DC
330
1A
100
AcDbEntity
  8
SEIHIN
  6
CONTINUOUS
 62
     3
 48
16.0
100
AcDbLine
 10
230.0859284981053
 20
286.7282641420698
 30
0.0
 11
230.0859284981053
 21
294.8108641420698
 31
0.0
  0
LINE
  5
3DD
330
1A
100
AcDbEntity
  8
SEIHIN
  6
CONTINUOUS
 62
     3
 48
16.0
100
AcDbLine
 10
217.0863284981052
 20
294.2336641420698
 30
0.0
 11
210.0859284981053
 21
290.1919641420698
 31
0.0
  0
LINE
  5
3DE
330
1A
100
AcDbEntity
  8
SEIHIN
  6
CONTINUOUS
 62
     3
 48
16.0
100
AcDbLine
 10
210.0859284981053
 20
286.7282641420698
 30
0.0
 11
210.0859284981053
 21
294.8108641420698
 31
0.0
  0
LINE
  5
3DF
330
1A
100
AcDbEntity
  8
SEIHIN
  6
CONTINUOUS
 62
     3
 48
16.0
100
AcDbLine
 10
223.0856284981053
 20
294.2336641420698
 30
0.0
 11
230.0859284981053
 21
290.1919641420698
 31
0.0
  0
LINE
  5
3E0
330
1A
100
AcDbEntity
  8
SEIHIN
  6
CONTINUOUS
 62
     3
 48
16.0
100
AcDbLine
 10
230.0859284981053
 20
290.19206414207
 30
0.0
 11
223.0856284981053
 21
294.2336641420698
 31
0.0
  0
ARC
  5
3E1
330
1A
100
AcDbEntity
  8
SEIHIN
  6
CONTINUOUS
 62
     3
 48
16.0
100
AcDbCircle
 10
217.1025456295076
 20
297.788050254555
 30
0.0
 40
12.99998611249634
100
AcDbArc
 50
191.9402458001995
 51
269.9999244955308
  0
ARC
  5
3E2
330
1A
100
AcDbEntity
  8
SEIHIN
  6
CONTINUOUS
 62
     3
 48
16.0
100
AcDbCircle
 10
212.715120564423
 20
295.5122708111744
 30
0.0
 40
15.0000593855505
100
AcDbArc
 50
195.4659736224524
 51
264.4328418871893
  0
ARC
  5
3E3
330
1A
100
AcDbEntity
  8
SEIHIN
  6
CONTINUOUS
 62
     3
 48
16.0
100
AcDbCircle
 10
214.8864008819861
 20
296.6501871749177
 30
0.0
 40
13.99997326248796
100
AcDbArc
 50
193.6582811247014
 51
266.6832845279536
  0
ARC
  5
3E4
330
1A
100
AcDbEntity
  8
SEIHIN
  6
CONTINUOUS
 62
     3
 48
16.0
100
AcDbCircle
 10
483.4548671544048
 20
318.9538686395098
 30
0.0
 40
299.9999809633289
100
AcDbArc
 50
183.7157345115003
 51
191.1898571784961
  0
ARC
  5
3E5
330
1A
100
AcDbEntity
  8
SEIHIN
  6
CONTINUOUS
 62
     3
 48
16.0
100
AcDbCircle
 10
484.4548384710572
 20
318.9540868721678
 30
0.0
 40
299.9999924063193
100
AcDbArc
 50
183.7158526920525
 51
190.9927284988005
  0
LINE
  5
3E6
330
1A
100
AcDbEntity
  8
SEIHIN
  6
CONTINUOUS
 62
     3
 48
16.0
100
AcDbLine
 10
243.0856284981053
 20
294.2336641420698
 30
0.0
 11
236.0852284981052
 21
290.1919641420698
 31
0.0
  0
ARC
  5
3E7
330
1A
100
AcDbEntity
  8
SEIHIN
  6
CONTINUOUS
 62
     3
 48
16.0
100
AcDbCircle
 10
18.71624433207762
 20
318.9539775285735
 30
0.0
 40
299.9999725289602
100
AcDbArc
 50
347.1385984295699
 51
356.2841297108216
  0
ARC
  5
3E8
330
1A
100
AcDbEntity
  8
SEIHIN
  6
CONTINUOUS
 62
     3
 48
16.0
100
AcDbCircle
 10
473.4548665089806
 20
318.9540032252171
 30
0.0
 40
300.0000084834896
100
AcDbArc
 50
183.7158173447654
 51
192.8613854465015
  0
LINE
  5
3E9
330
1A
100
AcDbEntity
  8
CENTER_L
  6
CENTER
 62
     1
 48
5.0
100
AcDbLine
 10
246.0857284981053
 20
433.9285641420699
 30
0.0
 11
246.0853284981053
 21
160.8162641420699
 31
0.0
  0
ARC
  5
3EA
330
1A
100
AcDbEntity
  8
SEIHIN
  6
CONTINUOUS
 62
     3
 48
16.0
100
AcDbCircle
 10
186.8307035422453
 20
253.5123840424198
 30
0.0
 40
6.000019900819233
100
AcDbArc
 50
192.8619410852699
 51
269.9992833836275
  0
LINE
  5
3EB
330
1A
100
AcDbEntity
  8
SEIHIN
  6
CONTINUOUS
 62
     3
 48
16.0
100
AcDbLine
 10
282.9357284981053
 20
209.5121641420699
 30
0.0
 11
282.9357284981053
 21
189.5121641420699
 31
0.0
  0
LINE
  5
3EC
330
1A
100
AcDbEntity
  8
SEIHIN
  6
CONTINUOUS
 62
     3
 48
16.0
100
AcDbLine
 10
209.2350284981053
 20
209.5122641420699
 30
0.0
 11
209.2350284981053
 21
189.51226414207
 31
0.0
  0
DIMENSION
  5
3ED
330
1A
100
AcDbEntity
  8
SUNPOU
  6
CONTINUOUS
100
AcDbDimension
  2
*D4
 10
207.0854284981052
 20
138.7746612941557
 30
0.0
 11
246.0854284981053
 21
143.7746612941557
 31
0.0
 12
9.101212834324996
 22
-4.546839488859632
 32
0.0
 70
    32
  3
STANDARD
100
AcDbAlignedDimension
 13
285.0854284981054
 23
209.51206414207
 33
0.0
 14
207.0854284981052
 24
209.5122641420699
 34
0.0
100
AcDbRotatedDimension
1001
ACAD
1000
DSTYLE
1002
{
1070
   140
1040
6.0
1070
    74
1070
     0
1070
   172
1070
     1
1070
    73
1070
     0
1070
   272
1070
     2
1070
    77
1070
     3
1070
   173
1070
     1
1070
   147
1040
2.0
1070
    42
1040
6.0
1070
    44
1040
3.0
1070
    43
1040
14.0
1070
   271
1070
     0
1070
   178
1070
     4
1070
   177
1070
     4
1070
   176
1070
     4
1070
   141
1040
150.0
1070
     7
1000
_OPEN
1070
     6
1000
_OPEN
1070
    41
1040
7.0
1002
}
  0
LINE
  5
3EE
330
1A
100
AcDbEntity
  8
SEIHIN
  6
CONTINUOUS
 62
     3
 48
16.0
100
AcDbLine
 10
246.0856284981053
 20
173.51216414207
 30
0.0
 11
275.2857284981053
 21
173.51206414207
 31
0.0
  0
LINE
  5
3EF
330
1A
100
AcDbEntity
  8
SEIHIN
  6
CONTINUOUS
 62
     3
 48
16.0
100
AcDbLine
 10
246.0856284981053
 20
186.5121641420699
 30
0.0
 11
279.9857284981053
 21
186.51206414207
 31
0.0
  0
LINE
  5
3F0
330
1A
100
AcDbEntity
  8
SEIHIN
  6
CONTINUOUS
 62
     3
 48
16.0
100
AcDbLine
 10
246.0856284981053
 20
189.5121641420699
 30
0.0
 11
282.9356284981053
 21
189.51206414207
 31
0.0
  0
LINE
  5
3F1
330
1A
100
AcDbEntity
  8
SEIHIN
  6
CONTINUOUS
 62
     3
 48
16.0
100
AcDbLine
 10
246.0850284981053
 20
189.5121641420699
 30
0.0
 11
209.2350284981053
 21
189.5121641420699
 31
0.0
  0
LINE
  5
3F2
330
1A
100
AcDbEntity
  8
SEIHIN
  6
CONTINUOUS
 62
     3
 48
16.0
100
AcDbLine
 10
246.0850284981053
 20
186.5121641420699
 30
0.0
 11
212.1850284981053
 21
186.5121641420699
 31
0.0
  0
LINE
  5
3F3
330
1A
100
AcDbEntity
  8
SEIHIN
  6
CONTINUOUS
 62
     3
 48
16.0
100
AcDbLine
 10
209.2350284981053
 20
189.5121641420699
 30
0.0
 11
212.1850284981053
 21
186.5121641420699
 31
0.0
  0
LINE
  5
3F4
330
1A
100
AcDbEntity
  8
SEIHIN
  6
CONTINUOUS
 62
     3
 48
16.0
100
AcDbLine
 10
216.8850284981052
 20
173.5122641420699
 30
0.0
 11
216.8850284981052
 21
186.51226414207
 31
0.0
  0
LINE
  5
3F5
330
1A
100
AcDbEntity
  8
SEIHIN
  6
CONTINUOUS
 62
     3
 48
16.0
100
AcDbLine
 10
246.0850284981053
 20
173.51216414207
 30
0.0
 11
216.8849284981053
 21
173.51216414207
 31
0.0
  0
LINE
  5
3F6
330
1A
100
AcDbEntity
  8
SEIHIN
  6
CONTINUOUS
 62
     3
 48
16.0
100
AcDbLine
 10
275.2856284981053
 20
173.51216414207
 30
0.0
 11
275.2856284981053
 21
186.5121641420699
 31
0.0
  0
LINE
  5
3F7
330
1A
100
AcDbEntity
  8
SEIHIN
  6
CONTINUOUS
 62
     3
 48
16.0
100
AcDbLine
 10
282.9356284981053
 20
189.51206414207
 30
0.0
 11
279.9857284981053
 21
186.51206414207
 31
0.0
  0
LINE
  5
3F8
330
1A
100
AcDbEntity
  8
SEIHIN
  6
CONTINUOUS
 62
     3
 48
16.0
100
AcDbLine
 10
246.0857284981053
 20
274.0265641420699
 30
0.0
 11
248.6252284981053
 21
272.5603641420698
 31
0.0
  0
ARC
  5
3F9
330
1A
100
AcDbEntity
  8
SEIHIN
  6
CONTINUOUS
 62
     3
 48
16.0
100
AcDbCircle
 10
285.5059763325267
 20
179.6097590388361
 30
0.0
 40
100.0000005952326
100
AcDbArc
 50
100.0186936417289
 51
113.2161814689626
  0
ARC
  5
3FA
330
1A
100
AcDbEntity
  8
SEIHIN
  6
CONTINUOUS
 62
     3
 48
16.0
100
AcDbCircle
 10
285.5062574053728
 20
172.6098442912231
 30
0.0
 40
100.0000330459959
100
AcDbArc
 50
97.98565948302597
 51
113.2163487263578
  0
ARC
  5
3FB
330
1A
100
AcDbEntity
  8
SEIHIN
  6
CONTINUOUS
 62
     3
 48
16.0
100
AcDbCircle
 10
285.5061421992528
 20
176.1098103554585
 30
0.0
 40
100.0000188190801
100
AcDbArc
 50
98.99156791620224
 51
113.2162803984712
  0
LINE
  5
3FC
330
1A
100
AcDbEntity
  8
SEIHIN
  6
CONTINUOUS
 62
     3
 48
16.0
100
AcDbLine
 10
246.0857284981053
 20
289.03726414207
 30
0.0
 11
253.0854284981053
 21
284.99596414207
 31
0.0
  0
ARC
  5
3FD
330
1A
100
AcDbEntity
  8
SEIHIN
  6
CONTINUOUS
 62
     3
 48
16.0
100
AcDbCircle
 10
245.649814120525
 20
429.8894630375981
 30
0.0
 40
199.9999730780869
100
AcDbArc
 50
270.1247657941607
 51
278.6608060390679
  0
LINE
  5
3FE
330
1A
100
AcDbEntity
  8
SEIHIN
  6
CONTINUOUS
 62
     3
 48
16.0
100
AcDbLine
 10
246.0857284981053
 20
247.5121641420699
 30
0.0
 11
305.3402284981054
 21
247.5121641420699
 31
0.0
  0
LINE
  5
3FF
330
1A
100
AcDbEntity
  8
SEIHIN
  6
CONTINUOUS
 62
     3
 48
16.0
100
AcDbLine
 10
246.0857284981053
 20
254.5121641420699
 30
0.0
 11
294.6654284981054
 21
254.5121641420699
 31
0.0
  0
LINE
  5
400
330
1A
100
AcDbEntity
  8
SEIHIN
  6
CONTINUOUS
 62
     3
 48
16.0
100
AcDbLine
 10
246.0857284981053
 20
242.5121641420699
 30
0.0
 11
305.0854284981053
 21
242.5121641420699
 31
0.0
  0
LINE
  5
401
330
1A
100
AcDbEntity
  8
SEIHIN
  6
CONTINUOUS
 62
     3
 48
16.0
100
AcDbLine
 10
246.0857284981053
 20
219.5121641420699
 30
0.0
 11
294.0854284981053
 21
219.5121641420699
 31
0.0
  0
LINE
  5
402
330
1A
100
AcDbEntity
  8
SEIHIN
  6
CONTINUOUS
 62
     3
 48
16.0
100
AcDbLine
 10
293.8693284981052
 20
255.5121641420699
 30
0.0
 11
246.0857284981053
 21
255.5121641420699
 31
0.0
  0
LINE
  5
403
330
1A
100
AcDbEntity
  8
SEIHIN
  6
CONTINUOUS
 62
     3
 48
16.0
100
AcDbLine
 10
246.0857284981053
 20
209.5121641420699
 30
0.0
 11
285.0854284981053
 21
209.5121641420699
 31
0.0
  0
LINE
  5
404
330
1A
100
AcDbEntity
  8
SEIHIN
  6
CONTINUOUS
 62
     3
 48
16.0
100
AcDbLine
 10
187.0855284981053
 20
242.5123641420698
 30
0.0
 11
187.0855284981053
 21
247.5123641420698
 31
0.0
  0
LINE
  5
405
330
1A
100
AcDbEntity
  8
SEIHIN
  6
CONTINUOUS
 62
     3
 48
16.0
100
AcDbLine
 10
246.0851284981052
 20
242.5121641420699
 30
0.0
 11
187.0855284981053
 21
242.5123641420698
 31
0.0
  0
LINE
  5
406
330
1A
100
AcDbEntity
  8
SEIHIN
  6
CONTINUOUS
 62
     3
 48
16.0
100
AcDbLine
 10
246.0851284981052
 20
219.5121641420699
 30
0.0
 11
198.0854284981052
 21
219.5122641420699
 31
0.0
  0
LINE
  5
407
330
1A
100
AcDbEntity
  8
SEIHIN
  6
CONTINUOUS
 62
     3
 48
16.0
100
AcDbLine
 10
246.0850284981053
 20
209.5121641420699
 30
0.0
 11
207.0854284981052
 21
209.5122641420699
 31
0.0
  0
ARC
  5
408
330
1A
100
AcDbEntity
  8
SEIHIN
  6
CONTINUOUS
 62
     3
 48
16.0
100
AcDbCircle
 10
168.086231882719
 20
219.295357065146
 30
0.0
 40
29.99998149399485
100
AcDbArc
 50
0.4144568578371727
 51
50.7054734858106
  0
ARC
  5
409
330
1A
100
AcDbEntity
  8
SEIHIN
  6
CONTINUOUS
 62
     3
 48
16.0
100
AcDbCircle
 10
224.3165506089139
 20
234.0700284636546
 30
0.0
 40
30.00000448724907
100
AcDbArc
 50
209.0294256164512
 51
234.9444295860478
  0
ARC
  5
40A
330
1A
100
AcDbEntity
  8
SEIHIN
  6
CONTINUOUS
 62
     3
 48
16.0
100
AcDbCircle
 10
246.5216106743312
 20
429.8895655113436
 30
0.0
 40
199.9999772252371
100
AcDbArc
 50
261.339000624961
 51
269.8750142497693
  0
ARC
  5
40B
330
1A
100
AcDbEntity
  8
SEIHIN
  6
CONTINUOUS
 62
     3
 48
16.0
100
AcDbCircle
 10
222.0856047369525
 20
282.5334869968448
 30
0.0
 40
10.99999115614825
100
AcDbArc
 50
190.2137195448043
 51
262.0143416073997
  0
ARC
  5
40C
330
1A
100
AcDbEntity
  8
SEIHIN
  6
CONTINUOUS
 62
     3
 48
16.0
100
AcDbCircle
 10
223.8567397903719
 20
284.7581534335866
 30
0.0
 40
9.999979228982809
100
AcDbArc
 50
192.0314963691917
 51
261.0082959804155
  0
LINE
  5
40D
330
1A
100
AcDbEntity
  8
SEIHIN
  6
CONTINUOUS
 62
     3
 48
16.0
100
AcDbLine
 10
220.0859284981053
 20
289.0373641420698
 30
0.0
 11
213.5722284981053
 21
285.2765641420698
 31
0.0
  0
LINE
  5
40E
330
1A
100
AcDbEntity
  8
SEIHIN
  6
CONTINUOUS
 62
     3
 48
16.0
100
AcDbLine
 10
246.0851284981052
 20
247.5121641420699
 30
0.0
 11
186.8307284981053
 21
247.5123641420698
 31
0.0
  0
LINE
  5
40F
330
1A
100
AcDbEntity
  8
SEIHIN
  6
CONTINUOUS
 62
     3
 48
16.0
100
AcDbLine
 10
246.0851284981052
 20
254.5121641420699
 30
0.0
 11
197.5055284981052
 21
254.5122641420699
 31
0.0
  0
LINE
  5
410
330
1A
100
AcDbEntity
  8
SEIHIN
  6
CONTINUOUS
 62
     3
 48
16.0
100
AcDbLine
 10
198.3016284981053
 20
255.51226414207
 30
0.0
 11
246.0851284981052
 21
255.5121641420699
 31
0.0
  0
ARC
  5
411
330
1A
100
AcDbEntity
  8
SEIHIN
  6
CONTINUOUS
 62
     3
 48
16.0
100
AcDbCircle
 10
198.3016296382167
 20
260.5122633950698
 30
0.0
 40
4.999999253000042
100
AcDbArc
 50
203.5344197819784
 51
269.9999869352839
  0
ARC
  5
412
330
1A
100
AcDbEntity
  8
SEIHIN
  6
CONTINUOUS
 62
     3
 48
16.0
100
AcDbCircle
 10
197.5055114846032
 20
259.5122752800449
 30
0.0
 40
5.000011138004043
100
AcDbArc
 50
203.5782620325174
 51
270.0001949599371
  0
ARC
  5
413
330
1A
100
AcDbEntity
  8
SEIHIN
  6
CONTINUOUS
 62
     3
 48
16.0
100
AcDbCircle
 10
193.0818682359032
 20
261.5122314949285
 30
0.0
 40
3.999967353055937
100
AcDbArc
 50
191.188848388416
 51
269.9994307933268
  0
ARC
  5
414
330
1A
100
AcDbEntity
  8
SEIHIN
  6
CONTINUOUS
 62
     3
 48
16.0
100
AcDbCircle
 10
193.8858361661035
 20
262.5122578201849
 30
0.0
 40
3.999993678122308
100
AcDbArc
 50
190.9921043814578
 51
269.9998901638423
  0
LINE
  5
415
330
1A
100
AcDbEntity
  8
SEIHIN
  6
CONTINUOUS
 62
     3
 48
16.0
100
AcDbLine
 10
211.0855284981053
 20
280.51226414207
 30
0.0
 11
211.1867284981053
 21
280.5902641420698
 31
0.0
  0
ARC
  5
416
330
1A
100
AcDbEntity
  8
SEIHIN
  6
CONTINUOUS
 62
     3
 48
16.0
100
AcDbCircle
 10
206.664107903186
 20
172.6100257380112
 30
0.0
 40
100.0000206980756
100
AcDbArc
 50
66.78340404412479
 51
82.01405504957326
  0
LINE
  5
417
330
1A
100
AcDbEntity
  8
SEIHIN
  6
CONTINUOUS
 62
     3
 48
16.0
100
AcDbLine
 10
233.0855284981053
 20
281.5319641420699
 30
0.0
 11
226.0859284981053
 21
277.4906641420698
 31
0.0
  0
ARC
  5
418
330
1A
100
AcDbEntity
  8
SEIHIN
  6
CONTINUOUS
 62
     3
 48
16.0
100
AcDbCircle
 10
206.6644167812863
 20
179.6099676389557
 30
0.0
 40
99.99999175112577
100
AcDbArc
 50
66.78352715358292
 51
79.98097737912113
  0
ARC
  5
419
330
1A
100
AcDbEntity
  8
SEIHIN
  6
CONTINUOUS
 62
     3
 48
16.0
100
AcDbCircle
 10
206.6642505403568
 20
176.109986649462
 30
0.0
 40
100.0000003926566
100
AcDbArc
 50
66.78348797992427
 51
81.00821911292154
  0
LINE
  5
41A
330
1A
100
AcDbEntity
  8
SEIHIN
  6
CONTINUOUS
 62
     3
 48
16.0
100
AcDbLine
 10
223.0855284981053
 20
279.22286414207
 30
0.0
 11
225.5228284981053
 21
277.8156641420699
 31
0.0
  0
ARC
  5
41B
330
1A
100
AcDbEntity
  8
SEIHIN
  6
CONTINUOUS
 62
     3
 48
16.0
100
AcDbCircle
 10
225.6278817078039
 20
286.9477078866999
 30
0.0
 40
8.999989433141523
100
AcDbArc
 50
193.8730727235529
 51
259.9811140163932
  0
LINE
  5
41C
330
1A
100
AcDbEntity
  8
SEIHIN
  6
CONTINUOUS
 62
     3
 48
16.0
100
AcDbLine
 10
227.0856284981053
 20
284.9960641420699
 30
0.0
 11
220.0859284981053
 21
289.0373641420698
 31
0.0
  0
LINE
  5
41D
330
1A
100
AcDbEntity
  8
SEIHIN
  6
CONTINUOUS
 62
     3
 48
16.0
100
AcDbLine
 10
220.0859284981053
 20
289.0373641420698
 30
0.0
 11
227.0856284981053
 21
284.99596414207
 31
0.0
  0
LINE
  5
41E
330
1A
100
AcDbEntity
  8
SEIHIN
  6
CONTINUOUS
 62
     3
 48
16.0
100
AcDbLine
 10
217.0863284981052
 20
284.1121641420699
 30
0.0
 11
217.0863284981052
 21
287.3054641420698
 31
0.0
  0
LINE
  5
41F
330
1A
100
AcDbEntity
  8
SEIHIN
  6
CONTINUOUS
 62
     3
 48
16.0
100
AcDbLine
 10
230.0859284981053
 20
286.7282641420698
 30
0.0
 11
223.0856284981053
 21
282.68666414207
 31
0.0
  0
LINE
  5
420
330
1A
100
AcDbEntity
  8
SEIHIN
  6
CONTINUOUS
 62
     3
 48
16.0
100
AcDbLine
 10
223.0855284981053
 20
279.22286414207
 30
0.0
 11
223.0856284981053
 21
287.3054641420698
 31
0.0
  0
LINE
  5
421
330
1A
100
AcDbEntity
  8
SEIHIN
  6
CONTINUOUS
 62
     3
 48
16.0
100
AcDbLine
 10
240.0852284981052
 20
277.4906641420698
 30
0.0
 11
233.0855284981053
 21
281.5319641420699
 31
0.0
  0
LINE
  5
422
330
1A
100
AcDbEntity
  8
SEIHIN
  6
CONTINUOUS
 62
     3
 48
16.0
100
AcDbLine
 10
233.0855284981053
 20
281.5319641420699
 30
0.0
 11
240.0852284981052
 21
277.49056414207
 31
0.0
  0
LINE
  5
423
330
1A
100
AcDbEntity
  8
SEIHIN
  6
CONTINUOUS
 62
     3
 48
16.0
100
AcDbLine
 10
243.0856284981053
 20
279.22286414207
 30
0.0
 11
236.0852284981052
 21
275.1812641420698
 31
0.0
  0
LINE
  5
424
330
1A
100
AcDbEntity
  8
SEIHIN
  6
CONTINUOUS
 62
     3
 48
16.0
100
AcDbLine
 10
246.0852284981053
 20
274.0265641420699
 30
0.0
 11
243.5457284981052
 21
272.5603641420698
 31
0.0
  0
LINE
  5
425
330
1A
100
AcDbEntity
  8
SEIHIN
  6
CONTINUOUS
 62
     3
 48
16.0
100
AcDbLine
 10
236.0852284981052
 20
286.7282641420698
 30
0.0
 11
243.0856284981053
 21
282.6865641420699
 31
0.0
  0
LINE
  5
426
330
1A
100
AcDbEntity
  8
SEIHIN
  6
CONTINUOUS
 62
     3
 48
16.0
100
AcDbLine
 10
243.0856284981053
 20
282.68666414207
 30
0.0
 11
236.0853284981053
 21
286.7282641420698
 31
0.0
  0
LINE
  5
427
330
1A
100
AcDbEntity
  8
SEIHIN
  6
CONTINUOUS
 62
     3
 48
16.0
100
AcDbLine
 10
243.0856284981053
 20
279.22286414207
 30
0.0
 11
243.0856284981053
 21
287.3054641420698
 31
0.0
  0
LINE
  5
428
330
1A
100
AcDbEntity
  8
SEIHIN
  6
CONTINUOUS
 62
     3
 48
16.0
100
AcDbLine
 10
246.0853284981053
 20
289.03726414207
 30
0.0
 11
239.0855284981053
 21
284.9960641420699
 31
0.0
  0
LINE
  5
429
330
1A
100
AcDbEntity
  8
SEIHIN
  6
CONTINUOUS
 62
     3
 48
16.0
100
AcDbLine
 10
305.0854284981053
 20
242.5121641420699
 30
0.0
 11
305.0854284981053
 21
247.5121641420699
 31
0.0
  0
ARC
  5
42A
330
1A
100
AcDbEntity
  8
SEIHIN
  6
CONTINUOUS
 62
     3
 48
16.0
100
AcDbCircle
 10
324.0846251134917
 20
219.2951570651461
 30
0.0
 40
29.99998149399499
100
AcDbArc
 50
129.2945265141895
 51
179.5855431421629
  0
ARC
  5
42B
330
1A
100
AcDbEntity
  8
SEIHIN
  6
CONTINUOUS
 62
     3
 48
16.0
100
AcDbCircle
 10
267.854378774215
 20
234.0700088935712
 30
0.0
 40
30.00002875006901
100
AcDbArc
 50
305.055369015319
 51
330.9702059930476
  0
ARC
  5
42C
330
1A
100
AcDbEntity
  8
SEIHIN
  6
CONTINUOUS
 62
     3
 48
16.0
100
AcDbCircle
 10
270.0854022970463
 20
282.5334389407175
 30
0.0
 40
11.00004953740722
100
AcDbArc
 50
277.9858785189089
 51
349.7860603288866
  0
LINE
  5
42D
330
1A
100
AcDbEntity
  8
SEIHIN
  6
CONTINUOUS
 62
     3
 48
16.0
100
AcDbLine
 10
259.0854284981053
 20
281.5318641420698
 30
0.0
 11
266.0851284981053
 21
277.49056414207
 31
0.0
  0
LINE
  5
42E
330
1A
100
AcDbEntity
  8
SEIHIN
  6
CONTINUOUS
 62
     3
 48
16.0
100
AcDbLine
 10
262.0851284981053
 20
286.7281641420699
 30
0.0
 11
269.0854284981053
 21
282.6865641420699
 31
0.0
  0
LINE
  5
42F
330
1A
100
AcDbEntity
  8
SEIHIN
  6
CONTINUOUS
 62
     3
 48
16.0
100
AcDbLine
 10
252.0857284981054
 20
277.49056414207
 30
0.0
 11
259.0854284981053
 21
281.5318641420698
 31
0.0
  0
LINE
  5
430
330
1A
100
AcDbEntity
  8
SEIHIN
  6
CONTINUOUS
 62
     3
 48
16.0
100
AcDbLine
 10
259.0854284981053
 20
281.5318641420698
 30
0.0
 11
252.0857284981054
 21
277.49056414207
 31
0.0
  0
LINE
  5
431
330
1A
100
AcDbEntity
  8
SEIHIN
  6
CONTINUOUS
 62
     3
 48
16.0
100
AcDbLine
 10
249.0854284981053
 20
279.22286414207
 30
0.0
 11
256.0857284981053
 21
275.18116414207
 31
0.0
  0
LINE
  5
432
330
1A
100
AcDbEntity
  8
SEIHIN
  6
CONTINUOUS
 62
     3
 48
16.0
100
AcDbLine
 10
256.0857284981053
 20
286.7281641420699
 30
0.0
 11
249.0854284981053
 21
282.6865641420699
 31
0.0
  0
LINE
  5
433
330
1A
100
AcDbEntity
  8
SEIHIN
  6
CONTINUOUS
 62
     3
 48
16.0
100
AcDbLine
 10
249.0854284981053
 20
282.6865641420699
 30
0.0
 11
256.0857284981053
 21
286.7282641420698
 31
0.0
  0
LINE
  5
434
330
1A
100
AcDbEntity
  8
SEIHIN
  6
CONTINUOUS
 62
     3
 48
16.0
100
AcDbLine
 10
249.0854284981053
 20
279.22286414207
 30
0.0
 11
249.0854284981053
 21
287.3054641420698
 31
0.0
  0
ARC
  5
435
330
1A
100
AcDbEntity
  8
SEIHIN
  6
CONTINUOUS
 62
     3
 48
16.0
100
AcDbCircle
 10
266.5431370516621
 20
286.9476721386695
 30
0.0
 40
9.00004196046081
100
AcDbArc
 50
280.0184276227657
 51
346.1265885351953
  0
LINE
  5
436
330
1A
100
AcDbEntity
  8
SEIHIN
  6
CONTINUOUS
 62
     3
 48
16.0
100
AcDbLine
 10
269.0854284981053
 20
279.2227641420699
 30
0.0
 11
266.6481284981053
 21
277.8156641420699
 31
0.0
  0
ARC
  5
437
330
1A
100
AcDbEntity
  8
SEIHIN
  6
CONTINUOUS
 62
     3
 48
16.0
100
AcDbCircle
 10
268.3142305622466
 20
284.7580660994809
 30
0.0
 40
9.999989651744741
100
AcDbArc
 50
278.9916170912437
 51
347.9678563304077
  0
LINE
  5
438
330
1A
100
AcDbEntity
  8
SEIHIN
  6
CONTINUOUS
 62
     3
 48
16.0
100
AcDbLine
 10
265.0854284981053
 20
284.99596414207
 30
0.0
 11
272.0851284981053
 21
289.03726414207
 31
0.0
  0
LINE
  5
439
330
1A
100
AcDbEntity
  8
SEIHIN
  6
CONTINUOUS
 62
     3
 48
16.0
100
AcDbLine
 10
272.0851284981053
 20
289.03726414207
 30
0.0
 11
265.0854284981053
 21
284.99596414207
 31
0.0
  0
LINE
  5
43A
330
1A
100
AcDbEntity
  8
SEIHIN
  6
CONTINUOUS
 62
     3
 48
16.0
100
AcDbLine
 10
269.0854284981053
 20
279.2227641420699
 30
0.0
 11
269.0854284981053
 21
287.30536414207
 31
0.0
  0
LINE
  5
43B
330
1A
100
AcDbEntity
  8
SEIHIN
  6
CONTINUOUS
 62
     3
 48
16.0
100
AcDbLine
 10
275.0847284981054
 20
284.1120641420698
 30
0.0
 11
275.0847284981054
 21
287.30536414207
 31
0.0
  0
LINE
  5
43C
330
1A
100
AcDbEntity
  8
SEIHIN
  6
CONTINUOUS
 62
     3
 48
16.0
100
AcDbLine
 10
272.0851284981053
 20
289.03726414207
 30
0.0
 11
278.5988284981053
 21
285.2764641420699
 31
0.0
  0
ARC
  5
43D
330
1A
100
AcDbEntity
  8
SEIHIN
  6
CONTINUOUS
 62
     3
 48
16.0
100
AcDbCircle
 10
294.6653755113561
 20
259.5121294543291
 30
0.0
 40
4.999965312540031
100
AcDbArc
 50
270.0006071876323
 51
336.422081744498
  0
ARC
  5
43E
330
1A
100
AcDbEntity
  8
SEIHIN
  6
CONTINUOUS
 62
     3
 48
16.0
100
AcDbCircle
 10
293.8693273579938
 20
260.5121633950698
 30
0.0
 40
4.999999253000014
100
AcDbArc
 50
270.0000130647165
 51
336.4655802180227
  0
ARC
  5
43F
330
1A
100
AcDbEntity
  8
SEIHIN
  6
CONTINUOUS
 62
     3
 48
16.0
100
AcDbCircle
 10
305.3402534543928
 20
253.5121840424205
 30
0.0
 40
6.000019900402509
100
AcDbArc
 50
269.9997616857994
 51
347.1380589138153
  0
ARC
  5
440
330
1A
100
AcDbEntity
  8
SEIHIN
  6
CONTINUOUS
 62
     3
 48
16.0
100
AcDbCircle
 10
298.2851323947341
 20
262.5121673545673
 30
0.0
 40
4.00000321249938
100
AcDbArc
 50
269.9999441849461
 51
349.0063238550959
  0
ARC
  5
441
330
1A
100
AcDbEntity
  8
SEIHIN
  6
CONTINUOUS
 62
     3
 48
16.0
100
AcDbCircle
 10
299.0891005703271
 20
261.5121411981883
 30
0.0
 40
3.999977056215899
100
AcDbArc
 50
270.0004000382491
 51
348.8095772609201
  0
LINE
  5
442
330
1A
100
AcDbEntity
  8
SEIHIN
  6
CONTINUOUS
 62
     3
 48
16.0
100
AcDbLine
 10
281.0854284981052
 20
280.5121641420699
 30
0.0
 11
280.9842284981053
 21
280.59016414207
 31
0.0
  0
ARC
  5
443
330
1A
100
AcDbEntity
  8
SEIHIN
  6
CONTINUOUS
 62
     3
 48
16.0
100
AcDbCircle
 10
190.0855284981053
 20
350.51226414207
 30
0.0
 40
9.0
100
AcDbArc
 50
90.0
 51
180.0
  0
ARC
  5
444
330
1A
100
AcDbEntity
  8
SEIHIN
  6
CONTINUOUS
 62
     3
 48
16.0
100
AcDbCircle
 10
189.0855284981053
 20
350.51226414207
 30
0.0
 40
8.0
100
AcDbArc
 50
90.0
 51
180.0
  0
DIMENSION
  5
445
330
1A
100
AcDbEntity
  8
SUNPOU
  6
CONTINUOUS
100
AcDbDimension
  2
*D5
 10
365.0857284981053
 20
467.2987230986825
 30
0.0
 11
246.0857134981053
 21
472.2987230986825
 31
0.0
 12
9.101212834324996
 22
-4.546839488859632
 32
0.0
 70
    32
  3
STANDARD
100
AcDbAlignedDimension
 13
127.0856984981053
 23
421.5125641420699
 33
0.0
 14
365.0857284981053
 24
421.5121641420698
 34
0.0
100
AcDbRotatedDimension
1001
ACAD
1000
DSTYLE
1002
{
1070
   140
1040
6.0
1070
    74
1070
     0
1070
   172
1070
     1
1070
    73
1070
     0
1070
   272
1070
     2
1070
    77
1070
     3
1070
   173
1070
     1
1070
   147
1040
2.0
1070
    42
1040
6.0
1070
    44
1040
3.0
1070
    43
1040
14.0
1070
   271
1070
     0
1070
   178
1070
     4
1070
   177
1070
     4
1070
   176
1070
     4
1070
   141
1040
150.0
1070
     7
1000
_OPEN
1070
     6
1000
_OPEN
1070
    41
1040
7.0
1002
}
  0
LINE
  5
446
330
1A
100
AcDbEntity
  8
SEIHIN
  6
CONTINUOUS
 62
     3
 48
16.0
100
AcDbLine
 10
246.0857284981053
 20
421.5121641420698
 30
0.0
 11
127.0856984981053
 21
421.5125641420699
 31
0.0
  0
LINE
  5
447
330
1A
100
AcDbEntity
  8
SEIHIN
  6
CONTINUOUS
 62
     3
 48
16.0
100
AcDbLine
 10
246.0856284981053
 20
407.5121641420698
 30
0.0
 11
129.0857284981053
 21
407.5125641420698
 31
0.0
  0
LINE
  5
448
330
1A
100
AcDbEntity
  8
SEIHIN
  6
CONTINUOUS
 62
     3
 48
16.0
100
AcDbLine
 10
246.0855284981052
 20
377.5121641420698
 30
0.0
 11
153.0855284981053
 21
377.5124641420699
 31
0.0
  0
LINE
  5
449
330
1A
100
AcDbEntity
  8
SEIHIN
  6
CONTINUOUS
 62
     3
 48
16.0
100
AcDbLine
 10
246.0855284981052
 20
370.5121641420698
 30
0.0
 11
153.0855284981053
 21
370.5124641420699
 31
0.0
  0
LINE
  5
44A
330
1A
100
AcDbEntity
  8
SEIHIN
  6
CONTINUOUS
 62
     3
 48
16.0
100
AcDbLine
 10
246.0855284981052
 20
368.5121641420698
 30
0.0
 11
155.0855284981053
 21
368.5124641420699
 31
0.0
  0
LINE
  5
44B
330
1A
100
AcDbEntity
  8
SEIHIN
  6
CONTINUOUS
 62
     3
 48
16.0
100
AcDbLine
 10
246.0856284981053
 20
409.5121641420698
 30
0.0
 11
129.0857284981053
 21
409.5125641420699
 31
0.0
  0
LINE
  5
44C
330
1A
100
AcDbEntity
  8
SEIHIN
  6
CONTINUOUS
 62
     3
 48
16.0
100
AcDbLine
 10
181.6693284981052
 20
353.51226414207
 30
0.0
 11
171.0855284981052
 21
353.5123641420697
 31
0.0
  0
LINE
  5
44D
330
1A
100
AcDbEntity
  8
SEIHIN
  6
CONTINUOUS
 62
     3
 48
16.0
100
AcDbLine
 10
181.0855284981053
 20
353.51226414207
 30
0.0
 11
184.0854284981052
 21
299.5123641420698
 31
0.0
  0
ARC
  5
44E
330
1A
100
AcDbEntity
  8
SEIHIN
  6
CONTINUOUS
 62
     3
 48
16.0
100
AcDbCircle
 10
161.8637253189156
 20
395.4830684773308
 30
0.0
 40
19.9999400991607
100
AcDbArc
 50
188.5417858463047
 51
243.9658896285848
  0
LINE
  5
44F
330
1A
100
AcDbEntity
  8
SEIHIN
  6
CONTINUOUS
 62
     3
 48
16.0
100
AcDbLine
 10
171.0855284981052
 20
353.5123641420697
 30
0.0
 11
174.0854284981053
 21
299.5123641420698
 31
0.0
  0
ARC
  5
450
330
1A
100
AcDbEntity
  8
SEIHIN
  6
CONTINUOUS
 62
     3
 48
16.0
100
AcDbCircle
 10
149.9808784978919
 20
354.4078141418566
 30
0.0
 40
14.99995344170108
100
AcDbArc
 50
19.89582642785268
 51
70.10417357214736
  0
ARC
  5
451
330
1A
100
AcDbEntity
  8
SEIHIN
  6
CONTINUOUS
 62
     3
 48
16.0
100
AcDbCircle
 10
171.8407367334072
 20
361.4767570832555
 30
0.0
 40
8.000009406246917
100
AcDbArc
 50
194.2135313082696
 51
264.5838794017215
  0
LINE
  5
452
330
1A
100
AcDbEntity
  8
SEIHIN
  6
CONTINUOUS
 62
     3
 48
16.0
100
AcDbLine
 10
153.0855284981053
 20
377.5124641420699
 30
0.0
 11
153.0855284981053
 21
370.5124641420699
 31
0.0
  0
LINE
  5
453
330
1A
100
AcDbEntity
  8
SEIHIN
  6
CONTINUOUS
 62
     3
 48
16.0
100
AcDbLine
 10
155.0855284981053
 20
370.51236414207
 30
0.0
 11
155.0855284981053
 21
368.51236414207
 31
0.0
  0
ARC
  5
454
330
1A
100
AcDbEntity
  8
SEIHIN
  6
CONTINUOUS
 62
     3
 48
16.0
100
AcDbCircle
 10
122.4640320512597
 20
388.6404138881371
 30
0.0
 40
19.99999550729561
100
AcDbArc
 50
11.16310036872516
 51
70.66566607132513
  0
LINE
  5
455
330
1A
100
AcDbEntity
  8
SEIHIN
  6
CONTINUOUS
 62
     3
 48
16.0
100
AcDbLine
 10
127.0856984981053
 20
421.5125641420699
 30
0.0
 11
127.0856984981053
 21
409.5125641420699
 31
0.0
  0
LINE
  5
456
330
1A
100
AcDbEntity
  8
SEIHIN
  6
CONTINUOUS
 62
     3
 48
16.0
100
AcDbLine
 10
129.0857284981053
 20
409.5125641420699
 30
0.0
 11
127.0856984981053
 21
409.5125641420699
 31
0.0
  0
LINE
  5
457
330
1A
100
AcDbEntity
  8
SEIHIN
  6
CONTINUOUS
 62
     3
 48
16.0
100
AcDbLine
 10
129.0857284981053
 20
409.5125641420699
 30
0.0
 11
129.0857284981053
 21
407.5125641420698
 31
0.0
  0
LINE
  5
458
330
1A
100
AcDbEntity
  8
SEIHIN
  6
CONTINUOUS
 62
     3
 48
16.0
100
AcDbLine
 10
246.0857284981053
 20
421.5121641420698
 30
0.0
 11
365.0857284981053
 21
421.5121641420698
 31
0.0
  0
LINE
  5
459
330
1A
100
AcDbEntity
  8
SEIHIN
  6
CONTINUOUS
 62
     3
 48
16.0
100
AcDbLine
 10
246.0857284981053
 20
407.5121641420698
 30
0.0
 11
363.0857284981053
 21
407.5121641420698
 31
0.0
  0
LINE
  5
45A
330
1A
100
AcDbEntity
  8
SEIHIN
  6
CONTINUOUS
 62
     3
 48
16.0
100
AcDbLine
 10
246.0857284981053
 20
377.5121641420698
 30
0.0
 11
339.0857284981052
 21
377.5121641420698
 31
0.0
  0
LINE
  5
45B
330
1A
100
AcDbEntity
  8
SEIHIN
  6
CONTINUOUS
 62
     3
 48
16.0
100
AcDbLine
 10
246.0857284981053
 20
370.5121641420698
 30
0.0
 11
339.0857284981052
 21
370.5121641420698
 31
0.0
  0
LINE
  5
45C
330
1A
100
AcDbEntity
  8
SEIHIN
  6
CONTINUOUS
 62
     3
 48
16.0
100
AcDbLine
 10
246.0857284981053
 20
368.5121641420698
 30
0.0
 11
337.0857284981052
 21
368.5121641420698
 31
0.0
  0
LINE
  5
45D
330
1A
100
AcDbEntity
  8
SEIHIN
  6
CONTINUOUS
 62
     3
 48
16.0
100
AcDbLine
 10
246.0857284981053
 20
409.5121641420698
 30
0.0
 11
363.0857284981053
 21
409.5121641420698
 31
0.0
  0
ARC
  5
45E
330
1A
100
AcDbEntity
  8
SEIHIN
  6
CONTINUOUS
 62
     3
 48
16.0
100
AcDbCircle
 10
302.0856284981052
 20
350.51216414207
 30
0.0
 40
9.000000000555498
100
AcDbArc
 50
359.9993633802274
 51
89.9993633802271
  0
ARC
  5
45F
330
1A
100
AcDbEntity
  8
SEIHIN
  6
CONTINUOUS
 62
     3
 48
16.0
100
AcDbCircle
 10
303.0856284981052
 20
350.5121641420699
 30
0.0
 40
8.000000000624885
100
AcDbArc
 50
359.9992838027563
 51
89.99928380275589
  0
LINE
  5
460
330
1A
100
AcDbEntity
  8
SEIHIN
  6
CONTINUOUS
 62
     3
 48
16.0
100
AcDbLine
 10
310.5019284981053
 20
353.5121641420699
 30
0.0
 11
321.0857284981053
 21
353.5121641420699
 31
0.0
  0
LINE
  5
461
330
1A
100
AcDbEntity
  8
SEIHIN
  6
CONTINUOUS
 62
     3
 48
16.0
100
AcDbLine
 10
246.0857284981053
 20
359.5121641420699
 30
0.0
 11
302.0856284981052
 21
359.5121641420699
 31
0.0
  0
ARC
  5
462
330
1A
100
AcDbEntity
  8
SEIHIN
  6
CONTINUOUS
 62
     3
 48
16.0
100
AcDbCircle
 10
285.505953200998
 20
442.4144689355576
 30
0.0
 40
100.0000175505563
100
AcDbArc
 50
246.783650086613
 51
262.0143417040031
  0
ARC
  5
463
330
1A
100
AcDbEntity
  8
SEIHIN
  6
CONTINUOUS
 62
     3
 48
16.0
100
AcDbCircle
 10
285.5057779955362
 20
438.9145230800409
 30
0.0
 40
99.99999824401676
100
AcDbArc
 50
246.7837545722359
 51
261.0085254707498
  0
ARC
  5
464
330
1A
100
AcDbEntity
  8
SEIHIN
  6
CONTINUOUS
 62
     3
 48
16.0
100
AcDbCircle
 10
285.5060840372559
 20
435.4144371018189
 30
0.0
 40
100.0000398709094
100
AcDbArc
 50
246.7835740032866
 51
259.9810731189091
  0
LINE
  5
465
330
1A
100
AcDbEntity
  8
SEIHIN
  6
CONTINUOUS
 62
     3
 48
16.0
100
AcDbLine
 10
246.0857284981053
 20
334.0695641420699
 30
0.0
 11
253.0854284981053
 21
330.0282641420699
 31
0.0
  0
LINE
  5
466
330
1A
100
AcDbEntity
  8
SEIHIN
  6
CONTINUOUS
 62
     3
 48
16.0
100
AcDbLine
 10
246.0857284981053
 20
319.0587641420699
 30
0.0
 11
253.0854284981053
 21
315.0174641420699
 31
0.0
  0
LINE
  5
467
330
1A
100
AcDbEntity
  8
SEIHIN
  6
CONTINUOUS
 62
     3
 48
16.0
100
AcDbLine
 10
246.0857284981053
 20
358.5121641420698
 30
0.0
 11
303.0856284981052
 21
358.5121641420698
 31
0.0
  0
LINE
  5
468
330
1A
100
AcDbEntity
  8
SEIHIN
  6
CONTINUOUS
 62
     3
 48
16.0
100
AcDbLine
 10
246.0857284981053
 20
304.04806414207
 30
0.0
 11
253.0854284981053
 21
300.0067641420698
 31
0.0
  0
LINE
  5
469
330
1A
100
AcDbEntity
  8
SEIHIN
  6
CONTINUOUS
 62
     3
 48
16.0
100
AcDbLine
 10
226.3630284981053
 20
337.3737641420699
 30
0.0
 11
230.0860284981053
 21
335.2242641420699
 31
0.0
  0
LINE
  5
46A
330
1A
100
AcDbEntity
  8
SEIHIN
  6
CONTINUOUS
 62
     3
 48
16.0
100
AcDbLine
 10
230.0860284981053
 20
335.2242641420699
 30
0.0
 11
226.3631284981053
 21
337.3737641420699
 31
0.0
  0
ARC
  5
46B
330
1A
100
AcDbEntity
  8
SEIHIN
  6
CONTINUOUS
 62
     3
 48
16.0
100
AcDbCircle
 10
222.0858151812965
 20
332.4909475177126
 30
0.0
 40
11.00000033020527
100
AcDbArc
 50
97.98623259480827
 51
169.7863220398489
  0
ARC
  5
46C
330
1A
100
AcDbEntity
  8
SEIHIN
  6
CONTINUOUS
 62
     3
 48
16.0
100
AcDbCircle
 10
223.856826433964
 20
330.2662621846589
 30
0.0
 40
9.999989651744808
100
AcDbArc
 50
98.99161709124413
 51
167.9678563304081
  0
ARC
  5
46D
330
1A
100
AcDbEntity
  8
SEIHIN
  6
CONTINUOUS
 62
     3
 48
16.0
100
AcDbCircle
 10
225.6280190121187
 20
328.0767552737612
 30
0.0
 40
8.999944181497431
100
AcDbArc
 50
100.0185315619763
 51
166.1264290761688
  0
LINE
  5
46E
330
1A
100
AcDbEntity
  8
SEIHIN
  6
CONTINUOUS
 62
     3
 48
16.0
100
AcDbLine
 10
236.0854284981053
 20
331.76056414207
 30
0.0
 11
236.0854284981053
 21
339.8430641420698
 31
0.0
  0
LINE
  5
46F
330
1A
100
AcDbEntity
  8
SEIHIN
  6
CONTINUOUS
 62
     3
 48
16.0
100
AcDbLine
 10
230.0860284981053
 20
331.76056414207
 30
0.0
 11
230.0860284981053
 21
338.1959641420699
 31
0.0
  0
ARC
  5
470
330
1A
100
AcDbEntity
  8
SEIHIN
  6
CONTINUOUS
 62
     3
 48
16.0
100
AcDbCircle
 10
206.6654163086046
 20
435.4145201937083
 30
0.0
 40
99.99998088453521
100
AcDbArc
 50
280.018791263624
 51
293.2162264347427
  0
LINE
  5
471
330
1A
100
AcDbEntity
  8
SEIHIN
  6
CONTINUOUS
 62
     3
 48
16.0
100
AcDbLine
 10
243.0858284981053
 20
339.26586414207
 30
0.0
 11
236.0854284981053
 21
335.2242641420699
 31
0.0
  0
LINE
  5
472
330
1A
100
AcDbEntity
  8
SEIHIN
  6
CONTINUOUS
 62
     3
 48
16.0
100
AcDbLine
 10
182.0855284981052
 20
353.51226414207
 30
0.0
 11
185.0854284981052
 21
299.5123641420698
 31
0.0
  0
LINE
  5
473
330
1A
100
AcDbEntity
  8
SEIHIN
  6
CONTINUOUS
 62
     3
 48
16.0
100
AcDbLine
 10
217.0864284981053
 20
327.7189641420698
 30
0.0
 11
213.5722284981053
 21
329.74786414207
 31
0.0
  0
LINE
  5
474
330
1A
100
AcDbEntity
  8
SEIHIN
  6
CONTINUOUS
 62
     3
 48
16.0
100
AcDbLine
 10
213.5721284981053
 20
329.74786414207
 30
0.0
 11
217.0864284981053
 21
327.71886414207
 31
0.0
  0
LINE
  5
475
330
1A
100
AcDbEntity
  8
SEIHIN
  6
CONTINUOUS
 62
     3
 48
16.0
100
AcDbLine
 10
210.0860284981052
 20
316.7498641420698
 30
0.0
 11
217.0863284981052
 21
312.7080641420698
 31
0.0
  0
LINE
  5
476
330
1A
100
AcDbEntity
  8
SEIHIN
  6
CONTINUOUS
 62
     3
 48
16.0
100
AcDbLine
 10
217.0863284981052
 20
312.7081641420699
 30
0.0
 11
210.0860284981052
 21
316.7498641420698
 31
0.0
  0
LINE
  5
477
330
1A
100
AcDbEntity
  8
SEIHIN
  6
CONTINUOUS
 62
     3
 48
16.0
100
AcDbLine
 10
220.0860284981053
 20
319.0588641420698
 30
0.0
 11
213.0863284981053
 21
315.0175641420699
 31
0.0
  0
LINE
  5
478
330
1A
100
AcDbEntity
  8
SEIHIN
  6
CONTINUOUS
 62
     3
 48
16.0
100
AcDbLine
 10
217.0864284981053
 20
324.2551641420699
 30
0.0
 11
210.0860284981052
 21
320.2135641420699
 31
0.0
  0
ARC
  5
479
330
1A
100
AcDbEntity
  8
SEIHIN
  6
CONTINUOUS
 62
     3
 48
16.0
100
AcDbCircle
 10
217.1026456295076
 20
317.2364780295848
 30
0.0
 40
12.99998611249649
100
AcDbArc
 50
90.00007550446909
 51
168.0597541998006
  0
LINE
  5
47A
330
1A
100
AcDbEntity
  8
SEIHIN
  6
CONTINUOUS
 62
     3
 48
16.0
100
AcDbLine
 10
217.0863284981052
 20
309.2444641420699
 30
0.0
 11
210.0860284981052
 21
305.2027641420699
 31
0.0
  0
LINE
  5
47B
330
1A
100
AcDbEntity
  8
SEIHIN
  6
CONTINUOUS
 62
     3
 48
16.0
100
AcDbLine
 10
220.0860284981053
 20
304.04806414207
 30
0.0
 11
213.0863284981053
 21
300.0067641420698
 31
0.0
  0
LINE
  5
47C
330
1A
100
AcDbEntity
  8
SEIHIN
  6
CONTINUOUS
 62
     3
 48
16.0
100
AcDbLine
 10
210.0860284981052
 20
301.7390641420699
 30
0.0
 11
217.0863284981052
 21
297.6973641420698
 31
0.0
  0
LINE
  5
47D
330
1A
100
AcDbEntity
  8
SEIHIN
  6
CONTINUOUS
 62
     3
 48
16.0
100
AcDbLine
 10
217.0863284981052
 20
297.6974641420698
 30
0.0
 11
210.0860284981052
 21
301.7390641420699
 31
0.0
  0
ARC
  5
47E
330
1A
100
AcDbEntity
  8
SEIHIN
  6
CONTINUOUS
 62
     3
 48
16.0
100
AcDbCircle
 10
256.0856144365956
 20
307.512060590888
 30
0.0
 40
59.99998593883558
100
AcDbArc
 50
164.5338837320124
 51
179.9998056228938
  0
ARC
  5
47F
330
1A
100
AcDbEntity
  8
SEIHIN
  6
CONTINUOUS
 62
     3
 48
16.0
100
AcDbCircle
 10
259.5856091404547
 20
307.5120025063339
 30
0.0
 40
59.99998064291991
100
AcDbArc
 50
166.3413983604029
 51
179.9997501561953
  0
ARC
  5
480
330
1A
100
AcDbEntity
  8
SEIHIN
  6
CONTINUOUS
 62
     3
 48
16.0
100
AcDbCircle
 10
263.0855952197232
 20
307.5118459343904
 30
0.0
 40
59.99996672307539
100
AcDbArc
 50
168.0591320015118
 51
179.9996006408618
  0
ARC
  5
481
330
1A
100
AcDbEntity
  8
SEIHIN
  6
CONTINUOUS
 62
     3
 48
16.0
100
AcDbCircle
 10
256.0855877707441
 20
307.5123640721731
 30
0.0
 40
59.99995927297195
100
AcDbArc
 50
180.0001909193147
 51
195.4661197257788
  0
LINE
  5
482
330
1A
100
AcDbEntity
  8
SEIHIN
  6
CONTINUOUS
 62
     3
 48
16.0
100
AcDbLine
 10
210.0860284981052
 20
301.7390641420699
 30
0.0
 11
210.0860284981052
 21
309.82156414207
 31
0.0
  0
LINE
  5
483
330
1A
100
AcDbEntity
  8
SEIHIN
  6
CONTINUOUS
 62
     3
 48
16.0
100
AcDbLine
 10
204.0866284981053
 20
301.7390641420699
 30
0.0
 11
204.0866284981053
 21
309.82156414207
 31
0.0
  0
ARC
  5
484
330
1A
100
AcDbEntity
  8
SEIHIN
  6
CONTINUOUS
 62
     3
 48
16.0
100
AcDbCircle
 10
259.5856223072329
 20
307.5121158375304
 30
0.0
 40
59.9999938091471
100
AcDbArc
 50
179.9999538725578
 51
193.658195727679
  0
ARC
  5
485
330
1A
100
AcDbEntity
  8
SEIHIN
  6
CONTINUOUS
 62
     3
 48
16.0
100
AcDbCircle
 10
263.0856337935205
 20
307.5120135060446
 30
0.0
 40
60.00000529560424
100
AcDbArc
 50
179.9998561532044
 51
191.940402594547
  0
LINE
  5
486
330
1A
100
AcDbEntity
  8
SEIHIN
  6
CONTINUOUS
 62
     3
 48
16.0
100
AcDbLine
 10
207.0863284981053
 20
296.54266414207
 30
0.0
 11
204.4060284981053
 21
294.9952641420699
 31
0.0
  0
LINE
  5
487
330
1A
100
AcDbEntity
  8
SEIHIN
  6
CONTINUOUS
 62
     3
 48
16.0
100
AcDbLine
 10
204.0866284981053
 20
301.7390641420699
 30
0.0
 11
203.4035284981053
 21
301.3445641420699
 31
0.0
  0
LINE
  5
488
330
1A
100
AcDbEntity
  8
SEIHIN
  6
CONTINUOUS
 62
     3
 48
16.0
100
AcDbLine
 10
214.0860284981052
 20
292.50146414207
 30
0.0
 11
207.0863284981053
 21
296.54266414207
 31
0.0
  0
LINE
  5
489
330
1A
100
AcDbEntity
  8
SEIHIN
  6
CONTINUOUS
 62
     3
 48
16.0
100
AcDbLine
 10
207.0863284981053
 20
296.54266414207
 30
0.0
 11
214.0859284981053
 21
292.50136414207
 31
0.0
  0
LINE
  5
48A
330
1A
100
AcDbEntity
  8
SEIHIN
  6
CONTINUOUS
 62
     3
 48
16.0
100
AcDbLine
 10
207.0863284981053
 20
311.55346414207
 30
0.0
 11
203.1111284981053
 21
309.2583641420698
 31
0.0
  0
LINE
  5
48B
330
1A
100
AcDbEntity
  8
SEIHIN
  6
CONTINUOUS
 62
     3
 48
16.0
100
AcDbLine
 10
214.0860284981052
 20
307.5121641420699
 30
0.0
 11
207.0863284981053
 21
311.55346414207
 31
0.0
  0
LINE
  5
48C
330
1A
100
AcDbEntity
  8
SEIHIN
  6
CONTINUOUS
 62
     3
 48
16.0
100
AcDbLine
 10
207.0863284981053
 20
311.55346414207
 30
0.0
 11
214.0860284981052
 21
307.5121641420699
 31
0.0
  0
ARC
  5
48D
330
1A
100
AcDbEntity
  8
SEIHIN
  6
CONTINUOUS
 62
     3
 48
16.0
100
AcDbCircle
 10
212.7152364622264
 20
319.5122708367973
 30
0.0
 40
14.99994809874485
100
AcDbArc
 50
95.56726055998966
 51
164.534358051021
  0
ARC
  5
48E
330
1A
100
AcDbEntity
  8
SEIHIN
  6
CONTINUOUS
 62
     3
 48
16.0
100
AcDbCircle
 10
214.8865500697209
 20
318.3742821334476
 30
0.0
 40
14.00003498532165
100
AcDbArc
 50
93.31690247388934
 51
166.3415318734557
  0
LINE
  5
48F
330
1A
100
AcDbEntity
  8
SEIHIN
  6
CONTINUOUS
 62
     3
 48
16.0
100
AcDbLine
 10
207.6977284981053
 20
326.2112641420698
 30
0.0
 11
214.0860284981052
 21
322.5229641420698
 31
0.0
  0
LINE
  5
490
330
1A
100
AcDbEntity
  8
SEIHIN
  6
CONTINUOUS
 62
     3
 48
16.0
100
AcDbLine
 10
214.0861284981053
 20
322.5229641420698
 30
0.0
 11
207.6977284981053
 21
326.2112641420698
 31
0.0
  0
LINE
  5
491
330
1A
100
AcDbEntity
  8
SEIHIN
  6
CONTINUOUS
 62
     3
 48
16.0
100
AcDbLine
 10
204.0867284981053
 20
316.7498641420698
 30
0.0
 11
203.7731284981053
 21
316.5687641420698
 31
0.0
  0
LINE
  5
492
330
1A
100
AcDbEntity
  8
SEIHIN
  6
CONTINUOUS
 62
     3
 48
16.0
100
AcDbLine
 10
210.0860284981052
 20
316.7498641420698
 30
0.0
 11
210.0860284981052
 21
324.8323641420698
 31
0.0
  0
LINE
  5
493
330
1A
100
AcDbEntity
  8
SEIHIN
  6
CONTINUOUS
 62
     3
 48
16.0
100
AcDbLine
 10
211.0857284981053
 20
334.51226414207
 30
0.0
 11
211.1869284981053
 21
334.4341641420699
 31
0.0
  0
LINE
  5
494
330
1A
100
AcDbEntity
  8
SEIHIN
  6
CONTINUOUS
 62
     3
 48
16.0
100
AcDbLine
 10
230.0860284981053
 20
316.7497641420698
 30
0.0
 11
223.0857284981053
 21
312.7081641420699
 31
0.0
  0
LINE
  5
495
330
1A
100
AcDbEntity
  8
SEIHIN
  6
CONTINUOUS
 62
     3
 48
16.0
100
AcDbLine
 10
243.0857284981053
 20
312.7081641420699
 30
0.0
 11
236.0854284981053
 21
316.7497641420698
 31
0.0
  0
LINE
  5
496
330
1A
100
AcDbEntity
  8
SEIHIN
  6
CONTINUOUS
 62
     3
 48
16.0
100
AcDbLine
 10
236.0854284981053
 20
316.7497641420698
 30
0.0
 11
243.0857284981053
 21
312.7080641420698
 31
0.0
  0
LINE
  5
497
330
1A
100
AcDbEntity
  8
SEIHIN
  6
CONTINUOUS
 62
     3
 48
16.0
100
AcDbLine
 10
243.0857284981053
 20
309.2443641420699
 30
0.0
 11
243.0857284981053
 21
317.3269641420698
 31
0.0
  0
LINE
  5
498
330
1A
100
AcDbEntity
  8
SEIHIN
  6
CONTINUOUS
 62
     3
 48
16.0
100
AcDbLine
 10
223.0857284981053
 20
309.2444641420699
 30
0.0
 11
223.0857284981053
 21
317.3269641420698
 31
0.0
  0
LINE
  5
499
330
1A
100
AcDbEntity
  8
SEIHIN
  6
CONTINUOUS
 62
     3
 48
16.0
100
AcDbLine
 10
217.0863284981052
 20
309.2444641420699
 30
0.0
 11
217.0863284981052
 21
317.3269641420698
 31
0.0
  0
LINE
  5
49A
330
1A
100
AcDbEntity
  8
SEIHIN
  6
CONTINUOUS
 62
     3
 48
16.0
100
AcDbLine
 10
233.0856284981053
 20
296.54266414207
 30
0.0
 11
226.0859284981053
 21
292.50136414207
 31
0.0
  0
LINE
  5
49B
330
1A
100
AcDbEntity
  8
SEIHIN
  6
CONTINUOUS
 62
     3
 48
16.0
100
AcDbLine
 10
233.0857284981052
 20
311.55346414207
 30
0.0
 11
226.0860284981053
 21
307.5121641420699
 31
0.0
  0
LINE
  5
49C
330
1A
100
AcDbEntity
  8
SEIHIN
  6
CONTINUOUS
 62
     3
 48
16.0
100
AcDbLine
 10
230.0860284981053
 20
301.7390641420699
 30
0.0
 11
230.0860284981053
 21
309.82156414207
 31
0.0
  0
LINE
  5
49D
330
1A
100
AcDbEntity
  8
SEIHIN
  6
CONTINUOUS
 62
     3
 48
16.0
100
AcDbLine
 10
223.0856284981053
 20
294.2336641420698
 30
0.0
 11
223.0856284981053
 21
302.31616414207
 31
0.0
  0
LINE
  5
49E
330
1A
100
AcDbEntity
  8
SEIHIN
  6
CONTINUOUS
 62
     3
 48
16.0
100
AcDbLine
 10
217.0863284981052
 20
294.2336641420698
 30
0.0
 11
217.0863284981052
 21
302.31616414207
 31
0.0
  0
LINE
  5
49F
330
1A
100
AcDbEntity
  8
SEIHIN
  6
CONTINUOUS
 62
     3
 48
16.0
100
AcDbLine
 10
227.0857284981053
 20
300.0067641420698
 30
0.0
 11
220.0860284981053
 21
304.04806414207
 31
0.0
  0
LINE
  5
4A0
330
1A
100
AcDbEntity
  8
SEIHIN
  6
CONTINUOUS
 62
     3
 48
16.0
100
AcDbLine
 10
220.0860284981053
 20
304.04806414207
 30
0.0
 11
227.0856284981053
 21
300.0067641420698
 31
0.0
  0
LINE
  5
4A1
330
1A
100
AcDbEntity
  8
SEIHIN
  6
CONTINUOUS
 62
     3
 48
16.0
100
AcDbLine
 10
230.0860284981053
 20
301.7390641420699
 30
0.0
 11
223.0856284981053
 21
297.6973641420698
 31
0.0
  0
LINE
  5
4A2
330
1A
100
AcDbEntity
  8
SEIHIN
  6
CONTINUOUS
 62
     3
 48
16.0
100
AcDbLine
 10
223.0857284981053
 20
309.2444641420699
 30
0.0
 11
230.0860284981053
 21
305.2027641420699
 31
0.0
  0
LINE
  5
4A3
330
1A
100
AcDbEntity
  8
SEIHIN
  6
CONTINUOUS
 62
     3
 48
16.0
100
AcDbLine
 10
230.0860284981053
 20
305.2027641420699
 30
0.0
 11
223.0857284981053
 21
309.2444641420699
 31
0.0
  0
LINE
  5
4A4
330
1A
100
AcDbEntity
  8
SEIHIN
  6
CONTINUOUS
 62
     3
 48
16.0
100
AcDbLine
 10
243.0856284981053
 20
294.2336641420698
 30
0.0
 11
243.0856284981053
 21
302.31616414207
 31
0.0
  0
LINE
  5
4A5
330
1A
100
AcDbEntity
  8
SEIHIN
  6
CONTINUOUS
 62
     3
 48
16.0
100
AcDbLine
 10
236.0853284981053
 20
301.7390641420699
 30
0.0
 11
236.0853284981053
 21
309.82156414207
 31
0.0
  0
LINE
  5
4A6
330
1A
100
AcDbEntity
  8
SEIHIN
  6
CONTINUOUS
 62
     3
 48
16.0
100
AcDbLine
 10
246.0853284981053
 20
304.04806414207
 30
0.0
 11
239.0856284981053
 21
300.0067641420698
 31
0.0
  0
LINE
  5
4A7
330
1A
100
AcDbEntity
  8
SEIHIN
  6
CONTINUOUS
 62
     3
 48
16.0
100
AcDbLine
 10
240.0853284981053
 20
292.50136414207
 30
0.0
 11
233.0856284981053
 21
296.54266414207
 31
0.0
  0
LINE
  5
4A8
330
1A
100
AcDbEntity
  8
SEIHIN
  6
CONTINUOUS
 62
     3
 48
16.0
100
AcDbLine
 10
233.0856284981053
 20
296.54266414207
 30
0.0
 11
240.0852284981052
 21
292.50136414207
 31
0.0
  0
LINE
  5
4A9
330
1A
100
AcDbEntity
  8
SEIHIN
  6
CONTINUOUS
 62
     3
 48
16.0
100
AcDbLine
 10
236.0853284981053
 20
301.7390641420699
 30
0.0
 11
243.0856284981053
 21
297.6972641420699
 31
0.0
  0
LINE
  5
4AA
330
1A
100
AcDbEntity
  8
SEIHIN
  6
CONTINUOUS
 62
     3
 48
16.0
100
AcDbLine
 10
243.0856284981053
 20
297.6973641420698
 30
0.0
 11
236.0853284981053
 21
301.7390641420699
 31
0.0
  0
LINE
  5
4AB
330
1A
100
AcDbEntity
  8
SEIHIN
  6
CONTINUOUS
 62
     3
 48
16.0
100
AcDbLine
 10
243.0857284981053
 20
309.2443641420699
 30
0.0
 11
236.0853284981053
 21
305.2027641420699
 31
0.0
  0
LINE
  5
4AC
330
1A
100
AcDbEntity
  8
SEIHIN
  6
CONTINUOUS
 62
     3
 48
16.0
100
AcDbLine
 10
240.0854284981053
 20
307.5121641420699
 30
0.0
 11
233.0857284981052
 21
311.55346414207
 31
0.0
  0
LINE
  5
4AD
330
1A
100
AcDbEntity
  8
SEIHIN
  6
CONTINUOUS
 62
     3
 48
16.0
100
AcDbLine
 10
233.0857284981052
 20
311.55346414207
 30
0.0
 11
240.0853284981053
 21
307.5121641420699
 31
0.0
  0
LINE
  5
4AE
330
1A
100
AcDbEntity
  8
SEIHIN
  6
CONTINUOUS
 62
     3
 48
16.0
100
AcDbLine
 10
233.0857284981052
 20
326.5642641420699
 30
0.0
 11
226.0860284981053
 21
322.5228641420698
 31
0.0
  0
LINE
  5
4AF
330
1A
100
AcDbEntity
  8
SEIHIN
  6
CONTINUOUS
 62
     3
 48
16.0
100
AcDbLine
 10
223.0857284981053
 20
324.25506414207
 30
0.0
 11
223.0857284981053
 21
332.3376641420699
 31
0.0
  0
LINE
  5
4B0
330
1A
100
AcDbEntity
  8
SEIHIN
  6
CONTINUOUS
 62
     3
 48
16.0
100
AcDbLine
 10
217.0864284981053
 20
324.2551641420699
 30
0.0
 11
217.0864284981053
 21
330.91226414207
 31
0.0
  0
LINE
  5
4B1
330
1A
100
AcDbEntity
  8
SEIHIN
  6
CONTINUOUS
 62
     3
 48
16.0
100
AcDbLine
 10
227.0857284981053
 20
315.0175641420699
 30
0.0
 11
220.0860284981053
 21
319.0588641420698
 31
0.0
  0
LINE
  5
4B2
330
1A
100
AcDbEntity
  8
SEIHIN
  6
CONTINUOUS
 62
     3
 48
16.0
100
AcDbLine
 10
220.0860284981053
 20
319.0588641420698
 30
0.0
 11
227.0857284981053
 21
315.0175641420699
 31
0.0
  0
LINE
  5
4B3
330
1A
100
AcDbEntity
  8
SEIHIN
  6
CONTINUOUS
 62
     3
 48
16.0
100
AcDbLine
 10
230.0860284981053
 20
316.7497641420698
 30
0.0
 11
230.0860284981053
 21
324.8323641420698
 31
0.0
  0
LINE
  5
4B4
330
1A
100
AcDbEntity
  8
SEIHIN
  6
CONTINUOUS
 62
     3
 48
16.0
100
AcDbLine
 10
223.0857284981053
 20
324.25506414207
 30
0.0
 11
230.0860284981053
 21
320.2134641420698
 31
0.0
  0
LINE
  5
4B5
330
1A
100
AcDbEntity
  8
SEIHIN
  6
CONTINUOUS
 62
     3
 48
16.0
100
AcDbLine
 10
230.0860284981053
 20
320.2135641420699
 30
0.0
 11
223.0857284981053
 21
324.25506414207
 31
0.0
  0
LINE
  5
4B6
330
1A
100
AcDbEntity
  8
SEIHIN
  6
CONTINUOUS
 62
     3
 48
16.0
100
AcDbLine
 10
227.0857284981053
 20
330.0283641420699
 30
0.0
 11
220.0860284981053
 21
334.0696641420699
 31
0.0
  0
LINE
  5
4B7
330
1A
100
AcDbEntity
  8
SEIHIN
  6
CONTINUOUS
 62
     3
 48
16.0
100
AcDbLine
 10
220.0860284981053
 20
334.0696641420699
 30
0.0
 11
227.0857284981053
 21
330.0282641420699
 31
0.0
  0
LINE
  5
4B8
330
1A
100
AcDbEntity
  8
SEIHIN
  6
CONTINUOUS
 62
     3
 48
16.0
100
AcDbLine
 10
220.0860284981053
 20
334.0696641420699
 30
0.0
 11
218.0120284981053
 21
332.8721641420699
 31
0.0
  0
LINE
  5
4B9
330
1A
100
AcDbEntity
  8
SEIHIN
  6
CONTINUOUS
 62
     3
 48
16.0
100
AcDbLine
 10
230.0860284981053
 20
331.76056414207
 30
0.0
 11
223.0857284981053
 21
327.71886414207
 31
0.0
  0
LINE
  5
4BA
330
1A
100
AcDbEntity
  8
SEIHIN
  6
CONTINUOUS
 62
     3
 48
16.0
100
AcDbLine
 10
243.0857284981053
 20
324.2551641420699
 30
0.0
 11
243.0857284981053
 21
332.3376641420699
 31
0.0
  0
LINE
  5
4BB
330
1A
100
AcDbEntity
  8
SEIHIN
  6
CONTINUOUS
 62
     3
 48
16.0
100
AcDbLine
 10
240.0854284981053
 20
322.5229641420698
 30
0.0
 11
233.0857284981052
 21
326.5642641420699
 31
0.0
  0
LINE
  5
4BC
330
1A
100
AcDbEntity
  8
SEIHIN
  6
CONTINUOUS
 62
     3
 48
16.0
100
AcDbLine
 10
233.0857284981052
 20
326.5642641420699
 30
0.0
 11
240.0854284981053
 21
322.5228641420698
 31
0.0
  0
LINE
  5
4BD
330
1A
100
AcDbEntity
  8
SEIHIN
  6
CONTINUOUS
 62
     3
 48
16.0
100
AcDbLine
 10
243.0857284981053
 20
324.2551641420699
 30
0.0
 11
236.0854284981053
 21
320.2135641420699
 31
0.0
  0
LINE
  5
4BE
330
1A
100
AcDbEntity
  8
SEIHIN
  6
CONTINUOUS
 62
     3
 48
16.0
100
AcDbLine
 10
236.0854284981053
 20
316.7497641420698
 30
0.0
 11
236.0854284981053
 21
324.8323641420698
 31
0.0
  0
LINE
  5
4BF
330
1A
100
AcDbEntity
  8
SEIHIN
  6
CONTINUOUS
 62
     3
 48
16.0
100
AcDbLine
 10
246.0854284981052
 20
319.0588641420698
 30
0.0
 11
239.0857284981052
 21
315.0175641420699
 31
0.0
  0
LINE
  5
4C0
330
1A
100
AcDbEntity
  8
SEIHIN
  6
CONTINUOUS
 62
     3
 48
16.0
100
AcDbLine
 10
243.0857284981053
 20
327.71886414207
 30
0.0
 11
236.0854284981053
 21
331.76046414207
 31
0.0
  0
LINE
  5
4C1
330
1A
100
AcDbEntity
  8
SEIHIN
  6
CONTINUOUS
 62
     3
 48
16.0
100
AcDbLine
 10
236.0854284981053
 20
331.76056414207
 30
0.0
 11
243.0857284981053
 21
327.71876414207
 31
0.0
  0
LINE
  5
4C2
330
1A
100
AcDbEntity
  8
SEIHIN
  6
CONTINUOUS
 62
     3
 48
16.0
100
AcDbLine
 10
246.0854284981052
 20
334.0696641420699
 30
0.0
 11
239.0857284981052
 21
330.0282641420699
 31
0.0
  0
LINE
  5
4C3
330
1A
100
AcDbEntity
  8
SEIHIN
  6
CONTINUOUS
 62
     3
 48
16.0
100
AcDbLine
 10
246.0855284981052
 20
359.5121641420699
 30
0.0
 11
190.0855284981053
 21
359.51226414207
 31
0.0
  0
LINE
  5
4C4
330
1A
100
AcDbEntity
  8
SEIHIN
  6
CONTINUOUS
 62
     3
 48
16.0
100
AcDbLine
 10
246.0855284981052
 20
358.5121641420698
 30
0.0
 11
189.0855284981053
 21
358.51226414207
 31
0.0
  0
ARC
  5
4C5
330
1A
100
AcDbEntity
  8
SEIHIN
  6
CONTINUOUS
 62
     3
 48
16.0
100
AcDbCircle
 10
206.6655162116455
 20
442.4145444786752
 30
0.0
 40
99.99996382104939
100
AcDbArc
 50
277.9855397172237
 51
293.2161683445631
  0
ARC
  5
4C6
330
1A
100
AcDbEntity
  8
SEIHIN
  6
CONTINUOUS
 62
     3
 48
16.0
100
AcDbCircle
 10
206.6653831277205
 20
438.9145087851685
 30
0.0
 40
99.99998347979969
100
AcDbArc
 50
278.9914734737347
 51
293.2162464832794
  0
LINE
  5
4C7
330
1A
100
AcDbEntity
  8
SEIHIN
  6
CONTINUOUS
 62
     3
 48
16.0
100
AcDbLine
 10
243.0858284981053
 20
339.26586414207
 30
0.0
 11
243.0858284981053
 21
342.28266414207
 31
0.0
  0
LINE
  5
4C8
330
1A
100
AcDbEntity
  8
SEIHIN
  6
CONTINUOUS
 62
     3
 48
16.0
100
AcDbLine
 10
265.8081284981053
 20
337.37366414207
 30
0.0
 11
262.0851284981053
 21
335.2241641420698
 31
0.0
  0
LINE
  5
4C9
330
1A
100
AcDbEntity
  8
SEIHIN
  6
CONTINUOUS
 62
     3
 48
16.0
100
AcDbLine
 10
262.0851284981053
 20
335.2242641420699
 30
0.0
 11
265.8080284981052
 21
337.37366414207
 31
0.0
  0
LINE
  5
4CA
330
1A
100
AcDbEntity
  8
SEIHIN
  6
CONTINUOUS
 62
     3
 48
16.0
100
AcDbLine
 10
249.0854284981053
 20
339.26586414207
 30
0.0
 11
256.0857284981053
 21
335.2241641420698
 31
0.0
  0
LINE
  5
4CB
330
1A
100
AcDbEntity
  8
SEIHIN
  6
CONTINUOUS
 62
     3
 48
16.0
100
AcDbLine
 10
256.0857284981053
 20
331.76046414207
 30
0.0
 11
256.0857284981053
 21
339.8430641420698
 31
0.0
  0
LINE
  5
4CC
330
1A
100
AcDbEntity
  8
SEIHIN
  6
CONTINUOUS
 62
     3
 48
16.0
100
AcDbLine
 10
262.0851284981053
 20
331.76046414207
 30
0.0
 11
262.0851284981053
 21
338.1958641420698
 31
0.0
  0
ARC
  5
4CD
330
1A
100
AcDbEntity
  8
SEIHIN
  6
CONTINUOUS
 62
     3
 48
16.0
100
AcDbCircle
 10
266.543125401749
 20
328.0765670368412
 30
0.0
 40
9.000050659024607
100
AcDbArc
 50
13.87332636810258
 51
79.9808603718424
  0
ARC
  5
4CE
330
1A
100
AcDbEntity
  8
SEIHIN
  6
CONTINUOUS
 62
     3
 48
16.0
100
AcDbCircle
 10
268.3142205477994
 20
330.2661716813644
 30
0.0
 40
9.999997466501884
100
AcDbArc
 50
12.03207849169326
 51
81.00775181424467
  0
ARC
  5
4CF
330
1A
100
AcDbEntity
  8
SEIHIN
  6
CONTINUOUS
 62
     3
 48
16.0
100
AcDbCircle
 10
270.0854022970464
 20
332.4907893434223
 30
0.0
 40
11.00004953740715
100
AcDbArc
 50
10.21393967111367
 51
82.01412148109149
  0
LINE
  5
4D0
330
1A
100
AcDbEntity
  8
SEIHIN
  6
CONTINUOUS
 62
     3
 48
16.0
100
AcDbLine
 10
310.0857284981052
 20
353.5121641420699
 30
0.0
 11
307.0857284981053
 21
299.5121641420698
 31
0.0
  0
LINE
  5
4D1
330
1A
100
AcDbEntity
  8
SEIHIN
  6
CONTINUOUS
 62
     3
 48
16.0
100
AcDbLine
 10
311.0857284981053
 20
353.5121641420699
 30
0.0
 11
308.0857284981053
 21
299.5121641420698
 31
0.0
  0
LINE
  5
4D2
330
1A
100
AcDbEntity
  8
SEIHIN
  6
CONTINUOUS
 62
     3
 48
16.0
100
AcDbLine
 10
284.4734284981053
 20
326.21116414207
 30
0.0
 11
278.0851284981053
 21
322.5227641420699
 31
0.0
  0
LINE
  5
4D3
330
1A
100
AcDbEntity
  8
SEIHIN
  6
CONTINUOUS
 62
     3
 48
16.0
100
AcDbLine
 10
278.0850284981053
 20
322.5228641420698
 30
0.0
 11
284.4734284981053
 21
326.21116414207
 31
0.0
  0
ARC
  5
4D4
330
1A
100
AcDbEntity
  8
SEIHIN
  6
CONTINUOUS
 62
     3
 48
16.0
100
AcDbCircle
 10
277.2846069264898
 20
318.3741821334475
 30
0.0
 40
14.00003498532154
100
AcDbArc
 50
13.65846812654459
 51
86.68309752611092
  0
LINE
  5
4D5
330
1A
100
AcDbEntity
  8
SEIHIN
  6
CONTINUOUS
 62
     3
 48
16.0
100
AcDbLine
 10
275.0847284981054
 20
324.25506414207
 30
0.0
 11
282.0851284981052
 21
320.21336414207
 31
0.0
  0
LINE
  5
4D6
330
1A
100
AcDbEntity
  8
SEIHIN
  6
CONTINUOUS
 62
     3
 48
16.0
100
AcDbLine
 10
282.0851284981052
 20
316.7496641420699
 30
0.0
 11
275.0847284981054
 21
312.70796414207
 31
0.0
  0
LINE
  5
4D7
330
1A
100
AcDbEntity
  8
SEIHIN
  6
CONTINUOUS
 62
     3
 48
16.0
100
AcDbLine
 10
275.0847284981054
 20
312.7080641420698
 30
0.0
 11
282.0850284981053
 21
316.7496641420699
 31
0.0
  0
ARC
  5
4D8
330
1A
100
AcDbEntity
  8
SEIHIN
  6
CONTINUOUS
 62
     3
 48
16.0
100
AcDbCircle
 10
275.0685241278655
 20
317.2362676847632
 30
0.0
 40
12.99999645730747
100
AcDbArc
 50
11.94073324446588
 51
89.99998073874102
  0
LINE
  5
4D9
330
1A
100
AcDbEntity
  8
SEIHIN
  6
CONTINUOUS
 62
     3
 48
16.0
100
AcDbLine
 10
278.0850284981053
 20
292.50136414207
 30
0.0
 11
285.0847284981052
 21
296.5425641420697
 31
0.0
  0
LINE
  5
4DA
330
1A
100
AcDbEntity
  8
SEIHIN
  6
CONTINUOUS
 62
     3
 48
16.0
100
AcDbLine
 10
285.0847284981052
 20
296.5425641420697
 30
0.0
 11
278.0851284981053
 21
292.5012641420699
 31
0.0
  0
LINE
  5
4DB
330
1A
100
AcDbEntity
  8
SEIHIN
  6
CONTINUOUS
 62
     3
 48
16.0
100
AcDbLine
 10
275.0847284981054
 20
309.2442641420698
 30
0.0
 11
282.0851284981052
 21
305.2026641420698
 31
0.0
  0
LINE
  5
4DC
330
1A
100
AcDbEntity
  8
SEIHIN
  6
CONTINUOUS
 62
     3
 48
16.0
100
AcDbLine
 10
282.0851284981052
 20
301.7388641420698
 30
0.0
 11
275.0847284981054
 21
297.6972641420699
 31
0.0
  0
LINE
  5
4DD
330
1A
100
AcDbEntity
  8
SEIHIN
  6
CONTINUOUS
 62
     3
 48
16.0
100
AcDbLine
 10
275.0847284981054
 20
297.6972641420699
 30
0.0
 11
282.0850284981053
 21
301.7389641420699
 31
0.0
  0
LINE
  5
4DE
330
1A
100
AcDbEntity
  8
SEIHIN
  6
CONTINUOUS
 62
     3
 48
16.0
100
AcDbLine
 10
278.0850284981053
 20
307.5120641420699
 30
0.0
 11
285.0847284981052
 21
311.5533641420698
 31
0.0
  0
LINE
  5
4DF
330
1A
100
AcDbEntity
  8
SEIHIN
  6
CONTINUOUS
 62
     3
 48
16.0
100
AcDbLine
 10
285.0847284981052
 20
311.5533641420698
 30
0.0
 11
278.0851284981053
 21
307.5120641420699
 31
0.0
  0
LINE
  5
4E0
330
1A
100
AcDbEntity
  8
SEIHIN
  6
CONTINUOUS
 62
     3
 48
16.0
100
AcDbLine
 10
262.0851284981053
 20
316.7496641420699
 30
0.0
 11
269.0854284981053
 21
312.7080641420698
 31
0.0
  0
LINE
  5
4E1
330
1A
100
AcDbEntity
  8
SEIHIN
  6
CONTINUOUS
 62
     3
 48
16.0
100
AcDbLine
 10
249.0854284981053
 20
312.7080641420698
 30
0.0
 11
256.0857284981053
 21
316.7497641420698
 31
0.0
  0
LINE
  5
4E2
330
1A
100
AcDbEntity
  8
SEIHIN
  6
CONTINUOUS
 62
     3
 48
16.0
100
AcDbLine
 10
256.0857284981053
 20
316.7496641420699
 30
0.0
 11
249.0854284981053
 21
312.7080641420698
 31
0.0
  0
LINE
  5
4E3
330
1A
100
AcDbEntity
  8
SEIHIN
  6
CONTINUOUS
 62
     3
 48
16.0
100
AcDbLine
 10
249.0854284981053
 20
309.2443641420699
 30
0.0
 11
249.0854284981053
 21
317.3268641420699
 31
0.0
  0
LINE
  5
4E4
330
1A
100
AcDbEntity
  8
SEIHIN
  6
CONTINUOUS
 62
     3
 48
16.0
100
AcDbLine
 10
275.0847284981054
 20
309.2442641420698
 30
0.0
 11
275.0847284981054
 21
317.3268641420699
 31
0.0
  0
LINE
  5
4E5
330
1A
100
AcDbEntity
  8
SEIHIN
  6
CONTINUOUS
 62
     3
 48
16.0
100
AcDbLine
 10
269.0854284981053
 20
309.2442641420698
 30
0.0
 11
269.0854284981053
 21
317.3268641420699
 31
0.0
  0
LINE
  5
4E6
330
1A
100
AcDbEntity
  8
SEIHIN
  6
CONTINUOUS
 62
     3
 48
16.0
100
AcDbLine
 10
269.0854284981053
 20
309.2442641420698
 30
0.0
 11
262.0851284981053
 21
305.2026641420698
 31
0.0
  0
LINE
  5
4E7
330
1A
100
AcDbEntity
  8
SEIHIN
  6
CONTINUOUS
 62
     3
 48
16.0
100
AcDbLine
 10
262.0851284981053
 20
305.2026641420698
 30
0.0
 11
269.0854284981053
 21
309.2443641420699
 31
0.0
  0
LINE
  5
4E8
330
1A
100
AcDbEntity
  8
SEIHIN
  6
CONTINUOUS
 62
     3
 48
16.0
100
AcDbLine
 10
262.0851284981053
 20
301.7389641420699
 30
0.0
 11
269.0854284981053
 21
297.6972641420699
 31
0.0
  0
LINE
  5
4E9
330
1A
100
AcDbEntity
  8
SEIHIN
  6
CONTINUOUS
 62
     3
 48
16.0
100
AcDbLine
 10
259.0854284981053
 20
296.54266414207
 30
0.0
 11
266.0851284981053
 21
292.50136414207
 31
0.0
  0
LINE
  5
4EA
330
1A
100
AcDbEntity
  8
SEIHIN
  6
CONTINUOUS
 62
     3
 48
16.0
100
AcDbLine
 10
259.0854284981053
 20
311.5533641420698
 30
0.0
 11
266.0851284981053
 21
307.5120641420699
 31
0.0
  0
LINE
  5
4EB
330
1A
100
AcDbEntity
  8
SEIHIN
  6
CONTINUOUS
 62
     3
 48
16.0
100
AcDbLine
 10
262.0851284981053
 20
301.7389641420699
 30
0.0
 11
262.0851284981053
 21
309.8214641420698
 31
0.0
  0
LINE
  5
4EC
330
1A
100
AcDbEntity
  8
SEIHIN
  6
CONTINUOUS
 62
     3
 48
16.0
100
AcDbLine
 10
256.0857284981053
 20
301.7389641420699
 30
0.0
 11
256.0857284981053
 21
309.8214641420698
 31
0.0
  0
LINE
  5
4ED
330
1A
100
AcDbEntity
  8
SEIHIN
  6
CONTINUOUS
 62
     3
 48
16.0
100
AcDbLine
 10
249.0854284981053
 20
294.2335641420699
 30
0.0
 11
249.0854284981053
 21
302.31616414207
 31
0.0
  0
LINE
  5
4EE
330
1A
100
AcDbEntity
  8
SEIHIN
  6
CONTINUOUS
 62
     3
 48
16.0
100
AcDbLine
 10
252.0857284981054
 20
292.50136414207
 30
0.0
 11
259.0854284981053
 21
296.54266414207
 31
0.0
  0
LINE
  5
4EF
330
1A
100
AcDbEntity
  8
SEIHIN
  6
CONTINUOUS
 62
     3
 48
16.0
100
AcDbLine
 10
259.0854284981053
 20
296.54266414207
 30
0.0
 11
252.0857284981054
 21
292.50136414207
 31
0.0
  0
LINE
  5
4F0
330
1A
100
AcDbEntity
  8
SEIHIN
  6
CONTINUOUS
 62
     3
 48
16.0
100
AcDbLine
 10
256.0857284981053
 20
301.7389641420699
 30
0.0
 11
249.0854284981053
 21
297.6972641420699
 31
0.0
  0
LINE
  5
4F1
330
1A
100
AcDbEntity
  8
SEIHIN
  6
CONTINUOUS
 62
     3
 48
16.0
100
AcDbLine
 10
249.0854284981053
 20
297.6973641420698
 30
0.0
 11
256.0857284981053
 21
301.7389641420699
 31
0.0
  0
LINE
  5
4F2
330
1A
100
AcDbEntity
  8
SEIHIN
  6
CONTINUOUS
 62
     3
 48
16.0
100
AcDbLine
 10
249.0854284981053
 20
309.2443641420699
 30
0.0
 11
256.0857284981053
 21
305.2026641420698
 31
0.0
  0
LINE
  5
4F3
330
1A
100
AcDbEntity
  8
SEIHIN
  6
CONTINUOUS
 62
     3
 48
16.0
100
AcDbLine
 10
252.0857284981054
 20
307.5121641420699
 30
0.0
 11
259.0854284981053
 21
311.5533641420698
 31
0.0
  0
LINE
  5
4F4
330
1A
100
AcDbEntity
  8
SEIHIN
  6
CONTINUOUS
 62
     3
 48
16.0
100
AcDbLine
 10
259.0854284981053
 20
311.5533641420698
 30
0.0
 11
252.0857284981054
 21
307.5120641420699
 31
0.0
  0
LINE
  5
4F5
330
1A
100
AcDbEntity
  8
SEIHIN
  6
CONTINUOUS
 62
     3
 48
16.0
100
AcDbLine
 10
265.0854284981053
 20
300.0067641420698
 30
0.0
 11
272.0851284981053
 21
304.0479641420698
 31
0.0
  0
LINE
  5
4F6
330
1A
100
AcDbEntity
  8
SEIHIN
  6
CONTINUOUS
 62
     3
 48
16.0
100
AcDbLine
 10
272.0851284981053
 20
304.0479641420698
 30
0.0
 11
265.0854284981053
 21
300.0066641420699
 31
0.0
  0
LINE
  5
4F7
330
1A
100
AcDbEntity
  8
SEIHIN
  6
CONTINUOUS
 62
     3
 48
16.0
100
AcDbLine
 10
275.0847284981054
 20
294.2335641420699
 30
0.0
 11
275.0847284981054
 21
302.3160641420699
 31
0.0
  0
LINE
  5
4F8
330
1A
100
AcDbEntity
  8
SEIHIN
  6
CONTINUOUS
 62
     3
 48
16.0
100
AcDbLine
 10
269.0854284981053
 20
294.2335641420699
 30
0.0
 11
269.0854284981053
 21
302.3160641420699
 31
0.0
  0
LINE
  5
4F9
330
1A
100
AcDbEntity
  8
SEIHIN
  6
CONTINUOUS
 62
     3
 48
16.0
100
AcDbLine
 10
272.0851284981053
 20
304.0479641420698
 30
0.0
 11
279.0848284981052
 21
300.0066641420699
 31
0.0
  0
LINE
  5
4FA
330
1A
100
AcDbEntity
  8
SEIHIN
  6
CONTINUOUS
 62
     3
 48
16.0
100
AcDbLine
 10
262.0851284981053
 20
331.76046414207
 30
0.0
 11
269.0854284981053
 21
327.71876414207
 31
0.0
  0
LINE
  5
4FB
330
1A
100
AcDbEntity
  8
SEIHIN
  6
CONTINUOUS
 62
     3
 48
16.0
100
AcDbLine
 10
269.0854284981053
 20
324.25506414207
 30
0.0
 11
262.0851284981053
 21
320.21336414207
 31
0.0
  0
LINE
  5
4FC
330
1A
100
AcDbEntity
  8
SEIHIN
  6
CONTINUOUS
 62
     3
 48
16.0
100
AcDbLine
 10
262.0851284981053
 20
320.2134641420698
 30
0.0
 11
269.0854284981053
 21
324.25506414207
 31
0.0
  0
LINE
  5
4FD
330
1A
100
AcDbEntity
  8
SEIHIN
  6
CONTINUOUS
 62
     3
 48
16.0
100
AcDbLine
 10
259.0854284981053
 20
326.5641641420699
 30
0.0
 11
266.0851284981053
 21
322.5228641420698
 31
0.0
  0
LINE
  5
4FE
330
1A
100
AcDbEntity
  8
SEIHIN
  6
CONTINUOUS
 62
     3
 48
16.0
100
AcDbLine
 10
249.0854284981053
 20
324.25506414207
 30
0.0
 11
249.0854284981053
 21
332.3376641420699
 31
0.0
  0
LINE
  5
4FF
330
1A
100
AcDbEntity
  8
SEIHIN
  6
CONTINUOUS
 62
     3
 48
16.0
100
AcDbLine
 10
252.0857284981054
 20
322.5228641420698
 30
0.0
 11
259.0854284981053
 21
326.5641641420699
 31
0.0
  0
LINE
  5
500
330
1A
100
AcDbEntity
  8
SEIHIN
  6
CONTINUOUS
 62
     3
 48
16.0
100
AcDbLine
 10
259.0854284981053
 20
326.5641641420699
 30
0.0
 11
252.0857284981054
 21
322.5228641420698
 31
0.0
  0
LINE
  5
501
330
1A
100
AcDbEntity
  8
SEIHIN
  6
CONTINUOUS
 62
     3
 48
16.0
100
AcDbLine
 10
249.0854284981053
 20
324.25506414207
 30
0.0
 11
256.0857284981053
 21
320.2134641420698
 31
0.0
  0
LINE
  5
502
330
1A
100
AcDbEntity
  8
SEIHIN
  6
CONTINUOUS
 62
     3
 48
16.0
100
AcDbLine
 10
262.0851284981053
 20
316.7496641420699
 30
0.0
 11
262.0851284981053
 21
324.8322641420699
 31
0.0
  0
LINE
  5
503
330
1A
100
AcDbEntity
  8
SEIHIN
  6
CONTINUOUS
 62
     3
 48
16.0
100
AcDbLine
 10
256.0857284981053
 20
316.7496641420699
 30
0.0
 11
256.0857284981053
 21
324.8322641420699
 31
0.0
  0
LINE
  5
504
330
1A
100
AcDbEntity
  8
SEIHIN
  6
CONTINUOUS
 62
     3
 48
16.0
100
AcDbLine
 10
249.0854284981053
 20
327.71886414207
 30
0.0
 11
256.0857284981053
 21
331.76046414207
 31
0.0
  0
LINE
  5
505
330
1A
100
AcDbEntity
  8
SEIHIN
  6
CONTINUOUS
 62
     3
 48
16.0
100
AcDbLine
 10
256.0857284981053
 20
331.76046414207
 30
0.0
 11
249.0854284981053
 21
327.71876414207
 31
0.0
  0
LINE
  5
506
330
1A
100
AcDbEntity
  8
SEIHIN
  6
CONTINUOUS
 62
     3
 48
16.0
100
AcDbLine
 10
275.0847284981054
 20
324.25506414207
 30
0.0
 11
275.0847284981054
 21
330.91216414207
 31
0.0
  0
LINE
  5
507
330
1A
100
AcDbEntity
  8
SEIHIN
  6
CONTINUOUS
 62
     3
 48
16.0
100
AcDbLine
 10
269.0854284981053
 20
324.25506414207
 30
0.0
 11
269.0854284981053
 21
332.3376641420699
 31
0.0
  0
LINE
  5
508
330
1A
100
AcDbEntity
  8
SEIHIN
  6
CONTINUOUS
 62
     3
 48
16.0
100
AcDbLine
 10
265.0854284981053
 20
315.0174641420699
 30
0.0
 11
272.0851284981053
 21
319.0587641420699
 31
0.0
  0
LINE
  5
509
330
1A
100
AcDbEntity
  8
SEIHIN
  6
CONTINUOUS
 62
     3
 48
16.0
100
AcDbLine
 10
272.0851284981053
 20
319.0587641420699
 30
0.0
 11
265.0854284981053
 21
315.0174641420699
 31
0.0
  0
LINE
  5
50A
330
1A
100
AcDbEntity
  8
SEIHIN
  6
CONTINUOUS
 62
     3
 48
16.0
100
AcDbLine
 10
272.0851284981053
 20
319.0587641420699
 30
0.0
 11
279.0848284981052
 21
315.0174641420699
 31
0.0
  0
LINE
  5
50B
330
1A
100
AcDbEntity
  8
SEIHIN
  6
CONTINUOUS
 62
     3
 48
16.0
100
AcDbLine
 10
265.0854284981053
 20
330.0282641420699
 30
0.0
 11
272.0851284981053
 21
334.0694641420698
 31
0.0
  0
LINE
  5
50C
330
1A
100
AcDbEntity
  8
SEIHIN
  6
CONTINUOUS
 62
     3
 48
16.0
100
AcDbLine
 10
272.0851284981053
 20
334.0694641420698
 30
0.0
 11
265.0854284981053
 21
330.02816414207
 31
0.0
  0
LINE
  5
50D
330
1A
100
AcDbEntity
  8
SEIHIN
  6
CONTINUOUS
 62
     3
 48
16.0
100
AcDbLine
 10
272.0851284981053
 20
334.0694641420698
 30
0.0
 11
274.1591284981053
 21
332.8719641420698
 31
0.0
  0
LINE
  5
50E
330
1A
100
AcDbEntity
  8
SEIHIN
  6
CONTINUOUS
 62
     3
 48
16.0
100
AcDbLine
 10
275.0847284981054
 20
327.71886414207
 30
0.0
 11
278.5989284981052
 21
329.74776414207
 31
0.0
  0
LINE
  5
50F
330
1A
100
AcDbEntity
  8
SEIHIN
  6
CONTINUOUS
 62
     3
 48
16.0
100
AcDbLine
 10
278.5990284981053
 20
329.74776414207
 30
0.0
 11
275.0847284981054
 21
327.71876414207
 31
0.0
  0
ARC
  5
510
330
1A
100
AcDbEntity
  8
SEIHIN
  6
CONTINUOUS
 62
     3
 48
16.0
100
AcDbCircle
 10
236.0853943699585
 20
307.5124154691437
 30
0.0
 40
60.00003412867324
100
AcDbArc
 50
359.9997600004597
 51
15.46575191953318
  0
ARC
  5
511
330
1A
100
AcDbEntity
  8
SEIHIN
  6
CONTINUOUS
 62
     3
 48
16.0
100
AcDbCircle
 10
232.5854110760271
 20
307.5123096181077
 30
0.0
 40
60.00001742225465
100
AcDbArc
 50
359.9998610806573
 51
13.65819302791105
  0
ARC
  5
512
330
1A
100
AcDbEntity
  8
SEIHIN
  6
CONTINUOUS
 62
     3
 48
16.0
100
AcDbCircle
 10
229.0854128577761
 20
307.5123136962535
 30
0.0
 40
60.00001564051561
100
AcDbArc
 50
359.9998571863117
 51
11.94040156143972
  0
ARC
  5
513
330
1A
100
AcDbEntity
  8
SEIHIN
  6
CONTINUOUS
 62
     3
 48
16.0
100
AcDbCircle
 10
236.0853943695814
 20
307.5118128137889
 30
0.0
 40
60.00003412871475
100
AcDbArc
 50
344.5342480816738
 51
0.0001445077813639
  0
LINE
  5
514
330
1A
100
AcDbEntity
  8
SEIHIN
  6
CONTINUOUS
 62
     3
 48
16.0
100
AcDbLine
 10
288.0844284981053
 20
301.7388641420698
 30
0.0
 11
288.0844284981053
 21
309.8214641420698
 31
0.0
  0
LINE
  5
515
330
1A
100
AcDbEntity
  8
SEIHIN
  6
CONTINUOUS
 62
     3
 48
16.0
100
AcDbLine
 10
282.0851284981052
 20
301.7388641420698
 30
0.0
 11
282.0851284981052
 21
309.8214641420698
 31
0.0
  0
ARC
  5
516
330
1A
100
AcDbEntity
  8
SEIHIN
  6
CONTINUOUS
 62
     3
 48
16.0
100
AcDbCircle
 10
232.5854110758267
 20
307.5119186653823
 30
0.0
 40
60.00001742229583
100
AcDbArc
 50
346.3418069727371
 51
0.0000434270251008
  0
ARC
  5
517
330
1A
100
AcDbEntity
  8
SEIHIN
  6
CONTINUOUS
 62
     3
 48
16.0
100
AcDbCircle
 10
229.0854025122464
 20
307.5118156689993
 30
0.0
 40
60.0000259858785
100
AcDbArc
 50
348.0595994724698
 51
0.0000462883527835
  0
LINE
  5
518
330
1A
100
AcDbEntity
  8
SEIHIN
  6
CONTINUOUS
 62
     3
 48
16.0
100
AcDbLine
 10
285.0847284981052
 20
296.5425641420697
 30
0.0
 11
287.7649284981052
 21
294.9951641420698
 31
0.0
  0
LINE
  5
519
330
1A
100
AcDbEntity
  8
SEIHIN
  6
CONTINUOUS
 62
     3
 48
16.0
100
AcDbLine
 10
288.0844284981053
 20
301.7388641420698
 30
0.0
 11
288.7676284981052
 21
301.3444641420698
 31
0.0
  0
LINE
  5
51A
330
1A
100
AcDbEntity
  8
SEIHIN
  6
CONTINUOUS
 62
     3
 48
16.0
100
AcDbLine
 10
285.0847284981052
 20
311.5533641420698
 30
0.0
 11
289.0600284981052
 21
309.25816414207
 31
0.0
  0
ARC
  5
51B
330
1A
100
AcDbEntity
  8
SEIHIN
  6
CONTINUOUS
 62
     3
 48
16.0
100
AcDbCircle
 10
279.455985687238
 20
319.5121160681721
 30
0.0
 40
14.99999628839963
100
AcDbArc
 50
15.46580808093136
 51
84.43300742871004
  0
LINE
  5
51C
330
1A
100
AcDbEntity
  8
SEIHIN
  6
CONTINUOUS
 62
     3
 48
16.0
100
AcDbLine
 10
282.0851284981052
 20
316.7496641420699
 30
0.0
 11
282.0851284981052
 21
324.8322641420699
 31
0.0
  0
LINE
  5
51D
330
1A
100
AcDbEntity
  8
SEIHIN
  6
CONTINUOUS
 62
     3
 48
16.0
100
AcDbLine
 10
288.0844284981053
 20
316.7496641420699
 30
0.0
 11
288.3980284981053
 21
316.5685641420698
 31
0.0
  0
LINE
  5
51E
330
1A
100
AcDbEntity
  8
SEIHIN
  6
CONTINUOUS
 62
     3
 48
16.0
100
AcDbLine
 10
281.0854284981052
 20
334.5121641420699
 30
0.0
 11
280.9842284981053
 21
334.4340641420698
 31
0.0
  0
LINE
  5
51F
330
1A
100
AcDbEntity
  8
SEIHIN
  6
CONTINUOUS
 62
     3
 48
16.0
100
AcDbLine
 10
249.0854284981053
 20
339.26586414207
 30
0.0
 11
249.0854284981053
 21
342.28266414207
 31
0.0
  0
DIMENSION
  5
520
330
1A
100
AcDbEntity
  8
SUNPOU
  6
CONTINUOUS
100
AcDbDimension
  2
*D6
 10
276.0857103130906
 20
449.0191572511878
 30
0.0
 11
246.0857103131322
 21
454.0191572511877
 31
0.0
 12
9.101212834324996
 22
-4.546839488859632
 32
0.0
 70
    32
  1
※a<>
  3
STANDARD
100
AcDbAlignedDimension
 13
216.0857103131739
 23
421.5122649824417
 33
0.0
 14
276.0857103130906
 24
421.5121641420698
 34
0.0
100
AcDbRotatedDimension
1001
ACAD
1000
DSTYLE
1002
{
1070
   140
1040
6.0
1070
    74
1070
     0
1070
   172
1070
     1
1070
    73
1070
     0
1070
   272
1070
     2
1070
    77
1070
     3
1070
   173
1070
     1
1070
   147
1040
2.0
1070
    42
1040
6.0
1070
    44
1040
3.0
1070
    43
1040
14.0
1070
   271
1070
     0
1070
   178
1070
     4
1070
   177
1070
     4
1070
   176
1070
     4
1070
   141
1040
150.0
1070
     7
1000
_OPEN
1070
     6
1000
_OPEN
1070
    41
1040
7.0
1002
}
  0
ARC
  5
521
330
1A
100
AcDbEntity
  8
SEIHIN
  6
CONTINUOUS
 62
     3
 48
16.0
100
AcDbCircle
 10
330.3075839892327
 20
395.4827034485766
 30
0.0
 40
19.99999245257882
100
AcDbArc
 50
296.0341891537094
 51
351.4581353713998
  0
LINE
  5
522
330
1A
100
AcDbEntity
  8
SEIHIN
  6
CONTINUOUS
 62
     3
 48
16.0
100
AcDbLine
 10
321.0857284981053
 20
353.5121641420699
 30
0.0
 11
318.0857284981053
 21
299.5121641420698
 31
0.0
  0
ARC
  5
523
330
1A
100
AcDbEntity
  8
SEIHIN
  6
CONTINUOUS
 62
     3
 48
16.0
100
AcDbCircle
 10
342.1903784983186
 20
354.4075141418566
 30
0.0
 40
14.99995344170086
100
AcDbArc
 50
109.8958264278526
 51
160.1041735721474
  0
ARC
  5
524
330
1A
100
AcDbEntity
  8
SEIHIN
  6
CONTINUOUS
 62
     3
 48
16.0
100
AcDbCircle
 10
320.330636439916
 20
361.4764709492376
 30
0.0
 40
8.000021683410455
100
AcDbArc
 50
275.4159958823406
 51
345.7856497058151
  0
LINE
  5
525
330
1A
100
AcDbEntity
  8
SEIHIN
  6
CONTINUOUS
 62
     3
 48
16.0
100
AcDbLine
 10
339.0857284981052
 20
377.5121641420698
 30
0.0
 11
339.0857284981052
 21
370.5121641420698
 31
0.0
  0
LINE
  5
526
330
1A
100
AcDbEntity
  8
SEIHIN
  6
CONTINUOUS
 62
     3
 48
16.0
100
AcDbLine
 10
337.0857284981052
 20
370.5120641420699
 30
0.0
 11
337.0857284981052
 21
368.5120641420699
 31
0.0
  0
ARC
  5
527
330
1A
100
AcDbEntity
  8
SEIHIN
  6
CONTINUOUS
 62
     3
 48
16.0
100
AcDbCircle
 10
369.7074163362008
 20
388.6401654933059
 30
0.0
 40
19.99997707059017
100
AcDbArc
 50
109.3346299260768
 51
168.8370398975922
  0
LINE
  5
528
330
1A
100
AcDbEntity
  8
SEIHIN
  6
CONTINUOUS
 62
     3
 48
16.0
100
AcDbLine
 10
365.0857284981053
 20
421.5120641420699
 30
0.0
 11
365.0857284981053
 21
409.5121641420698
 31
0.0
  0
LINE
  5
529
330
1A
100
AcDbEntity
  8
SEIHIN
  6
CONTINUOUS
 62
     3
 48
16.0
100
AcDbLine
 10
363.0857284981053
 20
409.5121641420698
 30
0.0
 11
365.0857284981053
 21
409.5121641420698
 31
0.0
  0
LINE
  5
52A
330
1A
100
AcDbEntity
  8
SEIHIN
  6
CONTINUOUS
 62
     3
 48
16.0
100
AcDbLine
 10
363.0857284981053
 20
409.5121641420698
 30
0.0
 11
363.0857284981053
 21
407.5120641420698
 31
0.0
  0
ARC
  5
52B
330
1A
100
AcDbEntity
  8
SEIHIN
  6
CONTINUOUS
 62
     3
 48
16.0
100
AcDbCircle
 10
807.3957000856974
 20
351.1881466380029
 30
0.0
 40
300.0000540162198
100
AcDbArc
 50
189.9189696684444
 51
195.9970914803095
  0
ARC
  5
52C
330
1A
100
AcDbEntity
  8
SEIHIN
  6
CONTINUOUS
 62
     3
 48
16.0
100
AcDbCircle
 10
810.3957045724316
 20
351.1881117280478
 30
0.0
 40
300.000052422467
100
AcDbArc
 50
189.9189629531898
 51
198.5977306118988
  0
ARC
  5
52D
330
1A
100
AcDbEntity
  8
SEIHIN
  6
CONTINUOUS
 62
     3
 48
16.0
100
AcDbCircle
 10
811.3957045724315
 20
351.1881117280467
 30
0.0
 40
300.0000524224668
100
AcDbArc
 50
189.9189629531896
 51
198.5977306118986
  0
ARC
  5
52E
330
1A
100
AcDbEntity
  8
SEIHIN
  6
CONTINUOUS
 62
     3
 48
16.0
100
AcDbCircle
 10
814.3956123014678
 20
351.1884601702061
 30
0.0
 40
300.0000387775461
100
AcDbArc
 50
189.9190503546735
 51
199.4044634968647
  0
LINE
  5
52F
330
1A
100
AcDbEntity
  8
SEIHIN
  6
CONTINUOUS
 62
     3
 48
16.0
100
AcDbLine
 10
654.8801420773032
 20
361.51136414207
 30
0.0
 11
644.9237420773032
 21
220.9780641420699
 31
0.0
  0
LINE
  5
530
330
1A
100
AcDbEntity
  8
CENTER_L
  6
CENTER
 62
     1
 48
5.0
100
AcDbLine
 10
591.6300420773032
 20
336.16536414207
 30
0.0
 11
591.6300420773032
 21
276.21156414207
 31
0.0
  0
TEXT
  5
531
330
1A
100
AcDbEntity
  8
SUNPOU
 62
     4
100
AcDbText
 10
596.0428967526804
 20
58.53591777945431
 30
0.0
 40
8.0
  1
※b　エルボの差込み寸法を示す。　
100
AcDbText
  0
TEXT
  5
532
330
1A
100
AcDbEntity
  8
SUNPOU
 62
     4
100
AcDbText
 10
596.0428967526804
 20
71.27027529801754
 30
0.0
 40
8.0
  1
※a　のきといの縁切り間隔寸法を示す。　
100
AcDbText
  0
LINE
  5
533
330
1A
100
AcDbEntity
  8
SEIHIN
  6
CONTINUOUS
 62
     3
 48
16.0
100
AcDbLine
 10
643.7987420773032
 20
247.5113641420699
 30
0.0
 11
537.0957420773031
 21
247.5116641420699
 31
0.0
  0
LINE
  5
534
330
1A
100
AcDbEntity
  8
SEIHIN
  6
CONTINUOUS
 62
     3
 48
16.0
100
AcDbLine
 10
641.7877420773033
 20
242.5113641420699
 30
0.0
 11
537.879842077303
 21
242.5116641420699
 31
0.0
  0
LINE
  5
535
330
1A
100
AcDbEntity
  8
SEIHIN
  6
CONTINUOUS
 62
     3
 48
16.0
100
AcDbLine
 10
596.8797420773032
 20
173.5114641420699
 30
0.0
 11
567.6797420773031
 21
173.5114641420699
 31
0.0
  0
ARC
  5
536
330
1A
100
AcDbEntity
  8
SEIHIN
  6
CONTINUOUS
 62
     3
 48
16.0
100
AcDbCircle
 10
596.4439485696145
 20
419.8888641420486
 30
0.0
 40
200.0000698869754
100
AcDbArc
 50
261.3388237521005
 51
278.6607957668873
  0
LINE
  5
537
330
1A
100
AcDbEntity
  8
SEIHIN
  6
CONTINUOUS
 62
     3
 48
16.0
100
AcDbLine
 10
596.8797420773032
 20
189.51146414207
 30
0.0
 11
560.0298420773031
 21
189.51146414207
 31
0.0
  0
LINE
  5
538
330
1A
100
AcDbEntity
  8
SEIHIN
  6
CONTINUOUS
 62
     3
 48
16.0
100
AcDbLine
 10
596.8797420773032
 20
186.51146414207
 30
0.0
 11
562.9797420773033
 21
186.51146414207
 31
0.0
  0
LINE
  5
539
330
1A
100
AcDbEntity
  8
SEIHIN
  6
CONTINUOUS
 62
     3
 48
16.0
100
AcDbLine
 10
596.8797420773032
 20
209.5114641420699
 30
0.0
 11
557.8797420773033
 21
209.5116641420699
 31
0.0
  0
DIMENSION
  5
53A
330
1A
100
AcDbEntity
  8
SUNPOU
  6
CONTINUOUS
100
AcDbDimension
  2
*D7
 10
567.6797420773031
 20
138.9002888069578
 30
0.0
 11
596.879742077303
 21
143.9002888069578
 31
0.0
 12
9.101212834324996
 22
-4.546839488859632
 32
0.0
 70
    32
  1
φ<>
  3
STANDARD
100
AcDbAlignedDimension
 13
626.079742077303
 23
173.5113641420699
 33
0.0
 14
567.6797420773031
 24
173.5114641420699
 34
0.0
100
AcDbRotatedDimension
1001
ACAD
1000
DSTYLE
1002
{
1070
   140
1040
6.0
1070
    74
1070
     0
1070
   172
1070
     1
1070
    73
1070
     0
1070
   272
1070
     2
1070
    77
1070
     3
1070
   173
1070
     1
1070
   147
1040
2.0
1070
    42
1040
6.0
1070
    44
1040
3.0
1070
    43
1040
14.0
1070
   271
1070
     0
1070
   178
1070
     4
1070
   177
1070
     4
1070
   176
1070
     4
1070
   141
1040
150.0
1070
     7
1000
_OPEN
1070
     6
1000
_OPEN
1070
    41
1040
7.0
1002
}
  0
DIMENSION
  5
53B
330
1A
100
AcDbEntity
  8
SUNPOU
  6
CONTINUOUS
100
AcDbDimension
  2
*D8
 10
560.0297420773032
 20
115.746171377654
 30
0.0
 11
596.8797420773032
 21
120.746171377654
 31
0.0
 12
9.101212834324996
 22
-4.546839488859632
 32
0.0
 70
    32
  1
φ<>
  3
STANDARD
100
AcDbAlignedDimension
 13
633.7297420773032
 23
189.51146414207
 33
0.0
 14
560.0297420773032
 24
189.51156414207
 34
0.0
100
AcDbRotatedDimension
1001
ACAD
1000
DSTYLE
1002
{
1070
   140
1040
6.0
1070
    74
1070
     0
1070
   172
1070
     1
1070
    73
1070
     0
1070
   272
1070
     2
1070
    77
1070
     3
1070
   173
1070
     1
1070
   147
1040
2.0
1070
    42
1040
6.0
1070
    44
1040
3.0
1070
    43
1040
14.0
1070
   271
1070
     0
1070
   178
1070
     4
1070
   177
1070
     4
1070
   176
1070
     4
1070
   141
1040
150.0
1070
     7
1000
_OPEN
1070
     6
1000
_OPEN
1070
    41
1040
7.0
1002
}
  0
LINE
  5
53C
330
1A
100
AcDbEntity
  8
SEIHIN
  6
CONTINUOUS
 62
     3
 48
16.0
100
AcDbLine
 10
560.0297420773032
 20
209.5115641420699
 30
0.0
 11
560.0297420773032
 21
189.51156414207
 31
0.0
  0
LINE
  5
53D
330
1A
100
AcDbEntity
  8
SEIHIN
  6
CONTINUOUS
 62
     3
 48
16.0
100
AcDbLine
 10
567.6797420773031
 20
173.51156414207
 30
0.0
 11
567.6798420773031
 21
186.5115641420699
 31
0.0
  0
LINE
  5
53E
330
1A
100
AcDbEntity
  8
SEIHIN
  6
CONTINUOUS
 62
     3
 48
16.0
100
AcDbLine
 10
560.0298420773031
 20
189.51146414207
 30
0.0
 11
562.9797420773033
 21
186.51146414207
 31
0.0
  0
LINE
  5
53F
330
1A
100
AcDbEntity
  8
SEIHIN
  6
CONTINUOUS
 62
     3
 48
16.0
100
AcDbLine
 10
537.879842077303
 20
242.5116641420699
 30
0.0
 11
537.879842077303
 21
247.5116641420699
 31
0.0
  0
ARC
  5
540
330
1A
100
AcDbEntity
  8
SEIHIN
  6
CONTINUOUS
 62
     3
 48
16.0
100
AcDbCircle
 10
518.8805186743131
 20
219.2947103163543
 30
0.0
 40
30.0000205786064
100
AcDbArc
 50
3.050058495045506
 51
50.7052216798619
  0
ARC
  5
541
330
1A
100
AcDbEntity
  8
SEIHIN
  6
CONTINUOUS
 62
     3
 48
16.0
100
AcDbCircle
 10
547.8799350649124
 20
209.5617731050936
 30
0.0
 40
9.999933061027439
100
AcDbArc
 50
359.7123206980854
 51
76.36461837502402
  0
ARC
  5
542
330
1A
100
AcDbEntity
  8
SEIHIN
  6
CONTINUOUS
 62
     3
 48
16.0
100
AcDbCircle
 10
550.8241390119932
 20
221.1946678938068
 30
0.0
 40
1.999983031179769
100
AcDbArc
 50
183.5260531130312
 51
254.97439597315
  0
LINE
  5
543
330
1A
100
AcDbEntity
  8
SEIHIN
  6
CONTINUOUS
 62
     3
 48
16.0
100
AcDbLine
 10
523.2275420773032
 20
264.5117641420699
 30
0.0
 11
518.960242077303
 21
268.5117641420699
 31
0.0
  0
LINE
  5
544
330
1A
100
AcDbEntity
  8
SEIHIN
  6
CONTINUOUS
 62
     3
 48
16.0
100
AcDbLine
 10
524.1899420773031
 20
264.5116641420699
 30
0.0
 11
523.2275420773032
 21
264.5117641420699
 31
0.0
  0
ARC
  5
545
330
1A
100
AcDbEntity
  8
SEIHIN
  6
CONTINUOUS
 62
     3
 48
16.0
100
AcDbCircle
 10
537.0957310012467
 20
253.5116719837263
 30
0.0
 40
6.000007841666602
100
AcDbArc
 50
199.4044389299075
 51
270.0001057684108
  0
LINE
  5
546
330
1A
100
AcDbEntity
  8
SEIHIN
  6
CONTINUOUS
 62
     3
 48
16.0
100
AcDbLine
 10
530.3395420773031
 20
254.5116641420699
 30
0.0
 11
527.2102420773032
 21
255.5116641420699
 31
0.0
  0
LINE
  5
547
330
1A
100
AcDbEntity
  8
SEIHIN
  6
CONTINUOUS
 62
     3
 48
16.0
100
AcDbLine
 10
527.0614420773032
 20
255.5116641420699
 30
0.0
 11
526.0614420773032
 21
255.5116641420699
 31
0.0
  0
LINE
  5
548
330
1A
100
AcDbEntity
  8
SEIHIN
  6
CONTINUOUS
 62
     3
 48
16.0
100
AcDbLine
 10
518.818042077303
 20
280.5117641420699
 30
0.0
 11
514.9942420773031
 21
284.0961641420698
 31
0.0
  0
LINE
  5
549
330
1A
100
AcDbEntity
  8
SEIHIN
  6
CONTINUOUS
 62
     3
 48
16.0
100
AcDbLine
 10
519.7804420773032
 20
280.5117641420699
 30
0.0
 11
518.818042077303
 21
280.5117641420699
 31
0.0
  0
LINE
  5
54A
330
1A
100
AcDbEntity
  8
SEIHIN
  6
CONTINUOUS
 62
     3
 48
16.0
100
AcDbLine
 10
633.7297420773032
 20
209.5114641420699
 30
0.0
 11
633.7297420773032
 21
189.51146414207
 31
0.0
  0
LINE
  5
54B
330
1A
100
AcDbEntity
  8
CENTER_L
  6
CENTER
 62
     1
 48
5.0
100
AcDbLine
 10
596.8797420773032
 20
219.4652641420698
 30
0.0
 11
596.8797420773032
 21
159.5114641420699
 31
0.0
  0
DIMENSION
  5
54C
330
1A
100
AcDbEntity
  8
SUNPOU
  6
CONTINUOUS
100
AcDbDimension
  2
*D9
 10
677.6470933341211
 20
198.5113554400572
 30
0.0
 11
672.6470933341211
 21
226.9113554400572
 31
0.0
 12
37.28308367132171
 22
-21.46639286688866
 32
0.0
 70
    32
  1
※b <>
  3
STANDARD
100
AcDbAlignedDimension
 13
630.7797420773031
 23
186.5113641420699
 33
0.0
 14
633.7297420773032
 24
198.5113554400572
 34
0.0
 50
90.0
100
AcDbRotatedDimension
1001
ACAD
1000
DSTYLE
1002
{
1070
   140
1040
6.0
1070
    74
1070
     0
1070
   172
1070
     1
1070
    73
1070
     0
1070
   272
1070
     2
1070
    77
1070
     3
1070
   173
1070
     1
1070
   147
1040
2.0
1070
    42
1040
6.0
1070
    44
1040
3.0
1070
    43
1040
14.0
1070
   271
1070
     0
1070
   178
1070
     4
1070
   177
1070
     4
1070
   176
1070
     4
1070
   141
1040
150.0
1070
     7
1000
_OPEN
1070
     6
1000
_OPEN
1070
    41
1040
7.0
1002
}
  0
LINE
  5
54D
330
1A
100
AcDbEntity
  8
SEIHIN
  6
CONTINUOUS
 62
     3
 48
16.0
100
AcDbLine
 10
596.8796420773032
 20
173.5114641420699
 30
0.0
 11
626.079742077303
 21
173.5113641420699
 31
0.0
  0
LINE
  5
54E
330
1A
100
AcDbEntity
  8
SEIHIN
  6
CONTINUOUS
 62
     3
 48
16.0
100
AcDbLine
 10
596.8797420773032
 20
186.51146414207
 30
0.0
 11
630.7797420773031
 21
186.5113641420699
 31
0.0
  0
LINE
  5
54F
330
1A
100
AcDbEntity
  8
SEIHIN
  6
CONTINUOUS
 62
     3
 48
16.0
100
AcDbLine
 10
596.8797420773032
 20
189.51146414207
 30
0.0
 11
633.7297420773032
 21
189.5113641420699
 31
0.0
  0
LINE
  5
550
330
1A
100
AcDbEntity
  8
SEIHIN
  6
CONTINUOUS
 62
     3
 48
16.0
100
AcDbLine
 10
626.0796420773031
 20
173.5114641420699
 30
0.0
 11
626.0796420773031
 21
186.51146414207
 31
0.0
  0
LINE
  5
551
330
1A
100
AcDbEntity
  8
SEIHIN
  6
CONTINUOUS
 62
     3
 48
16.0
100
AcDbLine
 10
633.7297420773032
 20
189.5113641420699
 30
0.0
 11
630.7797420773031
 21
186.5113641420699
 31
0.0
  0
ARC
  5
552
330
1A
100
AcDbEntity
  8
SEIHIN
  6
CONTINUOUS
 62
     3
 48
16.0
100
AcDbCircle
 10
645.8796479393206
 20
209.5614716346255
 30
0.0
 40
10.00003140045186
100
AcDbArc
 50
103.635238163497
 51
180.2870950844339
  0
DIMENSION
  5
553
330
1A
100
AcDbEntity
  8
SUNPOU
  6
CONTINUOUS
100
AcDbDimension
  2
*D10
 10
596.8797420773032
 20
260.5711889276319
 30
0.0
 11
614.8797420773032
 21
265.5711889276318
 31
0.0
 12
37.28308367132171
 22
-21.46639286688866
 32
0.0
 70
    32
  3
STANDARD
100
AcDbAlignedDimension
 13
591.6300420773032
 23
276.21156414207
 33
0.0
 14
596.8797420773032
 24
219.4652641420698
 34
0.0
100
AcDbRotatedDimension
1001
ACAD
1000
DSTYLE
1002
{
1070
   140
1040
6.0
1070
    74
1070
     0
1070
   172
1070
     1
1070
    73
1070
     0
1070
   272
1070
     2
1070
    77
1070
     3
1070
   173
1070
     1
1070
   147
1040
2.0
1070
    42
1040
6.0
1070
    44
1040
3.0
1070
    43
1040
14.0
1070
   271
1070
     0
1070
   178
1070
     4
1070
   177
1070
     4
1070
   176
1070
     4
1070
   141
1040
150.0
1070
     7
1000
_OPEN
1070
     6
1000
_OPEN
1070
    41
1040
7.0
1002
}
  0
LINE
  5
554
330
1A
100
AcDbEntity
  8
SEIHIN
  6
CONTINUOUS
 62
     3
 48
16.0
100
AcDbLine
 10
596.8797420773032
 20
209.5114641420699
 30
0.0
 11
635.879742077303
 21
209.5113641420699
 31
0.0
  0
ARC
  5
555
330
1A
100
AcDbEntity
  8
SEIHIN
  6
CONTINUOUS
 62
     3
 48
16.0
100
AcDbCircle
 10
642.9355101902732
 20
221.1944251188767
 30
0.0
 40
2.00002143758702
100
AcDbArc
 50
285.0233792749808
 51
356.4723722128138
  0
DIMENSION
  5
556
330
1A
100
AcDbEntity
  8
SUNPOU
  6
CONTINUOUS
100
AcDbDimension
  2
*D11
 10
464.880242077303
 20
467.5285063649782
 30
0.0
 11
559.8801920773031
 21
472.5285063649782
 31
0.0
 12
9.101212834324996
 22
-4.546839488859632
 32
0.0
 70
    32
  3
STANDARD
100
AcDbAlignedDimension
 13
654.8801420773032
 23
361.51136414207
 33
0.0
 14
464.880242077303
 24
421.5119641420698
 34
0.0
100
AcDbRotatedDimension
1001
ACAD
1000
DSTYLE
1002
{
1070
   140
1040
6.0
1070
    74
1070
     0
1070
   172
1070
     1
1070
    73
1070
     0
1070
   272
1070
     2
1070
    77
1070
     3
1070
   173
1070
     1
1070
   147
1040
2.0
1070
    42
1040
6.0
1070
    44
1040
3.0
1070
    43
1040
14.0
1070
   271
1070
     0
1070
   178
1070
     4
1070
   177
1070
     4
1070
   176
1070
     4
1070
   141
1040
150.0
1070
     7
1000
_OPEN
1070
     6
1000
_OPEN
1070
    41
1040
7.0
1002
}
  0
ARC
  5
557
330
1A
100
AcDbEntity
  8
SEIHIN
  6
CONTINUOUS
 62
     3
 48
16.0
100
AcDbCircle
 10
591.6301274420658
 20
353.5115759636171
 30
0.0
 40
50.3000118216196
100
AcDbArc
 50
192.1413542814304
 51
269.9999027626349
  0
ARC
  5
558
330
1A
100
AcDbEntity
  8
NOKITOI
  6
PHANTOM
 62
     8
 48
2.0
100
AcDbCircle
 10
591.6300420773033
 20
353.51157614207
 30
0.0
 40
49.00000099999999
100
AcDbArc
 50
185.413376
 51
354.5863799999999
  0
ARC
  5
559
330
1A
100
AcDbEntity
  8
NOKITOI
  6
PHANTOM
 62
     8
 48
2.0
100
AcDbCircle
 10
591.6300420773033
 20
353.51157614207
 30
0.0
 40
50.300012
100
AcDbArc
 50
188.6764639999999
 51
351.2914929999999
  0
ARC
  5
55A
330
1A
100
AcDbEntity
  8
SEIHIN
  6
CONTINUOUS
 62
     3
 48
16.0
100
AcDbCircle
 10
499.6584039271628
 20
395.4825161653003
 30
0.0
 40
20.00001149005571
100
AcDbArc
 50
188.541893276395
 51
243.9657821984944
  0
LINE
  5
55B
330
1A
100
AcDbEntity
  8
SEIHIN
  6
CONTINUOUS
 62
     3
 48
16.0
100
AcDbLine
 10
552.8802420773032
 20
361.74736414207
 30
0.0
 11
530.4491420773032
 21
415.3708641420697
 31
0.0
  0
LINE
  5
55C
330
1A
100
AcDbEntity
  8
SEIHIN
  6
CONTINUOUS
 62
     3
 48
16.0
100
AcDbLine
 10
510.3289420773031
 20
334.40676414207
 30
0.0
 11
507.8420420773031
 21
330.4489641420699
 31
0.0
  0
LINE
  5
55D
330
1A
100
AcDbEntity
  8
SEIHIN
  6
CONTINUOUS
 62
     3
 48
16.0
100
AcDbLine
 10
508.8801420773031
 20
353.5117641420697
 30
0.0
 11
547.2864420773032
 21
353.5117641420697
 31
0.0
  0
LINE
  5
55E
330
1A
100
AcDbEntity
  8
SEIHIN
  6
CONTINUOUS
 62
     3
 48
16.0
100
AcDbLine
 10
492.880142077303
 20
368.5118641420698
 30
0.0
 11
550.0506420773031
 21
368.5117641420698
 31
0.0
  0
LINE
  5
55F
330
1A
100
AcDbEntity
  8
SEIHIN
  6
CONTINUOUS
 62
     3
 48
16.0
100
AcDbLine
 10
492.8802420773032
 20
370.5118641420698
 30
0.0
 11
549.214042077303
 21
370.5117641420698
 31
0.0
  0
LINE
  5
560
330
1A
100
AcDbEntity
  8
SEIHIN
  6
CONTINUOUS
 62
     3
 48
16.0
100
AcDbLine
 10
490.8802420773032
 20
377.5119641420698
 30
0.0
 11
546.285842077303
 21
377.5117641420698
 31
0.0
  0
LINE
  5
561
330
1A
100
AcDbEntity
  8
SEIHIN
  6
CONTINUOUS
 62
     3
 48
16.0
100
AcDbLine
 10
505.7875420773032
 20
346.51186414207
 30
0.0
 11
511.879942077303
 21
299.5117641420698
 31
0.0
  0
LINE
  5
562
330
1A
100
AcDbEntity
  8
SEIHIN
  6
CONTINUOUS
 62
     3
 48
16.0
100
AcDbLine
 10
508.2747420773032
 20
350.4677641420698
 30
0.0
 11
514.8799420773031
 21
299.5117641420698
 31
0.0
  0
LINE
  5
563
330
1A
100
AcDbEntity
  8
SEIHIN
  6
CONTINUOUS
 62
     3
 48
16.0
100
AcDbLine
 10
508.8801420773031
 20
353.5117641420697
 30
0.0
 11
515.8799420773032
 21
299.5117641420698
 31
0.0
  0
ARC
  5
564
330
1A
100
AcDbEntity
  8
SEIHIN
  6
CONTINUOUS
 62
     3
 48
16.0
100
AcDbCircle
 10
509.8799296879475
 20
361.4491783013839
 30
0.0
 40
8.000033208058743
100
AcDbArc
 50
179.5510430060183
 51
262.8208073254019
  0
LINE
  5
565
330
1A
100
AcDbEntity
  8
SEIHIN
  6
CONTINUOUS
 62
     3
 48
16.0
100
AcDbLine
 10
508.2747420773032
 20
350.4677641420698
 30
0.0
 11
505.7878420773032
 21
346.5098641420699
 31
0.0
  0
LINE
  5
566
330
1A
100
AcDbEntity
  8
SEIHIN
  6
CONTINUOUS
 62
     3
 48
16.0
100
AcDbLine
 10
509.2690420773031
 20
350.51186414207
 30
0.0
 11
508.2690420773031
 21
350.5117641420698
 31
0.0
  0
ARC
  5
567
330
1A
100
AcDbEntity
  8
SEIHIN
  6
CONTINUOUS
 62
     3
 48
16.0
100
AcDbCircle
 10
488.8620628465079
 20
354.06004798819
 30
0.0
 40
14.9999983616828
100
AcDbArc
 50
29.78770899539335
 51
74.46232370241173
  0
LINE
  5
568
330
1A
100
AcDbEntity
  8
SEIHIN
  6
CONTINUOUS
 62
     3
 48
16.0
100
AcDbLine
 10
490.8802420773032
 20
370.5118641420698
 30
0.0
 11
490.8802420773032
 21
377.5119641420698
 31
0.0
  0
LINE
  5
569
330
1A
100
AcDbEntity
  8
SEIHIN
  6
CONTINUOUS
 62
     3
 48
16.0
100
AcDbLine
 10
492.8802420773032
 20
370.5118641420698
 30
0.0
 11
492.880142077303
 21
368.5118641420698
 31
0.0
  0
LINE
  5
56A
330
1A
100
AcDbEntity
  8
SEIHIN
  6
CONTINUOUS
 62
     3
 48
16.0
100
AcDbLine
 10
490.8802420773032
 20
370.5118641420698
 30
0.0
 11
492.8802420773032
 21
370.5118641420698
 31
0.0
  0
LINE
  5
56B
330
1A
100
AcDbEntity
  8
SEIHIN
  6
CONTINUOUS
 62
     3
 48
16.0
100
AcDbLine
 10
511.8801420773031
 20
353.51186414207
 30
0.0
 11
518.8799420773031
 21
299.5117641420698
 31
0.0
  0
LINE
  5
56C
330
1A
100
AcDbEntity
  8
SEIHIN
  6
CONTINUOUS
 62
     3
 48
16.0
100
AcDbLine
 10
511.3232420773029
 20
334.4508641420698
 30
0.0
 11
510.3232420773032
 21
334.4508641420698
 31
0.0
  0
ARC
  5
56D
330
1A
100
AcDbEntity
  8
SEIHIN
  6
CONTINUOUS
 62
     3
 48
16.0
100
AcDbCircle
 10
540.8924082533988
 20
350.0497812858895
 30
0.0
 40
3.499955253449983
100
AcDbArc
 50
44.70075705346146
 51
81.54125427039884
  0
ARC
  5
56E
330
1A
100
AcDbEntity
  8
SEIHIN
  6
CONTINUOUS
 62
     3
 48
16.0
100
AcDbCircle
 10
540.4999974158275
 20
342.5118002177205
 30
0.0
 40
1.999963924847936
100
AcDbArc
 50
12.13909875092018
 51
89.99872051988981
  0
ARC
  5
56F
330
1A
100
AcDbEntity
  8
NOKITOI
  6
PHANTOM
 62
     8
 48
2.0
100
AcDbCircle
 10
538.8684420773033
 20
348.51167614207
 30
0.0
 40
3.999994
100
AcDbArc
 50
5.413986
 51
185.413851
  0
CIRCLE
  5
570
330
1A
100
AcDbEntity
  8
NOKITOI
  6
PHANTOM
 62
     8
 48
2.0
100
AcDbCircle
 10
538.8684420773033
 20
348.51167614207
 30
0.0
 40
2.7
  0
LINE
  5
571
330
1A
100
AcDbEntity
  8
SEIHIN
  6
CONTINUOUS
 62
     3
 48
16.0
100
AcDbLine
 10
534.3802420773032
 20
350.0116641420699
 30
0.0
 11
534.3801420773031
 21
348.0116641420699
 31
0.0
  0
ARC
  5
572
330
1A
100
AcDbEntity
  8
SEIHIN
  6
CONTINUOUS
 62
     3
 48
16.0
100
AcDbCircle
 10
537.8801420773031
 20
348.0116641420699
 30
0.0
 40
3.500000000000113
100
AcDbArc
 50
180.0
 51
270.0
  0
LINE
  5
573
330
1A
100
AcDbEntity
  8
SEIHIN
  6
CONTINUOUS
 62
     3
 48
16.0
100
AcDbLine
 10
540.5000420773033
 20
344.5117641420698
 30
0.0
 11
537.8801420773031
 21
344.5117641420698
 31
0.0
  0
ARC
  5
574
330
1A
100
AcDbEntity
  8
NOKITOI
  6
PHANTOM
 62
     8
 48
2.0
100
AcDbCircle
 10
538.8684420773033
 20
348.51167614207
 30
0.0
 40
4.000029
100
AcDbArc
 50
185.413851
 51
319.252818
  0
ARC
  5
575
330
1A
100
AcDbEntity
  8
SEIHIN
  6
CONTINUOUS
 62
     3
 48
16.0
100
AcDbCircle
 10
537.8801420773031
 20
350.0116641420699
 30
0.0
 40
3.500000000000056
100
AcDbArc
 50
89.99999999999907
 51
179.999999999999
  0
LINE
  5
576
330
1A
100
AcDbEntity
  8
SEIHIN
  6
CONTINUOUS
 62
     3
 48
16.0
100
AcDbLine
 10
541.5097420773032
 20
353.5116641420699
 30
0.0
 11
537.8801420773031
 21
353.5116641420699
 31
0.0
  0
ARC
  5
577
330
1A
100
AcDbEntity
  8
SEIHIN
  6
CONTINUOUS
 62
     3
 48
16.0
100
AcDbCircle
 10
542.9041352760507
 20
362.5003575210945
 30
0.0
 40
10.00002889470878
100
AcDbArc
 50
272.7283411727305
 51
355.7327273250072
  0
LINE
  5
578
330
1A
100
AcDbEntity
  8
SEIHIN
  6
CONTINUOUS
 62
     3
 48
16.0
100
AcDbLine
 10
466.8802420773032
 20
409.51196414207
 30
0.0
 11
532.9000420773032
 21
409.5117641420698
 31
0.0
  0
LINE
  5
579
330
1A
100
AcDbEntity
  8
SEIHIN
  6
CONTINUOUS
 62
     3
 48
16.0
100
AcDbLine
 10
464.880242077303
 20
421.5119641420698
 30
0.0
 11
521.223742077303
 21
421.51186414207
 31
0.0
  0
LINE
  5
57A
330
1A
100
AcDbEntity
  8
SEIHIN
  6
CONTINUOUS
 62
     3
 48
16.0
100
AcDbLine
 10
466.8802420773032
 20
407.51186414207
 30
0.0
 11
533.7366420773032
 21
407.5117641420698
 31
0.0
  0
ARC
  5
57B
330
1A
100
AcDbEntity
  8
SEIHIN
  6
CONTINUOUS
 62
     3
 48
16.0
100
AcDbCircle
 10
460.258668473189
 20
388.639833685171
 30
0.0
 40
19.99996926399698
100
AcDbArc
 50
11.16305739664215
 51
70.66570904340816
  0
LINE
  5
57C
330
1A
100
AcDbEntity
  8
SEIHIN
  6
CONTINUOUS
 62
     3
 48
16.0
100
AcDbLine
 10
464.880242077303
 20
421.5119641420698
 30
0.0
 11
464.880242077303
 21
409.51196414207
 31
0.0
  0
LINE
  5
57D
330
1A
100
AcDbEntity
  8
SEIHIN
  6
CONTINUOUS
 62
     3
 48
16.0
100
AcDbLine
 10
464.880242077303
 20
409.51196414207
 30
0.0
 11
466.8802420773032
 21
409.51196414207
 31
0.0
  0
LINE
  5
57E
330
1A
100
AcDbEntity
  8
SEIHIN
  6
CONTINUOUS
 62
     3
 48
16.0
100
AcDbLine
 10
466.8802420773032
 20
409.51196414207
 30
0.0
 11
466.8802420773032
 21
407.51186414207
 31
0.0
  0
ARC
  5
57F
330
1A
100
AcDbEntity
  8
SEIHIN
  6
CONTINUOUS
 62
     3
 48
16.0
100
AcDbCircle
 10
521.2237667886399
 20
411.5117476928468
 30
0.0
 40
10.00001644925359
100
AcDbArc
 50
22.70030853411757
 51
90.00014158529792
  0
DIMENSION
  5
580
330
1A
100
AcDbEntity
  8
SUNPOU
  6
CONTINUOUS
100
AcDbDimension
  2
*D12
 10
591.6300420773032
 20
449.2830206592527
 30
0.0
 11
623.2550920773032
 21
454.2830206592527
 31
0.0
 12
9.101212834324996
 22
-4.546839488859632
 32
0.0
 70
    32
  3
STANDARD
100
AcDbAlignedDimension
 13
654.8801420773032
 23
361.51136414207
 33
0.0
 14
591.6300420773032
 24
336.16536414207
 34
0.0
100
AcDbRotatedDimension
1001
ACAD
1000
DSTYLE
1002
{
1070
   140
1040
6.0
1070
    74
1070
     0
1070
   172
1070
     1
1070
    73
1070
     0
1070
   272
1070
     2
1070
    77
1070
     3
1070
   173
1070
     1
1070
   147
1040
2.0
1070
    42
1040
6.0
1070
    44
1040
3.0
1070
    43
1040
14.0
1070
   271
1070
     0
1070
   178
1070
     4
1070
   177
1070
     4
1070
   176
1070
     4
1070
   141
1040
150.0
1070
     7
1000
_OPEN
1070
     6
1000
_OPEN
1070
    41
1040
7.0
1002
}
  0
LINE
  5
581
330
1A
100
AcDbEntity
  8
SEIHIN
  6
CONTINUOUS
 62
     3
 48
16.0
100
AcDbLine
 10
654.8801420773032
 20
361.51136414207
 30
0.0
 11
637.4313420773033
 21
361.5114641420699
 31
0.0
  0
ARC
  5
582
330
1A
100
AcDbEntity
  8
SEIHIN
  6
CONTINUOUS
 62
     3
 48
16.0
100
AcDbCircle
 10
642.3678954682323
 20
350.0494912017665
 30
0.0
 40
3.500032527401044
100
AcDbArc
 50
98.45722643717607
 51
135.2984200659008
  0
ARC
  5
583
330
1A
100
AcDbEntity
  8
NOKITOI
  6
PHANTOM
 62
     8
 48
2.0
100
AcDbCircle
 10
644.3916420773033
 20
348.51147614207
 30
0.0
 40
3.999958
100
AcDbArc
 50
121.784767
 51
174.584588
  0
ARC
  5
584
330
1A
100
AcDbEntity
  8
SEIHIN
  6
CONTINUOUS
 62
     3
 48
16.0
100
AcDbCircle
 10
642.760286738779
 20
342.5115002177206
 30
0.0
 40
1.999963924847987
100
AcDbArc
 50
90.00127948011179
 51
167.8609012490837
  0
LINE
  5
585
330
1A
100
AcDbEntity
  8
SEIHIN
  6
CONTINUOUS
 62
     3
 48
16.0
100
AcDbLine
 10
653.1089420773033
 20
336.51136414207
 30
0.0
 11
638.9702420773033
 21
336.5114641420699
 31
0.0
  0
ARC
  5
586
330
1A
100
AcDbEntity
  8
NOKITOI
  6
PHANTOM
 62
     8
 48
2.0
100
AcDbCircle
 10
644.3916420773033
 20
348.51147614207
 30
0.0
 40
3.999994
100
AcDbArc
 50
220.269583
 51
121.7840119999999
  0
ARC
  5
587
330
1A
100
AcDbEntity
  8
SEIHIN
  6
CONTINUOUS
 62
     3
 48
16.0
100
AcDbCircle
 10
591.630222234817
 20
353.5115481145592
 30
0.0
 40
50.2999839728119
100
AcDbArc
 50
269.9997947859149
 51
347.8584383133188
  0
DIMENSION
  5
588
330
1A
100
AcDbEntity
  8
SUNPOU
  6
CONTINUOUS
100
AcDbDimension
  2
*D13
 10
679.6090015797999
 20
303.21156414207
 30
0.0
 11
674.6090015797999
 21
332.36146414207
 31
0.0
 12
9.101212834324996
 22
-4.546839488859632
 32
0.0
 70
    32
  3
STANDARD
100
AcDbAlignedDimension
 13
654.8801420773032
 23
361.51136414207
 33
0.0
 14
591.6300420773032
 24
303.21156414207
 34
0.0
 50
90.0
100
AcDbRotatedDimension
1001
ACAD
1000
DSTYLE
1002
{
1070
   140
1040
6.0
1070
    74
1070
     0
1070
   172
1070
     1
1070
    73
1070
     0
1070
   272
1070
     2
1070
    77
1070
     3
1070
   173
1070
     1
1070
   147
1040
2.0
1070
    42
1040
6.0
1070
    44
1040
3.0
1070
    43
1040
14.0
1070
   271
1070
     0
1070
   178
1070
     4
1070
   177
1070
     4
1070
   176
1070
     4
1070
   141
1040
150.0
1070
     7
1000
_OPEN
1070
     6
1000
_OPEN
1070
    41
1040
7.0
1002
}
  0
ARC
  5
589
330
1A
100
AcDbEntity
  8
SEIHIN
  6
CONTINUOUS
 62
     3
 48
16.0
100
AcDbCircle
 10
638.8800423874117
 20
356.538864488374
 30
0.0
 40
4.999975388939439
100
AcDbArc
 50
95.99839340117068
 51
180.313987957191
  0
ARC
  5
58A
330
1A
100
AcDbEntity
  8
SEIHIN
  6
CONTINUOUS
 62
     3
 48
16.0
100
AcDbCircle
 10
639.5403419659587
 20
358.5017642163013
 30
0.0
 40
6.000024101201538
100
AcDbArc
 50
199.37292315667
 51
273.2456195912449
  0
LINE
  5
58B
330
1A
100
AcDbEntity
  8
SEIHIN
  6
CONTINUOUS
 62
     3
 48
16.0
100
AcDbLine
 10
648.8801420773032
 20
350.01136414207
 30
0.0
 11
648.8801420773032
 21
348.01136414207
 31
0.0
  0
CIRCLE
  5
58C
330
1A
100
AcDbEntity
  8
NOKITOI
  6
PHANTOM
 62
     8
 48
2.0
100
AcDbCircle
 10
644.3916420773033
 20
348.51147614207
 30
0.0
 40
2.7
  0
ARC
  5
58D
330
1A
100
AcDbEntity
  8
SEIHIN
  6
CONTINUOUS
 62
     3
 48
16.0
100
AcDbCircle
 10
645.3801420773032
 20
348.01136414207
 30
0.0
 40
3.5
100
AcDbArc
 50
270.0
 51
0.0
  0
LINE
  5
58E
330
1A
100
AcDbEntity
  8
SEIHIN
  6
CONTINUOUS
 62
     3
 48
16.0
100
AcDbLine
 10
642.7602420773032
 20
344.5114641420699
 30
0.0
 11
645.3801420773032
 21
344.51136414207
 31
0.0
  0
ARC
  5
58F
330
1A
100
AcDbEntity
  8
SEIHIN
  6
CONTINUOUS
 62
     3
 48
16.0
100
AcDbCircle
 10
645.3801420773032
 20
350.01136414207
 30
0.0
 40
3.5
100
AcDbArc
 50
0.0
 51
90.0
  0
LINE
  5
590
330
1A
100
AcDbEntity
  8
SEIHIN
  6
CONTINUOUS
 62
     3
 48
16.0
100
AcDbLine
 10
641.7505420773034
 20
353.5114641420697
 30
0.0
 11
645.3801420773032
 21
353.51136414207
 31
0.0
  0
LINE
  5
591
330
1A
100
AcDbEntity
  8
ZUWAKU
  6
CONTINUOUS
100
AcDbLine
 10
345.8958280799035
 20
22.9066761175096
 30
0.0
 11
345.8958280799035
 21
15.70229379022818
 31
0.0
  0
LINE
  5
592
330
1A
100
AcDbEntity
  8
ZUWAKU
  6
CONTINUOUS
100
AcDbLine
 10
343.106422442654
 20
15.70229379022818
 30
0.0
 11
343.106422442654
 21
22.9066761175096
 31
0.0
  0
LINE
  5
593
330
1A
100
AcDbEntity
  8
ZUWAKU
  6
CONTINUOUS
100
AcDbLine
 10
340.3170170249165
 20
22.9066761175096
 30
0.0
 11
340.3170170249165
 21
15.70229379022818
 31
0.0
  0
LINE
  5
594
330
1A
100
AcDbEntity
  8
ZUWAKU
  6
CONTINUOUS
100
AcDbLine
 10
338.7381083310291
 20
15.70229379022818
 30
0.0
 11
347.4747367737909
 21
15.70229379022818
 31
0.0
  0
LINE
  5
595
330
1A
100
AcDbEntity
  8
ZUWAKU
  6
CONTINUOUS
100
AcDbLine
 10
338.7381083310291
 20
22.9066761175096
 30
0.0
 11
347.4747367737909
 21
22.9066761175096
 31
0.0
  0
VIEWPORT
  5
22
330
17
100
AcDbEntity
 67
     1
  8
0
100
AcDbViewport
 10
313.6808219178082
 20
148.5
 30
0.0
 40
627.3616438356165
 41
297.0
 68
     2
 69
     1
1001
ACAD
1000
MVIEW
1002
{
1070
    16
1010
0.0
1020
0.0
1030
0.0
1010
0.0
1020
0.0
1030
1.0
1040
0.0
1040
297.0
1040
313.6808219178082
1040
148.5
1040
50.0
1040
0.0
1040
0.0
1070
     0
1070
   100
1070
     1
1070
     0
1070
     0
1070
     0
1070
     0
1070
     0
1040
0.0
1040
0.0
1040
0.0
1040
1.0
1040
1.0
1040
10.0
1040
10.0
1070
     0
1002
{
1002
}
1002
}
  0
VIEWPORT
  5
64
330
17
100
AcDbEntity
 67
     1
  8
VIEWPORT
100
AcDbViewport
 10
210.0
 20
148.5
 30
0.0
 40
420.0
 41
297.0
 68
     1
 69
     2
1001
ACAD
1000
MVIEW
1002
{
1070
    16
1010
0.0
1020
0.0
1030
0.0
1010
0.0
1020
0.0
1030
1.0
1040
0.0
1040
605.8799999999998
1040
420.0
1040
297.0
1040
50.0
1040
0.0
1040
0.0
1070
     0
1070
   100
1070
     1
1070
     0
1070
     0
1070
     0
1070
     0
1070
     0
1040
0.0
1040
0.0
1040
0.0
1040
10.0
1040
10.0
1040
0.0
1040
0.0
1070
     0
1002
{
1002
}
1002
}
  0
ENDSEC
  0
SECTION
  2
OBJECTS
  0
DICTIONARY
  5
C
330
0
100
AcDbDictionary
  3
ACAD_GROUP
350
D
  3
ACAD_LAYOUT
350
749
  3
ACAD_MLINESTYLE
350
E
  3
ACAD_PLOTSETTINGS
350
74A
1001
ACAD
1000
TREAT_AS_HARD
1070
     0
  0
DICTIONARY
  5
778
330
1A
100
AcDbDictionary
  3
ACAD_LAYOUTSELFREF
350
788
1001
ACAD
1000
TREAT_AS_HARD
1070
     1
  0
DICTIONARY
  5
776
330
17
100
AcDbDictionary
  3
ACAD_LAYOUTSELFREF
350
787
1001
ACAD
1000
TREAT_AS_HARD
1070
     1
  0
DICTIONARY
  5
D
102
{ACAD_REACTORS
330
C
102
}
330
C
100
AcDbDictionary
1001
ACAD
1000
TREAT_AS_HARD
1070
     0
  0
DICTIONARY
  5
749
102
{ACAD_REACTORS
330
C
102
}
330
C
100
AcDbDictionary
1001
ACAD
1000
TREAT_AS_HARD
1070
     0
  0
DICTIONARY
  5
E
102
{ACAD_REACTORS
330
C
102
}
330
C
100
AcDbDictionary
  3
STANDARD
350
13
1001
ACAD
1000
TREAT_AS_HARD
1070
     0
  0
DICTIONARY
  5
74A
102
{ACAD_REACTORS
330
C
102
}
330
C
100
AcDbDictionary
1001
ACAD
1000
TREAT_AS_HARD
1070
     0
  0
XRECORD
  5
788
102
{ACAD_REACTORS
330
778
102
}
330
778
100
AcDbXrecord
340
1A
  0
XRECORD
  5
787
102
{ACAD_REACTORS
330
776
102
}
330
776
100
AcDbXrecord
340
17
  0
MLINESTYLE
  5
13
102
{ACAD_REACTORS
330
E
102
}
330
E
100
AcDbMlineStyle
  2
STANDARD
 70
     0
  3

 62
     0
 51
90.0
 52
90.0
 71
     2
 49
0.5
 62
   256
  6
BYLAYER
 49
-0.5
 62
   256
  6
BYLAYER
  0
ENDSEC
  0
EOF
