  0
SECTION
  2
HEADER
  9
$ACADVER
  1
AC1012
  9
$DWGCODEPAGE
  3
dos932
  9
$INSBASE
 10
0.0
 20
0.0
 30
0.0
  9
$EXTMIN
 10
10.05047808566086
 20
4.949376903717846
 30
0.0
  9
$EXTMAX
 10
806.2246110975902
 20
563.7825862828226
 30
0.0
  9
$LIMMIN
 10
0.0
 20
0.0
  9
$LIMMAX
 10
840.0
 20
594.0
  9
$ORTHOMODE
 70
     0
  9
$REGENMODE
 70
     1
  9
$FILLMODE
 70
     1
  9
$QTEXTMODE
 70
     0
  9
$MIRRTEXT
 70
     1
  9
$DRAGMODE
 70
     2
  9
$LTSCALE
 40
2.0
  9
$OSMODE
 70
   319
  9
$ATTMODE
 70
     1
  9
$TEXTSIZE
 40
5.0
  9
$TRACEWID
 40
1.0
  9
$TEXTSTYLE
  7
STANDARD
  9
$CLAYER
  8
ZUWAKU
  9
$CELTYPE
  6
BYLAYER
  9
$CECOLOR
 62
   256
  9
$CELTSCALE
 40
1.0
  9
$DELOBJ
 70
     1
  9
$DISPSILH
 70
     0
  9
$DIMSCALE
 40
1.0
  9
$DIMASZ
 40
7.0
  9
$DIMEXO
 40
6.0
  9
$DIMDLI
 40
14.0
  9
$DIMRND
 40
0.0
  9
$DIMDLE
 40
0.0
  9
$DIMEXE
 40
3.0
  9
$DIMTP
 40
0.0
  9
$DIMTM
 40
0.0
  9
$DIMTXT
 40
6.0
  9
$DIMCEN
 40
150.0
  9
$DIMTSZ
 40
0.0
  9
$DIMTOL
 70
     0
  9
$DIMLIM
 70
     0
  9
$DIMTIH
 70
     0
  9
$DIMTOH
 70
     0
  9
$DIMSE1
 70
     0
  9
$DIMSE2
 70
     0
  9
$DIMTAD
 70
     3
  9
$DIMZIN
 70
     0
  9
$DIMBLK
  1

  9
$DIMASO
 70
     1
  9
$DIMSHO
 70
     1
  9
$DIMPOST
  1

  9
$DIMAPOST
  1

  9
$DIMALT
 70
     0
  9
$DIMALTD
 70
     2
  9
$DIMALTF
 40
25.4
  9
$DIMLFAC
 40
1.0
  9
$DIMTOFL
 70
     1
  9
$DIMTVP
 40
0.0
  9
$DIMTIX
 70
     0
  9
$DIMSOXD
 70
     0
  9
$DIMSAH
 70
     1
  9
$DIMBLK1
  1
OPEN
  9
$DIMBLK2
  1
OPEN
  9
$DIMSTYLE
  2
STANDARD
  9
$DIMCLRD
 70
   256
  9
$DIMCLRE
 70
   256
  9
$DIMCLRT
 70
   256
  9
$DIMTFAC
 40
1.0
  9
$DIMGAP
 40
2.0
  9
$DIMJUST
 70
     0
  9
$DIMSD1
 70
     0
  9
$DIMSD2
 70
     0
  9
$DIMTOLJ
 70
     1
  9
$DIMTZIN
 70
     0
  9
$DIMALTZ
 70
     0
  9
$DIMALTTZ
 70
     0
  9
$DIMFIT
 70
     3
  9
$DIMUPT
 70
     0
  9
$DIMUNIT
 70
     2
  9
$DIMDEC
 70
     0
  9
$DIMTDEC
 70
     0
  9
$DIMALTU
 70
     2
  9
$DIMALTTD
 70
     2
  9
$DIMTXSTY
  7
STANDARD
  9
$DIMAUNIT
 70
     0
  9
$LUNITS
 70
     2
  9
$LUPREC
 70
     4
  9
$SKETCHINC
 40
1.0
  9
$FILLETRAD
 40
20.0
  9
$AUNITS
 70
     0
  9
$AUPREC
 70
     0
  9
$MENU
  1
.
  9
$ELEVATION
 40
0.0
  9
$PELEVATION
 40
0.0
  9
$THICKNESS
 40
0.0
  9
$LIMCHECK
 70
     0
  9
$BLIPMODE
 70
     0
  9
$CHAMFERA
 40
20.0
  9
$CHAMFERB
 40
20.0
  9
$CHAMFERC
 40
40.0
  9
$CHAMFERD
 40
0.0
  9
$SKPOLY
 70
     0
  9
$TDCREATE
 40
2450994.354346065
  9
$TDUPDATE
 40
2452423.333865624
  9
$TDINDWG
 40
0.0060704861
  9
$TDUSRTIMER
 40
0.0060704861
  9
$USRTIMER
 70
     1
  9
$ANGBASE
 50
0.0
  9
$ANGDIR
 70
     0
  9
$PDMODE
 70
     1
  9
$PDSIZE
 40
0.0
  9
$PLINEWID
 40
0.0
  9
$COORDS
 70
     1
  9
$SPLFRAME
 70
     0
  9
$SPLINETYPE
 70
     6
  9
$SPLINESEGS
 70
     8
  9
$ATTDIA
 70
     0
  9
$ATTREQ
 70
     1
  9
$HANDLING
 70
 10241
  9
$HANDSEED
  5
720
  9
$SURFTAB1
 70
     6
  9
$SURFTAB2
 70
     6
  9
$SURFTYPE
 70
     6
  9
$SURFU
 70
     6
  9
$SURFV
 70
     6
  9
$UCSNAME
  2

  9
$UCSORG
 10
0.0
 20
0.0
 30
0.0
  9
$UCSXDIR
 10
1.0
 20
0.0
 30
0.0
  9
$UCSYDIR
 10
0.0
 20
1.0
 30
0.0
  9
$PUCSNAME
  2

  9
$PUCSORG
 10
0.0
 20
0.0
 30
0.0
  9
$PUCSXDIR
 10
1.0
 20
0.0
 30
0.0
  9
$PUCSYDIR
 10
0.0
 20
1.0
 30
0.0
  9
$USERI1
 70
     0
  9
$USERI2
 70
     0
  9
$USERI3
 70
     0
  9
$USERI4
 70
     0
  9
$USERI5
 70
     0
  9
$USERR1
 40
0.0
  9
$USERR2
 40
0.0
  9
$USERR3
 40
0.0
  9
$USERR4
 40
0.0
  9
$USERR5
 40
0.0
  9
$WORLDVIEW
 70
     1
  9
$SHADEDGE
 70
     3
  9
$SHADEDIF
 70
    70
  9
$TILEMODE
 70
     1
  9
$MAXACTVP
 70
    16
  9
$PINSBASE
 10
0.0
 20
0.0
 30
0.0
  9
$PLIMCHECK
 70
     0
  9
$PEXTMIN
 10
0.0
 20
0.0
 30
0.0
  9
$PEXTMAX
 10
420.0
 20
297.0
 30
0.0
  9
$PLIMMIN
 10
0.0
 20
0.0
  9
$PLIMMAX
 10
420.0
 20
297.0
  9
$UNITMODE
 70
     0
  9
$VISRETAIN
 70
     0
  9
$PLINEGEN
 70
     0
  9
$PSLTSCALE
 70
     1
  9
$TREEDEPTH
 70
  3020
  9
$PICKSTYLE
 70
     1
  9
$CMLSTYLE
  2
STANDARD
  9
$CMLJUST
 70
     0
  9
$CMLSCALE
 40
1.0
  9
$SAVEIMAGES
 70
     1
  0
ENDSEC
  0
SECTION
  2
CLASSES
  0
CLASS
  1
ACDBDICTIONARYWDFLT
  2
AcDbDictionaryWithDefault
  3
AutoCAD 2000
 90
    32768
280
     0
281
     0
  0
CLASS
  1
ACDBPLACEHOLDER
  2
AcDbPlaceHolder
  3
AutoCAD 2000
 90
    32768
280
     0
281
     0
  0
CLASS
  1
LAYOUT
  2
AcDbLayout
  3
AutoCAD 2000
 90
    32768
280
     0
281
     0
  0
CLASS
  1
LONG_TRANSACTION
  2
AcDbLongTransaction
  3
AutoCAD 2000
 90
    32768
280
     0
281
     0
  0
CLASS
  1
LWPOLYLINE
  2
AcDbPolyline
  3
AutoCAD 2000
 90
    32768
280
     0
281
     1
  0
CLASS
  1
HATCH
  2
AcDbHatch
  3
AutoCAD 2000
 90
    32768
280
     0
281
     1
  0
CLASS
  1
XRECORD
  2
AcDbXrecord
  3
AutoCAD 2000
 90
    32768
280
     0
281
     0
  0
CLASS
  1
LONG_TRANSACTION
  2
AcDbLongTransaction
  3
AutoCAD 2000
 90
    32768
280
     0
281
     0
  0
CLASS
  1
LWPOLYLINE
  2
AcDbPolyline
  3
AutoCAD 2000
 90
    32768
280
     0
281
     1
  0
CLASS
  1
HATCH
  2
AcDbHatch
  3
AutoCAD 2000
 90
    32768
280
     0
281
     1
  0
CLASS
  1
XRECORD
  2
AcDbXrecord
  3
AutoCAD 2000
 90
    32768
280
     0
281
     0
  0
ENDSEC
  0
SECTION
  2
TABLES
  0
TABLE
  2
VPORT
  5
8
330
0
100
AcDbSymbolTable
 70
     2
  0
VPORT
  5
715
330
8
100
AcDbSymbolTableRecord
100
AcDbViewportTableRecord
  2
*ACTIVE
 70
     0
 10
0.0
 20
0.0
 11
1.0
 21
1.0
 12
395.9765706617088
 22
299.5416872566875
 13
0.0
 23
0.0
 14
5.0
 24
5.0
 15
0.0
 25
0.0
 16
0.0
 26
0.0
 36
1.0
 17
0.0
 27
0.0
 37
0.0
 40
620.3223213324532
 41
1.709909909909909
 42
50.0
 43
0.0
 44
0.0
 50
0.0
 51
0.0
 71
     0
 72
   100
 73
     1
 74
     0
 75
     0
 76
     0
 77
     0
 78
     0
  0
ENDTAB
  0
TABLE
  2
LTYPE
  5
5
330
0
100
AcDbSymbolTable
 70
     3
  0
LTYPE
  5
14
330
5
100
AcDbSymbolTableRecord
100
AcDbLinetypeTableRecord
  2
BYBLOCK
 70
     0
  3

 72
    65
 73
     0
 40
0.0
  0
LTYPE
  5
15
330
5
100
AcDbSymbolTableRecord
100
AcDbLinetypeTableRecord
  2
BYLAYER
 70
     0
  3

 72
    65
 73
     0
 40
0.0
  0
LTYPE
  5
16
330
5
100
AcDbSymbolTableRecord
100
AcDbLinetypeTableRecord
  2
CONTINUOUS
 70
     0
  3
Solid line
 72
    65
 73
     0
 40
0.0
  0
LTYPE
  5
115
330
5
100
AcDbSymbolTableRecord
100
AcDbLinetypeTableRecord
  2
PHANTOM
 70
     0
  3
______  __  __  ______  __  __  ______  __  __ 
 72
    65
 73
     6
 40
2.5
 49
1.25
 74
     0
 49
-0.25
 74
     0
 49
0.25
 74
     0
 49
-0.25
 74
     0
 49
0.25
 74
     0
 49
-0.25
 74
     0
  0
LTYPE
  5
135
330
5
100
AcDbSymbolTableRecord
100
AcDbLinetypeTableRecord
  2
CENTER
 70
     0
  3
____ _ ____ _ ____ _ ____ _ ____ _ ____ _ ____ 
 72
    65
 73
     4
 40
2.0
 49
1.25
 74
     0
 49
-0.25
 74
     0
 49
0.25
 74
     0
 49
-0.25
 74
     0
  0
ENDTAB
  0
TABLE
  2
LAYER
  5
2
330
0
100
AcDbSymbolTable
 70
     8
  0
LAYER
  5
F
330
2
100
AcDbSymbolTableRecord
100
AcDbLayerTableRecord
  2
0
 70
     0
 62
     7
  6
CONTINUOUS
  0
LAYER
  5
62
330
2
100
AcDbSymbolTableRecord
100
AcDbLayerTableRecord
  2
VIEWPORT
 70
     0
 62
     7
  6
CONTINUOUS
  0
LAYER
  5
65
330
2
100
AcDbSymbolTableRecord
100
AcDbLayerTableRecord
  2
ZUWAKU
 70
     0
 62
     7
  6
CONTINUOUS
  0
LAYER
  5
1EB
330
2
100
AcDbSymbolTableRecord
100
AcDbLayerTableRecord
  2
SEIHIN
 70
     0
 62
     3
  6
CONTINUOUS
  0
LAYER
  5
1EC
330
2
100
AcDbSymbolTableRecord
100
AcDbLayerTableRecord
  2
SUNPOU
 70
     0
 62
     4
  6
CONTINUOUS
  0
LAYER
  5
1ED
330
2
100
AcDbSymbolTableRecord
100
AcDbLayerTableRecord
  2
CENTER_L
 70
     0
 62
     1
  6
CENTER
  0
LAYER
  5
1EE
330
2
100
AcDbSymbolTableRecord
100
AcDbLayerTableRecord
  2
NOKITOI
 70
     0
 62
     8
  6
PHANTOM
  0
LAYER
  5
1EF
330
2
100
AcDbSymbolTableRecord
100
AcDbLayerTableRecord
  2
DEFPOINTS
 70
     0
 62
     7
  6
CONTINUOUS
  0
ENDTAB
  0
TABLE
  2
STYLE
  5
3
330
0
100
AcDbSymbolTable
 70
     1
  0
STYLE
  5
10
330
3
100
AcDbSymbolTableRecord
100
AcDbTextStyleTableRecord
  2
STANDARD
 70
     0
 40
0.0
 41
1.0
 50
0.0
 71
     0
 42
5.0
  3
TXT
  4
bigfont.shx
  0
ENDTAB
  0
TABLE
  2
VIEW
  5
6
330
0
100
AcDbSymbolTable
 70
     0
  0
ENDTAB
  0
TABLE
  2
UCS
  5
7
330
0
100
AcDbSymbolTable
 70
     0
  0
ENDTAB
  0
TABLE
  2
APPID
  5
9
330
0
100
AcDbSymbolTable
 70
     1
  0
APPID
  5
11
330
9
100
AcDbSymbolTableRecord
100
AcDbRegAppTableRecord
  2
ACAD
 70
     0
  0
ENDTAB
  0
TABLE
  2
DIMSTYLE
  5
A
330
0
100
AcDbSymbolTable
 70
     1
  0
DIMSTYLE
105
1D
102
{ACAD_REACTORS
330
3D3
330
484
330
53E
330
54A
330
54B
330
554
330
557
330
558
330
56A
330
575
330
57D
330
59E
102
}
330
A
100
AcDbSymbolTableRecord
100
AcDbDimStyleTableRecord
  2
STANDARD
 70
     0
  3

  4

  5

  6

  7

 40
1.0
 41
0.18
 42
0.0625
 43
0.38
 44
0.18
 45
0.0
 46
0.0
 47
0.0
 48
0.0
140
0.18
141
0.09
142
0.0
143
25.4
144
1.0
145
0.0
146
1.0
147
0.09
 71
     0
 72
     0
 73
     1
 74
     1
 75
     0
 76
     0
 77
     0
 78
     0
170
     0
171
     2
172
     0
173
     0
174
     0
175
     0
176
     0
177
     0
178
     0
270
     2
271
     4
272
     4
273
     2
274
     2
340
10
275
     0
280
     0
281
     0
282
     0
283
     1
284
     0
285
     0
286
     0
287
     3
288
     0
  0
ENDTAB
  0
TABLE
  2
BLOCK_RECORD
  5
1
330
0
100
AcDbSymbolTable
 70
    13
  0
BLOCK_RECORD
  5
1A
102
{ACAD_XDICTIONARY
360
6FF
102
}
330
1
100
AcDbSymbolTableRecord
100
AcDbBlockTableRecord
  2
*MODEL_SPACE
  0
BLOCK_RECORD
  5
17
102
{ACAD_XDICTIONARY
360
6FD
102
}
330
1
100
AcDbSymbolTableRecord
100
AcDbBlockTableRecord
  2
*PAPER_SPACE
  0
BLOCK_RECORD
  5
6D
330
1
100
AcDbSymbolTableRecord
100
AcDbBlockTableRecord
  2
_OPEN
  0
BLOCK_RECORD
  5
5B2
330
1
100
AcDbSymbolTableRecord
100
AcDbBlockTableRecord
  2
*D1
  0
BLOCK_RECORD
  5
5BE
330
1
100
AcDbSymbolTableRecord
100
AcDbBlockTableRecord
  2
*D2
  0
BLOCK_RECORD
  5
5CA
330
1
100
AcDbSymbolTableRecord
100
AcDbBlockTableRecord
  2
*D3
  0
BLOCK_RECORD
  5
5D6
330
1
100
AcDbSymbolTableRecord
100
AcDbBlockTableRecord
  2
*D4
  0
BLOCK_RECORD
  5
5E2
330
1
100
AcDbSymbolTableRecord
100
AcDbBlockTableRecord
  2
*D5
  0
BLOCK_RECORD
  5
5EE
330
1
100
AcDbSymbolTableRecord
100
AcDbBlockTableRecord
  2
*D6
  0
BLOCK_RECORD
  5
5FC
330
1
100
AcDbSymbolTableRecord
100
AcDbBlockTableRecord
  2
*D7
  0
BLOCK_RECORD
  5
608
330
1
100
AcDbSymbolTableRecord
100
AcDbBlockTableRecord
  2
*D8
  0
BLOCK_RECORD
  5
613
330
1
100
AcDbSymbolTableRecord
100
AcDbBlockTableRecord
  2
*D9
  0
BLOCK_RECORD
  5
61F
330
1
100
AcDbSymbolTableRecord
100
AcDbBlockTableRecord
  2
*D10
  0
BLOCK_RECORD
  5
62D
330
1
100
AcDbSymbolTableRecord
100
AcDbBlockTableRecord
  2
*D11
  0
BLOCK_RECORD
  5
639
330
1
100
AcDbSymbolTableRecord
100
AcDbBlockTableRecord
  2
*D12
  0
ENDTAB
  0
ENDSEC
  0
SECTION
  2
BLOCKS
  0
BLOCK
  5
1B
330
1A
100
AcDbEntity
  8
0
100
AcDbBlockBegin
  2
*MODEL_SPACE
 70
     0
 10
0.0
 20
0.0
 30
0.0
  3
*MODEL_SPACE
  1

  0
ENDBLK
  5
1C
330
1A
100
AcDbEntity
  8
0
100
AcDbBlockEnd
  0
BLOCK
  5
18
330
17
100
AcDbEntity
 67
     1
  8
0
100
AcDbBlockBegin
  2
*PAPER_SPACE
 70
     0
 10
0.0
 20
0.0
 30
0.0
  3
*PAPER_SPACE
  1

  0
ENDBLK
  5
19
330
17
100
AcDbEntity
 67
     1
  8
0
100
AcDbBlockEnd
  0
BLOCK
  5
6E
330
6D
100
AcDbEntity
  8
0
100
AcDbBlockBegin
  2
_OPEN
 70
     0
 10
0.0
 20
0.0
 30
0.0
  3
_OPEN
  1

  0
LINE
  5
6F
330
6D
100
AcDbEntity
  8
0
  6
BYBLOCK
 62
     0
100
AcDbLine
 10
-1.0
 20
0.1666666666666666
 30
0.0
 11
0.0
 21
0.0
 31
0.0
  0
LINE
  5
70
330
6D
100
AcDbEntity
  8
0
  6
BYBLOCK
 62
     0
100
AcDbLine
 10
0.0
 20
0.0
 30
0.0
 11
-1.0
 21
-0.1666666666666666
 31
0.0
  0
LINE
  5
71
330
6D
100
AcDbEntity
  8
0
  6
BYBLOCK
 62
     0
100
AcDbLine
 10
0.0
 20
0.0
 30
0.0
 11
-1.0
 21
0.0
 31
0.0
  0
ENDBLK
  5
72
330
6D
100
AcDbEntity
  8
0
100
AcDbBlockEnd
  0
BLOCK
  5
645
330
5B2
100
AcDbEntity
  8
0
100
AcDbBlockBegin
  2
*D1
 70
     1
 10
0.0
 20
0.0
 30
0.0
  3
*D1
  1

  0
LINE
  5
646
330
5B2
100
AcDbEntity
  8
0
  6
BYBLOCK
 62
     4
100
AcDbLine
 10
468.8221488658972
 20
439.5575665855037
 30
0.0
 11
425.4418813483443
 21
439.5575665855037
 31
0.0
  0
LINE
  5
647
330
5B2
100
AcDbEntity
  8
0
  6
BYBLOCK
 62
     4
100
AcDbLine
 10
572.6218488658969
 20
178.5572665855039
 30
0.0
 11
425.4418813483443
 21
178.5572665855039
 31
0.0
  0
LINE
  5
648
330
5B2
100
AcDbEntity
  8
0
  6
BYBLOCK
 62
     4
100
AcDbLine
 10
428.4418813483443
 20
432.5575665855037
 30
0.0
 11
428.4418813483443
 21
185.5572665855039
 31
0.0
  0
INSERT
  5
649
330
5B2
100
AcDbEntity
  8
0
  6
BYBLOCK
 62
     4
100
AcDbBlockReference
  2
_OPEN
 10
428.4418813483443
 20
439.5575665855037
 30
0.0
 41
7.0
 42
7.0
 43
7.0
 50
90.0
  0
INSERT
  5
64A
330
5B2
100
AcDbEntity
  8
0
  6
BYBLOCK
 62
     4
100
AcDbBlockReference
  2
_OPEN
 10
428.4418813483443
 20
178.5572665855039
 30
0.0
 41
7.0
 42
7.0
 43
7.0
 50
270.0
  0
MTEXT
  5
64B
330
5B2
100
AcDbEntity
  8
0
  6
BYBLOCK
 62
     4
100
AcDbMText
 10
423.4418813483443
 20
309.0574165855038
 30
0.0
 40
6.0
 41
0.0
 71
     5
 72
     1
  1
\A1;261
 11
0.0
 21
1.0
 31
0.0
1001
ACAD
1000
MTEXTBEGIN
1070
    73
1070
     1
1070
    44
1040
1.0
1070
    74
1070
     0
1000
MTEXTEND
1000
MTEXTBEGIN
1070
    73
1070
     1
1070
    44
1040
1.0
1070
    74
1070
     0
1000
MTEXTEND
  0
POINT
  5
64C
330
5B2
100
AcDbEntity
  8
DEFPOINTS
  6
BYBLOCK
 62
     0
100
AcDbPoint
 10
474.8221488658971
 20
439.5575665855037
 30
0.0
  0
POINT
  5
64D
330
5B2
100
AcDbEntity
  8
DEFPOINTS
  6
BYBLOCK
 62
     0
100
AcDbPoint
 10
578.6218488658969
 20
178.5572665855039
 30
0.0
  0
POINT
  5
64E
330
5B2
100
AcDbEntity
  8
DEFPOINTS
  6
BYBLOCK
 62
     0
100
AcDbPoint
 10
428.4418813483443
 20
178.5572665855039
 30
0.0
  0
ENDBLK
  5
64F
330
5B2
100
AcDbEntity
  8
0
100
AcDbBlockEnd
  0
BLOCK
  5
650
330
5BE
100
AcDbEntity
  8
0
100
AcDbBlockBegin
  2
*D2
 70
     1
 10
0.0
 20
0.0
 30
0.0
  3
*D2
  1

  0
LINE
  5
651
330
5BE
100
AcDbEntity
  8
0
  6
BYBLOCK
 62
     4
100
AcDbLine
 10
106.4014269604535
 20
445.5580665855037
 30
0.0
 11
106.4014269604535
 21
488.4663180134484
 31
0.0
  0
LINE
  5
652
330
5BE
100
AcDbEntity
  8
0
  6
BYBLOCK
 62
     4
100
AcDbLine
 10
360.4015269604536
 20
445.5577665855039
 30
0.0
 11
360.4015269604536
 21
488.4663180134484
 31
0.0
  0
LINE
  5
653
330
5BE
100
AcDbEntity
  8
0
  6
BYBLOCK
 62
     4
100
AcDbLine
 10
113.4014269604534
 20
485.4663180134484
 30
0.0
 11
353.4015269604536
 21
485.4663180134484
 31
0.0
  0
INSERT
  5
654
330
5BE
100
AcDbEntity
  8
0
  6
BYBLOCK
 62
     4
100
AcDbBlockReference
  2
_OPEN
 10
106.4014269604535
 20
485.4663180134484
 30
0.0
 41
7.0
 42
7.0
 43
7.0
 50
180.0
  0
INSERT
  5
655
330
5BE
100
AcDbEntity
  8
0
  6
BYBLOCK
 62
     4
100
AcDbBlockReference
  2
_OPEN
 10
360.4015269604536
 20
485.4663180134484
 30
0.0
 41
7.0
 42
7.0
 43
7.0
  0
MTEXT
  5
656
330
5BE
100
AcDbEntity
  8
0
  6
BYBLOCK
 62
     4
100
AcDbMText
 10
233.4014769604535
 20
490.4663180134484
 30
0.0
 40
6.0
 41
0.0
 71
     5
 72
     1
  1
\A1;254
1001
ACAD
1000
MTEXTBEGIN
1070
    73
1070
     1
1070
    44
1040
1.0
1070
    74
1070
     0
1000
MTEXTEND
1000
MTEXTBEGIN
1070
    73
1070
     1
1070
    44
1040
1.0
1070
    74
1070
     0
1000
MTEXTEND
  0
POINT
  5
657
330
5BE
100
AcDbEntity
  8
DEFPOINTS
  6
BYBLOCK
 62
     0
100
AcDbPoint
 10
106.4014269604535
 20
439.5580665855037
 30
0.0
  0
POINT
  5
658
330
5BE
100
AcDbEntity
  8
DEFPOINTS
  6
BYBLOCK
 62
     0
100
AcDbPoint
 10
360.4015269604536
 20
439.5577665855039
 30
0.0
  0
POINT
  5
659
330
5BE
100
AcDbEntity
  8
DEFPOINTS
  6
BYBLOCK
 62
     0
100
AcDbPoint
 10
360.4015269604536
 20
485.4663180134484
 30
0.0
  0
ENDBLK
  5
65A
330
5BE
100
AcDbEntity
  8
0
100
AcDbBlockEnd
  0
BLOCK
  5
65B
330
5CA
100
AcDbEntity
  8
0
100
AcDbBlockBegin
  2
*D3
 70
     1
 10
0.0
 20
0.0
 30
0.0
  3
*D3
  1

  0
LINE
  5
65C
330
5CA
100
AcDbEntity
  8
0
  6
BYBLOCK
 62
     4
100
AcDbLine
 10
203.4015002761204
 20
445.5578374516528
 30
0.0
 11
203.4015002761204
 21
470.2875618731627
 31
0.0
  0
LINE
  5
65D
330
5CA
100
AcDbEntity
  8
0
  6
BYBLOCK
 62
     4
100
AcDbLine
 10
263.4015002760881
 20
445.5577665855039
 30
0.0
 11
263.4015002760881
 21
470.2875618731627
 31
0.0
  0
LINE
  5
65E
330
5CA
100
AcDbEntity
  8
0
  6
BYBLOCK
 62
     4
100
AcDbLine
 10
210.4015002761204
 20
467.2875618731628
 30
0.0
 11
256.401500276088
 21
467.2875618731628
 31
0.0
  0
INSERT
  5
65F
330
5CA
100
AcDbEntity
  8
0
  6
BYBLOCK
 62
     4
100
AcDbBlockReference
  2
_OPEN
 10
203.4015002761204
 20
467.2875618731628
 30
0.0
 41
7.0
 42
7.0
 43
7.0
 50
180.0
  0
INSERT
  5
660
330
5CA
100
AcDbEntity
  8
0
  6
BYBLOCK
 62
     4
100
AcDbBlockReference
  2
_OPEN
 10
263.4015002760881
 20
467.2875618731628
 30
0.0
 41
7.0
 42
7.0
 43
7.0
  0
MTEXT
  5
661
330
5CA
100
AcDbEntity
  8
0
  6
BYBLOCK
 62
     4
100
AcDbMText
 10
233.4015002761042
 20
472.2875618731627
 30
0.0
 40
6.0
 41
0.0
 71
     5
 72
     1
  1
\A1;※a60
1001
ACAD
1000
MTEXTBEGIN
1070
    73
1070
     1
1070
    44
1040
1.0
1070
    74
1070
     0
1000
MTEXTEND
1000
MTEXTBEGIN
1070
    73
1070
     1
1070
    44
1040
1.0
1070
    74
1070
     0
1000
MTEXTEND
  0
POINT
  5
662
330
5CA
100
AcDbEntity
  8
DEFPOINTS
  6
BYBLOCK
 62
     0
100
AcDbPoint
 10
203.4015002761204
 20
439.5578374516528
 30
0.0
  0
POINT
  5
663
330
5CA
100
AcDbEntity
  8
DEFPOINTS
  6
BYBLOCK
 62
     0
100
AcDbPoint
 10
263.4015002760881
 20
439.5577665855039
 30
0.0
  0
POINT
  5
664
330
5CA
100
AcDbEntity
  8
DEFPOINTS
  6
BYBLOCK
 62
     0
100
AcDbPoint
 10
263.4015002760881
 20
467.2875618731628
 30
0.0
  0
ENDBLK
  5
665
330
5CA
100
AcDbEntity
  8
0
100
AcDbBlockEnd
  0
BLOCK
  5
666
330
5D6
100
AcDbEntity
  8
0
100
AcDbBlockBegin
  2
*D4
 70
     1
 10
0.0
 20
0.0
 30
0.0
  3
*D4
  1

  0
LINE
  5
667
330
5D6
100
AcDbEntity
  8
0
  6
BYBLOCK
 62
     4
100
AcDbLine
 10
686.8220488658969
 20
373.5571665855037
 30
0.0
 11
708.4950682894955
 21
373.5571665855037
 31
0.0
  0
LINE
  5
668
330
5D6
100
AcDbEntity
  8
0
  6
BYBLOCK
 62
     4
100
AcDbLine
 10
616.8219488658971
 20
308.557402270135
 30
0.0
 11
708.4950682894955
 21
308.557402270135
 31
0.0
  0
LINE
  5
669
330
5D6
100
AcDbEntity
  8
0
  6
BYBLOCK
 62
     4
100
AcDbLine
 10
705.4950682894955
 20
366.5571665855037
 30
0.0
 11
705.4950682894955
 21
315.557402270135
 31
0.0
  0
INSERT
  5
66A
330
5D6
100
AcDbEntity
  8
0
  6
BYBLOCK
 62
     4
100
AcDbBlockReference
  2
_OPEN
 10
705.4950682894955
 20
373.5571665855037
 30
0.0
 41
7.0
 42
7.0
 43
7.0
 50
90.0
  0
INSERT
  5
66B
330
5D6
100
AcDbEntity
  8
0
  6
BYBLOCK
 62
     4
100
AcDbBlockReference
  2
_OPEN
 10
705.4950682894955
 20
308.557402270135
 30
0.0
 41
7.0
 42
7.0
 43
7.0
 50
270.0
  0
MTEXT
  5
66C
330
5D6
100
AcDbEntity
  8
0
  6
BYBLOCK
 62
     4
100
AcDbMText
 10
700.4950682894955
 20
341.0572844278194
 30
0.0
 40
6.0
 41
0.0
 71
     5
 72
     1
  1
\A1;65
 11
0.0
 21
1.0
 31
0.0
1001
ACAD
1000
MTEXTBEGIN
1070
    73
1070
     1
1070
    44
1040
1.0
1070
    74
1070
     0
1000
MTEXTEND
1000
MTEXTBEGIN
1070
    73
1070
     1
1070
    44
1040
1.0
1070
    74
1070
     0
1000
MTEXTEND
  0
POINT
  5
66D
330
5D6
100
AcDbEntity
  8
DEFPOINTS
  6
BYBLOCK
 62
     0
100
AcDbPoint
 10
680.8220488658969
 20
373.5571665855037
 30
0.0
  0
POINT
  5
66E
330
5D6
100
AcDbEntity
  8
DEFPOINTS
  6
BYBLOCK
 62
     0
100
AcDbPoint
 10
610.8219488658972
 20
308.557402270135
 30
0.0
  0
POINT
  5
66F
330
5D6
100
AcDbEntity
  8
DEFPOINTS
  6
BYBLOCK
 62
     0
100
AcDbPoint
 10
705.4950682894955
 20
308.557402270135
 30
0.0
  0
ENDBLK
  5
670
330
5D6
100
AcDbEntity
  8
0
100
AcDbBlockEnd
  0
BLOCK
  5
671
330
5E2
100
AcDbEntity
  8
0
100
AcDbBlockBegin
  2
*D5
 70
     1
 10
0.0
 20
0.0
 30
0.0
  3
*D5
  1

  0
LINE
  5
672
330
5E2
100
AcDbEntity
  8
0
  6
BYBLOCK
 62
     4
100
AcDbLine
 10
468.8221488658972
 20
439.5575665855037
 30
0.0
 11
446.0377621327943
 21
439.5575665855037
 31
0.0
  0
LINE
  5
673
330
5E2
100
AcDbEntity
  8
0
  6
BYBLOCK
 62
     4
100
AcDbLine
 10
562.8217488658972
 20
219.5573665855039
 30
0.0
 11
446.0377621327943
 21
219.5573665855039
 31
0.0
  0
LINE
  5
674
330
5E2
100
AcDbEntity
  8
0
  6
BYBLOCK
 62
     4
100
AcDbLine
 10
449.0377621327943
 20
432.5575665855037
 30
0.0
 11
449.0377621327943
 21
226.5573665855038
 31
0.0
  0
INSERT
  5
675
330
5E2
100
AcDbEntity
  8
0
  6
BYBLOCK
 62
     4
100
AcDbBlockReference
  2
_OPEN
 10
449.0377621327943
 20
439.5575665855037
 30
0.0
 41
7.0
 42
7.0
 43
7.0
 50
90.0
  0
INSERT
  5
676
330
5E2
100
AcDbEntity
  8
0
  6
BYBLOCK
 62
     4
100
AcDbBlockReference
  2
_OPEN
 10
449.0377621327943
 20
219.5573665855039
 30
0.0
 41
7.0
 42
7.0
 43
7.0
 50
270.0
  0
MTEXT
  5
677
330
5E2
100
AcDbEntity
  8
0
  6
BYBLOCK
 62
     4
100
AcDbMText
 10
444.0377621327942
 20
329.5574665855038
 30
0.0
 40
6.0
 41
0.0
 71
     5
 72
     1
  1
\A1;220
 11
0.0
 21
1.0
 31
0.0
1001
ACAD
1000
MTEXTBEGIN
1070
    73
1070
     1
1070
    44
1040
1.0
1070
    74
1070
     0
1000
MTEXTEND
1000
MTEXTBEGIN
1070
    73
1070
     1
1070
    44
1040
1.0
1070
    74
1070
     0
1000
MTEXTEND
  0
POINT
  5
678
330
5E2
100
AcDbEntity
  8
DEFPOINTS
  6
BYBLOCK
 62
     0
100
AcDbPoint
 10
474.8221488658971
 20
439.5575665855037
 30
0.0
  0
POINT
  5
679
330
5E2
100
AcDbEntity
  8
DEFPOINTS
  6
BYBLOCK
 62
     0
100
AcDbPoint
 10
568.8217488658972
 20
219.5573665855039
 30
0.0
  0
POINT
  5
67A
330
5E2
100
AcDbEntity
  8
DEFPOINTS
  6
BYBLOCK
 62
     0
100
AcDbPoint
 10
449.0377621327943
 20
219.5573665855039
 30
0.0
  0
ENDBLK
  5
67B
330
5E2
100
AcDbEntity
  8
0
100
AcDbBlockEnd
  0
BLOCK
  5
67C
330
5EE
100
AcDbEntity
  8
0
100
AcDbBlockBegin
  2
*D6
 70
     1
 10
0.0
 20
0.0
 30
0.0
  3
*D6
  1

  0
LINE
  5
67D
330
5EE
100
AcDbEntity
  8
0
  6
BYBLOCK
 62
     4
100
AcDbLine
 10
661.2217488658971
 20
191.5571665855039
 30
0.0
 11
697.007769643606
 21
191.5571665855039
 31
0.0
  0
LINE
  5
67E
330
5EE
100
AcDbEntity
  8
0
  6
BYBLOCK
 62
     4
100
AcDbLine
 10
666.8217488658972
 20
203.5571527241545
 30
0.0
 11
697.007769643606
 21
203.5571527241545
 31
0.0
  0
LINE
  5
67F
330
5EE
100
AcDbEntity
  8
0
  6
BYBLOCK
 62
     4
100
AcDbLine
 10
694.007769643606
 20
184.5571665855039
 30
0.0
 11
694.007769643606
 21
177.5571665855039
 31
0.0
  0
LINE
  5
680
330
5EE
100
AcDbEntity
  8
0
  6
BYBLOCK
 62
     4
100
AcDbLine
 10
694.007769643606
 20
210.5571527241545
 30
0.0
 11
694.007769643606
 21
246.3571527241545
 31
0.0
  0
LINE
  5
681
330
5EE
100
AcDbEntity
  8
0
  6
BYBLOCK
 62
     4
100
AcDbLine
 10
694.007769643606
 20
191.5571665855039
 30
0.0
 11
694.007769643606
 21
203.5571527241545
 31
0.0
  0
INSERT
  5
682
330
5EE
100
AcDbEntity
  8
0
  6
BYBLOCK
 62
     4
100
AcDbBlockReference
  2
_OPEN
 10
694.007769643606
 20
191.5571665855039
 30
0.0
 41
7.0
 42
7.0
 43
7.0
 50
90.0
  0
INSERT
  5
683
330
5EE
100
AcDbEntity
  8
0
  6
BYBLOCK
 62
     4
100
AcDbBlockReference
  2
_OPEN
 10
694.007769643606
 20
203.5571527241545
 30
0.0
 41
7.0
 42
7.0
 43
7.0
 50
270.0
  0
MTEXT
  5
684
330
5EE
100
AcDbEntity
  8
0
  6
BYBLOCK
 62
     4
100
AcDbMText
 10
689.007769643606
 20
231.9571527241545
 30
0.0
 40
6.0
 41
0.0
 71
     5
 72
     1
  1
\A1;※b 12
 11
0.0
 21
1.0
 31
0.0
1001
ACAD
1000
MTEXTBEGIN
1070
    73
1070
     1
1070
    44
1040
1.0
1070
    74
1070
     0
1000
MTEXTEND
1000
MTEXTBEGIN
1070
    73
1070
     1
1070
    44
1040
1.0
1070
    74
1070
     0
1000
MTEXTEND
  0
POINT
  5
685
330
5EE
100
AcDbEntity
  8
DEFPOINTS
  6
BYBLOCK
 62
     0
100
AcDbPoint
 10
655.221748865897
 20
191.5571665855039
 30
0.0
  0
POINT
  5
686
330
5EE
100
AcDbEntity
  8
DEFPOINTS
  6
BYBLOCK
 62
     0
100
AcDbPoint
 10
660.8217488658972
 20
203.5571527241545
 30
0.0
  0
POINT
  5
687
330
5EE
100
AcDbEntity
  8
DEFPOINTS
  6
BYBLOCK
 62
     0
100
AcDbPoint
 10
694.007769643606
 20
203.5571527241545
 30
0.0
  0
ENDBLK
  5
688
330
5EE
100
AcDbEntity
  8
0
100
AcDbBlockEnd
  0
BLOCK
  5
689
330
5FC
100
AcDbEntity
  8
0
100
AcDbBlockBegin
  2
*D7
 70
     1
 10
0.0
 20
0.0
 30
0.0
  3
*D7
  1

  0
LINE
  5
68A
330
5FC
100
AcDbEntity
  8
0
  6
BYBLOCK
 62
     4
100
AcDbLine
 10
660.8217488658972
 20
188.5571665855039
 30
0.0
 11
660.8217488658972
 21
117.5470082119661
 31
0.0
  0
LINE
  5
68B
330
5FC
100
AcDbEntity
  8
0
  6
BYBLOCK
 62
     4
100
AcDbLine
 10
568.8217488658972
 20
188.5573665855039
 30
0.0
 11
568.8217488658972
 21
117.5470082119661
 31
0.0
  0
LINE
  5
68C
330
5FC
100
AcDbEntity
  8
0
  6
BYBLOCK
 62
     4
100
AcDbLine
 10
653.8217488658972
 20
120.5470082119662
 30
0.0
 11
575.8217488658972
 21
120.5470082119662
 31
0.0
  0
INSERT
  5
68D
330
5FC
100
AcDbEntity
  8
0
  6
BYBLOCK
 62
     4
100
AcDbBlockReference
  2
_OPEN
 10
660.8217488658972
 20
120.5470082119662
 30
0.0
 41
7.0
 42
7.0
 43
7.0
  0
INSERT
  5
68E
330
5FC
100
AcDbEntity
  8
0
  6
BYBLOCK
 62
     4
100
AcDbBlockReference
  2
_OPEN
 10
568.8217488658972
 20
120.5470082119662
 30
0.0
 41
7.0
 42
7.0
 43
7.0
 50
180.0
  0
MTEXT
  5
68F
330
5FC
100
AcDbEntity
  8
0
  6
BYBLOCK
 62
     4
100
AcDbMText
 10
614.8217488658972
 20
125.5470082119662
 30
0.0
 40
6.0
 41
0.0
 71
     5
 72
     1
  1
\A1;φ92
1001
ACAD
1000
MTEXTBEGIN
1070
    73
1070
     1
1070
    44
1040
1.0
1070
    74
1070
     0
1000
MTEXTEND
1000
MTEXTBEGIN
1070
    73
1070
     1
1070
    44
1040
1.0
1070
    74
1070
     0
1000
MTEXTEND
  0
POINT
  5
690
330
5FC
100
AcDbEntity
  8
DEFPOINTS
  6
BYBLOCK
 62
     0
100
AcDbPoint
 10
660.8217488658972
 20
194.5571665855039
 30
0.0
  0
POINT
  5
691
330
5FC
100
AcDbEntity
  8
DEFPOINTS
  6
BYBLOCK
 62
     0
100
AcDbPoint
 10
568.8217488658972
 20
194.5573665855039
 30
0.0
  0
POINT
  5
692
330
5FC
100
AcDbEntity
  8
DEFPOINTS
  6
BYBLOCK
 62
     0
100
AcDbPoint
 10
568.8217488658972
 20
120.5470082119662
 30
0.0
  0
ENDBLK
  5
693
330
5FC
100
AcDbEntity
  8
0
100
AcDbBlockEnd
  0
BLOCK
  5
694
330
608
100
AcDbEntity
  8
0
100
AcDbBlockBegin
  2
*D8
 70
     1
 10
0.0
 20
0.0
 30
0.0
  3
*D8
  1

  0
LINE
  5
718
330
608
100
AcDbEntity
  8
SUNPOU
 62
     4
100
AcDbLine
 10
578.6605127045593
 20
175.6434276890231
 30
0.0
 11
456.2766259714567
 21
175.6434276890231
 31
0.0
  0
LINE
  5
719
330
608
100
AcDbEntity
  8
SUNPOU
 62
     4
100
AcDbLine
 10
459.2766259714566
 20
196.6434276890232
 30
0.0
 11
459.2766259714566
 21
182.6434276890232
 31
0.0
  0
INSERT
  5
71A
330
608
100
AcDbEntity
  8
SUNPOU
 62
     4
100
AcDbBlockReference
  2
_OPEN
 10
459.2766259714566
 20
203.6434276890232
 30
0.0
 41
7.0
 42
7.0
 43
7.0
 50
90.0
  0
INSERT
  5
71B
330
608
100
AcDbEntity
  8
SUNPOU
 62
     4
100
AcDbBlockReference
  2
_OPEN
 10
459.2766259714566
 20
175.6434276890231
 30
0.0
 41
7.0
 42
7.0
 43
7.0
 50
270.0
  0
MTEXT
  5
71C
330
608
100
AcDbEntity
  8
SUNPOU
 62
     4
100
AcDbMText
 10
454.2766259714566
 20
189.6434276890232
 30
0.0
 40
6.0
 41
0.0
 71
     5
 72
     1
  1
\A1;28
 11
0.0000000000000001
 21
1.0
 31
0.0
  0
POINT
  5
71D
330
608
100
AcDbEntity
  8
DEFPOINTS
 62
     0
100
AcDbPoint
 10
579.0606127045596
 20
203.6434276890232
 30
0.0
  0
POINT
  5
71E
330
608
100
AcDbEntity
  8
DEFPOINTS
 62
     0
100
AcDbPoint
 10
584.6605127045592
 20
175.6434276890231
 30
0.0
  0
POINT
  5
71F
330
608
100
AcDbEntity
  8
DEFPOINTS
 62
     0
100
AcDbPoint
 10
459.2766259714566
 20
175.6434276890231
 30
0.0
  0
ENDBLK
  5
69D
330
608
100
AcDbEntity
  8
0
100
AcDbBlockEnd
  0
BLOCK
  5
69E
330
613
100
AcDbEntity
  8
0
100
AcDbBlockBegin
  2
*D9
 70
     1
 10
0.0
 20
0.0
 30
0.0
  3
*D9
  1

  0
LINE
  5
69F
330
613
100
AcDbEntity
  8
0
  6
BYBLOCK
 62
     4
100
AcDbLine
 10
651.021748865897
 20
172.5572665855039
 30
0.0
 11
651.021748865897
 21
140.9840139844384
 31
0.0
  0
LINE
  5
6A0
330
613
100
AcDbEntity
  8
0
  6
BYBLOCK
 62
     4
100
AcDbLine
 10
578.6218488658969
 20
172.5572665855039
 30
0.0
 11
578.6218488658969
 21
140.9840139844384
 31
0.0
  0
LINE
  5
6A1
330
613
100
AcDbEntity
  8
0
  6
BYBLOCK
 62
     4
100
AcDbLine
 10
644.021748865897
 20
143.9840139844384
 30
0.0
 11
585.6218488658969
 21
143.9840139844384
 31
0.0
  0
INSERT
  5
6A2
330
613
100
AcDbEntity
  8
0
  6
BYBLOCK
 62
     4
100
AcDbBlockReference
  2
_OPEN
 10
651.021748865897
 20
143.9840139844384
 30
0.0
 41
7.0
 42
7.0
 43
7.0
  0
INSERT
  5
6A3
330
613
100
AcDbEntity
  8
0
  6
BYBLOCK
 62
     4
100
AcDbBlockReference
  2
_OPEN
 10
578.6218488658969
 20
143.9840139844384
 30
0.0
 41
7.0
 42
7.0
 43
7.0
 50
180.0
  0
MTEXT
  5
6A4
330
613
100
AcDbEntity
  8
0
  6
BYBLOCK
 62
     4
100
AcDbMText
 10
614.821798865897
 20
148.9840139844384
 30
0.0
 40
6.0
 41
0.0
 71
     5
 72
     1
  1
\A1;φ72
1001
ACAD
1000
MTEXTBEGIN
1070
    73
1070
     1
1070
    44
1040
1.0
1070
    74
1070
     0
1000
MTEXTEND
1000
MTEXTBEGIN
1070
    73
1070
     1
1070
    44
1040
1.0
1070
    74
1070
     0
1000
MTEXTEND
  0
POINT
  5
6A5
330
613
100
AcDbEntity
  8
DEFPOINTS
  6
BYBLOCK
 62
     0
100
AcDbPoint
 10
651.021748865897
 20
178.5572665855039
 30
0.0
  0
POINT
  5
6A6
330
613
100
AcDbEntity
  8
DEFPOINTS
  6
BYBLOCK
 62
     0
100
AcDbPoint
 10
578.6218488658969
 20
178.5572665855039
 30
0.0
  0
POINT
  5
6A7
330
613
100
AcDbEntity
  8
DEFPOINTS
  6
BYBLOCK
 62
     0
100
AcDbPoint
 10
578.6218488658969
 20
143.9840139844384
 30
0.0
  0
ENDBLK
  5
6A8
330
613
100
AcDbEntity
  8
0
100
AcDbBlockEnd
  0
BLOCK
  5
6A9
330
61F
100
AcDbEntity
  8
0
100
AcDbBlockBegin
  2
*D10
 70
     1
 10
0.0
 20
0.0
 30
0.0
  3
*D10
  1

  0
LINE
  5
6AA
330
61F
100
AcDbEntity
  8
0
  6
BYBLOCK
 62
     4
100
AcDbLine
 10
610.8219488658972
 20
284.0505665855038
 30
0.0
 11
610.8219488658972
 21
264.8145449282395
 31
0.0
  0
LINE
  5
6AB
330
61F
100
AcDbEntity
  8
0
  6
BYBLOCK
 62
     4
100
AcDbLine
 10
614.8217488658972
 20
245.5572665855039
 30
0.0
 11
614.8217488658972
 21
270.8145449282395
 31
0.0
  0
LINE
  5
6AC
330
61F
100
AcDbEntity
  8
0
  6
BYBLOCK
 62
     4
100
AcDbLine
 10
603.8219488658971
 20
267.8145449282395
 30
0.0
 11
596.8219488658972
 21
267.8145449282395
 31
0.0
  0
LINE
  5
6AD
330
61F
100
AcDbEntity
  8
0
  6
BYBLOCK
 62
     4
100
AcDbLine
 10
621.8217488658972
 20
267.8145449282395
 30
0.0
 11
636.8217488658972
 21
267.8145449282395
 31
0.0
  0
LINE
  5
6AE
330
61F
100
AcDbEntity
  8
0
  6
BYBLOCK
 62
     4
100
AcDbLine
 10
610.8219488658972
 20
267.8145449282395
 30
0.0
 11
614.8217488658972
 21
267.8145449282395
 31
0.0
  0
INSERT
  5
6AF
330
61F
100
AcDbEntity
  8
0
  6
BYBLOCK
 62
     4
100
AcDbBlockReference
  2
_OPEN
 10
610.8219488658972
 20
267.8145449282395
 30
0.0
 41
7.0
 42
7.0
 43
7.0
  0
INSERT
  5
6B0
330
61F
100
AcDbEntity
  8
0
  6
BYBLOCK
 62
     4
100
AcDbBlockReference
  2
_OPEN
 10
614.8217488658972
 20
267.8145449282395
 30
0.0
 41
7.0
 42
7.0
 43
7.0
 50
180.0
  0
MTEXT
  5
6B1
330
61F
100
AcDbEntity
  8
0
  6
BYBLOCK
 62
     4
100
AcDbMText
 10
632.8217488658972
 20
272.8145449282395
 30
0.0
 40
6.0
 41
0.0
 71
     5
 72
     1
  1
\A1;4
1001
ACAD
1000
MTEXTBEGIN
1070
    73
1070
     1
1070
    44
1040
1.0
1070
    74
1070
     0
1000
MTEXTEND
1000
MTEXTBEGIN
1070
    73
1070
     1
1070
    44
1040
1.0
1070
    74
1070
     0
1000
MTEXTEND
  0
POINT
  5
6B2
330
61F
100
AcDbEntity
  8
DEFPOINTS
  6
BYBLOCK
 62
     0
100
AcDbPoint
 10
610.8219488658972
 20
290.0505665855038
 30
0.0
  0
POINT
  5
6B3
330
61F
100
AcDbEntity
  8
DEFPOINTS
  6
BYBLOCK
 62
     0
100
AcDbPoint
 10
614.8217488658972
 20
239.5572665855039
 30
0.0
  0
POINT
  5
6B4
330
61F
100
AcDbEntity
  8
DEFPOINTS
  6
BYBLOCK
 62
     0
100
AcDbPoint
 10
614.8217488658972
 20
267.8145449282395
 30
0.0
  0
ENDBLK
  5
6B5
330
61F
100
AcDbEntity
  8
0
100
AcDbBlockEnd
  0
BLOCK
  5
6B6
330
62D
100
AcDbEntity
  8
0
100
AcDbBlockBegin
  2
*D11
 70
     1
 10
0.0
 20
0.0
 30
0.0
  3
*D11
  1

  0
LINE
  5
6B7
330
62D
100
AcDbEntity
  8
0
  6
BYBLOCK
 62
     4
100
AcDbLine
 10
680.8220488658969
 20
379.5571665855037
 30
0.0
 11
680.8220488658969
 21
464.2445546280371
 31
0.0
  0
LINE
  5
6B8
330
62D
100
AcDbEntity
  8
0
  6
BYBLOCK
 62
     4
100
AcDbLine
 10
474.8221488658971
 20
445.5575665855037
 30
0.0
 11
474.8221488658971
 21
464.2445546280371
 31
0.0
  0
LINE
  5
6B9
330
62D
100
AcDbEntity
  8
0
  6
BYBLOCK
 62
     4
100
AcDbLine
 10
673.8220488658969
 20
461.2445546280371
 30
0.0
 11
481.8221488658972
 21
461.2445546280371
 31
0.0
  0
INSERT
  5
6BA
330
62D
100
AcDbEntity
  8
0
  6
BYBLOCK
 62
     4
100
AcDbBlockReference
  2
_OPEN
 10
680.8220488658969
 20
461.2445546280371
 30
0.0
 41
7.0
 42
7.0
 43
7.0
  0
INSERT
  5
6BB
330
62D
100
AcDbEntity
  8
0
  6
BYBLOCK
 62
     4
100
AcDbBlockReference
  2
_OPEN
 10
474.8221488658971
 20
461.2445546280371
 30
0.0
 41
7.0
 42
7.0
 43
7.0
 50
180.0
  0
MTEXT
  5
6BC
330
62D
100
AcDbEntity
  8
0
  6
BYBLOCK
 62
     4
100
AcDbMText
 10
577.822098865897
 20
466.2445546280371
 30
0.0
 40
6.0
 41
0.0
 71
     5
 72
     1
  1
\A1;206
1001
ACAD
1000
MTEXTBEGIN
1070
    73
1070
     1
1070
    44
1040
1.0
1070
    74
1070
     0
1000
MTEXTEND
1000
MTEXTBEGIN
1070
    73
1070
     1
1070
    44
1040
1.0
1070
    74
1070
     0
1000
MTEXTEND
  0
POINT
  5
6BD
330
62D
100
AcDbEntity
  8
DEFPOINTS
  6
BYBLOCK
 62
     0
100
AcDbPoint
 10
680.8220488658969
 20
373.5571665855037
 30
0.0
  0
POINT
  5
6BE
330
62D
100
AcDbEntity
  8
DEFPOINTS
  6
BYBLOCK
 62
     0
100
AcDbPoint
 10
474.8221488658971
 20
439.5575665855037
 30
0.0
  0
POINT
  5
6BF
330
62D
100
AcDbEntity
  8
DEFPOINTS
  6
BYBLOCK
 62
     0
100
AcDbPoint
 10
474.8221488658971
 20
461.2445546280371
 30
0.0
  0
ENDBLK
  5
6C0
330
62D
100
AcDbEntity
  8
0
100
AcDbBlockEnd
  0
BLOCK
  5
6C1
330
639
100
AcDbEntity
  8
0
100
AcDbBlockBegin
  2
*D12
 70
     1
 10
0.0
 20
0.0
 30
0.0
  3
*D12
  1

  0
LINE
  5
6C2
330
639
100
AcDbEntity
  8
0
  6
BYBLOCK
 62
     4
100
AcDbLine
 10
680.8220488658969
 20
379.5571665855037
 30
0.0
 11
680.8220488658969
 21
428.3627034925286
 31
0.0
  0
LINE
  5
6C3
330
639
100
AcDbEntity
  8
0
  6
BYBLOCK
 62
     4
100
AcDbLine
 10
610.8219488658972
 20
334.5573665855038
 30
0.0
 11
610.8219488658972
 21
428.3627034925286
 31
0.0
  0
LINE
  5
6C4
330
639
100
AcDbEntity
  8
0
  6
BYBLOCK
 62
     4
100
AcDbLine
 10
673.8220488658969
 20
425.3627034925286
 30
0.0
 11
617.8219488658972
 21
425.3627034925286
 31
0.0
  0
INSERT
  5
6C5
330
639
100
AcDbEntity
  8
0
  6
BYBLOCK
 62
     4
100
AcDbBlockReference
  2
_OPEN
 10
680.8220488658969
 20
425.3627034925286
 30
0.0
 41
7.0
 42
7.0
 43
7.0
  0
INSERT
  5
6C6
330
639
100
AcDbEntity
  8
0
  6
BYBLOCK
 62
     4
100
AcDbBlockReference
  2
_OPEN
 10
610.8219488658972
 20
425.3627034925286
 30
0.0
 41
7.0
 42
7.0
 43
7.0
 50
180.0
  0
MTEXT
  5
6C7
330
639
100
AcDbEntity
  8
0
  6
BYBLOCK
 62
     4
100
AcDbMText
 10
645.821998865897
 20
430.3627034925287
 30
0.0
 40
6.0
 41
0.0
 71
     5
 72
     1
  1
\A1;70
1001
ACAD
1000
MTEXTBEGIN
1070
    73
1070
     1
1070
    44
1040
1.0
1070
    74
1070
     0
1000
MTEXTEND
1000
MTEXTBEGIN
1070
    73
1070
     1
1070
    44
1040
1.0
1070
    74
1070
     0
1000
MTEXTEND
  0
POINT
  5
6C8
330
639
100
AcDbEntity
  8
DEFPOINTS
  6
BYBLOCK
 62
     0
100
AcDbPoint
 10
680.8220488658969
 20
373.5571665855037
 30
0.0
  0
POINT
  5
6C9
330
639
100
AcDbEntity
  8
DEFPOINTS
  6
BYBLOCK
 62
     0
100
AcDbPoint
 10
610.8219488658972
 20
328.5573665855038
 30
0.0
  0
POINT
  5
6CA
330
639
100
AcDbEntity
  8
DEFPOINTS
  6
BYBLOCK
 62
     0
100
AcDbPoint
 10
610.8219488658972
 20
425.3627034925286
 30
0.0
  0
ENDBLK
  5
6CB
330
639
100
AcDbEntity
  8
0
100
AcDbBlockEnd
  0
ENDSEC
  0
SECTION
  2
ENTITIES
  0
TEXT
  5
11A
330
1A
100
AcDbEntity
  8
ZUWAKU
 62
     7
 48
10.0
100
AcDbText
 10
795.5579444309237
 20
4.974918402528146
 30
0.0
 40
8.0
  1
A1
100
AcDbText
  0
LINE
  5
11B
330
1A
100
AcDbEntity
  8
ZUWAKU
 62
     7
 48
10.0
100
AcDbLine
 10
10.05047808566086
 20
25.78258628282265
 30
0.0
 11
806.0504780856609
 21
25.78258628282253
 31
0.0
  0
LINE
  5
11C
330
1A
100
AcDbEntity
  8
ZUWAKU
  6
CONTINUOUS
 62
     7
100
AcDbLine
 10
806.0504780856609
 20
563.7825862828226
 30
0.0
 11
10.05047808566086
 21
563.7825862828226
 31
0.0
  0
LINE
  5
11D
330
1A
100
AcDbEntity
  8
ZUWAKU
  6
CONTINUOUS
 62
     7
100
AcDbLine
 10
806.0504780856609
 20
13.78258628282265
 30
0.0
 11
10.05047808566086
 21
13.78258628282265
 31
0.0
  0
LINE
  5
11E
330
1A
100
AcDbEntity
  8
ZUWAKU
  6
CONTINUOUS
 62
     7
100
AcDbLine
 10
10.05047808566086
 20
563.7825862828226
 30
0.0
 11
10.05047808566086
 21
13.78258628282265
 31
0.0
  0
LINE
  5
11F
330
1A
100
AcDbEntity
  8
ZUWAKU
 62
     7
 48
10.0
100
AcDbLine
 10
44.55797523147839
 20
13.78258628282265
 30
0.0
 11
44.5579752314784
 21
25.78258628282265
 31
0.0
  0
TEXT
  5
120
330
1A
100
AcDbEntity
  8
ZUWAKU
 62
     7
100
AcDbText
 10
16.05676551180931
 20
15.52294263804401
 30
0.0
 40
8.0
  1
品 種
100
AcDbText
  0
LINE
  5
121
330
1A
100
AcDbEntity
  8
ZUWAKU
 62
     7
 48
10.0
100
AcDbLine
 10
276.1028387068254
 20
13.78258628282265
 30
0.0
 11
276.1028387068254
 21
25.78258628282261
 31
0.0
  0
LINE
  5
122
330
1A
100
AcDbEntity
  8
ZUWAKU
 62
     7
 48
10.0
100
AcDbLine
 10
209.5138526425484
 20
13.78258628282265
 30
0.0
 11
209.5138526425485
 21
25.78258628282263
 31
0.0
  0
TEXT
  5
123
330
1A
100
AcDbEntity
  8
ZUWAKU
 62
     7
100
AcDbText
 10
282.3131429914078
 20
15.64241700452384
 30
0.0
 40
8.0
  1
飾りじょうご　型　１２０－ＵＴ７５
100
AcDbText
  0
TEXT
  5
124
330
1A
100
AcDbEntity
  8
ZUWAKU
 62
     7
100
AcDbText
 10
215.4560837190756
 20
16.18358115302453
 30
0.0
 40
8.0
  1
品名・ｻ ｲ ｽﾞ
100
AcDbText
  0
TEXT
  5
125
330
1A
100
AcDbEntity
  8
ZUWAKU
 62
     7
100
AcDbText
 10
50.3519382305086
 20
16.10306189639755
 30
0.0
 40
8.0
  1
丸トップ　のきとい
100
AcDbText
  0
LINE
  5
126
330
1A
100
AcDbEntity
  8
ZUWAKU
 62
     7
 48
10.0
100
AcDbLine
 10
768.7231079932794
 20
13.78258628282237
 30
0.0
 11
768.7231079932794
 21
25.78258628282254
 31
0.0
  0
LINE
  5
127
330
1A
100
AcDbEntity
  8
ZUWAKU
 62
     7
 48
10.0
100
AcDbLine
 10
733.8119002376948
 20
13.78258628282242
 30
0.0
 11
733.8119002376946
 21
25.78258628282254
 31
0.0
  0
TEXT
  5
128
330
1A
100
AcDbEntity
  8
ZUWAKU
 62
     7
100
AcDbText
 10
739.6955629973526
 20
15.24227755810852
 30
0.0
 40
8.0
  1
尺 度
100
AcDbText
  0
TEXT
  5
129
330
1A
100
AcDbEntity
  8
ZUWAKU
 62
     7
100
AcDbText
 10
779.7374630323229
 20
15.55488920081529
 30
0.0
 40
8.0
  1
1/2
100
AcDbText
  0
TEXT
  5
12A
330
1A
100
AcDbEntity
  8
ZUWAKU
 62
     7
100
AcDbText
 10
654.2531733678779
 20
15.90287984531518
 30
0.0
 40
8.0
  1
ＧＨ９５
100
AcDbText
  0
TEXT
  5
12B
330
1A
100
AcDbEntity
  8
ZUWAKU
 62
     7
100
AcDbText
 10
620.3363288383084
 20
15.6519090944263
 30
0.0
 40
8.0
  1
品 番
100
AcDbText
  0
LINE
  5
12C
330
1A
100
AcDbEntity
  8
ZUWAKU
 62
     7
 48
10.0
100
AcDbLine
 10
614.3351028194128
 20
13.78258628282232
 30
0.0
 11
614.3351028194128
 21
25.78258628282256
 31
0.0
  0
LINE
  5
12D
330
1A
100
AcDbEntity
  8
ZUWAKU
 62
     7
 48
10.0
100
AcDbLine
 10
648.7607587371021
 20
13.78258628282232
 30
0.0
 11
648.7607587371021
 21
25.78258628282255
 31
0.0
  0
TEXT
  5
12E
330
1A
100
AcDbEntity
  8
ZUWAKU
 62
     7
 48
10.0
100
AcDbText
 10
646.2758615931216
 20
4.949376903717848
 30
0.0
 40
8.0
  1
積水化学工業株式会社  建材
100
AcDbText
  0
LINE
  5
12F
330
1A
100
AcDbEntity
  8
ZUWAKU
  6
CONTINUOUS
 62
     7
100
AcDbLine
 10
806.0504780856609
 20
563.7825862828226
 30
0.0
 11
806.0504780856609
 21
13.78258628282265
 31
0.0
  0
DIMENSION
  5
3D3
330
1A
100
AcDbEntity
  8
SUNPOU
100
AcDbDimension
  2
*D1
 10
438.6807451870067
 20
162.6433276890232
 30
0.0
 11
433.6807451870066
 21
293.1434776890231
 31
0.0
 12
10.23886383866238
 22
-15.91393889648065
 32
0.0
 70
    32
  3
STANDARD
100
AcDbAlignedDimension
 13
485.0610127045595
 23
423.6436276890231
 33
0.0
 14
588.8607127045593
 24
162.6433276890232
 34
0.0
 50
90.0
100
AcDbRotatedDimension
1001
ACAD
1000
DSTYLE
1002
{
1070
   140
1040
6.0
1070
    74
1070
     0
1070
   172
1070
     1
1070
    73
1070
     0
1070
   272
1070
     2
1070
    77
1070
     3
1070
   173
1070
     1
1070
   147
1040
2.0
1070
    42
1040
6.0
1070
    44
1040
3.0
1070
    43
1040
14.0
1070
   271
1070
     0
1070
   178
1070
     4
1070
   177
1070
     4
1070
   176
1070
     4
1070
   141
1040
150.0
1070
     7
1000
_OPEN
1070
     6
1000
_OPEN
1070
    41
1040
7.0
1002
}
  0
LINE
  5
3D4
330
1A
100
AcDbEntity
  8
SEIHIN
  6
CONTINUOUS
 62
     3
 48
16.0
100
AcDbLine
 10
326.6403907991159
 20
351.643827689023
 30
0.0
 11
323.640290799116
 21
294.6438276890231
 31
0.0
  0
ARC
  5
3D5
330
1A
100
AcDbEntity
  8
SEIHIN
  6
CONTINUOUS
 62
     3
 48
16.0
100
AcDbCircle
 10
238.6401048606253
 20
302.6438312402049
 30
0.0
 40
59.99998593883579
100
AcDbArc
 50
344.5338837320125
 51
359.9998056228939
  0
ARC
  5
3D6
330
1A
100
AcDbEntity
  8
SEIHIN
  6
CONTINUOUS
 62
     3
 48
16.0
100
AcDbCircle
 10
235.1400930369806
 20
302.643746062212
 30
0.0
 40
59.99999776225214
100
AcDbArc
 50
346.1111785609421
 51
359.9998869619269
  0
LINE
  5
3D7
330
1A
100
AcDbEntity
  8
SEIHIN
  6
CONTINUOUS
 62
     3
 48
16.0
100
AcDbLine
 10
259.6396907991159
 20
296.8706276890232
 30
0.0
 11
266.6400907991159
 21
292.8289276890231
 31
0.0
  0
LINE
  5
3D8
330
1A
100
AcDbEntity
  8
SEIHIN
  6
CONTINUOUS
 62
     3
 48
16.0
100
AcDbLine
 10
262.6400907991159
 20
295.138427689023
 30
0.0
 11
269.6396907991158
 21
299.179627689023
 31
0.0
  0
LINE
  5
3D9
330
1A
100
AcDbEntity
  8
SEIHIN
  6
CONTINUOUS
 62
     3
 48
16.0
100
AcDbLine
 10
272.639390799116
 20
289.3652276890231
 30
0.0
 11
272.639390799116
 21
297.447827689023
 31
0.0
  0
LINE
  5
3DA
330
1A
100
AcDbEntity
  8
SEIHIN
  6
CONTINUOUS
 62
     3
 48
16.0
100
AcDbLine
 10
266.6400907991159
 20
289.3652276890231
 30
0.0
 11
266.6400907991159
 21
297.447827689023
 31
0.0
  0
LINE
  5
3DB
330
1A
100
AcDbEntity
  8
SEIHIN
  6
CONTINUOUS
 62
     3
 48
16.0
100
AcDbLine
 10
266.6400907991159
 20
289.3652276890231
 30
0.0
 11
266.6400907991159
 21
297.447827689023
 31
0.0
  0
LINE
  5
3DC
330
1A
100
AcDbEntity
  8
SEIHIN
  6
CONTINUOUS
 62
     3
 48
16.0
100
AcDbLine
 10
272.639390799116
 20
289.3652276890231
 30
0.0
 11
272.639390799116
 21
297.447827689023
 31
0.0
  0
LINE
  5
3DD
330
1A
100
AcDbEntity
  8
SEIHIN
  6
CONTINUOUS
 62
     3
 48
16.0
100
AcDbLine
 10
276.639390799116
 20
295.138427689023
 30
0.0
 11
269.6396907991158
 21
299.179627689023
 31
0.0
  0
LINE
  5
3DE
330
1A
100
AcDbEntity
  8
SEIHIN
  6
CONTINUOUS
 62
     3
 48
16.0
100
AcDbLine
 10
272.639390799116
 20
292.8289276890231
 30
0.0
 11
279.639390799116
 21
296.8704276890232
 31
0.0
  0
LINE
  5
3DF
330
1A
100
AcDbEntity
  8
SEIHIN
  6
CONTINUOUS
 62
     3
 48
16.0
100
AcDbLine
 10
288.639390799116
 20
295.1383276890231
 30
0.0
 11
291.344990799116
 21
296.7004276890231
 31
0.0
  0
LINE
  5
3E0
330
1A
100
AcDbEntity
  8
SEIHIN
  6
CONTINUOUS
 62
     3
 48
16.0
100
AcDbLine
 10
285.6390907991159
 20
296.8706276890232
 30
0.0
 11
290.9825907991158
 21
293.7855276890232
 31
0.0
  0
ARC
  5
3E1
330
1A
100
AcDbEntity
  8
SEIHIN
  6
CONTINUOUS
 62
     3
 48
16.0
100
AcDbCircle
 10
231.6401134114722
 20
302.6439360265786
 30
0.0
 40
59.99997738843601
100
AcDbArc
 50
347.6109567337967
 51
359.9997055592123
  0
LINE
  5
3E2
330
1A
100
AcDbEntity
  8
SEIHIN
  6
CONTINUOUS
 62
     3
 48
16.0
100
AcDbLine
 10
316.640390799116
 20
351.643827689023
 30
0.0
 11
313.640290799116
 21
294.6438276890231
 31
0.0
  0
LINE
  5
3E3
330
1A
100
AcDbEntity
  8
SEIHIN
  6
CONTINUOUS
 62
     3
 48
16.0
100
AcDbLine
 10
315.6445907991159
 20
351.7233276890231
 30
0.0
 11
312.640290799116
 21
294.6438276890231
 31
0.0
  0
LINE
  5
3E4
330
1A
100
AcDbEntity
  8
SEIHIN
  6
CONTINUOUS
 62
     3
 48
16.0
100
AcDbLine
 10
246.6400907991158
 20
292.8289276890231
 30
0.0
 11
253.6400907991159
 21
296.8704276890232
 31
0.0
  0
LINE
  5
3E5
330
1A
100
AcDbEntity
  8
SEIHIN
  6
CONTINUOUS
 62
     3
 48
16.0
100
AcDbLine
 10
246.6400907991158
 20
289.3653276890231
 30
0.0
 11
246.6400907991158
 21
297.447827689023
 31
0.0
  0
LINE
  5
3E6
330
1A
100
AcDbEntity
  8
SEIHIN
  6
CONTINUOUS
 62
     3
 48
16.0
100
AcDbLine
 10
243.6400907991159
 20
299.1798276890232
 30
0.0
 11
236.6401907991159
 21
295.138427689023
 31
0.0
  0
LINE
  5
3E7
330
1A
100
AcDbEntity
  8
SEIHIN
  6
CONTINUOUS
 62
     3
 48
16.0
100
AcDbLine
 10
240.6401907991159
 20
292.8289276890231
 30
0.0
 11
233.6401907991159
 21
296.8704276890232
 31
0.0
  0
LINE
  5
3E8
330
1A
100
AcDbEntity
  8
SEIHIN
  6
CONTINUOUS
 62
     3
 48
16.0
100
AcDbLine
 10
240.6401907991159
 20
289.3653276890231
 30
0.0
 11
240.6401907991159
 21
297.447827689023
 31
0.0
  0
LINE
  5
3E9
330
1A
100
AcDbEntity
  8
SEIHIN
  6
CONTINUOUS
 62
     3
 48
16.0
100
AcDbLine
 10
243.6401907991159
 20
299.1798276890232
 30
0.0
 11
250.6400907991158
 21
295.138427689023
 31
0.0
  0
LINE
  5
3EA
330
1A
100
AcDbEntity
  8
SEIHIN
  6
CONTINUOUS
 62
     3
 48
16.0
100
AcDbLine
 10
227.6405907991158
 20
296.8707276890231
 30
0.0
 11
220.640190799116
 21
292.829027689023
 31
0.0
  0
LINE
  5
3EB
330
1A
100
AcDbEntity
  8
SEIHIN
  6
CONTINUOUS
 62
     3
 48
16.0
100
AcDbLine
 10
224.640190799116
 20
295.138427689023
 30
0.0
 11
217.6405907991159
 21
299.1797276890232
 31
0.0
  0
LINE
  5
3EC
330
1A
100
AcDbEntity
  8
SEIHIN
  6
CONTINUOUS
 62
     3
 48
16.0
100
AcDbLine
 10
214.640890799116
 20
289.3653276890231
 30
0.0
 11
214.640890799116
 21
297.447827689023
 31
0.0
  0
LINE
  5
3ED
330
1A
100
AcDbEntity
  8
SEIHIN
  6
CONTINUOUS
 62
     3
 48
16.0
100
AcDbLine
 10
220.640190799116
 20
289.3653276890231
 30
0.0
 11
220.640190799116
 21
297.447827689023
 31
0.0
  0
LINE
  5
3EE
330
1A
100
AcDbEntity
  8
SEIHIN
  6
CONTINUOUS
 62
     3
 48
16.0
100
AcDbLine
 10
220.640190799116
 20
289.3653276890231
 30
0.0
 11
220.640190799116
 21
297.447827689023
 31
0.0
  0
LINE
  5
3EF
330
1A
100
AcDbEntity
  8
SEIHIN
  6
CONTINUOUS
 62
     3
 48
16.0
100
AcDbLine
 10
214.640890799116
 20
289.3653276890231
 30
0.0
 11
214.640890799116
 21
297.447827689023
 31
0.0
  0
LINE
  5
3F0
330
1A
100
AcDbEntity
  8
SEIHIN
  6
CONTINUOUS
 62
     3
 48
16.0
100
AcDbLine
 10
210.640890799116
 20
295.138427689023
 30
0.0
 11
217.6405907991159
 21
299.1797276890232
 31
0.0
  0
LINE
  5
3F1
330
1A
100
AcDbEntity
  8
SEIHIN
  6
CONTINUOUS
 62
     3
 48
16.0
100
AcDbLine
 10
214.640890799116
 20
292.829027689023
 30
0.0
 11
207.6408907991159
 21
296.8705276890231
 31
0.0
  0
ARC
  5
3F2
330
1A
100
AcDbEntity
  8
SEIHIN
  6
CONTINUOUS
 62
     3
 48
16.0
100
AcDbCircle
 10
248.6401500717549
 20
302.6440276191266
 30
0.0
 40
59.99995927297206
100
AcDbArc
 50
180.0001909193149
 51
195.4661197257791
  0
ARC
  5
3F3
330
1A
100
AcDbEntity
  8
SEIHIN
  6
CONTINUOUS
 62
     3
 48
16.0
100
AcDbCircle
 10
252.1401645579635
 20
302.6439431385913
 30
0.0
 40
59.99997375895859
100
AcDbArc
 50
180.0001102462649
 51
193.8888242308657
  0
ARC
  5
3F4
330
1A
100
AcDbEntity
  8
SEIHIN
  6
CONTINUOUS
 62
     3
 48
16.0
100
AcDbCircle
 10
255.6401360065319
 20
302.6441325364733
 30
0.0
 40
59.99994520878181
100
AcDbArc
 50
180.0003866011903
 51
192.3890466040568
  0
LINE
  5
3F5
330
1A
100
AcDbEntity
  8
SEIHIN
  6
CONTINUOUS
 62
     3
 48
16.0
100
AcDbLine
 10
160.640090799116
 20
351.6440276890232
 30
0.0
 11
163.6399907991159
 21
294.6440276890232
 31
0.0
  0
LINE
  5
3F6
330
1A
100
AcDbEntity
  8
SEIHIN
  6
CONTINUOUS
 62
     3
 48
16.0
100
AcDbLine
 10
170.6400907991159
 20
351.6440276890232
 30
0.0
 11
173.639990799116
 21
294.6440276890232
 31
0.0
  0
LINE
  5
3F7
330
1A
100
AcDbEntity
  8
SEIHIN
  6
CONTINUOUS
 62
     3
 48
16.0
100
AcDbLine
 10
171.635890799116
 20
351.7235276890231
 30
0.0
 11
174.6399907991159
 21
294.6440276890232
 31
0.0
  0
LINE
  5
3F8
330
1A
100
AcDbEntity
  8
SEIHIN
  6
CONTINUOUS
 62
     3
 48
16.0
100
AcDbLine
 10
201.6412907991159
 20
296.8707276890231
 30
0.0
 11
196.297690799116
 21
293.7856276890231
 31
0.0
  0
LINE
  5
3F9
330
1A
100
AcDbEntity
  8
SEIHIN
  6
CONTINUOUS
 62
     3
 48
16.0
100
AcDbLine
 10
198.640890799116
 20
295.1385276890232
 30
0.0
 11
195.935290799116
 21
296.700527689023
 31
0.0
  0
LINE
  5
3FA
330
1A
100
AcDbEntity
  8
CENTER_L
  6
CENTER
 62
     1
 48
5.0
100
AcDbLine
 10
243.6403907991159
 20
438.9466276890232
 30
0.0
 11
243.6398907991159
 21
152.2099276890232
 31
0.0
  0
ARC
  5
3FB
330
1A
100
AcDbEntity
  8
SEIHIN
  6
CONTINUOUS
 62
     3
 48
16.0
100
AcDbCircle
 10
473.0951000607793
 20
312.7169094136098
 30
0.0
 40
300.0000159831285
100
AcDbArc
 50
183.4538528589608
 51
191.7095550657226
  0
ARC
  5
3FC
330
1A
100
AcDbEntity
  8
SEIHIN
  6
CONTINUOUS
 62
     3
 48
16.0
100
AcDbCircle
 10
474.0951743356246
 20
312.7163530327866
 30
0.0
 40
300.0000566046451
100
AcDbArc
 50
183.4537459364819
 51
191.5118566556005
  0
ARC
  5
3FD
330
1A
100
AcDbEntity
  8
SEIHIN
  6
CONTINUOUS
 62
     3
 48
16.0
100
AcDbCircle
 10
177.3242184282014
 20
243.6440059426945
 30
0.0
 40
5.999978253734836
100
AcDbArc
 50
193.5885120165662
 51
269.9997361607121
  0
ARC
  5
3FE
330
1A
100
AcDbEntity
  8
SEIHIN
  6
CONTINUOUS
 62
     3
 48
16.0
100
AcDbCircle
 10
463.09516382628
 20
312.7164077183151
 30
0.0
 40
300.0000494087991
100
AcDbArc
 50
183.453756482593
 51
193.5881976935575
  0
ARC
  5
3FF
330
1A
100
AcDbEntity
  8
SEIHIN
  6
CONTINUOUS
 62
     3
 48
16.0
100
AcDbCircle
 10
329.272152046222
 20
209.9594296694308
 30
0.0
 40
29.99999570535647
100
AcDbArc
 50
130.8743322167678
 51
167.1499662482855
  0
ARC
  5
400
330
1A
100
AcDbEntity
  8
SEIHIN
  6
CONTINUOUS
 62
     3
 48
16.0
100
AcDbCircle
 10
304.0251468166379
 20
252.6437905986871
 30
0.0
 40
3.999980305674594
100
AcDbArc
 50
271.99206946669
 51
348.2909638502756
  0
ARC
  5
401
330
1A
100
AcDbEntity
  8
SEIHIN
  6
CONTINUOUS
 62
     3
 48
16.0
100
AcDbCircle
 10
303.230627183456
 20
253.6438585435762
 30
0.0
 40
4.000038886127909
100
AcDbArc
 50
272.1084188486185
 51
348.4875551199543
  0
LINE
  5
402
330
1A
100
AcDbEntity
  8
SEIHIN
  6
CONTINUOUS
 62
     3
 48
16.0
100
AcDbLine
 10
309.9558907991158
 20
237.6438276890232
 30
0.0
 11
243.6403907991159
 21
237.6438276890232
 31
0.0
  0
LINE
  5
403
330
1A
100
AcDbEntity
  8
SEIHIN
  6
CONTINUOUS
 62
     3
 48
16.0
100
AcDbLine
 10
243.6403907991159
 20
232.6438276890231
 30
0.0
 11
309.6400907991159
 21
232.6438276890231
 31
0.0
  0
LINE
  5
404
330
1A
100
AcDbEntity
  8
SEIHIN
  6
CONTINUOUS
 62
     3
 48
16.0
100
AcDbLine
 10
289.640390799116
 20
203.6437276890231
 30
0.0
 11
289.640290799116
 21
178.6436276890232
 31
0.0
  0
LINE
  5
405
330
1A
100
AcDbEntity
  8
SEIHIN
  6
CONTINUOUS
 62
     3
 48
16.0
100
AcDbLine
 10
197.6395907991159
 20
203.6439276890232
 30
0.0
 11
197.6396907991159
 21
178.6438276890232
 31
0.0
  0
LINE
  5
406
330
1A
100
AcDbEntity
  8
SEIHIN
  6
CONTINUOUS
 62
     3
 48
16.0
100
AcDbLine
 10
203.2395907991159
 20
175.6438276890232
 30
0.0
 11
243.6395907991159
 21
175.6438276890232
 31
0.0
  0
LINE
  5
407
330
1A
100
AcDbEntity
  8
SEIHIN
  6
CONTINUOUS
 62
     3
 48
16.0
100
AcDbLine
 10
243.6395907991159
 20
162.6437276890232
 30
0.0
 11
207.439590799116
 21
162.6439276890232
 31
0.0
  0
LINE
  5
408
330
1A
100
AcDbEntity
  8
SEIHIN
  6
CONTINUOUS
 62
     3
 48
16.0
100
AcDbLine
 10
197.6396907991159
 20
178.6438276890232
 30
0.0
 11
243.6396907991159
 21
178.6437276890231
 31
0.0
  0
LINE
  5
409
330
1A
100
AcDbEntity
  8
SEIHIN
  6
CONTINUOUS
 62
     3
 48
16.0
100
AcDbLine
 10
197.6396907991159
 20
178.6438276890232
 30
0.0
 11
203.2395907991159
 21
175.6438276890232
 31
0.0
  0
LINE
  5
40A
330
1A
100
AcDbEntity
  8
SEIHIN
  6
CONTINUOUS
 62
     3
 48
16.0
100
AcDbLine
 10
207.4394907991159
 20
162.6438276890231
 30
0.0
 11
207.4394907991159
 21
175.6440276890232
 31
0.0
  0
LINE
  5
40B
330
1A
100
AcDbEntity
  8
SEIHIN
  6
CONTINUOUS
 62
     3
 48
16.0
100
AcDbLine
 10
243.640290799116
 20
162.6437276890232
 30
0.0
 11
279.8403907991158
 21
162.6438276890231
 31
0.0
  0
LINE
  5
40C
330
1A
100
AcDbEntity
  8
SEIHIN
  6
CONTINUOUS
 62
     3
 48
16.0
100
AcDbLine
 10
284.0403907991159
 20
175.6436276890232
 30
0.0
 11
243.640290799116
 21
175.6437276890231
 31
0.0
  0
LINE
  5
40D
330
1A
100
AcDbEntity
  8
SEIHIN
  6
CONTINUOUS
 62
     3
 48
16.0
100
AcDbLine
 10
289.640290799116
 20
178.6436276890232
 30
0.0
 11
243.640290799116
 21
178.6437276890231
 31
0.0
  0
LINE
  5
40E
330
1A
100
AcDbEntity
  8
SEIHIN
  6
CONTINUOUS
 62
     3
 48
16.0
100
AcDbLine
 10
289.640290799116
 20
178.6436276890232
 30
0.0
 11
284.0403907991159
 21
175.6436276890232
 31
0.0
  0
LINE
  5
40F
330
1A
100
AcDbEntity
  8
SEIHIN
  6
CONTINUOUS
 62
     3
 48
16.0
100
AcDbLine
 10
279.8403907991158
 20
162.6437276890232
 30
0.0
 11
279.8403907991158
 21
175.6439276890231
 31
0.0
  0
ARC
  5
410
330
1A
100
AcDbEntity
  8
SEIHIN
  6
CONTINUOUS
 62
     3
 48
16.0
100
AcDbCircle
 10
204.4399013478324
 20
167.6472007993905
 30
0.0
 40
100.0000278577702
100
AcDbArc
 50
66.92125988081572
 51
84.72754570713956
  0
ARC
  5
411
330
1A
100
AcDbEntity
  8
SEIHIN
  6
CONTINUOUS
 62
     3
 48
16.0
100
AcDbCircle
 10
204.4401981401779
 20
171.1471257635189
 30
0.0
 40
100.0000197467485
100
AcDbArc
 50
66.9213804633188
 51
83.68428639533407
  0
ARC
  5
412
330
1A
100
AcDbEntity
  8
SEIHIN
  6
CONTINUOUS
 62
     3
 48
16.0
100
AcDbCircle
 10
204.4403831195348
 20
174.6470753304706
 30
0.0
 40
99.99999363294108
100
AcDbArc
 50
66.92148929350974
 51
82.61978884764024
  0
LINE
  5
413
330
1A
100
AcDbEntity
  8
SEIHIN
  6
CONTINUOUS
 62
     3
 48
16.0
100
AcDbLine
 10
240.6401907991159
 20
274.3545276890231
 30
0.0
 11
233.639890799116
 21
270.3128276890231
 31
0.0
  0
LINE
  5
414
330
1A
100
AcDbEntity
  8
SEIHIN
  6
CONTINUOUS
 62
     3
 48
16.0
100
AcDbLine
 10
240.6401907991159
 20
277.8181276890232
 30
0.0
 11
233.6401907991159
 21
281.8596276890232
 31
0.0
  0
LINE
  5
415
330
1A
100
AcDbEntity
  8
SEIHIN
  6
CONTINUOUS
 62
     3
 48
16.0
100
AcDbLine
 10
243.6400907991159
 20
284.1689276890232
 30
0.0
 11
236.6401907991159
 21
280.1276276890231
 31
0.0
  0
LINE
  5
416
330
1A
100
AcDbEntity
  8
SEIHIN
  6
CONTINUOUS
 62
     3
 48
16.0
100
AcDbLine
 10
240.6401907991159
 20
289.3653276890231
 30
0.0
 11
233.639890799116
 21
285.3236276890232
 31
0.0
  0
LINE
  5
417
330
1A
100
AcDbEntity
  8
SEIHIN
  6
CONTINUOUS
 62
     3
 48
16.0
100
AcDbLine
 10
243.6396907991159
 20
232.6438276890231
 30
0.0
 11
177.6399907991159
 21
232.6440276890232
 31
0.0
  0
LINE
  5
418
330
1A
100
AcDbEntity
  8
SEIHIN
  6
CONTINUOUS
 62
     3
 48
16.0
100
AcDbLine
 10
177.324190799116
 20
237.6440276890232
 30
0.0
 11
243.6396907991159
 21
237.6438276890232
 31
0.0
  0
ARC
  5
419
330
1A
100
AcDbEntity
  8
SEIHIN
  6
CONTINUOUS
 62
     3
 48
16.0
100
AcDbCircle
 10
242.4747248600244
 20
515.699827381003
 30
0.0
 40
299.9999481342521
100
AcDbArc
 50
260.6206058055343
 51
279.9147045726149
  0
LINE
  5
41A
330
1A
100
AcDbEntity
  8
SEIHIN
  6
CONTINUOUS
 62
     3
 48
16.0
100
AcDbLine
 10
197.6398907991159
 20
203.6439276890232
 30
0.0
 11
243.6395907991159
 21
203.6438276890232
 31
0.0
  0
LINE
  5
41B
330
1A
100
AcDbEntity
  8
SEIHIN
  6
CONTINUOUS
 62
     3
 48
16.0
100
AcDbLine
 10
243.6397907991159
 20
245.6438276890232
 30
0.0
 11
187.6994907991159
 21
245.6439276890231
 31
0.0
  0
LINE
  5
41C
330
1A
100
AcDbEntity
  8
SEIHIN
  6
CONTINUOUS
 62
     3
 48
16.0
100
AcDbLine
 10
243.6397907991159
 20
246.6438276890233
 30
0.0
 11
188.486090799116
 21
246.6439276890232
 31
0.0
  0
ARC
  5
41D
330
1A
100
AcDbEntity
  8
SEIHIN
  6
CONTINUOUS
 62
     3
 48
16.0
100
AcDbCircle
 10
183.2549763421565
 20
252.6440398809201
 30
0.0
 40
4.000031003015426
100
AcDbArc
 50
191.7096065582723
 51
268.0073601247655
  0
ARC
  5
41E
330
1A
100
AcDbEntity
  8
SEIHIN
  6
CONTINUOUS
 62
     3
 48
16.0
100
AcDbCircle
 10
184.0494655252746
 20
253.6439491221238
 30
0.0
 40
3.999929947543839
100
AcDbArc
 50
191.5111631594879
 51
267.8913644456091
  0
ARC
  5
41F
330
1A
100
AcDbEntity
  8
SEIHIN
  6
CONTINUOUS
 62
     3
 48
16.0
100
AcDbCircle
 10
158.0078920810158
 20
209.9596255545716
 30
0.0
 40
29.9999578977205
100
AcDbArc
 50
12.85025417615461
 51
49.12576322643634
  0
ARC
  5
420
330
1A
100
AcDbEntity
  8
SEIHIN
  6
CONTINUOUS
 62
     3
 48
16.0
100
AcDbCircle
 10
190.4510962160394
 20
207.1541201121373
 30
0.0
 40
8.000013650298141
100
AcDbArc
 50
333.9743607126631
 51
97.14974374009527
  0
ARC
  5
421
330
1A
100
AcDbEntity
  8
SEIHIN
  6
CONTINUOUS
 62
     3
 48
16.0
100
AcDbCircle
 10
189.2065265658136
 20
217.0764026444137
 30
0.0
 40
2.000018563711182
100
AcDbArc
 50
192.8491785509537
 51
277.1478957347769
  0
LINE
  5
422
330
1A
100
AcDbEntity
  8
SEIHIN
  6
CONTINUOUS
 62
     3
 48
16.0
100
AcDbLine
 10
177.6399907991159
 20
232.6440276890232
 30
0.0
 11
177.6399907991159
 21
237.6440276890232
 31
0.0
  0
ARC
  5
423
330
1A
100
AcDbEntity
  8
SEIHIN
  6
CONTINUOUS
 62
     3
 48
16.0
100
AcDbCircle
 10
187.6995064687431
 20
250.6440174250021
 30
0.0
 40
4.999989736003422
100
AcDbArc
 50
203.5480977488587
 51
269.999820438931
  0
ARC
  5
424
330
1A
100
AcDbEntity
  8
SEIHIN
  6
CONTINUOUS
 62
     3
 48
16.0
100
AcDbCircle
 10
188.486057999307
 20
251.6440491754309
 30
0.0
 40
5.000021486515227
100
AcDbArc
 50
203.5445861010767
 51
270.000375856509
  0
LINE
  5
425
330
1A
100
AcDbEntity
  8
SEIHIN
  6
CONTINUOUS
 62
     3
 48
16.0
100
AcDbLine
 10
211.6405907991159
 20
287.6331276890232
 30
0.0
 11
204.640890799116
 21
291.6743276890232
 31
0.0
  0
LINE
  5
426
330
1A
100
AcDbEntity
  8
SEIHIN
  6
CONTINUOUS
 62
     3
 48
16.0
100
AcDbLine
 10
203.9217907991159
 20
275.7046276890231
 30
0.0
 11
210.022890799116
 21
279.5635276890231
 31
0.0
  0
ARC
  5
427
330
1A
100
AcDbEntity
  8
SEIHIN
  6
CONTINUOUS
 62
     3
 48
16.0
100
AcDbCircle
 10
214.6401719639703
 20
278.1774441433524
 30
0.0
 40
10.9999550265079
100
AcDbArc
 50
192.9917942832292
 51
264.7276778412694
  0
ARC
  5
428
330
1A
100
AcDbEntity
  8
SEIHIN
  6
CONTINUOUS
 62
     3
 48
16.0
100
AcDbCircle
 10
216.541203831526
 20
280.4794168208492
 30
0.0
 40
9.999985856495614
100
AcDbArc
 50
196.6640402634341
 51
263.6840238787953
  0
ARC
  5
429
330
1A
100
AcDbEntity
  8
SEIHIN
  6
CONTINUOUS
 62
     3
 48
16.0
100
AcDbCircle
 10
207.4850926529939
 20
291.602126180914
 30
0.0
 40
14.00000453553507
100
AcDbArc
 50
193.8886373098464
 51
267.8554024491065
  0
ARC
  5
42A
330
1A
100
AcDbEntity
  8
SEIHIN
  6
CONTINUOUS
 62
     3
 48
16.0
100
AcDbCircle
 10
209.7346742769047
 20
292.5603406770104
 30
0.0
 40
13.00000611442492
100
AcDbArc
 50
192.3889552068931
 51
271.2699388215095
  0
ARC
  5
42B
330
1A
100
AcDbEntity
  8
SEIHIN
  6
CONTINUOUS
 62
     3
 48
16.0
100
AcDbCircle
 10
205.2697189639832
 20
290.6438041854881
 30
0.0
 40
14.99996308580367
100
AcDbArc
 50
195.4655594928532
 51
264.8443262114923
  0
LINE
  5
42C
330
1A
100
AcDbEntity
  8
SEIHIN
  6
CONTINUOUS
 62
     3
 48
16.0
100
AcDbLine
 10
201.6412907991159
 20
281.8600276890232
 30
0.0
 11
201.6412907991159
 21
289.9425276890231
 31
0.0
  0
LINE
  5
42D
330
1A
100
AcDbEntity
  8
SEIHIN
  6
CONTINUOUS
 62
     3
 48
16.0
100
AcDbLine
 10
201.6412907991159
 20
282.386927689023
 30
0.0
 11
201.6412907991159
 21
289.9425276890231
 31
0.0
  0
LINE
  5
42E
330
1A
100
AcDbEntity
  8
SEIHIN
  6
CONTINUOUS
 62
     3
 48
16.0
100
AcDbLine
 10
197.6412907991159
 20
287.6331276890232
 30
0.0
 11
204.640890799116
 21
291.6743276890232
 31
0.0
  0
LINE
  5
42F
330
1A
100
AcDbEntity
  8
SEIHIN
  6
CONTINUOUS
 62
     3
 48
16.0
100
AcDbLine
 10
223.2125907991159
 20
272.8693276890231
 30
0.0
 11
220.6405907991158
 21
274.3543276890231
 31
0.0
  0
ARC
  5
430
330
1A
100
AcDbEntity
  8
SEIHIN
  6
CONTINUOUS
 62
     3
 48
16.0
100
AcDbCircle
 10
218.4420987338285
 20
282.7440214130189
 30
0.0
 40
8.999957704625488
100
AcDbArc
 50
200.6954749117382
 51
262.6195602979297
  0
LINE
  5
431
330
1A
100
AcDbEntity
  8
SEIHIN
  6
CONTINUOUS
 62
     3
 48
16.0
100
AcDbLine
 10
223.640490799116
 20
272.6223276890232
 30
0.0
 11
230.6401907991159
 21
276.6635276890231
 31
0.0
  0
LINE
  5
432
330
1A
100
AcDbEntity
  8
SEIHIN
  6
CONTINUOUS
 62
     3
 48
16.0
100
AcDbLine
 10
233.639890799116
 20
270.2890276890231
 30
0.0
 11
233.639890799116
 21
274.9316276890232
 31
0.0
  0
LINE
  5
433
330
1A
100
AcDbEntity
  8
SEIHIN
  6
CONTINUOUS
 62
     3
 48
16.0
100
AcDbLine
 10
233.639890799116
 20
270.2890276890231
 30
0.0
 11
233.639890799116
 21
274.9316276890232
 31
0.0
  0
LINE
  5
434
330
1A
100
AcDbEntity
  8
SEIHIN
  6
CONTINUOUS
 62
     3
 48
16.0
100
AcDbLine
 10
237.639890799116
 20
272.6222276890232
 30
0.0
 11
230.6401907991159
 21
276.6635276890231
 31
0.0
  0
LINE
  5
435
330
1A
100
AcDbEntity
  8
SEIHIN
  6
CONTINUOUS
 62
     3
 48
16.0
100
AcDbLine
 10
227.6404907991159
 20
271.918627689023
 30
0.0
 11
227.6405907991158
 21
274.931727689023
 31
0.0
  0
LINE
  5
436
330
1A
100
AcDbEntity
  8
SEIHIN
  6
CONTINUOUS
 62
     3
 48
16.0
100
AcDbLine
 10
227.6404907991159
 20
271.918627689023
 30
0.0
 11
227.6405907991158
 21
274.931727689023
 31
0.0
  0
LINE
  5
437
330
1A
100
AcDbEntity
  8
SEIHIN
  6
CONTINUOUS
 62
     3
 48
16.0
100
AcDbLine
 10
227.6405907991158
 20
285.3236276890232
 30
0.0
 11
220.6405907991158
 21
289.3651276890232
 31
0.0
  0
LINE
  5
438
330
1A
100
AcDbEntity
  8
SEIHIN
  6
CONTINUOUS
 62
     3
 48
16.0
100
AcDbLine
 10
227.6405907991158
 20
281.8599276890231
 30
0.0
 11
220.640190799116
 21
277.8182276890231
 31
0.0
  0
LINE
  5
439
330
1A
100
AcDbEntity
  8
SEIHIN
  6
CONTINUOUS
 62
     3
 48
16.0
100
AcDbLine
 10
224.640190799116
 20
280.1277276890232
 30
0.0
 11
217.6405907991159
 21
284.1689276890232
 31
0.0
  0
LINE
  5
43A
330
1A
100
AcDbEntity
  8
SEIHIN
  6
CONTINUOUS
 62
     3
 48
16.0
100
AcDbLine
 10
207.6405907991159
 20
281.8600276890232
 30
0.0
 11
207.6405907991159
 21
289.9425276890231
 31
0.0
  0
LINE
  5
43B
330
1A
100
AcDbEntity
  8
SEIHIN
  6
CONTINUOUS
 62
     3
 48
16.0
100
AcDbLine
 10
207.6405907991159
 20
281.8600276890232
 30
0.0
 11
207.6405907991159
 21
289.9425276890231
 31
0.0
  0
LINE
  5
43C
330
1A
100
AcDbEntity
  8
SEIHIN
  6
CONTINUOUS
 62
     3
 48
16.0
100
AcDbLine
 10
210.640890799116
 20
280.1277276890232
 30
0.0
 11
217.6405907991159
 21
284.1689276890232
 31
0.0
  0
LINE
  5
43D
330
1A
100
AcDbEntity
  8
SEIHIN
  6
CONTINUOUS
 62
     3
 48
16.0
100
AcDbLine
 10
214.640890799116
 20
274.3545276890231
 30
0.0
 11
214.640890799116
 21
282.4370276890231
 31
0.0
  0
LINE
  5
43E
330
1A
100
AcDbEntity
  8
SEIHIN
  6
CONTINUOUS
 62
     3
 48
16.0
100
AcDbLine
 10
214.640890799116
 20
274.3545276890231
 30
0.0
 11
214.640890799116
 21
282.4370276890231
 31
0.0
  0
LINE
  5
43F
330
1A
100
AcDbEntity
  8
SEIHIN
  6
CONTINUOUS
 62
     3
 48
16.0
100
AcDbLine
 10
214.640890799116
 20
277.8181276890232
 30
0.0
 11
207.6408907991159
 21
281.859727689023
 31
0.0
  0
LINE
  5
440
330
1A
100
AcDbEntity
  8
SEIHIN
  6
CONTINUOUS
 62
     3
 48
16.0
100
AcDbLine
 10
220.640190799116
 20
274.3545276890231
 30
0.0
 11
220.640190799116
 21
282.4370276890231
 31
0.0
  0
LINE
  5
441
330
1A
100
AcDbEntity
  8
SEIHIN
  6
CONTINUOUS
 62
     3
 48
16.0
100
AcDbLine
 10
220.640190799116
 20
274.3545276890231
 30
0.0
 11
220.640190799116
 21
282.4370276890231
 31
0.0
  0
LINE
  5
442
330
1A
100
AcDbEntity
  8
SEIHIN
  6
CONTINUOUS
 62
     3
 48
16.0
100
AcDbLine
 10
214.640890799116
 20
289.3653276890231
 30
0.0
 11
207.6405907991159
 21
285.3236276890232
 31
0.0
  0
LINE
  5
443
330
1A
100
AcDbEntity
  8
SEIHIN
  6
CONTINUOUS
 62
     3
 48
16.0
100
AcDbLine
 10
233.639890799116
 20
281.8599276890231
 30
0.0
 11
233.639890799116
 21
289.9423276890231
 31
0.0
  0
LINE
  5
444
330
1A
100
AcDbEntity
  8
SEIHIN
  6
CONTINUOUS
 62
     3
 48
16.0
100
AcDbLine
 10
233.639890799116
 20
281.8599276890231
 30
0.0
 11
233.639890799116
 21
289.9423276890231
 31
0.0
  0
LINE
  5
445
330
1A
100
AcDbEntity
  8
SEIHIN
  6
CONTINUOUS
 62
     3
 48
16.0
100
AcDbLine
 10
227.6405907991158
 20
281.8599276890231
 30
0.0
 11
227.6405907991158
 21
289.9424276890232
 31
0.0
  0
LINE
  5
446
330
1A
100
AcDbEntity
  8
SEIHIN
  6
CONTINUOUS
 62
     3
 48
16.0
100
AcDbLine
 10
227.6405907991158
 20
281.8599276890231
 30
0.0
 11
227.6405907991158
 21
289.9424276890232
 31
0.0
  0
LINE
  5
447
330
1A
100
AcDbEntity
  8
SEIHIN
  6
CONTINUOUS
 62
     3
 48
16.0
100
AcDbLine
 10
237.639890799116
 20
287.6330276890231
 30
0.0
 11
230.6401907991159
 21
291.6743276890232
 31
0.0
  0
LINE
  5
448
330
1A
100
AcDbEntity
  8
SEIHIN
  6
CONTINUOUS
 62
     3
 48
16.0
100
AcDbLine
 10
223.640590799116
 20
287.6331276890232
 30
0.0
 11
230.6401907991159
 21
291.6743276890232
 31
0.0
  0
LINE
  5
449
330
1A
100
AcDbEntity
  8
SEIHIN
  6
CONTINUOUS
 62
     3
 48
16.0
100
AcDbLine
 10
243.6403907991159
 20
245.6438276890232
 30
0.0
 11
299.580590799116
 21
245.6438276890232
 31
0.0
  0
LINE
  5
44A
330
1A
100
AcDbEntity
  8
SEIHIN
  6
CONTINUOUS
 62
     3
 48
16.0
100
AcDbLine
 10
289.6400907991159
 20
203.6438276890232
 30
0.0
 11
243.6403907991159
 21
203.6438276890232
 31
0.0
  0
LINE
  5
44B
330
1A
100
AcDbEntity
  8
SEIHIN
  6
CONTINUOUS
 62
     3
 48
16.0
100
AcDbLine
 10
243.6403907991159
 20
246.6438276890233
 30
0.0
 11
298.7940907991159
 21
246.6438276890233
 31
0.0
  0
ARC
  5
44C
330
1A
100
AcDbEntity
  8
SEIHIN
  6
CONTINUOUS
 62
     3
 48
16.0
100
AcDbCircle
 10
296.8288192063351
 20
207.1540674231353
 30
0.0
 40
7.999974943941953
100
AcDbArc
 50
82.84974382090736
 51
206.0261517263343
  0
ARC
  5
44D
330
1A
100
AcDbEntity
  8
SEIHIN
  6
CONTINUOUS
 62
     3
 48
16.0
100
AcDbCircle
 10
298.0735750950625
 20
217.076286715162
 30
0.0
 40
2.000017701434594
100
AcDbArc
 50
262.8486347029718
 51
347.1483455152575
  0
ARC
  5
44E
330
1A
100
AcDbEntity
  8
SEIHIN
  6
CONTINUOUS
 62
     3
 48
16.0
100
AcDbCircle
 10
299.5805751294888
 20
250.6438174250021
 30
0.0
 40
4.999989736003379
100
AcDbArc
 50
270.0001795610682
 51
336.4519022511405
  0
ARC
  5
44F
330
1A
100
AcDbEntity
  8
SEIHIN
  6
CONTINUOUS
 62
     3
 48
16.0
100
AcDbCircle
 10
298.7940536258943
 20
251.6438033379046
 30
0.0
 40
4.99997564901954
100
AcDbArc
 50
270.0004259758165
 51
336.4557579832824
  0
LINE
  5
450
330
1A
100
AcDbEntity
  8
SEIHIN
  6
CONTINUOUS
 62
     3
 48
16.0
100
AcDbLine
 10
276.639390799116
 20
280.1276276890231
 30
0.0
 11
269.6396907991158
 21
284.1689276890232
 31
0.0
  0
ARC
  5
451
330
1A
100
AcDbEntity
  8
SEIHIN
  6
CONTINUOUS
 62
     3
 48
16.0
100
AcDbCircle
 10
268.8381342081781
 20
282.7439829286556
 30
0.0
 40
9.000024960934922
100
AcDbArc
 50
277.3806965837719
 51
339.3042682065587
  0
ARC
  5
452
330
1A
100
AcDbEntity
  8
SEIHIN
  6
CONTINUOUS
 62
     3
 48
16.0
100
AcDbCircle
 10
282.8397623444698
 20
167.6470457600674
 30
0.0
 40
99.99995387484041
100
AcDbArc
 50
95.27227528394849
 51
113.0785601884947
  0
ARC
  5
453
330
1A
100
AcDbEntity
  8
SEIHIN
  6
CONTINUOUS
 62
     3
 48
16.0
100
AcDbCircle
 10
270.7390777667058
 20
280.4794168208492
 30
0.0
 40
9.999985856495692
100
AcDbArc
 50
276.3159761212043
 51
343.3359597365654
  0
LINE
  5
454
330
1A
100
AcDbEntity
  8
SEIHIN
  6
CONTINUOUS
 62
     3
 48
16.0
100
AcDbLine
 10
264.0675907991159
 20
272.8692276890232
 30
0.0
 11
266.6396907991159
 21
274.3542276890232
 31
0.0
  0
LINE
  5
455
330
1A
100
AcDbEntity
  8
SEIHIN
  6
CONTINUOUS
 62
     3
 48
16.0
100
AcDbLine
 10
263.6396907991159
 20
272.6222276890232
 30
0.0
 11
256.6400907991159
 21
276.6635276890231
 31
0.0
  0
ARC
  5
456
330
1A
100
AcDbEntity
  8
SEIHIN
  6
CONTINUOUS
 62
     3
 48
16.0
100
AcDbCircle
 10
282.8397300566147
 20
174.6470383766787
 30
0.0
 40
99.99994801071913
100
AcDbArc
 50
97.38029055653161
 51
113.0785415111854
  0
LINE
  5
457
330
1A
100
AcDbEntity
  8
SEIHIN
  6
CONTINUOUS
 62
     3
 48
16.0
100
AcDbLine
 10
259.6396907991159
 20
271.9185276890231
 30
0.0
 11
259.6396907991159
 21
274.9316276890232
 31
0.0
  0
LINE
  5
458
330
1A
100
AcDbEntity
  8
SEIHIN
  6
CONTINUOUS
 62
     3
 48
16.0
100
AcDbLine
 10
259.6396907991159
 20
271.9185276890231
 30
0.0
 11
259.6396907991159
 21
274.9316276890232
 31
0.0
  0
LINE
  5
459
330
1A
100
AcDbEntity
  8
SEIHIN
  6
CONTINUOUS
 62
     3
 48
16.0
100
AcDbLine
 10
253.6403907991159
 20
270.2890276890231
 30
0.0
 11
253.6403907991159
 21
274.9316276890232
 31
0.0
  0
LINE
  5
45A
330
1A
100
AcDbEntity
  8
SEIHIN
  6
CONTINUOUS
 62
     3
 48
16.0
100
AcDbLine
 10
253.6403907991159
 20
270.2890276890231
 30
0.0
 11
253.6403907991159
 21
274.9316276890232
 31
0.0
  0
LINE
  5
45B
330
1A
100
AcDbEntity
  8
SEIHIN
  6
CONTINUOUS
 62
     3
 48
16.0
100
AcDbLine
 10
249.6403907991159
 20
272.6222276890232
 30
0.0
 11
256.6400907991159
 21
276.6635276890231
 31
0.0
  0
LINE
  5
45C
330
1A
100
AcDbEntity
  8
SEIHIN
  6
CONTINUOUS
 62
     3
 48
16.0
100
AcDbLine
 10
246.6400907991158
 20
274.3545276890231
 30
0.0
 11
253.6403907991159
 21
270.3128276890231
 31
0.0
  0
ARC
  5
45D
330
1A
100
AcDbEntity
  8
SEIHIN
  6
CONTINUOUS
 62
     3
 48
16.0
100
AcDbCircle
 10
282.839740521266
 20
171.1470407306841
 30
0.0
 40
99.99998914648664
100
AcDbArc
 50
96.31563314832638
 51
113.0786002661447
  0
LINE
  5
45E
330
1A
100
AcDbEntity
  8
SEIHIN
  6
CONTINUOUS
 62
     3
 48
16.0
100
AcDbLine
 10
243.6401907991159
 20
269.1582276890231
 30
0.0
 11
246.1870907991159
 21
267.6877276890231
 31
0.0
  0
LINE
  5
45F
330
1A
100
AcDbEntity
  8
SEIHIN
  6
CONTINUOUS
 62
     3
 48
16.0
100
AcDbLine
 10
243.6400907991159
 20
269.1582276890231
 30
0.0
 11
241.0930907991159
 21
267.6877276890231
 31
0.0
  0
LINE
  5
460
330
1A
100
AcDbEntity
  8
SEIHIN
  6
CONTINUOUS
 62
     3
 48
16.0
100
AcDbLine
 10
249.6403907991159
 20
287.6330276890231
 30
0.0
 11
256.6400907991159
 21
291.6743276890232
 31
0.0
  0
LINE
  5
461
330
1A
100
AcDbEntity
  8
SEIHIN
  6
CONTINUOUS
 62
     3
 48
16.0
100
AcDbLine
 10
253.6403907991159
 20
281.8599276890231
 30
0.0
 11
253.6403907991159
 21
289.9424276890232
 31
0.0
  0
LINE
  5
462
330
1A
100
AcDbEntity
  8
SEIHIN
  6
CONTINUOUS
 62
     3
 48
16.0
100
AcDbLine
 10
253.6403907991159
 20
281.8599276890231
 30
0.0
 11
253.6403907991159
 21
289.9424276890232
 31
0.0
  0
LINE
  5
463
330
1A
100
AcDbEntity
  8
SEIHIN
  6
CONTINUOUS
 62
     3
 48
16.0
100
AcDbLine
 10
243.6401907991159
 20
284.1689276890232
 30
0.0
 11
250.6400907991158
 21
280.1276276890231
 31
0.0
  0
LINE
  5
464
330
1A
100
AcDbEntity
  8
SEIHIN
  6
CONTINUOUS
 62
     3
 48
16.0
100
AcDbLine
 10
246.6400907991158
 20
277.8182276890231
 30
0.0
 11
253.6400907991159
 21
281.8596276890232
 31
0.0
  0
LINE
  5
465
330
1A
100
AcDbEntity
  8
SEIHIN
  6
CONTINUOUS
 62
     3
 48
16.0
100
AcDbLine
 10
240.6401907991159
 20
274.3545276890231
 30
0.0
 11
240.6401907991159
 21
282.4370276890231
 31
0.0
  0
LINE
  5
466
330
1A
100
AcDbEntity
  8
SEIHIN
  6
CONTINUOUS
 62
     3
 48
16.0
100
AcDbLine
 10
246.6400907991158
 20
274.3545276890231
 30
0.0
 11
246.6400907991158
 21
282.4370276890231
 31
0.0
  0
LINE
  5
467
330
1A
100
AcDbEntity
  8
SEIHIN
  6
CONTINUOUS
 62
     3
 48
16.0
100
AcDbLine
 10
246.6400907991158
 20
289.3653276890231
 30
0.0
 11
253.6403907991159
 21
285.3236276890232
 31
0.0
  0
LINE
  5
468
330
1A
100
AcDbEntity
  8
SEIHIN
  6
CONTINUOUS
 62
     3
 48
16.0
100
AcDbLine
 10
259.6396907991159
 20
281.8599276890231
 30
0.0
 11
259.6396907991159
 21
289.9424276890232
 31
0.0
  0
LINE
  5
469
330
1A
100
AcDbEntity
  8
SEIHIN
  6
CONTINUOUS
 62
     3
 48
16.0
100
AcDbLine
 10
259.6396907991159
 20
281.8599276890231
 30
0.0
 11
259.6396907991159
 21
289.9424276890232
 31
0.0
  0
LINE
  5
46A
330
1A
100
AcDbEntity
  8
SEIHIN
  6
CONTINUOUS
 62
     3
 48
16.0
100
AcDbLine
 10
262.6400907991159
 20
280.1276276890231
 30
0.0
 11
269.6396907991158
 21
284.1689276890232
 31
0.0
  0
LINE
  5
46B
330
1A
100
AcDbEntity
  8
SEIHIN
  6
CONTINUOUS
 62
     3
 48
16.0
100
AcDbLine
 10
259.6396907991159
 20
281.8599276890231
 30
0.0
 11
266.6400907991159
 21
277.8182276890231
 31
0.0
  0
LINE
  5
46C
330
1A
100
AcDbEntity
  8
SEIHIN
  6
CONTINUOUS
 62
     3
 48
16.0
100
AcDbLine
 10
266.6400907991159
 20
274.3545276890231
 30
0.0
 11
266.6400907991159
 21
282.4370276890231
 31
0.0
  0
LINE
  5
46D
330
1A
100
AcDbEntity
  8
SEIHIN
  6
CONTINUOUS
 62
     3
 48
16.0
100
AcDbLine
 10
266.6400907991159
 20
274.3545276890231
 30
0.0
 11
266.6400907991159
 21
282.4370276890231
 31
0.0
  0
LINE
  5
46E
330
1A
100
AcDbEntity
  8
SEIHIN
  6
CONTINUOUS
 62
     3
 48
16.0
100
AcDbLine
 10
259.6396907991159
 20
285.3235276890231
 30
0.0
 11
266.6396907991159
 21
289.3650276890231
 31
0.0
  0
LINE
  5
46F
330
1A
100
AcDbEntity
  8
SEIHIN
  6
CONTINUOUS
 62
     3
 48
16.0
100
AcDbLine
 10
263.6396907991159
 20
287.6330276890231
 30
0.0
 11
256.6400907991159
 21
291.6743276890232
 31
0.0
  0
ARC
  5
470
330
1A
100
AcDbEntity
  8
SEIHIN
  6
CONTINUOUS
 62
     3
 48
16.0
100
AcDbCircle
 10
272.6400659926476
 20
278.1774060185735
 30
0.0
 40
11.00001146137309
100
AcDbArc
 50
275.2720002316194
 51
347.0079427803628
  0
LINE
  5
471
330
1A
100
AcDbEntity
  8
SEIHIN
  6
CONTINUOUS
 62
     3
 48
16.0
100
AcDbLine
 10
289.6390907991159
 20
287.6330276890231
 30
0.0
 11
282.639390799116
 21
291.6742276890231
 31
0.0
  0
ARC
  5
472
330
1A
100
AcDbEntity
  8
SEIHIN
  6
CONTINUOUS
 62
     3
 48
16.0
100
AcDbCircle
 10
279.7952044217888
 20
291.6020387708381
 30
0.0
 40
14.00001653749323
100
AcDbArc
 50
272.144532328545
 51
346.1109001779733
  0
ARC
  5
473
330
1A
100
AcDbEntity
  8
SEIHIN
  6
CONTINUOUS
 62
     3
 48
16.0
100
AcDbCircle
 10
282.0105806213401
 20
290.6438191957416
 30
0.0
 40
14.99997641898356
100
AcDbArc
 50
275.1556002084927
 51
344.5339987855605
  0
ARC
  5
474
330
1A
100
AcDbEntity
  8
SEIHIN
  6
CONTINUOUS
 62
     3
 48
16.0
100
AcDbCircle
 10
277.5456059497849
 20
292.5602395987569
 30
0.0
 40
13.00000722269306
100
AcDbArc
 50
268.7296264883057
 51
347.6110507316137
  0
LINE
  5
475
330
1A
100
AcDbEntity
  8
SEIHIN
  6
CONTINUOUS
 62
     3
 48
16.0
100
AcDbLine
 10
285.6390907991159
 20
281.8598276890231
 30
0.0
 11
285.6390907991159
 21
289.9424276890232
 31
0.0
  0
LINE
  5
476
330
1A
100
AcDbEntity
  8
SEIHIN
  6
CONTINUOUS
 62
     3
 48
16.0
100
AcDbLine
 10
285.6390907991159
 20
282.3868276890231
 30
0.0
 11
285.6390907991159
 21
289.9424276890232
 31
0.0
  0
LINE
  5
477
330
1A
100
AcDbEntity
  8
SEIHIN
  6
CONTINUOUS
 62
     3
 48
16.0
100
AcDbLine
 10
279.6396907991158
 20
281.8598276890231
 30
0.0
 11
279.6396907991158
 21
289.9424276890232
 31
0.0
  0
LINE
  5
478
330
1A
100
AcDbEntity
  8
SEIHIN
  6
CONTINUOUS
 62
     3
 48
16.0
100
AcDbLine
 10
279.6396907991158
 20
281.8598276890231
 30
0.0
 11
279.6396907991158
 21
289.9424276890232
 31
0.0
  0
LINE
  5
479
330
1A
100
AcDbEntity
  8
SEIHIN
  6
CONTINUOUS
 62
     3
 48
16.0
100
AcDbLine
 10
283.3584907991158
 20
275.7045276890231
 30
0.0
 11
277.2573907991159
 21
279.5634276890232
 31
0.0
  0
LINE
  5
47A
330
1A
100
AcDbEntity
  8
SEIHIN
  6
CONTINUOUS
 62
     3
 48
16.0
100
AcDbLine
 10
272.639390799116
 20
277.8181276890232
 30
0.0
 11
279.639390799116
 21
281.8596276890232
 31
0.0
  0
LINE
  5
47B
330
1A
100
AcDbEntity
  8
SEIHIN
  6
CONTINUOUS
 62
     3
 48
16.0
100
AcDbLine
 10
272.639390799116
 20
274.3545276890231
 30
0.0
 11
272.639390799116
 21
282.4370276890231
 31
0.0
  0
LINE
  5
47C
330
1A
100
AcDbEntity
  8
SEIHIN
  6
CONTINUOUS
 62
     3
 48
16.0
100
AcDbLine
 10
272.639390799116
 20
274.3545276890231
 30
0.0
 11
272.639390799116
 21
282.4370276890231
 31
0.0
  0
LINE
  5
47D
330
1A
100
AcDbEntity
  8
SEIHIN
  6
CONTINUOUS
 62
     3
 48
16.0
100
AcDbLine
 10
275.6396907991158
 20
287.6330276890231
 30
0.0
 11
282.639390799116
 21
291.6742276890231
 31
0.0
  0
LINE
  5
47E
330
1A
100
AcDbEntity
  8
SEIHIN
  6
CONTINUOUS
 62
     3
 48
16.0
100
AcDbLine
 10
272.639390799116
 20
289.3652276890231
 30
0.0
 11
279.6396907991158
 21
285.3235276890231
 31
0.0
  0
ARC
  5
47F
330
1A
100
AcDbEntity
  8
SEIHIN
  6
CONTINUOUS
 62
     3
 48
16.0
100
AcDbCircle
 10
24.18521239652722
 20
312.7170718367088
 30
0.0
 40
300.0000130389587
100
AcDbArc
 50
346.4115915434005
 51
356.5460586300898
  0
ARC
  5
480
330
1A
100
AcDbEntity
  8
SEIHIN
  6
CONTINUOUS
 62
     3
 48
16.0
100
AcDbCircle
 10
309.9559249175074
 20
243.6438545430697
 30
0.0
 40
6.00002685414354
100
AcDbArc
 50
269.9996741948186
 51
346.4111226993057
  0
LINE
  5
481
330
1A
100
AcDbEntity
  8
SEIHIN
  6
CONTINUOUS
 62
     3
 48
16.0
100
AcDbLine
 10
309.6400907991159
 20
232.6438276890231
 30
0.0
 11
309.6400907991159
 21
237.6438276890232
 31
0.0
  0
ARC
  5
482
330
1A
100
AcDbEntity
  8
SEIHIN
  6
CONTINUOUS
 62
     3
 48
16.0
100
AcDbCircle
 10
14.18523875232625
 20
312.7172879561374
 30
0.0
 40
299.9999997514747
100
AcDbArc
 50
348.290311945384
 51
356.5460171260404
  0
ARC
  5
483
330
1A
100
AcDbEntity
  8
SEIHIN
  6
CONTINUOUS
 62
     3
 48
16.0
100
AcDbCircle
 10
13.18525806620232
 20
312.7174398093079
 30
0.0
 40
299.9999896213989
100
AcDbArc
 50
348.4878704466063
 51
356.5459879546704
  0
DIMENSION
  5
484
330
1A
100
AcDbEntity
  8
SUNPOU
100
AcDbDimension
  2
*D2
 10
370.6403907991159
 20
469.5523791169677
 30
0.0
 11
243.6403407991159
 21
474.5523791169678
 31
0.0
 12
10.23886383866238
 22
-15.91393889648065
 32
0.0
 70
    32
  3
STANDARD
100
AcDbAlignedDimension
 13
116.6402907991158
 23
423.644127689023
 33
0.0
 14
370.6403907991159
 24
423.6438276890233
 34
0.0
100
AcDbRotatedDimension
1001
ACAD
1000
DSTYLE
1002
{
1070
   140
1040
6.0
1070
    74
1070
     0
1070
   172
1070
     1
1070
    73
1070
     0
1070
   272
1070
     2
1070
    77
1070
     3
1070
   173
1070
     1
1070
   147
1040
2.0
1070
    42
1040
6.0
1070
    44
1040
3.0
1070
    43
1040
14.0
1070
   271
1070
     0
1070
   178
1070
     4
1070
   177
1070
     4
1070
   176
1070
     4
1070
   141
1040
150.0
1070
     7
1000
_OPEN
1070
     6
1000
_OPEN
1070
    41
1040
7.0
1002
}
  0
ARC
  5
485
330
1A
100
AcDbEntity
  8
SEIHIN
  6
CONTINUOUS
 62
     3
 48
16.0
100
AcDbCircle
 10
179.6775102645256
 20
351.1439482059506
 30
0.0
 40
7.999979483096047
100
AcDbArc
 50
90.00013941108496
 51
183.0131527713753
  0
ARC
  5
486
330
1A
100
AcDbEntity
  8
SEIHIN
  6
CONTINUOUS
 62
     3
 48
16.0
100
AcDbCircle
 10
179.6249102645255
 20
352.1440482059508
 30
0.0
 40
7.999979483096047
100
AcDbArc
 50
90.00013941108496
 51
183.0131527713753
  0
LINE
  5
487
330
1A
100
AcDbEntity
  8
SEIHIN
  6
CONTINUOUS
 62
     3
 48
16.0
100
AcDbLine
 10
243.6401907991159
 20
368.6437276890233
 30
0.0
 11
145.640190799116
 21
368.6440276890232
 31
0.0
  0
LINE
  5
488
330
1A
100
AcDbEntity
  8
SEIHIN
  6
CONTINUOUS
 62
     3
 48
16.0
100
AcDbLine
 10
243.6401907991159
 20
370.6438276890232
 30
0.0
 11
143.640190799116
 21
370.6441276890231
 31
0.0
  0
LINE
  5
489
330
1A
100
AcDbEntity
  8
SEIHIN
  6
CONTINUOUS
 62
     3
 48
16.0
100
AcDbLine
 10
243.6401907991159
 20
377.6438276890232
 30
0.0
 11
143.640190799116
 21
377.6440276890231
 31
0.0
  0
LINE
  5
48A
330
1A
100
AcDbEntity
  8
SEIHIN
  6
CONTINUOUS
 62
     3
 48
16.0
100
AcDbLine
 10
243.6403907991159
 20
423.6438276890233
 30
0.0
 11
116.6402907991158
 21
423.644127689023
 31
0.0
  0
LINE
  5
48B
330
1A
100
AcDbEntity
  8
SEIHIN
  6
CONTINUOUS
 62
     3
 48
16.0
100
AcDbLine
 10
243.640290799116
 20
409.6437276890233
 30
0.0
 11
118.6402907991158
 21
409.6441276890231
 31
0.0
  0
LINE
  5
48C
330
1A
100
AcDbEntity
  8
SEIHIN
  6
CONTINUOUS
 62
     3
 48
16.0
100
AcDbLine
 10
243.640290799116
 20
411.643827689023
 30
0.0
 11
116.6402907991158
 21
411.6442276890232
 31
0.0
  0
LINE
  5
48D
330
1A
100
AcDbEntity
  8
SEIHIN
  6
CONTINUOUS
 62
     3
 48
16.0
100
AcDbLine
 10
243.6401907991159
 20
393.6437276890233
 30
0.0
 11
130.6401907991159
 21
393.6441276890231
 31
0.0
  0
ARC
  5
48E
330
1A
100
AcDbEntity
  8
SEIHIN
  6
CONTINUOUS
 62
     3
 48
16.0
100
AcDbCircle
 10
151.3401418581333
 20
397.1815879244747
 30
0.0
 40
21.00003806575398
100
AcDbArc
 50
189.6977215825865
 51
248.4899961898728
  0
ARC
  5
48F
330
1A
100
AcDbEntity
  8
SEIHIN
  6
CONTINUOUS
 62
     3
 48
16.0
100
AcDbCircle
 10
140.7219991131901
 20
358.8048159107224
 30
0.0
 40
11.00003026041814
100
AcDbArc
 50
6.993415688503485
 51
63.44177024788182
  0
ARC
  5
490
330
1A
100
AcDbEntity
  8
SEIHIN
  6
CONTINUOUS
 62
     3
 48
16.0
100
AcDbCircle
 10
162.3838157211173
 20
362.5049041514374
 30
0.0
 40
10.99996427882522
100
AcDbArc
 50
192.3935765014979
 51
260.878941996762
  0
LINE
  5
491
330
1A
100
AcDbEntity
  8
SEIHIN
  6
CONTINUOUS
 62
     3
 48
16.0
100
AcDbLine
 10
160.640090799116
 20
351.6440276890232
 30
0.0
 11
171.6400907991159
 21
351.6440276890232
 31
0.0
  0
LINE
  5
492
330
1A
100
AcDbEntity
  8
SEIHIN
  6
CONTINUOUS
 62
     3
 48
16.0
100
AcDbLine
 10
143.6402907991158
 20
377.6440276890231
 30
0.0
 11
143.6402907991158
 21
370.6440276890232
 31
0.0
  0
LINE
  5
493
330
1A
100
AcDbEntity
  8
SEIHIN
  6
CONTINUOUS
 62
     3
 48
16.0
100
AcDbLine
 10
145.6402907991159
 20
370.6440276890232
 30
0.0
 11
145.640190799116
 21
368.6440276890232
 31
0.0
  0
LINE
  5
494
330
1A
100
AcDbEntity
  8
SEIHIN
  6
CONTINUOUS
 62
     3
 48
16.0
100
AcDbLine
 10
116.6402907991158
 20
423.644127689023
 30
0.0
 11
116.6402907991158
 21
411.6442276890232
 31
0.0
  0
ARC
  5
495
330
1A
100
AcDbEntity
  8
SEIHIN
  6
CONTINUOUS
 62
     3
 48
16.0
100
AcDbCircle
 10
109.8672787991026
 20
390.5645436890132
 30
0.0
 40
20.99996015472931
100
AcDbArc
 50
8.432948625654946
 51
65.30684666603306
  0
LINE
  5
496
330
1A
100
AcDbEntity
  8
SEIHIN
  6
CONTINUOUS
 62
     3
 48
16.0
100
AcDbLine
 10
118.6402907991158
 20
411.644127689023
 30
0.0
 11
118.6402907991158
 21
409.6440276890232
 31
0.0
  0
LINE
  5
497
330
1A
100
AcDbEntity
  8
SEIHIN
  6
CONTINUOUS
 62
     3
 48
16.0
100
AcDbLine
 10
243.6403907991159
 20
393.6438276890232
 30
0.0
 11
356.640390799116
 21
393.6438276890232
 31
0.0
  0
LINE
  5
498
330
1A
100
AcDbEntity
  8
SEIHIN
  6
CONTINUOUS
 62
     3
 48
16.0
100
AcDbLine
 10
243.6403907991159
 20
377.6438276890232
 30
0.0
 11
343.6403907991159
 21
377.6438276890232
 31
0.0
  0
LINE
  5
499
330
1A
100
AcDbEntity
  8
SEIHIN
  6
CONTINUOUS
 62
     3
 48
16.0
100
AcDbLine
 10
243.6403907991159
 20
370.6438276890232
 30
0.0
 11
343.6403907991159
 21
370.6438276890232
 31
0.0
  0
LINE
  5
49A
330
1A
100
AcDbEntity
  8
SEIHIN
  6
CONTINUOUS
 62
     3
 48
16.0
100
AcDbLine
 10
243.6403907991159
 20
368.6438276890232
 30
0.0
 11
341.640390799116
 21
368.6438276890232
 31
0.0
  0
LINE
  5
49B
330
1A
100
AcDbEntity
  8
SEIHIN
  6
CONTINUOUS
 62
     3
 48
16.0
100
AcDbLine
 10
243.6403907991159
 20
360.1438276890232
 30
0.0
 11
307.6555907991158
 21
360.1438276890232
 31
0.0
  0
LINE
  5
49C
330
1A
100
AcDbEntity
  8
SEIHIN
  6
CONTINUOUS
 62
     3
 48
16.0
100
AcDbLine
 10
243.6403907991159
 20
359.1438276890233
 30
0.0
 11
307.6029907991158
 21
359.1438276890233
 31
0.0
  0
LINE
  5
49D
330
1A
100
AcDbEntity
  8
SEIHIN
  6
CONTINUOUS
 62
     3
 48
16.0
100
AcDbLine
 10
243.6403907991159
 20
423.6438276890233
 30
0.0
 11
370.6403907991159
 21
423.6438276890233
 31
0.0
  0
LINE
  5
49E
330
1A
100
AcDbEntity
  8
SEIHIN
  6
CONTINUOUS
 62
     3
 48
16.0
100
AcDbLine
 10
243.6403907991159
 20
409.643827689023
 30
0.0
 11
368.6403907991159
 21
409.643827689023
 31
0.0
  0
LINE
  5
49F
330
1A
100
AcDbEntity
  8
SEIHIN
  6
CONTINUOUS
 62
     3
 48
16.0
100
AcDbLine
 10
243.6403907991159
 20
411.643827689023
 30
0.0
 11
370.6403907991159
 21
411.643827689023
 31
0.0
  0
ARC
  5
4A0
330
1A
100
AcDbEntity
  8
SEIHIN
  6
CONTINUOUS
 62
     3
 48
16.0
100
AcDbCircle
 10
204.4408475137566
 20
434.1406901067438
 30
0.0
 40
99.99996404672353
100
AcDbArc
 50
276.3156310294574
 51
293.0786023850135
  0
ARC
  5
4A1
330
1A
100
AcDbEntity
  8
SEIHIN
  6
CONTINUOUS
 62
     3
 48
16.0
100
AcDbCircle
 10
204.4409715743045
 20
430.6407224551811
 30
0.0
 40
100.0000371722448
100
AcDbArc
 50
277.380214591364
 51
293.0785072674857
  0
LINE
  5
4A2
330
1A
100
AcDbEntity
  8
SEIHIN
  6
CONTINUOUS
 62
     3
 48
16.0
100
AcDbLine
 10
240.6402907991159
 20
319.3868276890232
 30
0.0
 11
233.6402907991159
 21
315.3452276890232
 31
0.0
  0
LINE
  5
4A3
330
1A
100
AcDbEntity
  8
SEIHIN
  6
CONTINUOUS
 62
     3
 48
16.0
100
AcDbLine
 10
240.6401907991159
 20
304.376027689023
 30
0.0
 11
233.639890799116
 21
300.3344276890231
 31
0.0
  0
LINE
  5
4A4
330
1A
100
AcDbEntity
  8
SEIHIN
  6
CONTINUOUS
 62
     3
 48
16.0
100
AcDbLine
 10
240.6402907991159
 20
307.8397276890232
 30
0.0
 11
233.6402907991159
 21
311.881127689023
 31
0.0
  0
LINE
  5
4A5
330
1A
100
AcDbEntity
  8
SEIHIN
  6
CONTINUOUS
 62
     3
 48
16.0
100
AcDbLine
 10
243.6401907991159
 20
314.1906276890232
 30
0.0
 11
236.6402907991159
 21
310.149127689023
 31
0.0
  0
LINE
  5
4A6
330
1A
100
AcDbEntity
  8
SEIHIN
  6
CONTINUOUS
 62
     3
 48
16.0
100
AcDbLine
 10
240.6403907991158
 20
334.397527689023
 30
0.0
 11
233.640390799116
 21
330.356127689023
 31
0.0
  0
LINE
  5
4A7
330
1A
100
AcDbEntity
  8
SEIHIN
  6
CONTINUOUS
 62
     3
 48
16.0
100
AcDbLine
 10
240.6403907991158
 20
322.8505276890232
 30
0.0
 11
233.640390799116
 21
326.8919276890231
 31
0.0
  0
LINE
  5
4A8
330
1A
100
AcDbEntity
  8
SEIHIN
  6
CONTINUOUS
 62
     3
 48
16.0
100
AcDbLine
 10
243.6401907991159
 20
329.2013276890231
 30
0.0
 11
236.6402907991159
 21
325.1599276890232
 31
0.0
  0
ARC
  5
4A9
330
1A
100
AcDbEntity
  8
SEIHIN
  6
CONTINUOUS
 62
     3
 48
16.0
100
AcDbCircle
 10
204.4412134166552
 20
437.6407586598146
 30
0.0
 40
99.9999756793732
100
AcDbArc
 50
275.2721048720693
 51
293.0783716602037
  0
LINE
  5
4AA
330
1A
100
AcDbEntity
  8
SEIHIN
  6
CONTINUOUS
 62
     3
 48
16.0
100
AcDbLine
 10
243.6401907991159
 20
359.1438276890233
 30
0.0
 11
179.6775907991159
 21
359.1439276890231
 31
0.0
  0
LINE
  5
4AB
330
1A
100
AcDbEntity
  8
SEIHIN
  6
CONTINUOUS
 62
     3
 48
16.0
100
AcDbLine
 10
243.6401907991159
 20
360.1438276890232
 30
0.0
 11
179.6249907991159
 21
360.1439276890231
 31
0.0
  0
LINE
  5
4AC
330
1A
100
AcDbEntity
  8
SEIHIN
  6
CONTINUOUS
 62
     3
 48
16.0
100
AcDbLine
 10
203.9219907991159
 20
329.583227689023
 30
0.0
 11
210.0229907991159
 21
325.7243276890231
 31
0.0
  0
ARC
  5
4AD
330
1A
100
AcDbEntity
  8
SEIHIN
  6
CONTINUOUS
 62
     3
 48
16.0
100
AcDbCircle
 10
214.6403588889646
 20
327.1101998126216
 30
0.0
 40
11.00006477574399
100
AcDbArc
 50
95.27220101421383
 51
167.0077419977696
  0
ARC
  5
4AE
330
1A
100
AcDbEntity
  8
SEIHIN
  6
CONTINUOUS
 62
     3
 48
16.0
100
AcDbCircle
 10
216.5412961801779
 20
324.80823217643
 30
0.0
 40
9.999980356231727
100
AcDbArc
 50
96.3153590450417
 51
163.3359121415146
  0
LINE
  5
4AF
330
1A
100
AcDbEntity
  8
SEIHIN
  6
CONTINUOUS
 62
     3
 48
16.0
100
AcDbLine
 10
211.6405907991159
 20
302.643927689023
 30
0.0
 11
204.6409907991159
 21
306.685127689023
 31
0.0
  0
LINE
  5
4B0
330
1A
100
AcDbEntity
  8
SEIHIN
  6
CONTINUOUS
 62
     3
 48
16.0
100
AcDbLine
 10
211.6405907991159
 20
317.6546276890231
 30
0.0
 11
204.6409907991159
 21
321.6959276890231
 31
0.0
  0
ARC
  5
4B1
330
1A
100
AcDbEntity
  8
SEIHIN
  6
CONTINUOUS
 62
     3
 48
16.0
100
AcDbCircle
 10
209.7347374559793
 20
312.7275643649932
 30
0.0
 40
12.99995949573222
100
AcDbArc
 50
88.72945345343742
 51
167.611223766482
  0
ARC
  5
4B2
330
1A
100
AcDbEntity
  8
SEIHIN
  6
CONTINUOUS
 62
     3
 48
16.0
100
AcDbCircle
 10
207.4851950659668
 20
313.6857311600844
 30
0.0
 40
14.00000640678457
100
AcDbArc
 50
92.14501668854881
 51
166.1113728591782
  0
LINE
  5
4B3
330
1A
100
AcDbEntity
  8
SEIHIN
  6
CONTINUOUS
 62
     3
 48
16.0
100
AcDbLine
 10
201.6412907991159
 20
311.8815276890231
 30
0.0
 11
201.6412907991159
 21
319.964027689023
 31
0.0
  0
LINE
  5
4B4
330
1A
100
AcDbEntity
  8
SEIHIN
  6
CONTINUOUS
 62
     3
 48
16.0
100
AcDbLine
 10
201.6412907991159
 20
311.8815276890231
 30
0.0
 11
201.6412907991159
 21
319.964027689023
 31
0.0
  0
LINE
  5
4B5
330
1A
100
AcDbEntity
  8
SEIHIN
  6
CONTINUOUS
 62
     3
 48
16.0
100
AcDbLine
 10
197.7243907991159
 20
317.7026276890231
 30
0.0
 11
204.6409907991159
 21
321.6959276890231
 31
0.0
  0
ARC
  5
4B6
330
1A
100
AcDbEntity
  8
SEIHIN
  6
CONTINUOUS
 62
     3
 48
16.0
100
AcDbCircle
 10
205.2698009768917
 20
314.6439361823046
 30
0.0
 40
14.99997641898354
100
AcDbArc
 50
95.15560020849319
 51
164.5339987855609
  0
ARC
  5
4B7
330
1A
100
AcDbEntity
  8
SEIHIN
  6
CONTINUOUS
 62
     3
 48
16.0
100
AcDbCircle
 10
248.6401634045204
 20
302.6437259484022
 30
0.0
 40
59.9999726057437
100
AcDbArc
 50
164.5338820030961
 51
179.9998073518098
  0
ARC
  5
4B8
330
1A
100
AcDbEntity
  8
SEIHIN
  6
CONTINUOUS
 62
     3
 48
16.0
100
AcDbCircle
 10
252.1401765594463
 20
302.6438107776645
 30
0.0
 40
59.9999857604443
100
AcDbArc
 50
166.1111771650197
 51
179.9998883578497
  0
ARC
  5
4B9
330
1A
100
AcDbEntity
  8
SEIHIN
  6
CONTINUOUS
 62
     3
 48
16.0
100
AcDbCircle
 10
255.6401681867608
 20
302.6436193514677
 30
0.0
 40
59.9999773884371
100
AcDbArc
 50
167.6109567337968
 51
179.9997055592125
  0
LINE
  5
4BA
330
1A
100
AcDbEntity
  8
SEIHIN
  6
CONTINUOUS
 62
     3
 48
16.0
100
AcDbLine
 10
197.6411907991159
 20
302.6438276890231
 30
0.0
 11
204.6409907991159
 21
306.685127689023
 31
0.0
  0
LINE
  5
4BB
330
1A
100
AcDbEntity
  8
SEIHIN
  6
CONTINUOUS
 62
     3
 48
16.0
100
AcDbLine
 10
201.6412907991159
 20
300.3344276890231
 30
0.0
 11
195.651190799116
 21
303.7927276890231
 31
0.0
  0
LINE
  5
4BC
330
1A
100
AcDbEntity
  8
SEIHIN
  6
CONTINUOUS
 62
     3
 48
16.0
100
AcDbLine
 10
201.6412907991159
 20
296.8707276890231
 30
0.0
 11
201.6412907991159
 21
304.953227689023
 31
0.0
  0
LINE
  5
4BD
330
1A
100
AcDbEntity
  8
SEIHIN
  6
CONTINUOUS
 62
     3
 48
16.0
100
AcDbLine
 10
201.6412907991159
 20
296.8707276890231
 30
0.0
 11
201.6412907991159
 21
304.953227689023
 31
0.0
  0
LINE
  5
4BE
330
1A
100
AcDbEntity
  8
SEIHIN
  6
CONTINUOUS
 62
     3
 48
16.0
100
AcDbLine
 10
198.6409907991159
 20
310.1492276890231
 30
0.0
 11
196.2977907991159
 21
311.502127689023
 31
0.0
  0
LINE
  5
4BF
330
1A
100
AcDbEntity
  8
SEIHIN
  6
CONTINUOUS
 62
     3
 48
16.0
100
AcDbLine
 10
201.6412907991159
 20
315.3452276890232
 30
0.0
 11
197.6924907991159
 21
317.6250276890231
 31
0.0
  0
LINE
  5
4C0
330
1A
100
AcDbEntity
  8
SEIHIN
  6
CONTINUOUS
 62
     3
 48
16.0
100
AcDbLine
 10
201.6412907991159
 20
311.8815276890231
 30
0.0
 11
195.9353907991159
 21
308.5871276890232
 31
0.0
  0
LINE
  5
4C1
330
1A
100
AcDbEntity
  8
SEIHIN
  6
CONTINUOUS
 62
     3
 48
16.0
100
AcDbLine
 10
220.6402907991159
 20
319.3868276890232
 30
0.0
 11
220.6403907991159
 21
327.4693276890232
 31
0.0
  0
LINE
  5
4C2
330
1A
100
AcDbEntity
  8
SEIHIN
  6
CONTINUOUS
 62
     3
 48
16.0
100
AcDbLine
 10
220.6402907991159
 20
319.3868276890232
 30
0.0
 11
220.6403907991159
 21
327.4693276890232
 31
0.0
  0
LINE
  5
4C3
330
1A
100
AcDbEntity
  8
SEIHIN
  6
CONTINUOUS
 62
     3
 48
16.0
100
AcDbLine
 10
214.6409907991159
 20
319.3868276890232
 30
0.0
 11
214.6409907991159
 21
327.4693276890232
 31
0.0
  0
LINE
  5
4C4
330
1A
100
AcDbEntity
  8
SEIHIN
  6
CONTINUOUS
 62
     3
 48
16.0
100
AcDbLine
 10
214.6409907991159
 20
319.3868276890232
 30
0.0
 11
214.6409907991159
 21
327.4693276890232
 31
0.0
  0
LINE
  5
4C5
330
1A
100
AcDbEntity
  8
SEIHIN
  6
CONTINUOUS
 62
     3
 48
16.0
100
AcDbLine
 10
223.640590799116
 20
317.6546276890231
 30
0.0
 11
230.6402907991159
 21
321.6959276890231
 31
0.0
  0
LINE
  5
4C6
330
1A
100
AcDbEntity
  8
SEIHIN
  6
CONTINUOUS
 62
     3
 48
16.0
100
AcDbLine
 10
207.6405907991159
 20
311.8815276890231
 30
0.0
 11
207.6405907991159
 21
319.964027689023
 31
0.0
  0
LINE
  5
4C7
330
1A
100
AcDbEntity
  8
SEIHIN
  6
CONTINUOUS
 62
     3
 48
16.0
100
AcDbLine
 10
207.6405907991159
 20
311.8815276890231
 30
0.0
 11
207.6405907991159
 21
319.964027689023
 31
0.0
  0
LINE
  5
4C8
330
1A
100
AcDbEntity
  8
SEIHIN
  6
CONTINUOUS
 62
     3
 48
16.0
100
AcDbLine
 10
233.6399907991158
 20
311.8814276890231
 30
0.0
 11
233.6399907991158
 21
319.9639276890231
 31
0.0
  0
LINE
  5
4C9
330
1A
100
AcDbEntity
  8
SEIHIN
  6
CONTINUOUS
 62
     3
 48
16.0
100
AcDbLine
 10
233.6399907991158
 20
311.8814276890231
 30
0.0
 11
233.6399907991158
 21
319.9639276890231
 31
0.0
  0
LINE
  5
4CA
330
1A
100
AcDbEntity
  8
SEIHIN
  6
CONTINUOUS
 62
     3
 48
16.0
100
AcDbLine
 10
237.6399907991158
 20
317.6545276890231
 30
0.0
 11
230.6402907991159
 21
321.6959276890231
 31
0.0
  0
LINE
  5
4CB
330
1A
100
AcDbEntity
  8
SEIHIN
  6
CONTINUOUS
 62
     3
 48
16.0
100
AcDbLine
 10
227.6405907991158
 20
311.8815276890231
 30
0.0
 11
227.6405907991158
 21
319.964027689023
 31
0.0
  0
LINE
  5
4CC
330
1A
100
AcDbEntity
  8
SEIHIN
  6
CONTINUOUS
 62
     3
 48
16.0
100
AcDbLine
 10
227.6405907991158
 20
311.8815276890231
 30
0.0
 11
227.6405907991158
 21
319.964027689023
 31
0.0
  0
LINE
  5
4CD
330
1A
100
AcDbEntity
  8
SEIHIN
  6
CONTINUOUS
 62
     3
 48
16.0
100
AcDbLine
 10
227.6405907991158
 20
311.8815276890231
 30
0.0
 11
220.6402907991159
 21
307.8398276890232
 31
0.0
  0
LINE
  5
4CE
330
1A
100
AcDbEntity
  8
SEIHIN
  6
CONTINUOUS
 62
     3
 48
16.0
100
AcDbLine
 10
227.6405907991158
 20
300.3344276890231
 30
0.0
 11
220.6405907991158
 21
304.375827689023
 31
0.0
  0
LINE
  5
4CF
330
1A
100
AcDbEntity
  8
SEIHIN
  6
CONTINUOUS
 62
     3
 48
16.0
100
AcDbLine
 10
224.6402907991159
 20
310.1492276890231
 30
0.0
 11
217.6405907991159
 21
314.190527689023
 31
0.0
  0
LINE
  5
4D0
330
1A
100
AcDbEntity
  8
SEIHIN
  6
CONTINUOUS
 62
     3
 48
16.0
100
AcDbLine
 10
227.6405907991158
 20
315.3452276890232
 30
0.0
 11
220.6405907991158
 21
319.386627689023
 31
0.0
  0
LINE
  5
4D1
330
1A
100
AcDbEntity
  8
SEIHIN
  6
CONTINUOUS
 62
     3
 48
16.0
100
AcDbLine
 10
220.640190799116
 20
304.3761276890232
 30
0.0
 11
220.6402907991159
 21
312.458627689023
 31
0.0
  0
LINE
  5
4D2
330
1A
100
AcDbEntity
  8
SEIHIN
  6
CONTINUOUS
 62
     3
 48
16.0
100
AcDbLine
 10
220.640190799116
 20
304.3761276890232
 30
0.0
 11
220.6402907991159
 21
312.458627689023
 31
0.0
  0
LINE
  5
4D3
330
1A
100
AcDbEntity
  8
SEIHIN
  6
CONTINUOUS
 62
     3
 48
16.0
100
AcDbLine
 10
214.6409907991159
 20
307.8397276890232
 30
0.0
 11
207.6409907991159
 21
311.8813276890232
 31
0.0
  0
LINE
  5
4D4
330
1A
100
AcDbEntity
  8
SEIHIN
  6
CONTINUOUS
 62
     3
 48
16.0
100
AcDbLine
 10
214.640890799116
 20
304.3761276890232
 30
0.0
 11
214.6409907991159
 21
312.458627689023
 31
0.0
  0
LINE
  5
4D5
330
1A
100
AcDbEntity
  8
SEIHIN
  6
CONTINUOUS
 62
     3
 48
16.0
100
AcDbLine
 10
214.640890799116
 20
304.3761276890232
 30
0.0
 11
214.6409907991159
 21
312.458627689023
 31
0.0
  0
LINE
  5
4D6
330
1A
100
AcDbEntity
  8
SEIHIN
  6
CONTINUOUS
 62
     3
 48
16.0
100
AcDbLine
 10
207.6405907991159
 20
296.8707276890231
 30
0.0
 11
207.6405907991159
 21
304.953227689023
 31
0.0
  0
LINE
  5
4D7
330
1A
100
AcDbEntity
  8
SEIHIN
  6
CONTINUOUS
 62
     3
 48
16.0
100
AcDbLine
 10
207.6405907991159
 20
296.8707276890231
 30
0.0
 11
207.6405907991159
 21
304.953227689023
 31
0.0
  0
LINE
  5
4D8
330
1A
100
AcDbEntity
  8
SEIHIN
  6
CONTINUOUS
 62
     3
 48
16.0
100
AcDbLine
 10
214.640890799116
 20
304.3761276890232
 30
0.0
 11
207.6405907991159
 21
300.3344276890231
 31
0.0
  0
LINE
  5
4D9
330
1A
100
AcDbEntity
  8
SEIHIN
  6
CONTINUOUS
 62
     3
 48
16.0
100
AcDbLine
 10
210.6409907991159
 20
310.149327689023
 30
0.0
 11
217.6405907991159
 21
314.190527689023
 31
0.0
  0
LINE
  5
4DA
330
1A
100
AcDbEntity
  8
SEIHIN
  6
CONTINUOUS
 62
     3
 48
16.0
100
AcDbLine
 10
214.6409907991159
 20
319.3868276890232
 30
0.0
 11
207.6405907991159
 21
315.3452276890232
 31
0.0
  0
LINE
  5
4DB
330
1A
100
AcDbEntity
  8
SEIHIN
  6
CONTINUOUS
 62
     3
 48
16.0
100
AcDbLine
 10
237.639890799116
 20
302.6437276890232
 30
0.0
 11
230.6402907991159
 21
306.6850276890231
 31
0.0
  0
LINE
  5
4DC
330
1A
100
AcDbEntity
  8
SEIHIN
  6
CONTINUOUS
 62
     3
 48
16.0
100
AcDbLine
 10
227.6405907991158
 20
296.8707276890231
 30
0.0
 11
227.6405907991158
 21
304.953227689023
 31
0.0
  0
LINE
  5
4DD
330
1A
100
AcDbEntity
  8
SEIHIN
  6
CONTINUOUS
 62
     3
 48
16.0
100
AcDbLine
 10
227.6405907991158
 20
296.8707276890231
 30
0.0
 11
227.6405907991158
 21
304.953227689023
 31
0.0
  0
LINE
  5
4DE
330
1A
100
AcDbEntity
  8
SEIHIN
  6
CONTINUOUS
 62
     3
 48
16.0
100
AcDbLine
 10
223.640590799116
 20
302.6438276890231
 30
0.0
 11
230.6402907991159
 21
306.6850276890231
 31
0.0
  0
LINE
  5
4DF
330
1A
100
AcDbEntity
  8
SEIHIN
  6
CONTINUOUS
 62
     3
 48
16.0
100
AcDbLine
 10
233.639890799116
 20
296.8706276890232
 30
0.0
 11
233.639890799116
 21
304.953227689023
 31
0.0
  0
LINE
  5
4E0
330
1A
100
AcDbEntity
  8
SEIHIN
  6
CONTINUOUS
 62
     3
 48
16.0
100
AcDbLine
 10
233.639890799116
 20
296.8706276890232
 30
0.0
 11
233.639890799116
 21
304.953227689023
 31
0.0
  0
LINE
  5
4E1
330
1A
100
AcDbEntity
  8
SEIHIN
  6
CONTINUOUS
 62
     3
 48
16.0
100
AcDbLine
 10
227.6406907991159
 20
326.8922276890232
 30
0.0
 11
220.6403907991159
 21
322.8506276890231
 31
0.0
  0
LINE
  5
4E2
330
1A
100
AcDbEntity
  8
SEIHIN
  6
CONTINUOUS
 62
     3
 48
16.0
100
AcDbLine
 10
224.6403907991159
 20
325.1600276890231
 30
0.0
 11
217.6406907991159
 21
329.201227689023
 31
0.0
  0
ARC
  5
4E3
330
1A
100
AcDbEntity
  8
SEIHIN
  6
CONTINUOUS
 62
     3
 48
16.0
100
AcDbCircle
 10
218.4422760824773
 20
322.5436160489118
 30
0.0
 40
9.000071734167756
100
AcDbArc
 50
97.38020026592439
 51
159.3039968754816
  0
LINE
  5
4E4
330
1A
100
AcDbEntity
  8
SEIHIN
  6
CONTINUOUS
 62
     3
 48
16.0
100
AcDbLine
 10
210.6409907991159
 20
325.1600276890231
 30
0.0
 11
217.6406907991159
 21
329.201227689023
 31
0.0
  0
LINE
  5
4E5
330
1A
100
AcDbEntity
  8
SEIHIN
  6
CONTINUOUS
 62
     3
 48
16.0
100
AcDbLine
 10
214.6409907991159
 20
322.8505276890232
 30
0.0
 11
209.6583907991159
 21
325.7273276890232
 31
0.0
  0
LINE
  5
4E6
330
1A
100
AcDbEntity
  8
SEIHIN
  6
CONTINUOUS
 62
     3
 48
16.0
100
AcDbLine
 10
227.6406907991159
 20
330.3559276890232
 30
0.0
 11
223.8527907991159
 21
332.542927689023
 31
0.0
  0
LINE
  5
4E7
330
1A
100
AcDbEntity
  8
SEIHIN
  6
CONTINUOUS
 62
     3
 48
16.0
100
AcDbLine
 10
233.6399907991158
 20
326.892127689023
 30
0.0
 11
233.6399907991158
 21
334.974727689023
 31
0.0
  0
LINE
  5
4E8
330
1A
100
AcDbEntity
  8
SEIHIN
  6
CONTINUOUS
 62
     3
 48
16.0
100
AcDbLine
 10
233.6399907991158
 20
326.892127689023
 30
0.0
 11
233.6399907991158
 21
334.974727689023
 31
0.0
  0
LINE
  5
4E9
330
1A
100
AcDbEntity
  8
SEIHIN
  6
CONTINUOUS
 62
     3
 48
16.0
100
AcDbLine
 10
227.6406907991159
 20
326.8922276890232
 30
0.0
 11
227.6406907991159
 21
333.369027689023
 31
0.0
  0
LINE
  5
4EA
330
1A
100
AcDbEntity
  8
SEIHIN
  6
CONTINUOUS
 62
     3
 48
16.0
100
AcDbLine
 10
227.6406907991159
 20
326.8922276890232
 30
0.0
 11
227.6406907991159
 21
333.369027689023
 31
0.0
  0
ARC
  5
4EB
330
1A
100
AcDbEntity
  8
SEIHIN
  6
CONTINUOUS
 62
     3
 48
16.0
100
AcDbCircle
 10
282.8394515536071
 20
437.6406881186566
 30
0.0
 40
100.0000218630378
100
AcDbArc
 50
246.9214631302859
 51
264.7277920588989
  0
LINE
  5
4EC
330
1A
100
AcDbEntity
  8
SEIHIN
  6
CONTINUOUS
 62
     3
 48
16.0
100
AcDbLine
 10
276.639390799116
 20
325.1599276890232
 30
0.0
 11
269.6396907991158
 21
329.201227689023
 31
0.0
  0
ARC
  5
4ED
330
1A
100
AcDbEntity
  8
SEIHIN
  6
CONTINUOUS
 62
     3
 48
16.0
100
AcDbCircle
 10
268.8381828644033
 20
322.5436339650272
 30
0.0
 40
8.999957704625604
100
AcDbArc
 50
20.69547491173885
 51
82.61956029793029
  0
LINE
  5
4EE
330
1A
100
AcDbEntity
  8
SEIHIN
  6
CONTINUOUS
 62
     3
 48
16.0
100
AcDbLine
 10
276.639390799116
 20
310.149127689023
 30
0.0
 11
269.6396907991158
 21
314.1904276890231
 31
0.0
  0
ARC
  5
4EF
330
1A
100
AcDbEntity
  8
SEIHIN
  6
CONTINUOUS
 62
     3
 48
16.0
100
AcDbCircle
 10
270.7390777667057
 20
324.8082385571971
 30
0.0
 40
9.999985856495756
100
AcDbArc
 50
16.66404026343409
 51
83.68402387879525
  0
LINE
  5
4F0
330
1A
100
AcDbEntity
  8
SEIHIN
  6
CONTINUOUS
 62
     3
 48
16.0
100
AcDbLine
 10
266.6400907991159
 20
319.3868276890232
 30
0.0
 11
266.6400907991159
 21
327.4693276890232
 31
0.0
  0
LINE
  5
4F1
330
1A
100
AcDbEntity
  8
SEIHIN
  6
CONTINUOUS
 62
     3
 48
16.0
100
AcDbLine
 10
266.6400907991159
 20
319.3868276890232
 30
0.0
 11
266.6400907991159
 21
327.4693276890232
 31
0.0
  0
LINE
  5
4F2
330
1A
100
AcDbEntity
  8
SEIHIN
  6
CONTINUOUS
 62
     3
 48
16.0
100
AcDbLine
 10
240.6402907991159
 20
319.3868276890232
 30
0.0
 11
240.6403907991158
 21
327.4693276890232
 31
0.0
  0
LINE
  5
4F3
330
1A
100
AcDbEntity
  8
SEIHIN
  6
CONTINUOUS
 62
     3
 48
16.0
100
AcDbLine
 10
240.6402907991159
 20
319.3868276890232
 30
0.0
 11
240.6403907991158
 21
327.4693276890232
 31
0.0
  0
LINE
  5
4F4
330
1A
100
AcDbEntity
  8
SEIHIN
  6
CONTINUOUS
 62
     3
 48
16.0
100
AcDbLine
 10
246.6400907991158
 20
319.3868276890232
 30
0.0
 11
246.6400907991158
 21
327.4693276890232
 31
0.0
  0
LINE
  5
4F5
330
1A
100
AcDbEntity
  8
SEIHIN
  6
CONTINUOUS
 62
     3
 48
16.0
100
AcDbLine
 10
246.6400907991158
 20
319.3868276890232
 30
0.0
 11
246.6400907991158
 21
327.4693276890232
 31
0.0
  0
LINE
  5
4F6
330
1A
100
AcDbEntity
  8
SEIHIN
  6
CONTINUOUS
 62
     3
 48
16.0
100
AcDbLine
 10
263.6396907991159
 20
317.6545276890231
 30
0.0
 11
256.6400907991159
 21
321.6958276890232
 31
0.0
  0
LINE
  5
4F7
330
1A
100
AcDbEntity
  8
SEIHIN
  6
CONTINUOUS
 62
     3
 48
16.0
100
AcDbLine
 10
259.6396907991159
 20
311.8814276890231
 30
0.0
 11
259.6396907991159
 21
319.9639276890231
 31
0.0
  0
LINE
  5
4F8
330
1A
100
AcDbEntity
  8
SEIHIN
  6
CONTINUOUS
 62
     3
 48
16.0
100
AcDbLine
 10
259.6396907991159
 20
311.8814276890231
 30
0.0
 11
259.6396907991159
 21
319.9639276890231
 31
0.0
  0
LINE
  5
4F9
330
1A
100
AcDbEntity
  8
SEIHIN
  6
CONTINUOUS
 62
     3
 48
16.0
100
AcDbLine
 10
253.6403907991159
 20
311.8814276890231
 30
0.0
 11
253.6403907991159
 21
319.9639276890231
 31
0.0
  0
LINE
  5
4FA
330
1A
100
AcDbEntity
  8
SEIHIN
  6
CONTINUOUS
 62
     3
 48
16.0
100
AcDbLine
 10
253.6403907991159
 20
311.8814276890231
 30
0.0
 11
253.6403907991159
 21
319.9639276890231
 31
0.0
  0
LINE
  5
4FB
330
1A
100
AcDbEntity
  8
SEIHIN
  6
CONTINUOUS
 62
     3
 48
16.0
100
AcDbLine
 10
249.6403907991159
 20
317.6545276890231
 30
0.0
 11
256.6400907991159
 21
321.6958276890232
 31
0.0
  0
LINE
  5
4FC
330
1A
100
AcDbEntity
  8
SEIHIN
  6
CONTINUOUS
 62
     3
 48
16.0
100
AcDbLine
 10
249.6403907991159
 20
302.6438276890231
 30
0.0
 11
256.6400907991159
 21
306.6850276890231
 31
0.0
  0
LINE
  5
4FD
330
1A
100
AcDbEntity
  8
SEIHIN
  6
CONTINUOUS
 62
     3
 48
16.0
100
AcDbLine
 10
246.6400907991158
 20
307.8397276890232
 30
0.0
 11
253.6400907991159
 21
311.8812276890231
 31
0.0
  0
LINE
  5
4FE
330
1A
100
AcDbEntity
  8
SEIHIN
  6
CONTINUOUS
 62
     3
 48
16.0
100
AcDbLine
 10
240.6401907991159
 20
304.376027689023
 30
0.0
 11
240.6402907991159
 21
312.458627689023
 31
0.0
  0
LINE
  5
4FF
330
1A
100
AcDbEntity
  8
SEIHIN
  6
CONTINUOUS
 62
     3
 48
16.0
100
AcDbLine
 10
246.6400907991158
 20
304.376027689023
 30
0.0
 11
246.6400907991158
 21
312.458627689023
 31
0.0
  0
LINE
  5
500
330
1A
100
AcDbEntity
  8
SEIHIN
  6
CONTINUOUS
 62
     3
 48
16.0
100
AcDbLine
 10
246.6400907991158
 20
304.376027689023
 30
0.0
 11
253.6403907991159
 21
300.3344276890231
 31
0.0
  0
LINE
  5
501
330
1A
100
AcDbEntity
  8
SEIHIN
  6
CONTINUOUS
 62
     3
 48
16.0
100
AcDbLine
 10
253.6403907991159
 20
296.8706276890232
 30
0.0
 11
253.6403907991159
 21
304.953227689023
 31
0.0
  0
LINE
  5
502
330
1A
100
AcDbEntity
  8
SEIHIN
  6
CONTINUOUS
 62
     3
 48
16.0
100
AcDbLine
 10
253.6403907991159
 20
296.8706276890232
 30
0.0
 11
253.6403907991159
 21
304.953227689023
 31
0.0
  0
LINE
  5
503
330
1A
100
AcDbEntity
  8
SEIHIN
  6
CONTINUOUS
 62
     3
 48
16.0
100
AcDbLine
 10
243.6401907991159
 20
314.1906276890232
 30
0.0
 11
250.6400907991158
 21
310.149127689023
 31
0.0
  0
LINE
  5
504
330
1A
100
AcDbEntity
  8
SEIHIN
  6
CONTINUOUS
 62
     3
 48
16.0
100
AcDbLine
 10
246.6400907991158
 20
319.3868276890232
 30
0.0
 11
253.6400907991159
 21
315.3453276890231
 31
0.0
  0
LINE
  5
505
330
1A
100
AcDbEntity
  8
SEIHIN
  6
CONTINUOUS
 62
     3
 48
16.0
100
AcDbLine
 10
266.6400907991159
 20
304.376027689023
 30
0.0
 11
266.6400907991159
 21
312.4585276890231
 31
0.0
  0
LINE
  5
506
330
1A
100
AcDbEntity
  8
SEIHIN
  6
CONTINUOUS
 62
     3
 48
16.0
100
AcDbLine
 10
266.6400907991159
 20
304.376027689023
 30
0.0
 11
266.6400907991159
 21
312.4585276890231
 31
0.0
  0
LINE
  5
507
330
1A
100
AcDbEntity
  8
SEIHIN
  6
CONTINUOUS
 62
     3
 48
16.0
100
AcDbLine
 10
259.6396907991159
 20
311.8814276890231
 30
0.0
 11
266.6400907991159
 21
307.8397276890232
 31
0.0
  0
LINE
  5
508
330
1A
100
AcDbEntity
  8
SEIHIN
  6
CONTINUOUS
 62
     3
 48
16.0
100
AcDbLine
 10
259.6396907991159
 20
300.334327689023
 30
0.0
 11
266.6396907991159
 21
304.375827689023
 31
0.0
  0
LINE
  5
509
330
1A
100
AcDbEntity
  8
SEIHIN
  6
CONTINUOUS
 62
     3
 48
16.0
100
AcDbLine
 10
259.6396907991159
 20
296.8706276890232
 30
0.0
 11
259.6396907991159
 21
304.953227689023
 31
0.0
  0
LINE
  5
50A
330
1A
100
AcDbEntity
  8
SEIHIN
  6
CONTINUOUS
 62
     3
 48
16.0
100
AcDbLine
 10
259.6396907991159
 20
296.8706276890232
 30
0.0
 11
259.6396907991159
 21
304.953227689023
 31
0.0
  0
LINE
  5
50B
330
1A
100
AcDbEntity
  8
SEIHIN
  6
CONTINUOUS
 62
     3
 48
16.0
100
AcDbLine
 10
263.6396907991159
 20
302.6438276890231
 30
0.0
 11
256.6400907991159
 21
306.6850276890231
 31
0.0
  0
LINE
  5
50C
330
1A
100
AcDbEntity
  8
SEIHIN
  6
CONTINUOUS
 62
     3
 48
16.0
100
AcDbLine
 10
262.6400907991159
 20
310.149127689023
 30
0.0
 11
269.6396907991158
 21
314.1904276890231
 31
0.0
  0
LINE
  5
50D
330
1A
100
AcDbEntity
  8
SEIHIN
  6
CONTINUOUS
 62
     3
 48
16.0
100
AcDbLine
 10
259.6396907991159
 20
315.3451276890231
 30
0.0
 11
266.6396907991159
 21
319.3865276890231
 31
0.0
  0
ARC
  5
50E
330
1A
100
AcDbEntity
  8
SEIHIN
  6
CONTINUOUS
 62
     3
 48
16.0
100
AcDbCircle
 10
282.8395533949885
 20
434.1406637291369
 30
0.0
 40
100.0000393465635
100
AcDbArc
 50
246.9214039716363
 51
263.6843626138926
  0
ARC
  5
50F
330
1A
100
AcDbEntity
  8
SEIHIN
  6
CONTINUOUS
 62
     3
 48
16.0
100
AcDbCircle
 10
282.8394053790918
 20
430.640705393906
 30
0.0
 40
100.000019655669
100
AcDbArc
 50
246.9214913489467
 51
262.6197867922034
  0
LINE
  5
510
330
1A
100
AcDbEntity
  8
SEIHIN
  6
CONTINUOUS
 62
     3
 48
16.0
100
AcDbLine
 10
253.6403907991159
 20
326.8922276890232
 30
0.0
 11
253.6403907991159
 21
334.974727689023
 31
0.0
  0
LINE
  5
511
330
1A
100
AcDbEntity
  8
SEIHIN
  6
CONTINUOUS
 62
     3
 48
16.0
100
AcDbLine
 10
253.6403907991159
 20
326.8922276890232
 30
0.0
 11
253.6403907991159
 21
334.974727689023
 31
0.0
  0
LINE
  5
512
330
1A
100
AcDbEntity
  8
SEIHIN
  6
CONTINUOUS
 62
     3
 48
16.0
100
AcDbLine
 10
246.6400907991158
 20
334.3976276890231
 30
0.0
 11
253.6400907991159
 21
330.356127689023
 31
0.0
  0
LINE
  5
513
330
1A
100
AcDbEntity
  8
SEIHIN
  6
CONTINUOUS
 62
     3
 48
16.0
100
AcDbLine
 10
243.6401907991159
 20
329.2013276890231
 30
0.0
 11
250.6400907991158
 21
325.1599276890232
 31
0.0
  0
LINE
  5
514
330
1A
100
AcDbEntity
  8
SEIHIN
  6
CONTINUOUS
 62
     3
 48
16.0
100
AcDbLine
 10
246.6400907991158
 20
322.8505276890232
 30
0.0
 11
253.6400907991159
 21
326.8919276890231
 31
0.0
  0
LINE
  5
515
330
1A
100
AcDbEntity
  8
SEIHIN
  6
CONTINUOUS
 62
     3
 48
16.0
100
AcDbLine
 10
240.6403907991158
 20
334.397527689023
 30
0.0
 11
240.6403907991158
 21
337.4226276890232
 31
0.0
  0
LINE
  5
516
330
1A
100
AcDbEntity
  8
SEIHIN
  6
CONTINUOUS
 62
     3
 48
16.0
100
AcDbLine
 10
240.6403907991158
 20
334.397527689023
 30
0.0
 11
240.6403907991158
 21
337.4226276890232
 31
0.0
  0
LINE
  5
517
330
1A
100
AcDbEntity
  8
SEIHIN
  6
CONTINUOUS
 62
     3
 48
16.0
100
AcDbLine
 10
246.6400907991158
 20
334.3976276890231
 30
0.0
 11
246.6400907991158
 21
337.4226276890232
 31
0.0
  0
LINE
  5
518
330
1A
100
AcDbEntity
  8
SEIHIN
  6
CONTINUOUS
 62
     3
 48
16.0
100
AcDbLine
 10
246.6400907991158
 20
334.3976276890231
 30
0.0
 11
246.6400907991158
 21
337.4226276890232
 31
0.0
  0
LINE
  5
519
330
1A
100
AcDbEntity
  8
SEIHIN
  6
CONTINUOUS
 62
     3
 48
16.0
100
AcDbLine
 10
259.6396907991159
 20
326.8922276890232
 30
0.0
 11
259.6396907991159
 21
333.369027689023
 31
0.0
  0
LINE
  5
51A
330
1A
100
AcDbEntity
  8
SEIHIN
  6
CONTINUOUS
 62
     3
 48
16.0
100
AcDbLine
 10
259.6396907991159
 20
326.8922276890232
 30
0.0
 11
259.6396907991159
 21
333.369027689023
 31
0.0
  0
LINE
  5
51B
330
1A
100
AcDbEntity
  8
SEIHIN
  6
CONTINUOUS
 62
     3
 48
16.0
100
AcDbLine
 10
259.6396907991159
 20
330.3559276890232
 30
0.0
 11
263.4275907991158
 21
332.542827689023
 31
0.0
  0
LINE
  5
51C
330
1A
100
AcDbEntity
  8
SEIHIN
  6
CONTINUOUS
 62
     3
 48
16.0
100
AcDbLine
 10
262.6400907991159
 20
325.1599276890232
 30
0.0
 11
269.6396907991158
 21
329.201227689023
 31
0.0
  0
LINE
  5
51D
330
1A
100
AcDbEntity
  8
SEIHIN
  6
CONTINUOUS
 62
     3
 48
16.0
100
AcDbLine
 10
259.6396907991159
 20
326.8922276890232
 30
0.0
 11
266.6400907991159
 21
322.8505276890232
 31
0.0
  0
LINE
  5
51E
330
1A
100
AcDbEntity
  8
SEIHIN
  6
CONTINUOUS
 62
     3
 48
16.0
100
AcDbLine
 10
285.6390907991159
 20
311.8814276890231
 30
0.0
 11
285.6390907991159
 21
319.9639276890231
 31
0.0
  0
LINE
  5
51F
330
1A
100
AcDbEntity
  8
SEIHIN
  6
CONTINUOUS
 62
     3
 48
16.0
100
AcDbLine
 10
285.6390907991159
 20
311.8814276890231
 30
0.0
 11
285.6390907991159
 21
319.9639276890231
 31
0.0
  0
LINE
  5
520
330
1A
100
AcDbEntity
  8
SEIHIN
  6
CONTINUOUS
 62
     3
 48
16.0
100
AcDbLine
 10
289.5559907991158
 20
317.7025276890231
 30
0.0
 11
282.639390799116
 21
321.6958276890232
 31
0.0
  0
ARC
  5
521
330
1A
100
AcDbEntity
  8
SEIHIN
  6
CONTINUOUS
 62
     3
 48
16.0
100
AcDbCircle
 10
282.0105626342485
 20
314.6438511925581
 30
0.0
 40
14.99996308580382
100
AcDbArc
 50
15.46555949285322
 51
84.84432621149222
  0
ARC
  5
522
330
1A
100
AcDbEntity
  8
SEIHIN
  6
CONTINUOUS
 62
     3
 48
16.0
100
AcDbCircle
 10
279.7951889452381
 20
313.6856291971323
 30
0.0
 40
14.00000453553494
100
AcDbArc
 50
13.88863730984698
 51
87.85540244910725
  0
LINE
  5
523
330
1A
100
AcDbEntity
  8
SEIHIN
  6
CONTINUOUS
 62
     3
 48
16.0
100
AcDbLine
 10
272.639390799116
 20
319.3868276890232
 30
0.0
 11
272.639390799116
 21
327.4693276890232
 31
0.0
  0
LINE
  5
524
330
1A
100
AcDbEntity
  8
SEIHIN
  6
CONTINUOUS
 62
     3
 48
16.0
100
AcDbLine
 10
272.639390799116
 20
319.3868276890232
 30
0.0
 11
272.639390799116
 21
327.4693276890232
 31
0.0
  0
LINE
  5
525
330
1A
100
AcDbEntity
  8
SEIHIN
  6
CONTINUOUS
 62
     3
 48
16.0
100
AcDbLine
 10
279.6396907991158
 20
311.8814276890231
 30
0.0
 11
279.6396907991158
 21
319.9639276890231
 31
0.0
  0
LINE
  5
526
330
1A
100
AcDbEntity
  8
SEIHIN
  6
CONTINUOUS
 62
     3
 48
16.0
100
AcDbLine
 10
279.6396907991158
 20
311.8814276890231
 30
0.0
 11
279.6396907991158
 21
319.9639276890231
 31
0.0
  0
LINE
  5
527
330
1A
100
AcDbEntity
  8
SEIHIN
  6
CONTINUOUS
 62
     3
 48
16.0
100
AcDbLine
 10
275.6396907991158
 20
317.6545276890231
 30
0.0
 11
282.639390799116
 21
321.6958276890232
 31
0.0
  0
ARC
  5
528
330
1A
100
AcDbEntity
  8
SEIHIN
  6
CONTINUOUS
 62
     3
 48
16.0
100
AcDbCircle
 10
277.5455926746715
 20
312.7274262146631
 30
0.0
 40
12.99999649557648
100
AcDbArc
 50
12.38846132031799
 51
91.27031603742686
  0
LINE
  5
529
330
1A
100
AcDbEntity
  8
SEIHIN
  6
CONTINUOUS
 62
     3
 48
16.0
100
AcDbLine
 10
285.6390907991159
 20
315.3451276890231
 30
0.0
 11
289.5878907991158
 21
317.6249276890232
 31
0.0
  0
LINE
  5
52A
330
1A
100
AcDbEntity
  8
SEIHIN
  6
CONTINUOUS
 62
     3
 48
16.0
100
AcDbLine
 10
288.639390799116
 20
310.149127689023
 30
0.0
 11
290.9825907991158
 21
311.5020276890231
 31
0.0
  0
LINE
  5
52B
330
1A
100
AcDbEntity
  8
SEIHIN
  6
CONTINUOUS
 62
     3
 48
16.0
100
AcDbLine
 10
285.6390907991159
 20
311.8814276890231
 30
0.0
 11
291.344990799116
 21
308.5870276890231
 31
0.0
  0
LINE
  5
52C
330
1A
100
AcDbEntity
  8
SEIHIN
  6
CONTINUOUS
 62
     3
 48
16.0
100
AcDbLine
 10
289.6390907991159
 20
302.6437276890232
 30
0.0
 11
282.639390799116
 21
306.6850276890231
 31
0.0
  0
LINE
  5
52D
330
1A
100
AcDbEntity
  8
SEIHIN
  6
CONTINUOUS
 62
     3
 48
16.0
100
AcDbLine
 10
285.6390907991159
 20
300.334327689023
 30
0.0
 11
291.6290907991158
 21
303.7926276890232
 31
0.0
  0
LINE
  5
52E
330
1A
100
AcDbEntity
  8
SEIHIN
  6
CONTINUOUS
 62
     3
 48
16.0
100
AcDbLine
 10
272.639390799116
 20
307.8397276890232
 30
0.0
 11
279.639390799116
 21
311.881127689023
 31
0.0
  0
LINE
  5
52F
330
1A
100
AcDbEntity
  8
SEIHIN
  6
CONTINUOUS
 62
     3
 48
16.0
100
AcDbLine
 10
272.639390799116
 20
304.376027689023
 30
0.0
 11
272.639390799116
 21
312.4585276890231
 31
0.0
  0
LINE
  5
530
330
1A
100
AcDbEntity
  8
SEIHIN
  6
CONTINUOUS
 62
     3
 48
16.0
100
AcDbLine
 10
272.639390799116
 20
304.376027689023
 30
0.0
 11
272.639390799116
 21
312.4585276890231
 31
0.0
  0
LINE
  5
531
330
1A
100
AcDbEntity
  8
SEIHIN
  6
CONTINUOUS
 62
     3
 48
16.0
100
AcDbLine
 10
275.6396907991158
 20
302.6437276890232
 30
0.0
 11
282.639390799116
 21
306.6850276890231
 31
0.0
  0
LINE
  5
532
330
1A
100
AcDbEntity
  8
SEIHIN
  6
CONTINUOUS
 62
     3
 48
16.0
100
AcDbLine
 10
272.639390799116
 20
304.376027689023
 30
0.0
 11
279.6396907991158
 21
300.334327689023
 31
0.0
  0
LINE
  5
533
330
1A
100
AcDbEntity
  8
SEIHIN
  6
CONTINUOUS
 62
     3
 48
16.0
100
AcDbLine
 10
279.6396907991158
 20
296.8706276890232
 30
0.0
 11
279.6396907991158
 21
304.9531276890231
 31
0.0
  0
LINE
  5
534
330
1A
100
AcDbEntity
  8
SEIHIN
  6
CONTINUOUS
 62
     3
 48
16.0
100
AcDbLine
 10
279.6396907991158
 20
296.8706276890232
 30
0.0
 11
279.6396907991158
 21
304.9531276890231
 31
0.0
  0
LINE
  5
535
330
1A
100
AcDbEntity
  8
SEIHIN
  6
CONTINUOUS
 62
     3
 48
16.0
100
AcDbLine
 10
285.6390907991159
 20
296.8706276890232
 30
0.0
 11
285.6390907991159
 21
304.9531276890231
 31
0.0
  0
LINE
  5
536
330
1A
100
AcDbEntity
  8
SEIHIN
  6
CONTINUOUS
 62
     3
 48
16.0
100
AcDbLine
 10
285.6390907991159
 20
296.8706276890232
 30
0.0
 11
285.6390907991159
 21
304.9531276890231
 31
0.0
  0
LINE
  5
537
330
1A
100
AcDbEntity
  8
SEIHIN
  6
CONTINUOUS
 62
     3
 48
16.0
100
AcDbLine
 10
272.639390799116
 20
319.3868276890232
 30
0.0
 11
279.6396907991158
 21
315.3451276890231
 31
0.0
  0
ARC
  5
538
330
1A
100
AcDbEntity
  8
SEIHIN
  6
CONTINUOUS
 62
     3
 48
16.0
100
AcDbCircle
 10
238.640131526935
 20
302.6436277574201
 30
0.0
 40
59.99995927293047
100
AcDbArc
 50
0.0002864137775637
 51
15.46611972727591
  0
ARC
  5
539
330
1A
100
AcDbEntity
  8
SEIHIN
  6
CONTINUOUS
 62
     3
 48
16.0
100
AcDbCircle
 10
235.1401050387855
 20
302.6438107776643
 30
0.0
 40
59.99998576044432
100
AcDbArc
 50
0.0001116421503694
 51
13.88882283498031
  0
ARC
  5
53A
330
1A
100
AcDbEntity
  8
SEIHIN
  6
CONTINUOUS
 62
     3
 48
16.0
100
AcDbCircle
 10
231.6401348654395
 20
302.6435216773291
 30
0.0
 40
59.99995593505016
100
AcDbArc
 50
0.0003877128930752
 51
12.38904549235403
  0
ARC
  5
53B
330
1A
100
AcDbEntity
  8
SEIHIN
  6
CONTINUOUS
 62
     3
 48
16.0
100
AcDbCircle
 10
272.6401155394597
 20
327.1102060761272
 30
0.0
 40
10.99995043217639
100
AcDbArc
 50
12.99182737989798
 51
84.72822960811965
  0
LINE
  5
53C
330
1A
100
AcDbEntity
  8
SEIHIN
  6
CONTINUOUS
 62
     3
 48
16.0
100
AcDbLine
 10
283.3584907991158
 20
329.5831276890231
 30
0.0
 11
277.2573907991159
 21
325.7242276890232
 31
0.0
  0
LINE
  5
53D
330
1A
100
AcDbEntity
  8
SEIHIN
  6
CONTINUOUS
 62
     3
 48
16.0
100
AcDbLine
 10
272.639390799116
 20
322.8505276890232
 30
0.0
 11
277.6219907991159
 21
325.727227689023
 31
0.0
  0
DIMENSION
  5
53E
330
1A
100
AcDbEntity
  8
SUNPOU
100
AcDbDimension
  2
*D3
 10
273.6403641147504
 20
451.3736229766821
 30
0.0
 11
243.6403641147666
 21
456.3736229766821
 31
0.0
 12
10.23886383866238
 22
-15.91393889648065
 32
0.0
 70
    32
  1
※a<>
  3
STANDARD
100
AcDbAlignedDimension
 13
213.6403641147828
 23
423.6438985551721
 33
0.0
 14
273.6403641147504
 24
423.6438276890233
 34
0.0
100
AcDbRotatedDimension
1001
ACAD
1000
DSTYLE
1002
{
1070
   140
1040
6.0
1070
    74
1070
     0
1070
   172
1070
     1
1070
    73
1070
     0
1070
   272
1070
     2
1070
    77
1070
     3
1070
   173
1070
     1
1070
   147
1040
2.0
1070
    42
1040
6.0
1070
    44
1040
3.0
1070
    43
1040
14.0
1070
   271
1070
     0
1070
   178
1070
     4
1070
   177
1070
     4
1070
   176
1070
     4
1070
   141
1040
150.0
1070
     7
1000
_OPEN
1070
     6
1000
_OPEN
1070
    41
1040
7.0
1002
}
  0
ARC
  5
53F
330
1A
100
AcDbEntity
  8
SEIHIN
  6
CONTINUOUS
 62
     3
 48
16.0
100
AcDbCircle
 10
335.9405343487471
 20
397.1812812881357
 30
0.0
 40
20.99996053645033
100
AcDbArc
 50
291.5095164634656
 51
350.3019838446502
  0
ARC
  5
540
330
1A
100
AcDbEntity
  8
SEIHIN
  6
CONTINUOUS
 62
     3
 48
16.0
100
AcDbCircle
 10
346.5585157415016
 20
358.8045630238098
 30
0.0
 40
10.99995827724057
100
AcDbArc
 50
116.5580285067298
 51
173.0067855568846
  0
LINE
  5
541
330
1A
100
AcDbEntity
  8
SEIHIN
  6
CONTINUOUS
 62
     3
 48
16.0
100
AcDbLine
 10
326.6403907991159
 20
351.643827689023
 30
0.0
 11
315.6403907991158
 21
351.643827689023
 31
0.0
  0
ARC
  5
542
330
1A
100
AcDbEntity
  8
SEIHIN
  6
CONTINUOUS
 62
     3
 48
16.0
100
AcDbCircle
 10
307.6556187055869
 20
352.1437982750687
 30
0.0
 40
8.000029414003151
100
AcDbArc
 50
356.9872241493854
 51
90.00019986464199
  0
ARC
  5
543
330
1A
100
AcDbEntity
  8
SEIHIN
  6
CONTINUOUS
 62
     3
 48
16.0
100
AcDbCircle
 10
307.6029713337063
 20
351.1438482059507
 30
0.0
 40
7.999979483096117
100
AcDbArc
 50
356.9868472286252
 51
89.99986058891559
  0
ARC
  5
544
330
1A
100
AcDbEntity
  8
SEIHIN
  6
CONTINUOUS
 62
     3
 48
16.0
100
AcDbCircle
 10
324.8967530776267
 20
362.5047865070297
 30
0.0
 40
11.00001591965633
100
AcDbArc
 50
279.1200272611359
 51
347.605510106445
  0
LINE
  5
545
330
1A
100
AcDbEntity
  8
SEIHIN
  6
CONTINUOUS
 62
     3
 48
16.0
100
AcDbLine
 10
343.640290799116
 20
377.6437276890233
 30
0.0
 11
343.640290799116
 21
370.6437276890233
 31
0.0
  0
LINE
  5
546
330
1A
100
AcDbEntity
  8
SEIHIN
  6
CONTINUOUS
 62
     3
 48
16.0
100
AcDbLine
 10
341.640290799116
 20
370.6437276890233
 30
0.0
 11
341.640290799116
 21
368.6437276890233
 31
0.0
  0
LINE
  5
547
330
1A
100
AcDbEntity
  8
SEIHIN
  6
CONTINUOUS
 62
     3
 48
16.0
100
AcDbLine
 10
370.6403907991159
 20
423.6437276890231
 30
0.0
 11
370.6403907991159
 21
411.6437276890232
 31
0.0
  0
ARC
  5
548
330
1A
100
AcDbEntity
  8
SEIHIN
  6
CONTINUOUS
 62
     3
 48
16.0
100
AcDbCircle
 10
377.4133027991291
 20
390.5641436890131
 30
0.0
 40
20.9999601547291
100
AcDbArc
 50
114.6931533339665
 51
171.5670513743446
  0
LINE
  5
549
330
1A
100
AcDbEntity
  8
SEIHIN
  6
CONTINUOUS
 62
     3
 48
16.0
100
AcDbLine
 10
368.6403907991159
 20
411.6437276890232
 30
0.0
 11
368.6403907991159
 21
409.6437276890233
 31
0.0
  0
DIMENSION
  5
54A
330
1A
100
AcDbEntity
  8
SUNPOU
100
AcDbDimension
  2
*D4
 10
715.7339321281579
 20
292.6434633736544
 30
0.0
 11
710.7339321281578
 21
325.1433455313387
 31
0.0
 12
10.23886383866238
 22
-15.91393889648065
 32
0.0
 70
    32
  3
STANDARD
100
AcDbAlignedDimension
 13
691.0609127045593
 23
357.643227689023
 33
0.0
 14
621.0608127045595
 24
292.6434633736544
 34
0.0
 50
90.0
100
AcDbRotatedDimension
1001
ACAD
1000
DSTYLE
1002
{
1070
   140
1040
6.0
1070
    74
1070
     0
1070
   172
1070
     1
1070
    73
1070
     0
1070
   272
1070
     2
1070
    77
1070
     3
1070
   173
1070
     1
1070
   147
1040
2.0
1070
    42
1040
6.0
1070
    44
1040
3.0
1070
    43
1040
14.0
1070
   271
1070
     0
1070
   178
1070
     4
1070
   177
1070
     4
1070
   176
1070
     4
1070
   141
1040
150.0
1070
     7
1000
_OPEN
1070
     6
1000
_OPEN
1070
    41
1040
7.0
1002
}
  0
DIMENSION
  5
54B
330
1A
100
AcDbEntity
  8
SUNPOU
100
AcDbDimension
  2
*D5
 10
459.2766259714566
 20
203.6434276890232
 30
0.0
 11
454.2766259714566
 21
313.6435276890232
 31
0.0
 12
10.23886383866238
 22
-15.91393889648065
 32
0.0
 70
    32
  3
STANDARD
100
AcDbAlignedDimension
 13
485.0610127045595
 23
423.6436276890231
 33
0.0
 14
579.0606127045596
 24
203.6434276890232
 34
0.0
 50
90.0
100
AcDbRotatedDimension
1001
ACAD
1000
DSTYLE
1002
{
1070
   140
1040
6.0
1070
    74
1070
     0
1070
   172
1070
     1
1070
    73
1070
     0
1070
   272
1070
     2
1070
    77
1070
     3
1070
   173
1070
     1
1070
   147
1040
2.0
1070
    42
1040
6.0
1070
    44
1040
3.0
1070
    43
1040
14.0
1070
   271
1070
     0
1070
   178
1070
     4
1070
   177
1070
     4
1070
   176
1070
     4
1070
   141
1040
150.0
1070
     7
1000
_OPEN
1070
     6
1000
_OPEN
1070
    41
1040
7.0
1002
}
  0
ARC
  5
54C
330
1A
100
AcDbEntity
  8
SEIHIN
  6
CONTINUOUS
 62
     3
 48
16.0
100
AcDbCircle
 10
832.2169736761557
 20
337.666221825533
 30
0.0
 40
299.9999979730063
100
AcDbArc
 50
187.7204944979528
 51
195.0135605097923
  0
LINE
  5
54D
330
1A
100
AcDbEntity
  8
CENTER_L
  6
CENTER
 62
     1
 48
5.0
100
AcDbLine
 10
621.0608127045595
 20
274.1366276890231
 30
0.0
 11
621.0608127045595
 21
312.6434276890231
 31
0.0
  0
LINE
  5
54E
330
1A
100
AcDbEntity
  8
SEIHIN
  6
CONTINUOUS
 62
     3
 48
16.0
100
AcDbLine
 10
691.0609127045593
 20
357.643227689023
 30
0.0
 11
681.2069127045595
 21
216.9823276890231
 31
0.0
  0
ARC
  5
54F
330
1A
100
AcDbEntity
  8
SEIHIN
  6
CONTINUOUS
 62
     3
 48
16.0
100
AcDbCircle
 10
621.06090887406
 20
349.6434277170269
 30
0.0
 40
56.99996434345362
100
AcDbArc
 50
189.9075993387306
 51
349.2546689593292
  0
LINE
  5
550
330
1A
100
AcDbEntity
  8
SEIHIN
  6
CONTINUOUS
 62
     3
 48
16.0
100
AcDbLine
 10
529.0609127045595
 20
343.6435276890232
 30
0.0
 11
539.5868127045594
 21
289.0999276890231
 31
0.0
  0
LINE
  5
551
330
1A
100
AcDbEntity
  8
SEIHIN
  6
CONTINUOUS
 62
     3
 48
16.0
100
AcDbLine
 10
529.0609127045595
 20
349.6435276890232
 30
0.0
 11
540.0608127045593
 21
292.6435276890232
 31
0.0
  0
ARC
  5
552
330
1A
100
AcDbEntity
  8
NOKITOI
  6
PHANTOM
 62
     8
 48
5.0
100
AcDbCircle
 10
621.0608127045595
 20
349.6434621891004
 30
0.0
 40
56.99999881544602
100
AcDbArc
 50
186.7561500022946
 51
353.2434543568847
  0
ARC
  5
553
330
1A
100
AcDbEntity
  8
NOKITOI
  6
PHANTOM
 62
     8
 48
5.0
100
AcDbCircle
 10
621.0607630643806
 20
349.6434640018491
 30
0.0
 40
55.69997777445496
100
AcDbArc
 50
183.4893828011791
 51
356.5101019184219
  0
DIMENSION
  5
554
330
1A
100
AcDbEntity
  8
SUNPOU
100
AcDbDimension
  2
*D6
 10
704.2466334822684
 20
187.6432138276738
 30
0.0
 11
699.2466334822684
 21
216.0432138276739
 31
0.0
 12
10.23886383866238
 22
-15.91393889648065
 32
0.0
 70
    32
  1
※b <>
  3
STANDARD
100
AcDbAlignedDimension
 13
665.4606127045594
 23
175.6432276890232
 33
0.0
 14
671.0606127045596
 24
187.6432138276738
 34
0.0
 50
90.0
100
AcDbRotatedDimension
1001
ACAD
1000
DSTYLE
1002
{
1070
   140
1040
6.0
1070
    74
1070
     0
1070
   172
1070
     1
1070
    73
1070
     0
1070
   272
1070
     2
1070
    77
1070
     3
1070
   173
1070
     1
1070
   147
1040
2.0
1070
    42
1040
6.0
1070
    44
1040
3.0
1070
    43
1040
14.0
1070
   271
1070
     0
1070
   178
1070
     4
1070
   177
1070
     4
1070
   176
1070
     4
1070
   141
1040
150.0
1070
     7
1000
_OPEN
1070
     6
1000
_OPEN
1070
    41
1040
7.0
1002
}
  0
TEXT
  5
555
330
1A
100
AcDbEntity
  8
SUNPOU
 62
     4
100
AcDbText
 10
598.7951396030496
 20
53.02231462779666
 30
0.0
 40
8.0
  1
※b　エルボの差込み寸法を示す。　
100
AcDbText
  0
TEXT
  5
556
330
1A
100
AcDbEntity
  8
SUNPOU
 62
     4
100
AcDbText
 10
598.7951396030496
 20
65.75667214635989
 30
0.0
 40
8.0
  1
※a　のきといの縁切り間隔寸法を示す。　
100
AcDbText
  0
DIMENSION
  5
557
330
1A
100
AcDbEntity
  8
SUNPOU
100
AcDbDimension
  2
*D7
 10
579.0606127045596
 20
104.6330693154855
 30
0.0
 11
625.0606127045596
 21
109.6330693154855
 31
0.0
 12
10.23886383866238
 22
-15.91393889648065
 32
0.0
 70
    32
  1
φ<>
  3
STANDARD
100
AcDbAlignedDimension
 13
671.0606127045596
 23
178.6432276890232
 33
0.0
 14
579.0606127045596
 24
178.6434276890232
 34
0.0
100
AcDbRotatedDimension
1001
ACAD
1000
DSTYLE
1002
{
1070
   140
1040
6.0
1070
    74
1070
     0
1070
   172
1070
     1
1070
    73
1070
     0
1070
   272
1070
     2
1070
    77
1070
     3
1070
   173
1070
     1
1070
   147
1040
2.0
1070
    42
1040
6.0
1070
    44
1040
3.0
1070
    43
1040
14.0
1070
   271
1070
     0
1070
   178
1070
     4
1070
   177
1070
     4
1070
   176
1070
     4
1070
   141
1040
150.0
1070
     7
1000
_OPEN
1070
     6
1000
_OPEN
1070
    41
1040
7.0
1002
}
  0
DIMENSION
  5
558
330
1A
100
AcDbEntity
  8
SUNPOU
100
AcDbDimension
  2
*D8
 10
459.2766259714566
 20
175.6434276890231
 30
0.0
 11
454.2766259714566
 21
189.6434276890232
 31
0.0
 70
    32
  3
STANDARD
100
AcDbAlignedDimension
 13
579.0606127045596
 23
203.6434276890232
 33
0.0
 14
584.6605127045592
 24
175.6434276890231
 34
0.0
 50
90.0
100
AcDbRotatedDimension
1001
ACAD
1000
DSTYLE
1002
{
1070
   287
1070
     4
1070
   287
1070
     4
1070
    41
1040
7.0
1070
    42
1040
6.0
1070
    43
1040
14.0
1070
    44
1040
3.0
1070
    73
1070
     0
1070
    74
1070
     0
1070
    75
1070
     1
1070
    77
1070
     3
1070
   140
1040
6.0
1070
   141
1040
150.0
1070
   147
1040
2.0
1070
   172
1070
     1
1070
   173
1070
     1
1070
   176
1070
     4
1070
   177
1070
     4
1070
   178
1070
     4
1070
   271
1070
     0
1070
   272
1070
     2
1070
   279
1070
     1
1070
     6
1000
OPEN
1070
     7
1000
OPEN
1002
}
  0
ARC
  5
559
330
1A
100
AcDbEntity
  8
SEIHIN
  6
CONTINUOUS
 62
     3
 48
16.0
100
AcDbCircle
 10
539.4286585719259
 20
209.9590501046627
 30
0.0
 40
29.99997559759812
100
AcDbArc
 50
12.0572775249181
 51
49.12565251719019
  0
LINE
  5
55A
330
1A
100
AcDbEntity
  8
SEIHIN
  6
CONTINUOUS
 62
     3
 48
16.0
100
AcDbLine
 10
559.0607127045593
 20
232.6434276890231
 30
0.0
 11
683.1233127045593
 21
232.6432276890231
 31
0.0
  0
LINE
  5
55B
330
1A
100
AcDbEntity
  8
SEIHIN
  6
CONTINUOUS
 62
     3
 48
16.0
100
AcDbLine
 10
559.0607127045593
 20
237.6434276890232
 30
0.0
 11
683.4358127045596
 21
237.6432276890232
 31
0.0
  0
ARC
  5
55C
330
1A
100
AcDbEntity
  8
SEIHIN
  6
CONTINUOUS
 62
     3
 48
16.0
100
AcDbCircle
 10
837.0044430897756
 20
337.3571013765577
 30
0.0
 40
299.9999768149687
100
AcDbArc
 50
188.1855470535134
 51
198.8661005774958
  0
ARC
  5
55D
330
1A
100
AcDbEntity
  8
SEIHIN
  6
CONTINUOUS
 62
     3
 48
16.0
100
AcDbCircle
 10
556.9065244544305
 20
241.6434192871305
 30
0.0
 40
3.999991598124564
100
AcDbArc
 50
198.8655541124529
 51
269.9998316951392
  0
ARC
  5
55E
330
1A
100
AcDbEntity
  8
SEIHIN
  6
CONTINUOUS
 62
     3
 48
16.0
100
AcDbCircle
 10
561.0607448290436
 20
233.5982590676064
 30
0.0
 40
2.000032125661313
100
AcDbArc
 50
179.9980341727943
 51
230.1704558684307
  0
LINE
  5
55F
330
1A
100
AcDbEntity
  8
SEIHIN
  6
CONTINUOUS
 62
     3
 48
16.0
100
AcDbLine
 10
559.0607127045593
 20
237.6434276890232
 30
0.0
 11
559.0607127045593
 21
233.5983276890232
 31
0.0
  0
LINE
  5
560
330
1A
100
AcDbEntity
  8
SEIHIN
  6
CONTINUOUS
 62
     3
 48
16.0
100
AcDbLine
 10
556.9065127045594
 20
237.6434276890232
 30
0.0
 11
559.0607127045593
 21
237.6434276890232
 31
0.0
  0
ARC
  5
561
330
1A
100
AcDbEntity
  8
SEIHIN
  6
CONTINUOUS
 62
     3
 48
16.0
100
AcDbCircle
 10
836.0405238046926
 20
335.0914489674037
 30
0.0
 40
300.0000534214206
100
AcDbArc
 50
188.8185268821879
 51
195.0135630364767
  0
LINE
  5
562
330
1A
100
AcDbEntity
  8
SEIHIN
  6
CONTINUOUS
 62
     3
 48
16.0
100
AcDbLine
 10
546.2810127045592
 20
257.3772276890232
 30
0.0
 11
542.4575127045596
 21
259.9523276890231
 31
0.0
  0
LINE
  5
563
330
1A
100
AcDbEntity
  8
SEIHIN
  6
CONTINUOUS
 62
     3
 48
16.0
100
AcDbLine
 10
547.2450127045594
 20
257.6435276890232
 30
0.0
 11
548.4197127045595
 21
253.3887276890232
 31
0.0
  0
LINE
  5
564
330
1A
100
AcDbEntity
  8
SEIHIN
  6
CONTINUOUS
 62
     3
 48
16.0
100
AcDbLine
 10
547.2450127045594
 20
257.6435276890232
 30
0.0
 11
546.2810127045592
 21
257.3772276890232
 31
0.0
  0
LINE
  5
565
330
1A
100
AcDbEntity
  8
SEIHIN
  6
CONTINUOUS
 62
     3
 48
16.0
100
AcDbLine
 10
543.4207127045595
 20
273.6435276890232
 30
0.0
 11
542.4568127045593
 21
273.3773276890232
 31
0.0
  0
LINE
  5
566
330
1A
100
AcDbEntity
  8
SEIHIN
  6
CONTINUOUS
 62
     3
 48
16.0
100
AcDbLine
 10
542.4568127045593
 20
273.3773276890232
 30
0.0
 11
538.6332127045593
 21
275.9523276890231
 31
0.0
  0
LINE
  5
567
330
1A
100
AcDbEntity
  8
CENTER_L
  6
CENTER
 62
     1
 48
5.0
100
AcDbLine
 10
625.0606127045596
 20
153.1365512837171
 30
0.0
 11
625.0606127045596
 21
223.6433276890232
 31
0.0
  0
LINE
  5
568
330
1A
100
AcDbEntity
  8
SEIHIN
  6
CONTINUOUS
 62
     3
 48
16.0
100
AcDbLine
 10
579.0606127045596
 20
203.6435276890232
 30
0.0
 11
579.0606127045596
 21
178.6434276890232
 31
0.0
  0
LINE
  5
569
330
1A
100
AcDbEntity
  8
SEIHIN
  6
CONTINUOUS
 62
     3
 48
16.0
100
AcDbLine
 10
671.0606127045596
 20
203.6432276890232
 30
0.0
 11
671.0606127045596
 21
178.6432276890232
 31
0.0
  0
DIMENSION
  5
56A
330
1A
100
AcDbEntity
  8
SUNPOU
100
AcDbDimension
  2
*D9
 10
588.8607127045593
 20
128.0700750879578
 30
0.0
 11
625.0606627045593
 21
133.0700750879578
 31
0.0
 12
10.23886383866238
 22
-15.91393889648065
 32
0.0
 70
    32
  1
φ<>
  3
STANDARD
100
AcDbAlignedDimension
 13
661.2606127045594
 23
162.6433276890232
 33
0.0
 14
588.8607127045593
 24
162.6433276890232
 34
0.0
100
AcDbRotatedDimension
1001
ACAD
1000
DSTYLE
1002
{
1070
   140
1040
6.0
1070
    74
1070
     0
1070
   172
1070
     1
1070
    73
1070
     0
1070
   272
1070
     2
1070
    77
1070
     3
1070
   173
1070
     1
1070
   147
1040
2.0
1070
    42
1040
6.0
1070
    44
1040
3.0
1070
    43
1040
14.0
1070
   271
1070
     0
1070
   178
1070
     4
1070
   177
1070
     4
1070
   176
1070
     4
1070
   141
1040
150.0
1070
     7
1000
_OPEN
1070
     6
1000
_OPEN
1070
    41
1040
7.0
1002
}
  0
LINE
  5
56B
330
1A
100
AcDbEntity
  8
SEIHIN
  6
CONTINUOUS
 62
     3
 48
16.0
100
AcDbLine
 10
625.0606127045596
 20
162.6433276890232
 30
0.0
 11
661.2606127045594
 21
162.6433276890232
 31
0.0
  0
LINE
  5
56C
330
1A
100
AcDbEntity
  8
SEIHIN
  6
CONTINUOUS
 62
     3
 48
16.0
100
AcDbLine
 10
671.0606127045596
 20
178.6432276890232
 30
0.0
 11
625.0606127045596
 21
178.6433276890232
 31
0.0
  0
LINE
  5
56D
330
1A
100
AcDbEntity
  8
SEIHIN
  6
CONTINUOUS
 62
     3
 48
16.0
100
AcDbLine
 10
665.4606127045594
 20
175.6432276890232
 30
0.0
 11
625.0606127045596
 21
175.6433276890232
 31
0.0
  0
LINE
  5
56E
330
1A
100
AcDbEntity
  8
SEIHIN
  6
CONTINUOUS
 62
     3
 48
16.0
100
AcDbLine
 10
579.0606127045596
 20
178.6434276890232
 30
0.0
 11
625.0606127045596
 21
178.6433276890232
 31
0.0
  0
LINE
  5
56F
330
1A
100
AcDbEntity
  8
SEIHIN
  6
CONTINUOUS
 62
     3
 48
16.0
100
AcDbLine
 10
584.6605127045592
 20
175.6434276890231
 30
0.0
 11
625.0606127045596
 21
175.6433276890232
 31
0.0
  0
LINE
  5
570
330
1A
100
AcDbEntity
  8
SEIHIN
  6
CONTINUOUS
 62
     3
 48
16.0
100
AcDbLine
 10
625.0607127045595
 20
162.6433276890232
 30
0.0
 11
588.8607127045593
 21
162.6433276890232
 31
0.0
  0
LINE
  5
571
330
1A
100
AcDbEntity
  8
SEIHIN
  6
CONTINUOUS
 62
     3
 48
16.0
100
AcDbLine
 10
579.0606127045596
 20
178.6434276890232
 30
0.0
 11
584.6605127045592
 21
175.6434276890231
 31
0.0
  0
LINE
  5
572
330
1A
100
AcDbEntity
  8
SEIHIN
  6
CONTINUOUS
 62
     3
 48
16.0
100
AcDbLine
 10
588.8606127045593
 20
162.6433276890232
 30
0.0
 11
588.8606127045593
 21
175.6434276890231
 31
0.0
  0
LINE
  5
573
330
1A
100
AcDbEntity
  8
SEIHIN
  6
CONTINUOUS
 62
     3
 48
16.0
100
AcDbLine
 10
671.0606127045596
 20
178.6432276890232
 30
0.0
 11
665.4606127045594
 21
175.6432276890232
 31
0.0
  0
LINE
  5
574
330
1A
100
AcDbEntity
  8
SEIHIN
  6
CONTINUOUS
 62
     3
 48
16.0
100
AcDbLine
 10
661.2606127045594
 20
162.6433276890232
 30
0.0
 11
661.2606127045594
 21
175.6434276890231
 31
0.0
  0
DIMENSION
  5
575
330
1A
100
AcDbEntity
  8
SUNPOU
100
AcDbDimension
  2
*D10
 10
625.0606127045596
 20
251.9006060317589
 30
0.0
 11
643.0606127045596
 21
256.9006060317589
 31
0.0
 12
10.23886383866238
 22
-15.91393889648065
 32
0.0
 70
    32
  3
STANDARD
100
AcDbAlignedDimension
 13
621.0608127045595
 23
274.1366276890231
 33
0.0
 14
625.0606127045596
 24
223.6433276890232
 34
0.0
100
AcDbRotatedDimension
1001
ACAD
1000
DSTYLE
1002
{
1070
   140
1040
6.0
1070
    74
1070
     0
1070
   172
1070
     1
1070
    73
1070
     0
1070
   272
1070
     2
1070
    77
1070
     3
1070
   173
1070
     1
1070
   147
1040
2.0
1070
    42
1040
6.0
1070
    44
1040
3.0
1070
    43
1040
14.0
1070
   271
1070
     0
1070
   178
1070
     4
1070
   177
1070
     4
1070
   176
1070
     4
1070
   141
1040
150.0
1070
     7
1000
_OPEN
1070
     6
1000
_OPEN
1070
    41
1040
7.0
1002
}
  0
ARC
  5
576
330
1A
100
AcDbEntity
  8
SEIHIN
  6
CONTINUOUS
 62
     3
 48
16.0
100
AcDbCircle
 10
625.0616013903927
 20
516.2252276887536
 30
0.0
 40
299.9999515565003
100
AcDbArc
 50
261.3728810516558
 51
278.6267369764808
  0
LINE
  5
577
330
1A
100
AcDbEntity
  8
SEIHIN
  6
CONTINUOUS
 62
     3
 48
16.0
100
AcDbLine
 10
671.0606127045596
 20
203.6432276890232
 30
0.0
 11
579.0606127045596
 21
203.6434276890232
 31
0.0
  0
ARC
  5
578
330
1A
100
AcDbEntity
  8
SEIHIN
  6
CONTINUOUS
 62
     3
 48
16.0
100
AcDbCircle
 10
570.7227099078672
 20
216.6434299515207
 30
0.0
 40
2.000002262499446
100
AcDbArc
 50
192.0550202604451
 51
270.0000801192433
  0
ARC
  5
579
330
1A
100
AcDbEntity
  8
SEIHIN
  6
CONTINUOUS
 62
     3
 48
16.0
100
AcDbCircle
 10
571.8719262792058
 20
207.1537127568834
 30
0.0
 40
7.999957111116774
100
AcDbArc
 50
333.973424587101
 51
110.573953425094
  0
ARC
  5
57A
330
1A
100
AcDbEntity
  8
SEIHIN
  6
CONTINUOUS
 62
     3
 48
16.0
100
AcDbCircle
 10
679.2108258702662
 20
217.1070389152651
 30
0.0
 40
1.999978884886032
100
AcDbArc
 50
264.4820496580952
 51
356.4249294349479
  0
ARC
  5
57B
330
1A
100
AcDbEntity
  8
SEIHIN
  6
CONTINUOUS
 62
     3
 48
16.0
100
AcDbCircle
 10
679.0597355169945
 20
207.1533484045522
 30
0.0
 40
8.000022812461727
100
AcDbArc
 50
84.48410600028614
 51
180.0001483636248
  0
LINE
  5
57C
330
1A
100
AcDbEntity
  8
SEIHIN
  6
CONTINUOUS
 62
     3
 48
16.0
100
AcDbLine
 10
671.0606127045596
 20
207.2778276890232
 30
0.0
 11
671.0606127045596
 21
203.6432276890232
 31
0.0
  0
DIMENSION
  5
57D
330
1A
100
AcDbEntity
  8
SUNPOU
100
AcDbDimension
  2
*D11
 10
485.0610127045595
 20
445.3306157315564
 30
0.0
 11
588.0609627045593
 21
450.3306157315564
 31
0.0
 12
10.23886383866238
 22
-15.91393889648065
 32
0.0
 70
    32
  3
STANDARD
100
AcDbAlignedDimension
 13
691.0609127045593
 23
357.643227689023
 33
0.0
 14
485.0610127045595
 24
423.6436276890231
 34
0.0
100
AcDbRotatedDimension
1001
ACAD
1000
DSTYLE
1002
{
1070
   140
1040
6.0
1070
    74
1070
     0
1070
   172
1070
     1
1070
    73
1070
     0
1070
   272
1070
     2
1070
    77
1070
     3
1070
   173
1070
     1
1070
   147
1040
2.0
1070
    42
1040
6.0
1070
    44
1040
3.0
1070
    43
1040
14.0
1070
   271
1070
     0
1070
   178
1070
     4
1070
   177
1070
     4
1070
   176
1070
     4
1070
   141
1040
150.0
1070
     7
1000
_OPEN
1070
     6
1000
_OPEN
1070
    41
1040
7.0
1002
}
  0
ARC
  5
57E
330
1A
100
AcDbEntity
  8
SEIHIN
  6
CONTINUOUS
 62
     3
 48
16.0
100
AcDbCircle
 10
567.5576421956255
 20
357.5309625417343
 30
0.0
 40
9.999979482932038
100
AcDbArc
 50
261.3920082419154
 51
18.13440581646762
  0
LINE
  5
57F
330
1A
100
AcDbEntity
  8
SEIHIN
  6
CONTINUOUS
 62
     3
 48
16.0
100
AcDbLine
 10
529.0609127045595
 20
349.6435276890232
 30
0.0
 11
573.7047127045595
 21
349.643427689023
 31
0.0
  0
LINE
  5
580
330
1A
100
AcDbEntity
  8
SEIHIN
  6
CONTINUOUS
 62
     3
 48
16.0
100
AcDbLine
 10
577.0609127045593
 20
360.6434276890232
 30
0.0
 11
547.8401127045595
 21
418.1721276890231
 31
0.0
  0
LINE
  5
581
330
1A
100
AcDbEntity
  8
SEIHIN
  6
CONTINUOUS
 62
     3
 48
16.0
100
AcDbLine
 10
512.0609127045595
 20
375.6436276890231
 30
0.0
 11
569.4419127045596
 21
375.6435276890232
 31
0.0
  0
LINE
  5
582
330
1A
100
AcDbEntity
  8
SEIHIN
  6
CONTINUOUS
 62
     3
 48
16.0
100
AcDbLine
 10
514.0609127045595
 20
366.6436276890231
 30
0.0
 11
574.0133127045594
 21
366.6435276890232
 31
0.0
  0
LINE
  5
583
330
1A
100
AcDbEntity
  8
SEIHIN
  6
CONTINUOUS
 62
     3
 48
16.0
100
AcDbLine
 10
512.0609127045595
 20
368.6436276890231
 30
0.0
 11
572.9974127045593
 21
368.6435276890232
 31
0.0
  0
ARC
  5
584
330
1A
100
AcDbEntity
  8
SEIHIN
  6
CONTINUOUS
 62
     3
 48
16.0
100
AcDbCircle
 10
519.7608637635769
 20
395.1810879244748
 30
0.0
 40
21.00003806575406
100
AcDbArc
 50
189.6977215825863
 51
248.4899961898726
  0
LINE
  5
585
330
1A
100
AcDbEntity
  8
SEIHIN
  6
CONTINUOUS
 62
     3
 48
16.0
100
AcDbLine
 10
529.0609127045595
 20
343.6435276890232
 30
0.0
 11
526.7783127045595
 21
339.6386276890232
 31
0.0
  0
ARC
  5
586
330
1A
100
AcDbEntity
  8
SEIHIN
  6
CONTINUOUS
 62
     3
 48
16.0
100
AcDbCircle
 10
560.5609127045595
 20
344.1434276890231
 30
0.0
 40
3.500000000000056
100
AcDbArc
 50
179.999999999999
 51
269.999999999999
  0
ARC
  5
587
330
1A
100
AcDbEntity
  8
NOKITOI
  6
PHANTOM
 62
     8
 48
5.0
100
AcDbCircle
 10
561.5107435189066
 20
345.6436498509418
 30
0.0
 40
4.000015298737716
100
AcDbArc
 50
8.764757762685649
 51
317.431501414648
  0
LINE
  5
588
330
1A
100
AcDbEntity
  8
SEIHIN
  6
CONTINUOUS
 62
     3
 48
16.0
100
AcDbLine
 10
526.7783127045595
 20
339.6386276890232
 30
0.0
 11
534.9364127045596
 21
297.3644276890231
 31
0.0
  0
LINE
  5
589
330
1A
100
AcDbEntity
  8
SEIHIN
  6
CONTINUOUS
 62
     3
 48
16.0
100
AcDbLine
 10
531.3435127045595
 20
331.648427689023
 30
0.0
 11
529.0609127045595
 21
327.6435276890232
 31
0.0
  0
LINE
  5
58A
330
1A
100
AcDbEntity
  8
SEIHIN
  6
CONTINUOUS
 62
     3
 48
16.0
100
AcDbLine
 10
531.3435127045595
 20
331.648427689023
 30
0.0
 11
532.4595127045595
 21
331.863827689023
 31
0.0
  0
ARC
  5
58B
330
1A
100
AcDbEntity
  8
SEIHIN
  6
CONTINUOUS
 62
     3
 48
16.0
100
AcDbCircle
 10
563.095395559115
 20
338.643441886624
 30
0.0
 40
1.999985802472522
100
AcDbArc
 50
10.74534550082499
 51
89.99950881571171
  0
LINE
  5
58C
330
1A
100
AcDbEntity
  8
SEIHIN
  6
CONTINUOUS
 62
     3
 48
16.0
100
AcDbLine
 10
560.5609127045592
 20
340.643427689023
 30
0.0
 11
563.0954127045595
 21
340.643427689023
 31
0.0
  0
ARC
  5
58D
330
1A
100
AcDbEntity
  8
SEIHIN
  6
CONTINUOUS
 62
     3
 48
16.0
100
AcDbCircle
 10
512.3172009590323
 20
355.7826387819943
 30
0.0
 40
11.0000732129423
100
AcDbArc
 50
12.39405147864605
 51
80.87910260458741
  0
ARC
  5
58E
330
1A
100
AcDbEntity
  8
SEIHIN
  6
CONTINUOUS
 62
     3
 48
16.0
100
AcDbCircle
 10
533.9791043904852
 20
359.4828394673239
 30
0.0
 40
11.00003026041819
100
AcDbArc
 50
186.9934156885041
 51
243.4417702478828
  0
LINE
  5
58F
330
1A
100
AcDbEntity
  8
SEIHIN
  6
CONTINUOUS
 62
     3
 48
16.0
100
AcDbLine
 10
529.0609127045595
 20
343.6435276890232
 30
0.0
 11
530.1769127045592
 21
343.858827689023
 31
0.0
  0
LINE
  5
590
330
1A
100
AcDbEntity
  8
SEIHIN
  6
CONTINUOUS
 62
     3
 48
16.0
100
AcDbLine
 10
514.0609127045595
 20
368.6436276890231
 30
0.0
 11
514.0609127045595
 21
366.6436276890231
 31
0.0
  0
LINE
  5
591
330
1A
100
AcDbEntity
  8
SEIHIN
  6
CONTINUOUS
 62
     3
 48
16.0
100
AcDbLine
 10
512.0609127045595
 20
375.6436276890231
 30
0.0
 11
512.0609127045595
 21
368.6436276890231
 31
0.0
  0
CIRCLE
  5
592
330
1A
100
AcDbEntity
  8
NOKITOI
  6
PHANTOM
 62
     8
 48
5.0
100
AcDbCircle
 10
561.5107478190962
 20
345.6436640019171
 30
0.0
 40
2.7
  0
ARC
  5
593
330
1A
100
AcDbEntity
  8
SEIHIN
  6
CONTINUOUS
 62
     3
 48
16.0
100
AcDbCircle
 10
560.5609127045592
 20
346.1434276890231
 30
0.0
 40
3.499999999999943
100
AcDbArc
 50
89.99999999999907
 51
179.999999999999
  0
LINE
  5
594
330
1A
100
AcDbEntity
  8
SEIHIN
  6
CONTINUOUS
 62
     3
 48
16.0
100
AcDbLine
 10
557.0609127045592
 20
346.1434276890231
 30
0.0
 11
557.0609127045592
 21
344.1434276890231
 31
0.0
  0
ARC
  5
595
330
1A
100
AcDbEntity
  8
SEIHIN
  6
CONTINUOUS
 62
     3
 48
16.0
100
AcDbCircle
 10
564.0609421037416
 20
347.6442991304302
 30
0.0
 40
1.99997060102169
100
AcDbArc
 50
0.0008181554499981
 51
91.66267761832189
  0
LINE
  5
596
330
1A
100
AcDbEntity
  8
SEIHIN
  6
CONTINUOUS
 62
     3
 48
16.0
100
AcDbLine
 10
560.5609127045592
 20
349.643427689023
 30
0.0
 11
564.2425127045594
 21
349.643427689023
 31
0.0
  0
LINE
  5
597
330
1A
100
AcDbEntity
  8
SEIHIN
  6
CONTINUOUS
 62
     3
 48
16.0
100
AcDbLine
 10
487.0609127045596
 20
407.6436276890232
 30
0.0
 11
553.1880127045594
 21
407.6435276890232
 31
0.0
  0
LINE
  5
598
330
1A
100
AcDbEntity
  8
SEIHIN
  6
CONTINUOUS
 62
     3
 48
16.0
100
AcDbLine
 10
485.0610127045595
 20
409.6436276890232
 30
0.0
 11
552.1721127045593
 21
409.6435276890232
 31
0.0
  0
LINE
  5
599
330
1A
100
AcDbEntity
  8
SEIHIN
  6
CONTINUOUS
 62
     3
 48
16.0
100
AcDbLine
 10
538.9243127045594
 20
423.6435276890232
 30
0.0
 11
485.0610127045595
 21
423.6436276890231
 31
0.0
  0
LINE
  5
59A
330
1A
100
AcDbEntity
  8
SEIHIN
  6
CONTINUOUS
 62
     3
 48
16.0
100
AcDbLine
 10
485.0610127045595
 20
423.6436276890231
 30
0.0
 11
485.0610127045595
 21
409.6436276890232
 31
0.0
  0
ARC
  5
59B
330
1A
100
AcDbEntity
  8
SEIHIN
  6
CONTINUOUS
 62
     3
 48
16.0
100
AcDbCircle
 10
478.288000704546
 20
388.563943689013
 30
0.0
 40
20.99996015472938
100
AcDbArc
 50
8.432948625654761
 51
65.30684666603291
  0
LINE
  5
59C
330
1A
100
AcDbEntity
  8
SEIHIN
  6
CONTINUOUS
 62
     3
 48
16.0
100
AcDbLine
 10
487.0610127045593
 20
409.6436276890232
 30
0.0
 11
487.0609127045596
 21
407.6436276890232
 31
0.0
  0
ARC
  5
59D
330
1A
100
AcDbEntity
  8
SEIHIN
  6
CONTINUOUS
 62
     3
 48
16.0
100
AcDbCircle
 10
538.9243376907993
 20
413.6435123557967
 30
0.0
 40
10.00001533325771
100
AcDbArc
 50
26.92802372392839
 51
90.0001431603899
  0
DIMENSION
  5
59E
330
1A
100
AcDbEntity
  8
SUNPOU
100
AcDbDimension
  2
*D12
 10
621.0608127045595
 20
409.448764596048
 30
0.0
 11
656.0608627045594
 21
414.448764596048
 31
0.0
 12
10.23886383866238
 22
-15.91393889648065
 32
0.0
 70
    32
  3
STANDARD
100
AcDbAlignedDimension
 13
691.0609127045593
 23
357.643227689023
 33
0.0
 14
621.0608127045595
 24
312.6434276890231
 34
0.0
100
AcDbRotatedDimension
1001
ACAD
1000
DSTYLE
1002
{
1070
   140
1040
6.0
1070
    74
1070
     0
1070
   172
1070
     1
1070
    73
1070
     0
1070
   272
1070
     2
1070
    77
1070
     3
1070
   173
1070
     1
1070
   147
1040
2.0
1070
    42
1040
6.0
1070
    44
1040
3.0
1070
    43
1040
14.0
1070
   271
1070
     0
1070
   178
1070
     4
1070
   177
1070
     4
1070
   176
1070
     4
1070
   141
1040
150.0
1070
     7
1000
_OPEN
1070
     6
1000
_OPEN
1070
    41
1040
7.0
1002
}
  0
ARC
  5
59F
330
1A
100
AcDbEntity
  8
SEIHIN
  6
CONTINUOUS
 62
     3
 48
16.0
100
AcDbCircle
 10
681.5609127045595
 20
344.1432276890231
 30
0.0
 40
3.499999999999943
100
AcDbArc
 50
269.999999999999
 51
359.999999999999
  0
ARC
  5
5A0
330
1A
100
AcDbEntity
  8
NOKITOI
  6
PHANTOM
 62
     8
 48
5.0
100
AcDbCircle
 10
680.6107294147539
 20
345.6435245685531
 30
0.0
 40
3.999981474645155
100
AcDbArc
 50
222.570219189405
 51
171.2362504387284
  0
LINE
  5
5A1
330
1A
100
AcDbEntity
  8
SEIHIN
  6
CONTINUOUS
 62
     3
 48
16.0
100
AcDbLine
 10
689.4984127045593
 20
332.643227689023
 30
0.0
 11
675.4667127045595
 21
332.6433276890231
 31
0.0
  0
ARC
  5
5A2
330
1A
100
AcDbEntity
  8
SEIHIN
  6
CONTINUOUS
 62
     3
 48
16.0
100
AcDbCircle
 10
679.026329850004
 20
338.6432418866238
 30
0.0
 40
1.999985802472786
100
AcDbArc
 50
90.00049118428991
 51
169.2546544991765
  0
LINE
  5
5A3
330
1A
100
AcDbEntity
  8
SEIHIN
  6
CONTINUOUS
 62
     3
 48
16.0
100
AcDbLine
 10
681.5608127045593
 20
340.6432276890232
 30
0.0
 11
679.0263127045593
 21
340.6432276890232
 31
0.0
  0
CIRCLE
  5
5A4
330
1A
100
AcDbEntity
  8
NOKITOI
  6
PHANTOM
 62
     8
 48
5.0
100
AcDbCircle
 10
680.6107478190961
 20
345.6434640019173
 30
0.0
 40
2.7
  0
ARC
  5
5A5
330
1A
100
AcDbEntity
  8
SEIHIN
  6
CONTINUOUS
 62
     3
 48
16.0
100
AcDbCircle
 10
681.5609127045592
 20
346.1432276890231
 30
0.0
 40
3.5
100
AcDbArc
 50
0.0
 51
90.0
  0
LINE
  5
5A6
330
1A
100
AcDbEntity
  8
SEIHIN
  6
CONTINUOUS
 62
     3
 48
16.0
100
AcDbLine
 10
675.0609127045593
 20
357.6433276890233
 30
0.0
 11
691.0609127045593
 21
357.643227689023
 31
0.0
  0
ARC
  5
5A7
330
1A
100
AcDbEntity
  8
SEIHIN
  6
CONTINUOUS
 62
     3
 48
16.0
100
AcDbCircle
 10
675.0609127045593
 20
352.6433276890232
 30
0.0
 40
5.0
100
AcDbArc
 50
90.0
 51
180.0
  0
ARC
  5
5A8
330
1A
100
AcDbEntity
  8
SEIHIN
  6
CONTINUOUS
 62
     3
 48
16.0
100
AcDbCircle
 10
675.9770930414203
 20
353.6427469313696
 30
0.0
 40
6.000002383352364
100
AcDbArc
 50
189.588439933562
 51
261.6513322060194
  0
ARC
  5
5A9
330
1A
100
AcDbEntity
  8
SEIHIN
  6
CONTINUOUS
 62
     3
 48
16.0
100
AcDbCircle
 10
678.0608553590745
 20
347.6444864165398
 30
0.0
 40
2.000054132245158
100
AcDbArc
 50
91.99546446548685
 51
159.4875349382505
  0
LINE
  5
5AA
330
1A
100
AcDbEntity
  8
SEIHIN
  6
CONTINUOUS
 62
     3
 48
16.0
100
AcDbLine
 10
681.5609127045592
 20
349.6432276890231
 30
0.0
 11
677.8793127045594
 21
349.6432276890231
 31
0.0
  0
ARC
  5
5AB
330
1A
100
AcDbEntity
  8
SEIHIN
  6
CONTINUOUS
 62
     3
 48
16.0
100
AcDbCircle
 10
675.2510499994707
 20
348.6955906516123
 30
0.0
 40
0.9999519519043744
100
AcDbArc
 50
261.6543664365152
 51
339.4894530094407
  0
LINE
  5
5AC
330
1A
100
AcDbEntity
  8
SEIHIN
  6
CONTINUOUS
 62
     3
 48
16.0
100
AcDbLine
 10
685.0609127045593
 20
346.1432276890231
 30
0.0
 11
685.0609127045593
 21
344.1432276890231
 31
0.0
  0
LINE
  5
5AD
330
1A
100
AcDbEntity
  8
ZUWAKU
  6
CONTINUOUS
100
AcDbLine
 10
346.1555992378098
 20
22.95288552263329
 30
0.0
 11
346.1555992378098
 21
15.74850319535187
 31
0.0
  0
LINE
  5
5AE
330
1A
100
AcDbEntity
  8
ZUWAKU
  6
CONTINUOUS
100
AcDbLine
 10
343.3661936005602
 20
15.74850319535187
 30
0.0
 11
343.3661936005602
 21
22.95288552263329
 31
0.0
  0
LINE
  5
5AF
330
1A
100
AcDbEntity
  8
ZUWAKU
  6
CONTINUOUS
100
AcDbLine
 10
340.5767881828227
 20
22.95288552263329
 30
0.0
 11
340.5767881828227
 21
15.74850319535187
 31
0.0
  0
LINE
  5
5B0
330
1A
100
AcDbEntity
  8
ZUWAKU
  6
CONTINUOUS
100
AcDbLine
 10
338.9978794889354
 20
15.74850319535187
 30
0.0
 11
347.7345079316971
 21
15.74850319535187
 31
0.0
  0
LINE
  5
5B1
330
1A
100
AcDbEntity
  8
ZUWAKU
  6
CONTINUOUS
100
AcDbLine
 10
338.9978794889354
 20
22.95288552263329
 30
0.0
 11
347.7345079316971
 21
22.95288552263329
 31
0.0
  0
VIEWPORT
  5
22
330
17
100
AcDbEntity
 67
     1
  8
0
100
AcDbViewport
 10
313.6808219178082
 20
148.5
 30
0.0
 40
627.3616438356165
 41
297.0
 68
     2
 69
     1
1001
ACAD
1000
MVIEW
1002
{
1070
    16
1010
0.0
1020
0.0
1030
0.0
1010
0.0
1020
0.0
1030
1.0
1040
0.0
1040
297.0
1040
313.6808219178082
1040
148.5
1040
50.0
1040
0.0
1040
0.0
1070
     0
1070
   100
1070
     1
1070
     0
1070
     0
1070
     0
1070
     0
1070
     0
1040
0.0
1040
0.0
1040
0.0
1040
1.0
1040
1.0
1040
10.0
1040
10.0
1070
     0
1002
{
1002
}
1002
}
  0
VIEWPORT
  5
64
330
17
100
AcDbEntity
 67
     1
  8
VIEWPORT
100
AcDbViewport
 10
210.0
 20
148.5
 30
0.0
 40
420.0
 41
297.0
 68
     1
 69
     2
1001
ACAD
1000
MVIEW
1002
{
1070
    16
1010
0.0
1020
0.0
1030
0.0
1010
0.0
1020
0.0
1030
1.0
1040
0.0
1040
605.8799999999998
1040
420.0
1040
297.0
1040
50.0
1040
0.0
1040
0.0
1070
     0
1070
   100
1070
     1
1070
     0
1070
     0
1070
     0
1070
     0
1070
     0
1040
0.0
1040
0.0
1040
0.0
1040
10.0
1040
10.0
1040
0.0
1040
0.0
1070
     0
1002
{
1002
}
1002
}
  0
ENDSEC
  0
SECTION
  2
OBJECTS
  0
DICTIONARY
  5
C
330
0
100
AcDbDictionary
  3
ACAD_GROUP
350
D
  3
ACAD_LAYOUT
350
6D0
  3
ACAD_MLINESTYLE
350
E
  3
ACAD_PLOTSETTINGS
350
6D1
1001
ACAD
1000
TREAT_AS_HARD
1070
     0
  0
DICTIONARY
  5
6FF
330
1A
100
AcDbDictionary
  3
ACAD_LAYOUTSELFREF
350
717
1001
ACAD
1000
TREAT_AS_HARD
1070
     1
  0
DICTIONARY
  5
6FD
330
17
100
AcDbDictionary
  3
ACAD_LAYOUTSELFREF
350
716
1001
ACAD
1000
TREAT_AS_HARD
1070
     1
  0
DICTIONARY
  5
D
102
{ACAD_REACTORS
330
C
102
}
330
C
100
AcDbDictionary
1001
ACAD
1000
TREAT_AS_HARD
1070
     0
  0
DICTIONARY
  5
6D0
102
{ACAD_REACTORS
330
C
102
}
330
C
100
AcDbDictionary
1001
ACAD
1000
TREAT_AS_HARD
1070
     0
  0
DICTIONARY
  5
E
102
{ACAD_REACTORS
330
C
102
}
330
C
100
AcDbDictionary
  3
STANDARD
350
13
1001
ACAD
1000
TREAT_AS_HARD
1070
     0
  0
DICTIONARY
  5
6D1
102
{ACAD_REACTORS
330
C
102
}
330
C
100
AcDbDictionary
1001
ACAD
1000
TREAT_AS_HARD
1070
     0
  0
XRECORD
  5
717
102
{ACAD_REACTORS
330
6FF
102
}
330
6FF
100
AcDbXrecord
340
1A
  0
XRECORD
  5
716
102
{ACAD_REACTORS
330
6FD
102
}
330
6FD
100
AcDbXrecord
340
17
  0
MLINESTYLE
  5
13
102
{ACAD_REACTORS
330
E
102
}
330
E
100
AcDbMlineStyle
  2
STANDARD
 70
     0
  3

 62
     0
 51
90.0
 52
90.0
 71
     2
 49
0.5
 62
   256
  6
BYLAYER
 49
-0.5
 62
   256
  6
BYLAYER
  0
ENDSEC
  0
EOF
