  0
SECTION
  2
HEADER
  9
$ACADVER
  1
AC1012
  9
$DWGCODEPAGE
  3
dos932
  9
$INSBASE
 10
0.0
 20
0.0
 30
0.0
  9
$EXTMIN
 10
5.0
 20
2.449000558492456
 30
0.0
  9
$EXTMAX
 10
403.0
 20
282.0
 30
0.0
  9
$LIMMIN
 10
0.0
 20
0.0
  9
$LIMMAX
 10
420.0
 20
297.0
  9
$ORTHOMODE
 70
     0
  9
$REGENMODE
 70
     1
  9
$FILLMODE
 70
     1
  9
$QTEXTMODE
 70
     0
  9
$MIRRTEXT
 70
     1
  9
$DRAGMODE
 70
     2
  9
$LTSCALE
 40
1.0
  9
$OSMODE
 70
   319
  9
$ATTMODE
 70
     1
  9
$TEXTSIZE
 40
2.5
  9
$TRACEWID
 40
1.0
  9
$TEXTSTYLE
  7
STANDARD
  9
$CLAYER
  8
SEIHIN
  9
$CELTYPE
  6
BYLAYER
  9
$CECOLOR
 62
   256
  9
$CELTSCALE
 40
1.0
  9
$DELOBJ
 70
     1
  9
$DISPSILH
 70
     0
  9
$DIMSCALE
 40
1.0
  9
$DIMASZ
 40
3.0
  9
$DIMEXO
 40
3.0
  9
$DIMDLI
 40
7.0
  9
$DIMRND
 40
0.0
  9
$DIMDLE
 40
0.0
  9
$DIMEXE
 40
1.5
  9
$DIMTP
 40
0.0
  9
$DIMTM
 40
0.0
  9
$DIMTXT
 40
3.0
  9
$DIMCEN
 40
150.0
  9
$DIMTSZ
 40
0.0
  9
$DIMTOL
 70
     0
  9
$DIMLIM
 70
     0
  9
$DIMTIH
 70
     0
  9
$DIMTOH
 70
     0
  9
$DIMSE1
 70
     0
  9
$DIMSE2
 70
     0
  9
$DIMTAD
 70
     3
  9
$DIMZIN
 70
     0
  9
$DIMBLK
  1

  9
$DIMASO
 70
     1
  9
$DIMSHO
 70
     1
  9
$DIMPOST
  1

  9
$DIMAPOST
  1

  9
$DIMALT
 70
     0
  9
$DIMALTD
 70
     2
  9
$DIMALTF
 40
25.4
  9
$DIMLFAC
 40
1.0
  9
$DIMTOFL
 70
     1
  9
$DIMTVP
 40
0.0
  9
$DIMTIX
 70
     0
  9
$DIMSOXD
 70
     0
  9
$DIMSAH
 70
     1
  9
$DIMBLK1
  1
OPEN
  9
$DIMBLK2
  1
OPEN
  9
$DIMSTYLE
  2
STANDARD
  9
$DIMCLRD
 70
   256
  9
$DIMCLRE
 70
   256
  9
$DIMCLRT
 70
   256
  9
$DIMTFAC
 40
1.0
  9
$DIMGAP
 40
1.0
  9
$DIMJUST
 70
     0
  9
$DIMSD1
 70
     0
  9
$DIMSD2
 70
     0
  9
$DIMTOLJ
 70
     1
  9
$DIMTZIN
 70
     0
  9
$DIMALTZ
 70
     0
  9
$DIMALTTZ
 70
     0
  9
$DIMFIT
 70
     3
  9
$DIMUPT
 70
     0
  9
$DIMUNIT
 70
     2
  9
$DIMDEC
 70
     0
  9
$DIMTDEC
 70
     0
  9
$DIMALTU
 70
     2
  9
$DIMALTTD
 70
     2
  9
$DIMTXSTY
  7
STANDARD
  9
$DIMAUNIT
 70
     0
  9
$LUNITS
 70
     2
  9
$LUPREC
 70
     4
  9
$SKETCHINC
 40
1.0
  9
$FILLETRAD
 40
10.0
  9
$AUNITS
 70
     0
  9
$AUPREC
 70
     0
  9
$MENU
  1
.
  9
$ELEVATION
 40
0.0
  9
$PELEVATION
 40
0.0
  9
$THICKNESS
 40
0.0
  9
$LIMCHECK
 70
     0
  9
$BLIPMODE
 70
     0
  9
$CHAMFERA
 40
10.0
  9
$CHAMFERB
 40
10.0
  9
$CHAMFERC
 40
20.0
  9
$CHAMFERD
 40
0.0
  9
$SKPOLY
 70
     0
  9
$TDCREATE
 40
2450994.350997107
  9
$TDUPDATE
 40
2452423.645225694
  9
$TDINDWG
 40
0.0159498843
  9
$TDUSRTIMER
 40
0.0159498843
  9
$USRTIMER
 70
     1
  9
$ANGBASE
 50
0.0
  9
$ANGDIR
 70
     0
  9
$PDMODE
 70
     1
  9
$PDSIZE
 40
0.0
  9
$PLINEWID
 40
0.0
  9
$COORDS
 70
     1
  9
$SPLFRAME
 70
     0
  9
$SPLINETYPE
 70
     6
  9
$SPLINESEGS
 70
     8
  9
$ATTDIA
 70
     0
  9
$ATTREQ
 70
     1
  9
$HANDLING
 70
 10241
  9
$HANDSEED
  5
33F
  9
$SURFTAB1
 70
     6
  9
$SURFTAB2
 70
     6
  9
$SURFTYPE
 70
     6
  9
$SURFU
 70
     6
  9
$SURFV
 70
     6
  9
$UCSNAME
  2

  9
$UCSORG
 10
0.0
 20
0.0
 30
0.0
  9
$UCSXDIR
 10
1.0
 20
0.0
 30
0.0
  9
$UCSYDIR
 10
0.0
 20
1.0
 30
0.0
  9
$PUCSNAME
  2

  9
$PUCSORG
 10
0.0
 20
0.0
 30
0.0
  9
$PUCSXDIR
 10
1.0
 20
0.0
 30
0.0
  9
$PUCSYDIR
 10
0.0
 20
1.0
 30
0.0
  9
$USERI1
 70
     0
  9
$USERI2
 70
     0
  9
$USERI3
 70
     0
  9
$USERI4
 70
     0
  9
$USERI5
 70
     0
  9
$USERR1
 40
0.0
  9
$USERR2
 40
0.0
  9
$USERR3
 40
0.0
  9
$USERR4
 40
0.0
  9
$USERR5
 40
0.0
  9
$WORLDVIEW
 70
     1
  9
$SHADEDGE
 70
     3
  9
$SHADEDIF
 70
    70
  9
$TILEMODE
 70
     1
  9
$MAXACTVP
 70
    16
  9
$PINSBASE
 10
0.0
 20
0.0
 30
0.0
  9
$PLIMCHECK
 70
     0
  9
$PEXTMIN
 10
0.0
 20
0.0
 30
0.0
  9
$PEXTMAX
 10
420.0
 20
297.0
 30
0.0
  9
$PLIMMIN
 10
0.0
 20
0.0
  9
$PLIMMAX
 10
420.0
 20
297.0
  9
$UNITMODE
 70
     0
  9
$VISRETAIN
 70
     0
  9
$PLINEGEN
 70
     0
  9
$PSLTSCALE
 70
     1
  9
$TREEDEPTH
 70
  3020
  9
$PICKSTYLE
 70
     1
  9
$CMLSTYLE
  2
STANDARD
  9
$CMLJUST
 70
     0
  9
$CMLSCALE
 40
1.0
  9
$SAVEIMAGES
 70
     1
  0
ENDSEC
  0
SECTION
  2
CLASSES
  0
CLASS
  1
ACDBDICTIONARYWDFLT
  2
AcDbDictionaryWithDefault
  3
AutoCAD 2000
 90
    32768
280
     0
281
     0
  0
CLASS
  1
ACDBPLACEHOLDER
  2
AcDbPlaceHolder
  3
AutoCAD 2000
 90
    32768
280
     0
281
     0
  0
CLASS
  1
LAYOUT
  2
AcDbLayout
  3
AutoCAD 2000
 90
    32768
280
     0
281
     0
  0
CLASS
  1
LONG_TRANSACTION
  2
AcDbLongTransaction
  3
AutoCAD 2000
 90
    32768
280
     0
281
     0
  0
CLASS
  1
LWPOLYLINE
  2
AcDbPolyline
  3
AutoCAD 2000
 90
    32768
280
     0
281
     1
  0
CLASS
  1
HATCH
  2
AcDbHatch
  3
AutoCAD 2000
 90
    32768
280
     0
281
     1
  0
CLASS
  1
XRECORD
  2
AcDbXrecord
  3
AutoCAD 2000
 90
    32768
280
     0
281
     0
  0
CLASS
  1
LONG_TRANSACTION
  2
AcDbLongTransaction
  3
AutoCAD 2000
 90
    32768
280
     0
281
     0
  0
CLASS
  1
LWPOLYLINE
  2
AcDbPolyline
  3
AutoCAD 2000
 90
    32768
280
     0
281
     1
  0
CLASS
  1
HATCH
  2
AcDbHatch
  3
AutoCAD 2000
 90
    32768
280
     0
281
     1
  0
CLASS
  1
XRECORD
  2
AcDbXrecord
  3
AutoCAD 2000
 90
    32768
280
     0
281
     0
  0
ENDSEC
  0
SECTION
  2
TABLES
  0
TABLE
  2
VPORT
  5
8
330
0
100
AcDbSymbolTable
 70
     2
  0
VPORT
  5
33C
330
8
100
AcDbSymbolTableRecord
100
AcDbViewportTableRecord
  2
*ACTIVE
 70
     0
 10
0.0
 20
0.0
 11
1.0
 21
1.0
 12
221.3185550011814
 22
146.1311067213611
 13
0.0
 23
0.0
 14
5.0
 24
5.0
 15
0.0
 25
0.0
 16
0.0
 26
0.0
 36
1.0
 17
0.0
 27
0.0
 37
0.0
 40
304.3653032669444
 41
1.788167938931297
 42
50.0
 43
0.0
 44
0.0
 50
0.0
 51
0.0
 71
     0
 72
   100
 73
     1
 74
     0
 75
     0
 76
     0
 77
     0
 78
     0
  0
ENDTAB
  0
TABLE
  2
LTYPE
  5
5
330
0
100
AcDbSymbolTable
 70
     2
  0
LTYPE
  5
14
330
5
100
AcDbSymbolTableRecord
100
AcDbLinetypeTableRecord
  2
BYBLOCK
 70
     0
  3

 72
    65
 73
     0
 40
0.0
  0
LTYPE
  5
15
330
5
100
AcDbSymbolTableRecord
100
AcDbLinetypeTableRecord
  2
BYLAYER
 70
     0
  3

 72
    65
 73
     0
 40
0.0
  0
LTYPE
  5
16
330
5
100
AcDbSymbolTableRecord
100
AcDbLinetypeTableRecord
  2
CONTINUOUS
 70
     0
  3
Solid line
 72
    65
 73
     0
 40
0.0
  0
LTYPE
  5
120
330
5
100
AcDbSymbolTableRecord
100
AcDbLinetypeTableRecord
  2
CENTER
 70
     0
  3
____ _ ____ _ ____ _ ____ _ ____ _ ____ _ ____ 
 72
    65
 73
     4
 40
2.0
 49
1.25
 74
     0
 49
-0.25
 74
     0
 49
0.25
 74
     0
 49
-0.25
 74
     0
  0
ENDTAB
  0
TABLE
  2
LAYER
  5
2
330
0
100
AcDbSymbolTable
 70
     7
  0
LAYER
  5
F
330
2
100
AcDbSymbolTableRecord
100
AcDbLayerTableRecord
  2
0
 70
     0
 62
     7
  6
CONTINUOUS
  0
LAYER
  5
62
330
2
100
AcDbSymbolTableRecord
100
AcDbLayerTableRecord
  2
VIEWPORT
 70
     0
 62
     7
  6
CONTINUOUS
  0
LAYER
  5
6B
330
2
100
AcDbSymbolTableRecord
100
AcDbLayerTableRecord
  2
ZUWAKU
 70
     0
 62
     7
  6
CONTINUOUS
  0
LAYER
  5
150
330
2
100
AcDbSymbolTableRecord
100
AcDbLayerTableRecord
  2
SEIHIN
 70
     0
 62
     3
  6
CONTINUOUS
  0
LAYER
  5
151
330
2
100
AcDbSymbolTableRecord
100
AcDbLayerTableRecord
  2
SUNPOU
 70
     0
 62
     4
  6
CONTINUOUS
  0
LAYER
  5
152
330
2
100
AcDbSymbolTableRecord
100
AcDbLayerTableRecord
  2
CENTER_L
 70
     0
 62
     1
  6
CENTER
  0
LAYER
  5
27C
330
2
100
AcDbSymbolTableRecord
100
AcDbLayerTableRecord
  2
DEFPOINTS
 70
     0
 62
     7
  6
CONTINUOUS
  0
ENDTAB
  0
TABLE
  2
STYLE
  5
3
330
0
100
AcDbSymbolTable
 70
     1
  0
STYLE
  5
10
330
3
100
AcDbSymbolTableRecord
100
AcDbTextStyleTableRecord
  2
STANDARD
 70
     0
 40
0.0
 41
1.0
 50
0.0
 71
     0
 42
2.5
  3
TXT
  4
bigfont.shx
  0
ENDTAB
  0
TABLE
  2
VIEW
  5
6
330
0
100
AcDbSymbolTable
 70
     0
  0
ENDTAB
  0
TABLE
  2
UCS
  5
7
330
0
100
AcDbSymbolTable
 70
     0
  0
ENDTAB
  0
TABLE
  2
APPID
  5
9
330
0
100
AcDbSymbolTable
 70
     1
  0
APPID
  5
11
330
9
100
AcDbSymbolTableRecord
100
AcDbRegAppTableRecord
  2
ACAD
 70
     0
  0
ENDTAB
  0
TABLE
  2
DIMSTYLE
  5
A
330
0
100
AcDbSymbolTable
 70
     1
  0
DIMSTYLE
105
1D
102
{ACAD_REACTORS
330
281
330
28E
330
29E
330
2AD
330
2BA
102
}
330
A
100
AcDbSymbolTableRecord
100
AcDbDimStyleTableRecord
  2
STANDARD
 70
     0
  3

  4

  5

  6

  7

 40
1.0
 41
0.18
 42
0.0625
 43
0.38
 44
0.18
 45
0.0
 46
0.0
 47
0.0
 48
0.0
140
0.18
141
0.09
142
0.0
143
25.4
144
1.0
145
0.0
146
1.0
147
0.09
 71
     0
 72
     0
 73
     1
 74
     1
 75
     0
 76
     0
 77
     0
 78
     0
170
     0
171
     2
172
     0
173
     0
174
     0
175
     0
176
     0
177
     0
178
     0
270
     2
271
     4
272
     4
273
     2
274
     2
340
10
275
     0
280
     0
281
     0
282
     0
283
     1
284
     0
285
     0
286
     0
287
     3
288
     0
  0
ENDTAB
  0
TABLE
  2
BLOCK_RECORD
  5
1
330
0
100
AcDbSymbolTable
 70
     6
  0
BLOCK_RECORD
  5
1A
102
{ACAD_XDICTIONARY
360
32E
102
}
330
1
100
AcDbSymbolTableRecord
100
AcDbBlockTableRecord
  2
*MODEL_SPACE
  0
BLOCK_RECORD
  5
17
102
{ACAD_XDICTIONARY
360
32C
102
}
330
1
100
AcDbSymbolTableRecord
100
AcDbBlockTableRecord
  2
*PAPER_SPACE
  0
BLOCK_RECORD
  5
B2
330
1
100
AcDbSymbolTableRecord
100
AcDbBlockTableRecord
  2
_OPEN
  0
BLOCK_RECORD
  5
272
330
1
100
AcDbSymbolTableRecord
100
AcDbBlockTableRecord
  2
*D1
  0
BLOCK_RECORD
  5
282
330
1
100
AcDbSymbolTableRecord
100
AcDbBlockTableRecord
  2
*D2
  0
BLOCK_RECORD
  5
292
330
1
100
AcDbSymbolTableRecord
100
AcDbBlockTableRecord
  2
*D3
  0
BLOCK_RECORD
  5
29F
330
1
100
AcDbSymbolTableRecord
100
AcDbBlockTableRecord
  2
*D4
  0
BLOCK_RECORD
  5
2AE
330
1
100
AcDbSymbolTableRecord
100
AcDbBlockTableRecord
  2
*D5
  0
ENDTAB
  0
ENDSEC
  0
SECTION
  2
BLOCKS
  0
BLOCK
  5
1B
330
1A
100
AcDbEntity
  8
0
100
AcDbBlockBegin
  2
*MODEL_SPACE
 70
     0
 10
0.0
 20
0.0
 30
0.0
  3
*MODEL_SPACE
  1

  0
ENDBLK
  5
1C
330
1A
100
AcDbEntity
  8
0
100
AcDbBlockEnd
  0
BLOCK
  5
18
330
17
100
AcDbEntity
 67
     1
  8
0
100
AcDbBlockBegin
  2
*PAPER_SPACE
 70
     0
 10
0.0
 20
0.0
 30
0.0
  3
*PAPER_SPACE
  1

  0
ENDBLK
  5
19
330
17
100
AcDbEntity
 67
     1
  8
0
100
AcDbBlockEnd
  0
BLOCK
  5
B3
330
B2
100
AcDbEntity
  8
0
100
AcDbBlockBegin
  2
_OPEN
 70
     0
 10
0.0
 20
0.0
 30
0.0
  3
_OPEN
  1

  0
LINE
  5
B4
330
B2
100
AcDbEntity
  8
0
  6
BYBLOCK
 62
     0
100
AcDbLine
 10
-1.0
 20
0.1666666666666666
 30
0.0
 11
0.0
 21
0.0
 31
0.0
  0
LINE
  5
B5
330
B2
100
AcDbEntity
  8
0
  6
BYBLOCK
 62
     0
100
AcDbLine
 10
0.0
 20
0.0
 30
0.0
 11
-1.0
 21
-0.1666666666666666
 31
0.0
  0
LINE
  5
B6
330
B2
100
AcDbEntity
  8
0
  6
BYBLOCK
 62
     0
100
AcDbLine
 10
0.0
 20
0.0
 30
0.0
 11
-1.0
 21
0.0
 31
0.0
  0
ENDBLK
  5
B7
330
B2
100
AcDbEntity
  8
0
100
AcDbBlockEnd
  0
BLOCK
  5
2E4
330
272
100
AcDbEntity
  8
0
100
AcDbBlockBegin
  2
*D1
 70
     1
 10
0.0
 20
0.0
 30
0.0
  3
*D1
  1

  0
LINE
  5
2E5
330
272
100
AcDbEntity
  8
0
  6
BYBLOCK
 62
     4
100
AcDbLine
 10
211.822212873831
 20
187.8646303241272
 30
0.0
 11
235.4372197159159
 21
187.8646303241272
 31
0.0
  0
LINE
  5
2E6
330
272
100
AcDbEntity
  8
0
  6
BYBLOCK
 62
     4
100
AcDbLine
 10
221.008612873831
 20
177.664630324127
 30
0.0
 11
235.4372197159159
 21
177.664630324127
 31
0.0
  0
LINE
  5
2E7
330
272
100
AcDbEntity
  8
0
  6
BYBLOCK
 62
     4
100
AcDbLine
 10
233.9372197159159
 20
190.8646303241272
 30
0.0
 11
233.9372197159159
 21
193.8646303241272
 31
0.0
  0
LINE
  5
2E8
330
272
100
AcDbEntity
  8
0
  6
BYBLOCK
 62
     4
100
AcDbLine
 10
233.9372197159159
 20
174.664630324127
 30
0.0
 11
233.9372197159159
 21
171.664630324127
 31
0.0
  0
LINE
  5
2E9
330
272
100
AcDbEntity
  8
0
  6
BYBLOCK
 62
     4
100
AcDbLine
 10
233.9372197159159
 20
187.8646303241272
 30
0.0
 11
233.9372197159159
 21
177.664630324127
 31
0.0
  0
INSERT
  5
2EA
330
272
100
AcDbEntity
  8
0
  6
BYBLOCK
 62
     4
100
AcDbBlockReference
  2
_OPEN
 10
233.9372197159159
 20
187.8646303241272
 30
0.0
 41
3.0
 42
3.0
 43
3.0
 50
270.0
  0
INSERT
  5
2EB
330
272
100
AcDbEntity
  8
0
  6
BYBLOCK
 62
     4
100
AcDbBlockReference
  2
_OPEN
 10
233.9372197159159
 20
177.664630324127
 30
0.0
 41
3.0
 42
3.0
 43
3.0
 50
90.0
  0
MTEXT
  5
2EC
330
272
100
AcDbEntity
  8
0
  6
BYBLOCK
 62
     4
100
AcDbMText
 10
231.4372197159159
 20
182.7646303241271
 30
0.0
 40
3.0
 41
0.0
 71
     5
 72
     1
  1
\A1;※10
 11
0.0
 21
1.0
 31
0.0
1001
ACAD
1000
MTEXTBEGIN
1070
    73
1070
     1
1070
    44
1040
1.0
1070
    74
1070
     0
1000
MTEXTEND
1000
MTEXTBEGIN
1070
    73
1070
     1
1070
    44
1040
1.0
1070
    74
1070
     0
1000
MTEXTEND
  0
POINT
  5
2ED
330
272
100
AcDbEntity
  8
DEFPOINTS
  6
BYBLOCK
 62
     0
100
AcDbPoint
 10
208.822212873831
 20
187.8646303241272
 30
0.0
  0
POINT
  5
2EE
330
272
100
AcDbEntity
  8
DEFPOINTS
  6
BYBLOCK
 62
     0
100
AcDbPoint
 10
218.008612873831
 20
177.664630324127
 30
0.0
  0
POINT
  5
2EF
330
272
100
AcDbEntity
  8
DEFPOINTS
  6
BYBLOCK
 62
     0
100
AcDbPoint
 10
233.9372197159159
 20
177.664630324127
 30
0.0
  0
ENDBLK
  5
2F0
330
272
100
AcDbEntity
  8
0
100
AcDbBlockEnd
  0
BLOCK
  5
283
330
282
100
AcDbEntity
  8
0
100
AcDbBlockBegin
  2
*D2
 70
     1
 10
0.0
 20
0.0
 30
0.0
  3
*D2
  1

  0
LINE
  5
284
330
282
100
AcDbEntity
  8
0
  6
BYBLOCK
 62
     4
100
AcDbLine
 10
211.4345654508739
 20
196.9785586329195
 30
0.0
 11
234.9715208739148
 21
196.9785586329195
 31
0.0
  0
LINE
  5
285
330
282
100
AcDbEntity
  8
0
  6
BYBLOCK
 62
     4
100
AcDbLine
 10
209.4344654508737
 20
175.1785586329195
 30
0.0
 11
234.9715208739148
 21
175.1785586329195
 31
0.0
  0
LINE
  5
286
330
282
100
AcDbEntity
  8
0
  6
BYBLOCK
 62
     4
100
AcDbLine
 10
233.4715208739148
 20
193.9785586329195
 30
0.0
 11
233.4715208739148
 21
178.1785586329196
 31
0.0
  0
INSERT
  5
287
330
282
100
AcDbEntity
  8
0
  6
BYBLOCK
 62
     4
100
AcDbBlockReference
  2
_OPEN
 10
233.4715208739148
 20
196.9785586329195
 30
0.0
 41
3.0
 42
3.0
 43
3.0
 50
90.0
  0
INSERT
  5
288
330
282
100
AcDbEntity
  8
0
  6
BYBLOCK
 62
     4
100
AcDbBlockReference
  2
_OPEN
 10
233.4715208739148
 20
175.1785586329195
 30
0.0
 41
3.0
 42
3.0
 43
3.0
 50
270.0
  0
MTEXT
  5
289
330
282
100
AcDbEntity
  8
0
  6
BYBLOCK
 62
     4
100
AcDbMText
 10
230.9715208739148
 20
186.0785586329195
 30
0.0
 40
3.0
 41
0.0
 71
     5
 72
     1
  1
\A1;22
 11
0.0
 21
1.0
 31
0.0
1001
ACAD
1000
MTEXTBEGIN
1070
    73
1070
     1
1070
    44
1040
1.0
1070
    74
1070
     0
1000
MTEXTEND
1000
MTEXTBEGIN
1070
    73
1070
     1
1070
    44
1040
1.0
1070
    74
1070
     0
1000
MTEXTEND
  0
POINT
  5
28A
330
282
100
AcDbEntity
  8
DEFPOINTS
  6
BYBLOCK
 62
     0
100
AcDbPoint
 10
208.4345654508739
 20
196.9785586329195
 30
0.0
  0
POINT
  5
28B
330
282
100
AcDbEntity
  8
DEFPOINTS
  6
BYBLOCK
 62
     0
100
AcDbPoint
 10
206.4344654508738
 20
175.1785586329195
 30
0.0
  0
POINT
  5
28C
330
282
100
AcDbEntity
  8
DEFPOINTS
  6
BYBLOCK
 62
     0
100
AcDbPoint
 10
233.4715208739148
 20
175.1785586329195
 30
0.0
  0
ENDBLK
  5
28D
330
282
100
AcDbEntity
  8
0
100
AcDbBlockEnd
  0
BLOCK
  5
293
330
292
100
AcDbEntity
  8
0
100
AcDbBlockBegin
  2
*D3
 70
     1
 10
0.0
 20
0.0
 30
0.0
  3
*D3
  1

  0
LINE
  5
294
330
292
100
AcDbEntity
  8
0
  6
BYBLOCK
 62
     4
100
AcDbLine
 10
211.4344654508737
 20
95.39525863291949
 30
0.0
 11
222.8713552364292
 21
95.39525863291949
 31
0.0
  0
LINE
  5
295
330
292
100
AcDbEntity
  8
0
  6
BYBLOCK
 62
     4
100
AcDbLine
 10
187.6844654507703
 20
76.48712498696554
 30
0.0
 11
222.8713552364292
 21
76.48712498696554
 31
0.0
  0
LINE
  5
296
330
292
100
AcDbEntity
  8
0
  6
BYBLOCK
 62
     4
100
AcDbLine
 10
221.3713552364292
 20
92.3952586329195
 30
0.0
 11
221.3713552364292
 21
79.48712498696554
 31
0.0
  0
INSERT
  5
297
330
292
100
AcDbEntity
  8
0
  6
BYBLOCK
 62
     4
100
AcDbBlockReference
  2
_OPEN
 10
221.3713552364292
 20
95.39525863291949
 30
0.0
 41
3.0
 42
3.0
 43
3.0
 50
90.0
  0
INSERT
  5
298
330
292
100
AcDbEntity
  8
0
  6
BYBLOCK
 62
     4
100
AcDbBlockReference
  2
_OPEN
 10
221.3713552364292
 20
76.48712498696554
 30
0.0
 41
3.0
 42
3.0
 43
3.0
 50
270.0
  0
MTEXT
  5
299
330
292
100
AcDbEntity
  8
0
  6
BYBLOCK
 62
     4
100
AcDbMText
 10
218.8713552364292
 20
85.94119180994253
 30
0.0
 40
3.0
 41
0.0
 71
     5
 72
     1
  1
\A1;19
 11
0.0
 21
1.0
 31
0.0
1001
ACAD
1000
MTEXTBEGIN
1070
    73
1070
     1
1070
    44
1040
1.0
1070
    74
1070
     0
1000
MTEXTEND
1000
MTEXTBEGIN
1070
    73
1070
     1
1070
    44
1040
1.0
1070
    74
1070
     0
1000
MTEXTEND
  0
POINT
  5
29A
330
292
100
AcDbEntity
  8
DEFPOINTS
  6
BYBLOCK
 62
     0
100
AcDbPoint
 10
208.4344654508738
 20
95.39525863291949
 30
0.0
  0
POINT
  5
29B
330
292
100
AcDbEntity
  8
DEFPOINTS
  6
BYBLOCK
 62
     0
100
AcDbPoint
 10
184.6844654507703
 20
76.48712498696554
 30
0.0
  0
POINT
  5
29C
330
292
100
AcDbEntity
  8
DEFPOINTS
  6
BYBLOCK
 62
     0
100
AcDbPoint
 10
221.3713552364292
 20
76.48712498696554
 30
0.0
  0
ENDBLK
  5
29D
330
292
100
AcDbEntity
  8
0
100
AcDbBlockEnd
  0
BLOCK
  5
2A0
330
29F
100
AcDbEntity
  8
0
100
AcDbBlockBegin
  2
*D4
 70
     1
 10
0.0
 20
0.0
 30
0.0
  3
*D4
  1

  0
LINE
  5
2A1
330
29F
100
AcDbEntity
  8
0
  6
BYBLOCK
 62
     4
100
AcDbLine
 10
208.4344654508738
 20
98.3952586329195
 30
0.0
 11
208.4344654508738
 21
105.9706924701208
 31
0.0
  0
LINE
  5
2A2
330
29F
100
AcDbEntity
  8
0
  6
BYBLOCK
 62
     4
100
AcDbLine
 10
196.4344654508737
 20
94.69595863291949
 30
0.0
 11
196.4344654508737
 21
105.9706924701208
 31
0.0
  0
LINE
  5
2A3
330
29F
100
AcDbEntity
  8
0
  6
BYBLOCK
 62
     4
100
AcDbLine
 10
211.4344654508737
 20
104.4706924701208
 30
0.0
 11
214.4344654508738
 21
104.4706924701208
 31
0.0
  0
LINE
  5
2A4
330
29F
100
AcDbEntity
  8
0
  6
BYBLOCK
 62
     4
100
AcDbLine
 10
193.4344654508738
 20
104.4706924701208
 30
0.0
 11
190.4344654508738
 21
104.4706924701208
 31
0.0
  0
LINE
  5
2A5
330
29F
100
AcDbEntity
  8
0
  6
BYBLOCK
 62
     4
100
AcDbLine
 10
208.4344654508738
 20
104.4706924701208
 30
0.0
 11
196.4344654508737
 21
104.4706924701208
 31
0.0
  0
INSERT
  5
2A6
330
29F
100
AcDbEntity
  8
0
  6
BYBLOCK
 62
     4
100
AcDbBlockReference
  2
_OPEN
 10
208.4344654508738
 20
104.4706924701208
 30
0.0
 41
3.0
 42
3.0
 43
3.0
 50
180.0
  0
INSERT
  5
2A7
330
29F
100
AcDbEntity
  8
0
  6
BYBLOCK
 62
     4
100
AcDbBlockReference
  2
_OPEN
 10
196.4344654508737
 20
104.4706924701208
 30
0.0
 41
3.0
 42
3.0
 43
3.0
  0
MTEXT
  5
2A8
330
29F
100
AcDbEntity
  8
0
  6
BYBLOCK
 62
     4
100
AcDbMText
 10
202.4344654508738
 20
106.9706924701208
 30
0.0
 40
3.0
 41
0.0
 71
     5
 72
     1
  1
\A1;12
1001
ACAD
1000
MTEXTBEGIN
1070
    73
1070
     1
1070
    44
1040
1.0
1070
    74
1070
     0
1000
MTEXTEND
1000
MTEXTBEGIN
1070
    73
1070
     1
1070
    44
1040
1.0
1070
    74
1070
     0
1000
MTEXTEND
  0
POINT
  5
2A9
330
29F
100
AcDbEntity
  8
DEFPOINTS
  6
BYBLOCK
 62
     0
100
AcDbPoint
 10
208.4344654508738
 20
95.39525863291949
 30
0.0
  0
POINT
  5
2AA
330
29F
100
AcDbEntity
  8
DEFPOINTS
  6
BYBLOCK
 62
     0
100
AcDbPoint
 10
196.4344654508737
 20
91.6959586329195
 30
0.0
  0
POINT
  5
2AB
330
29F
100
AcDbEntity
  8
DEFPOINTS
  6
BYBLOCK
 62
     0
100
AcDbPoint
 10
196.4344654508737
 20
104.4706924701208
 30
0.0
  0
ENDBLK
  5
2AC
330
29F
100
AcDbEntity
  8
0
100
AcDbBlockEnd
  0
BLOCK
  5
2AF
330
2AE
100
AcDbEntity
  8
0
100
AcDbBlockBegin
  2
*D5
 70
     1
 10
0.0
 20
0.0
 30
0.0
  3
*D5
  1

  0
LINE
  5
2B0
330
2AE
100
AcDbEntity
  8
0
  6
BYBLOCK
 62
     4
100
AcDbLine
 10
208.4344654508738
 20
98.3952586329195
 30
0.0
 11
208.4344654508738
 21
116.6157631960264
 31
0.0
  0
LINE
  5
2B1
330
2AE
100
AcDbEntity
  8
0
  6
BYBLOCK
 62
     4
100
AcDbLine
 10
158.4345654508739
 20
98.39535863291949
 30
0.0
 11
158.4345654508739
 21
116.6157631960264
 31
0.0
  0
LINE
  5
2B2
330
2AE
100
AcDbEntity
  8
0
  6
BYBLOCK
 62
     4
100
AcDbLine
 10
205.4344654508738
 20
115.1157631960264
 30
0.0
 11
161.4345654508739
 21
115.1157631960264
 31
0.0
  0
INSERT
  5
2B3
330
2AE
100
AcDbEntity
  8
0
  6
BYBLOCK
 62
     4
100
AcDbBlockReference
  2
_OPEN
 10
208.4344654508738
 20
115.1157631960264
 30
0.0
 41
3.0
 42
3.0
 43
3.0
  0
INSERT
  5
2B4
330
2AE
100
AcDbEntity
  8
0
  6
BYBLOCK
 62
     4
100
AcDbBlockReference
  2
_OPEN
 10
158.4345654508739
 20
115.1157631960264
 30
0.0
 41
3.0
 42
3.0
 43
3.0
 50
180.0
  0
MTEXT
  5
2B5
330
2AE
100
AcDbEntity
  8
0
  6
BYBLOCK
 62
     4
100
AcDbMText
 10
183.4345154508738
 20
117.6157631960264
 30
0.0
 40
3.0
 41
0.0
 71
     5
 72
     1
  1
\A1;50
1001
ACAD
1000
MTEXTBEGIN
1070
    73
1070
     1
1070
    44
1040
1.0
1070
    74
1070
     0
1000
MTEXTEND
1000
MTEXTBEGIN
1070
    73
1070
     1
1070
    44
1040
1.0
1070
    74
1070
     0
1000
MTEXTEND
  0
POINT
  5
2B6
330
2AE
100
AcDbEntity
  8
DEFPOINTS
  6
BYBLOCK
 62
     0
100
AcDbPoint
 10
208.4344654508738
 20
95.39525863291949
 30
0.0
  0
POINT
  5
2B7
330
2AE
100
AcDbEntity
  8
DEFPOINTS
  6
BYBLOCK
 62
     0
100
AcDbPoint
 10
158.4345654508739
 20
95.3953586329195
 30
0.0
  0
POINT
  5
2B8
330
2AE
100
AcDbEntity
  8
DEFPOINTS
  6
BYBLOCK
 62
     0
100
AcDbPoint
 10
158.4345654508739
 20
115.1157631960264
 30
0.0
  0
ENDBLK
  5
2B9
330
2AE
100
AcDbEntity
  8
0
100
AcDbBlockEnd
  0
ENDSEC
  0
SECTION
  2
ENTITIES
  0
LINE
  5
6C
330
1A
100
AcDbEntity
  8
ZUWAKU
  6
CONTINUOUS
 62
     7
100
AcDbLine
 10
403.0
 20
7.0
 30
0.0
 11
5.0
 21
7.0
 31
0.0
  0
LINE
  5
6D
330
1A
100
AcDbEntity
  8
ZUWAKU
  6
CONTINUOUS
 62
     7
100
AcDbLine
 10
5.0
 20
282.0
 30
0.0
 11
5.0
 21
7.0
 31
0.0
  0
LINE
  5
6E
330
1A
100
AcDbEntity
  8
ZUWAKU
  6
CONTINUOUS
 62
     7
100
AcDbLine
 10
403.0
 20
282.0
 30
0.0
 11
403.0
 21
7.0
 31
0.0
  0
LINE
  5
6F
330
1A
100
AcDbEntity
  8
ZUWAKU
  6
CONTINUOUS
 62
     7
100
AcDbLine
 10
403.0
 20
282.0
 30
0.0
 11
5.0
 21
282.0
 31
0.0
  0
LINE
  5
8E
330
1A
100
AcDbEntity
  8
ZUWAKU
 62
     7
 48
10.0
100
AcDbLine
 10
5.0
 20
13.0
 30
0.0
 11
403.0
 21
12.99999999999994
 31
0.0
  0
TEXT
  5
93
330
1A
100
AcDbEntity
  8
ZUWAKU
 62
     7
100
AcDbText
 10
8.003143713074223
 20
7.870178177610682
 30
0.0
 40
4.0
  1
品 種
100
AcDbText
  0
TEXT
  5
97
330
1A
100
AcDbEntity
  8
ZUWAKU
 62
     7
100
AcDbText
 10
107.7028028167073
 20
8.200497435100942
 30
0.0
 40
4.0
  1
品名・ｻ ｲ ｽﾞ
100
AcDbText
  0
TEXT
  5
99
330
1A
100
AcDbEntity
  8
ZUWAKU
 62
     7
100
AcDbText
 10
141.1313324528735
 20
7.9299153608506
 30
0.0
 40
4.0
  1
じょうご用ストッパー
100
AcDbText
  0
LINE
  5
9A
330
1A
100
AcDbEntity
  8
ZUWAKU
 62
     7
 48
10.0
100
AcDbLine
 10
324.3551403257206
 20
6.999999999999836
 30
0.0
 11
324.3551403257206
 21
12.99999999999995
 31
0.0
  0
LINE
  5
9B
330
1A
100
AcDbEntity
  8
ZUWAKU
 62
     7
 48
10.0
100
AcDbLine
 10
307.142312366876
 20
6.999999999999836
 30
0.0
 11
307.142312366876
 21
12.99999999999995
 31
0.0
  0
TEXT
  5
9C
330
1A
100
AcDbEntity
  8
ZUWAKU
 62
     7
100
AcDbText
 10
310.1429253763237
 20
7.934661405801826
 30
0.0
 40
4.0
  1
品 番
100
AcDbText
  0
TEXT
  5
9D
330
1A
100
AcDbEntity
  8
ZUWAKU
 62
     7
100
AcDbText
 10
327.1013476411085
 20
8.060146781246267
 30
0.0
 40
4.0
  1
ＧＨ９７
100
AcDbText
  0
TEXT
  5
9E
330
1A
100
AcDbEntity
  8
ZUWAKU
 62
     7
 48
10.0
100
AcDbText
 10
322.9513761015196
 20
2.449000558492457
 30
0.0
 40
4.0
  1
積水化学工業株式会社  建材
100
AcDbText
  0
TEXT
  5
A1
330
1A
100
AcDbEntity
  8
ZUWAKU
 62
     7
100
AcDbText
 10
389.843492473331
 20
7.886151458996323
 30
0.0
 40
4.0
  1
1/1
100
AcDbText
  0
TEXT
  5
A2
330
1A
100
AcDbEntity
  8
ZUWAKU
 62
     7
100
AcDbText
 10
369.8225424558458
 20
7.729845637642938
 30
0.0
 40
4.0
  1
尺 度
100
AcDbText
  0
LINE
  5
A3
330
1A
100
AcDbEntity
  8
ZUWAKU
 62
     7
 48
10.0
100
AcDbLine
 10
366.8807110760169
 20
6.999999999999886
 30
0.0
 11
366.8807110760169
 21
12.99999999999994
 31
0.0
  0
TEXT
  5
A6
330
1A
100
AcDbEntity
  8
ZUWAKU
 62
     7
 48
10.0
100
AcDbText
 10
396.1622424237184
 20
2.480970960763784
 30
0.0
 40
4.0
  1
A3
100
AcDbText
  0
LINE
  5
F5
330
1A
100
AcDbEntity
  8
ZUWAKU
 62
     7
 48
10.0
100
AcDbLine
 10
22.25374857290876
 20
7.0
 30
0.0
 11
22.25374857290876
 21
13.0
 31
0.0
  0
LINE
  5
F6
330
1A
100
AcDbEntity
  8
ZUWAKU
 62
     7
 48
10.0
100
AcDbLine
 10
104.7316872784438
 20
7.0
 30
0.0
 11
104.7316872784438
 21
12.99999999999998
 31
0.0
  0
LINE
  5
F8
330
1A
100
AcDbEntity
  8
ZUWAKU
 62
     7
 48
10.0
100
AcDbLine
 10
138.0261803105822
 20
7.0
 30
0.0
 11
138.0261803105822
 21
12.99999999999998
 31
0.0
  0
LINE
  5
100
330
1A
100
AcDbEntity
  8
ZUWAKU
 62
     7
 48
10.0
100
AcDbLine
 10
384.3363149538092
 20
6.999999999999862
 30
0.0
 11
384.3363149538092
 21
12.99999999999994
 31
0.0
  0
ARC
  5
1DB
330
1A
100
AcDbEntity
  8
SEIHIN
  6
CONTINUOUS
 62
     3
 48
8.0
100
AcDbCircle
 10
214.1207053519494
 20
99.57371113162523
 30
0.0
 40
2.500052267428372
100
AcDbArc
 50
284.9631415725763
 51
32.2352329237672
  0
ARC
  5
1DC
330
1A
100
AcDbEntity
  8
SEIHIN
  6
CONTINUOUS
 62
     3
 48
8.0
100
AcDbCircle
 10
214.5721122338305
 20
97.26973061778622
 30
0.0
 40
1.249999359999597
100
AcDbArc
 50
180.0000134603471
 51
310.7047192087332
  0
ARC
  5
1DD
330
1A
100
AcDbEntity
  8
SEIHIN
  6
CONTINUOUS
 62
     3
 48
8.0
100
AcDbCircle
 10
195.8223155240662
 20
167.8647308273859
 30
0.0
 40
68.200000503336
100
AcDbArc
 50
269.9999137620938
 51
291.504075492922
  0
ARC
  5
1DE
330
1A
100
AcDbEntity
  8
SEIHIN
  6
CONTINUOUS
 62
     3
 48
8.0
100
AcDbCircle
 10
195.8230140072991
 20
167.8649431052697
 30
0.0
 40
66.60003553920148
100
AcDbArc
 50
283.3851255371413
 51
290.3777784177106
  0
ARC
  5
1DF
330
1A
100
AcDbEntity
  8
SEIHIN
  6
CONTINUOUS
 62
     3
 48
8.0
100
AcDbCircle
 10
195.8227699690339
 20
167.8648712350191
 30
0.0
 40
64.80003016507403
100
AcDbArc
 50
281.5725501670915
 51
292.6930224965041
  0
LINE
  5
1E0
330
1A
100
AcDbEntity
  8
SEIHIN
  6
CONTINUOUS
 62
     3
 48
8.0
100
AcDbLine
 10
218.008612873831
 20
177.664630324127
 30
0.0
 11
211.635712873831
 21
177.664630324127
 31
0.0
  0
LINE
  5
1E1
330
1A
100
AcDbEntity
  8
SEIHIN
  6
CONTINUOUS
 62
     3
 48
8.0
100
AcDbLine
 10
220.822212873831
 20
189.6646303241272
 30
0.0
 11
208.822212873831
 21
189.6646303241272
 31
0.0
  0
LINE
  5
1E2
330
1A
100
AcDbEntity
  8
SEIHIN
  6
CONTINUOUS
 62
     3
 48
8.0
100
AcDbLine
 10
218.8221128738309
 20
167.8646303241272
 30
0.0
 11
195.8221128738309
 21
167.8647303241272
 31
0.0
  0
ARC
  5
1E7
330
1A
100
AcDbEntity
  8
SEIHIN
  6
CONTINUOUS
 62
     3
 48
8.0
100
AcDbCircle
 10
210.777497503155
 20
105.0196367026961
 30
0.0
 40
2.000039135888631
100
AcDbArc
 50
211.5399503169987
 51
283.3855849441218
  0
ARC
  5
1E8
330
1A
100
AcDbEntity
  8
SEIHIN
  6
CONTINUOUS
 62
     3
 48
8.0
100
AcDbCircle
 10
180.8669048201781
 20
105.0196684796729
 30
0.0
 40
1.999990495749208
100
AcDbArc
 50
256.6118284464398
 51
328.4581262849914
  0
ARC
  5
1E9
330
1A
100
AcDbEntity
  8
SEIHIN
  6
CONTINUOUS
 62
     3
 48
8.0
100
AcDbCircle
 10
195.8223372477286
 20
167.8646925786018
 30
0.0
 40
66.60002922639565
100
AcDbArc
 50
249.6213701959355
 51
256.6139662939635
  0
ARC
  5
1EA
330
1A
100
AcDbEntity
  8
SEIHIN
  6
CONTINUOUS
 62
     3
 48
8.0
100
AcDbCircle
 10
195.8220171843484
 20
167.8647674847252
 30
0.0
 40
68.20003716059813
100
AcDbArc
 50
248.4959303552437
 51
269.9999963786757
  0
LINE
  5
1EC
330
1A
100
AcDbEntity
  8
CENTER_L
  6
CENTER
 62
     1
 48
5.0
100
AcDbLine
 10
195.822212873831
 20
104.8029303241271
 30
0.0
 11
195.8221128738309
 21
85.15433032412722
 31
0.0
  0
LINE
  5
1ED
330
1A
100
AcDbEntity
  8
SEIHIN
  6
CONTINUOUS
 62
     3
 48
8.0
100
AcDbLine
 10
208.8221128738309
 20
104.3820303241271
 30
0.0
 11
208.8221128738309
 21
100.9151303241271
 31
0.0
  0
LINE
  5
1EE
330
1A
100
AcDbEntity
  8
SEIHIN
  6
CONTINUOUS
 62
     3
 48
8.0
100
AcDbLine
 10
182.822212873831
 20
104.3820303241271
 30
0.0
 11
182.822212873831
 21
100.9151303241271
 31
0.0
  0
LINE
  5
1EF
330
1A
100
AcDbEntity
  8
SEIHIN
  6
CONTINUOUS
 62
     3
 48
8.0
100
AcDbLine
 10
170.822212873831
 20
108.0814303241271
 30
0.0
 11
170.822212873831
 21
102.4812303241272
 31
0.0
  0
ARC
  5
1F0
330
1A
100
AcDbEntity
  8
SEIHIN
  6
CONTINUOUS
 62
     3
 48
8.0
100
AcDbCircle
 10
195.8223520738671
 20
167.8647119976366
 30
0.0
 40
70.00002731066847
100
AcDbArc
 50
256.9544158114301
 51
268.0449847443946
  0
ARC
  5
1F1
330
1A
100
AcDbEntity
  8
SEIHIN
  6
CONTINUOUS
 62
     3
 48
8.0
100
AcDbCircle
 10
183.3221943261062
 20
93.17391868278797
 30
0.0
 40
1.250018547778986
100
AcDbArc
 50
244.2287862799644
 51
0.0005335917682589
  0
ARC
  5
1F2
330
1A
100
AcDbEntity
  8
SEIHIN
  6
CONTINUOUS
 62
     3
 48
8.0
100
AcDbCircle
 10
183.3222314215558
 20
93.17390077270816
 30
0.0
 40
1.250018548074087
100
AcDbArc
 50
179.9986454828261
 51
244.226898171023
  0
ARC
  5
1F3
330
1A
100
AcDbEntity
  8
SEIHIN
  6
CONTINUOUS
 62
     3
 48
8.0
100
AcDbCircle
 10
177.5235118220932
 20
99.57373300766724
 30
0.0
 40
2.49994876047441
100
AcDbArc
 50
147.763863879002
 51
255.0388001226195
  0
ARC
  5
1F4
330
1A
100
AcDbEntity
  8
SEIHIN
  6
CONTINUOUS
 62
     3
 48
8.0
100
AcDbCircle
 10
177.0721809046486
 20
97.26981565649573
 30
0.0
 40
1.250031969268498
100
AcDbArc
 50
229.2924919405284
 51
0.0006722975102354
  0
ARC
  5
1F5
330
1A
100
AcDbEntity
  8
SEIHIN
  6
CONTINUOUS
 62
     3
 48
8.0
100
AcDbCircle
 10
195.8222076734625
 20
119.0643362174601
 30
0.0
 40
30.00006901758828
100
AcDbArc
 50
213.5571809399689
 51
229.2942115493396
  0
ARC
  5
1F6
330
1A
100
AcDbEntity
  8
SEIHIN
  6
CONTINUOUS
 62
     3
 48
8.0
100
AcDbCircle
 10
195.8215537931072
 20
167.8649564912576
 30
0.0
 40
70.00002638409987
100
AcDbArc
 50
249.0756657530852
 51
253.0456025852557
  0
ARC
  5
1F7
330
1A
100
AcDbEntity
  8
SEIHIN
  6
CONTINUOUS
 62
     3
 48
8.0
100
AcDbCircle
 10
177.5235883079455
 20
99.57379062194137
 30
0.0
 40
2.500024168331796
100
AcDbArc
 50
255.0374475183143
 51
2.233697663340326
  0
LINE
  5
1F8
330
1A
100
AcDbEntity
  8
SEIHIN
  6
CONTINUOUS
 62
     3
 48
8.0
100
AcDbLine
 10
182.072212873831
 20
99.22843032412716
 30
0.0
 11
182.072212873831
 21
93.17393032412722
 31
0.0
  0
ARC
  5
1F9
330
1A
100
AcDbEntity
  8
SEIHIN
  6
CONTINUOUS
 62
     3
 48
8.0
100
AcDbCircle
 10
198.3220953180774
 20
90.42321116920982
 30
0.0
 40
1.250017555900234
100
AcDbArc
 50
274.9894795263884
 51
0.0008779844086212
  0
ARC
  5
1FA
330
1A
100
AcDbEntity
  8
SEIHIN
  6
CONTINUOUS
 62
     3
 48
8.0
100
AcDbCircle
 10
195.8221819507589
 20
167.8647130883071
 30
0.0
 40
70.00001106276416
100
AcDbArc
 50
271.9545994370238
 51
283.0451602182467
  0
LINE
  5
1FB
330
1A
100
AcDbEntity
  8
SEIHIN
  6
CONTINUOUS
 62
     3
 48
8.0
100
AcDbLine
 10
187.072212873831
 20
98.41373032412723
 30
0.0
 11
187.072212873831
 21
91.30983032412716
 31
0.0
  0
LINE
  5
1FC
330
1A
100
AcDbEntity
  8
SEIHIN
  6
CONTINUOUS
 62
     3
 48
8.0
100
AcDbLine
 10
189.572212873831
 20
98.14423032412724
 30
0.0
 11
189.572212873831
 21
91.30983032412716
 31
0.0
  0
LINE
  5
1FD
330
1A
100
AcDbEntity
  8
SEIHIN
  6
CONTINUOUS
 62
     3
 48
8.0
100
AcDbLine
 10
194.572212873831
 20
94.99963032412724
 30
0.0
 11
194.572212873831
 21
90.42323032412722
 31
0.0
  0
LINE
  5
1FE
330
1A
100
AcDbEntity
  8
SEIHIN
  6
CONTINUOUS
 62
     3
 48
8.0
100
AcDbLine
 10
192.072212873831
 20
97.96523032412714
 30
0.0
 11
192.072212873831
 21
90.42323032412722
 31
0.0
  0
LINE
  5
1FF
330
1A
100
AcDbEntity
  8
SEIHIN
  6
CONTINUOUS
 62
     3
 48
8.0
100
AcDbLine
 10
199.5721128738309
 20
97.96513032412724
 30
0.0
 11
199.5721128738309
 21
90.42323032412722
 31
0.0
  0
LINE
  5
200
330
1A
100
AcDbEntity
  8
SEIHIN
  6
CONTINUOUS
 62
     3
 48
8.0
100
AcDbLine
 10
197.072112873831
 20
94.99963032412724
 30
0.0
 11
197.072112873831
 21
90.42323032412722
 31
0.0
  0
ARC
  5
201
330
1A
100
AcDbEntity
  8
SEIHIN
  6
CONTINUOUS
 62
     3
 48
8.0
100
AcDbCircle
 10
193.3222304295845
 20
90.42321116920982
 30
0.0
 40
1.250017555900235
100
AcDbArc
 50
179.9991220155913
 51
265.0105204736115
  0
ARC
  5
202
330
1A
100
AcDbEntity
  8
SEIHIN
  6
CONTINUOUS
 62
     3
 48
8.0
100
AcDbCircle
 10
188.3222060937942
 20
91.30983917962071
 30
0.0
 40
1.249993219994555
100
AcDbArc
 50
180.0004059081262
 51
254.8779533112229
  0
ARC
  5
203
330
1A
100
AcDbEntity
  8
SEIHIN
  6
CONTINUOUS
 62
     3
 48
8.0
100
AcDbCircle
 10
188.3222196538678
 20
91.30983551513079
 30
0.0
 40
1.249993219973968
100
AcDbArc
 50
254.8773094637262
 51
359.9997620606301
  0
ARC
  5
204
330
1A
100
AcDbEntity
  8
SEIHIN
  6
CONTINUOUS
 62
     3
 48
8.0
100
AcDbCircle
 10
193.3221953180776
 20
90.42321423403018
 30
0.0
 40
1.250017555857021
100
AcDbArc
 50
265.0121359633835
 51
0.0007375053642576
  0
ARC
  5
205
330
1A
100
AcDbEntity
  8
SEIHIN
  6
CONTINUOUS
 62
     3
 48
8.0
100
AcDbCircle
 10
198.3221304295844
 20
90.42321423403015
 30
0.0
 40
1.250017555856957
100
AcDbArc
 50
179.9992624946338
 51
274.987864036614
  0
LINE
  5
206
330
1A
100
AcDbEntity
  8
SEIHIN
  6
CONTINUOUS
 62
     3
 48
8.0
100
AcDbLine
 10
184.572212873831
 20
98.77463032412716
 30
0.0
 11
184.572212873831
 21
93.17393032412722
 31
0.0
  0
ARC
  5
207
330
1A
100
AcDbEntity
  8
SEIHIN
  6
CONTINUOUS
 62
     3
 48
8.0
100
AcDbCircle
 10
195.8222052062622
 20
97.1646199170839
 30
0.0
 40
2.499989592968424
100
AcDbArc
 50
270.0001757284636
 51
17.23703096520966
  0
ARC
  5
208
330
1A
100
AcDbEntity
  8
SEIHIN
  6
CONTINUOUS
 62
     3
 48
8.0
100
AcDbCircle
 10
195.822185357117
 20
97.16466767156932
 30
0.0
 40
2.500037347593518
100
AcDbArc
 50
162.7644544912454
 51
270.0006306272109
  0
ARC
  5
20B
330
1A
100
AcDbEntity
  8
SEIHIN
  6
CONTINUOUS
 62
     3
 48
8.0
100
AcDbCircle
 10
208.32208639527
 20
93.17384694255379
 30
0.0
 40
1.249973521549488
100
AcDbArc
 50
180.0007617487035
 51
295.774502062195
  0
ARC
  5
20C
330
1A
100
AcDbEntity
  8
SEIHIN
  6
CONTINUOUS
 62
     3
 48
8.0
100
AcDbCircle
 10
208.3221393523919
 20
93.17387251309027
 30
0.0
 40
1.249973522151075
100
AcDbArc
 50
295.7718064729045
 51
359.9980661594133
  0
LINE
  5
20D
330
1A
100
AcDbEntity
  8
SEIHIN
  6
CONTINUOUS
 62
     3
 48
8.0
100
AcDbLine
 10
204.5721128738309
 20
98.41363032412722
 30
0.0
 11
204.5721128738309
 21
91.30973032412716
 31
0.0
  0
LINE
  5
20E
330
1A
100
AcDbEntity
  8
SEIHIN
  6
CONTINUOUS
 62
     3
 48
8.0
100
AcDbLine
 10
202.0721128738309
 20
98.14423032412724
 30
0.0
 11
202.0721128738309
 21
91.30973032412716
 31
0.0
  0
ARC
  5
20F
330
1A
100
AcDbEntity
  8
SEIHIN
  6
CONTINUOUS
 62
     3
 48
8.0
100
AcDbCircle
 10
203.3221060937941
 20
91.30973551513077
 30
0.0
 40
1.249993219973965
100
AcDbArc
 50
180.0002379393698
 51
285.1226905362737
  0
ARC
  5
210
330
1A
100
AcDbEntity
  8
SEIHIN
  6
CONTINUOUS
 62
     3
 48
8.0
100
AcDbCircle
 10
203.3221196538677
 20
91.30973917962071
 30
0.0
 40
1.249993219994543
100
AcDbArc
 50
285.122046688777
 51
359.9995940918737
  0
LINE
  5
211
330
1A
100
AcDbEntity
  8
SEIHIN
  6
CONTINUOUS
 62
     3
 48
8.0
100
AcDbLine
 10
207.072112873831
 20
98.77453032412724
 30
0.0
 11
207.072112873831
 21
93.17383032412713
 31
0.0
  0
ARC
  5
212
330
1A
100
AcDbEntity
  8
SEIHIN
  6
CONTINUOUS
 62
     3
 48
8.0
100
AcDbCircle
 10
214.1207453341494
 20
99.57370437787488
 30
0.0
 40
2.500035419646892
100
AcDbArc
 50
177.7643343497212
 51
284.9622962956448
  0
LINE
  5
213
330
1A
100
AcDbEntity
  8
SEIHIN
  6
CONTINUOUS
 62
     3
 48
8.0
100
AcDbLine
 10
209.572112873831
 20
99.22833032412716
 30
0.0
 11
209.572112873831
 21
93.17383032412713
 31
0.0
  0
ARC
  5
215
330
1A
100
AcDbEntity
  8
SEIHIN
  6
CONTINUOUS
 62
     3
 48
8.0
100
AcDbCircle
 10
195.822028095402
 20
167.8647872872985
 30
0.0
 40
64.80004267646522
100
AcDbArc
 50
247.3065294664644
 51
258.4270258126739
  0
ARC
  5
216
330
1A
100
AcDbEntity
  8
SEIHIN
  6
CONTINUOUS
 62
     3
 48
8.0
100
AcDbCircle
 10
173.3271217594437
 20
107.3079171758392
 30
0.0
 40
2.000011692692414
100
AcDbArc
 50
203.1251683811175
 51
249.6256503345791
  0
LINE
  5
217
330
1A
100
AcDbEntity
  8
SEIHIN
  6
CONTINUOUS
 62
     3
 48
8.0
100
AcDbLine
 10
170.822212873831
 20
108.0814303241271
 30
0.0
 11
171.487812873831
 21
106.5224303241271
 31
0.0
  0
LINE
  5
218
330
1A
100
AcDbEntity
  8
SEIHIN
  6
CONTINUOUS
 62
     3
 48
8.0
100
AcDbLine
 10
182.822212873831
 20
104.3820303241271
 30
0.0
 11
182.5714128738309
 21
103.9734303241271
 31
0.0
  0
LINE
  5
21C
330
1A
100
AcDbEntity
  8
SEIHIN
  6
CONTINUOUS
 62
     3
 48
8.0
100
AcDbLine
 10
208.8221128738309
 20
104.3820303241271
 30
0.0
 11
209.072912873831
 21
103.9734303241271
 31
0.0
  0
LINE
  5
21F
330
1A
100
AcDbEntity
  8
SEIHIN
  6
CONTINUOUS
 62
     3
 48
8.0
100
AcDbLine
 10
170.822212873831
 20
189.6647303241271
 30
0.0
 11
170.822212873831
 21
169.8647303241272
 31
0.0
  0
LINE
  5
220
330
1A
100
AcDbEntity
  8
CENTER_L
  6
CENTER
 62
     1
 48
5.0
100
AcDbLine
 10
195.822212873831
 20
191.979430324127
 30
0.0
 11
195.822212873831
 21
163.9429303241272
 31
0.0
  0
LINE
  5
221
330
1A
100
AcDbEntity
  8
SEIHIN
  6
CONTINUOUS
 62
     3
 48
8.0
100
AcDbLine
 10
172.822212873831
 20
167.8647303241272
 30
0.0
 11
195.822312873831
 21
167.8647303241272
 31
0.0
  0
ARC
  5
223
330
1A
100
AcDbEntity
  8
SEIHIN
  6
CONTINUOUS
 62
     3
 48
8.0
100
AcDbCircle
 10
172.822212873831
 20
169.8647303241272
 30
0.0
 40
2.0
100
AcDbArc
 50
180.0
 51
270.0
  0
LINE
  5
225
330
1A
100
AcDbEntity
  8
SEIHIN
  6
CONTINUOUS
 62
     3
 48
8.0
100
AcDbLine
 10
182.8223128738309
 20
187.8647303241272
 30
0.0
 11
195.822312873831
 21
187.8647303241272
 31
0.0
  0
LINE
  5
226
330
1A
100
AcDbEntity
  8
SEIHIN
  6
CONTINUOUS
 62
     3
 48
8.0
100
AcDbLine
 10
181.9992128738309
 20
179.4695303241271
 30
0.0
 11
182.8223128738309
 21
187.8647303241272
 31
0.0
  0
LINE
  5
227
330
1A
100
AcDbEntity
  8
SEIHIN
  6
CONTINUOUS
 62
     3
 48
8.0
100
AcDbLine
 10
170.822312873831
 20
187.8647303241272
 30
0.0
 11
171.6453128738309
 21
179.4695303241271
 31
0.0
  0
LINE
  5
228
330
1A
100
AcDbEntity
  8
SEIHIN
  6
CONTINUOUS
 62
     3
 48
8.0
100
AcDbLine
 10
173.6358128738308
 20
177.664630324127
 30
0.0
 11
180.0087128738309
 21
177.664630324127
 31
0.0
  0
ARC
  5
229
330
1A
100
AcDbEntity
  8
SEIHIN
  6
CONTINUOUS
 62
     3
 48
8.0
100
AcDbCircle
 10
173.6357862276099
 20
179.6647544850852
 30
0.0
 40
2.000024161135566
100
AcDbArc
 50
185.6016120651481
 51
270.00076334878
  0
ARC
  5
22A
330
1A
100
AcDbEntity
  8
SEIHIN
  6
CONTINUOUS
 62
     3
 48
8.0
100
AcDbCircle
 10
180.0087395200518
 20
179.6647544850852
 30
0.0
 40
2.000024161135569
100
AcDbArc
 50
269.9992366512199
 51
354.3983879348518
  0
LINE
  5
22B
330
1A
100
AcDbEntity
  8
SEIHIN
  6
CONTINUOUS
 62
     3
 48
8.0
100
AcDbLine
 10
170.822312873831
 20
189.6647303241271
 30
0.0
 11
182.8223128738309
 21
189.6647303241271
 31
0.0
  0
LINE
  5
22C
330
1A
100
AcDbEntity
  8
SEIHIN
  6
CONTINUOUS
 62
     3
 48
8.0
100
AcDbLine
 10
182.822212873831
 20
189.6647303241271
 30
0.0
 11
182.822212873831
 21
187.8647303241272
 31
0.0
  0
LINE
  5
22D
330
1A
100
AcDbEntity
  8
SEIHIN
  6
CONTINUOUS
 62
     3
 48
8.0
100
AcDbLine
 10
208.822212873831
 20
187.8646303241272
 30
0.0
 11
195.822212873831
 21
187.8647303241272
 31
0.0
  0
ARC
  5
22E
330
1A
100
AcDbEntity
  8
SEIHIN
  6
CONTINUOUS
 62
     3
 48
8.0
100
AcDbCircle
 10
190.822212873831
 20
172.8647303241272
 30
0.0
 40
1.0
100
AcDbArc
 50
180.0
 51
0.0
  0
ARC
  5
22F
330
1A
100
AcDbEntity
  8
SEIHIN
  6
CONTINUOUS
 62
     3
 48
8.0
100
AcDbCircle
 10
190.822212873831
 20
172.8647303241272
 30
0.0
 40
1.0
100
AcDbArc
 50
0.0
 51
180.0
  0
LINE
  5
230
330
1A
100
AcDbEntity
  8
SEIHIN
  6
CONTINUOUS
 62
     3
 48
8.0
100
AcDbLine
 10
209.645212873831
 20
179.4695303241271
 30
0.0
 11
208.822212873831
 21
187.8646303241272
 31
0.0
  0
ARC
  5
231
330
1A
100
AcDbEntity
  8
SEIHIN
  6
CONTINUOUS
 62
     3
 48
8.0
100
AcDbCircle
 10
211.6356916091481
 20
179.6646496064411
 30
0.0
 40
2.000019282427168
100
AcDbArc
 50
185.5986068414171
 51
270.0006091824169
  0
LINE
  5
232
330
1A
100
AcDbEntity
  8
SEIHIN
  6
CONTINUOUS
 62
     3
 48
8.0
100
AcDbLine
 10
208.822212873831
 20
189.6646303241272
 30
0.0
 11
208.822212873831
 21
187.8646303241272
 31
0.0
  0
LINE
  5
236
330
1A
100
AcDbEntity
  8
SEIHIN
  6
CONTINUOUS
 62
     3
 48
8.0
100
AcDbLine
 10
220.8221128738309
 20
108.0813303241271
 30
0.0
 11
220.8221128738309
 21
102.4811303241271
 31
0.0
  0
ARC
  5
238
330
1A
100
AcDbEntity
  8
SEIHIN
  6
CONTINUOUS
 62
     3
 48
8.0
100
AcDbCircle
 10
195.822465475973
 20
119.0646165834631
 30
0.0
 40
29.99998977450323
100
AcDbArc
 50
310.7047914868236
 51
326.4418469316686
  0
ARC
  5
239
330
1A
100
AcDbEntity
  8
SEIHIN
  6
CONTINUOUS
 62
     3
 48
8.0
100
AcDbCircle
 10
195.8213755200872
 20
167.8644086715175
 30
0.0
 40
70.00001342282013
100
AcDbArc
 50
286.9553388727734
 51
290.9255620044555
  0
ARC
  5
23E
330
1A
100
AcDbEntity
  8
SEIHIN
  6
CONTINUOUS
 62
     3
 48
8.0
100
AcDbCircle
 10
218.3171720633591
 20
107.3077867471933
 30
0.0
 40
2.000029102189102
100
AcDbArc
 50
290.3781960233923
 51
336.8759924683761
  0
LINE
  5
23F
330
1A
100
AcDbEntity
  8
SEIHIN
  6
CONTINUOUS
 62
     3
 48
8.0
100
AcDbLine
 10
220.8221128738309
 20
108.0813303241271
 30
0.0
 11
220.156512873831
 21
106.5224303241271
 31
0.0
  0
LINE
  5
247
330
1A
100
AcDbEntity
  8
SEIHIN
  6
CONTINUOUS
 62
     3
 48
8.0
100
AcDbLine
 10
220.822212873831
 20
189.6646303241272
 30
0.0
 11
220.8221128738309
 21
169.8646303241272
 31
0.0
  0
ARC
  5
24A
330
1A
100
AcDbEntity
  8
SEIHIN
  6
CONTINUOUS
 62
     3
 48
8.0
100
AcDbCircle
 10
218.8221128738309
 20
169.8646303241272
 30
0.0
 40
2.0
100
AcDbArc
 50
270.0
 51
0.0
  0
LINE
  5
24E
330
1A
100
AcDbEntity
  8
SEIHIN
  6
CONTINUOUS
 62
     3
 48
8.0
100
AcDbLine
 10
220.822212873831
 20
187.8646303241272
 30
0.0
 11
219.999112873831
 21
179.4694303241272
 31
0.0
  0
ARC
  5
24F
330
1A
100
AcDbEntity
  8
SEIHIN
  6
CONTINUOUS
 62
     3
 48
8.0
100
AcDbCircle
 10
218.0086395200519
 20
179.6646544850853
 30
0.0
 40
2.000024161135711
100
AcDbArc
 50
269.9992366512244
 51
354.3983879348563
  0
DIMENSION
  5
281
330
1A
100
AcDbEntity
  8
SUNPOU
  6
CONTINUOUS
100
AcDbDimension
  2
*D1
 10
233.9372197159159
 20
177.664630324127
 30
0.0
 11
231.4372197159159
 21
182.7646303241271
 31
0.0
 70
    32
  1
※<>
  3
STANDARD
100
AcDbAlignedDimension
 13
208.822212873831
 23
187.8646303241272
 33
0.0
 14
218.008612873831
 24
177.664630324127
 34
0.0
 50
90.0
100
AcDbRotatedDimension
1001
ACAD
1000
DSTYLE
1002
{
1070
   140
1040
3.0
1070
    74
1070
     0
1070
   172
1070
     1
1070
    73
1070
     0
1070
   272
1070
     2
1070
    77
1070
     3
1070
   173
1070
     1
1070
   147
1040
1.0
1070
    42
1040
3.0
1070
    44
1040
1.5
1070
    43
1040
7.0
1070
   271
1070
     0
1070
   178
1070
     4
1070
   177
1070
     4
1070
   176
1070
     4
1070
   141
1040
150.0
1070
     7
1000
_OPEN
1070
     6
1000
_OPEN
1070
    41
1040
3.0
1002
}
  0
DIMENSION
  5
28E
330
1A
100
AcDbEntity
  8
SUNPOU
  6
CONTINUOUS
100
AcDbDimension
  2
*D2
 10
245.8591682968719
 20
167.8646303241272
 30
0.0
 11
243.359168296872
 21
178.7646303241272
 31
0.0
 12
12.38764742295711
 22
-7.313928308792355
 32
0.0
 70
    32
  3
STANDARD
100
AcDbAlignedDimension
 13
220.822212873831
 23
189.6646303241272
 33
0.0
 14
218.8221128738309
 24
167.8646303241272
 34
0.0
 50
90.0
100
AcDbRotatedDimension
1001
ACAD
1000
DSTYLE
1002
{
1070
   140
1040
3.0
1070
    74
1070
     0
1070
   172
1070
     1
1070
    73
1070
     0
1070
   272
1070
     2
1070
    77
1070
     3
1070
   173
1070
     1
1070
   147
1040
1.0
1070
    42
1040
3.0
1070
    44
1040
1.5
1070
    43
1040
7.0
1070
   271
1070
     0
1070
   178
1070
     4
1070
   177
1070
     4
1070
   176
1070
     4
1070
   141
1040
150.0
1070
     7
1000
_OPEN
1070
     6
1000
_OPEN
1070
    41
1040
3.0
1002
}
  0
DIMENSION
  5
29E
330
1A
100
AcDbEntity
  8
SUNPOU
  6
CONTINUOUS
100
AcDbDimension
  2
*D3
 10
233.7590026593864
 20
89.17319667817318
 30
0.0
 11
231.2590026593864
 21
98.62726350115018
 31
0.0
 12
12.38764742295711
 22
12.68607169120764
 32
0.0
 70
    32
  3
STANDARD
100
AcDbAlignedDimension
 13
220.8221128738309
 23
108.0813303241271
 33
0.0
 14
197.0721128737274
 24
89.17319667817318
 34
0.0
 50
90.0
100
AcDbRotatedDimension
1001
ACAD
1000
DSTYLE
1002
{
1070
   140
1040
3.0
1070
    74
1070
     0
1070
   172
1070
     1
1070
    73
1070
     0
1070
   272
1070
     2
1070
    77
1070
     3
1070
   173
1070
     1
1070
   147
1040
1.0
1070
    42
1040
3.0
1070
    44
1040
1.5
1070
    43
1040
7.0
1070
   271
1070
     0
1070
   178
1070
     4
1070
   177
1070
     4
1070
   176
1070
     4
1070
   141
1040
150.0
1070
     7
1000
_OPEN
1070
     6
1000
_OPEN
1070
    41
1040
3.0
1002
}
  0
DIMENSION
  5
2AD
330
1A
100
AcDbEntity
  8
SUNPOU
  6
CONTINUOUS
100
AcDbDimension
  2
*D4
 10
208.8221128738309
 20
117.1567641613285
 30
0.0
 11
214.8221128738309
 21
119.6567641613285
 31
0.0
 12
12.38764742295711
 22
12.68607169120764
 32
0.0
 70
    32
  3
STANDARD
100
AcDbAlignedDimension
 13
220.8221128738309
 23
108.0813303241271
 33
0.0
 14
208.8221128738309
 24
104.3820303241271
 34
0.0
100
AcDbRotatedDimension
1001
ACAD
1000
DSTYLE
1002
{
1070
   140
1040
3.0
1070
    74
1070
     0
1070
   172
1070
     1
1070
    73
1070
     0
1070
   272
1070
     2
1070
    77
1070
     3
1070
   173
1070
     1
1070
   147
1040
1.0
1070
    42
1040
3.0
1070
    44
1040
1.5
1070
    43
1040
7.0
1070
   271
1070
     0
1070
   178
1070
     4
1070
   177
1070
     4
1070
   176
1070
     4
1070
   141
1040
150.0
1070
     7
1000
_OPEN
1070
     6
1000
_OPEN
1070
    41
1040
3.0
1002
}
  0
DIMENSION
  5
2BA
330
1A
100
AcDbEntity
  8
SUNPOU
  6
CONTINUOUS
100
AcDbDimension
  2
*D5
 10
170.822212873831
 20
127.8018348872341
 30
0.0
 11
195.8221628738309
 21
130.3018348872341
 31
0.0
 12
12.38764742295711
 22
12.68607169120764
 32
0.0
 70
    32
  3
STANDARD
100
AcDbAlignedDimension
 13
220.8221128738309
 23
108.0813303241271
 33
0.0
 14
170.822212873831
 24
108.0814303241271
 34
0.0
100
AcDbRotatedDimension
1001
ACAD
1000
DSTYLE
1002
{
1070
   140
1040
3.0
1070
    74
1070
     0
1070
   172
1070
     1
1070
    73
1070
     0
1070
   272
1070
     2
1070
    77
1070
     3
1070
   173
1070
     1
1070
   147
1040
1.0
1070
    42
1040
3.0
1070
    44
1040
1.5
1070
    43
1040
7.0
1070
   271
1070
     0
1070
   178
1070
     4
1070
   177
1070
     4
1070
   176
1070
     4
1070
   141
1040
150.0
1070
     7
1000
_OPEN
1070
     6
1000
_OPEN
1070
    41
1040
3.0
1002
}
  0
LINE
  5
2C4
330
1A
100
AcDbEntity
  8
0
  6
BYBLOCK
 62
     4
100
AcDbLine
 10
191.3459446153847
 20
119.4510288038182
 30
0.0
 11
189.8195736105066
 21
102.9416166301477
 31
0.0
  0
INSERT
  5
2C5
330
1A
100
AcDbEntity
  8
0
  6
BYBLOCK
 62
     4
100
AcDbBlockReference
  2
_OPEN
 10
189.543387713907
 20
99.95435679034148
 30
0.0
 41
3.0
 42
3.0
 43
3.0
 50
264.7177584017037
  0
MTEXT
  5
2C6
330
1A
100
AcDbEntity
  8
0
  6
BYBLOCK
 62
     4
100
AcDbMText
 10
188.7705950870284
 20
114.7847692802838
 30
0.0
 40
3.0
 41
0.0
 71
     5
 72
     1
  1
\A1;R70
 11
0.0920619655331919
 21
0.9957532799354293
 31
0.0
1001
ACAD
1000
MTEXTBEGIN
1070
    73
1070
     1
1070
    44
1040
1.0
1070
    74
1070
     0
1000
MTEXTEND
1000
MTEXTBEGIN
1070
    73
1070
     1
1070
    44
1040
1.0
1070
    74
1070
     0
1000
MTEXTEND
  0
POINT
  5
2C7
330
1A
100
AcDbEntity
  8
DEFPOINTS
  6
BYBLOCK
 62
     0
100
AcDbPoint
 10
189.543387713907
 20
99.95435679034148
 30
0.0
  0
TEXT
  5
2F6
330
1A
100
AcDbEntity
  8
SUNPOU
 62
     4
100
AcDbText
 10
307.9818148830359
 20
28.26852953997541
 30
0.0
 40
4.0
  1
※ のきといの差込寸み法を示す。
100
AcDbText
  0
VIEWPORT
  5
22
330
17
100
AcDbEntity
 67
     1
  8
0
100
AcDbViewport
 10
313.6808219178082
 20
148.5
 30
0.0
 40
627.3616438356165
 41
297.0
 68
     2
 69
     1
1001
ACAD
1000
MVIEW
1002
{
1070
    16
1010
0.0
1020
0.0
1030
0.0
1010
0.0
1020
0.0
1030
1.0
1040
0.0
1040
297.0
1040
313.6808219178082
1040
148.5
1040
50.0
1040
0.0
1040
0.0
1070
     0
1070
   100
1070
     1
1070
     0
1070
     0
1070
     0
1070
     0
1070
     0
1040
0.0
1040
0.0
1040
0.0
1040
1.0
1040
1.0
1040
10.0
1040
10.0
1070
     0
1002
{
1002
}
1002
}
  0
VIEWPORT
  5
64
330
17
100
AcDbEntity
 67
     1
  8
VIEWPORT
100
AcDbViewport
 10
210.0
 20
148.5
 30
0.0
 40
420.0
 41
297.0
 68
     1
 69
     2
1001
ACAD
1000
MVIEW
1002
{
1070
    16
1010
0.0
1020
0.0
1030
0.0
1010
0.0
1020
0.0
1030
1.0
1040
0.0
1040
302.9399999999998
1040
210.0
1040
148.5
1040
50.0
1040
0.0
1040
0.0
1070
     0
1070
   100
1070
     1
1070
     0
1070
     0
1070
     0
1070
     0
1070
     0
1040
0.0
1040
0.0
1040
0.0
1040
5.0
1040
5.0
1040
0.0
1040
0.0
1070
     0
1002
{
1002
}
1002
}
  0
ENDSEC
  0
SECTION
  2
OBJECTS
  0
DICTIONARY
  5
C
330
0
100
AcDbDictionary
  3
ACAD_GROUP
350
D
  3
ACAD_LAYOUT
350
2FF
  3
ACAD_MLINESTYLE
350
E
  3
ACAD_PLOTSETTINGS
350
300
1001
ACAD
1000
TREAT_AS_HARD
1070
     0
  0
DICTIONARY
  5
32E
330
1A
100
AcDbDictionary
  3
ACAD_LAYOUTSELFREF
350
33E
1001
ACAD
1000
TREAT_AS_HARD
1070
     1
  0
DICTIONARY
  5
32C
330
17
100
AcDbDictionary
  3
ACAD_LAYOUTSELFREF
350
33D
1001
ACAD
1000
TREAT_AS_HARD
1070
     1
  0
DICTIONARY
  5
D
102
{ACAD_REACTORS
330
C
102
}
330
C
100
AcDbDictionary
1001
ACAD
1000
TREAT_AS_HARD
1070
     0
  0
DICTIONARY
  5
2FF
102
{ACAD_REACTORS
330
C
102
}
330
C
100
AcDbDictionary
1001
ACAD
1000
TREAT_AS_HARD
1070
     0
  0
DICTIONARY
  5
E
102
{ACAD_REACTORS
330
C
102
}
330
C
100
AcDbDictionary
  3
STANDARD
350
13
1001
ACAD
1000
TREAT_AS_HARD
1070
     0
  0
DICTIONARY
  5
300
102
{ACAD_REACTORS
330
C
102
}
330
C
100
AcDbDictionary
1001
ACAD
1000
TREAT_AS_HARD
1070
     0
  0
XRECORD
  5
33E
102
{ACAD_REACTORS
330
32E
102
}
330
32E
100
AcDbXrecord
340
1A
  0
XRECORD
  5
33D
102
{ACAD_REACTORS
330
32C
102
}
330
32C
100
AcDbXrecord
340
17
  0
MLINESTYLE
  5
13
102
{ACAD_REACTORS
330
E
102
}
330
E
100
AcDbMlineStyle
  2
STANDARD
 70
     0
  3

 62
     0
 51
90.0
 52
90.0
 71
     2
 49
0.5
 62
   256
  6
BYLAYER
 49
-0.5
 62
   256
  6
BYLAYER
  0
ENDSEC
  0
EOF
