  0
SECTION
  2
HEADER
  9
$ACADVER
  1
AC1012
  9
$DWGCODEPAGE
  3
dos932
  9
$INSBASE
 10
0.0
 20
0.0
 30
0.0
  9
$EXTMIN
 10
5.0
 20
2.449000558492456
 30
0.0
  9
$EXTMAX
 10
403.0
 20
282.0
 30
0.0
  9
$LIMMIN
 10
0.0
 20
0.0
  9
$LIMMAX
 10
420.0
 20
297.0
  9
$ORTHOMODE
 70
     0
  9
$REGENMODE
 70
     1
  9
$FILLMODE
 70
     1
  9
$QTEXTMODE
 70
     0
  9
$MIRRTEXT
 70
     1
  9
$DRAGMODE
 70
     2
  9
$LTSCALE
 40
1.0
  9
$OSMODE
 70
    37
  9
$ATTMODE
 70
     1
  9
$TEXTSIZE
 40
2.5
  9
$TRACEWID
 40
1.0
  9
$TEXTSTYLE
  7
STANDARD
  9
$CLAYER
  8
SUNPOU
  9
$CELTYPE
  6
BYLAYER
  9
$CECOLOR
 62
   256
  9
$CELTSCALE
 40
1.0
  9
$DELOBJ
 70
     1
  9
$DISPSILH
 70
     0
  9
$DIMSCALE
 40
1.0
  9
$DIMASZ
 40
3.0
  9
$DIMEXO
 40
3.0
  9
$DIMDLI
 40
7.0
  9
$DIMRND
 40
0.0
  9
$DIMDLE
 40
0.0
  9
$DIMEXE
 40
1.5
  9
$DIMTP
 40
0.0
  9
$DIMTM
 40
0.0
  9
$DIMTXT
 40
3.0
  9
$DIMCEN
 40
150.0
  9
$DIMTSZ
 40
0.0
  9
$DIMTOL
 70
     0
  9
$DIMLIM
 70
     0
  9
$DIMTIH
 70
     0
  9
$DIMTOH
 70
     0
  9
$DIMSE1
 70
     0
  9
$DIMSE2
 70
     0
  9
$DIMTAD
 70
     3
  9
$DIMZIN
 70
     0
  9
$DIMBLK
  1

  9
$DIMASO
 70
     1
  9
$DIMSHO
 70
     1
  9
$DIMPOST
  1

  9
$DIMAPOST
  1

  9
$DIMALT
 70
     0
  9
$DIMALTD
 70
     2
  9
$DIMALTF
 40
25.4
  9
$DIMLFAC
 40
1.0
  9
$DIMTOFL
 70
     1
  9
$DIMTVP
 40
0.0
  9
$DIMTIX
 70
     0
  9
$DIMSOXD
 70
     0
  9
$DIMSAH
 70
     1
  9
$DIMBLK1
  1
OPEN
  9
$DIMBLK2
  1
OPEN
  9
$DIMSTYLE
  2
STANDARD
  9
$DIMCLRD
 70
   256
  9
$DIMCLRE
 70
   256
  9
$DIMCLRT
 70
   256
  9
$DIMTFAC
 40
1.0
  9
$DIMGAP
 40
1.0
  9
$DIMJUST
 70
     0
  9
$DIMSD1
 70
     0
  9
$DIMSD2
 70
     0
  9
$DIMTOLJ
 70
     1
  9
$DIMTZIN
 70
     0
  9
$DIMALTZ
 70
     0
  9
$DIMALTTZ
 70
     0
  9
$DIMFIT
 70
     3
  9
$DIMUPT
 70
     0
  9
$DIMUNIT
 70
     2
  9
$DIMDEC
 70
     0
  9
$DIMTDEC
 70
     0
  9
$DIMALTU
 70
     2
  9
$DIMALTTD
 70
     2
  9
$DIMTXSTY
  7
STANDARD
  9
$DIMAUNIT
 70
     0
  9
$LUNITS
 70
     2
  9
$LUPREC
 70
     4
  9
$SKETCHINC
 40
1.0
  9
$FILLETRAD
 40
10.0
  9
$AUNITS
 70
     0
  9
$AUPREC
 70
     0
  9
$MENU
  1
.
  9
$ELEVATION
 40
0.0
  9
$PELEVATION
 40
0.0
  9
$THICKNESS
 40
0.0
  9
$LIMCHECK
 70
     0
  9
$BLIPMODE
 70
     0
  9
$CHAMFERA
 40
10.0
  9
$CHAMFERB
 40
10.0
  9
$CHAMFERC
 40
20.0
  9
$CHAMFERD
 40
0.0
  9
$SKPOLY
 70
     0
  9
$TDCREATE
 40
2451074.879563657
  9
$TDUPDATE
 40
2452395.837755058
  9
$TDINDWG
 40
0.0125809954
  9
$TDUSRTIMER
 40
0.0125809954
  9
$USRTIMER
 70
     1
  9
$ANGBASE
 50
0.0
  9
$ANGDIR
 70
     0
  9
$PDMODE
 70
     0
  9
$PDSIZE
 40
0.0
  9
$PLINEWID
 40
0.0
  9
$COORDS
 70
     1
  9
$SPLFRAME
 70
     0
  9
$SPLINETYPE
 70
     6
  9
$SPLINESEGS
 70
     8
  9
$ATTDIA
 70
     0
  9
$ATTREQ
 70
     1
  9
$HANDLING
 70
 10241
  9
$HANDSEED
  5
5A8
  9
$SURFTAB1
 70
     6
  9
$SURFTAB2
 70
     6
  9
$SURFTYPE
 70
     6
  9
$SURFU
 70
     6
  9
$SURFV
 70
     6
  9
$UCSNAME
  2

  9
$UCSORG
 10
0.0
 20
0.0
 30
0.0
  9
$UCSXDIR
 10
1.0
 20
0.0
 30
0.0
  9
$UCSYDIR
 10
0.0
 20
1.0
 30
0.0
  9
$PUCSNAME
  2

  9
$PUCSORG
 10
0.0
 20
0.0
 30
0.0
  9
$PUCSXDIR
 10
1.0
 20
0.0
 30
0.0
  9
$PUCSYDIR
 10
0.0
 20
1.0
 30
0.0
  9
$USERI1
 70
     0
  9
$USERI2
 70
     0
  9
$USERI3
 70
     0
  9
$USERI4
 70
     0
  9
$USERI5
 70
     0
  9
$USERR1
 40
0.0
  9
$USERR2
 40
0.0
  9
$USERR3
 40
0.0
  9
$USERR4
 40
0.0
  9
$USERR5
 40
0.0
  9
$WORLDVIEW
 70
     1
  9
$SHADEDGE
 70
     3
  9
$SHADEDIF
 70
    70
  9
$TILEMODE
 70
     1
  9
$MAXACTVP
 70
    16
  9
$PINSBASE
 10
0.0
 20
0.0
 30
0.0
  9
$PLIMCHECK
 70
     0
  9
$PEXTMIN
 10
0.0
 20
0.0
 30
0.0
  9
$PEXTMAX
 10
420.0
 20
297.0
 30
0.0
  9
$PLIMMIN
 10
0.0
 20
0.0
  9
$PLIMMAX
 10
420.0
 20
297.0
  9
$UNITMODE
 70
     0
  9
$VISRETAIN
 70
     0
  9
$PLINEGEN
 70
     0
  9
$PSLTSCALE
 70
     1
  9
$TREEDEPTH
 70
  3020
  9
$PICKSTYLE
 70
     1
  9
$CMLSTYLE
  2
STANDARD
  9
$CMLJUST
 70
     0
  9
$CMLSCALE
 40
1.0
  9
$SAVEIMAGES
 70
     1
  0
ENDSEC
  0
SECTION
  2
CLASSES
  0
CLASS
  1
ACDBDICTIONARYWDFLT
  2
AcDbDictionaryWithDefault
  3
AutoCAD 2000
 90
    32768
280
     0
281
     0
  0
CLASS
  1
ACDBPLACEHOLDER
  2
AcDbPlaceHolder
  3
AutoCAD 2000
 90
    32768
280
     0
281
     0
  0
CLASS
  1
LAYOUT
  2
AcDbLayout
  3
AutoCAD 2000
 90
    32768
280
     0
281
     0
  0
CLASS
  1
LONG_TRANSACTION
  2
AcDbLongTransaction
  3
AutoCAD 2000
 90
    32768
280
     0
281
     0
  0
CLASS
  1
LWPOLYLINE
  2
AcDbPolyline
  3
AutoCAD 2000
 90
    32768
280
     0
281
     1
  0
CLASS
  1
HATCH
  2
AcDbHatch
  3
AutoCAD 2000
 90
    32768
280
     0
281
     1
  0
CLASS
  1
XRECORD
  2
AcDbXrecord
  3
AutoCAD 2000
 90
    32768
280
     0
281
     0
  0
CLASS
  1
LONG_TRANSACTION
  2
AcDbLongTransaction
  3
AutoCAD 2000
 90
    32768
280
     0
281
     0
  0
CLASS
  1
LWPOLYLINE
  2
AcDbPolyline
  3
AutoCAD 2000
 90
    32768
280
     0
281
     1
  0
CLASS
  1
HATCH
  2
AcDbHatch
  3
AutoCAD 2000
 90
    32768
280
     0
281
     1
  0
CLASS
  1
XRECORD
  2
AcDbXrecord
  3
AutoCAD 2000
 90
    32768
280
     0
281
     0
  0
CLASS
  1
LONG_TRANSACTION
  2
AcDbLongTransaction
  3
AutoCAD 2000
 90
    32768
280
     0
281
     0
  0
CLASS
  1
LWPOLYLINE
  2
AcDbPolyline
  3
AutoCAD 2000
 90
    32768
280
     0
281
     1
  0
CLASS
  1
HATCH
  2
AcDbHatch
  3
AutoCAD 2000
 90
    32768
280
     0
281
     1
  0
CLASS
  1
XRECORD
  2
AcDbXrecord
  3
AutoCAD 2000
 90
    32768
280
     0
281
     0
  0
ENDSEC
  0
SECTION
  2
TABLES
  0
TABLE
  2
VPORT
  5
8
330
0
100
AcDbSymbolTable
 70
     2
  0
VPORT
  5
5A5
330
8
100
AcDbSymbolTableRecord
100
AcDbViewportTableRecord
  2
*ACTIVE
 70
     0
 10
0.0
 20
0.0
 11
1.0
 21
1.0
 12
283.4834474461753
 22
155.4271334604485
 13
0.0
 23
0.0
 14
5.0
 24
5.0
 15
0.0
 25
0.0
 16
0.0
 26
0.0
 36
1.0
 17
0.0
 27
0.0
 37
0.0
 40
315.3545090219056
 41
2.169459962756052
 42
50.0
 43
0.0
 44
0.0
 50
0.0
 51
0.0
 71
     0
 72
   100
 73
     1
 74
     0
 75
     0
 76
     0
 77
     0
 78
     0
  0
ENDTAB
  0
TABLE
  2
LTYPE
  5
5
330
0
100
AcDbSymbolTable
 70
     2
  0
LTYPE
  5
14
330
5
100
AcDbSymbolTableRecord
100
AcDbLinetypeTableRecord
  2
BYBLOCK
 70
     0
  3

 72
    65
 73
     0
 40
0.0
  0
LTYPE
  5
15
330
5
100
AcDbSymbolTableRecord
100
AcDbLinetypeTableRecord
  2
BYLAYER
 70
     0
  3

 72
    65
 73
     0
 40
0.0
  0
LTYPE
  5
16
330
5
100
AcDbSymbolTableRecord
100
AcDbLinetypeTableRecord
  2
CONTINUOUS
 70
     0
  3
Solid line
 72
    65
 73
     0
 40
0.0
  0
LTYPE
  5
120
330
5
100
AcDbSymbolTableRecord
100
AcDbLinetypeTableRecord
  2
CENTER
 70
     0
  3
____ _ ____ _ ____ _ ____ _ ____ _ ____ _ ____ 
 72
    65
 73
     4
 40
2.0
 49
1.25
 74
     0
 49
-0.25
 74
     0
 49
0.25
 74
     0
 49
-0.25
 74
     0
  0
ENDTAB
  0
TABLE
  2
LAYER
  5
2
330
0
100
AcDbSymbolTable
 70
     7
  0
LAYER
  5
F
330
2
100
AcDbSymbolTableRecord
100
AcDbLayerTableRecord
  2
0
 70
     0
 62
     7
  6
CONTINUOUS
  0
LAYER
  5
62
330
2
100
AcDbSymbolTableRecord
100
AcDbLayerTableRecord
  2
VIEWPORT
 70
     0
 62
     7
  6
CONTINUOUS
  0
LAYER
  5
6B
330
2
100
AcDbSymbolTableRecord
100
AcDbLayerTableRecord
  2
ZUWAKU
 70
     0
 62
     7
  6
CONTINUOUS
  0
LAYER
  5
134
330
2
100
AcDbSymbolTableRecord
100
AcDbLayerTableRecord
  2
SUNPOU
 70
     0
 62
     4
  6
CONTINUOUS
  0
LAYER
  5
135
330
2
100
AcDbSymbolTableRecord
100
AcDbLayerTableRecord
  2
CENTER_L
 70
     0
 62
     1
  6
CENTER
  0
LAYER
  5
1E5
330
2
100
AcDbSymbolTableRecord
100
AcDbLayerTableRecord
  2
SEIHIN
 70
     0
 62
     3
  6
CONTINUOUS
  0
LAYER
  5
1E6
330
2
100
AcDbSymbolTableRecord
100
AcDbLayerTableRecord
  2
DEFPOINTS
 70
     0
 62
     7
  6
CONTINUOUS
  0
ENDTAB
  0
TABLE
  2
STYLE
  5
3
330
0
100
AcDbSymbolTable
 70
     1
  0
STYLE
  5
10
330
3
100
AcDbSymbolTableRecord
100
AcDbTextStyleTableRecord
  2
STANDARD
 70
     0
 40
0.0
 41
1.0
 50
0.0
 71
     0
 42
2.5
  3
TXT
  4
bigfont.shx
  0
ENDTAB
  0
TABLE
  2
VIEW
  5
6
330
0
100
AcDbSymbolTable
 70
     0
  0
ENDTAB
  0
TABLE
  2
UCS
  5
7
330
0
100
AcDbSymbolTable
 70
     0
  0
ENDTAB
  0
TABLE
  2
APPID
  5
9
330
0
100
AcDbSymbolTable
 70
     1
  0
APPID
  5
11
330
9
100
AcDbSymbolTableRecord
100
AcDbRegAppTableRecord
  2
ACAD
 70
     0
  0
ENDTAB
  0
TABLE
  2
DIMSTYLE
  5
A
330
0
100
AcDbSymbolTable
 70
     1
  0
DIMSTYLE
105
1D
102
{ACAD_REACTORS
330
3C4
330
3D1
330
3DE
330
3F8
330
412
330
41F
330
42C
330
439
330
4B2
102
}
330
A
100
AcDbSymbolTableRecord
100
AcDbDimStyleTableRecord
  2
STANDARD
 70
     0
  3

  4

  5

  6

  7

 40
1.0
 41
0.18
 42
0.0625
 43
0.38
 44
0.18
 45
0.0
 46
0.0
 47
0.0
 48
0.0
140
0.18
141
0.09
142
0.0
143
25.4
144
1.0
145
0.0
146
1.0
147
0.09
 71
     0
 72
     0
 73
     1
 74
     1
 75
     0
 76
     0
 77
     0
 78
     0
170
     0
171
     2
172
     0
173
     0
174
     0
175
     0
176
     0
177
     0
178
     0
270
     2
271
     4
272
     4
273
     2
274
     2
340
10
275
     0
280
     0
281
     0
282
     0
283
     1
284
     0
285
     0
286
     0
287
     3
288
     0
  0
ENDTAB
  0
TABLE
  2
BLOCK_RECORD
  5
1
330
0
100
AcDbSymbolTable
 70
    10
  0
BLOCK_RECORD
  5
1A
102
{ACAD_XDICTIONARY
360
563
102
}
330
1
100
AcDbSymbolTableRecord
100
AcDbBlockTableRecord
  2
*MODEL_SPACE
  0
BLOCK_RECORD
  5
17
102
{ACAD_XDICTIONARY
360
561
102
}
330
1
100
AcDbSymbolTableRecord
100
AcDbBlockTableRecord
  2
*PAPER_SPACE
  0
BLOCK_RECORD
  5
B2
330
1
100
AcDbSymbolTableRecord
100
AcDbBlockTableRecord
  2
_OPEN
  0
BLOCK_RECORD
  5
3B8
330
1
100
AcDbSymbolTableRecord
100
AcDbBlockTableRecord
  2
*D1
  0
BLOCK_RECORD
  5
3C5
330
1
100
AcDbSymbolTableRecord
100
AcDbBlockTableRecord
  2
*D2
  0
BLOCK_RECORD
  5
3D2
330
1
100
AcDbSymbolTableRecord
100
AcDbBlockTableRecord
  2
*D3
  0
BLOCK_RECORD
  5
3EC
330
1
100
AcDbSymbolTableRecord
100
AcDbBlockTableRecord
  2
*D4
  0
BLOCK_RECORD
  5
406
330
1
100
AcDbSymbolTableRecord
100
AcDbBlockTableRecord
  2
*D5
  0
BLOCK_RECORD
  5
413
330
1
100
AcDbSymbolTableRecord
100
AcDbBlockTableRecord
  2
*D6
  0
BLOCK_RECORD
  5
420
330
1
100
AcDbSymbolTableRecord
100
AcDbBlockTableRecord
  2
*D7
  0
BLOCK_RECORD
  5
42D
330
1
100
AcDbSymbolTableRecord
100
AcDbBlockTableRecord
  2
*D8
  0
BLOCK_RECORD
  5
4A4
330
1
100
AcDbSymbolTableRecord
100
AcDbBlockTableRecord
  2
*D9
  0
ENDTAB
  0
ENDSEC
  0
SECTION
  2
BLOCKS
  0
BLOCK
  5
1B
330
1A
100
AcDbEntity
  8
0
100
AcDbBlockBegin
  2
*MODEL_SPACE
 70
     0
 10
0.0
 20
0.0
 30
0.0
  3
*MODEL_SPACE
  1

  0
ENDBLK
  5
1C
330
1A
100
AcDbEntity
  8
0
100
AcDbBlockEnd
  0
BLOCK
  5
18
330
17
100
AcDbEntity
 67
     1
  8
0
100
AcDbBlockBegin
  2
*PAPER_SPACE
 70
     0
 10
0.0
 20
0.0
 30
0.0
  3
*PAPER_SPACE
  1

  0
ENDBLK
  5
19
330
17
100
AcDbEntity
 67
     1
  8
0
100
AcDbBlockEnd
  0
BLOCK
  5
B3
330
B2
100
AcDbEntity
  8
0
100
AcDbBlockBegin
  2
_OPEN
 70
     0
 10
0.0
 20
0.0
 30
0.0
  3
_OPEN
  1

  0
LINE
  5
B4
330
B2
100
AcDbEntity
  8
0
  6
BYBLOCK
 62
     0
100
AcDbLine
 10
-1.0
 20
0.1666666666666666
 30
0.0
 11
0.0
 21
0.0
 31
0.0
  0
LINE
  5
B5
330
B2
100
AcDbEntity
  8
0
  6
BYBLOCK
 62
     0
100
AcDbLine
 10
0.0
 20
0.0
 30
0.0
 11
-1.0
 21
-0.1666666666666666
 31
0.0
  0
LINE
  5
B6
330
B2
100
AcDbEntity
  8
0
  6
BYBLOCK
 62
     0
100
AcDbLine
 10
0.0
 20
0.0
 30
0.0
 11
-1.0
 21
0.0
 31
0.0
  0
ENDBLK
  5
B7
330
B2
100
AcDbEntity
  8
0
100
AcDbBlockEnd
  0
BLOCK
  5
50E
330
3B8
100
AcDbEntity
  8
0
100
AcDbBlockBegin
  2
*D1
 70
     1
 10
0.0
 20
0.0
 30
0.0
  3
*D1
  1

  0
LINE
  5
50F
330
3B8
100
AcDbEntity
  8
0
  6
BYBLOCK
 62
     4
100
AcDbLine
 10
172.5279993244682
 20
186.1101935913664
 30
0.0
 11
172.5279993244682
 21
198.5426527383632
 31
0.0
  0
LINE
  5
510
330
3B8
100
AcDbEntity
  8
0
  6
BYBLOCK
 62
     4
100
AcDbLine
 10
147.5279993244682
 20
186.1101935913664
 30
0.0
 11
147.5279993244682
 21
198.5426527383632
 31
0.0
  0
LINE
  5
511
330
3B8
100
AcDbEntity
  8
0
  6
BYBLOCK
 62
     4
100
AcDbLine
 10
169.5279993244682
 20
197.0426527383632
 30
0.0
 11
150.5279993244682
 21
197.0426527383632
 31
0.0
  0
INSERT
  5
512
330
3B8
100
AcDbEntity
  8
0
  6
BYBLOCK
 62
     4
100
AcDbBlockReference
  2
_OPEN
 10
172.5279993244682
 20
197.0426527383632
 30
0.0
 41
3.0
 42
3.0
 43
3.0
  0
INSERT
  5
513
330
3B8
100
AcDbEntity
  8
0
  6
BYBLOCK
 62
     4
100
AcDbBlockReference
  2
_OPEN
 10
147.5279993244682
 20
197.0426527383632
 30
0.0
 41
3.0
 42
3.0
 43
3.0
 50
180.0
  0
MTEXT
  5
514
330
3B8
100
AcDbEntity
  8
0
  6
BYBLOCK
 62
     4
100
AcDbMText
 10
160.0279993244682
 20
199.5426527383632
 30
0.0
 40
3.0
 41
0.0
 71
     5
 72
     1
  1
\A1;※a 25
1001
ACAD
1000
MTEXTBEGIN
1070
    73
1070
     1
1070
    44
1040
1.0
1070
    74
1070
     0
1000
MTEXTEND
1000
MTEXTBEGIN
1070
    73
1070
     1
1070
    44
1040
1.0
1070
    74
1070
     0
1000
MTEXTEND
1000
MTEXTBEGIN
1070
    73
1070
     1
1070
    44
1040
1.0
1070
    74
1070
     0
1000
MTEXTEND
  0
POINT
  5
515
330
3B8
100
AcDbEntity
  8
DEFPOINTS
  6
BYBLOCK
 62
     0
100
AcDbPoint
 10
172.5279993244682
 20
183.1101935913664
 30
0.0
  0
POINT
  5
516
330
3B8
100
AcDbEntity
  8
DEFPOINTS
  6
BYBLOCK
 62
     0
100
AcDbPoint
 10
147.5279993244682
 20
183.1101935913664
 30
0.0
  0
POINT
  5
517
330
3B8
100
AcDbEntity
  8
DEFPOINTS
  6
BYBLOCK
 62
     0
100
AcDbPoint
 10
147.5279993244682
 20
197.0426527383632
 30
0.0
  0
ENDBLK
  5
518
330
3B8
100
AcDbEntity
  8
0
100
AcDbBlockEnd
  0
BLOCK
  5
503
330
3C5
100
AcDbEntity
  8
0
100
AcDbBlockBegin
  2
*D2
 70
     1
 10
0.0
 20
0.0
 30
0.0
  3
*D2
  1

  0
LINE
  5
504
330
3C5
100
AcDbEntity
  8
0
  6
BYBLOCK
 62
     4
100
AcDbLine
 10
172.5279993244682
 20
186.1101935913664
 30
0.0
 11
172.5279993244682
 21
208.6733171453755
 31
0.0
  0
LINE
  5
505
330
3C5
100
AcDbEntity
  8
0
  6
BYBLOCK
 62
     4
100
AcDbLine
 10
124.9029993244682
 20
162.4148935913666
 30
0.0
 11
124.9029993244682
 21
208.6733171453755
 31
0.0
  0
LINE
  5
506
330
3C5
100
AcDbEntity
  8
0
  6
BYBLOCK
 62
     4
100
AcDbLine
 10
169.5279993244682
 20
207.1733171453755
 30
0.0
 11
127.9029993244682
 21
207.1733171453755
 31
0.0
  0
INSERT
  5
507
330
3C5
100
AcDbEntity
  8
0
  6
BYBLOCK
 62
     4
100
AcDbBlockReference
  2
_OPEN
 10
172.5279993244682
 20
207.1733171453755
 30
0.0
 41
3.0
 42
3.0
 43
3.0
  0
INSERT
  5
508
330
3C5
100
AcDbEntity
  8
0
  6
BYBLOCK
 62
     4
100
AcDbBlockReference
  2
_OPEN
 10
124.9029993244682
 20
207.1733171453755
 30
0.0
 41
3.0
 42
3.0
 43
3.0
 50
180.0
  0
MTEXT
  5
509
330
3C5
100
AcDbEntity
  8
0
  6
BYBLOCK
 62
     4
100
AcDbMText
 10
148.7154993244682
 20
209.6733171453755
 30
0.0
 40
3.0
 41
0.0
 71
     5
 72
     1
  1
\A1;48
1001
ACAD
1000
MTEXTBEGIN
1070
    73
1070
     1
1070
    44
1040
1.0
1070
    74
1070
     0
1000
MTEXTEND
1000
MTEXTBEGIN
1070
    73
1070
     1
1070
    44
1040
1.0
1070
    74
1070
     0
1000
MTEXTEND
1000
MTEXTBEGIN
1070
    73
1070
     1
1070
    44
1040
1.0
1070
    74
1070
     0
1000
MTEXTEND
  0
POINT
  5
50A
330
3C5
100
AcDbEntity
  8
DEFPOINTS
  6
BYBLOCK
 62
     0
100
AcDbPoint
 10
172.5279993244682
 20
183.1101935913664
 30
0.0
  0
POINT
  5
50B
330
3C5
100
AcDbEntity
  8
DEFPOINTS
  6
BYBLOCK
 62
     0
100
AcDbPoint
 10
124.9029993244682
 20
159.4148935913666
 30
0.0
  0
POINT
  5
50C
330
3C5
100
AcDbEntity
  8
DEFPOINTS
  6
BYBLOCK
 62
     0
100
AcDbPoint
 10
124.9029993244682
 20
207.1733171453755
 30
0.0
  0
ENDBLK
  5
50D
330
3C5
100
AcDbEntity
  8
0
100
AcDbBlockEnd
  0
BLOCK
  5
4F8
330
3D2
100
AcDbEntity
  8
0
100
AcDbBlockBegin
  2
*D3
 70
     1
 10
0.0
 20
0.0
 30
0.0
  3
*D3
  1

  0
LINE
  5
4F9
330
3D2
100
AcDbEntity
  8
0
  6
BYBLOCK
 62
     4
100
AcDbLine
 10
172.5279993244682
 20
186.1101935913664
 30
0.0
 11
172.5279993244682
 21
218.8039825871802
 31
0.0
  0
LINE
  5
4FA
330
3D2
100
AcDbEntity
  8
0
  6
BYBLOCK
 62
     4
100
AcDbLine
 10
104.0173993244683
 20
175.4379935913665
 30
0.0
 11
104.0173993244683
 21
218.8039825871802
 31
0.0
  0
LINE
  5
4FB
330
3D2
100
AcDbEntity
  8
0
  6
BYBLOCK
 62
     4
100
AcDbLine
 10
169.5279993244682
 20
217.3039825871802
 30
0.0
 11
107.0173993244683
 21
217.3039825871802
 31
0.0
  0
INSERT
  5
4FC
330
3D2
100
AcDbEntity
  8
0
  6
BYBLOCK
 62
     4
100
AcDbBlockReference
  2
_OPEN
 10
172.5279993244682
 20
217.3039825871802
 30
0.0
 41
3.0
 42
3.0
 43
3.0
  0
INSERT
  5
4FD
330
3D2
100
AcDbEntity
  8
0
  6
BYBLOCK
 62
     4
100
AcDbBlockReference
  2
_OPEN
 10
104.0173993244683
 20
217.3039825871802
 30
0.0
 41
3.0
 42
3.0
 43
3.0
 50
180.0
  0
MTEXT
  5
4FE
330
3D2
100
AcDbEntity
  8
0
  6
BYBLOCK
 62
     4
100
AcDbMText
 10
138.2726993244683
 20
219.8039825871802
 30
0.0
 40
3.0
 41
0.0
 71
     5
 72
     1
  1
\A1;69
1001
ACAD
1000
MTEXTBEGIN
1070
    73
1070
     1
1070
    44
1040
1.0
1070
    74
1070
     0
1000
MTEXTEND
1000
MTEXTBEGIN
1070
    73
1070
     1
1070
    44
1040
1.0
1070
    74
1070
     0
1000
MTEXTEND
1000
MTEXTBEGIN
1070
    73
1070
     1
1070
    44
1040
1.0
1070
    74
1070
     0
1000
MTEXTEND
  0
POINT
  5
4FF
330
3D2
100
AcDbEntity
  8
DEFPOINTS
  6
BYBLOCK
 62
     0
100
AcDbPoint
 10
172.5279993244682
 20
183.1101935913664
 30
0.0
  0
POINT
  5
500
330
3D2
100
AcDbEntity
  8
DEFPOINTS
  6
BYBLOCK
 62
     0
100
AcDbPoint
 10
104.0173993244683
 20
172.4379935913666
 30
0.0
  0
POINT
  5
501
330
3D2
100
AcDbEntity
  8
DEFPOINTS
  6
BYBLOCK
 62
     0
100
AcDbPoint
 10
104.0173993244683
 20
217.3039825871802
 30
0.0
  0
ENDBLK
  5
502
330
3D2
100
AcDbEntity
  8
0
100
AcDbBlockEnd
  0
BLOCK
  5
4E0
330
3EC
100
AcDbEntity
  8
0
100
AcDbBlockBegin
  2
*D4
 70
     1
 10
0.0
 20
0.0
 30
0.0
  3
*D4
  1

  0
LINE
  5
4E1
330
3EC
100
AcDbEntity
  8
0
  6
BYBLOCK
 62
     4
100
AcDbLine
 10
175.5279993244682
 20
183.1101935913664
 30
0.0
 11
192.4749425408417
 21
183.1101935913664
 31
0.0
  0
LINE
  5
4E2
330
3EC
100
AcDbEntity
  8
0
  6
BYBLOCK
 62
     4
100
AcDbLine
 10
174.3872796215316
 20
119.7307245528973
 30
0.0
 11
192.4749425408417
 21
119.7307245528973
 31
0.0
  0
LINE
  5
4E3
330
3EC
100
AcDbEntity
  8
0
  6
BYBLOCK
 62
     4
100
AcDbLine
 10
190.9749425408417
 20
180.1101935913664
 30
0.0
 11
190.9749425408417
 21
122.7307245528973
 31
0.0
  0
INSERT
  5
4E4
330
3EC
100
AcDbEntity
  8
0
  6
BYBLOCK
 62
     4
100
AcDbBlockReference
  2
_OPEN
 10
190.9749425408417
 20
183.1101935913664
 30
0.0
 41
3.0
 42
3.0
 43
3.0
 50
90.0
  0
INSERT
  5
4E5
330
3EC
100
AcDbEntity
  8
0
  6
BYBLOCK
 62
     4
100
AcDbBlockReference
  2
_OPEN
 10
190.9749425408417
 20
119.7307245528973
 30
0.0
 41
3.0
 42
3.0
 43
3.0
 50
270.0
  0
MTEXT
  5
4E6
330
3EC
100
AcDbEntity
  8
0
  6
BYBLOCK
 62
     4
100
AcDbMText
 10
188.4749425408417
 20
151.4204590721319
 30
0.0
 40
3.0
 41
0.0
 71
     5
 72
     1
  1
\A1;φ 63
 11
0.0
 21
1.0
 31
0.0
1001
ACAD
1000
MTEXTBEGIN
1070
    73
1070
     1
1070
    44
1040
1.0
1070
    74
1070
     0
1000
MTEXTEND
1000
MTEXTBEGIN
1070
    73
1070
     1
1070
    44
1040
1.0
1070
    74
1070
     0
1000
MTEXTEND
1000
MTEXTBEGIN
1070
    73
1070
     1
1070
    44
1040
1.0
1070
    74
1070
     0
1000
MTEXTEND
  0
POINT
  5
4E7
330
3EC
100
AcDbEntity
  8
DEFPOINTS
  6
BYBLOCK
 62
     0
100
AcDbPoint
 10
172.5279993244682
 20
183.1101935913664
 30
0.0
  0
POINT
  5
4E8
330
3EC
100
AcDbEntity
  8
DEFPOINTS
  6
BYBLOCK
 62
     0
100
AcDbPoint
 10
171.3872796215316
 20
119.7307245528973
 30
0.0
  0
POINT
  5
4E9
330
3EC
100
AcDbEntity
  8
DEFPOINTS
  6
BYBLOCK
 62
     0
100
AcDbPoint
 10
190.9749425408417
 20
119.7307245528973
 30
0.0
  0
ENDBLK
  5
4EA
330
3EC
100
AcDbEntity
  8
0
100
AcDbBlockEnd
  0
BLOCK
  5
4D5
330
406
100
AcDbEntity
  8
0
100
AcDbBlockBegin
  2
*D5
 70
     1
 10
0.0
 20
0.0
 30
0.0
  3
*D5
  1

  0
LINE
  5
4D6
330
406
100
AcDbEntity
  8
0
  6
BYBLOCK
 62
     4
100
AcDbLine
 10
175.5279993244682
 20
183.1101935913664
 30
0.0
 11
202.8984810221991
 21
183.1101935913664
 31
0.0
  0
LINE
  5
4D7
330
406
100
AcDbEntity
  8
0
  6
BYBLOCK
 62
     4
100
AcDbLine
 10
145.5279993244682
 20
89.41009359136666
 30
0.0
 11
202.8984810221991
 21
89.41009359136666
 31
0.0
  0
LINE
  5
4D8
330
406
100
AcDbEntity
  8
0
  6
BYBLOCK
 62
     4
100
AcDbLine
 10
201.3984810221991
 20
180.1101935913664
 30
0.0
 11
201.3984810221991
 21
92.41009359136667
 31
0.0
  0
INSERT
  5
4D9
330
406
100
AcDbEntity
  8
0
  6
BYBLOCK
 62
     4
100
AcDbBlockReference
  2
_OPEN
 10
201.3984810221991
 20
183.1101935913664
 30
0.0
 41
3.0
 42
3.0
 43
3.0
 50
90.0
  0
INSERT
  5
4DA
330
406
100
AcDbEntity
  8
0
  6
BYBLOCK
 62
     4
100
AcDbBlockReference
  2
_OPEN
 10
201.3984810221991
 20
89.41009359136666
 30
0.0
 41
3.0
 42
3.0
 43
3.0
 50
270.0
  0
MTEXT
  5
4DB
330
406
100
AcDbEntity
  8
0
  6
BYBLOCK
 62
     4
100
AcDbMText
 10
198.8984810221991
 20
137.4479194253056
 30
0.0
 40
3.0
 41
0.0
 71
     5
 72
     1
  1
\A1;94
 11
0.0
 21
1.0
 31
0.0
1001
ACAD
1000
MTEXTBEGIN
1070
    73
1070
     1
1070
    44
1040
1.0
1070
    74
1070
     0
1000
MTEXTEND
1000
MTEXTBEGIN
1070
    73
1070
     1
1070
    44
1040
1.0
1070
    74
1070
     0
1000
MTEXTEND
1000
MTEXTBEGIN
1070
    73
1070
     1
1070
    44
1040
1.0
1070
    74
1070
     0
1000
MTEXTEND
  0
POINT
  5
4DC
330
406
100
AcDbEntity
  8
DEFPOINTS
  6
BYBLOCK
 62
     0
100
AcDbPoint
 10
172.5279993244682
 20
183.1101935913664
 30
0.0
  0
POINT
  5
4DD
330
406
100
AcDbEntity
  8
DEFPOINTS
  6
BYBLOCK
 62
     0
100
AcDbPoint
 10
142.5279993244682
 20
89.41009359136666
 30
0.0
  0
POINT
  5
4DE
330
406
100
AcDbEntity
  8
DEFPOINTS
  6
BYBLOCK
 62
     0
100
AcDbPoint
 10
201.3984810221991
 20
89.41009359136666
 30
0.0
  0
ENDBLK
  5
4DF
330
406
100
AcDbEntity
  8
0
100
AcDbBlockEnd
  0
BLOCK
  5
519
330
413
100
AcDbEntity
  8
0
100
AcDbBlockBegin
  2
*D6
 70
     1
 10
0.0
 20
0.0
 30
0.0
  3
*D6
  1

  0
LINE
  5
51A
330
413
100
AcDbEntity
  8
0
  6
BYBLOCK
 62
     4
100
AcDbLine
 10
147.5278993244681
 20
106.4100935913666
 30
0.0
 11
147.5278993244681
 21
68.25728031103063
 31
0.0
  0
LINE
  5
51B
330
413
100
AcDbEntity
  8
0
  6
BYBLOCK
 62
     4
100
AcDbLine
 10
102.3124359226446
 20
107.65791839659
 30
0.0
 11
102.3124359226446
 21
68.25728031103063
 31
0.0
  0
LINE
  5
51C
330
413
100
AcDbEntity
  8
0
  6
BYBLOCK
 62
     4
100
AcDbLine
 10
144.5278993244681
 20
69.75728031103063
 30
0.0
 11
105.3124359226446
 21
69.75728031103063
 31
0.0
  0
INSERT
  5
51D
330
413
100
AcDbEntity
  8
0
  6
BYBLOCK
 62
     4
100
AcDbBlockReference
  2
_OPEN
 10
147.5278993244681
 20
69.75728031103063
 30
0.0
 41
3.0
 42
3.0
 43
3.0
  0
INSERT
  5
51E
330
413
100
AcDbEntity
  8
0
  6
BYBLOCK
 62
     4
100
AcDbBlockReference
  2
_OPEN
 10
102.3124359226446
 20
69.75728031103063
 30
0.0
 41
3.0
 42
3.0
 43
3.0
 50
180.0
  0
MTEXT
  5
51F
330
413
100
AcDbEntity
  8
0
  6
BYBLOCK
 62
     4
100
AcDbMText
 10
124.9201676235564
 20
72.25728031103063
 30
0.0
 40
3.0
 41
0.0
 71
     5
 72
     1
  1
\A1;45
1001
ACAD
1000
MTEXTBEGIN
1070
    73
1070
     1
1070
    44
1040
1.0
1070
    74
1070
     0
1000
MTEXTEND
1000
MTEXTBEGIN
1070
    73
1070
     1
1070
    44
1040
1.0
1070
    74
1070
     0
1000
MTEXTEND
1000
MTEXTBEGIN
1070
    73
1070
     1
1070
    44
1040
1.0
1070
    74
1070
     0
1000
MTEXTEND
  0
POINT
  5
520
330
413
100
AcDbEntity
  8
DEFPOINTS
  6
BYBLOCK
 62
     0
100
AcDbPoint
 10
147.5278993244681
 20
109.4100935913666
 30
0.0
  0
POINT
  5
521
330
413
100
AcDbEntity
  8
DEFPOINTS
  6
BYBLOCK
 62
     0
100
AcDbPoint
 10
102.3124359226446
 20
110.65791839659
 30
0.0
  0
POINT
  5
522
330
413
100
AcDbEntity
  8
DEFPOINTS
  6
BYBLOCK
 62
     0
100
AcDbPoint
 10
102.3124359226446
 20
69.75728031103063
 30
0.0
  0
ENDBLK
  5
523
330
413
100
AcDbEntity
  8
0
100
AcDbBlockEnd
  0
BLOCK
  5
524
330
420
100
AcDbEntity
  8
0
100
AcDbBlockBegin
  2
*D7
 70
     1
 10
0.0
 20
0.0
 30
0.0
  3
*D7
  1

  0
LINE
  5
525
330
420
100
AcDbEntity
  8
0
  6
BYBLOCK
 62
     4
100
AcDbLine
 10
269.4526993244682
 20
106.4100935913666
 30
0.0
 11
269.4526993244682
 21
68.25728031103063
 31
0.0
  0
LINE
  5
526
330
420
100
AcDbEntity
  8
0
  6
BYBLOCK
 62
     4
100
AcDbLine
 10
338.4526993244683
 20
106.4100935913666
 30
0.0
 11
338.4526993244683
 21
68.25728031103063
 31
0.0
  0
LINE
  5
527
330
420
100
AcDbEntity
  8
0
  6
BYBLOCK
 62
     4
100
AcDbLine
 10
272.4526993244682
 20
69.75728031103063
 30
0.0
 11
335.4526993244683
 21
69.75728031103063
 31
0.0
  0
INSERT
  5
528
330
420
100
AcDbEntity
  8
0
  6
BYBLOCK
 62
     4
100
AcDbBlockReference
  2
_OPEN
 10
269.4526993244682
 20
69.75728031103063
 30
0.0
 41
3.0
 42
3.0
 43
3.0
 50
180.0
  0
INSERT
  5
529
330
420
100
AcDbEntity
  8
0
  6
BYBLOCK
 62
     4
100
AcDbBlockReference
  2
_OPEN
 10
338.4526993244683
 20
69.75728031103063
 30
0.0
 41
3.0
 42
3.0
 43
3.0
  0
MTEXT
  5
52A
330
420
100
AcDbEntity
  8
0
  6
BYBLOCK
 62
     4
100
AcDbMText
 10
303.9526993244682
 20
72.25728031103063
 30
0.0
 40
3.0
 41
0.0
 71
     5
 72
     1
  1
\A1;69
1001
ACAD
1000
MTEXTBEGIN
1070
    73
1070
     1
1070
    44
1040
1.0
1070
    74
1070
     0
1000
MTEXTEND
1000
MTEXTBEGIN
1070
    73
1070
     1
1070
    44
1040
1.0
1070
    74
1070
     0
1000
MTEXTEND
1000
MTEXTBEGIN
1070
    73
1070
     1
1070
    44
1040
1.0
1070
    74
1070
     0
1000
MTEXTEND
  0
POINT
  5
52B
330
420
100
AcDbEntity
  8
DEFPOINTS
  6
BYBLOCK
 62
     0
100
AcDbPoint
 10
269.4526993244682
 20
109.4100935913666
 30
0.0
  0
POINT
  5
52C
330
420
100
AcDbEntity
  8
DEFPOINTS
  6
BYBLOCK
 62
     0
100
AcDbPoint
 10
338.4526993244683
 20
109.4100935913666
 30
0.0
  0
POINT
  5
52D
330
420
100
AcDbEntity
  8
DEFPOINTS
  6
BYBLOCK
 62
     0
100
AcDbPoint
 10
338.4526993244683
 20
69.75728031103063
 30
0.0
  0
ENDBLK
  5
52E
330
420
100
AcDbEntity
  8
0
100
AcDbBlockEnd
  0
BLOCK
  5
4CA
330
42D
100
AcDbEntity
  8
0
100
AcDbBlockBegin
  2
*D8
 70
     1
 10
0.0
 20
0.0
 30
0.0
  3
*D8
  1

  0
LINE
  5
4CB
330
42D
100
AcDbEntity
  8
0
  6
BYBLOCK
 62
     4
100
AcDbLine
 10
99.27799932446816
 20
119.4100935913666
 30
0.0
 11
82.65583441029685
 21
119.4100935913666
 31
0.0
  0
LINE
  5
4CC
330
42D
100
AcDbEntity
  8
0
  6
BYBLOCK
 62
     4
100
AcDbLine
 10
104.2779993244682
 20
89.41009359136666
 30
0.0
 11
82.65583441029685
 21
89.41009359136666
 31
0.0
  0
LINE
  5
4CD
330
42D
100
AcDbEntity
  8
0
  6
BYBLOCK
 62
     4
100
AcDbLine
 10
84.15583441029685
 20
116.4100935913666
 30
0.0
 11
84.15583441029685
 21
92.41009359136667
 31
0.0
  0
INSERT
  5
4CE
330
42D
100
AcDbEntity
  8
0
  6
BYBLOCK
 62
     4
100
AcDbBlockReference
  2
_OPEN
 10
84.15583441029685
 20
119.4100935913666
 30
0.0
 41
3.0
 42
3.0
 43
3.0
 50
90.0
  0
INSERT
  5
4CF
330
42D
100
AcDbEntity
  8
0
  6
BYBLOCK
 62
     4
100
AcDbBlockReference
  2
_OPEN
 10
84.15583441029685
 20
89.41009359136666
 30
0.0
 41
3.0
 42
3.0
 43
3.0
 50
270.0
  0
MTEXT
  5
4D0
330
42D
100
AcDbEntity
  8
0
  6
BYBLOCK
 62
     4
100
AcDbMText
 10
81.65583441029685
 20
104.4100935913666
 30
0.0
 40
3.0
 41
0.0
 71
     5
 72
     1
  1
\A1;※b 30
 11
0.0
 21
1.0
 31
0.0
1001
ACAD
1000
MTEXTBEGIN
1070
    73
1070
     1
1070
    44
1040
1.0
1070
    74
1070
     0
1000
MTEXTEND
1000
MTEXTBEGIN
1070
    73
1070
     1
1070
    44
1040
1.0
1070
    74
1070
     0
1000
MTEXTEND
1000
MTEXTBEGIN
1070
    73
1070
     1
1070
    44
1040
1.0
1070
    74
1070
     0
1000
MTEXTEND
  0
POINT
  5
4D1
330
42D
100
AcDbEntity
  8
DEFPOINTS
  6
BYBLOCK
 62
     0
100
AcDbPoint
 10
102.2779993244681
 20
119.4100935913666
 30
0.0
  0
POINT
  5
4D2
330
42D
100
AcDbEntity
  8
DEFPOINTS
  6
BYBLOCK
 62
     0
100
AcDbPoint
 10
107.2779993244682
 20
89.41009359136666
 30
0.0
  0
POINT
  5
4D3
330
42D
100
AcDbEntity
  8
DEFPOINTS
  6
BYBLOCK
 62
     0
100
AcDbPoint
 10
84.15583441029685
 20
89.41009359136666
 30
0.0
  0
ENDBLK
  5
4D4
330
42D
100
AcDbEntity
  8
0
100
AcDbBlockEnd
  0
BLOCK
  5
4EB
330
4A4
100
AcDbEntity
  8
0
100
AcDbBlockBegin
  2
*D9
 70
     1
 10
0.0
 20
0.0
 30
0.0
  3
*D9
  1

  0
LINE
  5
4EC
330
4A4
100
AcDbEntity
  8
0
  6
BYBLOCK
 62
     4
100
AcDbLine
 10
175.5279993244682
 20
119.7101935913666
 30
0.0
 11
192.4749425408417
 21
119.7101935913666
 31
0.0
  0
LINE
  5
4ED
330
4A4
100
AcDbEntity
  8
0
  6
BYBLOCK
 62
     4
100
AcDbLine
 10
150.5278993244681
 20
109.4100935913666
 30
0.0
 11
192.4749425408417
 21
109.4100935913666
 31
0.0
  0
LINE
  5
4EE
330
4A4
100
AcDbEntity
  8
0
  6
BYBLOCK
 62
     4
100
AcDbLine
 10
190.9749425408417
 20
122.7101935913666
 30
0.0
 11
190.9749425408417
 21
125.7101935913666
 31
0.0
  0
LINE
  5
4EF
330
4A4
100
AcDbEntity
  8
0
  6
BYBLOCK
 62
     4
100
AcDbLine
 10
190.9749425408417
 20
106.4100935913666
 30
0.0
 11
190.9749425408417
 21
103.4100935913666
 31
0.0
  0
LINE
  5
4F0
330
4A4
100
AcDbEntity
  8
0
  6
BYBLOCK
 62
     4
100
AcDbLine
 10
190.9749425408417
 20
119.7101935913666
 30
0.0
 11
190.9749425408417
 21
109.4100935913666
 31
0.0
  0
INSERT
  5
4F1
330
4A4
100
AcDbEntity
  8
0
  6
BYBLOCK
 62
     4
100
AcDbBlockReference
  2
_OPEN
 10
190.9749425408417
 20
119.7101935913666
 30
0.0
 41
3.0
 42
3.0
 43
3.0
 50
270.0
  0
INSERT
  5
4F2
330
4A4
100
AcDbEntity
  8
0
  6
BYBLOCK
 62
     4
100
AcDbBlockReference
  2
_OPEN
 10
190.9749425408417
 20
109.4100935913666
 30
0.0
 41
3.0
 42
3.0
 43
3.0
 50
90.0
  0
MTEXT
  5
4F3
330
4A4
100
AcDbEntity
  8
0
  6
BYBLOCK
 62
     4
100
AcDbMText
 10
188.4749425408417
 20
114.5601435913666
 30
0.0
 40
3.0
 41
0.0
 71
     5
 72
     1
  1
\A1;10
 11
0.0
 21
1.0
 31
0.0
1001
ACAD
1000
MTEXTBEGIN
1070
    73
1070
     1
1070
    44
1040
1.0
1070
    74
1070
     0
1000
MTEXTEND
1000
MTEXTBEGIN
1070
    73
1070
     1
1070
    44
1040
1.0
1070
    74
1070
     0
1000
MTEXTEND
1000
MTEXTBEGIN
1070
    73
1070
     1
1070
    44
1040
1.0
1070
    74
1070
     0
1000
MTEXTEND
  0
POINT
  5
4F4
330
4A4
100
AcDbEntity
  8
DEFPOINTS
  6
BYBLOCK
 62
     0
100
AcDbPoint
 10
172.5279993244682
 20
119.7101935913666
 30
0.0
  0
POINT
  5
4F5
330
4A4
100
AcDbEntity
  8
DEFPOINTS
  6
BYBLOCK
 62
     0
100
AcDbPoint
 10
147.5278993244681
 20
109.4100935913666
 30
0.0
  0
POINT
  5
4F6
330
4A4
100
AcDbEntity
  8
DEFPOINTS
  6
BYBLOCK
 62
     0
100
AcDbPoint
 10
190.9749425408417
 20
109.4100935913666
 30
0.0
  0
ENDBLK
  5
4F7
330
4A4
100
AcDbEntity
  8
0
100
AcDbBlockEnd
  0
ENDSEC
  0
SECTION
  2
ENTITIES
  0
LINE
  5
6C
330
1A
100
AcDbEntity
  8
ZUWAKU
  6
CONTINUOUS
 62
     7
100
AcDbLine
 10
403.0
 20
7.0
 30
0.0
 11
5.0
 21
7.0
 31
0.0
  0
LINE
  5
6D
330
1A
100
AcDbEntity
  8
ZUWAKU
  6
CONTINUOUS
 62
     7
100
AcDbLine
 10
5.0
 20
282.0
 30
0.0
 11
5.0
 21
7.0
 31
0.0
  0
LINE
  5
6E
330
1A
100
AcDbEntity
  8
ZUWAKU
  6
CONTINUOUS
 62
     7
100
AcDbLine
 10
403.0
 20
282.0
 30
0.0
 11
403.0
 21
7.0
 31
0.0
  0
LINE
  5
6F
330
1A
100
AcDbEntity
  8
ZUWAKU
  6
CONTINUOUS
 62
     7
100
AcDbLine
 10
403.0
 20
282.0
 30
0.0
 11
5.0
 21
282.0
 31
0.0
  0
LINE
  5
8E
330
1A
100
AcDbEntity
  8
ZUWAKU
 62
     7
 48
10.0
100
AcDbLine
 10
5.0
 20
13.0
 30
0.0
 11
403.0
 21
12.99999999999994
 31
0.0
  0
TEXT
  5
93
330
1A
100
AcDbEntity
  8
ZUWAKU
 62
     7
100
AcDbText
 10
8.003143713074223
 20
7.870178177610682
 30
0.0
 40
4.0
  1
品 種
100
AcDbText
  0
TEXT
  5
97
330
1A
100
AcDbEntity
  8
ZUWAKU
 62
     7
100
AcDbText
 10
107.7028028167073
 20
8.200497435100942
 30
0.0
 40
4.0
  1
品名・ｻ ｲ ｽﾞ
100
AcDbText
  0
LINE
  5
9A
330
1A
100
AcDbEntity
  8
ZUWAKU
 62
     7
 48
10.0
100
AcDbLine
 10
324.3551403257206
 20
6.999999999999836
 30
0.0
 11
324.3551403257206
 21
12.99999999999995
 31
0.0
  0
LINE
  5
9B
330
1A
100
AcDbEntity
  8
ZUWAKU
 62
     7
 48
10.0
100
AcDbLine
 10
307.142312366876
 20
6.999999999999836
 30
0.0
 11
307.142312366876
 21
12.99999999999995
 31
0.0
  0
TEXT
  5
9C
330
1A
100
AcDbEntity
  8
ZUWAKU
 62
     7
100
AcDbText
 10
310.1429253763237
 20
7.934661405801826
 30
0.0
 40
4.0
  1
品 番
100
AcDbText
  0
TEXT
  5
9E
330
1A
100
AcDbEntity
  8
ZUWAKU
 62
     7
 48
10.0
100
AcDbText
 10
322.9513761015196
 20
2.449000558492457
 30
0.0
 40
4.0
  1
積水化学工業株式会社  建材
100
AcDbText
  0
TEXT
  5
A1
330
1A
100
AcDbEntity
  8
ZUWAKU
 62
     7
100
AcDbText
 10
389.843492473331
 20
7.886151458996323
 30
0.0
 40
4.0
  1
1/1
100
AcDbText
  0
TEXT
  5
A2
330
1A
100
AcDbEntity
  8
ZUWAKU
 62
     7
100
AcDbText
 10
369.8225424558458
 20
7.729845637642938
 30
0.0
 40
4.0
  1
尺 度
100
AcDbText
  0
LINE
  5
A3
330
1A
100
AcDbEntity
  8
ZUWAKU
 62
     7
 48
10.0
100
AcDbLine
 10
366.8807110760169
 20
6.999999999999886
 30
0.0
 11
366.8807110760169
 21
12.99999999999994
 31
0.0
  0
TEXT
  5
A6
330
1A
100
AcDbEntity
  8
ZUWAKU
 62
     7
 48
10.0
100
AcDbText
 10
396.1622424237184
 20
2.480970960763784
 30
0.0
 40
4.0
  1
A3
100
AcDbText
  0
LINE
  5
F5
330
1A
100
AcDbEntity
  8
ZUWAKU
 62
     7
 48
10.0
100
AcDbLine
 10
22.25374857290876
 20
7.0
 30
0.0
 11
22.25374857290876
 21
13.0
 31
0.0
  0
LINE
  5
F6
330
1A
100
AcDbEntity
  8
ZUWAKU
 62
     7
 48
10.0
100
AcDbLine
 10
104.7316872784438
 20
7.0
 30
0.0
 11
104.7316872784438
 21
12.99999999999998
 31
0.0
  0
LINE
  5
F8
330
1A
100
AcDbEntity
  8
ZUWAKU
 62
     7
 48
10.0
100
AcDbLine
 10
138.0261803105822
 20
7.0
 30
0.0
 11
138.0261803105822
 21
12.99999999999998
 31
0.0
  0
LINE
  5
100
330
1A
100
AcDbEntity
  8
ZUWAKU
 62
     7
 48
10.0
100
AcDbLine
 10
384.3363149538092
 20
6.999999999999862
 30
0.0
 11
384.3363149538092
 21
12.99999999999994
 31
0.0
  0
TEXT
  5
22D
330
1A
100
AcDbEntity
  8
ZUWAKU
 62
     7
100
AcDbText
 10
141.1313324528735
 20
7.9299153608506
 30
0.0
 40
4.0
  1
丸角はいといエルボ　ＵＴ６０－Ｒ６０－９０°
100
AcDbText
  0
LINE
  5
22E
330
1A
100
AcDbEntity
  8
CENTER_L
  6
CENTER
 62
     1
 48
5.0
100
AcDbLine
 10
124.9029993244682
 20
83.44749359136665
 30
0.0
 11
124.9029993244682
 21
159.4148935913666
 31
0.0
  0
LINE
  5
232
330
1A
100
AcDbEntity
  8
SEIHIN
  6
CONTINUOUS
 62
     3
 48
5.0
100
AcDbLine
 10
146.3688993244682
 20
151.4100935913666
 30
0.0
 11
147.5278993244681
 21
109.4100935913666
 31
0.0
  0
LINE
  5
233
330
1A
100
AcDbEntity
  8
SEIHIN
  6
CONTINUOUS
 62
     3
 48
5.0
100
AcDbLine
 10
104.0173993244683
 20
172.4379935913666
 30
0.0
 11
102.2779993244681
 21
109.4100935913666
 31
0.0
  0
TEXT
  5
235
330
1A
100
AcDbEntity
  8
ZUWAKU
 62
     7
100
AcDbText
 10
25.15073007242387
 20
8.160237806787449
 30
0.0
 40
4.0
  1
丸トップ　たてとい
100
AcDbText
  0
LINE
  5
23C
330
1A
100
AcDbEntity
  8
SEIHIN
  6
CONTINUOUS
 62
     3
 48
5.0
100
AcDbLine
 10
142.5279993244682
 20
89.41009359136666
 30
0.0
 11
107.2779993244682
 21
89.41009359136666
 31
0.0
  0
LINE
  5
23D
330
1A
100
AcDbEntity
  8
SEIHIN
  6
CONTINUOUS
 62
     3
 48
5.0
100
AcDbLine
 10
102.2779993244681
 20
109.4100935913666
 30
0.0
 11
147.5278993244681
 21
109.4100935913666
 31
0.0
  0
LINE
  5
23E
330
1A
100
AcDbEntity
  8
SEIHIN
  6
CONTINUOUS
 62
     3
 48
5.0
100
AcDbLine
 10
106.7779993244682
 20
94.41009359136666
 30
0.0
 11
143.0279993244682
 21
94.41009359136666
 31
0.0
  0
LINE
  5
23F
330
1A
100
AcDbEntity
  8
SEIHIN
  6
CONTINUOUS
 62
     3
 48
5.0
100
AcDbLine
 10
106.7779993244682
 20
94.41009359136666
 30
0.0
 11
107.2779993244682
 21
89.41009359136666
 31
0.0
  0
LINE
  5
240
330
1A
100
AcDbEntity
  8
SEIHIN
  6
CONTINUOUS
 62
     3
 48
5.0
100
AcDbLine
 10
106.7779993244682
 20
94.41009359136666
 30
0.0
 11
106.7779993244682
 21
109.4100935913666
 31
0.0
  0
LINE
  5
241
330
1A
100
AcDbEntity
  8
SEIHIN
  6
CONTINUOUS
 62
     3
 48
5.0
100
AcDbLine
 10
142.5279993244682
 20
89.41009359136666
 30
0.0
 11
143.0279993244682
 21
94.41009359136666
 31
0.0
  0
LINE
  5
242
330
1A
100
AcDbEntity
  8
SEIHIN
  6
CONTINUOUS
 62
     3
 48
5.0
100
AcDbLine
 10
143.0279993244682
 20
94.41009359136666
 30
0.0
 11
143.0279993244682
 21
109.4100935913666
 31
0.0
  0
LINE
  5
245
330
1A
100
AcDbEntity
  8
CENTER_L
  6
CENTER
 62
     1
 48
5.0
100
AcDbLine
 10
118.1622993244683
 20
151.4100935913666
 30
0.0
 11
178.5680993244683
 21
151.4100935913666
 31
0.0
  0
LINE
  5
247
330
1A
100
AcDbEntity
  8
SEIHIN
  6
CONTINUOUS
 62
     3
 48
5.0
100
AcDbLine
 10
172.5279993244682
 20
183.1101935913664
 30
0.0
 11
113.7236993244682
 21
182.0516935913665
 31
0.0
  0
LINE
  5
248
330
1A
100
AcDbEntity
  8
SEIHIN
  6
CONTINUOUS
 62
     3
 48
5.0
100
AcDbLine
 10
112.7640993244682
 20
181.2625935913665
 30
0.0
 11
111.4788993244683
 21
134.6889935913665
 31
0.0
  0
ARC
  5
249
330
1A
100
AcDbEntity
  8
SEIHIN
  6
CONTINUOUS
 62
     3
 48
5.0
100
AcDbCircle
 10
96.48459070661273
 20
135.1027806895294
 30
0.0
 40
15.00001702299378
100
AcDbArc
 50
294.0985135272537
 51
358.4192509759406
  0
ARC
  5
24B
330
1A
100
AcDbEntity
  8
SEIHIN
  6
CONTINUOUS
 62
     3
 48
5.0
100
AcDbCircle
 10
104.2780190934163
 20
181.8816131714926
 30
0.0
 40
8.499973928790947
100
AcDbArc
 50
274.4613247405996
 51
354.9885102046586
  0
ARC
  5
24C
330
1A
100
AcDbEntity
  8
SEIHIN
  6
CONTINUOUS
 62
     3
 48
5.0
100
AcDbCircle
 10
105.0170250611088
 20
172.4104206554936
 30
0.0
 40
1.000005940055783
100
AcDbArc
 50
94.46357332509965
 51
178.4199962849913
  0
ARC
  5
24D
330
1A
100
AcDbEntity
  8
SEIHIN
  6
CONTINUOUS
 62
     3
 48
5.0
100
AcDbCircle
 10
113.741723450522
 20
181.0518160983733
 30
0.0
 40
1.000039934259973
100
AcDbArc
 50
91.03272103078184
 51
174.9931979944492
  0
LINE
  5
24F
330
1A
100
AcDbEntity
  8
SEIHIN
  6
CONTINUOUS
 62
     3
 48
5.0
100
AcDbLine
 10
172.5279993244682
 20
119.7101935913666
 30
0.0
 11
172.5279993244682
 21
183.1101935913664
 31
0.0
  0
LINE
  5
250
330
1A
100
AcDbEntity
  8
SEIHIN
  6
CONTINUOUS
 62
     3
 48
5.0
100
AcDbLine
 10
172.5279993244682
 20
119.7101935913666
 30
0.0
 11
147.2310993244683
 21
120.1654935913666
 31
0.0
  0
LINE
  5
251
330
1A
100
AcDbEntity
  8
CENTER_L
  6
CENTER
 62
     1
 48
5.0
100
AcDbLine
 10
303.9527993244683
 20
82.19169359136657
 30
0.0
 11
303.9527993244683
 21
189.7655935913666
 31
0.0
  0
LINE
  5
252
330
1A
100
AcDbEntity
  8
SEIHIN
  6
CONTINUOUS
 62
     3
 48
5.0
100
AcDbLine
 10
338.4526993244683
 20
109.4100935913666
 30
0.0
 11
335.585899324468
 21
153.4684935913666
 31
0.0
  0
LINE
  5
253
330
1A
100
AcDbEntity
  8
SEIHIN
  6
CONTINUOUS
 62
     3
 48
5.0
100
AcDbLine
 10
269.4526993244682
 20
109.4100935913666
 30
0.0
 11
272.3196993244682
 21
153.4685935913666
 31
0.0
  0
TEXT
  5
254
330
1A
100
AcDbEntity
  8
ZUWAKU
 62
     7
100
AcDbText
 10
327.1013476411085
 20
8.060146781246288
 30
0.0
 40
4.0
  1
ＧＨ９８
100
AcDbText
  0
LINE
  5
25A
330
1A
100
AcDbEntity
  8
SEIHIN
  6
CONTINUOUS
 62
     3
 48
5.0
100
AcDbLine
 10
334.4027993244683
 20
94.41009359136666
 30
0.0
 11
303.9527993244683
 21
94.41009359136666
 31
0.0
  0
LINE
  5
25B
330
1A
100
AcDbEntity
  8
SEIHIN
  6
CONTINUOUS
 62
     3
 48
5.0
100
AcDbLine
 10
333.9027993244683
 20
89.41009359136666
 30
0.0
 11
303.9527993244683
 21
89.41019359136658
 31
0.0
  0
LINE
  5
25C
330
1A
100
AcDbEntity
  8
SEIHIN
  6
CONTINUOUS
 62
     3
 48
5.0
100
AcDbLine
 10
269.4526993244682
 20
109.4100935913666
 30
0.0
 11
338.4526993244683
 21
109.4100935913666
 31
0.0
  0
LINE
  5
25D
330
1A
100
AcDbEntity
  8
SEIHIN
  6
CONTINUOUS
 62
     3
 48
5.0
100
AcDbLine
 10
273.5026993244682
 20
94.41009359136666
 30
0.0
 11
303.9527993244683
 21
94.41009359136666
 31
0.0
  0
LINE
  5
25E
330
1A
100
AcDbEntity
  8
SEIHIN
  6
CONTINUOUS
 62
     3
 48
5.0
100
AcDbLine
 10
274.0026993244682
 20
89.41019359136658
 30
0.0
 11
303.9527993244683
 21
89.41019359136658
 31
0.0
  0
LINE
  5
25F
330
1A
100
AcDbEntity
  8
SEIHIN
  6
CONTINUOUS
 62
     3
 48
5.0
100
AcDbLine
 10
273.5026993244682
 20
94.41019359136651
 30
0.0
 11
274.0026993244682
 21
89.41019359136658
 31
0.0
  0
LINE
  5
260
330
1A
100
AcDbEntity
  8
SEIHIN
  6
CONTINUOUS
 62
     3
 48
5.0
100
AcDbLine
 10
273.5026993244682
 20
94.41019359136651
 30
0.0
 11
273.5026993244682
 21
109.4100935913666
 31
0.0
  0
LINE
  5
261
330
1A
100
AcDbEntity
  8
SEIHIN
  6
CONTINUOUS
 62
     3
 48
5.0
100
AcDbLine
 10
334.4027993244683
 20
94.41009359136666
 30
0.0
 11
333.9027993244683
 21
89.41009359136666
 31
0.0
  0
LINE
  5
262
330
1A
100
AcDbEntity
  8
SEIHIN
  6
CONTINUOUS
 62
     3
 48
5.0
100
AcDbLine
 10
334.4027993244683
 20
94.41009359136666
 30
0.0
 11
334.4027993244683
 21
109.4100935913666
 31
0.0
  0
LINE
  5
263
330
1A
100
AcDbEntity
  8
CENTER_L
  6
CENTER
 62
     1
 48
5.0
100
AcDbLine
 10
263.5417993244683
 20
151.4100935913666
 30
0.0
 11
342.8264993244682
 21
151.4100935913666
 31
0.0
  0
ARC
  5
264
330
1A
100
AcDbEntity
  8
SEIHIN
  6
CONTINUOUS
 62
     3
 48
5.0
100
AcDbCircle
 10
303.9527993244681
 20
151.4100935913666
 30
0.0
 40
30.09999999999996
100
AcDbArc
 50
0.0
 51
180.0
  0
ARC
  5
265
330
1A
100
AcDbEntity
  8
SEIHIN
  6
CONTINUOUS
 62
     3
 48
5.0
100
AcDbCircle
 10
303.9527993244681
 20
151.4100935913666
 30
0.0
 40
30.0999999999999
100
AcDbArc
 50
180.0
 51
0.0
  0
ARC
  5
266
330
1A
100
AcDbEntity
  8
SEIHIN
  6
CONTINUOUS
 62
     3
 48
5.0
100
AcDbCircle
 10
303.9527993244683
 20
151.4100935913666
 30
0.0
 40
31.69999999999999
100
AcDbArc
 50
0.0
 51
180.0
  0
ARC
  5
267
330
1A
100
AcDbEntity
  8
SEIHIN
  6
CONTINUOUS
 62
     3
 48
5.0
100
AcDbCircle
 10
303.9527993244683
 20
151.4100935913666
 30
0.0
 40
31.70000000000004
100
AcDbArc
 50
180.0
 51
0.0
  0
ARC
  5
268
330
1A
100
AcDbEntity
  8
SEIHIN
  6
CONTINUOUS
 62
     3
 48
5.0
100
AcDbCircle
 10
303.952799324353
 20
151.4100935913666
 30
0.0
 40
21.70000000011526
100
AcDbArc
 50
0.0000000000001501
 51
179.9997359641499
  0
LINE
  5
269
330
1A
100
AcDbEntity
  8
SEIHIN
  6
CONTINUOUS
 62
     3
 48
5.0
100
AcDbLine
 10
280.9440993244681
 20
132.0036935913666
 30
0.0
 11
282.2985993244681
 21
152.8191935913665
 31
0.0
  0
LINE
  5
26A
330
1A
100
AcDbEntity
  8
SEIHIN
  6
CONTINUOUS
 62
     3
 48
5.0
100
AcDbLine
 10
326.9614993244681
 20
132.0036935913666
 30
0.0
 11
325.6069993244681
 21
152.8191935913665
 31
0.0
  0
DIMENSION
  5
3C4
330
1A
100
AcDbEntity
  8
SUNPOU
  6
CONTINUOUS
 48
5.0
100
AcDbDimension
  2
*D1
 10
147.5279993244682
 20
197.0426527383632
 30
0.0
 11
160.0279993244682
 21
199.5426527383632
 31
0.0
 70
    32
  1
※a <>
  3
STANDARD
100
AcDbAlignedDimension
 13
172.5279993244682
 23
183.1101935913664
 33
0.0
 14
147.5279993244682
 24
183.1101935913664
 34
0.0
100
AcDbRotatedDimension
1001
ACAD
1000
DSTYLE
1002
{
1070
   140
1040
3.0
1070
    74
1070
     0
1070
   172
1070
     1
1070
    73
1070
     0
1070
   272
1070
     2
1070
    77
1070
     3
1070
   173
1070
     1
1070
   147
1040
1.0
1070
    42
1040
3.0
1070
    44
1040
1.5
1070
    43
1040
7.0
1070
   271
1070
     0
1070
   178
1070
     4
1070
   177
1070
     4
1070
   176
1070
     4
1070
   141
1040
150.0
1070
     7
1000
_OPEN
1070
     6
1000
_OPEN
1070
    41
1040
3.0
1002
}
  0
DIMENSION
  5
3D1
330
1A
100
AcDbEntity
  8
SUNPOU
  6
CONTINUOUS
 48
5.0
100
AcDbDimension
  2
*D2
 10
124.9029993244682
 20
207.1733171453755
 30
0.0
 11
148.7154993244682
 21
209.6733171453755
 31
0.0
 70
    32
  3
STANDARD
100
AcDbAlignedDimension
 13
172.5279993244682
 23
183.1101935913664
 33
0.0
 14
124.9029993244682
 24
159.4148935913666
 34
0.0
100
AcDbRotatedDimension
1001
ACAD
1000
DSTYLE
1002
{
1070
   140
1040
3.0
1070
    74
1070
     0
1070
   172
1070
     1
1070
    73
1070
     0
1070
   272
1070
     2
1070
    77
1070
     3
1070
   173
1070
     1
1070
   147
1040
1.0
1070
    42
1040
3.0
1070
    44
1040
1.5
1070
    43
1040
7.0
1070
   271
1070
     0
1070
   178
1070
     4
1070
   177
1070
     4
1070
   176
1070
     4
1070
   141
1040
150.0
1070
     7
1000
_OPEN
1070
     6
1000
_OPEN
1070
    41
1040
3.0
1002
}
  0
DIMENSION
  5
3DE
330
1A
100
AcDbEntity
  8
SUNPOU
  6
CONTINUOUS
 48
5.0
100
AcDbDimension
  2
*D3
 10
104.0173993244683
 20
217.3039825871802
 30
0.0
 11
138.2726993244683
 21
219.8039825871802
 31
0.0
 70
    32
  3
STANDARD
100
AcDbAlignedDimension
 13
172.5279993244682
 23
183.1101935913664
 33
0.0
 14
104.0173993244683
 24
172.4379935913666
 34
0.0
100
AcDbRotatedDimension
1001
ACAD
1000
DSTYLE
1002
{
1070
   140
1040
3.0
1070
    74
1070
     0
1070
   172
1070
     1
1070
    73
1070
     0
1070
   272
1070
     2
1070
    77
1070
     3
1070
   173
1070
     1
1070
   147
1040
1.0
1070
    42
1040
3.0
1070
    44
1040
1.5
1070
    43
1040
7.0
1070
   271
1070
     0
1070
   178
1070
     4
1070
   177
1070
     4
1070
   176
1070
     4
1070
   141
1040
150.0
1070
     7
1000
_OPEN
1070
     6
1000
_OPEN
1070
    41
1040
3.0
1002
}
  0
DIMENSION
  5
3F8
330
1A
100
AcDbEntity
  8
SUNPOU
  6
CONTINUOUS
 48
5.0
100
AcDbDimension
  2
*D4
 10
190.9749425408417
 20
119.7307245528973
 30
0.0
 11
188.4749425408417
 21
151.4204590721319
 31
0.0
 70
    32
  1
φ <>
  3
STANDARD
100
AcDbAlignedDimension
 13
172.5279993244682
 23
183.1101935913664
 33
0.0
 14
171.3872796215316
 24
119.7307245528973
 34
0.0
 50
90.0
100
AcDbRotatedDimension
1001
ACAD
1000
DSTYLE
1002
{
1070
   140
1040
3.0
1070
    74
1070
     0
1070
   172
1070
     1
1070
    73
1070
     0
1070
   272
1070
     2
1070
    77
1070
     3
1070
   173
1070
     1
1070
   147
1040
1.0
1070
    42
1040
3.0
1070
    44
1040
1.5
1070
    43
1040
7.0
1070
   271
1070
     0
1070
   178
1070
     4
1070
   177
1070
     4
1070
   176
1070
     4
1070
   141
1040
150.0
1070
     7
1000
_OPEN
1070
     6
1000
_OPEN
1070
    41
1040
3.0
1002
}
  0
DIMENSION
  5
412
330
1A
100
AcDbEntity
  8
SUNPOU
  6
CONTINUOUS
 48
5.0
100
AcDbDimension
  2
*D5
 10
201.3984810221991
 20
89.41009359136666
 30
0.0
 11
201.3984810221991
 21
137.4479194253056
 31
0.0
 70
   160
  3
STANDARD
100
AcDbAlignedDimension
 13
172.5279993244682
 23
183.1101935913664
 33
0.0
 14
142.5279993244682
 24
89.41009359136666
 34
0.0
 50
90.0
100
AcDbRotatedDimension
1001
ACAD
1000
DSTYLE
1002
{
1070
   140
1040
3.0
1070
    74
1070
     0
1070
   172
1070
     1
1070
    73
1070
     0
1070
   272
1070
     2
1070
    77
1070
     3
1070
   173
1070
     1
1070
   147
1040
1.0
1070
    42
1040
3.0
1070
    44
1040
1.5
1070
    43
1040
7.0
1070
   271
1070
     0
1070
   178
1070
     4
1070
   177
1070
     4
1070
   176
1070
     4
1070
   141
1040
150.0
1070
     7
1000
_OPEN
1070
     6
1000
_OPEN
1070
    41
1040
3.0
1002
}
  0
DIMENSION
  5
41F
330
1A
100
AcDbEntity
  8
SUNPOU
  6
CONTINUOUS
 48
5.0
100
AcDbDimension
  2
*D6
 10
102.3124359226446
 20
69.75728031103063
 30
0.0
 11
124.9201676235564
 21
72.25728031103063
 31
0.0
 70
    32
  3
STANDARD
100
AcDbAlignedDimension
 13
147.5278993244681
 23
109.4100935913666
 33
0.0
 14
102.3124359226446
 24
110.65791839659
 34
0.0
100
AcDbRotatedDimension
1001
ACAD
1000
DSTYLE
1002
{
1070
   140
1040
3.0
1070
    74
1070
     0
1070
   172
1070
     1
1070
    73
1070
     0
1070
   272
1070
     2
1070
    77
1070
     3
1070
   173
1070
     1
1070
   147
1040
1.0
1070
    42
1040
3.0
1070
    44
1040
1.5
1070
    43
1040
7.0
1070
   271
1070
     0
1070
   178
1070
     4
1070
   177
1070
     4
1070
   176
1070
     4
1070
   141
1040
150.0
1070
     7
1000
_OPEN
1070
     6
1000
_OPEN
1070
    41
1040
3.0
1002
}
  0
DIMENSION
  5
42C
330
1A
100
AcDbEntity
  8
SUNPOU
  6
CONTINUOUS
 48
5.0
100
AcDbDimension
  2
*D7
 10
338.4526993244683
 20
69.75728031103063
 30
0.0
 11
303.9526993244682
 21
72.25728031103063
 31
0.0
 70
    32
  3
STANDARD
100
AcDbAlignedDimension
 13
269.4526993244682
 23
109.4100935913666
 33
0.0
 14
338.4526993244683
 24
109.4100935913666
 34
0.0
100
AcDbRotatedDimension
1001
ACAD
1000
DSTYLE
1002
{
1070
   140
1040
3.0
1070
    74
1070
     0
1070
   172
1070
     1
1070
    73
1070
     0
1070
   272
1070
     2
1070
    77
1070
     3
1070
   173
1070
     1
1070
   147
1040
1.0
1070
    42
1040
3.0
1070
    44
1040
1.5
1070
    43
1040
7.0
1070
   271
1070
     0
1070
   178
1070
     4
1070
   177
1070
     4
1070
   176
1070
     4
1070
   141
1040
150.0
1070
     7
1000
_OPEN
1070
     6
1000
_OPEN
1070
    41
1040
3.0
1002
}
  0
DIMENSION
  5
439
330
1A
100
AcDbEntity
  8
SUNPOU
  6
CONTINUOUS
 48
5.0
100
AcDbDimension
  2
*D8
 10
84.15583441029685
 20
89.41009359136666
 30
0.0
 11
81.65583441029685
 21
104.4100935913666
 31
0.0
 70
    32
  1
※b <>
  3
STANDARD
100
AcDbAlignedDimension
 13
102.2779993244681
 23
119.4100935913666
 33
0.0
 14
107.2779993244682
 24
89.41009359136666
 34
0.0
 50
90.0
100
AcDbRotatedDimension
1001
ACAD
1000
DSTYLE
1002
{
1070
   140
1040
3.0
1070
    74
1070
     0
1070
   172
1070
     1
1070
    73
1070
     0
1070
   272
1070
     2
1070
    77
1070
     3
1070
   173
1070
     1
1070
   147
1040
1.0
1070
    42
1040
3.0
1070
    44
1040
1.5
1070
    43
1040
7.0
1070
   271
1070
     0
1070
   178
1070
     4
1070
   177
1070
     4
1070
   176
1070
     4
1070
   141
1040
150.0
1070
     7
1000
_OPEN
1070
     6
1000
_OPEN
1070
    41
1040
3.0
1002
}
  0
TEXT
  5
49D
330
1A
100
AcDbEntity
  8
SUNPOU
 62
     4
 48
5.0
100
AcDbText
 10
285.43775689638
 20
36.20172483069163
 30
0.0
 40
4.0
  1
※a　たてといの差込み寸法を示す。
100
AcDbText
  0
TEXT
  5
49E
330
1A
100
AcDbEntity
  8
SUNPOU
 62
     4
 48
5.0
100
AcDbText
 10
285.43775689638
 20
28.8731884599309
 30
0.0
 40
4.0
  1
※b　はいとい用落とし口の差込み寸法を示す。
100
AcDbText
  0
DIMENSION
  5
4B2
330
1A
100
AcDbEntity
  8
SUNPOU
100
AcDbDimension
  2
*D9
 10
190.9749425408417
 20
109.4100935913666
 30
0.0
 11
188.4749425408417
 21
114.5601435913666
 31
0.0
 70
    32
  3
STANDARD
100
AcDbAlignedDimension
 13
172.5279993244682
 23
119.7101935913666
 33
0.0
 14
147.5278993244681
 24
109.4100935913666
 34
0.0
 50
90.0
100
AcDbRotatedDimension
1001
ACAD
1000
DSTYLE
1002
{
1070
   140
1040
3.0
1070
    74
1070
     0
1070
   172
1070
     1
1070
    73
1070
     0
1070
   272
1070
     2
1070
    77
1070
     3
1070
   173
1070
     1
1070
   147
1040
1.0
1070
    42
1040
3.0
1070
    44
1040
1.5
1070
    43
1040
7.0
1070
   271
1070
     0
1070
   178
1070
     4
1070
   177
1070
     4
1070
   176
1070
     4
1070
   141
1040
150.0
1070
     7
1000
_OPEN
1070
     6
1000
_OPEN
1070
    41
1040
3.0
1002
}
  0
VIEWPORT
  5
22
330
17
100
AcDbEntity
 67
     1
  8
0
100
AcDbViewport
 10
313.6808219178082
 20
148.5
 30
0.0
 40
627.3616438356165
 41
297.0
 68
     2
 69
     1
1001
ACAD
1000
MVIEW
1002
{
1070
    16
1010
0.0
1020
0.0
1030
0.0
1010
0.0
1020
0.0
1030
1.0
1040
0.0
1040
297.0
1040
313.6808219178082
1040
148.5
1040
50.0
1040
0.0
1040
0.0
1070
     0
1070
   100
1070
     1
1070
     0
1070
     0
1070
     0
1070
     0
1070
     0
1040
0.0
1040
0.0
1040
0.0
1040
1.0
1040
1.0
1040
10.0
1040
10.0
1070
     0
1002
{
1002
}
1002
}
  0
VIEWPORT
  5
64
330
17
100
AcDbEntity
 67
     1
  8
VIEWPORT
100
AcDbViewport
 10
210.0
 20
148.5
 30
0.0
 40
420.0
 41
297.0
 68
     1
 69
     2
1001
ACAD
1000
MVIEW
1002
{
1070
    16
1010
0.0
1020
0.0
1030
0.0
1010
0.0
1020
0.0
1030
1.0
1040
0.0
1040
302.9399999999998
1040
210.0
1040
148.5
1040
50.0
1040
0.0
1040
0.0
1070
     0
1070
   100
1070
     1
1070
     0
1070
     0
1070
     0
1070
     0
1070
     0
1040
0.0
1040
0.0
1040
0.0
1040
5.0
1040
5.0
1040
0.0
1040
0.0
1070
     0
1002
{
1002
}
1002
}
  0
ENDSEC
  0
SECTION
  2
OBJECTS
  0
DICTIONARY
  5
C
330
0
100
AcDbDictionary
  3
ACAD_GROUP
350
D
  3
ACAD_LAYOUT
350
534
  3
ACAD_MLINESTYLE
350
E
  3
ACAD_PLOTSETTINGS
350
535
1001
ACAD
1000
TREAT_AS_HARD
1070
     0
  0
DICTIONARY
  5
563
330
1A
100
AcDbDictionary
  3
ACAD_LAYOUTSELFREF
350
5A7
1001
ACAD
1000
TREAT_AS_HARD
1070
     1
  0
DICTIONARY
  5
561
330
17
100
AcDbDictionary
  3
ACAD_LAYOUTSELFREF
350
5A6
1001
ACAD
1000
TREAT_AS_HARD
1070
     1
  0
DICTIONARY
  5
D
102
{ACAD_REACTORS
330
C
102
}
330
C
100
AcDbDictionary
1001
ACAD
1000
TREAT_AS_HARD
1070
     0
  0
DICTIONARY
  5
534
102
{ACAD_REACTORS
330
C
102
}
330
C
100
AcDbDictionary
1001
ACAD
1000
TREAT_AS_HARD
1070
     0
  0
DICTIONARY
  5
E
102
{ACAD_REACTORS
330
C
102
}
330
C
100
AcDbDictionary
  3
STANDARD
350
13
1001
ACAD
1000
TREAT_AS_HARD
1070
     0
  0
DICTIONARY
  5
535
102
{ACAD_REACTORS
330
C
102
}
330
C
100
AcDbDictionary
1001
ACAD
1000
TREAT_AS_HARD
1070
     0
  0
XRECORD
  5
5A7
102
{ACAD_REACTORS
330
563
102
}
330
563
100
AcDbXrecord
340
1A
  0
XRECORD
  5
5A6
102
{ACAD_REACTORS
330
561
102
}
330
561
100
AcDbXrecord
340
17
  0
MLINESTYLE
  5
13
102
{ACAD_REACTORS
330
E
102
}
330
E
100
AcDbMlineStyle
  2
STANDARD
 70
     0
  3

 62
     0
 51
90.0
 52
90.0
 71
     2
 49
0.5
 62
   256
  6
BYLAYER
 49
-0.5
 62
   256
  6
BYLAYER
  0
ENDSEC
  0
EOF
