  0
SECTION
  2
HEADER
  9
$ACADVER
  1
AC1014
  9
$ACADMAINTVER
 70
     9
  9
$DWGCODEPAGE
  3
ANSI_932
  9
$INSBASE
 10
0.0
 20
0.0
 30
0.0
  9
$EXTMIN
 10
-0.0256328098773793
 20
-0.0181261901288963
 30
-0.0015258207003583
  9
$EXTMAX
 10
797.6000995626677
 20
551.6452344786116
 30
0.0000000349246037
  9
$LIMMIN
 10
0.0
 20
0.0
  9
$LIMMAX
 10
840.0
 20
594.0
  9
$ORTHOMODE
 70
     0
  9
$REGENMODE
 70
     1
  9
$FILLMODE
 70
     1
  9
$QTEXTMODE
 70
     0
  9
$MIRRTEXT
 70
     1
  9
$DRAGMODE
 70
     2
  9
$LTSCALE
 40
2.0
  9
$OSMODE
 70
    37
  9
$ATTMODE
 70
     1
  9
$TEXTSIZE
 40
5.0
  9
$TRACEWID
 40
1.0
  9
$TEXTSTYLE
  7
STANDARD
  9
$CLAYER
  8
SUNPOU
  9
$CELTYPE
  6
BYLAYER
  9
$CECOLOR
 62
   256
  9
$CELTSCALE
 40
1.0
  9
$DELOBJ
 70
     1
  9
$DISPSILH
 70
     0
  9
$DIMSCALE
 40
1.0
  9
$DIMASZ
 40
7.0
  9
$DIMEXO
 40
6.0
  9
$DIMDLI
 40
14.0
  9
$DIMRND
 40
0.0
  9
$DIMDLE
 40
0.0
  9
$DIMEXE
 40
3.0
  9
$DIMTP
 40
0.0
  9
$DIMTM
 40
0.0
  9
$DIMTXT
 40
6.0
  9
$DIMCEN
 40
150.0
  9
$DIMTSZ
 40
0.0
  9
$DIMTOL
 70
     0
  9
$DIMLIM
 70
     0
  9
$DIMTIH
 70
     0
  9
$DIMTOH
 70
     0
  9
$DIMSE1
 70
     0
  9
$DIMSE2
 70
     0
  9
$DIMTAD
 70
     3
  9
$DIMZIN
 70
     0
  9
$DIMBLK
  1

  9
$DIMASO
 70
     1
  9
$DIMSHO
 70
     1
  9
$DIMPOST
  1

  9
$DIMAPOST
  1

  9
$DIMALT
 70
     0
  9
$DIMALTD
 70
     2
  9
$DIMALTF
 40
25.4
  9
$DIMLFAC
 40
1.0
  9
$DIMTOFL
 70
     1
  9
$DIMTVP
 40
0.0
  9
$DIMTIX
 70
     0
  9
$DIMSOXD
 70
     0
  9
$DIMSAH
 70
     1
  9
$DIMBLK1
  1
OPEN
  9
$DIMBLK2
  1
OPEN
  9
$DIMSTYLE
  2
STANDARD
  9
$DIMCLRD
 70
   256
  9
$DIMCLRE
 70
   256
  9
$DIMCLRT
 70
   256
  9
$DIMTFAC
 40
1.0
  9
$DIMGAP
 40
2.0
  9
$DIMJUST
 70
     0
  9
$DIMSD1
 70
     0
  9
$DIMSD2
 70
     0
  9
$DIMTOLJ
 70
     1
  9
$DIMTZIN
 70
     0
  9
$DIMALTZ
 70
     0
  9
$DIMALTTZ
 70
     0
  9
$DIMFIT
 70
     5
  9
$DIMUPT
 70
     0
  9
$DIMUNIT
 70
     2
  9
$DIMDEC
 70
     0
  9
$DIMTDEC
 70
     0
  9
$DIMALTU
 70
     2
  9
$DIMALTTD
 70
     2
  9
$DIMTXSTY
  7
STANDARD
  9
$DIMAUNIT
 70
     0
  9
$LUNITS
 70
     2
  9
$LUPREC
 70
     4
  9
$SKETCHINC
 40
1.0
  9
$FILLETRAD
 40
20.0
  9
$AUNITS
 70
     0
  9
$AUPREC
 70
     0
  9
$MENU
  1
.
  9
$ELEVATION
 40
0.0
  9
$PELEVATION
 40
0.0
  9
$THICKNESS
 40
0.0
  9
$LIMCHECK
 70
     0
  9
$BLIPMODE
 70
     0
  9
$CHAMFERA
 40
20.0
  9
$CHAMFERB
 40
20.0
  9
$CHAMFERC
 40
40.0
  9
$CHAMFERD
 40
0.0
  9
$SKPOLY
 70
     0
  9
$TDCREATE
 40
2451023.646678588
  9
$TDUPDATE
 40
2454512.725624167
  9
$TDINDWG
 40
0.0603242245
  9
$TDUSRTIMER
 40
0.0603242245
  9
$USRTIMER
 70
     1
  9
$ANGBASE
 50
0.0
  9
$ANGDIR
 70
     0
  9
$PDMODE
 70
     0
  9
$PDSIZE
 40
0.0
  9
$PLINEWID
 40
0.0
  9
$COORDS
 70
     2
  9
$SPLFRAME
 70
     0
  9
$SPLINETYPE
 70
     6
  9
$SPLINESEGS
 70
     8
  9
$ATTDIA
 70
     0
  9
$ATTREQ
 70
     1
  9
$HANDLING
 70
 10241
  9
$HANDSEED
  5
29C9
  9
$SURFTAB1
 70
     6
  9
$SURFTAB2
 70
     6
  9
$SURFTYPE
 70
     6
  9
$SURFU
 70
     6
  9
$SURFV
 70
     6
  9
$UCSNAME
  2

  9
$UCSORG
 10
0.0
 20
0.0
 30
0.0
  9
$UCSXDIR
 10
1.0
 20
0.0
 30
0.0
  9
$UCSYDIR
 10
0.0
 20
1.0
 30
0.0
  9
$PUCSNAME
  2

  9
$PUCSORG
 10
0.0
 20
0.0
 30
0.0
  9
$PUCSXDIR
 10
1.0
 20
0.0
 30
0.0
  9
$PUCSYDIR
 10
0.0
 20
1.0
 30
0.0
  9
$USERI1
 70
     0
  9
$USERI2
 70
     0
  9
$USERI3
 70
     0
  9
$USERI4
 70
     0
  9
$USERI5
 70
     0
  9
$USERR1
 40
0.0
  9
$USERR2
 40
0.0
  9
$USERR3
 40
0.0
  9
$USERR4
 40
0.0
  9
$USERR5
 40
0.0
  9
$WORLDVIEW
 70
     1
  9
$SHADEDGE
 70
     3
  9
$SHADEDIF
 70
    70
  9
$TILEMODE
 70
     1
  9
$MAXACTVP
 70
    16
  9
$PINSBASE
 10
0.0
 20
0.0
 30
0.0
  9
$PLIMCHECK
 70
     0
  9
$PEXTMIN
 10
0.0
 20
0.0
 30
0.0
  9
$PEXTMAX
 10
420.0
 20
297.0
 30
0.0
  9
$PLIMMIN
 10
0.0
 20
0.0
  9
$PLIMMAX
 10
420.0
 20
297.0
  9
$UNITMODE
 70
     0
  9
$VISRETAIN
 70
     0
  9
$PLINEGEN
 70
     0
  9
$PSLTSCALE
 70
     1
  9
$TREEDEPTH
 70
  3020
  9
$PICKSTYLE
 70
     1
  9
$CMLSTYLE
  2
STANDARD
  9
$CMLJUST
 70
     0
  9
$CMLSCALE
 40
1.0
  9
$PROXYGRAPHICS
 70
     1
  9
$MEASUREMENT
 70
     1
  0
ENDSEC
  0
SECTION
  2
CLASSES
  0
CLASS
  1
ACDBDICTIONARYWDFLT
  2
AcDbDictionaryWithDefault
  3
AutoCAD 2000
 90
        0
280
     0
281
     0
  0
CLASS
  1
ACDBPLACEHOLDER
  2
AcDbPlaceHolder
  3
AutoCAD 2000
 90
        0
280
     0
281
     0
  0
CLASS
  1
LAYOUT
  2
AcDbLayout
  3
AutoCAD 2000
 90
        0
280
     0
281
     0
  0
CLASS
  1
LONG_TRANSACTION
  2
AcDbLongTransaction
  3
AutoCAD 2000
 90
        0
280
     0
281
     0
  0
CLASS
  1
LWPOLYLINE
  2
AcDbPolyline
  3
AutoCAD 2000
 90
        0
280
     0
281
     1
  0
CLASS
  1
HATCH
  2
AcDbHatch
  3
AutoCAD 2000
 90
        0
280
     0
281
     1
  0
CLASS
  1
XRECORD
  2
AcDbXrecord
  3
AutoCAD 2000
 90
        0
280
     0
281
     0
  0
CLASS
  1
LONG_TRANSACTION
  2
AcDbLongTransaction
  3
AutoCAD 2000
 90
        0
280
     0
281
     0
  0
CLASS
  1
LWPOLYLINE
  2
AcDbPolyline
  3
AutoCAD 2000
 90
        0
280
     0
281
     1
  0
CLASS
  1
HATCH
  2
AcDbHatch
  3
AutoCAD 2000
 90
        0
280
     0
281
     1
  0
CLASS
  1
XRECORD
  2
AcDbXrecord
  3
AutoCAD 2000
 90
        0
280
     0
281
     0
  0
CLASS
  1
LONG_TRANSACTION
  2
AcDbLongTransaction
  3
AutoCAD 2000
 90
        0
280
     0
281
     0
  0
CLASS
  1
LWPOLYLINE
  2
AcDbPolyline
  3
AutoCAD 2000
 90
        0
280
     0
281
     1
  0
CLASS
  1
HATCH
  2
AcDbHatch
  3
AutoCAD 2000
 90
        0
280
     0
281
     1
  0
CLASS
  1
XRECORD
  2
AcDbXrecord
  3
AutoCAD 2000
 90
        0
280
     0
281
     0
  0
CLASS
  1
LONG_TRANSACTION
  2
AcDbLongTransaction
  3
AutoCAD 2000
 90
        0
280
     0
281
     0
  0
CLASS
  1
LWPOLYLINE
  2
AcDbPolyline
  3
AutoCAD 2000
 90
        0
280
     0
281
     1
  0
CLASS
  1
HATCH
  2
AcDbHatch
  3
AutoCAD 2000
 90
        0
280
     0
281
     1
  0
CLASS
  1
XRECORD
  2
AcDbXrecord
  3
AutoCAD 2000
 90
        0
280
     0
281
     0
  0
CLASS
  1
LONG_TRANSACTION
  2
AcDbLongTransaction
  3
AutoCAD 2000
 90
        0
280
     0
281
     0
  0
CLASS
  1
LWPOLYLINE
  2
AcDbPolyline
  3
AutoCAD 2000
 90
        0
280
     0
281
     1
  0
CLASS
  1
HATCH
  2
AcDbHatch
  3
AutoCAD 2000
 90
        0
280
     0
281
     1
  0
CLASS
  1
XRECORD
  2
AcDbXrecord
  3
AutoCAD 2000
 90
        0
280
     0
281
     0
  0
CLASS
  1
LONG_TRANSACTION
  2
AcDbLongTransaction
  3
AutoCAD 2000
 90
        0
280
     0
281
     0
  0
CLASS
  1
LWPOLYLINE
  2
AcDbPolyline
  3
AutoCAD 2000
 90
        0
280
     0
281
     1
  0
CLASS
  1
HATCH
  2
AcDbHatch
  3
AutoCAD 2000
 90
        0
280
     0
281
     1
  0
CLASS
  1
XRECORD
  2
AcDbXrecord
  3
AutoCAD 2000
 90
        0
280
     0
281
     0
  0
CLASS
  1
LONG_TRANSACTION
  2
AcDbLongTransaction
  3
AutoCAD 2000
 90
        0
280
     0
281
     0
  0
CLASS
  1
LWPOLYLINE
  2
AcDbPolyline
  3
AutoCAD 2000
 90
        0
280
     0
281
     1
  0
CLASS
  1
HATCH
  2
AcDbHatch
  3
AutoCAD 2000
 90
        0
280
     0
281
     1
  0
CLASS
  1
XRECORD
  2
AcDbXrecord
  3
AutoCAD 2000
 90
        0
280
     0
281
     0
  0
CLASS
  1
LONG_TRANSACTION
  2
AcDbLongTransaction
  3
AutoCAD 2000
 90
        0
280
     0
281
     0
  0
CLASS
  1
LWPOLYLINE
  2
AcDbPolyline
  3
AutoCAD 2000
 90
        0
280
     0
281
     1
  0
CLASS
  1
HATCH
  2
AcDbHatch
  3
AutoCAD 2000
 90
        0
280
     0
281
     1
  0
CLASS
  1
XRECORD
  2
AcDbXrecord
  3
AutoCAD 2000
 90
        0
280
     0
281
     0
  0
ENDSEC
  0
SECTION
  2
TABLES
  0
TABLE
  2
VPORT
  5
8
330
0
100
AcDbSymbolTable
 70
     2
  0
VPORT
  5
29A5
330
8
100
AcDbSymbolTableRecord
100
AcDbViewportTableRecord
  2
*ACTIVE
 70
     0
 10
0.0
 20
0.0
 11
1.0
 21
1.0
 12
363.8531199701124
 22
318.1574173041576
 13
0.0
 23
0.0
 14
5.0
 24
5.0
 15
0.0
 25
0.0
 16
0.0
 26
0.0
 36
1.0
 17
0.0
 27
0.0
 37
0.0
 40
734.3557121692465
 41
1.570153061224489
 42
50.0
 43
0.0
 44
0.0
 50
0.0
 51
0.0
 71
     0
 72
   100
 73
     1
 74
     0
 75
     0
 76
     0
 77
     0
 78
     0
  0
ENDTAB
  0
TABLE
  2
LTYPE
  5
5
330
0
100
AcDbSymbolTable
 70
     3
  0
LTYPE
  5
14
330
5
100
AcDbSymbolTableRecord
100
AcDbLinetypeTableRecord
  2
BYBLOCK
 70
     0
  3

 72
    65
 73
     0
 40
0.0
  0
LTYPE
  5
15
330
5
100
AcDbSymbolTableRecord
100
AcDbLinetypeTableRecord
  2
BYLAYER
 70
     0
  3

 72
    65
 73
     0
 40
0.0
  0
LTYPE
  5
16
330
5
100
AcDbSymbolTableRecord
100
AcDbLinetypeTableRecord
  2
CONTINUOUS
 70
     0
  3
Solid line
 72
    65
 73
     0
 40
0.0
  0
LTYPE
  5
115
330
5
100
AcDbSymbolTableRecord
100
AcDbLinetypeTableRecord
  2
PHANTOM
 70
     0
  3
______  __  __  ______  __  __  ______  __  __ 
 72
    65
 73
     6
 40
2.5
 49
1.25
 74
     0
 49
-0.25
 74
     0
 49
0.25
 74
     0
 49
-0.25
 74
     0
 49
0.25
 74
     0
 49
-0.25
 74
     0
  0
LTYPE
  5
135
330
5
100
AcDbSymbolTableRecord
100
AcDbLinetypeTableRecord
  2
CENTER
 70
     0
  3
____ _ ____ _ ____ _ ____ _ ____ _ ____ _ ____ 
 72
    65
 73
     4
 40
2.0
 49
1.25
 74
     0
 49
-0.25
 74
     0
 49
0.25
 74
     0
 49
-0.25
 74
     0
  0
ENDTAB
  0
TABLE
  2
LAYER
  5
2
330
0
100
AcDbSymbolTable
 70
     8
  0
LAYER
  5
F
330
2
100
AcDbSymbolTableRecord
100
AcDbLayerTableRecord
  2
0
 70
     0
 62
     7
  6
CONTINUOUS
  0
LAYER
  5
62
330
2
100
AcDbSymbolTableRecord
100
AcDbLayerTableRecord
  2
VIEWPORT
 70
     0
 62
     7
  6
CONTINUOUS
  0
LAYER
  5
65
330
2
100
AcDbSymbolTableRecord
100
AcDbLayerTableRecord
  2
ZUWAKU
 70
     0
 62
     7
  6
CONTINUOUS
  0
LAYER
  5
1D7
330
2
100
AcDbSymbolTableRecord
100
AcDbLayerTableRecord
  2
SEIHIN
 70
     0
 62
     3
  6
CONTINUOUS
  0
LAYER
  5
1D9
330
2
100
AcDbSymbolTableRecord
100
AcDbLayerTableRecord
  2
SUNPOU
 70
     0
 62
     4
  6
CONTINUOUS
  0
LAYER
  5
1DA
330
2
100
AcDbSymbolTableRecord
100
AcDbLayerTableRecord
  2
DEFPOINTS
 70
     0
 62
     7
  6
CONTINUOUS
  0
LAYER
  5
11D9
330
2
100
AcDbSymbolTableRecord
100
AcDbLayerTableRecord
  2
MOJI
 70
     0
 62
     2
  6
CONTINUOUS
  0
LAYER
  5
2668
330
2
100
AcDbSymbolTableRecord
100
AcDbLayerTableRecord
  2
NIKITOI
 70
     0
 62
     8
  6
PHANTOM
  0
ENDTAB
  0
TABLE
  2
STYLE
  5
3
330
0
100
AcDbSymbolTable
 70
     2
  0
STYLE
  5
10
330
3
100
AcDbSymbolTableRecord
100
AcDbTextStyleTableRecord
  2
STANDARD
 70
     0
 40
0.0
 41
1.0
 50
0.0
 71
     0
 42
5.0
  3
TXT
  4
bigfont.shx
  0
STYLE
  5
11DA
330
3
100
AcDbSymbolTableRecord
100
AcDbTextStyleTableRecord
  2
ｽﾀｲﾙ1
 70
     0
 40
0.0
 41
1.0
 50
0.0
 71
     0
 42
2.5
  3
MS PGothic.ttf
  4

1001
ACAD
1000
MS PGothic
1071
    32818
  0
ENDTAB
  0
TABLE
  2
VIEW
  5
6
330
0
100
AcDbSymbolTable
 70
     0
  0
ENDTAB
  0
TABLE
  2
UCS
  5
7
330
0
100
AcDbSymbolTable
 70
     0
  0
ENDTAB
  0
TABLE
  2
APPID
  5
9
330
0
100
AcDbSymbolTable
 70
     1
  0
APPID
  5
11
330
9
100
AcDbSymbolTableRecord
100
AcDbRegAppTableRecord
  2
ACAD
 70
     0
  0
ENDTAB
  0
TABLE
  2
DIMSTYLE
  5
A
330
0
100
AcDbSymbolTable
 70
     1
  0
DIMSTYLE
105
1D
102
{ACAD_REACTORS
330
276F
330
2770
330
277C
330
27A1
330
27A8
330
27C8
330
27C9
330
27CA
330
27CF
330
27DE
330
27EF
330
27F0
330
27F8
330
2839
102
}
330
A
100
AcDbSymbolTableRecord
100
AcDbDimStyleTableRecord
  2
STANDARD
 70
     0
  3

  4

  5

  6

  7

 40
1.0
 41
0.18
 42
0.0625
 43
0.38
 44
0.18
 45
0.0
 46
0.0
 47
0.0
 48
0.0
140
0.18
141
0.09
142
0.0
143
25.4
144
1.0
145
0.0
146
1.0
147
0.09
 71
     0
 72
     0
 73
     1
 74
     1
 75
     0
 76
     0
 77
     0
 78
     0
170
     0
171
     2
172
     0
173
     0
174
     0
175
     0
176
     0
177
     0
178
     0
270
     2
271
     4
272
     4
273
     2
274
     2
340
10
275
     0
280
     0
281
     0
282
     0
283
     1
284
     0
285
     0
286
     0
287
     3
288
     0
  0
ENDTAB
  0
TABLE
  2
BLOCK_RECORD
  5
1
330
0
100
AcDbSymbolTable
 70
    15
  0
BLOCK_RECORD
  5
1A
102
{ACAD_XDICTIONARY
360
8E1
102
}
330
1
100
AcDbSymbolTableRecord
100
AcDbBlockTableRecord
  2
*MODEL_SPACE
  0
BLOCK_RECORD
  5
17
102
{ACAD_XDICTIONARY
360
8DF
102
}
330
1
100
AcDbSymbolTableRecord
100
AcDbBlockTableRecord
  2
*PAPER_SPACE
  0
BLOCK_RECORD
  5
6D
330
1
100
AcDbSymbolTableRecord
100
AcDbBlockTableRecord
  2
_OPEN
  0
BLOCK_RECORD
  5
2871
330
1
100
AcDbSymbolTableRecord
100
AcDbBlockTableRecord
  2
*D1
  0
BLOCK_RECORD
  5
287D
330
1
100
AcDbSymbolTableRecord
100
AcDbBlockTableRecord
  2
*D2
  0
BLOCK_RECORD
  5
2889
330
1
100
AcDbSymbolTableRecord
100
AcDbBlockTableRecord
  2
*D3
  0
BLOCK_RECORD
  5
2895
330
1
100
AcDbSymbolTableRecord
100
AcDbBlockTableRecord
  2
*D4
  0
BLOCK_RECORD
  5
28A1
330
1
100
AcDbSymbolTableRecord
100
AcDbBlockTableRecord
  2
*D5
  0
BLOCK_RECORD
  5
28AD
330
1
100
AcDbSymbolTableRecord
100
AcDbBlockTableRecord
  2
*D6
  0
BLOCK_RECORD
  5
28BB
330
1
100
AcDbSymbolTableRecord
100
AcDbBlockTableRecord
  2
*D7
  0
BLOCK_RECORD
  5
28C7
330
1
100
AcDbSymbolTableRecord
100
AcDbBlockTableRecord
  2
*D8
  0
BLOCK_RECORD
  5
28D3
330
1
100
AcDbSymbolTableRecord
100
AcDbBlockTableRecord
  2
*D9
  0
BLOCK_RECORD
  5
28DF
330
1
100
AcDbSymbolTableRecord
100
AcDbBlockTableRecord
  2
*D10
  0
BLOCK_RECORD
  5
28ED
330
1
100
AcDbSymbolTableRecord
100
AcDbBlockTableRecord
  2
*D11
  0
BLOCK_RECORD
  5
28F9
330
1
100
AcDbSymbolTableRecord
100
AcDbBlockTableRecord
  2
*D12
  0
BLOCK_RECORD
  5
2905
330
1
100
AcDbSymbolTableRecord
100
AcDbBlockTableRecord
  2
*D13
  0
BLOCK_RECORD
  5
2911
330
1
100
AcDbSymbolTableRecord
100
AcDbBlockTableRecord
  2
*D14
  0
ENDTAB
  0
ENDSEC
  0
SECTION
  2
BLOCKS
  0
BLOCK
  5
1B
330
1A
100
AcDbEntity
  8
0
100
AcDbBlockBegin
  2
*MODEL_SPACE
 70
     0
 10
0.0
 20
0.0
 30
0.0
  3
*MODEL_SPACE
  1

  0
ENDBLK
  5
1C
330
1A
100
AcDbEntity
  8
0
100
AcDbBlockEnd
  0
BLOCK
  5
18
330
17
100
AcDbEntity
 67
     1
  8
0
100
AcDbBlockBegin
  2
*PAPER_SPACE
 70
     0
 10
0.0
 20
0.0
 30
0.0
  3
*PAPER_SPACE
  1

  0
ENDBLK
  5
19
330
17
100
AcDbEntity
 67
     1
  8
0
100
AcDbBlockEnd
  0
BLOCK
  5
6E
330
6D
100
AcDbEntity
  8
0
100
AcDbBlockBegin
  2
_OPEN
 70
     0
 10
0.0
 20
0.0
 30
0.0
  3
_OPEN
  1

  0
LINE
  5
6F
330
6D
100
AcDbEntity
  8
0
  6
BYBLOCK
 62
     0
100
AcDbLine
 10
-1.0
 20
0.1666666666666666
 30
0.0
 11
0.0
 21
0.0
 31
0.0
  0
LINE
  5
70
330
6D
100
AcDbEntity
  8
0
  6
BYBLOCK
 62
     0
100
AcDbLine
 10
0.0
 20
0.0
 30
0.0
 11
-1.0
 21
-0.1666666666666666
 31
0.0
  0
LINE
  5
71
330
6D
100
AcDbEntity
  8
0
  6
BYBLOCK
 62
     0
100
AcDbLine
 10
0.0
 20
0.0
 30
0.0
 11
-1.0
 21
0.0
 31
0.0
  0
ENDBLK
  5
72
330
6D
100
AcDbEntity
  8
0
100
AcDbBlockEnd
  0
BLOCK
  5
287B
330
2871
100
AcDbEntity
  8
0
100
AcDbBlockBegin
  2
*D1
 70
     1
 10
0.0
 20
0.0
 30
0.0
  3
*D1
  1

  0
LINE
  5
291D
330
2871
100
AcDbEntity
  8
SUNPOU
 62
     4
100
AcDbLine
 10
424.6814781385634
 20
365.2559273639789
 30
0.0
 11
367.2677932154909
 21
365.2559273639789
 31
0.0
  0
LINE
  5
291E
330
2871
100
AcDbEntity
  8
SUNPOU
 62
     4
100
AcDbLine
 10
484.9815781385631
 20
193.7558273639789
 30
0.0
 11
367.2677932154909
 21
193.7558273639789
 31
0.0
  0
LINE
  5
291F
330
2871
100
AcDbEntity
  8
SUNPOU
 62
     4
100
AcDbLine
 10
370.2677932154908
 20
358.2559273639789
 30
0.0
 11
370.2677932154908
 21
200.7558273639789
 31
0.0
  0
INSERT
  5
2920
330
2871
100
AcDbEntity
  8
SUNPOU
 62
     4
100
AcDbBlockReference
  2
_OPEN
 10
370.2677932154908
 20
365.2559273639789
 30
0.0
 41
7.0
 42
7.0
 43
7.0
 50
90.0
  0
INSERT
  5
2921
330
2871
100
AcDbEntity
  8
SUNPOU
 62
     4
100
AcDbBlockReference
  2
_OPEN
 10
370.2677932154908
 20
193.7558273639789
 30
0.0
 41
7.0
 42
7.0
 43
7.0
 50
270.0
  0
MTEXT
  5
2922
330
2871
100
AcDbEntity
  8
SUNPOU
 62
     4
100
AcDbMText
 10
365.2677932154908
 20
279.505877363979
 30
0.0
 40
6.0
 41
0.0
 71
     5
 72
     1
  1
\A1;172
 11
0.0000000000000001
 21
1.0
 31
0.0
1001
ACAD
1000
MTEXTBEGIN
1070
    73
1070
     1
1070
    44
1040
1.0
1070
    74
1070
     0
1000
MTEXTEND
  0
POINT
  5
2923
330
2871
100
AcDbEntity
  8
DEFPOINTS
 62
     0
100
AcDbPoint
 10
430.6814781385633
 20
365.2559273639789
 30
0.0
  0
POINT
  5
2924
330
2871
100
AcDbEntity
  8
DEFPOINTS
 62
     0
100
AcDbPoint
 10
490.981578138563
 20
193.7558273639789
 30
0.0
  0
POINT
  5
2925
330
2871
100
AcDbEntity
  8
DEFPOINTS
 62
     0
100
AcDbPoint
 10
370.2677932154908
 20
193.7558273639789
 30
0.0
  0
ENDBLK
  5
287C
330
2871
100
AcDbEntity
  8
0
100
AcDbBlockEnd
  0
BLOCK
  5
2887
330
287D
100
AcDbEntity
  8
0
100
AcDbBlockBegin
  2
*D2
 70
     1
 10
0.0
 20
0.0
 30
0.0
  3
*D2
  1

  0
LINE
  5
2926
330
287D
100
AcDbEntity
  8
SUNPOU
 62
     4
100
AcDbLine
 10
424.6814781385634
 20
365.2559273639789
 30
0.0
 11
387.3178461686809
 21
365.2559273639789
 31
0.0
  0
LINE
  5
2927
330
287D
100
AcDbEntity
  8
SUNPOU
 62
     4
100
AcDbLine
 10
465.6814781385633
 20
225.2558273639788
 30
0.0
 11
387.3178461686809
 21
225.2558273639788
 31
0.0
  0
LINE
  5
2928
330
287D
100
AcDbEntity
  8
SUNPOU
 62
     4
100
AcDbLine
 10
390.3178461686809
 20
358.2559273639789
 30
0.0
 11
390.3178461686809
 21
232.2558273639788
 31
0.0
  0
INSERT
  5
2929
330
287D
100
AcDbEntity
  8
SUNPOU
 62
     4
100
AcDbBlockReference
  2
_OPEN
 10
390.3178461686809
 20
365.2559273639789
 30
0.0
 41
7.0
 42
7.0
 43
7.0
 50
90.0
  0
INSERT
  5
292A
330
287D
100
AcDbEntity
  8
SUNPOU
 62
     4
100
AcDbBlockReference
  2
_OPEN
 10
390.3178461686809
 20
225.2558273639788
 30
0.0
 41
7.0
 42
7.0
 43
7.0
 50
270.0
  0
MTEXT
  5
292B
330
287D
100
AcDbEntity
  8
SUNPOU
 62
     4
100
AcDbMText
 10
385.3178461686809
 20
295.2558773639789
 30
0.0
 40
6.0
 41
0.0
 71
     5
 72
     1
  1
\A1;140
 11
0.0000000000000001
 21
1.0
 31
0.0
1001
ACAD
1000
MTEXTBEGIN
1070
    73
1070
     1
1070
    44
1040
1.0
1070
    74
1070
     0
1000
MTEXTEND
  0
POINT
  5
292C
330
287D
100
AcDbEntity
  8
DEFPOINTS
 62
     0
100
AcDbPoint
 10
430.6814781385633
 20
365.2559273639789
 30
0.0
  0
POINT
  5
292D
330
287D
100
AcDbEntity
  8
DEFPOINTS
 62
     0
100
AcDbPoint
 10
471.6814781385633
 20
225.2558273639788
 30
0.0
  0
POINT
  5
292E
330
287D
100
AcDbEntity
  8
DEFPOINTS
 62
     0
100
AcDbPoint
 10
390.3178461686809
 20
225.2558273639788
 30
0.0
  0
ENDBLK
  5
2888
330
287D
100
AcDbEntity
  8
0
100
AcDbBlockEnd
  0
BLOCK
  5
2893
330
2889
100
AcDbEntity
  8
0
100
AcDbBlockBegin
  2
*D3
 70
     1
 10
0.0
 20
0.0
 30
0.0
  3
*D3
  1

  0
LINE
  5
292F
330
2889
100
AcDbEntity
  8
SUNPOU
  6
CONTINUOUS
 62
     4
100
AcDbLine
 10
279.6814781385633
 20
219.2561273639788
 30
0.0
 11
279.6814781385633
 21
146.9423212303197
 31
0.0
  0
LINE
  5
2930
330
2889
100
AcDbEntity
  8
SUNPOU
  6
CONTINUOUS
 62
     4
100
AcDbLine
 10
181.6809781385633
 20
219.2562273639789
 30
0.0
 11
181.6809781385633
 21
146.9423212303197
 31
0.0
  0
LINE
  5
2931
330
2889
100
AcDbEntity
  8
SUNPOU
  6
CONTINUOUS
 62
     4
100
AcDbLine
 10
272.6814781385633
 20
149.9423212303197
 30
0.0
 11
188.6809781385633
 21
149.9423212303197
 31
0.0
  0
INSERT
  5
2932
330
2889
100
AcDbEntity
  8
SUNPOU
  6
CONTINUOUS
 62
     4
100
AcDbBlockReference
  2
_OPEN
 10
279.6814781385633
 20
149.9423212303197
 30
0.0
 41
7.0
 42
7.0
 43
7.0
  0
INSERT
  5
2933
330
2889
100
AcDbEntity
  8
SUNPOU
  6
CONTINUOUS
 62
     4
100
AcDbBlockReference
  2
_OPEN
 10
181.6809781385633
 20
149.9423212303197
 30
0.0
 41
7.0
 42
7.0
 43
7.0
 50
180.0
  0
MTEXT
  5
2934
330
2889
100
AcDbEntity
  8
SUNPOU
  6
CONTINUOUS
 62
     4
100
AcDbMText
 10
230.6812281385633
 20
154.9423212303197
 30
0.0
 40
6.0
 41
0.0
 71
     5
 72
     1
  1
\A1;98
1001
ACAD
1000
MTEXTBEGIN
1070
    73
1070
     1
1070
    44
1040
1.0
1070
    74
1070
     0
1000
MTEXTEND
  0
POINT
  5
2935
330
2889
100
AcDbEntity
  8
DEFPOINTS
  6
CONTINUOUS
 62
     0
100
AcDbPoint
 10
279.6814781385633
 20
225.2561273639788
 30
0.0
  0
POINT
  5
2936
330
2889
100
AcDbEntity
  8
DEFPOINTS
  6
CONTINUOUS
 62
     0
100
AcDbPoint
 10
181.6809781385633
 20
225.2562273639789
 30
0.0
  0
POINT
  5
2937
330
2889
100
AcDbEntity
  8
DEFPOINTS
  6
CONTINUOUS
 62
     0
100
AcDbPoint
 10
181.6809781385633
 20
149.9423212303197
 30
0.0
  0
ENDBLK
  5
2894
330
2889
100
AcDbEntity
  8
0
100
AcDbBlockEnd
  0
BLOCK
  5
289F
330
2895
100
AcDbEntity
  8
0
100
AcDbBlockBegin
  2
*D4
 70
     1
 10
0.0
 20
0.0
 30
0.0
  3
*D4
  1

  0
LINE
  5
2938
330
2895
100
AcDbEntity
  8
SUNPOU
  6
CONTINUOUS
 62
     4
100
AcDbLine
 10
315.6814781385633
 20
371.2562273639789
 30
0.0
 11
315.6814781385633
 21
422.1057921183421
 31
0.0
  0
LINE
  5
2939
330
2895
100
AcDbEntity
  8
SUNPOU
  6
CONTINUOUS
 62
     4
100
AcDbLine
 10
145.6814781385632
 20
366.2564273639789
 30
0.0
 11
145.6814781385632
 21
422.1057921183421
 31
0.0
  0
LINE
  5
293A
330
2895
100
AcDbEntity
  8
SUNPOU
  6
CONTINUOUS
 62
     4
100
AcDbLine
 10
308.6814781385633
 20
419.1057921183421
 30
0.0
 11
152.6814781385632
 21
419.1057921183421
 31
0.0
  0
INSERT
  5
293B
330
2895
100
AcDbEntity
  8
SUNPOU
  6
CONTINUOUS
 62
     4
100
AcDbBlockReference
  2
_OPEN
 10
315.6814781385633
 20
419.1057921183421
 30
0.0
 41
7.0
 42
7.0
 43
7.0
  0
INSERT
  5
293C
330
2895
100
AcDbEntity
  8
SUNPOU
  6
CONTINUOUS
 62
     4
100
AcDbBlockReference
  2
_OPEN
 10
145.6814781385632
 20
419.1057921183421
 30
0.0
 41
7.0
 42
7.0
 43
7.0
 50
180.0
  0
MTEXT
  5
293D
330
2895
100
AcDbEntity
  8
SUNPOU
  6
CONTINUOUS
 62
     4
100
AcDbMText
 10
230.6814781385633
 20
424.1057921183421
 30
0.0
 40
6.0
 41
0.0
 71
     5
 72
     1
  1
\A1;170
1001
ACAD
1000
MTEXTBEGIN
1070
    73
1070
     1
1070
    44
1040
1.0
1070
    74
1070
     0
1000
MTEXTEND
  0
POINT
  5
293E
330
2895
100
AcDbEntity
  8
DEFPOINTS
  6
CONTINUOUS
 62
     0
100
AcDbPoint
 10
315.6814781385633
 20
365.2562273639789
 30
0.0
  0
POINT
  5
293F
330
2895
100
AcDbEntity
  8
DEFPOINTS
  6
CONTINUOUS
 62
     0
100
AcDbPoint
 10
145.6814781385632
 20
360.2564273639789
 30
0.0
  0
POINT
  5
2940
330
2895
100
AcDbEntity
  8
DEFPOINTS
  6
CONTINUOUS
 62
     0
100
AcDbPoint
 10
145.6814781385632
 20
419.1057921183421
 30
0.0
  0
ENDBLK
  5
28A0
330
2895
100
AcDbEntity
  8
0
100
AcDbBlockEnd
  0
BLOCK
  5
28AB
330
28A1
100
AcDbEntity
  8
0
100
AcDbBlockBegin
  2
*D5
 70
     1
 10
0.0
 20
0.0
 30
0.0
  3
*D5
  1

  0
LINE
  5
2941
330
28A1
100
AcDbEntity
  8
SUNPOU
  6
CONTINUOUS
 62
     4
100
AcDbLine
 10
260.6814638328415
 20
371.2562273639789
 30
0.0
 11
260.6814638328415
 21
401.0014040138917
 31
0.0
  0
LINE
  5
2942
330
28A1
100
AcDbEntity
  8
SUNPOU
  6
CONTINUOUS
 62
     4
100
AcDbLine
 10
200.6814638329129
 20
371.2563199389041
 30
0.0
 11
200.6814638329129
 21
401.0014040138917
 31
0.0
  0
LINE
  5
2943
330
28A1
100
AcDbEntity
  8
SUNPOU
  6
CONTINUOUS
 62
     4
100
AcDbLine
 10
253.6814638328415
 20
398.0014040138917
 30
0.0
 11
207.6814638329129
 21
398.0014040138917
 31
0.0
  0
INSERT
  5
2944
330
28A1
100
AcDbEntity
  8
SUNPOU
  6
CONTINUOUS
 62
     4
100
AcDbBlockReference
  2
_OPEN
 10
260.6814638328415
 20
398.0014040138917
 30
0.0
 41
7.0
 42
7.0
 43
7.0
  0
INSERT
  5
2945
330
28A1
100
AcDbEntity
  8
SUNPOU
  6
CONTINUOUS
 62
     4
100
AcDbBlockReference
  2
_OPEN
 10
200.6814638329129
 20
398.0014040138917
 30
0.0
 41
7.0
 42
7.0
 43
7.0
 50
180.0
  0
MTEXT
  5
2946
330
28A1
100
AcDbEntity
  8
SUNPOU
  6
CONTINUOUS
 62
     4
100
AcDbMText
 10
230.6814638328772
 20
403.0014040138917
 30
0.0
 40
6.0
 41
0.0
 71
     5
 72
     1
  1
\A1;※a60
1001
ACAD
1000
MTEXTBEGIN
1070
    73
1070
     1
1070
    44
1040
1.0
1070
    74
1070
     0
1000
MTEXTEND
  0
POINT
  5
2947
330
28A1
100
AcDbEntity
  8
DEFPOINTS
  6
CONTINUOUS
 62
     0
100
AcDbPoint
 10
260.6814638328415
 20
365.2562273639789
 30
0.0
  0
POINT
  5
2948
330
28A1
100
AcDbEntity
  8
DEFPOINTS
  6
CONTINUOUS
 62
     0
100
AcDbPoint
 10
200.6814638329129
 20
365.2563199389041
 30
0.0
  0
POINT
  5
2949
330
28A1
100
AcDbEntity
  8
DEFPOINTS
  6
CONTINUOUS
 62
     0
100
AcDbPoint
 10
200.6814638329129
 20
398.0014040138917
 30
0.0
  0
ENDBLK
  5
28AC
330
28A1
100
AcDbEntity
  8
0
100
AcDbBlockEnd
  0
BLOCK
  5
28B9
330
28AD
100
AcDbEntity
  8
0
100
AcDbBlockBegin
  2
*D6
 70
     1
 10
0.0
 20
0.0
 30
0.0
  3
*D6
  1

  0
LINE
  5
294A
330
28AD
100
AcDbEntity
  8
SUNPOU
  6
CONTINUOUS
 62
     4
100
AcDbLine
 10
519.9029781385632
 20
240.8159273639789
 30
0.0
 11
519.9029781385632
 21
263.8252542570803
 31
0.0
  0
LINE
  5
294B
330
28AD
100
AcDbEntity
  8
SUNPOU
  6
CONTINUOUS
 62
     4
100
AcDbLine
 10
521.1814781385633
 20
272.4837273639788
 30
0.0
 11
521.1814781385633
 21
257.8252542570803
 31
0.0
  0
LINE
  5
294C
330
28AD
100
AcDbEntity
  8
SUNPOU
  6
CONTINUOUS
 62
     4
100
AcDbLine
 10
512.9029781385632
 20
260.8252542570803
 30
0.0
 11
505.9029781385633
 21
260.8252542570803
 31
0.0
  0
LINE
  5
294D
330
28AD
100
AcDbEntity
  8
SUNPOU
  6
CONTINUOUS
 62
     4
100
AcDbLine
 10
528.1814781385634
 20
260.8252542570803
 30
0.0
 11
541.1814781385634
 21
260.8252542570803
 31
0.0
  0
LINE
  5
294E
330
28AD
100
AcDbEntity
  8
SUNPOU
  6
CONTINUOUS
 62
     4
100
AcDbLine
 10
519.9029781385632
 20
260.8252542570803
 30
0.0
 11
521.1814781385633
 21
260.8252542570803
 31
0.0
  0
INSERT
  5
294F
330
28AD
100
AcDbEntity
  8
SUNPOU
  6
CONTINUOUS
 62
     4
100
AcDbBlockReference
  2
_OPEN
 10
519.9029781385632
 20
260.8252542570803
 30
0.0
 41
7.0
 42
7.0
 43
7.0
  0
INSERT
  5
2950
330
28AD
100
AcDbEntity
  8
SUNPOU
  6
CONTINUOUS
 62
     4
100
AcDbBlockReference
  2
_OPEN
 10
521.1814781385633
 20
260.8252542570803
 30
0.0
 41
7.0
 42
7.0
 43
7.0
 50
180.0
  0
MTEXT
  5
2951
330
28AD
100
AcDbEntity
  8
SUNPOU
  6
CONTINUOUS
 62
     4
100
AcDbMText
 10
538.1814781385634
 20
265.8252542570803
 30
0.0
 40
6.0
 41
0.0
 71
     5
 72
     1
  1
\A1;1
1001
ACAD
1000
MTEXTBEGIN
1070
    73
1070
     1
1070
    44
1040
1.0
1070
    74
1070
     0
1000
MTEXTEND
  0
POINT
  5
2952
330
28AD
100
AcDbEntity
  8
DEFPOINTS
  6
CONTINUOUS
 62
     0
100
AcDbPoint
 10
519.9029781385632
 20
234.8159273639789
 30
0.0
  0
POINT
  5
2953
330
28AD
100
AcDbEntity
  8
DEFPOINTS
  6
CONTINUOUS
 62
     0
100
AcDbPoint
 10
521.1814781385633
 20
278.4837273639788
 30
0.0
  0
POINT
  5
2954
330
28AD
100
AcDbEntity
  8
DEFPOINTS
  6
CONTINUOUS
 62
     0
100
AcDbPoint
 10
521.1814781385633
 20
260.8252542570803
 30
0.0
  0
ENDBLK
  5
28BA
330
28AD
100
AcDbEntity
  8
0
100
AcDbBlockEnd
  0
BLOCK
  5
28C5
330
28BB
100
AcDbEntity
  8
0
100
AcDbBlockBegin
  2
*D7
 70
     1
 10
0.0
 20
0.0
 30
0.0
  3
*D7
  1

  0
LINE
  5
2955
330
28BB
100
AcDbEntity
  8
SUNPOU
 62
     4
100
AcDbLine
 10
554.182878138563
 20
194.7559273639789
 30
0.0
 11
554.182878138563
 21
125.4205926649901
 31
0.0
  0
LINE
  5
2956
330
28BB
100
AcDbEntity
  8
SUNPOU
 62
     4
100
AcDbLine
 10
486.1800781385632
 20
194.7558273639789
 30
0.0
 11
486.1800781385632
 21
125.4205926649901
 31
0.0
  0
LINE
  5
2957
330
28BB
100
AcDbEntity
  8
SUNPOU
 62
     4
100
AcDbLine
 10
547.1828781385631
 20
128.4205926649901
 30
0.0
 11
493.1800781385632
 21
128.4205926649901
 31
0.0
  0
INSERT
  5
2958
330
28BB
100
AcDbEntity
  8
SUNPOU
 62
     4
100
AcDbBlockReference
  2
_OPEN
 10
554.182878138563
 20
128.4205926649901
 30
0.0
 41
7.0
 42
7.0
 43
7.0
  0
INSERT
  5
2959
330
28BB
100
AcDbEntity
  8
SUNPOU
 62
     4
100
AcDbBlockReference
  2
_OPEN
 10
486.1800781385632
 20
128.4205926649901
 30
0.0
 41
7.0
 42
7.0
 43
7.0
 50
180.0
  0
MTEXT
  5
295A
330
28BB
100
AcDbEntity
  8
SUNPOU
 62
     4
100
AcDbMText
 10
520.1814781385632
 20
133.4205926649901
 30
0.0
 40
6.0
 41
0.0
 71
     5
 72
     1
  1
\A1;68
1001
ACAD
1000
MTEXTBEGIN
1070
    73
1070
     1
1070
    44
1040
1.0
1070
    74
1070
     0
1000
MTEXTEND
  0
POINT
  5
295B
330
28BB
100
AcDbEntity
  8
DEFPOINTS
 62
     0
100
AcDbPoint
 10
554.182878138563
 20
200.7559273639789
 30
0.0
  0
POINT
  5
295C
330
28BB
100
AcDbEntity
  8
DEFPOINTS
 62
     0
100
AcDbPoint
 10
486.1800781385632
 20
200.7558273639789
 30
0.0
  0
POINT
  5
295D
330
28BB
100
AcDbEntity
  8
DEFPOINTS
 62
     0
100
AcDbPoint
 10
486.1800781385632
 20
128.4205926649901
 30
0.0
  0
ENDBLK
  5
28C6
330
28BB
100
AcDbEntity
  8
0
100
AcDbBlockEnd
  0
BLOCK
  5
28D1
330
28C7
100
AcDbEntity
  8
0
100
AcDbBlockBegin
  2
*D8
 70
     1
 10
0.0
 20
0.0
 30
0.0
  3
*D8
  1

  0
LINE
  5
295E
330
28C7
100
AcDbEntity
  8
SUNPOU
 62
     4
100
AcDbLine
 10
549.3815781385632
 20
187.7558273639789
 30
0.0
 11
549.3815781385632
 21
146.885012741026
 31
0.0
  0
LINE
  5
295F
330
28C7
100
AcDbEntity
  8
SUNPOU
 62
     4
100
AcDbLine
 10
490.981578138563
 20
187.7558273639789
 30
0.0
 11
490.981578138563
 21
146.885012741026
 31
0.0
  0
LINE
  5
2960
330
28C7
100
AcDbEntity
  8
SUNPOU
 62
     4
100
AcDbLine
 10
542.3815781385632
 20
149.885012741026
 30
0.0
 11
497.9815781385631
 21
149.885012741026
 31
0.0
  0
INSERT
  5
2961
330
28C7
100
AcDbEntity
  8
SUNPOU
 62
     4
100
AcDbBlockReference
  2
_OPEN
 10
549.3815781385632
 20
149.885012741026
 30
0.0
 41
7.0
 42
7.0
 43
7.0
  0
INSERT
  5
2962
330
28C7
100
AcDbEntity
  8
SUNPOU
 62
     4
100
AcDbBlockReference
  2
_OPEN
 10
490.981578138563
 20
149.885012741026
 30
0.0
 41
7.0
 42
7.0
 43
7.0
 50
180.0
  0
MTEXT
  5
2963
330
28C7
100
AcDbEntity
  8
SUNPOU
 62
     4
100
AcDbMText
 10
520.1815781385631
 20
154.8850127410259
 30
0.0
 40
6.0
 41
0.0
 71
     5
 72
     1
  1
\A1;φ58
1001
ACAD
1000
MTEXTBEGIN
1070
    73
1070
     1
1070
    44
1040
1.0
1070
    74
1070
     0
1000
MTEXTEND
  0
POINT
  5
2964
330
28C7
100
AcDbEntity
  8
DEFPOINTS
 62
     0
100
AcDbPoint
 10
549.3815781385632
 20
193.7558273639789
 30
0.0
  0
POINT
  5
2965
330
28C7
100
AcDbEntity
  8
DEFPOINTS
 62
     0
100
AcDbPoint
 10
490.981578138563
 20
193.7558273639789
 30
0.0
  0
POINT
  5
2966
330
28C7
100
AcDbEntity
  8
DEFPOINTS
 62
     0
100
AcDbPoint
 10
490.981578138563
 20
149.885012741026
 30
0.0
  0
ENDBLK
  5
28D2
330
28C7
100
AcDbEntity
  8
0
100
AcDbBlockEnd
  0
BLOCK
  5
28DD
330
28D3
100
AcDbEntity
  8
0
100
AcDbBlockBegin
  2
*D9
 70
     1
 10
0.0
 20
0.0
 30
0.0
  3
*D9
  1

  0
LINE
  5
2967
330
28D3
100
AcDbEntity
  8
SUNPOU
 62
     4
100
AcDbLine
 10
465.6814781385633
 20
225.2558273639788
 30
0.0
 11
446.5751427245765
 21
225.2558273639788
 31
0.0
  0
LINE
  5
2968
330
28D3
100
AcDbEntity
  8
SUNPOU
 62
     4
100
AcDbLine
 10
484.9815781385631
 20
200.7558273639789
 30
0.0
 11
446.5751427245765
 21
200.7558273639789
 31
0.0
  0
LINE
  5
2969
330
28D3
100
AcDbEntity
  8
SUNPOU
 62
     4
100
AcDbLine
 10
449.5751427245766
 20
218.2558273639788
 30
0.0
 11
449.5751427245766
 21
207.7558273639789
 31
0.0
  0
INSERT
  5
296A
330
28D3
100
AcDbEntity
  8
SUNPOU
 62
     4
100
AcDbBlockReference
  2
_OPEN
 10
449.5751427245766
 20
225.2558273639788
 30
0.0
 41
7.0
 42
7.0
 43
7.0
 50
90.0
  0
INSERT
  5
296B
330
28D3
100
AcDbEntity
  8
SUNPOU
 62
     4
100
AcDbBlockReference
  2
_OPEN
 10
449.5751427245766
 20
200.7558273639789
 30
0.0
 41
7.0
 42
7.0
 43
7.0
 50
270.0
  0
MTEXT
  5
296C
330
28D3
100
AcDbEntity
  8
SUNPOU
 62
     4
100
AcDbMText
 10
444.5751427245765
 20
213.0058273639789
 30
0.0
 40
6.0
 41
0.0
 71
     5
 72
     1
  1
\A1;25
 11
0.0000000000000001
 21
1.0
 31
0.0
1001
ACAD
1000
MTEXTBEGIN
1070
    73
1070
     1
1070
    44
1040
1.0
1070
    74
1070
     0
1000
MTEXTEND
  0
POINT
  5
296D
330
28D3
100
AcDbEntity
  8
DEFPOINTS
 62
     0
100
AcDbPoint
 10
471.6814781385633
 20
225.2558273639788
 30
0.0
  0
POINT
  5
296E
330
28D3
100
AcDbEntity
  8
DEFPOINTS
 62
     0
100
AcDbPoint
 10
490.981578138563
 20
200.7558273639789
 30
0.0
  0
POINT
  5
296F
330
28D3
100
AcDbEntity
  8
DEFPOINTS
 62
     0
100
AcDbPoint
 10
449.5751427245766
 20
200.7558273639789
 30
0.0
  0
ENDBLK
  5
28DE
330
28D3
100
AcDbEntity
  8
0
100
AcDbBlockEnd
  0
BLOCK
  5
28EB
330
28DF
100
AcDbEntity
  8
0
100
AcDbBlockBegin
  2
*D10
 70
     1
 10
0.0
 20
0.0
 30
0.0
  3
*D10
  1

  0
LINE
  5
2970
330
28DF
100
AcDbEntity
  8
SUNPOU
 62
     4
100
AcDbLine
 10
560.1814781385631
 20
200.7558273639789
 30
0.0
 11
613.2685395849919
 21
200.7558273639789
 31
0.0
  0
LINE
  5
2971
330
28DF
100
AcDbEntity
  8
SUNPOU
 62
     4
100
AcDbLine
 10
563.2397671623026
 20
210.7558273639789
 30
0.0
 11
613.2685395849919
 21
210.7558273639789
 31
0.0
  0
LINE
  5
2972
330
28DF
100
AcDbEntity
  8
SUNPOU
 62
     4
100
AcDbLine
 10
610.2685395849919
 20
193.7558273639789
 30
0.0
 11
610.2685395849919
 21
186.7558273639789
 31
0.0
  0
LINE
  5
2973
330
28DF
100
AcDbEntity
  8
SUNPOU
 62
     4
100
AcDbLine
 10
610.2685395849919
 20
217.7558273639788
 30
0.0
 11
610.2685395849919
 21
252.5558273639789
 31
0.0
  0
LINE
  5
2974
330
28DF
100
AcDbEntity
  8
SUNPOU
 62
     4
100
AcDbLine
 10
610.2685395849919
 20
200.7558273639789
 30
0.0
 11
610.2685395849919
 21
210.7558273639789
 31
0.0
  0
INSERT
  5
2975
330
28DF
100
AcDbEntity
  8
SUNPOU
 62
     4
100
AcDbBlockReference
  2
_OPEN
 10
610.2685395849919
 20
200.7558273639789
 30
0.0
 41
7.0
 42
7.0
 43
7.0
 50
90.0
  0
INSERT
  5
2976
330
28DF
100
AcDbEntity
  8
SUNPOU
 62
     4
100
AcDbBlockReference
  2
_OPEN
 10
610.2685395849919
 20
210.7558273639789
 30
0.0
 41
7.0
 42
7.0
 43
7.0
 50
270.0
  0
MTEXT
  5
2977
330
28DF
100
AcDbEntity
  8
SUNPOU
 62
     4
100
AcDbMText
 10
605.2685395849919
 20
238.655827363979
 30
0.0
 40
6.0
 41
0.0
 71
     5
 72
     1
  1
\A1;※b 10
 11
0.0000000000000001
 21
1.0
 31
0.0
1001
ACAD
1000
MTEXTBEGIN
1070
    73
1070
     1
1070
    44
1040
1.0
1070
    74
1070
     0
1000
MTEXTEND
  0
POINT
  5
2978
330
28DF
100
AcDbEntity
  8
DEFPOINTS
 62
     0
100
AcDbPoint
 10
554.1814781385632
 20
200.7558273639789
 30
0.0
  0
POINT
  5
2979
330
28DF
100
AcDbEntity
  8
DEFPOINTS
 62
     0
100
AcDbPoint
 10
557.2397671623027
 20
210.7558273639789
 30
0.0
  0
POINT
  5
297A
330
28DF
100
AcDbEntity
  8
DEFPOINTS
 62
     0
100
AcDbPoint
 10
610.2685395849919
 20
210.7558273639789
 30
0.0
  0
ENDBLK
  5
28EC
330
28DF
100
AcDbEntity
  8
0
100
AcDbBlockEnd
  0
BLOCK
  5
28F7
330
28ED
100
AcDbEntity
  8
0
100
AcDbBlockBegin
  2
*D11
 70
     1
 10
0.0
 20
0.0
 30
0.0
  3
*D11
  1

  0
LINE
  5
297B
330
28ED
100
AcDbEntity
  8
SUNPOU
 62
     4
100
AcDbLine
 10
582.6814781385632
 20
357.2559273639788
 30
0.0
 11
582.6814781385632
 21
423.4240762844167
 31
0.0
  0
LINE
  5
297C
330
28ED
100
AcDbEntity
  8
SUNPOU
 62
     4
100
AcDbLine
 10
430.6814781385633
 20
371.2559273639789
 30
0.0
 11
430.6814781385633
 21
423.4240762844167
 31
0.0
  0
LINE
  5
297D
330
28ED
100
AcDbEntity
  8
SUNPOU
 62
     4
100
AcDbLine
 10
575.6814781385632
 20
420.4240762844167
 30
0.0
 11
437.6814781385633
 21
420.4240762844167
 31
0.0
  0
INSERT
  5
297E
330
28ED
100
AcDbEntity
  8
SUNPOU
 62
     4
100
AcDbBlockReference
  2
_OPEN
 10
582.6814781385632
 20
420.4240762844167
 30
0.0
 41
7.0
 42
7.0
 43
7.0
  0
INSERT
  5
297F
330
28ED
100
AcDbEntity
  8
SUNPOU
 62
     4
100
AcDbBlockReference
  2
_OPEN
 10
430.6814781385633
 20
420.4240762844167
 30
0.0
 41
7.0
 42
7.0
 43
7.0
 50
180.0
  0
MTEXT
  5
2980
330
28ED
100
AcDbEntity
  8
SUNPOU
 62
     4
100
AcDbMText
 10
506.6814781385633
 20
425.4240762844167
 30
0.0
 40
6.0
 41
0.0
 71
     5
 72
     1
  1
\A1;152
1001
ACAD
1000
MTEXTBEGIN
1070
    73
1070
     1
1070
    44
1040
1.0
1070
    74
1070
     0
1000
MTEXTEND
  0
POINT
  5
2981
330
28ED
100
AcDbEntity
  8
DEFPOINTS
 62
     0
100
AcDbPoint
 10
582.6814781385632
 20
351.2559273639788
 30
0.0
  0
POINT
  5
2982
330
28ED
100
AcDbEntity
  8
DEFPOINTS
 62
     0
100
AcDbPoint
 10
430.6814781385633
 20
365.2559273639789
 30
0.0
  0
POINT
  5
2983
330
28ED
100
AcDbEntity
  8
DEFPOINTS
 62
     0
100
AcDbPoint
 10
430.6814781385633
 20
420.4240762844167
 30
0.0
  0
ENDBLK
  5
28F8
330
28ED
100
AcDbEntity
  8
0
100
AcDbBlockEnd
  0
BLOCK
  5
2903
330
28F9
100
AcDbEntity
  8
0
100
AcDbBlockBegin
  2
*D12
 70
     1
 10
0.0
 20
0.0
 30
0.0
  3
*D12
  1

  0
LINE
  5
2984
330
28F9
100
AcDbEntity
  8
SUNPOU
 62
     4
100
AcDbLine
 10
582.6814781385632
 20
357.2559273639788
 30
0.0
 11
582.6814781385632
 21
401.3942753355379
 31
0.0
  0
LINE
  5
2985
330
28F9
100
AcDbEntity
  8
SUNPOU
 62
     4
100
AcDbLine
 10
521.1814781385633
 20
315.7181273639788
 30
0.0
 11
521.1814781385633
 21
401.3942753355379
 31
0.0
  0
LINE
  5
2986
330
28F9
100
AcDbEntity
  8
SUNPOU
 62
     4
100
AcDbLine
 10
575.6814781385632
 20
398.3942753355379
 30
0.0
 11
528.1814781385634
 21
398.3942753355379
 31
0.0
  0
INSERT
  5
2987
330
28F9
100
AcDbEntity
  8
SUNPOU
 62
     4
100
AcDbBlockReference
  2
_OPEN
 10
582.6814781385632
 20
398.3942753355379
 30
0.0
 41
7.0
 42
7.0
 43
7.0
  0
INSERT
  5
2988
330
28F9
100
AcDbEntity
  8
SUNPOU
 62
     4
100
AcDbBlockReference
  2
_OPEN
 10
521.1814781385633
 20
398.3942753355379
 30
0.0
 41
7.0
 42
7.0
 43
7.0
 50
180.0
  0
MTEXT
  5
2989
330
28F9
100
AcDbEntity
  8
SUNPOU
 62
     4
100
AcDbMText
 10
551.9314781385633
 20
403.3942753355379
 30
0.0
 40
6.0
 41
0.0
 71
     5
 72
     1
  1
\A1;62
1001
ACAD
1000
MTEXTBEGIN
1070
    73
1070
     1
1070
    44
1040
1.0
1070
    74
1070
     0
1000
MTEXTEND
  0
POINT
  5
298A
330
28F9
100
AcDbEntity
  8
DEFPOINTS
 62
     0
100
AcDbPoint
 10
582.6814781385632
 20
351.2559273639788
 30
0.0
  0
POINT
  5
298B
330
28F9
100
AcDbEntity
  8
DEFPOINTS
 62
     0
100
AcDbPoint
 10
521.1814781385633
 20
309.7181273639788
 30
0.0
  0
POINT
  5
298C
330
28F9
100
AcDbEntity
  8
DEFPOINTS
 62
     0
100
AcDbPoint
 10
521.1814781385633
 20
398.3942753355379
 30
0.0
  0
ENDBLK
  5
2904
330
28F9
100
AcDbEntity
  8
0
100
AcDbBlockEnd
  0
BLOCK
  5
290F
330
2905
100
AcDbEntity
  8
0
100
AcDbBlockBegin
  2
*D13
 70
     1
 10
0.0
 20
0.0
 30
0.0
  3
*D13
  1

  0
LINE
  5
298D
330
2905
100
AcDbEntity
  8
SUNPOU
  6
CONTINUOUS
 62
     4
100
AcDbLine
 10
424.6814781385634
 20
365.2559273639789
 30
0.0
 11
412.9054227704178
 21
365.2559273639789
 31
0.0
  0
LINE
  5
298E
330
2905
100
AcDbEntity
  8
SUNPOU
  6
CONTINUOUS
 62
     4
100
AcDbLine
 10
485.0494781385631
 20
292.6559273639789
 30
0.0
 11
412.9054227704178
 21
292.6559273639789
 31
0.0
  0
LINE
  5
298F
330
2905
100
AcDbEntity
  8
SUNPOU
  6
CONTINUOUS
 62
     4
100
AcDbLine
 10
415.9054227704177
 20
358.2559273639789
 30
0.0
 11
415.9054227704177
 21
299.6559273639789
 31
0.0
  0
INSERT
  5
2990
330
2905
100
AcDbEntity
  8
SUNPOU
  6
CONTINUOUS
 62
     4
100
AcDbBlockReference
  2
_OPEN
 10
415.9054227704177
 20
365.2559273639789
 30
0.0
 41
7.0
 42
7.0
 43
7.0
 50
90.0
  0
INSERT
  5
2991
330
2905
100
AcDbEntity
  8
SUNPOU
  6
CONTINUOUS
 62
     4
100
AcDbBlockReference
  2
_OPEN
 10
415.9054227704177
 20
292.6559273639789
 30
0.0
 41
7.0
 42
7.0
 43
7.0
 50
270.0
  0
MTEXT
  5
2992
330
2905
100
AcDbEntity
  8
SUNPOU
  6
CONTINUOUS
 62
     4
100
AcDbMText
 10
410.9054227704176
 20
328.955927363979
 30
0.0
 40
6.0
 41
0.0
 71
     5
 72
     1
  1
\A1;73
 11
0.0000000000000001
 21
1.0
 31
0.0
1001
ACAD
1000
MTEXTBEGIN
1070
    73
1070
     1
1070
    44
1040
1.0
1070
    74
1070
     0
1000
MTEXTEND
  0
POINT
  5
2993
330
2905
100
AcDbEntity
  8
DEFPOINTS
  6
CONTINUOUS
 62
     0
100
AcDbPoint
 10
430.6814781385633
 20
365.2559273639789
 30
0.0
  0
POINT
  5
2994
330
2905
100
AcDbEntity
  8
DEFPOINTS
  6
CONTINUOUS
 62
     0
100
AcDbPoint
 10
491.0494781385631
 20
292.6559273639789
 30
0.0
  0
POINT
  5
2995
330
2905
100
AcDbEntity
  8
DEFPOINTS
  6
CONTINUOUS
 62
     0
100
AcDbPoint
 10
415.9054227704177
 20
292.6559273639789
 30
0.0
  0
ENDBLK
  5
2910
330
2905
100
AcDbEntity
  8
0
100
AcDbBlockEnd
  0
BLOCK
  5
291B
330
2911
100
AcDbEntity
  8
0
100
AcDbBlockBegin
  2
*D14
 70
     1
 10
0.0
 20
0.0
 30
0.0
  3
*D14
  1

  0
LINE
  5
2996
330
2911
100
AcDbEntity
  8
SUNPOU
 62
     4
100
AcDbLine
 10
588.6814781385631
 20
351.2559273639788
 30
0.0
 11
630.2738051083372
 21
351.2559273639788
 31
0.0
  0
LINE
  5
2997
330
2911
100
AcDbEntity
  8
SUNPOU
 62
     4
100
AcDbLine
 10
560.3063420894758
 20
292.6559274374048
 30
0.0
 11
630.2738051083372
 21
292.6559274374048
 31
0.0
  0
LINE
  5
2998
330
2911
100
AcDbEntity
  8
SUNPOU
 62
     4
100
AcDbLine
 10
627.2738051083372
 20
344.2559273639787
 30
0.0
 11
627.2738051083372
 21
299.6559274374047
 31
0.0
  0
INSERT
  5
2999
330
2911
100
AcDbEntity
  8
SUNPOU
 62
     4
100
AcDbBlockReference
  2
_OPEN
 10
627.2738051083372
 20
351.2559273639788
 30
0.0
 41
7.0
 42
7.0
 43
7.0
 50
90.0
  0
INSERT
  5
299A
330
2911
100
AcDbEntity
  8
SUNPOU
 62
     4
100
AcDbBlockReference
  2
_OPEN
 10
627.2738051083372
 20
292.6559274374048
 30
0.0
 41
7.0
 42
7.0
 43
7.0
 50
270.0
  0
MTEXT
  5
299B
330
2911
100
AcDbEntity
  8
SUNPOU
 62
     4
100
AcDbMText
 10
622.273805108337
 20
321.9559274006918
 30
0.0
 40
6.0
 41
0.0
 71
     5
 72
     1
  1
\A1;59
 11
0.0000000000000001
 21
1.0
 31
0.0
1001
ACAD
1000
MTEXTBEGIN
1070
    73
1070
     1
1070
    44
1040
1.0
1070
    74
1070
     0
1000
MTEXTEND
  0
POINT
  5
299C
330
2911
100
AcDbEntity
  8
DEFPOINTS
 62
     0
100
AcDbPoint
 10
582.6814781385632
 20
351.2559273639788
 30
0.0
  0
POINT
  5
299D
330
2911
100
AcDbEntity
  8
DEFPOINTS
 62
     0
100
AcDbPoint
 10
554.3063420894758
 20
292.6559274374048
 30
0.0
  0
POINT
  5
299E
330
2911
100
AcDbEntity
  8
DEFPOINTS
 62
     0
100
AcDbPoint
 10
627.2738051083372
 20
292.6559274374048
 30
0.0
  0
ENDBLK
  5
291C
330
2911
100
AcDbEntity
  8
0
100
AcDbBlockEnd
  0
ENDSEC
  0
SECTION
  2
ENTITIES
  0
LINE
  5
1390
330
1A
100
AcDbEntity
  8
ZUWAKU
100
AcDbLine
 10
208.646601303624
 20
15.19999986828872
 30
0.0
 11
447.4243639845474
 21
15.19999986828871
 31
0.0
  0
LINE
  5
1391
330
1A
100
AcDbEntity
  8
ZUWAKU
100
AcDbLine
 10
208.646601303624
 20
15.59999986828871
 30
0.0
 11
447.4243639845474
 21
15.59999986828872
 31
0.0
  0
LINE
  5
1392
330
1A
100
AcDbEntity
  8
ZUWAKU
100
AcDbLine
 10
208.646601303624
 20
15.39999986828871
 30
0.0
 11
447.4243639845474
 21
15.39999986828871
 31
0.0
  0
LINE
  5
1393
330
1A
100
AcDbEntity
  8
ZUWAKU
100
AcDbLine
 10
0.0000000135560185
 20
30.79999986828869
 30
0.0
 11
797.4000000135559
 21
30.79999986828869
 31
0.0
  0
LINE
  5
1394
330
1A
100
AcDbEntity
  8
ZUWAKU
100
AcDbLine
 10
0.0000000135560185
 20
30.59999986828869
 30
0.0
 11
797.4000000135559
 21
30.59999986828869
 31
0.0
  0
LINE
  5
1395
330
1A
100
AcDbEntity
  8
ZUWAKU
100
AcDbLine
 10
0.0000000135560185
 20
30.39999986828869
 30
0.0
 11
797.4000000135559
 21
30.39999986828869
 31
0.0
  0
LINE
  5
1396
330
1A
100
AcDbEntity
  8
ZUWAKU
100
AcDbLine
 10
0.0000000135560185
 20
30.19999986828868
 30
0.0
 11
797.4000000135559
 21
30.19999986828868
 31
0.0
  0
LINE
  5
1397
330
1A
100
AcDbEntity
  8
ZUWAKU
100
AcDbLine
 10
0.0000000135560185
 20
29.99999986828868
 30
0.0
 11
797.4000000135559
 21
29.99999986828868
 31
0.0
  0
LWPOLYLINE
  5
1398
330
1A
100
AcDbEntity
  8
ZUWAKU
100
AcDbPolyline
 90
        4
 70
     1
 43
0.0
 10
0.2000000135559503
 20
551.3999998682887
 10
0.2000000135559503
 20
0.1999998682887281
 10
797.4000000135559
 20
0.1999998682887511
 10
797.4000000135561
 20
551.3999998682887
  0
LWPOLYLINE
  5
1399
330
1A
100
AcDbEntity
  8
ZUWAKU
100
AcDbPolyline
 90
        4
 70
     1
 43
0.0
 10
0.6000000135559276
 20
550.9999998682888
 10
0.6000000135559276
 20
0.5999998682887054
 10
797.0000000135562
 20
0.5999998682887516
 10
797.000000013556
 20
550.9999998682888
  0
LWPOLYLINE
  5
139A
330
1A
100
AcDbEntity
  8
ZUWAKU
100
AcDbPolyline
 90
        4
 70
     1
 43
0.0
 10
0.0000000135560185
 20
551.5999998682887
 10
0.0000000135560185
 20
-0.0000001317113174
 10
797.6000000135561
 20
-0.0000001317112499
 10
797.6000000135561
 20
551.5999998682888
  0
LWPOLYLINE
  5
139B
330
1A
100
AcDbEntity
  8
ZUWAKU
100
AcDbPolyline
 90
        4
 70
     1
 43
0.0
 10
0.4000000135559958
 20
551.1999998682887
 10
0.4000000135559958
 20
0.3999998682887735
 10
797.200000013556
 20
0.3999998682887504
 10
797.200000013556
 20
551.1999998682887
  0
LWPOLYLINE
  5
139C
330
1A
100
AcDbEntity
  8
ZUWAKU
100
AcDbPolyline
 90
        4
 70
     1
 43
0.0
 10
0.800000013555973
 20
550.7999998682887
 10
0.800000013555973
 20
0.7999998682887508
 10
796.8000000135559
 20
0.7999998682887508
 10
796.8000000135559
 20
550.7999998682887
  0
TEXT
  5
139D
330
1A
100
AcDbEntity
  8
MOJI
100
AcDbText
 10
92.95778960172516
 20
12.74117799856344
 30
0.0
 40
6.0
  1
ライナートップＸ７０Ｕ
 41
0.9
  7
ｽﾀｲﾙ1
100
AcDbText
  0
HATCH
  5
139E
330
1A
100
AcDbEntity
  8
ZUWAKU
100
AcDbHatch
 10
0.0
 20
0.0
 30
0.0
210
0.0
220
0.0
230
1.0
  2
ANSI37
 70
     0
 71
     0
 91
        8
 92
        7
 72
     1
 73
     1
 93
       24
 10
14.50226267467587
 20
17.64484834927226
 42
-0.1989123673796348
 10
14.09221216833714
 20
18.63479784293331
 42
0.0
 10
14.09221216833714
 20
19.92499986828869
 42
-0.4142135623730912
 10
14.61721216833711
 20
20.44999986828868
 42
0.0
 10
17.59221216833702
 20
20.44999986828868
 42
0.4142135623731546
 10
18.11721216833712
 20
20.97499986828867
 42
0.0
 10
18.11721216833712
 20
22.72499986828869
 42
0.4142135623731586
 10
17.59221216833702
 20
23.24999986828868
 42
0.0
 10
14.09221216833714
 20
23.24999986828868
 42
0.4142135623730928
 10
11.29221216833718
 20
20.44999986828871
 42
0.0
 10
11.29221216833718
 20
18.63479784293344
 42
0.1989123673796619
 10
12.52236368735361
 20
15.66494936194983
 42
0.0
 10
15.43216166199829
 20
12.75515138730518
 42
-0.1989123673796613
 10
15.84221216833714
 20
11.76520189364399
 42
0.0
 10
15.84221216833714
 20
10.47499986828867
 42
-0.4142135623730911
 10
15.31721216833716
 20
9.949999868288685
 42
0.0
 10
12.34221216833725
 20
9.949999868288685
 42
0.4142135623731526
 10
11.81721216833716
 20
9.424999868288697
 42
0.0
 10
11.81721216833716
 20
7.674999868288676
 42
0.4142135623731526
 10
12.34221216833725
 20
7.149999868288688
 42
0.0
 10
15.84221216833714
 20
7.149999868288688
 42
0.4142135623731044
 10
18.64221216833721
 20
9.949999868288664
 42
0.0
 10
18.64221216833721
 20
11.76520189364393
 42
0.1989123673796604
 10
17.41206064932066
 20
14.73505037462747
 42
0.0
 97
        0
 92
        7
 72
     1
 73
     1
 93
       16
 10
23.54221216833718
 20
19.04999986828869
 42
-0.4142135623730935
 10
24.94221216833716
 20
20.44999986828868
 42
0.0
 10
26.86721216833712
 20
20.44999986828868
 42
0.4142135623731546
 10
27.39221216833721
 20
20.97499986828867
 42
0.0
 10
27.39221216833721
 20
22.72499986828869
 42
0.4142135623730951
 10
26.86721216833723
 20
23.24999986828868
 42
0.0
 10
24.94221216833705
 20
23.24999986828864
 42
0.4142135623730892
 10
20.74221216833711
 20
19.04999986828862
 42
0.0
 10
20.74221216833711
 20
11.34999986828871
 42
0.4142135623730969
 10
24.94221216833716
 20
7.149999868288688
 42
0.0
 10
26.86721216833712
 20
7.149999868288688
 42
0.4142135623731526
 10
27.39221216833721
 20
7.674999868288676
 42
0.0
 10
27.39221216833721
 20
9.424999868288697
 42
0.4142135623730891
 10
26.86721216833723
 20
9.949999868288685
 42
0.0
 10
24.94221216833716
 20
9.949999868288685
 42
-0.4142135623730928
 10
23.54221216833718
 20
11.34999986828867
 42
0.0
 97
        0
 92
        7
 72
     1
 73
     1
 93
        2
 10
24.24221216833712
 20
15.19999986828868
 42
1.0
 10
27.74221216833712
 20
15.19999986828868
 42
1.0
 97
        0
 92
        7
 72
     1
 73
     1
 93
       26
 10
37.31485865051513
 20
19.20504706185211
 42
0.0
 10
38.37649828365295
 20
22.5669059001217
 42
0.5069206636600134
 10
37.87586738445759
 20
23.24999986828868
 42
0.0
 10
36.17697800484836
 20
23.24999986828868
 42
0.3272098845218764
 10
35.676347105653
 20
22.88309383645565
 42
0.0
 10
33.80807723102122
 20
16.96690590012176
 42
-0.3272098845219541
 10
33.30744633182575
 20
16.59999986828868
 42
0.0
 10
33.1672121683373
 20
16.59999986828868
 42
-0.4142135623731526
 10
32.64221216833721
 20
17.12499986828867
 42
0.0
 10
32.64221216833721
 20
22.72499986828869
 42
0.4142135623730951
 10
32.11721216833723
 20
23.24999986828868
 42
0.0
 10
30.36721216833711
 20
23.24999986828868
 42
0.4142135623730871
 10
29.84221216833714
 20
22.7249998682887
 42
0.0
 10
29.84221216833714
 20
7.674999868288676
 42
0.4142135623730891
 10
30.36721216833711
 20
7.149999868288688
 42
0.0
 10
32.11721216833712
 20
7.149999868288688
 42
0.4142135623731526
 10
32.64221216833721
 20
7.674999868288676
 42
0.0
 10
32.64221216833721
 20
13.27499986828869
 42
-0.4142135623731526
 10
33.1672121683373
 20
13.79999986828868
 42
0.0
 10
33.30744633182587
 20
13.79999986828868
 42
-0.3272098845218915
 10
33.80807723102122
 20
13.43309383645561
 42
0.0
 10
35.676347105653
 20
7.516905900121759
 42
0.3272098845218902
 10
36.17697800484836
 20
7.149999868288688
 42
0.0
 10
37.87586738445759
 20
7.149999868288688
 42
0.5069206636600335
 10
38.37649828365295
 20
7.833093836455695
 42
0.0
 10
36.05010690517929
 20
15.19999986828882
 42
0.0
 97
        0
 92
        7
 72
     1
 73
     1
 93
        8
 10
43.49221216833711
 20
22.7249998682887
 42
0.4142135623731546
 10
42.96721216833702
 20
23.24999986828868
 42
0.0
 10
41.21721216833726
 20
23.24999986828868
 42
0.4142135623731507
 10
40.69221216833716
 20
22.7249998682887
 42
0.0
 10
40.69221216833716
 20
7.674999868288676
 42
0.4142135623731526
 10
41.21721216833726
 20
7.149999868288688
 42
0.0
 10
42.96721216833702
 20
7.149999868288688
 42
0.4142135623731526
 10
43.49221216833711
 20
7.674999868288676
 42
0.0
 97
        0
 92
        7
 72
     1
 73
     1
 93
       24
 10
48.3922121683372
 20
19.92499986828869
 42
-0.4142135623731546
 10
48.9172121683373
 20
20.44999986828868
 42
0.0
 10
51.89221216833721
 20
20.44999986828868
 42
0.4142135623730911
 10
52.41721216833719
 20
20.97499986828867
 42
0.0
 10
52.41721216833719
 20
22.72499986828869
 42
0.4142135623730952
 10
51.89221216833721
 20
23.24999986828868
 42
0.0
 10
48.3922121683372
 20
23.24999986828868
 42
0.4142135623731048
 10
45.59221216833714
 20
20.44999986828871
 42
0.0
 10
45.59221216833714
 20
18.63479784293344
 42
0.1989123673796613
 10
46.82236368735368
 20
15.66494936194989
 42
0.0
 10
49.73216166199836
 20
12.75515138730522
 42
-0.1989123673796402
 10
50.14221216833721
 20
11.76520189364415
 42
0.0
 10
50.14221216833721
 20
10.47499986828867
 42
-0.4142135623730911
 10
49.61721216833723
 20
9.949999868288685
 42
0.0
 10
46.64221216833721
 20
9.949999868288685
 42
0.4142135623731526
 10
46.11721216833712
 20
9.424999868288697
 42
0.0
 10
46.11721216833712
 20
7.674999868288676
 42
0.4142135623730891
 10
46.64221216833709
 20
7.149999868288688
 42
0.0
 10
50.14221216833721
 20
7.149999868288688
 42
0.4142135623730925
 10
52.94221216833716
 20
9.949999868288664
 42
0.0
 10
52.94221216833716
 20
11.76520189364393
 42
0.1989123673796675
 10
51.71206064932062
 20
14.73505037462759
 42
0.0
 10
48.80226267467605
 20
17.6448483492721
 42
-0.1989123673796652
 10
48.3922121683372
 20
18.63479784293327
 42
0.0
 97
        0
 92
        7
 72
     1
 73
     1
 93
       16
 10
57.84221216833714
 20
22.72499986828867
 42
0.414213562373103
 10
57.31721216833716
 20
23.24999986828868
 42
0.0
 10
55.56721216833716
 20
23.24999986828868
 42
0.4142135623730871
 10
55.04221216833719
 20
22.7249998682887
 42
0.0
 10
55.04221216833719
 20
9.949999868288664
 42
0.4142135623730926
 10
57.84221216833714
 20
7.149999868288688
 42
0.0
 10
61.34221216833714
 20
7.149999868288688
 42
0.4142135623731044
 10
64.14221216833721
 20
9.949999868288664
 42
0.0
 10
64.14221216833721
 20
22.72499986828869
 42
0.4142135623730951
 10
63.61721216833723
 20
23.24999986828868
 42
0.0
 10
61.86721216833712
 20
23.24999986828868
 42
0.4142135623730871
 10
61.34221216833714
 20
22.7249998682887
 42
0.0
 10
61.34221216833714
 20
10.99999986828866
 42
-0.414213562373088
 10
60.29221216833718
 20
9.949999868288685
 42
0.0
 10
58.89221216833721
 20
9.949999868288685
 42
-0.4142135623731197
 10
57.84221216833714
 20
10.99999986828866
 42
0.0
 97
        0
 92
        7
 72
     1
 73
     1
 93
        8
 10
69.04221216833718
 20
22.7249998682887
 42
0.4142135623730871
 10
68.51721216833721
 20
23.24999986828868
 42
0.0
 10
66.76721216833721
 20
23.24999986828868
 42
0.4142135623731507
 10
66.24221216833712
 20
22.7249998682887
 42
0.0
 10
66.24221216833712
 20
7.674999868288676
 42
0.4142135623730891
 10
66.76721216833709
 20
7.149999868288688
 42
0.0
 10
68.51721216833721
 20
7.149999868288688
 42
0.4142135623730891
 10
69.04221216833718
 20
7.674999868288676
 42
0.0
 97
        0
 75
     0
 76
     1
 52
0.0
 41
0.2
 77
     0
 78
     2
 53
45.0
 43
-900.942304321123
 44
-13.20000013171124
 45
-0.4490128060534576
 46
0.4490128060534577
 79
     0
 53
135.0
 43
-900.942304321123
 44
-13.20000013171124
 45
-0.4490128060534577
 46
-0.4490128060534576
 79
     0
 47
0.057451373970553
 98
        8
 10
16.07985497657932
 20
15.16717351417423
 10
22.40451501999519
 20
18.84406205073969
 10
25.16436789921567
 20
15.5118815143594
 10
30.91405999519315
 20
16.20129751473018
 10
41.83847203251275
 20
16.6609097822718
 10
46.89820090868557
 20
19.41857618469589
 10
56.55768598595637
 20
18.72915778338369
 10
67.82707963317875
 20
19.18877005092531
  0
LINE
  5
139F
330
1A
100
AcDbEntity
  8
ZUWAKU
100
AcDbLine
 10
24.94221216833716
 20
23.24999986828864
 30
0.0
 11
26.86721216833712
 21
23.24999986828868
 31
0.0
  0
LINE
  5
13A0
330
1A
100
AcDbEntity
  8
ZUWAKU
100
AcDbLine
 10
26.86721216833712
 20
20.44999986828868
 30
0.0
 11
24.94221216833716
 21
20.44999986828868
 31
0.0
  0
LINE
  5
13A1
330
1A
100
AcDbEntity
  8
ZUWAKU
100
AcDbLine
 10
24.94221216833716
 20
9.949999868288685
 30
0.0
 11
26.86721216833712
 21
9.949999868288685
 31
0.0
  0
LINE
  5
13A2
330
1A
100
AcDbEntity
  8
ZUWAKU
100
AcDbLine
 10
26.86721216833712
 20
7.149999868288688
 30
0.0
 11
24.94221216833716
 21
7.149999868288688
 31
0.0
  0
CIRCLE
  5
13A3
330
1A
100
AcDbEntity
  8
ZUWAKU
100
AcDbCircle
 10
25.99221216833711
 20
15.19999986828868
 30
0.0
 40
1.75
  0
ARC
  5
13A4
330
1A
100
AcDbEntity
  8
ZUWAKU
100
AcDbCircle
 10
15.49221216833712
 20
18.63479784293338
 30
0.0
 40
1.399999999999999
100
AcDbArc
 50
180.0000000000016
 51
224.9999999999988
  0
LINE
  5
13A5
330
1A
100
AcDbEntity
  8
ZUWAKU
100
AcDbLine
 10
23.54221216833718
 20
19.04999986828868
 30
0.0
 11
23.54221216833718
 21
11.34999986828869
 31
0.0
  0
LINE
  5
13A6
330
1A
100
AcDbEntity
  8
ZUWAKU
100
AcDbLine
 10
20.74221216833711
 20
11.34999986828869
 30
0.0
 11
20.74221216833711
 21
19.04999986828864
 31
0.0
  0
ARC
  5
13A7
330
1A
100
AcDbEntity
  8
ZUWAKU
100
AcDbCircle
 10
15.49221216833712
 20
18.63479784293338
 30
0.0
 40
4.199999999999999
100
AcDbArc
 50
180.0
 51
225.0
  0
ARC
  5
13A8
330
1A
100
AcDbEntity
  8
ZUWAKU
100
AcDbCircle
 10
15.84221216833714
 20
9.949999868288685
 30
0.0
 40
2.799999999999999
100
AcDbArc
 50
270.0
 51
0.0
  0
ARC
  5
13A9
330
1A
100
AcDbEntity
  8
ZUWAKU
100
AcDbCircle
 10
24.94221216833716
 20
11.34999986828869
 30
0.0
 40
4.199999999999999
100
AcDbArc
 50
180.0
 51
270.0
  0
ARC
  5
13AA
330
1A
100
AcDbEntity
  8
ZUWAKU
100
AcDbCircle
 10
14.44221216833716
 20
11.76520189364399
 30
0.0
 40
4.199999999999999
100
AcDbArc
 50
0.0
 51
45.0
  0
LINE
  5
13AB
330
1A
100
AcDbEntity
  8
ZUWAKU
100
AcDbLine
 10
17.41206064932066
 20
14.73505037462751
 30
0.0
 11
14.50226267467598
 21
17.64484834927218
 31
0.0
  0
LINE
  5
13AC
330
1A
100
AcDbEntity
  8
ZUWAKU
100
AcDbLine
 10
15.84221216833714
 20
10.47499986828869
 30
0.0
 11
15.84221216833714
 21
11.76520189364403
 31
0.0
  0
ARC
  5
13AD
330
1A
100
AcDbEntity
  8
ZUWAKU
100
AcDbCircle
 10
15.31721216833716
 20
10.47499986828869
 30
0.0
 40
0.525
100
AcDbArc
 50
270.0
 51
0.0
  0
ARC
  5
13AE
330
1A
100
AcDbEntity
  8
ZUWAKU
100
AcDbCircle
 10
14.44221216833716
 20
11.76520189364403
 30
0.0
 40
1.399999999999999
100
AcDbArc
 50
0.0
 51
45.0
  0
LINE
  5
13AF
330
1A
100
AcDbEntity
  8
ZUWAKU
100
AcDbLine
 10
11.81721216833716
 20
7.674999868288686
 30
0.0
 11
11.81721216833716
 21
9.424999868288686
 31
0.0
  0
ARC
  5
13B0
330
1A
100
AcDbEntity
  8
ZUWAKU
100
AcDbCircle
 10
12.34221216833714
 20
7.674999868288686
 30
0.0
 40
0.525
100
AcDbArc
 50
180.0
 51
270.0
  0
ARC
  5
13B1
330
1A
100
AcDbEntity
  8
ZUWAKU
100
AcDbCircle
 10
12.34221216833714
 20
9.424999868288686
 30
0.0
 40
0.525
100
AcDbArc
 50
90.0
 51
180.0
  0
LINE
  5
13B2
330
1A
100
AcDbEntity
  8
ZUWAKU
100
AcDbLine
 10
12.34221216833714
 20
7.149999868288688
 30
0.0
 11
15.84221216833714
 21
7.149999868288688
 31
0.0
  0
LINE
  5
13B3
330
1A
100
AcDbEntity
  8
ZUWAKU
100
AcDbLine
 10
12.34221216833714
 20
9.949999868288685
 30
0.0
 11
15.31721216833716
 21
9.949999868288685
 31
0.0
  0
LINE
  5
13B4
330
1A
100
AcDbEntity
  8
ZUWAKU
100
AcDbLine
 10
12.52236368735361
 20
15.66494936194986
 30
0.0
 11
15.43216166199829
 21
12.7551513873052
 31
0.0
  0
LINE
  5
13B5
330
1A
100
AcDbEntity
  8
ZUWAKU
100
AcDbLine
 10
18.64221216833721
 20
9.949999868288685
 30
0.0
 11
18.64221216833721
 21
11.76520189364403
 31
0.0
  0
ARC
  5
13B6
330
1A
100
AcDbEntity
  8
ZUWAKU
100
AcDbCircle
 10
24.94221216833716
 20
11.34999986828869
 30
0.0
 40
1.399999999999999
100
AcDbArc
 50
180.0
 51
270.0
  0
ARC
  5
13B7
330
1A
100
AcDbEntity
  8
ZUWAKU
100
AcDbCircle
 10
17.59221216833714
 20
22.72499986828868
 30
0.0
 40
0.525
100
AcDbArc
 50
0.0
 51
90.0
  0
ARC
  5
13B8
330
1A
100
AcDbEntity
  8
ZUWAKU
100
AcDbCircle
 10
17.59221216833714
 20
20.97499986828868
 30
0.0
 40
0.525
100
AcDbArc
 50
270.0
 51
0.0
  0
LINE
  5
13B9
330
1A
100
AcDbEntity
  8
ZUWAKU
100
AcDbLine
 10
14.09221216833714
 20
23.24999986828868
 30
0.0
 11
17.59221216833714
 21
23.24999986828868
 31
0.0
  0
ARC
  5
13BA
330
1A
100
AcDbEntity
  8
ZUWAKU
100
AcDbCircle
 10
14.61721216833711
 20
19.92499986828868
 30
0.0
 40
0.525
100
AcDbArc
 50
90.0
 51
180.0
  0
LINE
  5
13BB
330
1A
100
AcDbEntity
  8
ZUWAKU
100
AcDbLine
 10
14.09221216833714
 20
19.92499986828868
 30
0.0
 11
14.09221216833714
 21
18.63479784293334
 31
0.0
  0
LINE
  5
13BC
330
1A
100
AcDbEntity
  8
ZUWAKU
100
AcDbLine
 10
17.59221216833714
 20
20.44999986828868
 30
0.0
 11
14.61721216833711
 21
20.44999986828868
 31
0.0
  0
LINE
  5
13BD
330
1A
100
AcDbEntity
  8
ZUWAKU
100
AcDbLine
 10
11.29221216833718
 20
20.44999986828868
 30
0.0
 11
11.29221216833718
 21
18.63479784293334
 31
0.0
  0
ARC
  5
13BE
330
1A
100
AcDbEntity
  8
ZUWAKU
100
AcDbCircle
 10
14.09221216833714
 20
20.44999986828868
 30
0.0
 40
2.799999999999999
100
AcDbArc
 50
90.0
 51
180.0
  0
LINE
  5
13BF
330
1A
100
AcDbEntity
  8
ZUWAKU
100
AcDbLine
 10
18.11721216833712
 20
22.72499986828868
 30
0.0
 11
18.11721216833712
 21
20.97499986828868
 31
0.0
  0
ARC
  5
13C0
330
1A
100
AcDbEntity
  8
ZUWAKU
100
AcDbCircle
 10
24.94221216833716
 20
19.04999986828868
 30
0.0
 40
1.399999999999999
100
AcDbArc
 50
90.0
 51
180.0
  0
ARC
  5
13C1
330
1A
100
AcDbEntity
  8
ZUWAKU
100
AcDbCircle
 10
24.94221216833716
 20
19.04999986828864
 30
0.0
 40
4.199999999999999
100
AcDbArc
 50
90.0
 51
180.0
  0
LINE
  5
13C2
330
1A
100
AcDbEntity
  8
ZUWAKU
100
AcDbLine
 10
79.32662956154422
 20
29.99999986828868
 30
0.0
 11
79.32662956154445
 21
0.7999998682887508
 31
0.0
  0
LINE
  5
13C3
330
1A
100
AcDbEntity
  8
ZUWAKU
100
AcDbLine
 10
79.52662956154426
 20
29.99999986828868
 30
0.0
 11
79.52662956154449
 21
0.7999998682887508
 31
0.0
  0
LINE
  5
13C4
330
1A
100
AcDbEntity
  8
ZUWAKU
100
AcDbLine
 10
79.12662956154441
 20
29.99999986828868
 30
0.0
 11
79.12662956154441
 21
0.7999998682887508
 31
0.0
  0
LINE
  5
13C5
330
1A
100
AcDbEntity
  8
ZUWAKU
100
AcDbLine
 10
64.14221216833721
 20
9.949999868288685
 30
0.0
 11
64.14221216833721
 21
22.72499986828868
 31
0.0
  0
LINE
  5
13C6
330
1A
100
AcDbEntity
  8
ZUWAKU
100
AcDbLine
 10
61.34221216833714
 20
22.72499986828868
 30
0.0
 11
61.34221216833714
 21
10.99999986828868
 31
0.0
  0
LINE
  5
13C7
330
1A
100
AcDbEntity
  8
ZUWAKU
100
AcDbLine
 10
69.04221216833718
 20
7.674999868288686
 30
0.0
 11
69.04221216833718
 21
22.72499986828868
 31
0.0
  0
LINE
  5
13C8
330
1A
100
AcDbEntity
  8
ZUWAKU
100
AcDbLine
 10
66.24221216833712
 20
22.72499986828868
 30
0.0
 11
66.24221216833712
 21
7.674999868288686
 31
0.0
  0
ARC
  5
13C9
330
1A
100
AcDbEntity
  8
ZUWAKU
100
AcDbCircle
 10
49.79221216833718
 20
18.63479784293338
 30
0.0
 40
1.399999999999999
100
AcDbArc
 50
180.0000000000016
 51
224.9999999999988
  0
ARC
  5
13CA
330
1A
100
AcDbEntity
  8
ZUWAKU
100
AcDbCircle
 10
49.79221216833718
 20
18.63479784293338
 30
0.0
 40
4.199999999999999
100
AcDbArc
 50
180.0
 51
225.0
  0
LINE
  5
13CB
330
1A
100
AcDbEntity
  8
ZUWAKU
100
AcDbLine
 10
37.31485865051513
 20
19.20504706185211
 30
0.0
 11
36.05010690517929
 21
15.1999998682887
 31
0.0
  0
LINE
  5
13CC
330
1A
100
AcDbEntity
  8
ZUWAKU
100
AcDbLine
 10
40.69221216833716
 20
22.72499986828868
 30
0.0
 11
40.69221216833716
 21
7.674999868288686
 31
0.0
  0
LINE
  5
13CD
330
1A
100
AcDbEntity
  8
ZUWAKU
100
AcDbLine
 10
43.49221216833711
 20
7.674999868288686
 30
0.0
 11
43.49221216833711
 21
22.72499986828868
 31
0.0
  0
LINE
  5
13CE
330
1A
100
AcDbEntity
  8
ZUWAKU
100
AcDbLine
 10
55.04221216833719
 20
22.72499986828868
 30
0.0
 11
55.04221216833719
 21
9.949999868288685
 31
0.0
  0
LINE
  5
13CF
330
1A
100
AcDbEntity
  8
ZUWAKU
100
AcDbLine
 10
57.84221216833714
 20
10.99999986828868
 30
0.0
 11
57.84221216833714
 21
22.72499986828868
 31
0.0
  0
LINE
  5
13D0
330
1A
100
AcDbEntity
  8
ZUWAKU
100
AcDbLine
 10
32.64221216833721
 20
17.12499986828869
 30
0.0
 11
32.64221216833721
 21
22.72499986828868
 31
0.0
  0
LINE
  5
13D1
330
1A
100
AcDbEntity
  8
ZUWAKU
100
AcDbLine
 10
29.84221216833714
 20
22.72499986828868
 30
0.0
 11
29.84221216833714
 21
7.674999868288686
 31
0.0
  0
LINE
  5
13D2
330
1A
100
AcDbEntity
  8
ZUWAKU
100
AcDbLine
 10
35.676347105653
 20
22.88309383645565
 30
0.0
 11
33.80807723102122
 21
16.96690590012171
 31
0.0
  0
LINE
  5
13D3
330
1A
100
AcDbEntity
  8
ZUWAKU
100
AcDbLine
 10
60.29221216833718
 20
9.949999868288685
 30
0.0
 11
58.89221216833721
 21
9.949999868288685
 31
0.0
  0
LINE
  5
13D4
330
1A
100
AcDbEntity
  8
ZUWAKU
100
AcDbLine
 10
57.84221216833714
 20
7.149999868288688
 30
0.0
 11
61.34221216833714
 21
7.149999868288688
 31
0.0
  0
LINE
  5
13D5
330
1A
100
AcDbEntity
  8
ZUWAKU
100
AcDbLine
 10
41.21721216833714
 20
7.149999868288688
 30
0.0
 11
42.96721216833714
 21
7.149999868288688
 31
0.0
  0
LINE
  5
13D6
330
1A
100
AcDbEntity
  8
ZUWAKU
100
AcDbLine
 10
35.676347105653
 20
7.516905900121713
 30
0.0
 11
33.80807723102122
 21
13.43309383645565
 31
0.0
  0
ARC
  5
13D7
330
1A
100
AcDbEntity
  8
ZUWAKU
100
AcDbCircle
 10
33.30744633182587
 20
17.12499986828869
 30
0.0
 40
0.525
100
AcDbArc
 50
270.0
 51
342.4744316262769
  0
LINE
  5
13D8
330
1A
100
AcDbEntity
  8
ZUWAKU
100
AcDbLine
 10
33.30744633182587
 20
16.59999986828868
 30
0.0
 11
33.16721216833718
 21
16.59999986828868
 31
0.0
  0
LINE
  5
13D9
330
1A
100
AcDbEntity
  8
ZUWAKU
100
AcDbLine
 10
33.16721216833718
 20
13.79999986828868
 30
0.0
 11
33.30744633182587
 21
13.79999986828868
 31
0.0
  0
ARC
  5
13DA
330
1A
100
AcDbEntity
  8
ZUWAKU
100
AcDbCircle
 10
33.16721216833718
 20
17.12499986828869
 30
0.0
 40
0.525
100
AcDbArc
 50
180.0
 51
270.0
  0
LINE
  5
13DB
330
1A
100
AcDbEntity
  8
ZUWAKU
100
AcDbLine
 10
30.36721216833711
 20
7.149999868288688
 30
0.0
 11
32.11721216833712
 21
7.149999868288688
 31
0.0
  0
ARC
  5
13DC
330
1A
100
AcDbEntity
  8
ZUWAKU
100
AcDbCircle
 10
32.11721216833712
 20
7.674999868288686
 30
0.0
 40
0.525
100
AcDbArc
 50
270.0
 51
0.0
  0
LINE
  5
13DD
330
1A
100
AcDbEntity
  8
ZUWAKU
100
AcDbLine
 10
32.64221216833721
 20
7.674999868288686
 30
0.0
 11
32.64221216833721
 21
13.27499986828868
 31
0.0
  0
LINE
  5
13DE
330
1A
100
AcDbEntity
  8
ZUWAKU
100
AcDbLine
 10
27.39221216833721
 20
9.424999868288686
 30
0.0
 11
27.39221216833721
 21
7.674999868288686
 31
0.0
  0
ARC
  5
13DF
330
1A
100
AcDbEntity
  8
ZUWAKU
100
AcDbCircle
 10
26.86721216833712
 20
7.674999868288686
 30
0.0
 40
0.525
100
AcDbArc
 50
270.0
 51
0.0
  0
ARC
  5
13E0
330
1A
100
AcDbEntity
  8
ZUWAKU
100
AcDbCircle
 10
26.86721216833712
 20
9.424999868288686
 30
0.0
 40
0.525
100
AcDbArc
 50
0.0
 51
90.0
  0
ARC
  5
13E1
330
1A
100
AcDbEntity
  8
ZUWAKU
100
AcDbCircle
 10
30.36721216833711
 20
7.674999868288686
 30
0.0
 40
0.525
100
AcDbArc
 50
180.0
 51
270.0
  0
ARC
  5
13E2
330
1A
100
AcDbEntity
  8
ZUWAKU
100
AcDbCircle
 10
33.30744633182587
 20
13.27499986828868
 30
0.0
 40
0.525
100
AcDbArc
 50
17.52556837372303
 51
90.0
  0
ARC
  5
13E3
330
1A
100
AcDbEntity
  8
ZUWAKU
100
AcDbCircle
 10
33.16721216833718
 20
13.27499986828868
 30
0.0
 40
0.525
100
AcDbArc
 50
90.0
 51
180.0
  0
ARC
  5
13E4
330
1A
100
AcDbEntity
  8
ZUWAKU
100
AcDbCircle
 10
41.21721216833714
 20
7.674999868288686
 30
0.0
 40
0.525
100
AcDbArc
 50
180.0
 51
270.0
  0
LINE
  5
13E5
330
1A
100
AcDbEntity
  8
ZUWAKU
100
AcDbLine
 10
36.17697800484847
 20
7.149999868288688
 30
0.0
 11
37.87586738445748
 21
7.149999868288688
 31
0.0
  0
ARC
  5
13E6
330
1A
100
AcDbEntity
  8
ZUWAKU
100
AcDbCircle
 10
37.87586738445748
 20
7.674999868288686
 30
0.0
 40
0.525
100
AcDbArc
 50
270.0
 51
17.52556837372303
  0
LINE
  5
13E7
330
1A
100
AcDbEntity
  8
ZUWAKU
100
AcDbLine
 10
38.37649828365295
 20
7.83309383645566
 30
0.0
 11
36.05010690517929
 21
15.1999998682887
 31
0.0
  0
ARC
  5
13E8
330
1A
100
AcDbEntity
  8
ZUWAKU
100
AcDbCircle
 10
36.17697800484847
 20
7.674999868288686
 30
0.0
 40
0.525
100
AcDbArc
 50
197.525568373723
 51
270.0
  0
ARC
  5
13E9
330
1A
100
AcDbEntity
  8
ZUWAKU
100
AcDbCircle
 10
57.84221216833714
 20
9.949999868288685
 30
0.0
 40
2.799999999999999
100
AcDbArc
 50
180.0
 51
270.0
  0
ARC
  5
13EA
330
1A
100
AcDbEntity
  8
ZUWAKU
100
AcDbCircle
 10
50.14221216833721
 20
9.949999868288685
 30
0.0
 40
2.799999999999999
100
AcDbArc
 50
270.0
 51
0.0
  0
LINE
  5
13EB
330
1A
100
AcDbEntity
  8
ZUWAKU
100
AcDbLine
 10
51.71206064932073
 20
14.73505037462751
 30
0.0
 11
48.80226267467595
 21
17.64484834927218
 31
0.0
  0
LINE
  5
13EC
330
1A
100
AcDbEntity
  8
ZUWAKU
100
AcDbLine
 10
50.14221216833721
 20
10.47499986828869
 30
0.0
 11
50.14221216833721
 21
11.76520189364403
 31
0.0
  0
ARC
  5
13ED
330
1A
100
AcDbEntity
  8
ZUWAKU
100
AcDbCircle
 10
48.74221216833712
 20
11.76520189364403
 30
0.0
 40
1.399999999999999
100
AcDbArc
 50
0.0
 51
45.0
  0
ARC
  5
13EE
330
1A
100
AcDbEntity
  8
ZUWAKU
100
AcDbCircle
 10
49.61721216833712
 20
10.47499986828869
 30
0.0
 40
0.525
100
AcDbArc
 50
270.0
 51
0.0
  0
LINE
  5
13EF
330
1A
100
AcDbEntity
  8
ZUWAKU
100
AcDbLine
 10
46.11721216833712
 20
7.674999868288686
 30
0.0
 11
46.11721216833712
 21
9.424999868288686
 31
0.0
  0
ARC
  5
13F0
330
1A
100
AcDbEntity
  8
ZUWAKU
100
AcDbCircle
 10
46.64221216833721
 20
7.674999868288686
 30
0.0
 40
0.525
100
AcDbArc
 50
180.0
 51
270.0
  0
ARC
  5
13F1
330
1A
100
AcDbEntity
  8
ZUWAKU
100
AcDbCircle
 10
42.96721216833714
 20
7.674999868288686
 30
0.0
 40
0.525
100
AcDbArc
 50
270.0
 51
0.0
  0
ARC
  5
13F2
330
1A
100
AcDbEntity
  8
ZUWAKU
100
AcDbCircle
 10
46.64221216833721
 20
9.424999868288686
 30
0.0
 40
0.525
100
AcDbArc
 50
90.0
 51
180.0
  0
LINE
  5
13F3
330
1A
100
AcDbEntity
  8
ZUWAKU
100
AcDbLine
 10
46.64221216833721
 20
9.949999868288685
 30
0.0
 11
49.61721216833712
 21
9.949999868288685
 31
0.0
  0
LINE
  5
13F4
330
1A
100
AcDbEntity
  8
ZUWAKU
100
AcDbLine
 10
46.64221216833721
 20
7.149999868288688
 30
0.0
 11
50.14221216833721
 21
7.149999868288688
 31
0.0
  0
LINE
  5
13F5
330
1A
100
AcDbEntity
  8
ZUWAKU
100
AcDbLine
 10
46.82236368735368
 20
15.66494936194986
 30
0.0
 11
49.73216166199836
 21
12.7551513873052
 31
0.0
  0
LINE
  5
13F6
330
1A
100
AcDbEntity
  8
ZUWAKU
100
AcDbLine
 10
52.94221216833716
 20
9.949999868288685
 30
0.0
 11
52.94221216833716
 21
11.76520189364403
 31
0.0
  0
ARC
  5
13F7
330
1A
100
AcDbEntity
  8
ZUWAKU
100
AcDbCircle
 10
48.74221216833712
 20
11.76520189364399
 30
0.0
 40
4.199999999999999
100
AcDbArc
 50
0.0
 51
45.0
  0
ARC
  5
13F8
330
1A
100
AcDbEntity
  8
ZUWAKU
100
AcDbCircle
 10
58.89221216833721
 20
10.99999986828868
 30
0.0
 40
1.049999999999999
100
AcDbArc
 50
180.0
 51
270.0
  0
ARC
  5
13F9
330
1A
100
AcDbEntity
  8
ZUWAKU
100
AcDbCircle
 10
61.34221216833714
 20
9.949999868288685
 30
0.0
 40
2.799999999999999
100
AcDbArc
 50
270.0
 51
0.0
  0
LINE
  5
13FA
330
1A
100
AcDbEntity
  8
ZUWAKU
100
AcDbLine
 10
66.76721216833721
 20
7.149999868288688
 30
0.0
 11
68.51721216833721
 21
7.149999868288688
 31
0.0
  0
ARC
  5
13FB
330
1A
100
AcDbEntity
  8
ZUWAKU
100
AcDbCircle
 10
66.76721216833721
 20
7.674999868288686
 30
0.0
 40
0.525
100
AcDbArc
 50
180.0
 51
270.0
  0
ARC
  5
13FC
330
1A
100
AcDbEntity
  8
ZUWAKU
100
AcDbCircle
 10
60.29221216833718
 20
10.99999986828868
 30
0.0
 40
1.049999999999999
100
AcDbArc
 50
270.0
 51
0.0
  0
ARC
  5
13FD
330
1A
100
AcDbEntity
  8
ZUWAKU
100
AcDbCircle
 10
68.51721216833721
 20
7.674999868288686
 30
0.0
 40
0.525
100
AcDbArc
 50
270.0
 51
0.0
  0
LINE
  5
13FE
330
1A
100
AcDbEntity
  8
ZUWAKU
100
AcDbLine
 10
42.96721216833714
 20
23.24999986828868
 30
0.0
 11
41.21721216833714
 21
23.24999986828868
 31
0.0
  0
ARC
  5
13FF
330
1A
100
AcDbEntity
  8
ZUWAKU
100
AcDbCircle
 10
32.11721216833712
 20
22.72499986828868
 30
0.0
 40
0.525
100
AcDbArc
 50
0.0
 51
90.0
  0
LINE
  5
1400
330
1A
100
AcDbEntity
  8
ZUWAKU
100
AcDbLine
 10
32.11721216833712
 20
23.24999986828868
 30
0.0
 11
30.36721216833711
 21
23.24999986828868
 31
0.0
  0
ARC
  5
1401
330
1A
100
AcDbEntity
  8
ZUWAKU
100
AcDbCircle
 10
26.86721216833712
 20
22.72499986828868
 30
0.0
 40
0.525
100
AcDbArc
 50
0.0
 51
90.0
  0
ARC
  5
1402
330
1A
100
AcDbEntity
  8
ZUWAKU
100
AcDbCircle
 10
30.36721216833711
 20
22.72499986828868
 30
0.0
 40
0.525
100
AcDbArc
 50
90.0
 51
180.0
  0
ARC
  5
1403
330
1A
100
AcDbEntity
  8
ZUWAKU
100
AcDbCircle
 10
26.86721216833712
 20
20.97499986828868
 30
0.0
 40
0.525
100
AcDbArc
 50
270.0
 51
0.0
  0
LINE
  5
1404
330
1A
100
AcDbEntity
  8
ZUWAKU
100
AcDbLine
 10
27.39221216833721
 20
22.72499986828868
 30
0.0
 11
27.39221216833721
 21
20.97499986828868
 31
0.0
  0
ARC
  5
1405
330
1A
100
AcDbEntity
  8
ZUWAKU
100
AcDbCircle
 10
41.21721216833714
 20
22.72499986828868
 30
0.0
 40
0.525
100
AcDbArc
 50
90.0
 51
180.0
  0
LINE
  5
1406
330
1A
100
AcDbEntity
  8
ZUWAKU
100
AcDbLine
 10
36.17697800484847
 20
23.24999986828868
 30
0.0
 11
37.87586738445748
 21
23.24999986828868
 31
0.0
  0
ARC
  5
1407
330
1A
100
AcDbEntity
  8
ZUWAKU
100
AcDbCircle
 10
37.87586738445748
 20
22.72499986828868
 30
0.0
 40
0.525
100
AcDbArc
 50
342.4744316262769
 51
90.0
  0
LINE
  5
1408
330
1A
100
AcDbEntity
  8
ZUWAKU
100
AcDbLine
 10
38.37649828365295
 20
22.56690590012171
 30
0.0
 11
37.31485865051513
 21
19.20504706185211
 31
0.0
  0
ARC
  5
1409
330
1A
100
AcDbEntity
  8
ZUWAKU
100
AcDbCircle
 10
36.17697800484847
 20
22.72499986828868
 30
0.0
 40
0.525
100
AcDbArc
 50
90.0
 51
162.4744316262769
  0
LINE
  5
140A
330
1A
100
AcDbEntity
  8
ZUWAKU
100
AcDbLine
 10
48.3922121683372
 20
23.24999986828868
 30
0.0
 11
51.89221216833721
 21
23.24999986828868
 31
0.0
  0
LINE
  5
140B
330
1A
100
AcDbEntity
  8
ZUWAKU
100
AcDbLine
 10
51.89221216833721
 20
20.44999986828868
 30
0.0
 11
48.91721216833719
 21
20.44999986828868
 31
0.0
  0
ARC
  5
140C
330
1A
100
AcDbEntity
  8
ZUWAKU
100
AcDbCircle
 10
48.91721216833719
 20
19.92499986828868
 30
0.0
 40
0.525
100
AcDbArc
 50
90.0
 51
180.0
  0
LINE
  5
140D
330
1A
100
AcDbEntity
  8
ZUWAKU
100
AcDbLine
 10
48.3922121683372
 20
19.92499986828868
 30
0.0
 11
48.3922121683372
 21
18.63479784293334
 31
0.0
  0
ARC
  5
140E
330
1A
100
AcDbEntity
  8
ZUWAKU
100
AcDbCircle
 10
42.96721216833714
 20
22.72499986828868
 30
0.0
 40
0.525
100
AcDbArc
 50
0.0
 51
90.0
  0
LINE
  5
140F
330
1A
100
AcDbEntity
  8
ZUWAKU
100
AcDbLine
 10
45.59221216833714
 20
20.44999986828868
 30
0.0
 11
45.59221216833714
 21
18.63479784293334
 31
0.0
  0
ARC
  5
1410
330
1A
100
AcDbEntity
  8
ZUWAKU
100
AcDbCircle
 10
48.3922121683372
 20
20.44999986828868
 30
0.0
 40
2.799999999999999
100
AcDbArc
 50
90.0
 51
180.0
  0
ARC
  5
1411
330
1A
100
AcDbEntity
  8
ZUWAKU
100
AcDbCircle
 10
57.31721216833716
 20
22.72499986828868
 30
0.0
 40
0.525
100
AcDbArc
 50
0.0
 51
90.0
  0
ARC
  5
1412
330
1A
100
AcDbEntity
  8
ZUWAKU
100
AcDbCircle
 10
55.56721216833716
 20
22.72499986828868
 30
0.0
 40
0.525
100
AcDbArc
 50
90.0
 51
180.0
  0
LINE
  5
1413
330
1A
100
AcDbEntity
  8
ZUWAKU
100
AcDbLine
 10
57.31721216833716
 20
23.24999986828868
 30
0.0
 11
55.56721216833716
 21
23.24999986828868
 31
0.0
  0
ARC
  5
1414
330
1A
100
AcDbEntity
  8
ZUWAKU
100
AcDbCircle
 10
51.89221216833721
 20
22.72499986828868
 30
0.0
 40
0.525
100
AcDbArc
 50
0.0
 51
90.0
  0
ARC
  5
1415
330
1A
100
AcDbEntity
  8
ZUWAKU
100
AcDbCircle
 10
51.89221216833721
 20
20.97499986828868
 30
0.0
 40
0.525
100
AcDbArc
 50
270.0
 51
0.0
  0
LINE
  5
1416
330
1A
100
AcDbEntity
  8
ZUWAKU
100
AcDbLine
 10
52.41721216833719
 20
22.72499986828868
 30
0.0
 11
52.41721216833719
 21
20.97499986828868
 31
0.0
  0
LINE
  5
1417
330
1A
100
AcDbEntity
  8
ZUWAKU
100
AcDbLine
 10
68.51721216833721
 20
23.24999986828868
 30
0.0
 11
66.76721216833721
 21
23.24999986828868
 31
0.0
  0
ARC
  5
1418
330
1A
100
AcDbEntity
  8
ZUWAKU
100
AcDbCircle
 10
66.76721216833721
 20
22.72499986828868
 30
0.0
 40
0.525
100
AcDbArc
 50
90.0
 51
180.0
  0
ARC
  5
1419
330
1A
100
AcDbEntity
  8
ZUWAKU
100
AcDbCircle
 10
63.61721216833712
 20
22.72499986828868
 30
0.0
 40
0.525
100
AcDbArc
 50
0.0
 51
90.0
  0
LINE
  5
141A
330
1A
100
AcDbEntity
  8
ZUWAKU
100
AcDbLine
 10
63.61721216833712
 20
23.24999986828868
 30
0.0
 11
61.86721216833712
 21
23.24999986828868
 31
0.0
  0
ARC
  5
141B
330
1A
100
AcDbEntity
  8
ZUWAKU
100
AcDbCircle
 10
61.86721216833712
 20
22.72499986828868
 30
0.0
 40
0.525
100
AcDbArc
 50
90.0
 51
180.0
  0
ARC
  5
141C
330
1A
100
AcDbEntity
  8
ZUWAKU
100
AcDbCircle
 10
68.51721216833721
 20
22.72499986828868
 30
0.0
 40
0.525
100
AcDbArc
 50
0.0
 51
90.0
  0
TEXT
  5
141D
330
1A
100
AcDbEntity
  8
MOJI
100
AcDbText
 10
239.827202694407
 20
18.00492092569607
 30
0.0
 40
5.599999999999999
  1
じょうご
 41
0.9
  7
ｽﾀｲﾙ1
100
AcDbText
  0
TEXT
  5
141E
330
1A
100
AcDbEntity
  8
MOJI
100
AcDbText
 10
239.827202694407
 20
3.204920925696104
 30
0.0
 40
5.599999999999999
  1
Ｘ７０Ｕ－Ｙ６０・ＵＴ６０
 41
0.9
  7
ｽﾀｲﾙ1
100
AcDbText
  0
LINE
  5
141F
330
1A
100
AcDbEntity
  8
ZUWAKU
100
AcDbLine
 10
208.2466013036239
 20
29.99999986828868
 30
0.0
 11
208.2466013036239
 21
0.7999998682887508
 31
0.0
  0
LINE
  5
1420
330
1A
100
AcDbEntity
  8
ZUWAKU
100
AcDbLine
 10
208.6466013036238
 20
29.99999986828868
 30
0.0
 11
208.646601303624
 21
0.7999998682887508
 31
0.0
  0
LINE
  5
1421
330
1A
100
AcDbEntity
  8
ZUWAKU
100
AcDbLine
 10
208.4466013036237
 20
29.99999986828868
 30
0.0
 11
208.446601303624
 21
0.7999998682887508
 31
0.0
  0
TEXT
  5
1422
330
1A
100
AcDbEntity
  8
ZUWAKU
100
AcDbText
 10
209.7240463258335
 20
9.6553564066743
 30
0.0
 40
4.0
  1
サイズ
 41
0.9
  7
ｽﾀｲﾙ1
100
AcDbText
  0
TEXT
  5
1423
330
1A
100
AcDbEntity
  8
ZUWAKU
100
AcDbText
 10
209.7240463258333
 20
24.05535640667426
 30
0.0
 40
4.0
  1
品名
 41
0.9
  7
ｽﾀｲﾙ1
100
AcDbText
  0
LINE
  5
1424
330
1A
100
AcDbEntity
  8
ZUWAKU
100
AcDbLine
 10
648.8172025237602
 20
15.19999986828871
 30
0.0
 11
697.2490105620972
 21
15.19999986828871
 31
0.0
  0
LINE
  5
1425
330
1A
100
AcDbEntity
  8
ZUWAKU
100
AcDbLine
 10
648.8172025237604
 20
15.39999986828872
 30
0.0
 11
697.2490105620972
 21
15.39999986828871
 31
0.0
  0
LINE
  5
1426
330
1A
100
AcDbEntity
  8
ZUWAKU
100
AcDbLine
 10
648.8172025237602
 20
15.59999986828871
 30
0.0
 11
697.2490105620972
 21
15.59999986828871
 31
0.0
  0
TEXT
  5
1427
330
1A
100
AcDbEntity
  8
ZUWAKU
100
AcDbText
 10
658.2039377008584
 20
18.00492092569607
 30
0.0
 40
5.599999999999999
  1
　　．　　．　　
 41
0.9
  7
ｽﾀｲﾙ1
100
AcDbText
  0
LINE
  5
1428
330
1A
100
AcDbEntity
  8
ZUWAKU
100
AcDbLine
 10
505.1991795116968
 20
15.19999986828872
 30
0.0
 11
552.5269557796685
 21
15.19999986828872
 31
0.0
  0
LINE
  5
1429
330
1A
100
AcDbEntity
  8
ZUWAKU
100
AcDbLine
 10
505.1991795116968
 20
15.39999986828871
 30
0.0
 11
552.5269557796685
 21
15.39999986828871
 31
0.0
  0
LINE
  5
142A
330
1A
100
AcDbEntity
  8
ZUWAKU
100
AcDbLine
 10
505.1991795116968
 20
15.59999986828871
 30
0.0
 11
552.5269557796685
 21
15.59999986828871
 31
0.0
  0
TEXT
  5
142B
330
1A
100
AcDbEntity
  8
MOJI
100
AcDbText
 10
463.246432004558
 20
11.94261758994866
 30
0.0
 40
5.599999999999999
  1
ＧＪ０３□
 41
0.9
  7
ｽﾀｲﾙ1
100
AcDbText
  0
LINE
  5
142C
330
1A
100
AcDbEntity
  8
ZUWAKU
100
AcDbLine
 10
447.6243639845472
 20
29.99999986828868
 30
0.0
 11
447.6243639845474
 21
0.7999998682887508
 31
0.0
  0
LINE
  5
142D
330
1A
100
AcDbEntity
  8
ZUWAKU
100
AcDbLine
 10
447.8243639845472
 20
29.99999986828868
 30
0.0
 11
447.8243639845475
 21
0.7999998682887508
 31
0.0
  0
LINE
  5
142E
330
1A
100
AcDbEntity
  8
ZUWAKU
100
AcDbLine
 10
447.4243639845474
 20
29.99999986828868
 30
0.0
 11
447.4243639845474
 21
0.7999998682887508
 31
0.0
  0
TEXT
  5
142F
330
1A
100
AcDbEntity
  8
MOJI
100
AcDbText
 10
528.0409079858689
 20
18.00492092569607
 30
0.0
 40
5.599999999999999
  1
Ａ３
 41
0.9
  7
ｽﾀｲﾙ1
100
AcDbText
  0
LINE
  5
1430
330
1A
100
AcDbEntity
  8
ZUWAKU
100
AcDbLine
 10
504.9991795116969
 20
29.99999986828868
 30
0.0
 11
504.999179511697
 21
0.7999998682887508
 31
0.0
  0
LINE
  5
1431
330
1A
100
AcDbEntity
  8
ZUWAKU
100
AcDbLine
 10
505.1991795116968
 20
29.99999986828868
 30
0.0
 11
505.1991795116971
 21
0.7999998682887508
 31
0.0
  0
LINE
  5
1432
330
1A
100
AcDbEntity
  8
ZUWAKU
100
AcDbLine
 10
504.799179511697
 20
29.99999986828868
 30
0.0
 11
504.799179511697
 21
0.7999998682887508
 31
0.0
  0
TEXT
  5
1433
330
1A
100
AcDbEntity
  8
ZUWAKU
100
AcDbText
 10
461.6981352414684
 20
2.908329108177895
 30
0.0
 40
3.0
  1
□には色品番が入ります
 41
0.9
  7
ｽﾀｲﾙ1
100
AcDbText
  0
TEXT
  5
1434
330
1A
100
AcDbEntity
  8
ZUWAKU
100
AcDbText
 10
506.6766245339067
 20
9.6553564066743
 30
0.0
 40
4.0
  1
縮尺
 41
0.9
  7
ｽﾀｲﾙ1
100
AcDbText
  0
TEXT
  5
1435
330
1A
100
AcDbEntity
  8
MOJI
100
AcDbText
 10
528.0409079858689
 20
3.204920925696104
 30
0.0
 40
5.599999999999999
  1
１/２
 41
0.9
  7
ｽﾀｲﾙ1
100
AcDbText
  0
TEXT
  5
1436
330
1A
100
AcDbEntity
  8
ZUWAKU
100
AcDbText
 10
449.3018090067569
 20
24.05535640667426
 30
0.0
 40
4.0
  1
品番
 41
0.9
  7
ｽﾀｲﾙ1
100
AcDbText
  0
TEXT
  5
1437
330
1A
100
AcDbEntity
  8
ZUWAKU
100
AcDbText
 10
506.6766245339065
 20
24.05535640667426
 30
0.0
 40
4.0
  1
用紙
 41
0.9
  7
ｽﾀｲﾙ1
100
AcDbText
  0
LINE
  5
1438
330
1A
100
AcDbEntity
  8
ZUWAKU
100
AcDbLine
 10
648.6172025237603
 20
29.99999986828868
 30
0.0
 11
648.6172025237606
 21
0.7999998682887508
 31
0.0
  0
LINE
  5
1439
330
1A
100
AcDbEntity
  8
ZUWAKU
100
AcDbLine
 10
648.8172025237604
 20
29.99999986828868
 30
0.0
 11
648.8172025237607
 21
0.7999998682887508
 31
0.0
  0
LINE
  5
143A
330
1A
100
AcDbEntity
  8
ZUWAKU
100
AcDbLine
 10
648.4172025237605
 20
29.99999986828868
 30
0.0
 11
648.4172025237605
 21
0.7999998682887508
 31
0.0
  0
LINE
  5
143B
330
1A
100
AcDbEntity
  8
ZUWAKU
100
AcDbLine
 10
552.7269557796683
 20
29.99999986828868
 30
0.0
 11
552.7269557796684
 21
0.7999998682887508
 31
0.0
  0
LINE
  5
143C
330
1A
100
AcDbEntity
  8
ZUWAKU
100
AcDbLine
 10
552.9269557796683
 20
29.99999986828868
 30
0.0
 11
552.9269557796685
 21
0.7999998682887508
 31
0.0
  0
LINE
  5
143D
330
1A
100
AcDbEntity
  8
ZUWAKU
100
AcDbLine
 10
552.5269557796685
 20
29.99999986828868
 30
0.0
 11
552.5269557796685
 21
0.7999998682887508
 31
0.0
  0
TEXT
  5
143E
330
1A
100
AcDbEntity
  8
ZUWAKU
100
AcDbText
 10
650.29464754597
 20
24.05535640667426
 30
0.0
 40
4.0
  1
DATE
 41
0.9
  7
ｽﾀｲﾙ1
100
AcDbText
  0
LINE
  5
143F
330
1A
100
AcDbEntity
  8
ZUWAKU
100
AcDbLine
 10
697.2490105620972
 20
29.99999986828868
 30
0.0
 11
697.2490105620972
 21
0.7999998682887508
 31
0.0
  0
LINE
  5
1440
330
1A
100
AcDbEntity
  8
ZUWAKU
100
AcDbLine
 10
697.4490105620973
 20
29.99999986828868
 30
0.0
 11
697.4490105620973
 21
0.7999998682887508
 31
0.0
  0
LINE
  5
1441
330
1A
100
AcDbEntity
  8
ZUWAKU
100
AcDbLine
 10
697.6490105620971
 20
29.99999986828868
 30
0.0
 11
697.6490105620974
 21
0.7999998682887508
 31
0.0
  0
LINE
  5
1442
330
1A
100
AcDbEntity
  8
ZUWAKU
100
AcDbLine
 10
697.8490105620972
 20
29.99999986828868
 30
0.0
 11
697.8490105620974
 21
0.7999998682887508
 31
0.0
  0
TEXT
  5
1443
330
1A
100
AcDbEntity
  8
ZUWAKU
100
AcDbText
 10
708.5280842057998
 20
17.55383920397548
 30
0.0
 40
6.0
  1
積水化学工業株式会社
 41
0.9
  7
ｽﾀｲﾙ1
100
AcDbText
  0
TEXT
  5
1444
330
1A
100
AcDbEntity
  8
ZUWAKU
100
AcDbText
 10
708.5280842057998
 20
6.648840182142748
 30
0.0
 40
6.0
  1
建材事業部
 41
0.9
  7
ｽﾀｲﾙ1
100
AcDbText
  0
TEXT
  5
19F7
330
1A
100
AcDbEntity
  8
SUNPOU
  6
CONTINUOUS
 62
     4
100
AcDbText
 10
662.0678926987356
 20
40.35075795860296
 30
0.0
 40
6.0
  1
※b エルボの差込み寸法を示す
100
AcDbText
  0
TEXT
  5
19F8
330
1A
100
AcDbEntity
  8
SUNPOU
  6
CONTINUOUS
 62
     4
100
AcDbText
 10
662.0678926987356
 20
49.67114064507768
 30
0.0
 40
6.0
  1
※a のきといの縁切り間隔寸法を示す
100
AcDbText
  0
DIMENSION
  5
276F
330
1A
100
AcDbEntity
  8
SUNPOU
 62
     4
100
AcDbDimension
  2
*D1
 10
370.2677932154908
 20
193.7558273639789
 30
0.0
 11
365.2677932154908
 21
279.505877363979
 31
0.0
 70
    32
  3
STANDARD
100
AcDbAlignedDimension
 13
430.6814781385633
 23
365.2559273639789
 33
0.0
 14
490.981578138563
 24
193.7558273639789
 34
0.0
 50
90.0
100
AcDbRotatedDimension
1001
ACAD
1000
DSTYLE
1002
{
1070
   140
1040
6.0
1070
    74
1070
     0
1070
   172
1070
     1
1070
    73
1070
     0
1070
   272
1070
     2
1070
    77
1070
     3
1070
   173
1070
     1
1070
   147
1040
2.0
1070
    42
1040
6.0
1070
    44
1040
3.0
1070
    43
1040
14.0
1070
   271
1070
     0
1070
   178
1070
     4
1070
   177
1070
     4
1070
   176
1070
     4
1070
   141
1040
150.0
1070
     7
1000
_OPEN
1070
     6
1000
_OPEN
1070
    41
1040
7.0
1002
}
  0
DIMENSION
  5
2770
330
1A
100
AcDbEntity
  8
SUNPOU
 62
     4
100
AcDbDimension
  2
*D2
 10
390.3178461686809
 20
225.2558273639788
 30
0.0
 11
385.3178461686809
 21
295.2558773639789
 31
0.0
 70
    32
  3
STANDARD
100
AcDbAlignedDimension
 13
430.6814781385633
 23
365.2559273639789
 33
0.0
 14
471.6814781385633
 24
225.2558273639788
 34
0.0
 50
90.0
100
AcDbRotatedDimension
1001
ACAD
1000
DSTYLE
1002
{
1070
   140
1040
6.0
1070
    74
1070
     0
1070
   172
1070
     1
1070
    73
1070
     0
1070
   272
1070
     2
1070
    77
1070
     3
1070
   173
1070
     1
1070
   147
1040
2.0
1070
    42
1040
6.0
1070
    44
1040
3.0
1070
    43
1040
14.0
1070
   271
1070
     0
1070
   178
1070
     4
1070
   177
1070
     4
1070
   176
1070
     4
1070
   141
1040
150.0
1070
     7
1000
_OPEN
1070
     6
1000
_OPEN
1070
    41
1040
7.0
1002
}
  0
LINE
  5
2771
330
1A
100
AcDbEntity
  8
SEIHIN
  6
CONTINUOUS
 62
     3
 48
16.0
100
AcDbLine
 10
187.6812781385633
 20
313.2563273639789
 30
0.0
 11
191.6778781385633
 21
242.9122273639788
 31
0.0
  0
LINE
  5
2772
330
1A
100
AcDbEntity
  8
SEIHIN
  6
CONTINUOUS
 62
     3
 48
16.0
100
AcDbLine
 10
168.9275781385633
 20
326.0353273639789
 30
0.0
 11
179.3807781385633
 21
245.8918273639789
 31
0.0
  0
LINE
  5
2773
330
1A
100
AcDbEntity
  8
SEIHIN
  6
CONTINUOUS
 62
     3
 48
16.0
100
AcDbLine
 10
157.6813781385632
 20
343.2564273639789
 30
0.0
 11
170.3808781385632
 21
245.8917273639788
 31
0.0
  0
LINE
  5
2774
330
1A
100
AcDbEntity
  8
SEIHIN
  6
CONTINUOUS
 62
     3
 48
16.0
100
AcDbLine
 10
195.9888781385633
 20
307.8414273639789
 30
0.0
 11
200.6809781385633
 21
225.2562273639789
 31
0.0
  0
LINE
  5
2775
330
1A
100
AcDbEntity
  8
SEIHIN
  6
CONTINUOUS
 62
     3
 48
16.0
100
AcDbLine
 10
193.9195781385632
 20
309.0623273639788
 30
0.0
 11
198.6809781385632
 21
225.2562273639789
 31
0.0
  0
LINE
  5
2776
330
1A
100
AcDbEntity
  8
SEIHIN
  6
CONTINUOUS
 62
     3
 48
16.0
100
AcDbLine
 10
265.3738781385633
 20
307.8413273639788
 30
0.0
 11
260.6814781385632
 21
225.2561273639788
 31
0.0
  0
LINE
  5
2777
330
1A
100
AcDbEntity
  8
SEIHIN
  6
CONTINUOUS
 62
     3
 48
16.0
100
AcDbLine
 10
267.4431781385633
 20
309.0622273639789
 30
0.0
 11
262.6814781385632
 21
225.2561273639788
 31
0.0
  0
LINE
  5
2778
330
1A
100
AcDbEntity
  8
SEIHIN
  6
CONTINUOUS
 62
     3
 48
16.0
100
AcDbLine
 10
273.6814781385633
 20
313.2562273639789
 30
0.0
 11
269.6846781385633
 21
242.9121273639788
 31
0.0
  0
LINE
  5
2779
330
1A
100
AcDbEntity
  8
SEIHIN
  6
CONTINUOUS
 62
     3
 48
16.0
100
AcDbLine
 10
292.4352781385632
 20
326.0351273639788
 30
0.0
 11
281.9817781385632
 21
245.8916273639788
 31
0.0
  0
LINE
  5
277A
330
1A
100
AcDbEntity
  8
SEIHIN
  6
CONTINUOUS
 62
     3
 48
16.0
100
AcDbLine
 10
303.6814781385632
 20
343.2562273639789
 30
0.0
 11
290.9817781385633
 21
245.8916273639788
 31
0.0
  0
LINE
  5
277B
330
1A
100
AcDbEntity
  8
SUNPOU
  6
CENTER
 62
     1
 48
5.0
100
AcDbLine
 10
230.6814781385633
 20
374.5281273639788
 30
0.0
 11
230.6811781385633
 21
180.0910273639788
 31
0.0
  0
DIMENSION
  5
277C
330
1A
100
AcDbEntity
  8
SUNPOU
  6
CONTINUOUS
100
AcDbDimension
  2
*D3
 10
181.6809781385633
 20
149.9423212303197
 30
0.0
 11
230.6812281385633
 21
154.9423212303197
 31
0.0
 70
    32
  3
STANDARD
100
AcDbAlignedDimension
 13
279.6814781385633
 23
225.2561273639788
 33
0.0
 14
181.6809781385633
 24
225.2562273639789
 34
0.0
100
AcDbRotatedDimension
1001
ACAD
1000
DSTYLE
1002
{
1070
   140
1040
6.0
1070
    74
1070
     0
1070
   172
1070
     1
1070
    73
1070
     0
1070
   272
1070
     2
1070
    77
1070
     3
1070
   173
1070
     1
1070
   147
1040
2.0
1070
    42
1040
6.0
1070
    44
1040
3.0
1070
    43
1040
14.0
1070
   271
1070
     0
1070
   178
1070
     4
1070
   177
1070
     4
1070
   176
1070
     4
1070
   141
1040
150.0
1070
     7
1000
_OPEN
1070
     6
1000
_OPEN
1070
    41
1040
7.0
1002
}
  0
ARC
  5
277D
330
1A
100
AcDbEntity
  8
SEIHIN
  6
CONTINUOUS
 62
     3
 48
16.0
100
AcDbCircle
 10
239.8498055077563
 20
246.0549094428302
 30
0.0
 40
29.9999750290073
100
AcDbArc
 50
323.608944273567
 51
359.5088119851531
  0
ARC
  5
277E
330
1A
100
AcDbEntity
  8
SEIHIN
  6
CONTINUOUS
 62
     3
 48
16.0
100
AcDbCircle
 10
294.7403530623987
 20
197.1202699377525
 30
0.0
 40
30.00001418255131
100
AcDbArc
 50
139.7822001300049
 51
173.0389145866596
  0
LINE
  5
277F
330
1A
100
AcDbEntity
  8
SEIHIN
  6
CONTINUOUS
 62
     3
 48
16.0
100
AcDbLine
 10
230.6814781385633
 20
225.2561273639788
 30
0.0
 11
279.6814781385633
 21
225.2561273639788
 31
0.0
  0
LINE
  5
2780
330
1A
100
AcDbEntity
  8
SEIHIN
  6
CONTINUOUS
 62
     3
 48
16.0
100
AcDbLine
 10
260.6800781385633
 20
200.7561273639788
 30
0.0
 11
260.6800781385633
 21
193.7561273639789
 31
0.0
  0
LINE
  5
2781
330
1A
100
AcDbEntity
  8
SEIHIN
  6
CONTINUOUS
 62
     3
 48
16.0
100
AcDbLine
 10
260.6800781385633
 20
193.7561273639789
 30
0.0
 11
260.6800781385633
 21
200.7561273639788
 31
0.0
  0
LINE
  5
2782
330
1A
100
AcDbEntity
  8
SEIHIN
  6
CONTINUOUS
 62
     3
 48
16.0
100
AcDbLine
 10
200.6823781385632
 20
200.7562273639788
 30
0.0
 11
200.6822781385632
 21
193.7562273639788
 31
0.0
  0
LINE
  5
2783
330
1A
100
AcDbEntity
  8
SEIHIN
  6
CONTINUOUS
 62
     3
 48
16.0
100
AcDbLine
 10
200.6822781385632
 20
193.7562273639788
 30
0.0
 11
200.6823781385632
 21
200.7562273639788
 31
0.0
  0
LINE
  5
2784
330
1A
100
AcDbEntity
  8
SEIHIN
  6
CONTINUOUS
 62
     3
 48
16.0
100
AcDbLine
 10
230.4022781385632
 20
193.7561273639789
 30
0.0
 11
200.6822781385632
 21
193.7562273639788
 31
0.0
  0
LINE
  5
2785
330
1A
100
AcDbEntity
  8
SEIHIN
  6
CONTINUOUS
 62
     3
 48
16.0
100
AcDbLine
 10
230.9600781385633
 20
193.7561273639789
 30
0.0
 11
260.6800781385633
 21
193.7561273639789
 31
0.0
  0
LINE
  5
2786
330
1A
100
AcDbEntity
  8
SEIHIN
  6
CONTINUOUS
 62
     3
 48
16.0
100
AcDbLine
 10
230.6809781385633
 20
225.2561273639788
 30
0.0
 11
181.6809781385633
 21
225.2562273639789
 31
0.0
  0
LINE
  5
2787
330
1A
100
AcDbEntity
  8
SEIHIN
  6
CONTINUOUS
 62
     3
 48
16.0
100
AcDbLine
 10
230.6814781385633
 20
200.7562273639788
 30
0.0
 11
196.4023781385633
 21
200.7562273639788
 31
0.0
  0
ARC
  5
2788
330
1A
100
AcDbEntity
  8
SEIHIN
  6
CONTINUOUS
 62
     3
 48
16.0
100
AcDbCircle
 10
175.5701032147277
 20
196.9370699377522
 30
0.0
 40
30.00001418255146
100
AcDbArc
 50
6.961085413340344
 51
40.21779986999503
  0
ARC
  5
2789
330
1A
100
AcDbEntity
  8
SEIHIN
  6
CONTINUOUS
 62
     3
 48
16.0
100
AcDbCircle
 10
199.8210612946514
 20
251.659757664909
 30
0.0
 40
29.99996897816677
100
AcDbArc
 50
191.084775260098
 51
227.053631820927
  0
ARC
  5
278A
330
1A
100
AcDbEntity
  8
SEIHIN
  6
CONTINUOUS
 62
     3
 48
16.0
100
AcDbCircle
 10
208.8210612946515
 20
251.659657664909
 30
0.0
 40
29.99996897816691
100
AcDbArc
 50
191.084775260098
 51
227.053631820927
  0
ARC
  5
278B
330
1A
100
AcDbEntity
  8
SEIHIN
  6
CONTINUOUS
 62
     3
 48
16.0
100
AcDbCircle
 10
221.5127620739102
 20
246.0548755417181
 30
0.0
 40
29.99998518553127
100
AcDbArc
 50
180.4909321067443
 51
216.3907237453409
  0
ARC
  5
278C
330
1A
100
AcDbEntity
  8
SEIHIN
  6
CONTINUOUS
 62
     3
 48
16.0
100
AcDbCircle
 10
205.3503702213342
 20
222.1191489881442
 30
0.0
 40
8.999992082796952
100
AcDbArc
 50
180.0001376638336
 51
220.218402278452
  0
ARC
  5
278D
330
1A
100
AcDbEntity
  8
SEIHIN
  6
CONTINUOUS
 62
     3
 48
16.0
100
AcDbCircle
 10
196.4023379364392
 20
222.3025371686561
 30
0.0
 40
8.9999597985458
100
AcDbArc
 50
180.0006990414087
 51
220.2184775350452
  0
ARC
  5
278E
330
1A
100
AcDbEntity
  8
SEIHIN
  6
CONTINUOUS
 62
     3
 48
16.0
100
AcDbCircle
 10
166.6221032147277
 20
197.1204699377524
 30
0.0
 40
30.00001418255145
100
AcDbArc
 50
6.961085413340344
 51
40.21779986999503
  0
LINE
  5
278F
330
1A
100
AcDbEntity
  8
SEIHIN
  6
CONTINUOUS
 62
     3
 48
16.0
100
AcDbLine
 10
196.4023781385633
 20
200.7562273639788
 30
0.0
 11
200.6823781385632
 21
200.7562273639788
 31
0.0
  0
ARC
  5
2790
330
1A
100
AcDbEntity
  8
SEIHIN
  6
CONTINUOUS
 62
     3
 48
16.0
100
AcDbCircle
 10
172.8530758330141
 20
223.5049318193628
 30
0.0
 40
8.999958081570321
100
AcDbArc
 50
11.22138168557443
 51
43.49941389354617
  0
LINE
  5
2791
330
1A
100
AcDbEntity
  8
SEIHIN
  6
CONTINUOUS
 62
     3
 48
16.0
100
AcDbLine
 10
187.4023781385632
 20
225.2562273639789
 30
0.0
 11
187.4023781385632
 21
221.7634273639789
 31
0.0
  0
ARC
  5
2792
330
1A
100
AcDbEntity
  8
SEIHIN
  6
CONTINUOUS
 62
     3
 48
16.0
100
AcDbCircle
 10
181.8530597465879
 20
223.5049629062293
 30
0.0
 40
8.999948351871472
100
AcDbArc
 50
11.22054318089114
 51
43.4991998424117
  0
LINE
  5
2793
330
1A
100
AcDbEntity
  8
SEIHIN
  6
CONTINUOUS
 62
     3
 48
16.0
100
AcDbLine
 10
196.3503781385632
 20
225.2561273639788
 30
0.0
 11
196.3503781385632
 21
221.4295273639789
 31
0.0
  0
ARC
  5
2794
330
1A
100
AcDbEntity
  8
SEIHIN
  6
CONTINUOUS
 62
     3
 48
16.0
100
AcDbCircle
 10
189.8861228091392
 20
223.3453360385884
 30
0.0
 40
9.000054773330596
100
AcDbArc
 50
12.25834293726004
 51
41.70410728417824
  0
LINE
  5
2795
330
1A
100
AcDbEntity
  8
SEIHIN
  6
CONTINUOUS
 62
     3
 48
16.0
100
AcDbLine
 10
230.6814781385633
 20
200.7561273639788
 30
0.0
 11
264.9600781385632
 21
200.7561273639788
 31
0.0
  0
ARC
  5
2796
330
1A
100
AcDbEntity
  8
SEIHIN
  6
CONTINUOUS
 62
     3
 48
16.0
100
AcDbCircle
 10
256.0121183406872
 20
222.1191371686562
 30
0.0
 40
8.999959798545965
100
AcDbArc
 50
319.7815224649537
 51
359.9993009585912
  0
ARC
  5
2797
330
1A
100
AcDbEntity
  8
SEIHIN
  6
CONTINUOUS
 62
     3
 48
16.0
100
AcDbCircle
 10
285.7923530623986
 20
196.9369699377525
 30
0.0
 40
30.00001418255116
100
AcDbArc
 50
139.7822001300049
 51
173.0389145866596
  0
LINE
  5
2798
330
1A
100
AcDbEntity
  8
SEIHIN
  6
CONTINUOUS
 62
     3
 48
16.0
100
AcDbLine
 10
264.9600781385632
 20
200.7561273639788
 30
0.0
 11
260.6800781385633
 21
200.7561273639788
 31
0.0
  0
LINE
  5
2799
330
1A
100
AcDbEntity
  8
SEIHIN
  6
CONTINUOUS
 62
     3
 48
16.0
100
AcDbLine
 10
265.0120781385633
 20
225.2561273639788
 30
0.0
 11
265.0120781385633
 21
221.6408273639788
 31
0.0
  0
ARC
  5
279A
330
1A
100
AcDbEntity
  8
SEIHIN
  6
CONTINUOUS
 62
     3
 48
16.0
100
AcDbCircle
 10
271.4762668266436
 20
223.3451051460136
 30
0.0
 40
9.000017443624326
100
AcDbArc
 50
138.2945648126223
 51
167.7407526981153
  0
ARC
  5
279B
330
1A
100
AcDbEntity
  8
SEIHIN
  6
CONTINUOUS
 62
     3
 48
16.0
100
AcDbCircle
 10
252.5414949824752
 20
251.659557664909
 30
0.0
 40
29.99996897816674
100
AcDbArc
 50
312.9463681790729
 51
348.9152247399019
  0
ARC
  5
279C
330
1A
100
AcDbEntity
  8
SEIHIN
  6
CONTINUOUS
 62
     3
 48
16.0
100
AcDbCircle
 10
261.5414949824752
 20
251.6595576649091
 30
0.0
 40
29.99996897816683
100
AcDbArc
 50
312.9463681790729
 51
348.9152247399019
  0
ARC
  5
279D
330
1A
100
AcDbEntity
  8
SEIHIN
  6
CONTINUOUS
 62
     3
 48
16.0
100
AcDbCircle
 10
264.9600801607858
 20
222.3023328873681
 30
0.0
 40
8.999997977779162
100
AcDbArc
 50
319.7825974055373
 51
359.9999648370039
  0
LINE
  5
279E
330
1A
100
AcDbEntity
  8
SEIHIN
  6
CONTINUOUS
 62
     3
 48
16.0
100
AcDbLine
 10
273.9600781385633
 20
225.2561273639788
 30
0.0
 11
273.9600781385633
 21
221.6937273639789
 31
0.0
  0
ARC
  5
279F
330
1A
100
AcDbEntity
  8
SEIHIN
  6
CONTINUOUS
 62
     3
 48
16.0
100
AcDbCircle
 10
279.5094754092084
 20
223.5048220894733
 30
0.0
 40
9.000033665216365
100
AcDbArc
 50
136.5009573248823
 51
168.7792996518176
  0
ARC
  5
27A0
330
1A
100
AcDbEntity
  8
SEIHIN
  6
CONTINUOUS
 62
     3
 48
16.0
100
AcDbCircle
 10
288.5094754092084
 20
223.5048220894733
 30
0.0
 40
9.000033665216365
100
AcDbArc
 50
136.5009573248823
 51
168.7792996518176
  0
DIMENSION
  5
27A1
330
1A
100
AcDbEntity
  8
SUNPOU
  6
CONTINUOUS
100
AcDbDimension
  2
*D4
 10
145.6814781385632
 20
419.1057921183421
 30
0.0
 11
230.6814781385633
 21
424.1057921183421
 31
0.0
 70
    32
  3
STANDARD
100
AcDbAlignedDimension
 13
315.6814781385633
 23
365.2562273639789
 33
0.0
 14
145.6814781385632
 24
360.2564273639789
 34
0.0
100
AcDbRotatedDimension
1001
ACAD
1000
DSTYLE
1002
{
1070
   140
1040
6.0
1070
    74
1070
     0
1070
   172
1070
     1
1070
    73
1070
     0
1070
   272
1070
     2
1070
    77
1070
     3
1070
   173
1070
     1
1070
   147
1040
2.0
1070
    42
1040
6.0
1070
    44
1040
3.0
1070
    43
1040
14.0
1070
   271
1070
     0
1070
   178
1070
     4
1070
   177
1070
     4
1070
   176
1070
     4
1070
   141
1040
150.0
1070
     7
1000
_OPEN
1070
     6
1000
_OPEN
1070
    41
1040
7.0
1002
}
  0
LINE
  5
27A2
330
1A
100
AcDbEntity
  8
SEIHIN
  6
CONTINUOUS
 62
     3
 48
16.0
100
AcDbLine
 10
273.6814781385633
 20
313.2562273639789
 30
0.0
 11
267.4431781385633
 21
309.0622273639789
 31
0.0
  0
ARC
  5
27A3
330
1A
100
AcDbEntity
  8
SEIHIN
  6
CONTINUOUS
 62
     3
 48
16.0
100
AcDbCircle
 10
278.1710931037434
 20
332.7457123987259
 30
0.0
 40
19.99991673620655
100
AcDbArc
 50
192.9720191564181
 51
257.0275988704448
  0
LINE
  5
27A4
330
1A
100
AcDbEntity
  8
SEIHIN
  6
CONTINUOUS
 62
     3
 48
16.0
100
AcDbLine
 10
230.6814781385633
 20
343.2562273639789
 30
0.0
 11
303.6814781385632
 21
343.2562273639789
 31
0.0
  0
LINE
  5
27A5
330
1A
100
AcDbEntity
  8
SEIHIN
  6
CONTINUOUS
 62
     3
 48
16.0
100
AcDbLine
 10
230.6814781385633
 20
345.2562273639789
 30
0.0
 11
313.1814781385633
 21
345.2562273639789
 31
0.0
  0
LINE
  5
27A6
330
1A
100
AcDbEntity
  8
SEIHIN
  6
CONTINUOUS
 62
     3
 48
16.0
100
AcDbLine
 10
230.6814781385633
 20
360.2562273639789
 30
0.0
 11
315.6814781385633
 21
360.2562273639789
 31
0.0
  0
LINE
  5
27A7
330
1A
100
AcDbEntity
  8
SEIHIN
  6
CONTINUOUS
 62
     3
 48
16.0
100
AcDbLine
 10
230.6814781385633
 20
365.2562273639789
 30
0.0
 11
315.6814781385633
 21
365.2562273639789
 31
0.0
  0
DIMENSION
  5
27A8
330
1A
100
AcDbEntity
  8
SUNPOU
  6
CONTINUOUS
100
AcDbDimension
  2
*D5
 10
200.6814638329129
 20
398.0014040138917
 30
0.0
 11
230.6814638328772
 21
403.0014040138917
 31
0.0
 70
    32
  1
※a<>
  3
STANDARD
100
AcDbAlignedDimension
 13
260.6814638328415
 23
365.2562273639789
 33
0.0
 14
200.6814638329129
 24
365.2563199389041
 34
0.0
100
AcDbRotatedDimension
1001
ACAD
1000
DSTYLE
1002
{
1070
   140
1040
6.0
1070
    74
1070
     0
1070
   172
1070
     1
1070
    73
1070
     0
1070
   272
1070
     2
1070
    77
1070
     3
1070
   173
1070
     1
1070
   147
1040
2.0
1070
    42
1040
6.0
1070
    44
1040
3.0
1070
    43
1040
14.0
1070
   271
1070
     0
1070
   178
1070
     4
1070
   177
1070
     4
1070
   176
1070
     4
1070
   141
1040
150.0
1070
     7
1000
_OPEN
1070
     6
1000
_OPEN
1070
    41
1040
7.0
1002
}
  0
ARC
  5
27A9
330
1A
100
AcDbEntity
  8
SEIHIN
  6
CONTINUOUS
 62
     3
 48
16.0
100
AcDbCircle
 10
183.1916722752992
 20
332.7459213049117
 30
0.0
 40
26.0000112724985
100
AcDbArc
 50
294.3689964131965
 51
337.5128311255804
  0
LINE
  5
27AA
330
1A
100
AcDbEntity
  8
SEIHIN
  6
CONTINUOUS
 62
     3
 48
16.0
100
AcDbLine
 10
230.6814781385633
 20
360.2562273639789
 30
0.0
 11
145.6814781385632
 21
360.2564273639789
 31
0.0
  0
LINE
  5
27AB
330
1A
100
AcDbEntity
  8
SEIHIN
  6
CONTINUOUS
 62
     3
 48
16.0
100
AcDbLine
 10
230.6814781385633
 20
365.2562273639789
 30
0.0
 11
145.6814781385632
 21
365.2564273639789
 31
0.0
  0
LINE
  5
27AC
330
1A
100
AcDbEntity
  8
SEIHIN
  6
CONTINUOUS
 62
     3
 48
16.0
100
AcDbLine
 10
230.6813781385632
 20
345.2562273639789
 30
0.0
 11
148.1813781385632
 21
345.2564273639789
 31
0.0
  0
LINE
  5
27AD
330
1A
100
AcDbEntity
  8
SEIHIN
  6
CONTINUOUS
 62
     3
 48
16.0
100
AcDbLine
 10
230.6813781385632
 20
343.2562273639789
 30
0.0
 11
157.6813781385632
 21
343.2564273639789
 31
0.0
  0
ARC
  5
27AE
330
1A
100
AcDbEntity
  8
SEIHIN
  6
CONTINUOUS
 62
     3
 48
16.0
100
AcDbCircle
 10
183.1916781385633
 20
332.7459273639789
 30
0.0
 40
20.00002540798389
100
AcDbArc
 50
282.9722854184772
 51
347.0277145815226
  0
ARC
  5
27AF
330
1A
100
AcDbEntity
  8
SEIHIN
  6
CONTINUOUS
 62
     3
 48
16.0
100
AcDbCircle
 10
183.1917114232473
 20
332.7459620013502
 30
0.0
 40
27.99997036688957
100
AcDbArc
 50
297.1964070618186
 51
335.0852351679098
  0
ARC
  5
27B0
330
1A
100
AcDbEntity
  8
SEIHIN
  6
CONTINUOUS
 62
     3
 48
16.0
100
AcDbCircle
 10
139.70812983343
 20
319.2365013322974
 30
0.0
 40
29.99992850926434
100
AcDbArc
 50
13.09882937253769
 51
53.19407702951467
  0
LINE
  5
27B1
330
1A
100
AcDbEntity
  8
SEIHIN
  6
CONTINUOUS
 62
     3
 48
16.0
100
AcDbLine
 10
187.6812781385633
 20
313.2563273639789
 30
0.0
 11
193.9195781385632
 21
309.0623273639788
 31
0.0
  0
LINE
  5
27B2
330
1A
100
AcDbEntity
  8
SEIHIN
  6
CONTINUOUS
 62
     3
 48
16.0
100
AcDbLine
 10
147.1814781385632
 20
360.2564273639789
 30
0.0
 11
148.1813781385632
 21
345.2564273639789
 31
0.0
  0
LINE
  5
27B3
330
1A
100
AcDbEntity
  8
SEIHIN
  6
CONTINUOUS
 62
     3
 48
16.0
100
AcDbLine
 10
148.1813781385632
 20
345.2564273639789
 30
0.0
 11
157.6813781385632
 21
343.2564273639789
 31
0.0
  0
LINE
  5
27B4
330
1A
100
AcDbEntity
  8
SEIHIN
  6
CONTINUOUS
 62
     3
 48
16.0
100
AcDbLine
 10
145.6814781385632
 20
365.2564273639789
 30
0.0
 11
145.6814781385632
 21
360.2564273639789
 31
0.0
  0
ARC
  5
27B5
330
1A
100
AcDbEntity
  8
SEIHIN
  6
CONTINUOUS
 62
     3
 48
16.0
100
AcDbCircle
 10
230.6807937853974
 20
130.2259380076151
 30
0.0
 40
191.9999893579659
100
AcDbArc
 50
83.3915126408786
 51
89.99976593682994
  0
ARC
  5
27B6
330
1A
100
AcDbEntity
  8
SEIHIN
  6
CONTINUOUS
 62
     3
 48
16.0
100
AcDbCircle
 10
230.6807545407682
 20
130.2259409378542
 30
0.0
 40
193.9999864278729
100
AcDbArc
 50
83.05216698330829
 51
89.99975675937717
  0
ARC
  5
27B7
330
1A
100
AcDbEntity
  8
SEIHIN
  6
CONTINUOUS
 62
     3
 48
16.0
100
AcDbCircle
 10
230.680965916416
 20
130.2259282238027
 30
0.0
 40
199.9999991411131
100
AcDbArc
 50
81.9519476517884
 51
89.99982461127279
  0
ARC
  5
27B8
330
1A
100
AcDbEntity
  8
SEIHIN
  6
CONTINUOUS
 62
     3
 48
16.0
100
AcDbCircle
 10
230.6808011768997
 20
130.2259056006838
 30
0.0
 40
192.0000217633105
100
AcDbArc
 50
89.99997703344853
 51
96.60822748997237
  0
ARC
  5
27B9
330
1A
100
AcDbEntity
  8
SEIHIN
  6
CONTINUOUS
 62
     3
 48
16.0
100
AcDbCircle
 10
230.6817006348561
 20
130.2259590821762
 30
0.0
 40
193.9999682835462
100
AcDbArc
 50
90.00024291532973
 51
96.94783334198616
  0
ARC
  5
27BA
330
1A
100
AcDbEntity
  8
SEIHIN
  6
CONTINUOUS
 62
     3
 48
16.0
100
AcDbCircle
 10
230.680884625187
 20
130.2259067159289
 30
0.0
 40
200.0000206480501
100
AcDbArc
 50
90.00000185828096
 51
98.04784728770577
  0
LINE
  5
27BB
330
1A
100
AcDbEntity
  8
SEIHIN
  6
CONTINUOUS
 62
     3
 48
16.0
100
AcDbLine
 10
207.2147781385632
 20
322.8015273639789
 30
0.0
 11
202.6812781385633
 21
328.2563273639789
 31
0.0
  0
ARC
  5
27BC
330
1A
100
AcDbEntity
  8
SEIHIN
  6
CONTINUOUS
 62
     3
 48
16.0
100
AcDbCircle
 10
278.1710340288944
 20
332.7457729469192
 30
0.0
 40
25.99994660346291
100
AcDbArc
 50
202.4871125313337
 51
245.6310599298905
  0
ARC
  5
27BD
330
1A
100
AcDbEntity
  8
SEIHIN
  6
CONTINUOUS
 62
     3
 48
16.0
100
AcDbCircle
 10
278.1710898083052
 20
332.7457152199357
 30
0.0
 40
27.9999493035276
100
AcDbArc
 50
204.9144536761486
 51
242.8034673669497
  0
LINE
  5
27BE
330
1A
100
AcDbEntity
  8
SEIHIN
  6
CONTINUOUS
 62
     3
 48
16.0
100
AcDbLine
 10
254.1479781385632
 20
322.8014273639788
 30
0.0
 11
258.6814781385632
 21
328.2562273639789
 31
0.0
  0
ARC
  5
27BF
330
1A
100
AcDbEntity
  8
SEIHIN
  6
CONTINUOUS
 62
     3
 48
16.0
100
AcDbCircle
 10
321.6546965465787
 20
319.2361555517705
 30
0.0
 40
30.00000716343036
100
AcDbArc
 50
126.8059777869307
 51
166.9011158110182
  0
LINE
  5
27C0
330
1A
100
AcDbEntity
  8
SEIHIN
  6
CONTINUOUS
 62
     3
 48
16.0
100
AcDbLine
 10
314.1814781385633
 20
360.2561273639789
 30
0.0
 11
313.1814781385633
 21
345.2561273639789
 31
0.0
  0
LINE
  5
27C1
330
1A
100
AcDbEntity
  8
SEIHIN
  6
CONTINUOUS
 62
     3
 48
16.0
100
AcDbLine
 10
313.1814781385633
 20
345.2561273639789
 30
0.0
 11
303.6814781385632
 21
343.2562273639789
 31
0.0
  0
LINE
  5
27C2
330
1A
100
AcDbEntity
  8
SEIHIN
  6
CONTINUOUS
 62
     3
 48
16.0
100
AcDbLine
 10
315.6814781385633
 20
365.2561273639788
 30
0.0
 11
315.6814781385633
 21
360.2561273639789
 31
0.0
  0
LINE
  5
27C3
330
1A
100
AcDbEntity
  8
SEIHIN
  6
CONTINUOUS
 62
     3
 48
16.0
100
AcDbLine
 10
571.5846781385634
 20
307.7362273639788
 30
0.0
 11
565.0671781385632
 21
242.5609273639789
 31
0.0
  0
LINE
  5
27C4
330
1A
100
AcDbEntity
  8
SEIHIN
  6
CONTINUOUS
 62
     3
 48
16.0
100
AcDbLine
 10
574.0740781385633
 20
242.1809273639788
 30
0.0
 11
582.6814781385632
 21
328.2559273639788
 31
0.0
  0
LINE
  5
27C5
330
1A
100
AcDbEntity
  8
SEIHIN
  6
CONTINUOUS
 62
     3
 48
16.0
100
AcDbLine
 10
442.6814781385633
 20
343.2559273639788
 30
0.0
 11
460.3017781385633
 21
246.7638273639789
 31
0.0
  0
LINE
  5
27C6
330
1A
100
AcDbEntity
  8
SEIHIN
  6
CONTINUOUS
 62
     3
 48
16.0
100
AcDbLine
 10
455.3675781385633
 20
323.8852273639788
 30
0.0
 11
469.4700781385633
 21
246.6571273639788
 31
0.0
  0
LINE
  5
27C7
330
1A
100
AcDbEntity
  8
SUNPOU
  6
CENTER
 62
     1
 48
5.0
100
AcDbLine
 10
521.1814781385633
 20
278.4837273639788
 30
0.0
 11
521.1814781385633
 21
309.7181273639788
 31
0.0
  0
DIMENSION
  5
27C8
330
1A
100
AcDbEntity
  8
SUNPOU
  6
CONTINUOUS
100
AcDbDimension
  2
*D6
 10
521.1814781385633
 20
260.8252542570803
 30
0.0
 11
538.1814781385634
 21
265.8252542570803
 31
0.0
 70
    32
  3
STANDARD
100
AcDbAlignedDimension
 13
519.9029781385632
 23
234.8159273639789
 33
0.0
 14
521.1814781385633
 24
278.4837273639788
 34
0.0
100
AcDbRotatedDimension
1001
ACAD
1000
DSTYLE
1002
{
1070
   140
1040
6.0
1070
    74
1070
     0
1070
   172
1070
     1
1070
    73
1070
     0
1070
   272
1070
     2
1070
    77
1070
     3
1070
   173
1070
     1
1070
   147
1040
2.0
1070
    42
1040
6.0
1070
    44
1040
3.0
1070
    43
1040
14.0
1070
   271
1070
     0
1070
   178
1070
     4
1070
   177
1070
     4
1070
   176
1070
     4
1070
   141
1040
150.0
1070
     7
1000
_OPEN
1070
     6
1000
_OPEN
1070
    41
1040
7.0
1002
}
  0
DIMENSION
  5
27C9
330
1A
100
AcDbEntity
  8
SUNPOU
 62
     4
100
AcDbDimension
  2
*D7
 10
486.1800781385632
 20
128.4205926649901
 30
0.0
 11
520.1814781385632
 21
133.4205926649901
 31
0.0
 70
    32
  3
STANDARD
100
AcDbAlignedDimension
 13
554.182878138563
 23
200.7559273639789
 33
0.0
 14
486.1800781385632
 24
200.7558273639789
 34
0.0
100
AcDbRotatedDimension
1001
ACAD
1000
DSTYLE
1002
{
1070
   140
1040
6.0
1070
    74
1070
     0
1070
   172
1070
     1
1070
    73
1070
     0
1070
   272
1070
     2
1070
    77
1070
     3
1070
   173
1070
     1
1070
   147
1040
2.0
1070
    42
1040
6.0
1070
    44
1040
3.0
1070
    43
1040
14.0
1070
   271
1070
     0
1070
   178
1070
     4
1070
   177
1070
     4
1070
   176
1070
     4
1070
   141
1040
150.0
1070
     7
1000
_OPEN
1070
     6
1000
_OPEN
1070
    41
1040
7.0
1002
}
  0
DIMENSION
  5
27CA
330
1A
100
AcDbEntity
  8
SUNPOU
 62
     4
100
AcDbDimension
  2
*D8
 10
490.981578138563
 20
149.885012741026
 30
0.0
 11
520.1815781385631
 21
154.8850127410259
 31
0.0
 70
    32
  1
φ<>
  3
STANDARD
100
AcDbAlignedDimension
 13
549.3815781385632
 23
193.7558273639789
 33
0.0
 14
490.981578138563
 24
193.7558273639789
 34
0.0
100
AcDbRotatedDimension
1001
ACAD
1000
DSTYLE
1002
{
1070
   140
1040
6.0
1070
    74
1070
     0
1070
   172
1070
     1
1070
    73
1070
     0
1070
   272
1070
     2
1070
    77
1070
     3
1070
   173
1070
     1
1070
   147
1040
2.0
1070
    42
1040
6.0
1070
    44
1040
3.0
1070
    43
1040
14.0
1070
   271
1070
     0
1070
   178
1070
     4
1070
   177
1070
     4
1070
   176
1070
     4
1070
   141
1040
150.0
1070
     7
1000
_OPEN
1070
     6
1000
_OPEN
1070
    41
1040
7.0
1002
}
  0
LINE
  5
27CB
330
1A
100
AcDbEntity
  8
SEIHIN
  6
CONTINUOUS
 62
     3
 48
16.0
100
AcDbLine
 10
519.9029781385632
 20
225.2558273639788
 30
0.0
 11
568.6814781385631
 21
225.2558273639788
 31
0.0
  0
LINE
  5
27CC
330
1A
100
AcDbEntity
  8
SEIHIN
  6
CONTINUOUS
 62
     3
 48
16.0
100
AcDbLine
 10
549.3815781385632
 20
200.7558273639789
 30
0.0
 11
490.9814781385631
 21
200.7558273639789
 31
0.0
  0
LINE
  5
27CD
330
1A
100
AcDbEntity
  8
SEIHIN
  6
CONTINUOUS
 62
     3
 48
16.0
100
AcDbLine
 10
490.981578138563
 20
200.7558273639789
 30
0.0
 11
549.3815781385632
 21
200.7558273639789
 31
0.0
  0
LINE
  5
27CE
330
1A
100
AcDbEntity
  8
SEIHIN
  6
CONTINUOUS
 62
     3
 48
16.0
100
AcDbLine
 10
490.981578138563
 20
193.7558273639789
 30
0.0
 11
549.3815781385632
 21
193.7558273639789
 31
0.0
  0
DIMENSION
  5
27CF
330
1A
100
AcDbEntity
  8
SUNPOU
 62
     4
100
AcDbDimension
  2
*D9
 10
449.5751427245766
 20
200.7558273639789
 30
0.0
 11
444.5751427245765
 21
213.0058273639789
 31
0.0
 70
    32
  3
STANDARD
100
AcDbAlignedDimension
 13
471.6814781385633
 23
225.2558273639788
 33
0.0
 14
490.981578138563
 24
200.7558273639789
 34
0.0
 50
90.0
100
AcDbRotatedDimension
1001
ACAD
1000
DSTYLE
1002
{
1070
   140
1040
6.0
1070
    74
1070
     0
1070
   172
1070
     1
1070
    73
1070
     0
1070
   272
1070
     2
1070
    77
1070
     3
1070
   173
1070
     1
1070
   147
1040
2.0
1070
    42
1040
6.0
1070
    44
1040
3.0
1070
    43
1040
14.0
1070
   271
1070
     0
1070
   178
1070
     4
1070
   177
1070
     4
1070
   176
1070
     4
1070
   141
1040
150.0
1070
     7
1000
_OPEN
1070
     6
1000
_OPEN
1070
    41
1040
7.0
1002
}
  0
LINE
  5
27D0
330
1A
100
AcDbEntity
  8
SUNPOU
  6
CENTER
 62
     1
 48
5.0
100
AcDbLine
 10
519.9029781385632
 20
234.8159273639789
 30
0.0
 11
519.9028781385633
 21
180.0071273639788
 31
0.0
  0
LINE
  5
27D1
330
1A
100
AcDbEntity
  8
SEIHIN
  6
CONTINUOUS
 62
     3
 48
16.0
100
AcDbLine
 10
490.981578138563
 20
200.7558273639789
 30
0.0
 11
490.981578138563
 21
193.7558273639789
 31
0.0
  0
ARC
  5
27D2
330
1A
100
AcDbEntity
  8
SEIHIN
  6
CONTINUOUS
 62
     3
 48
16.0
100
AcDbCircle
 10
489.8030589146189
 20
252.2118782064564
 30
0.0
 40
30.00000380738741
100
AcDbArc
 50
190.3985937765092
 51
226.476191300064
  0
ARC
  5
27D3
330
1A
100
AcDbEntity
  8
SEIHIN
  6
CONTINUOUS
 62
     3
 48
16.0
100
AcDbCircle
 10
498.9658170400876
 20
252.1051555296515
 30
0.0
 40
29.99995852756129
100
AcDbArc
 50
190.3985656132739
 51
226.4762194632992
  0
LINE
  5
27D4
330
1A
100
AcDbEntity
  8
SEIHIN
  6
CONTINUOUS
 62
     3
 48
16.0
100
AcDbLine
 10
471.6814781385633
 20
225.2558273639788
 30
0.0
 11
519.9029781385632
 21
225.2558273639788
 31
0.0
  0
ARC
  5
27D5
330
1A
100
AcDbEntity
  8
SEIHIN
  6
CONTINUOUS
 62
     3
 48
16.0
100
AcDbCircle
 10
486.1814702213341
 20
222.3021489881443
 30
0.0
 40
8.999992082796952
100
AcDbArc
 50
180.0001376638336
 51
220.2184022784543
  0
ARC
  5
27D6
330
1A
100
AcDbEntity
  8
SEIHIN
  6
CONTINUOUS
 62
     3
 48
16.0
100
AcDbCircle
 10
494.8626761163408
 20
222.437632887368
 30
0.0
 40
8.999997977779162
100
AcDbArc
 50
180.0000351629945
 51
220.2174025944604
  0
ARC
  5
27D7
330
1A
100
AcDbEntity
  8
SEIHIN
  6
CONTINUOUS
 62
     3
 48
16.0
100
AcDbCircle
 10
456.4012338085865
 20
197.1201288827692
 30
0.0
 40
29.99996455123325
100
AcDbArc
 50
6.960791169455248
 51
40.2174824798616
  0
ARC
  5
27D8
330
1A
100
AcDbEntity
  8
SEIHIN
  6
CONTINUOUS
 62
     3
 48
16.0
100
AcDbCircle
 10
465.0824032147278
 20
197.2555699377524
 30
0.0
 40
30.00001418255128
100
AcDbArc
 50
6.961085413340344
 51
40.21779986999503
  0
LINE
  5
27D9
330
1A
100
AcDbEntity
  8
SEIHIN
  6
CONTINUOUS
 62
     3
 48
16.0
100
AcDbLine
 10
486.1814781385634
 20
200.7558273639789
 30
0.0
 11
490.981578138563
 21
200.7558273639789
 31
0.0
  0
ARC
  5
27DA
330
1A
100
AcDbEntity
  8
SEIHIN
  6
CONTINUOUS
 62
     3
 48
16.0
100
AcDbCircle
 10
471.9353308722211
 20
223.9192210938726
 30
0.0
 40
8.999952093420683
100
AcDbArc
 50
8.540739288044116
 51
44.98000838632322
  0
ARC
  5
27DB
330
1A
100
AcDbEntity
  8
SEIHIN
  6
CONTINUOUS
 62
     3
 48
16.0
100
AcDbCircle
 10
462.7725912663941
 20
224.0259009381813
 30
0.0
 40
8.999923620825724
100
AcDbArc
 50
7.854600458688531
 51
44.98037092796223
  0
LINE
  5
27DC
330
1A
100
AcDbEntity
  8
SEIHIN
  6
CONTINUOUS
 62
     3
 48
16.0
100
AcDbLine
 10
477.1814781385631
 20
225.2558273639788
 30
0.0
 11
477.1814781385631
 21
222.3021273639789
 31
0.0
  0
LINE
  5
27DD
330
1A
100
AcDbEntity
  8
SEIHIN
  6
CONTINUOUS
 62
     3
 48
16.0
100
AcDbLine
 10
485.8626781385634
 20
225.2558273639788
 30
0.0
 11
485.8626781385634
 21
222.1187273639788
 31
0.0
  0
DIMENSION
  5
27DE
330
1A
100
AcDbEntity
  8
SUNPOU
 62
     4
100
AcDbDimension
  2
*D10
 10
610.2685395849919
 20
210.7558273639789
 30
0.0
 11
605.2685395849919
 21
238.655827363979
 31
0.0
 70
    32
  1
※b <>
  3
STANDARD
100
AcDbAlignedDimension
 13
554.1814781385632
 23
200.7558273639789
 33
0.0
 14
557.2397671623027
 24
210.7558273639789
 34
0.0
 50
90.0
100
AcDbRotatedDimension
1001
ACAD
1000
DSTYLE
1002
{
1070
   140
1040
6.0
1070
    74
1070
     0
1070
   172
1070
     1
1070
    73
1070
     0
1070
   272
1070
     2
1070
    77
1070
     3
1070
   173
1070
     1
1070
   147
1040
2.0
1070
    42
1040
6.0
1070
    44
1040
3.0
1070
    43
1040
14.0
1070
   271
1070
     0
1070
   178
1070
     4
1070
   177
1070
     4
1070
   176
1070
     4
1070
   141
1040
150.0
1070
     7
1000
_OPEN
1070
     6
1000
_OPEN
1070
    41
1040
7.0
1002
}
  0
LINE
  5
27DF
330
1A
100
AcDbEntity
  8
SEIHIN
  6
CONTINUOUS
 62
     3
 48
16.0
100
AcDbLine
 10
549.3815781385632
 20
200.7558273639789
 30
0.0
 11
549.3815781385632
 21
193.7558273639789
 31
0.0
  0
LINE
  5
27E0
330
1A
100
AcDbEntity
  8
SEIHIN
  6
CONTINUOUS
 62
     3
 48
16.0
100
AcDbLine
 10
549.3815781385632
 20
193.7558273639789
 30
0.0
 11
549.3815781385632
 21
200.7558273639789
 31
0.0
  0
ARC
  5
27E1
330
1A
100
AcDbEntity
  8
SEIHIN
  6
CONTINUOUS
 62
     3
 48
16.0
100
AcDbCircle
 10
554.1814478755244
 20
222.3020447076669
 30
0.0
 40
9.000030263055522
100
AcDbArc
 50
319.7826726555224
 51
359.9998895870236
  0
ARC
  5
27E2
330
1A
100
AcDbEntity
  8
SEIHIN
  6
CONTINUOUS
 62
     3
 48
16.0
100
AcDbCircle
 10
535.2397232195418
 20
245.7081600929563
 30
0.0
 40
29.99998063537505
100
AcDbArc
 50
328.9353619583887
 51
353.5443272388282
  0
ARC
  5
27E3
330
1A
100
AcDbEntity
  8
SEIHIN
  6
CONTINUOUS
 62
     3
 48
16.0
100
AcDbCircle
 10
545.2334801607859
 20
222.1187328873682
 30
0.0
 40
8.999997977779045
100
AcDbArc
 50
319.7825974055373
 51
359.9999648370039
  0
ARC
  5
27E4
330
1A
100
AcDbEntity
  8
SEIHIN
  6
CONTINUOUS
 62
     3
 48
16.0
100
AcDbCircle
 10
575.0137530623987
 20
196.9366699377524
 30
0.0
 40
30.00001418255131
100
AcDbArc
 50
139.7822001300049
 51
173.0389145866596
  0
ARC
  5
27E5
330
1A
100
AcDbEntity
  8
SEIHIN
  6
CONTINUOUS
 62
     3
 48
16.0
100
AcDbCircle
 10
583.9617445879615
 20
197.1199505310265
 30
0.0
 40
30.00002024234108
100
AcDbArc
 50
139.7821613774781
 51
173.0386862562509
  0
LINE
  5
27E6
330
1A
100
AcDbEntity
  8
SEIHIN
  6
CONTINUOUS
 62
     3
 48
16.0
100
AcDbLine
 10
554.1814781385632
 20
200.7558273639789
 30
0.0
 11
549.3815781385632
 21
200.7558273639789
 31
0.0
  0
LINE
  5
27E7
330
1A
100
AcDbEntity
  8
SEIHIN
  6
CONTINUOUS
 62
     3
 48
16.0
100
AcDbLine
 10
549.3815781385632
 20
200.7558273639789
 30
0.0
 11
554.1814781385632
 21
200.7558273639789
 31
0.0
  0
LINE
  5
27E8
330
1A
100
AcDbEntity
  8
SEIHIN
  6
CONTINUOUS
 62
     3
 48
16.0
100
AcDbLine
 10
554.2334781385632
 20
225.3914273639788
 30
0.0
 11
554.2334781385632
 21
221.0160273639789
 31
0.0
  0
ARC
  5
27E9
330
1A
100
AcDbEntity
  8
SEIHIN
  6
CONTINUOUS
 62
     3
 48
16.0
100
AcDbCircle
 10
568.6416364875387
 20
225.522477506777
 30
0.0
 40
8.999958352443822
100
AcDbArc
 50
148.9344066975807
 51
179.9984093522906
  0
ARC
  5
27EA
330
1A
100
AcDbEntity
  8
SEIHIN
  6
CONTINUOUS
 62
     3
 48
16.0
100
AcDbCircle
 10
544.2745585849312
 20
245.6824697933376
 30
0.0
 40
30.00002346454714
100
AcDbArc
 50
328.9358355270727
 51
353.5447022587293
  0
LINE
  5
27EB
330
1A
100
AcDbEntity
  8
SEIHIN
  6
CONTINUOUS
 62
     3
 48
16.0
100
AcDbLine
 10
568.6814781385631
 20
225.2558273639788
 30
0.0
 11
568.6814781385631
 21
225.5585273639788
 31
0.0
  0
ARC
  5
27EC
330
1A
100
AcDbEntity
  8
SEIHIN
  6
CONTINUOUS
 62
     3
 48
16.0
100
AcDbCircle
 10
577.6814364894816
 20
225.558377510541
 30
0.0
 40
8.999958352165908
100
AcDbArc
 50
148.9344067244893
 51
179.9990459989705
  0
LINE
  5
27ED
330
1A
100
AcDbEntity
  8
SEIHIN
  6
CONTINUOUS
 62
     3
 48
16.0
100
AcDbLine
 10
563.1814781385632
 20
225.2558273639788
 30
0.0
 11
563.1814781385632
 21
222.3021273639789
 31
0.0
  0
LINE
  5
27EE
330
1A
100
AcDbEntity
  8
SEIHIN
  6
CONTINUOUS
 62
     3
 48
16.0
100
AcDbLine
 10
563.1814781385632
 20
225.2558273639788
 30
0.0
 11
563.1814781385632
 21
221.6263273639788
 31
0.0
  0
DIMENSION
  5
27EF
330
1A
100
AcDbEntity
  8
SUNPOU
 62
     4
100
AcDbDimension
  2
*D11
 10
430.6814781385633
 20
420.4240762844167
 30
0.0
 11
506.6814781385633
 21
425.4240762844167
 31
0.0
 70
    32
  3
STANDARD
100
AcDbAlignedDimension
 13
582.6814781385632
 23
351.2559273639788
 33
0.0
 14
430.6814781385633
 24
365.2559273639789
 34
0.0
100
AcDbRotatedDimension
1001
ACAD
1000
DSTYLE
1002
{
1070
   140
1040
6.0
1070
    74
1070
     0
1070
   172
1070
     1
1070
    73
1070
     0
1070
   272
1070
     2
1070
    77
1070
     3
1070
   173
1070
     1
1070
   147
1040
2.0
1070
    42
1040
6.0
1070
    44
1040
3.0
1070
    43
1040
14.0
1070
   271
1070
     0
1070
   178
1070
     4
1070
   177
1070
     4
1070
   176
1070
     4
1070
   141
1040
150.0
1070
     7
1000
_OPEN
1070
     6
1000
_OPEN
1070
    41
1040
7.0
1002
}
  0
DIMENSION
  5
27F0
330
1A
100
AcDbEntity
  8
SUNPOU
 62
     4
100
AcDbDimension
  2
*D12
 10
521.1814781385633
 20
398.3942753355379
 30
0.0
 11
551.9314781385633
 21
403.3942753355379
 31
0.0
 70
    32
  3
STANDARD
100
AcDbAlignedDimension
 13
582.6814781385632
 23
351.2559273639788
 33
0.0
 14
521.1814781385633
 24
309.7181273639788
 34
0.0
100
AcDbRotatedDimension
1001
ACAD
1000
DSTYLE
1002
{
1070
   140
1040
6.0
1070
    74
1070
     0
1070
   172
1070
     1
1070
    73
1070
     0
1070
   272
1070
     2
1070
    77
1070
     3
1070
   173
1070
     1
1070
   147
1040
2.0
1070
    42
1040
6.0
1070
    44
1040
3.0
1070
    43
1040
14.0
1070
   271
1070
     0
1070
   178
1070
     4
1070
   177
1070
     4
1070
   176
1070
     4
1070
   141
1040
150.0
1070
     7
1000
_OPEN
1070
     6
1000
_OPEN
1070
    41
1040
7.0
1002
}
  0
LINE
  5
27F1
330
1A
100
AcDbEntity
  8
NIKITOI
  6
PHANTOM
 62
     8
 48
5.0
100
AcDbLine
 10
544.9906420894758
 20
293.9493274374045
 30
0.0
 11
530.2362420894756
 21
293.9493274374045
 31
0.0
  0
LINE
  5
27F2
330
1A
100
AcDbEntity
  8
SEIHIN
  6
CONTINUOUS
 62
     3
 48
16.0
100
AcDbLine
 10
555.3135781385634
 20
292.6559273639789
 30
0.0
 11
487.1685781385633
 21
292.6560273639788
 31
0.0
  0
LINE
  5
27F3
330
1A
100
AcDbEntity
  8
SEIHIN
  6
CONTINUOUS
 62
     3
 48
16.0
100
AcDbLine
 10
487.0494781385631
 20
292.6559273639789
 30
0.0
 11
555.2324781385634
 21
292.6560273639788
 31
0.0
  0
LINE
  5
27F4
330
1A
100
AcDbEntity
  8
NIKITOI
  6
PHANTOM
 62
     8
 48
5.0
100
AcDbLine
 10
488.0757420894759
 20
292.6560274374046
 30
0.0
 11
554.3063420894758
 21
292.6559274374048
 31
0.0
  0
LINE
  5
27F5
330
1A
100
AcDbEntity
  8
NIKITOI
  6
PHANTOM
 62
     8
 48
5.0
100
AcDbLine
 10
554.3063420894758
 20
292.6559274374048
 30
0.0
 11
488.0757420894759
 21
292.6560274374046
 31
0.0
  0
LINE
  5
27F6
330
1A
100
AcDbEntity
  8
NIKITOI
  6
PHANTOM
 62
     8
 48
5.0
100
AcDbLine
 10
493.3914420894758
 20
293.9494274374046
 30
0.0
 11
548.9906420894758
 21
293.9493274374045
 31
0.0
  0
LINE
  5
27F7
330
1A
100
AcDbEntity
  8
SUNPOU
  6
CONTINUOUS
 62
     4
 48
16.0
100
AcDbLine
 10
430.6814781385633
 20
369.2559273639789
 30
0.0
 11
430.6814781385633
 21
402.9788488083183
 31
0.0
  0
DIMENSION
  5
27F8
330
1A
100
AcDbEntity
  8
SUNPOU
  6
CONTINUOUS
100
AcDbDimension
  2
*D13
 10
415.9054227704177
 20
292.6559273639789
 30
0.0
 11
410.9054227704176
 21
328.955927363979
 31
0.0
 70
    32
  3
STANDARD
100
AcDbAlignedDimension
 13
430.6814781385633
 23
365.2559273639789
 33
0.0
 14
491.0494781385631
 24
292.6559273639789
 34
0.0
 50
90.0
100
AcDbRotatedDimension
1001
ACAD
1000
DSTYLE
1002
{
1070
   140
1040
6.0
1070
    74
1070
     0
1070
   172
1070
     1
1070
    73
1070
     0
1070
   272
1070
     2
1070
    77
1070
     3
1070
   173
1070
     1
1070
   147
1040
2.0
1070
    42
1040
6.0
1070
    44
1040
3.0
1070
    43
1040
14.0
1070
   271
1070
     0
1070
   178
1070
     4
1070
   177
1070
     4
1070
   176
1070
     4
1070
   141
1040
150.0
1070
     7
1000
_OPEN
1070
     6
1000
_OPEN
1070
    41
1040
7.0
1002
}
  0
ARC
  5
27F9
330
1A
100
AcDbEntity
  8
NIKITOI
  6
PHANTOM
 62
     8
 48
5.0
100
AcDbCircle
 10
465.1840420894758
 20
333.6490274374046
 30
0.0
 40
0.9950000000000045
100
AcDbArc
 50
180.0
 51
270.0
  0
ARC
  5
27FA
330
1A
100
AcDbEntity
  8
NIKITOI
  6
PHANTOM
 62
     8
 48
5.0
100
AcDbCircle
 10
465.1840420894758
 20
341.6585274374047
 30
0.0
 40
0.9950000000000613
100
AcDbArc
 50
90.00000000000325
 51
180.0000000000032
  0
LINE
  5
27FB
330
1A
100
AcDbEntity
  8
SEIHIN
  6
CONTINUOUS
 62
     3
 48
16.0
100
AcDbLine
 10
464.2537781385631
 20
332.6559273639789
 30
0.0
 11
469.9046781385633
 21
332.6559273639789
 31
0.0
  0
LINE
  5
27FC
330
1A
100
AcDbEntity
  8
SEIHIN
  6
CONTINUOUS
 62
     3
 48
16.0
100
AcDbLine
 10
476.2294781385633
 20
343.2559273639788
 30
0.0
 11
463.5314781385633
 21
343.2559273639788
 31
0.0
  0
LINE
  5
27FD
330
1A
100
AcDbEntity
  8
SEIHIN
  6
CONTINUOUS
 62
     3
 48
16.0
100
AcDbLine
 10
433.1814781385634
 20
345.2559273639788
 30
0.0
 11
478.8311781385633
 21
345.2559273639788
 31
0.0
  0
LINE
  5
27FE
330
1A
100
AcDbEntity
  8
SEIHIN
  6
CONTINUOUS
 62
     3
 48
16.0
100
AcDbLine
 10
432.1718781385632
 20
360.2559273639788
 30
0.0
 11
478.6087781385633
 21
360.2559273639788
 31
0.0
  0
LINE
  5
27FF
330
1A
100
AcDbEntity
  8
SEIHIN
  6
CONTINUOUS
 62
     3
 48
16.0
100
AcDbLine
 10
430.6814781385633
 20
365.2559273639789
 30
0.0
 11
473.2501781385633
 21
365.2559273639789
 31
0.0
  0
LINE
  5
2800
330
1A
100
AcDbEntity
  8
SEIHIN
  6
CONTINUOUS
 62
     3
 48
16.0
100
AcDbLine
 10
463.0314781385633
 20
336.8918273639788
 30
0.0
 11
463.0314781385633
 21
333.1559273639789
 31
0.0
  0
LINE
  5
2801
330
1A
100
AcDbEntity
  8
NIKITOI
  6
PHANTOM
 62
     8
 48
5.0
100
AcDbLine
 10
464.1890420894758
 20
333.6490274374046
 30
0.0
 11
464.1890420894758
 21
341.6585274374046
 31
0.0
  0
ARC
  5
2802
330
1A
100
AcDbEntity
  8
SEIHIN
  6
CONTINUOUS
 62
     3
 48
16.0
100
AcDbCircle
 10
425.8713306165345
 20
318.4098006202693
 30
0.0
 40
30.00000627308775
100
AcDbArc
 50
10.02187691338195
 51
55.92150659772983
  0
ARC
  5
2803
330
1A
100
AcDbEntity
  8
SEIHIN
  6
CONTINUOUS
 62
     3
 48
16.0
100
AcDbCircle
 10
463.5314781385633
 20
333.1559273639789
 30
0.0
 40
0.5
100
AcDbArc
 50
180.0
 51
270.0
  0
LINE
  5
2804
330
1A
100
AcDbEntity
  8
SEIHIN
  6
CONTINUOUS
 62
     3
 48
16.0
100
AcDbLine
 10
464.3717781385633
 20
332.6559273639789
 30
0.0
 11
463.4098781385632
 21
332.6709273639789
 31
0.0
  0
LINE
  5
2805
330
1A
100
AcDbEntity
  8
SEIHIN
  6
CONTINUOUS
 62
     3
 48
16.0
100
AcDbLine
 10
430.6814781385633
 20
360.2559273639788
 30
0.0
 11
432.1814781385633
 21
360.2559273639788
 31
0.0
  0
LINE
  5
2806
330
1A
100
AcDbEntity
  8
SEIHIN
  6
CONTINUOUS
 62
     3
 48
16.0
100
AcDbLine
 10
430.6814781385633
 20
365.2559273639789
 30
0.0
 11
430.6814781385633
 21
360.2559273639788
 31
0.0
  0
LINE
  5
2807
330
1A
100
AcDbEntity
  8
SEIHIN
  6
CONTINUOUS
 62
     3
 48
16.0
100
AcDbLine
 10
432.1814781385633
 20
360.2559273639788
 30
0.0
 11
433.1814781385634
 21
345.2559273639788
 31
0.0
  0
LINE
  5
2808
330
1A
100
AcDbEntity
  8
SEIHIN
  6
CONTINUOUS
 62
     3
 48
16.0
100
AcDbLine
 10
463.8392781385634
 20
343.2559273639788
 30
0.0
 11
442.6814781385633
 21
343.2559273639788
 31
0.0
  0
LINE
  5
2809
330
1A
100
AcDbEntity
  8
SEIHIN
  6
CONTINUOUS
 62
     3
 48
16.0
100
AcDbLine
 10
433.1814781385634
 20
345.2559273639788
 30
0.0
 11
442.6814781385633
 21
343.2559273639788
 31
0.0
  0
ARC
  5
280A
330
1A
100
AcDbEntity
  8
SEIHIN
  6
CONTINUOUS
 62
     3
 48
16.0
100
AcDbCircle
 10
463.5314781385633
 20
342.7559273639788
 30
0.0
 40
0.5
100
AcDbArc
 50
90.0
 51
180.0
  0
LINE
  5
280B
330
1A
100
AcDbEntity
  8
SEIHIN
  6
CONTINUOUS
 62
     3
 48
16.0
100
AcDbLine
 10
463.0314781385633
 20
336.8918273639788
 30
0.0
 11
463.0314781385633
 21
342.7559273639788
 31
0.0
  0
ARC
  5
280C
330
1A
100
AcDbEntity
  8
NIKITOI
  6
PHANTOM
 62
     8
 48
5.0
100
AcDbCircle
 10
467.4724920894757
 20
335.9374774374048
 30
0.0
 40
1.989950000628206
100
AcDbArc
 50
180.0014396286237
 51
270.0014396286237
  0
LINE
  5
280D
330
1A
100
AcDbEntity
  8
SEIHIN
  6
CONTINUOUS
 62
     3
 48
16.0
100
AcDbLine
 10
491.0494781385631
 20
292.6559273639789
 30
0.0
 11
507.6674781385633
 21
292.6559273639789
 31
0.0
  0
LINE
  5
280E
330
1A
100
AcDbEntity
  8
SEIHIN
  6
CONTINUOUS
 62
     3
 48
16.0
100
AcDbLine
 10
476.5302781385633
 20
304.1560273639789
 30
0.0
 11
470.8849781385632
 21
332.1535273639788
 31
0.0
  0
LINE
  5
280F
330
1A
100
AcDbEntity
  8
NIKITOI
  6
PHANTOM
 62
     8
 48
5.0
100
AcDbLine
 10
478.1741420894757
 20
305.7776274374045
 30
0.0
 11
472.2431420894757
 21
333.9475274374048
 31
0.0
  0
LINE
  5
2810
330
1A
100
AcDbEntity
  8
NIKITOI
  6
PHANTOM
 62
     8
 48
5.0
100
AcDbLine
 10
477.0655420894757
 20
304.7647274374046
 30
0.0
 11
471.2269420894756
 21
332.4960274374047
 31
0.0
  0
ARC
  5
2811
330
1A
100
AcDbEntity
  8
NIKITOI
  6
PHANTOM
 62
     8
 48
5.0
100
AcDbCircle
 10
474.3055159282667
 20
291.5496873279207
 30
0.0
 40
14.22848866365036
100
AcDbArc
 50
51.52529185494234
 51
71.45345265407179
  0
ARC
  5
2812
330
1A
100
AcDbEntity
  8
SEIHIN
  6
CONTINUOUS
 62
     3
 48
16.0
100
AcDbCircle
 10
473.2663548795908
 20
290.5418526563449
 30
0.0
 40
13.99996242889396
100
AcDbArc
 50
8.685215237925387
 51
76.51811029824081
  0
ARC
  5
2813
330
1A
100
AcDbEntity
  8
NIKITOI
  6
PHANTOM
 62
     8
 48
5.0
100
AcDbCircle
 10
474.3054491592626
 20
291.5497194645109
 30
0.0
 40
12.93471022655885
100
AcDbArc
 50
8.676219579621381
 51
74.45245455808934
  0
ARC
  5
2814
330
1A
100
AcDbEntity
  8
NIKITOI
  6
PHANTOM
 62
     8
 48
5.0
100
AcDbCircle
 10
479.1477619712471
 20
305.9826051003247
 30
0.0
 40
0.995060928010462
100
AcDbArc
 50
191.8877567214149
 51
251.452486792293
  0
ARC
  5
2815
330
1A
100
AcDbEntity
  8
NIKITOI
  6
PHANTOM
 62
     8
 48
5.0
100
AcDbCircle
 10
478.0391821138632
 20
304.9696847731788
 30
0.0
 40
0.9949785960395137
100
AcDbArc
 50
191.8875585738779
 51
254.4495841050101
  0
LINE
  5
2816
330
1A
100
AcDbEntity
  8
NIKITOI
  6
PHANTOM
 62
     8
 48
5.0
100
AcDbLine
 10
493.1924420894757
 20
294.1484274374047
 30
0.0
 11
493.1925420894758
 21
302.6457274374047
 31
0.0
  0
LINE
  5
2817
330
1A
100
AcDbEntity
  8
NIKITOI
  6
PHANTOM
 62
     8
 48
5.0
100
AcDbLine
 10
491.8924420894756
 20
294.4560274374047
 30
0.0
 11
491.8924420894756
 21
300.9833274374047
 31
0.0
  0
ARC
  5
2818
330
1A
100
AcDbEntity
  8
NIKITOI
  6
PHANTOM
 62
     8
 48
5.0
100
AcDbCircle
 10
474.3054472864891
 20
291.5497168216365
 30
0.0
 40
14.23472333170272
100
AcDbArc
 50
11.37541821407426
 51
40.79334907830808
  0
LINE
  5
2819
330
1A
100
AcDbEntity
  8
NIKITOI
  6
PHANTOM
 62
     8
 48
5.0
100
AcDbLine
 10
488.7506420894757
 20
293.9560274374045
 30
0.0
 11
491.3924420894757
 21
293.9560274374045
 31
0.0
  0
ARC
  5
281A
330
1A
100
AcDbEntity
  8
NIKITOI
  6
PHANTOM
 62
     8
 48
5.0
100
AcDbCircle
 10
488.7507190483476
 20
294.4560463016929
 30
0.0
 40
0.5000188648192144
100
AcDbArc
 50
191.3867288554418
 51
270.0026402191978
  0
ARC
  5
281B
330
1A
100
AcDbEntity
  8
NIKITOI
  6
PHANTOM
 62
     8
 48
5.0
100
AcDbCircle
 10
488.0757497034934
 20
293.6510208971607
 30
0.0
 40
0.9949934597852239
100
AcDbArc
 50
188.6761125650601
 51
269.9995615538234
  0
ARC
  5
281C
330
1A
100
AcDbEntity
  8
NIKITOI
  6
PHANTOM
 62
     8
 48
5.0
100
AcDbCircle
 10
491.3924420894756
 20
294.4560274374047
 30
0.0
 40
0.5000000000000569
100
AcDbArc
 50
270.0000000000065
 51
0.0000000000065138
  0
ARC
  5
281D
330
1A
100
AcDbEntity
  8
NIKITOI
  6
PHANTOM
 62
     8
 48
5.0
100
AcDbCircle
 10
493.3914420894758
 20
294.1484274374047
 30
0.0
 40
0.1990000000000691
100
AcDbArc
 50
179.9999999999837
 51
269.9999999999837
  0
LINE
  5
281E
330
1A
100
AcDbEntity
  8
NIKITOI
  6
PHANTOM
 62
     8
 48
5.0
100
AcDbLine
 10
491.5301420894756
 20
301.3457274374047
 30
0.0
 11
485.3092420894758
 21
301.3457274374047
 31
0.0
  0
LINE
  5
281F
330
1A
100
AcDbEntity
  8
NIKITOI
  6
PHANTOM
 62
     8
 48
5.0
100
AcDbLine
 10
493.1925420894758
 20
302.6457274374047
 30
0.0
 11
483.2818420894758
 21
302.6457274374047
 31
0.0
  0
ARC
  5
2820
330
1A
100
AcDbEntity
  8
NIKITOI
  6
PHANTOM
 62
     8
 48
5.0
100
AcDbCircle
 10
485.3092457487789
 20
301.0457354292843
 30
0.0
 40
0.2999920081427447
100
AcDbArc
 50
90.00069889403132
 51
220.79672841758
  0
ARC
  5
2821
330
1A
100
AcDbEntity
  8
NIKITOI
  6
PHANTOM
 62
     8
 48
5.0
100
AcDbCircle
 10
483.2818454018348
 20
302.8447262816192
 30
0.0
 40
0.1989988442421132
100
AcDbArc
 50
231.5280949042419
 51
269.9990463050561
  0
LINE
  5
2822
330
1A
100
AcDbEntity
  8
NIKITOI
  6
PHANTOM
 62
     8
 48
5.0
100
AcDbLine
 10
492.3874420894756
 20
301.8406274374045
 30
0.0
 11
491.5301420894756
 21
301.3457274374047
 31
0.0
  0
LINE
  5
2823
330
1A
100
AcDbEntity
  8
NIKITOI
  6
PHANTOM
 62
     8
 48
5.0
100
AcDbLine
 10
492.3874420894756
 20
301.8406274374045
 30
0.0
 11
491.8924420894756
 21
300.9833274374047
 31
0.0
  0
ARC
  5
2824
330
1A
100
AcDbEntity
  8
SEIHIN
  6
CONTINUOUS
 62
     3
 48
16.0
100
AcDbCircle
 10
470.1405806071607
 20
331.9085821518867
 30
0.0
 40
0.7836930781418374
100
AcDbArc
 50
18.22081883546769
 51
107.518507315913
  0
ARC
  5
2825
330
1A
100
AcDbEntity
  8
NIKITOI
  6
PHANTOM
 62
     8
 48
5.0
100
AcDbCircle
 10
471.0322236468615
 20
332.4550424008414
 30
0.0
 40
0.1989850374177657
100
AcDbArc
 50
11.88631382809341
 51
89.99468963106487
  0
LINE
  5
2826
330
1A
100
AcDbEntity
  8
NIKITOI
  6
PHANTOM
 62
     8
 48
5.0
100
AcDbLine
 10
471.0322420894758
 20
332.6540274374045
 30
0.0
 11
465.1840420894758
 21
332.6540274374045
 31
0.0
  0
LINE
  5
2827
330
1A
100
AcDbEntity
  8
NIKITOI
  6
PHANTOM
 62
     8
 48
5.0
100
AcDbLine
 10
467.4725420894758
 20
333.9475274374048
 30
0.0
 11
472.2431420894757
 21
333.9475274374048
 31
0.0
  0
LINE
  5
2828
330
1A
100
AcDbEntity
  8
SEIHIN
  6
CONTINUOUS
 62
     3
 48
16.0
100
AcDbLine
 10
521.1814781385633
 20
292.6559273639789
 30
0.0
 11
522.1814781385634
 21
292.6559273639789
 31
0.0
  0
LINE
  5
2829
330
1A
100
AcDbEntity
  8
SEIHIN
  6
CONTINUOUS
 62
     3
 48
16.0
100
AcDbLine
 10
521.1814781385633
 20
292.6559273639789
 30
0.0
 11
522.1814781385634
 21
292.6559273639789
 31
0.0
  0
LINE
  5
282A
330
1A
100
AcDbEntity
  8
SEIHIN
  6
CONTINUOUS
 62
     3
 48
16.0
100
AcDbLine
 10
521.1814781385633
 20
292.6559273639789
 30
0.0
 11
520.1814781385634
 21
292.6559273639789
 31
0.0
  0
LINE
  5
282B
330
1A
100
AcDbEntity
  8
SEIHIN
  6
CONTINUOUS
 62
     3
 48
16.0
100
AcDbLine
 10
521.1814781385633
 20
292.6559273639789
 30
0.0
 11
520.1814781385634
 21
292.6559273639789
 31
0.0
  0
LINE
  5
282C
330
1A
100
AcDbEntity
  8
SEIHIN
  6
CONTINUOUS
 62
     3
 48
16.0
100
AcDbLine
 10
481.6814781385631
 20
352.2843273639789
 30
0.0
 11
477.9155781385632
 21
362.0542273639789
 31
0.0
  0
ARC
  5
282D
330
1A
100
AcDbEntity
  8
SEIHIN
  6
CONTINUOUS
 62
     3
 48
16.0
100
AcDbCircle
 10
471.6846781385632
 20
352.2966273639788
 30
0.0
 40
9.999999999999914
100
AcDbArc
 50
270.0
 51
0.0
  0
LINE
  5
282E
330
1A
100
AcDbEntity
  8
NIKITOI
  6
PHANTOM
 62
     8
 48
5.0
100
AcDbLine
 10
470.4101420894756
 20
341.6585274374046
 30
0.0
 11
470.4101420894756
 21
337.4537274374047
 31
0.0
  0
LINE
  5
282F
330
1A
100
AcDbEntity
  8
SEIHIN
  6
CONTINUOUS
 62
     3
 48
16.0
100
AcDbLine
 10
471.6846781385633
 20
343.2558273639789
 30
0.0
 11
471.6846781385633
 21
342.2930273639788
 31
0.0
  0
LINE
  5
2830
330
1A
100
AcDbEntity
  8
NIKITOI
  6
PHANTOM
 62
     8
 48
5.0
100
AcDbLine
 10
465.1840420894758
 20
342.6535274374046
 30
0.0
 11
469.4152420894758
 21
342.6535274374046
 31
0.0
  0
LINE
  5
2831
330
1A
100
AcDbEntity
  8
NIKITOI
  6
PHANTOM
 62
     8
 48
5.0
100
AcDbLine
 10
469.1167420894758
 20
337.4537274374047
 30
0.0
 11
469.1167420894758
 21
339.8676274374047
 31
0.0
  0
LINE
  5
2832
330
1A
100
AcDbEntity
  8
NIKITOI
  6
PHANTOM
 62
     8
 48
5.0
100
AcDbLine
 10
467.6242420894757
 20
341.3600274374045
 30
0.0
 11
466.9750420894757
 21
341.3600274374045
 31
0.0
  0
LINE
  5
2833
330
1A
100
AcDbEntity
  8
NIKITOI
  6
PHANTOM
 62
     8
 48
5.0
100
AcDbLine
 10
465.4825420894757
 20
339.8676274374047
 30
0.0
 11
465.4825420894757
 21
335.9374274374047
 31
0.0
  0
ARC
  5
2834
330
1A
100
AcDbEntity
  8
NIKITOI
  6
PHANTOM
 62
     8
 48
5.0
100
AcDbCircle
 10
466.9749920894757
 20
339.8675774374046
 30
0.0
 40
1.49245000083754
100
AcDbArc
 50
89.99808047909004
 51
179.99808047909
  0
ARC
  5
2835
330
1A
100
AcDbEntity
  8
NIKITOI
  6
PHANTOM
 62
     8
 48
5.0
100
AcDbCircle
 10
467.6242420894757
 20
339.8676274374047
 30
0.0
 40
1.492399999999918
100
AcDbArc
 50
0.0000000000016284
 51
90.00000000000161
  0
ARC
  5
2836
330
1A
100
AcDbEntity
  8
NIKITOI
  6
PHANTOM
 62
     8
 48
5.0
100
AcDbCircle
 10
469.4151920894756
 20
341.6585774374047
 30
0.0
 40
0.9949500012563332
100
AcDbArc
 50
359.9971206704047
 51
89.99712067040476
  0
LINE
  5
2837
330
1A
100
AcDbEntity
  8
NIKITOI
  6
PHANTOM
 62
     8
 48
5.0
100
AcDbLine
 10
470.4101420894756
 20
337.4537274374047
 30
0.0
 11
469.1167420894758
 21
337.4537274374047
 31
0.0
  0
ARC
  5
2838
330
1A
100
AcDbEntity
  8
SEIHIN
  6
CONTINUOUS
 62
     3
 48
16.0
100
AcDbCircle
 10
473.2501664848223
 20
360.2559353614917
 30
0.0
 40
4.999992002500785
100
AcDbArc
 50
21.07925404072441
 51
89.99986645775157
  0
DIMENSION
  5
2839
330
1A
100
AcDbEntity
  8
SUNPOU
 62
     4
100
AcDbDimension
  2
*D14
 10
627.2738051083372
 20
292.6559274374048
 30
0.0
 11
622.273805108337
 21
321.9559274006918
 31
0.0
 70
    32
  3
STANDARD
100
AcDbAlignedDimension
 13
582.6814781385632
 23
351.2559273639788
 33
0.0
 14
554.3063420894758
 24
292.6559274374048
 34
0.0
 50
90.0
100
AcDbRotatedDimension
1001
ACAD
1000
DSTYLE
1002
{
1070
   140
1040
6.0
1070
    74
1070
     0
1070
   172
1070
     1
1070
    73
1070
     0
1070
   272
1070
     2
1070
    77
1070
     3
1070
   173
1070
     1
1070
   147
1040
2.0
1070
    42
1040
6.0
1070
    44
1040
3.0
1070
    43
1040
14.0
1070
   271
1070
     0
1070
   178
1070
     4
1070
   177
1070
     4
1070
   176
1070
     4
1070
   141
1040
150.0
1070
     7
1000
_OPEN
1070
     6
1000
_OPEN
1070
    41
1040
7.0
1002
}
  0
LINE
  5
283A
330
1A
100
AcDbEntity
  8
SEIHIN
  6
CONTINUOUS
 62
     3
 48
16.0
100
AcDbLine
 10
579.3314781385634
 20
336.8919273639788
 30
0.0
 11
579.3314781385634
 21
333.1559273639789
 31
0.0
  0
LINE
  5
283B
330
1A
100
AcDbEntity
  8
NIKITOI
  6
PHANTOM
 62
     8
 48
5.0
100
AcDbLine
 10
576.8932420894758
 20
333.9538274374045
 30
0.0
 11
576.8932420894758
 21
341.3533274374048
 31
0.0
  0
LINE
  5
283C
330
1A
100
AcDbEntity
  8
NIKITOI
  6
PHANTOM
 62
     8
 48
5.0
100
AcDbLine
 10
578.1932420894758
 20
333.6488274374046
 30
0.0
 11
578.1932420894758
 21
341.6584274374045
 31
0.0
  0
LINE
  5
283D
330
1A
100
AcDbEntity
  8
NIKITOI
  6
PHANTOM
 62
     8
 48
5.0
100
AcDbLine
 10
573.0268420894756
 20
341.3533274374048
 30
0.0
 11
571.4689420894758
 21
333.9539274374046
 31
0.0
  0
LINE
  5
283E
330
1A
100
AcDbEntity
  8
NIKITOI
  6
PHANTOM
 62
     8
 48
5.0
100
AcDbLine
 10
569.6629420894756
 20
331.6859274374046
 30
0.0
 11
571.9720420894756
 21
342.6533274374046
 31
0.0
  0
LINE
  5
283F
330
1A
100
AcDbEntity
  8
SEIHIN
  6
CONTINUOUS
 62
     3
 48
16.0
100
AcDbLine
 10
582.6814781385632
 20
328.2559273639788
 30
0.0
 11
582.6814781385632
 21
351.2559273639788
 31
0.0
  0
ARC
  5
2840
330
1A
100
AcDbEntity
  8
NIKITOI
  6
PHANTOM
 62
     8
 48
5.0
100
AcDbCircle
 10
568.0766565930244
 20
291.5496353615931
 30
0.0
 40
14.22809199964113
100
AcDbArc
 50
108.5474584936563
 51
128.7537062451649
  0
ARC
  5
2841
330
1A
100
AcDbEntity
  8
SEIHIN
  6
CONTINUOUS
 62
     3
 48
16.0
100
AcDbCircle
 10
569.0966555785329
 20
290.5418028314619
 30
0.0
 40
14.00002351249525
100
AcDbArc
 50
103.4820577904881
 51
171.3146166733449
  0
ARC
  5
2842
330
1A
100
AcDbEntity
  8
NIKITOI
  6
PHANTOM
 62
     8
 48
5.0
100
AcDbCircle
 10
568.0765309331548
 20
291.5497148559305
 30
0.0
 40
12.93449408578155
100
AcDbArc
 50
105.5473332353541
 51
171.324061764301
  0
ARC
  5
2843
330
1A
100
AcDbEntity
  8
NIKITOI
  6
PHANTOM
 62
     8
 48
5.0
100
AcDbCircle
 10
568.0766365560639
 20
291.5496211971393
 30
0.0
 40
12.93461262833301
100
AcDbArc
 50
105.5476727870197
 51
171.3237222126367
  0
LINE
  5
2844
330
1A
100
AcDbEntity
  8
SEIHIN
  6
CONTINUOUS
 62
     3
 48
16.0
100
AcDbLine
 10
551.2324781385633
 20
292.6560273639788
 30
0.0
 11
544.4381781385633
 21
292.6560273639788
 31
0.0
  0
ARC
  5
2845
330
1A
100
AcDbEntity
  8
NIKITOI
  6
PHANTOM
 62
     8
 48
5.0
100
AcDbCircle
 10
568.0766005441665
 20
291.5495425728483
 30
0.0
 40
14.23462403148678
100
AcDbArc
 50
139.2075062368998
 51
168.6237859483832
  0
LINE
  5
2846
330
1A
100
AcDbEntity
  8
NIKITOI
  6
PHANTOM
 62
     8
 48
5.0
100
AcDbLine
 10
549.1896420894757
 20
294.1484274374047
 30
0.0
 11
549.1897420894757
 21
302.6454274374045
 31
0.0
  0
LINE
  5
2847
330
1A
100
AcDbEntity
  8
NIKITOI
  6
PHANTOM
 62
     8
 48
5.0
100
AcDbLine
 10
550.4897420894758
 20
300.9830274374046
 30
0.0
 11
550.4897420894758
 21
294.4559274374046
 31
0.0
  0
ARC
  5
2848
330
1A
100
AcDbEntity
  8
NIKITOI
  6
PHANTOM
 62
     8
 48
5.0
100
AcDbCircle
 10
554.3063920175717
 20
293.6509703250033
 30
0.0
 40
0.9950428888512103
100
AcDbArc
 50
269.9971250795227
 51
351.3214426795074
  0
ARC
  5
2849
330
1A
100
AcDbEntity
  8
NIKITOI
  6
PHANTOM
 62
     8
 48
5.0
100
AcDbCircle
 10
553.6314651306041
 20
294.4559463016929
 30
0.0
 40
0.5000188648190603
100
AcDbArc
 50
269.9973597808037
 51
348.6132711445597
  0
ARC
  5
284A
330
1A
100
AcDbEntity
  8
NIKITOI
  6
PHANTOM
 62
     8
 48
5.0
100
AcDbCircle
 10
550.9897420894757
 20
294.4559274374047
 30
0.0
 40
0.4999999999999432
100
AcDbArc
 50
180.0000000000065
 51
270.0000000000065
  0
ARC
  5
284B
330
1A
100
AcDbEntity
  8
NIKITOI
  6
PHANTOM
 62
     8
 48
5.0
100
AcDbCircle
 10
548.9905920894757
 20
294.1483774374047
 30
0.0
 40
0.1990500062799141
100
AcDbArc
 50
270.0143923080609
 51
0.0143923080609163
  0
LINE
  5
284C
330
1A
100
AcDbEntity
  8
NIKITOI
  6
PHANTOM
 62
     8
 48
5.0
100
AcDbLine
 10
553.6314420894759
 20
293.9559274374047
 30
0.0
 11
550.9897420894758
 21
293.9559274374047
 31
0.0
  0
LINE
  5
284D
330
1A
100
AcDbEntity
  8
NIKITOI
  6
PHANTOM
 62
     8
 48
5.0
100
AcDbLine
 10
549.1897420894757
 20
302.6454274374045
 30
0.0
 11
559.1702420894756
 21
302.6453274374047
 31
0.0
  0
LINE
  5
284E
330
1A
100
AcDbEntity
  8
NIKITOI
  6
PHANTOM
 62
     8
 48
5.0
100
AcDbLine
 10
557.0726420894756
 20
301.3453274374046
 30
0.0
 11
550.8520420894758
 21
301.3453274374046
 31
0.0
  0
LINE
  5
284F
330
1A
100
AcDbEntity
  8
NIKITOI
  6
PHANTOM
 62
     8
 48
5.0
100
AcDbLine
 10
549.9947420894756
 20
301.8403274374046
 30
0.0
 11
550.8520420894758
 21
301.3453274374046
 31
0.0
  0
LINE
  5
2850
330
1A
100
AcDbEntity
  8
NIKITOI
  6
PHANTOM
 62
     8
 48
5.0
100
AcDbLine
 10
549.9947420894756
 20
301.8403274374046
 30
0.0
 11
550.4897420894758
 21
300.9830274374046
 31
0.0
  0
ARC
  5
2851
330
1A
100
AcDbEntity
  8
NIKITOI
  6
PHANTOM
 62
     8
 48
5.0
100
AcDbCircle
 10
557.072655767327
 20
301.0452975737107
 30
0.0
 40
0.3000298640056128
100
AcDbArc
 50
319.2190584222774
 51
90.00261201719894
  0
ARC
  5
2852
330
1A
100
AcDbEntity
  8
SEIHIN
  6
CONTINUOUS
 62
     3
 48
16.0
100
AcDbCircle
 10
601.4438595193852
 20
304.8323932406312
 30
0.0
 40
30.00000966209945
100
AcDbArc
 50
128.716142606228
 51
174.0461270575323
  0
LINE
  5
2853
330
1A
100
AcDbEntity
  8
SEIHIN
  6
CONTINUOUS
 62
     3
 48
16.0
100
AcDbLine
 10
565.8326781385632
 20
304.1560273639789
 30
0.0
 11
571.4780781385633
 21
332.1536273639789
 31
0.0
  0
LINE
  5
2854
330
1A
100
AcDbEntity
  8
NIKITOI
  6
PHANTOM
 62
     8
 48
5.0
100
AcDbLine
 10
565.3166420894758
 20
304.7645274374045
 30
0.0
 11
571.1553420894756
 21
332.4959274374045
 31
0.0
  0
LINE
  5
2855
330
1A
100
AcDbEntity
  8
NIKITOI
  6
PHANTOM
 62
     8
 48
5.0
100
AcDbLine
 10
564.2079420894758
 20
305.7770274374047
 30
0.0
 11
569.6629420894756
 21
331.6859274374046
 31
0.0
  0
ARC
  5
2856
330
1A
100
AcDbEntity
  8
NIKITOI
  6
PHANTOM
 62
     8
 48
5.0
100
AcDbCircle
 10
564.3430164263279
 20
304.9696066887921
 30
0.0
 40
0.9949690575286499
100
AcDbArc
 50
285.5437330810334
 51
348.1110361155297
  0
ARC
  5
2857
330
1A
100
AcDbEntity
  8
NIKITOI
  6
PHANTOM
 62
     8
 48
5.0
100
AcDbCircle
 10
563.2343856590268
 20
305.9820763891735
 30
0.0
 40
0.9950135261271753
100
AcDbArc
 50
288.5445751594485
 51
348.1074736523479
  0
LINE
  5
2858
330
1A
100
AcDbEntity
  8
SEIHIN
  6
CONTINUOUS
 62
     3
 48
16.0
100
AcDbLine
 10
582.6814781385632
 20
328.2237273639789
 30
0.0
 11
570.6855781385633
 21
328.2237273639789
 31
0.0
  0
ARC
  5
2859
330
1A
100
AcDbEntity
  8
NIKITOI
  6
PHANTOM
 62
     8
 48
5.0
100
AcDbCircle
 10
571.3500605320899
 20
332.4549424008414
 30
0.0
 40
0.1989850374179911
100
AcDbArc
 50
90.00531036897097
 51
168.1136861719429
  0
ARC
  5
285A
330
1A
100
AcDbEntity
  8
SEIHIN
  6
CONTINUOUS
 62
     3
 48
16.0
100
AcDbCircle
 10
578.8314781385635
 20
333.1559273639789
 30
0.0
 40
0.5
100
AcDbArc
 50
270.0
 51
0.0
  0
LINE
  5
285B
330
1A
100
AcDbEntity
  8
SEIHIN
  6
CONTINUOUS
 62
     3
 48
16.0
100
AcDbLine
 10
578.1092781385633
 20
332.6559273639789
 30
0.0
 11
578.8314781385635
 21
332.6559273639789
 31
0.0
  0
ARC
  5
285C
330
1A
100
AcDbEntity
  8
NIKITOI
  6
PHANTOM
 62
     8
 48
5.0
100
AcDbCircle
 10
577.1982420894759
 20
333.6488274374047
 30
0.0
 40
0.9949999999999192
100
AcDbArc
 50
269.9999999999951
 51
359.9999999999951
  0
ARC
  5
285D
330
1A
100
AcDbEntity
  8
SEIHIN
  6
CONTINUOUS
 62
     3
 48
16.0
100
AcDbCircle
 10
572.2224242045278
 20
331.9086356282466
 30
0.0
 40
0.7836274730340957
100
AcDbArc
 50
72.48369979520647
 51
161.7817184946151
  0
LINE
  5
285E
330
1A
100
AcDbEntity
  8
SEIHIN
  6
CONTINUOUS
 62
     3
 48
16.0
100
AcDbLine
 10
578.1092781385633
 20
332.6559273639789
 30
0.0
 11
572.4582781385635
 21
332.6559273639789
 31
0.0
  0
LINE
  5
285F
330
1A
100
AcDbEntity
  8
NIKITOI
  6
PHANTOM
 62
     8
 48
5.0
100
AcDbLine
 10
571.3500420894757
 20
332.6538274374047
 30
0.0
 11
577.1982420894757
 21
332.6538274374047
 31
0.0
  0
LINE
  5
2860
330
1A
100
AcDbEntity
  8
NIKITOI
  6
PHANTOM
 62
     8
 48
5.0
100
AcDbLine
 10
576.8932420894758
 20
333.9538274374045
 30
0.0
 11
571.4689420894758
 21
333.9539274374046
 31
0.0
  0
LINE
  5
2861
330
1A
100
AcDbEntity
  8
SEIHIN
  6
CONTINUOUS
 62
     3
 48
16.0
100
AcDbLine
 10
582.6814781385632
 20
351.2559273639788
 30
0.0
 11
570.5235781385635
 21
351.2559273639788
 31
0.0
  0
LINE
  5
2862
330
1A
100
AcDbEntity
  8
SEIHIN
  6
CONTINUOUS
 62
     3
 48
16.0
100
AcDbLine
 10
582.6814781385632
 20
351.2559273639788
 30
0.0
 11
570.8147781385633
 21
351.2559273639788
 31
0.0
  0
ARC
  5
2863
330
1A
100
AcDbEntity
  8
SEIHIN
  6
CONTINUOUS
 62
     3
 48
16.0
100
AcDbCircle
 10
570.8147781385633
 20
346.7559273639788
 30
0.0
 40
4.5
100
AcDbArc
 50
90.0
 51
180.0
  0
LINE
  5
2864
330
1A
100
AcDbEntity
  8
SEIHIN
  6
CONTINUOUS
 62
     3
 48
16.0
100
AcDbLine
 10
570.7092781385634
 20
341.7559273639787
 30
0.0
 11
571.8314781385635
 21
341.7559273639787
 31
0.0
  0
LINE
  5
2865
330
1A
100
AcDbEntity
  8
SEIHIN
  6
CONTINUOUS
 62
     3
 48
16.0
100
AcDbLine
 10
566.3147781385633
 20
346.3460273639788
 30
0.0
 11
566.3147781385633
 21
346.7559273639788
 31
0.0
  0
ARC
  5
2866
330
1A
100
AcDbEntity
  8
SEIHIN
  6
CONTINUOUS
 62
     3
 48
16.0
100
AcDbCircle
 10
570.8147781385633
 20
346.2559273639788
 30
0.0
 40
4.500000000000056
100
AcDbArc
 50
180.0
 51
270.0
  0
ARC
  5
2867
330
1A
100
AcDbEntity
  8
SEIHIN
  6
CONTINUOUS
 62
     3
 48
16.0
100
AcDbCircle
 10
578.8314781385635
 20
342.7559273639788
 30
0.0
 40
0.5
100
AcDbArc
 50
0.0
 51
90.0
  0
LINE
  5
2868
330
1A
100
AcDbEntity
  8
SEIHIN
  6
CONTINUOUS
 62
     3
 48
16.0
100
AcDbLine
 10
578.1092781385633
 20
343.2559273639788
 30
0.0
 11
578.8314781385635
 21
343.2559273639788
 31
0.0
  0
ARC
  5
2869
330
1A
100
AcDbEntity
  8
SEIHIN
  6
CONTINUOUS
 62
     3
 48
16.0
100
AcDbCircle
 10
572.4314781385632
 20
342.7559273639788
 30
0.0
 40
0.5
100
AcDbArc
 50
90.0
 51
180.0
  0
LINE
  5
286A
330
1A
100
AcDbEntity
  8
SEIHIN
  6
CONTINUOUS
 62
     3
 48
16.0
100
AcDbLine
 10
578.1092781385633
 20
343.2559273639788
 30
0.0
 11
572.4314781385632
 21
343.2559273639788
 31
0.0
  0
LINE
  5
286B
330
1A
100
AcDbEntity
  8
NIKITOI
  6
PHANTOM
 62
     8
 48
5.0
100
AcDbLine
 10
577.1982420894757
 20
342.6534274374047
 30
0.0
 11
571.9945420894758
 21
342.6533274374046
 31
0.0
  0
ARC
  5
286C
330
1A
100
AcDbEntity
  8
SEIHIN
  6
CONTINUOUS
 62
     3
 48
16.0
100
AcDbCircle
 10
571.8314781385632
 20
341.8559273639787
 30
0.0
 40
0.0999999999999659
100
AcDbArc
 50
270.0000000000977
 51
0.0000000000977066
  0
LINE
  5
286D
330
1A
100
AcDbEntity
  8
NIKITOI
  6
PHANTOM
 62
     8
 48
5.0
100
AcDbLine
 10
576.8932420894758
 20
341.3533274374048
 30
0.0
 11
573.0268420894756
 21
341.3533274374048
 31
0.0
  0
LINE
  5
286E
330
1A
100
AcDbEntity
  8
SEIHIN
  6
CONTINUOUS
 62
     3
 48
16.0
100
AcDbLine
 10
571.9314781385632
 20
342.7559273639788
 30
0.0
 11
571.9314781385632
 21
341.8559273639789
 31
0.0
  0
LINE
  5
286F
330
1A
100
AcDbEntity
  8
SEIHIN
  6
CONTINUOUS
 62
     3
 48
16.0
100
AcDbLine
 10
579.3314781385634
 20
336.8919273639788
 30
0.0
 11
579.3314781385634
 21
342.7559273639788
 31
0.0
  0
ARC
  5
2870
330
1A
100
AcDbEntity
  8
NIKITOI
  6
PHANTOM
 62
     8
 48
5.0
100
AcDbCircle
 10
577.1982420894757
 20
341.6584274374047
 30
0.0
 40
0.9950000000000613
100
AcDbArc
 50
359.9999999999967
 51
89.99999999999674
  0
VIEWPORT
  5
22
330
17
100
AcDbEntity
 67
     1
  8
0
100
AcDbViewport
 10
313.6808219178082
 20
148.5
 30
0.0
 40
627.3616438356165
 41
297.0
 68
     2
 69
     1
1001
ACAD
1000
MVIEW
1002
{
1070
    16
1010
0.0
1020
0.0
1030
0.0
1010
0.0
1020
0.0
1030
1.0
1040
0.0
1040
297.0
1040
313.6808219178082
1040
148.5
1040
50.0
1040
0.0
1040
0.0
1070
     0
1070
   100
1070
     1
1070
     0
1070
     0
1070
     0
1070
     0
1070
     0
1040
0.0
1040
0.0
1040
0.0
1040
1.0
1040
1.0
1040
10.0
1040
10.0
1070
     0
1002
{
1002
}
1002
}
  0
VIEWPORT
  5
64
330
17
100
AcDbEntity
 67
     1
  8
VIEWPORT
100
AcDbViewport
 10
210.0
 20
148.5
 30
0.0
 40
420.0
 41
297.0
 68
     1
 69
     2
1001
ACAD
1000
MVIEW
1002
{
1070
    16
1010
0.0
1020
0.0
1030
0.0
1010
0.0
1020
0.0
1030
1.0
1040
0.0
1040
605.8799999999998
1040
420.0
1040
297.0
1040
50.0
1040
0.0
1040
0.0
1070
     0
1070
   100
1070
     1
1070
     0
1070
     0
1070
     0
1070
     0
1070
     0
1040
0.0
1040
0.0
1040
0.0
1040
10.0
1040
10.0
1040
0.0
1040
0.0
1070
     0
1002
{
1002
}
1002
}
  0
ENDSEC
  0
SECTION
  2
OBJECTS
  0
DICTIONARY
  5
C
330
0
100
AcDbDictionary
  3
ACAD_GROUP
350
D
  3
ACAD_LAYOUT
350
884
  3
ACAD_MLINESTYLE
350
E
  3
ACAD_PLOTSETTINGS
350
885
  3
ACAD_PLOTSTYLENAME
350
882
  3
ACDBHEADERROUNDTRIPXREC
350
29A6
  0
DICTIONARY
  5
8E1
330
1A
100
AcDbDictionary
280
     1
  3
ACAD_LAYOUTSELFREF
360
29C8
  0
DICTIONARY
  5
8DF
330
17
100
AcDbDictionary
280
     1
  3
ACAD_LAYOUTSELFREF
360
29C7
  0
DICTIONARY
  5
D
102
{ACAD_REACTORS
330
C
102
}
330
C
100
AcDbDictionary
  0
DICTIONARY
  5
884
102
{ACAD_REACTORS
330
C
102
}
330
C
100
AcDbDictionary
  0
DICTIONARY
  5
E
102
{ACAD_REACTORS
330
C
102
}
330
C
100
AcDbDictionary
  3
STANDARD
350
13
  0
DICTIONARY
  5
885
102
{ACAD_REACTORS
330
C
102
}
330
C
100
AcDbDictionary
  0
ACDBDICTIONARYWDFLT
  5
882
102
{ACAD_REACTORS
330
C
102
}
330
C
100
AcDbDictionary
281
     1
  3
Normal
350
883
100
AcDbDictionaryWithDefault
340
883
1001
ACAD
1000
TREAT_AS_HARD
1070
     0
1000
TREAT_AS_HARD
1070
     0
1000
TREAT_AS_HARD
1070
     0
1000
TREAT_AS_HARD
1070
     0
1000
TREAT_AS_HARD
1070
     0
1000
TREAT_AS_HARD
1070
     0
1000
TREAT_AS_HARD
1070
     0
  0
DICTIONARY
  5
29A6
102
{ACAD_REACTORS
330
C
102
}
330
C
100
AcDbDictionary
  3
TSTACKALIGN
350
29A7
  3
TSTACKSIZE
350
29A8
  3
HYPERLINKBASE
350
29A9
  3
STYLESHEET
350
29AA
  3
LAYOUTDICT
350
29AB
  3
PLOTSETDICT
350
29AC
  3
PLOTSTYLNAMDICT
350
29AD
  3
LWETCUNION
350
29AE
  3
INSUNITS
350
29AF
  3
CEPSNTYPE
350
29B0
  3
FINGERPRINTGUID
350
29B1
  3
VERSIONGUID
350
29B2
  3
PSVPSCALE
350
29B3
  3
DIMSTYLEDATA
350
29B4
  3
PUCSORTHOREF
350
29B5
  3
PUCSORTHOVIEW
350
29B6
  3
PUCSBASE
350
29B7
  3
PUCSORGTOP
350
29B8
  3
PUCSORGBOTTOM
350
29B9
  3
PUCSORGLEFT
350
29BA
  3
PUCSORGRIGHT
350
29BB
  3
PUCSORGFRONT
350
29BC
  3
PUCSORGBACK
350
29BD
  3
UCSORTHOREF
350
29BE
  3
UCSORTHOVIEW
350
29BF
  3
UCSBASE
350
29C0
  3
UCSORGTOP
350
29C1
  3
UCSORGBOTTOM
350
29C2
  3
UCSORGLEFT
350
29C3
  3
UCSORGRIGHT
350
29C4
  3
UCSORGFRONT
350
29C5
  3
UCSORGBACK
350
29C6
  0
XRECORD
  5
29C8
102
{ACAD_REACTORS
330
8E1
102
}
330
8E1
100
AcDbXrecord
340
1A
  0
XRECORD
  5
29C7
102
{ACAD_REACTORS
330
8DF
102
}
330
8DF
100
AcDbXrecord
340
17
  0
MLINESTYLE
  5
13
102
{ACAD_REACTORS
330
E
102
}
330
E
100
AcDbMlineStyle
  2
STANDARD
 70
     0
  3

 62
     0
 51
90.0
 52
90.0
 71
     2
 49
0.5
 62
   256
  6
BYLAYER
 49
-0.5
 62
   256
  6
BYLAYER
  0
ACDBPLACEHOLDER
  5
883
102
{ACAD_REACTORS
330
882
102
}
330
882
100
AcDbPlaceHolder
280
     0
  0
XRECORD
  5
29A7
102
{ACAD_REACTORS
330
29A6
102
}
330
29A6
100
AcDbXrecord
 90
        1
  0
XRECORD
  5
29A8
102
{ACAD_REACTORS
330
29A6
102
}
330
29A6
100
AcDbXrecord
 90
       70
  0
XRECORD
  5
29A9
102
{ACAD_REACTORS
330
29A6
102
}
330
29A6
100
AcDbXrecord
  1

  0
XRECORD
  5
29AA
102
{ACAD_REACTORS
330
29A6
102
}
330
29A6
100
AcDbXrecord
  1
systemprinter.ctb
  0
XRECORD
  5
29AB
102
{ACAD_REACTORS
330
29A6
102
}
330
29A6
100
AcDbXrecord
340
884
  0
XRECORD
  5
29AC
102
{ACAD_REACTORS
330
29A6
102
}
330
29A6
100
AcDbXrecord
340
885
  0
XRECORD
  5
29AD
102
{ACAD_REACTORS
330
29A6
102
}
330
29A6
100
AcDbXrecord
340
882
  0
XRECORD
  5
29AE
102
{ACAD_REACTORS
330
29A6
102
}
330
29A6
100
AcDbXrecord
 90
    10781
  0
XRECORD
  5
29AF
102
{ACAD_REACTORS
330
29A6
102
}
330
29A6
100
AcDbXrecord
 90
        0
  0
XRECORD
  5
29B0
102
{ACAD_REACTORS
330
29A6
102
}
330
29A6
100
AcDbXrecord
 90
        0
  0
XRECORD
  5
29B1
102
{ACAD_REACTORS
330
29A6
102
}
330
29A6
100
AcDbXrecord
  1
{8EA77232-D3C6-11D3-932C-444553540000}
  0
XRECORD
  5
29B2
102
{ACAD_REACTORS
330
29A6
102
}
330
29A6
100
AcDbXrecord
  1
{91E5C645-E5A6-4CD0-BFE7-3B141F9A7DEA}
  0
XRECORD
  5
29B3
102
{ACAD_REACTORS
330
29A6
102
}
330
29A6
100
AcDbXrecord
 40
0.0
  0
XRECORD
  5
29B4
102
{ACAD_REACTORS
330
29A6
102
}
330
29A6
100
AcDbXrecord
1000
DSTYLE
1002
{
1070
   279
 70
     2
1070
   341
340
6D
1070
   343
340
6D
1070
   344
340
6D
1070
   371
 70
    -1
1070
   372
 70
    -1
1002
}
  0
XRECORD
  5
29B5
102
{ACAD_REACTORS
330
29A6
102
}
330
29A6
100
AcDbXrecord
340
0
  0
XRECORD
  5
29B6
102
{ACAD_REACTORS
330
29A6
102
}
330
29A6
100
AcDbXrecord
 70
     0
  0
XRECORD
  5
29B7
102
{ACAD_REACTORS
330
29A6
102
}
330
29A6
100
AcDbXrecord
340
0
  0
XRECORD
  5
29B8
102
{ACAD_REACTORS
330
29A6
102
}
330
29A6
100
AcDbXrecord
 10
0.0
 20
0.0
 30
0.0
  0
XRECORD
  5
29B9
102
{ACAD_REACTORS
330
29A6
102
}
330
29A6
100
AcDbXrecord
 10
0.0
 20
0.0
 30
0.0
  0
XRECORD
  5
29BA
102
{ACAD_REACTORS
330
29A6
102
}
330
29A6
100
AcDbXrecord
 10
0.0
 20
0.0
 30
0.0
  0
XRECORD
  5
29BB
102
{ACAD_REACTORS
330
29A6
102
}
330
29A6
100
AcDbXrecord
 10
0.0
 20
0.0
 30
0.0
  0
XRECORD
  5
29BC
102
{ACAD_REACTORS
330
29A6
102
}
330
29A6
100
AcDbXrecord
 10
0.0
 20
0.0
 30
0.0
  0
XRECORD
  5
29BD
102
{ACAD_REACTORS
330
29A6
102
}
330
29A6
100
AcDbXrecord
 10
0.0
 20
0.0
 30
0.0
  0
XRECORD
  5
29BE
102
{ACAD_REACTORS
330
29A6
102
}
330
29A6
100
AcDbXrecord
340
0
  0
XRECORD
  5
29BF
102
{ACAD_REACTORS
330
29A6
102
}
330
29A6
100
AcDbXrecord
 70
     0
  0
XRECORD
  5
29C0
102
{ACAD_REACTORS
330
29A6
102
}
330
29A6
100
AcDbXrecord
340
0
  0
XRECORD
  5
29C1
102
{ACAD_REACTORS
330
29A6
102
}
330
29A6
100
AcDbXrecord
 10
0.0
 20
0.0
 30
0.0
  0
XRECORD
  5
29C2
102
{ACAD_REACTORS
330
29A6
102
}
330
29A6
100
AcDbXrecord
 10
0.0
 20
0.0
 30
0.0
  0
XRECORD
  5
29C3
102
{ACAD_REACTORS
330
29A6
102
}
330
29A6
100
AcDbXrecord
 10
0.0
 20
0.0
 30
0.0
  0
XRECORD
  5
29C4
102
{ACAD_REACTORS
330
29A6
102
}
330
29A6
100
AcDbXrecord
 10
0.0
 20
0.0
 30
0.0
  0
XRECORD
  5
29C5
102
{ACAD_REACTORS
330
29A6
102
}
330
29A6
100
AcDbXrecord
 10
0.0
 20
0.0
 30
0.0
  0
XRECORD
  5
29C6
102
{ACAD_REACTORS
330
29A6
102
}
330
29A6
100
AcDbXrecord
 10
0.0
 20
0.0
 30
0.0
  0
ENDSEC
  0
EOF
