  0
SECTION
  2
HEADER
  9
$ACADVER
  1
AC1014
  9
$ACADMAINTVER
 70
     9
  9
$DWGCODEPAGE
  3
ANSI_932
  9
$INSBASE
 10
0.0
 20
0.0
 30
0.0
  9
$EXTMIN
 10
-0.0128164049386896
 20
-0.0090633767458712
 30
-0.0015258207003583
  9
$EXTMAX
 10
398.8000497813338
 20
275.8226172192214
 30
0.0000000349246037
  9
$LIMMIN
 10
0.0
 20
0.0
  9
$LIMMAX
 10
420.0
 20
297.0
  9
$ORTHOMODE
 70
     0
  9
$REGENMODE
 70
     1
  9
$FILLMODE
 70
     1
  9
$QTEXTMODE
 70
     0
  9
$MIRRTEXT
 70
     1
  9
$DRAGMODE
 70
     2
  9
$LTSCALE
 40
1.0
  9
$OSMODE
 70
    37
  9
$ATTMODE
 70
     1
  9
$TEXTSIZE
 40
2.5
  9
$TRACEWID
 40
1.0
  9
$TEXTSTYLE
  7
STANDARD
  9
$CLAYER
  8
SEIHIN
  9
$CELTYPE
  6
BYLAYER
  9
$CECOLOR
 62
   256
  9
$CELTSCALE
 40
1.0
  9
$DELOBJ
 70
     1
  9
$DISPSILH
 70
     0
  9
$DIMSCALE
 40
1.0
  9
$DIMASZ
 40
3.0
  9
$DIMEXO
 40
3.0
  9
$DIMDLI
 40
7.0
  9
$DIMRND
 40
0.0
  9
$DIMDLE
 40
0.0
  9
$DIMEXE
 40
1.5
  9
$DIMTP
 40
0.0
  9
$DIMTM
 40
0.0
  9
$DIMTXT
 40
3.0
  9
$DIMCEN
 40
150.0
  9
$DIMTSZ
 40
0.0
  9
$DIMTOL
 70
     0
  9
$DIMLIM
 70
     0
  9
$DIMTIH
 70
     0
  9
$DIMTOH
 70
     0
  9
$DIMSE1
 70
     0
  9
$DIMSE2
 70
     0
  9
$DIMTAD
 70
     3
  9
$DIMZIN
 70
     0
  9
$DIMBLK
  1

  9
$DIMASO
 70
     1
  9
$DIMSHO
 70
     1
  9
$DIMPOST
  1

  9
$DIMAPOST
  1

  9
$DIMALT
 70
     0
  9
$DIMALTD
 70
     2
  9
$DIMALTF
 40
25.4
  9
$DIMLFAC
 40
1.0
  9
$DIMTOFL
 70
     1
  9
$DIMTVP
 40
0.0
  9
$DIMTIX
 70
     0
  9
$DIMSOXD
 70
     0
  9
$DIMSAH
 70
     1
  9
$DIMBLK1
  1
OPEN
  9
$DIMBLK2
  1
OPEN
  9
$DIMSTYLE
  2
STANDARD
  9
$DIMCLRD
 70
   256
  9
$DIMCLRE
 70
   256
  9
$DIMCLRT
 70
   256
  9
$DIMTFAC
 40
1.0
  9
$DIMGAP
 40
1.0
  9
$DIMJUST
 70
     0
  9
$DIMSD1
 70
     0
  9
$DIMSD2
 70
     0
  9
$DIMTOLJ
 70
     1
  9
$DIMTZIN
 70
     0
  9
$DIMALTZ
 70
     0
  9
$DIMALTTZ
 70
     0
  9
$DIMFIT
 70
     3
  9
$DIMUPT
 70
     0
  9
$DIMUNIT
 70
     2
  9
$DIMDEC
 70
     0
  9
$DIMTDEC
 70
     0
  9
$DIMALTU
 70
     2
  9
$DIMALTTD
 70
     2
  9
$DIMTXSTY
  7
STANDARD
  9
$DIMAUNIT
 70
     0
  9
$LUNITS
 70
     2
  9
$LUPREC
 70
     4
  9
$SKETCHINC
 40
1.0
  9
$FILLETRAD
 40
0.5
  9
$AUNITS
 70
     0
  9
$AUPREC
 70
     0
  9
$MENU
  1
.
  9
$ELEVATION
 40
0.0
  9
$PELEVATION
 40
0.0
  9
$THICKNESS
 40
0.0
  9
$LIMCHECK
 70
     0
  9
$BLIPMODE
 70
     0
  9
$CHAMFERA
 40
10.0
  9
$CHAMFERB
 40
10.0
  9
$CHAMFERC
 40
20.0
  9
$CHAMFERD
 40
0.0
  9
$SKPOLY
 70
     0
  9
$TDCREATE
 40
2450994.350997107
  9
$TDUPDATE
 40
2454512.723431400
  9
$TDINDWG
 40
0.0787072454
  9
$TDUSRTIMER
 40
0.0787072454
  9
$USRTIMER
 70
     1
  9
$ANGBASE
 50
0.0
  9
$ANGDIR
 70
     0
  9
$PDMODE
 70
     1
  9
$PDSIZE
 40
0.0
  9
$PLINEWID
 40
0.0
  9
$COORDS
 70
     2
  9
$SPLFRAME
 70
     0
  9
$SPLINETYPE
 70
     6
  9
$SPLINESEGS
 70
     8
  9
$ATTDIA
 70
     0
  9
$ATTREQ
 70
     1
  9
$HANDLING
 70
 10241
  9
$HANDSEED
  5
E16
  9
$SURFTAB1
 70
     6
  9
$SURFTAB2
 70
     6
  9
$SURFTYPE
 70
     6
  9
$SURFU
 70
     6
  9
$SURFV
 70
     6
  9
$UCSNAME
  2

  9
$UCSORG
 10
0.0
 20
0.0
 30
0.0
  9
$UCSXDIR
 10
1.0
 20
0.0
 30
0.0
  9
$UCSYDIR
 10
0.0
 20
1.0
 30
0.0
  9
$PUCSNAME
  2

  9
$PUCSORG
 10
0.0
 20
0.0
 30
0.0
  9
$PUCSXDIR
 10
1.0
 20
0.0
 30
0.0
  9
$PUCSYDIR
 10
0.0
 20
1.0
 30
0.0
  9
$USERI1
 70
     0
  9
$USERI2
 70
     0
  9
$USERI3
 70
     0
  9
$USERI4
 70
     0
  9
$USERI5
 70
     0
  9
$USERR1
 40
0.0
  9
$USERR2
 40
0.0
  9
$USERR3
 40
0.0
  9
$USERR4
 40
0.0
  9
$USERR5
 40
0.0
  9
$WORLDVIEW
 70
     1
  9
$SHADEDGE
 70
     3
  9
$SHADEDIF
 70
    70
  9
$TILEMODE
 70
     1
  9
$MAXACTVP
 70
    16
  9
$PINSBASE
 10
0.0
 20
0.0
 30
0.0
  9
$PLIMCHECK
 70
     0
  9
$PEXTMIN
 10
0.0
 20
0.0
 30
0.0
  9
$PEXTMAX
 10
420.0
 20
297.0
 30
0.0
  9
$PLIMMIN
 10
0.0
 20
0.0
  9
$PLIMMAX
 10
420.0
 20
297.0
  9
$UNITMODE
 70
     0
  9
$VISRETAIN
 70
     0
  9
$PLINEGEN
 70
     0
  9
$PSLTSCALE
 70
     1
  9
$TREEDEPTH
 70
  3020
  9
$PICKSTYLE
 70
     1
  9
$CMLSTYLE
  2
STANDARD
  9
$CMLJUST
 70
     0
  9
$CMLSCALE
 40
1.0
  9
$PROXYGRAPHICS
 70
     1
  9
$MEASUREMENT
 70
     1
  0
ENDSEC
  0
SECTION
  2
CLASSES
  0
CLASS
  1
ACDBDICTIONARYWDFLT
  2
AcDbDictionaryWithDefault
  3
AutoCAD 2000
 90
        0
280
     0
281
     0
  0
CLASS
  1
ACDBPLACEHOLDER
  2
AcDbPlaceHolder
  3
AutoCAD 2000
 90
        0
280
     0
281
     0
  0
CLASS
  1
LAYOUT
  2
AcDbLayout
  3
AutoCAD 2000
 90
        0
280
     0
281
     0
  0
CLASS
  1
LONG_TRANSACTION
  2
AcDbLongTransaction
  3
AutoCAD 2000
 90
        0
280
     0
281
     0
  0
CLASS
  1
LWPOLYLINE
  2
AcDbPolyline
  3
AutoCAD 2000
 90
        0
280
     0
281
     1
  0
CLASS
  1
HATCH
  2
AcDbHatch
  3
AutoCAD 2000
 90
        0
280
     0
281
     1
  0
CLASS
  1
XRECORD
  2
AcDbXrecord
  3
AutoCAD 2000
 90
        0
280
     0
281
     0
  0
CLASS
  1
LONG_TRANSACTION
  2
AcDbLongTransaction
  3
AutoCAD 2000
 90
        0
280
     0
281
     0
  0
CLASS
  1
LWPOLYLINE
  2
AcDbPolyline
  3
AutoCAD 2000
 90
        0
280
     0
281
     1
  0
CLASS
  1
HATCH
  2
AcDbHatch
  3
AutoCAD 2000
 90
        0
280
     0
281
     1
  0
CLASS
  1
XRECORD
  2
AcDbXrecord
  3
AutoCAD 2000
 90
        0
280
     0
281
     0
  0
CLASS
  1
LONG_TRANSACTION
  2
AcDbLongTransaction
  3
AutoCAD 2000
 90
        0
280
     0
281
     0
  0
CLASS
  1
LWPOLYLINE
  2
AcDbPolyline
  3
AutoCAD 2000
 90
        0
280
     0
281
     1
  0
CLASS
  1
HATCH
  2
AcDbHatch
  3
AutoCAD 2000
 90
        0
280
     0
281
     1
  0
CLASS
  1
XRECORD
  2
AcDbXrecord
  3
AutoCAD 2000
 90
        0
280
     0
281
     0
  0
CLASS
  1
LONG_TRANSACTION
  2
AcDbLongTransaction
  3
AutoCAD 2000
 90
        0
280
     0
281
     0
  0
CLASS
  1
LWPOLYLINE
  2
AcDbPolyline
  3
AutoCAD 2000
 90
        0
280
     0
281
     1
  0
CLASS
  1
HATCH
  2
AcDbHatch
  3
AutoCAD 2000
 90
        0
280
     0
281
     1
  0
CLASS
  1
XRECORD
  2
AcDbXrecord
  3
AutoCAD 2000
 90
        0
280
     0
281
     0
  0
ENDSEC
  0
SECTION
  2
TABLES
  0
TABLE
  2
VPORT
  5
8
330
0
100
AcDbSymbolTable
 70
     2
  0
VPORT
  5
DF2
330
8
100
AcDbSymbolTableRecord
100
AcDbViewportTableRecord
  2
*ACTIVE
 70
     0
 10
0.0
 20
0.0
 11
1.0
 21
1.0
 12
177.3088006929517
 22
172.4660361329545
 13
0.0
 23
0.0
 14
5.0
 24
5.0
 15
0.0
 25
0.0
 16
0.0
 26
0.0
 36
1.0
 17
0.0
 27
0.0
 37
0.0
 40
392.3565189400737
 41
1.570153061224489
 42
50.0
 43
0.0
 44
0.0
 50
0.0
 51
0.0
 71
     0
 72
   100
 73
     1
 74
     0
 75
     0
 76
     0
 77
     0
 78
     0
  0
ENDTAB
  0
TABLE
  2
LTYPE
  5
5
330
0
100
AcDbSymbolTable
 70
     3
  0
LTYPE
  5
14
330
5
100
AcDbSymbolTableRecord
100
AcDbLinetypeTableRecord
  2
BYBLOCK
 70
     0
  3

 72
    65
 73
     0
 40
0.0
  0
LTYPE
  5
15
330
5
100
AcDbSymbolTableRecord
100
AcDbLinetypeTableRecord
  2
BYLAYER
 70
     0
  3

 72
    65
 73
     0
 40
0.0
  0
LTYPE
  5
16
330
5
100
AcDbSymbolTableRecord
100
AcDbLinetypeTableRecord
  2
CONTINUOUS
 70
     0
  3
Solid line
 72
    65
 73
     0
 40
0.0
  0
LTYPE
  5
77F
330
5
100
AcDbSymbolTableRecord
100
AcDbLinetypeTableRecord
  2
CENTER
 70
     0
  3
____ _ ____ _ ____ _ ____ _ ____ _ ____ _ ____ 
 72
    65
 73
     4
 40
2.0
 49
1.25
 74
     0
 49
-0.25
 74
     0
 49
0.25
 74
     0
 49
-0.25
 74
     0
  0
LTYPE
  5
921
330
5
100
AcDbSymbolTableRecord
100
AcDbLinetypeTableRecord
  2
PHANTOM
 70
     0
  3
______  __  __  ______  __  __  ______  __  __ 
 72
    65
 73
     6
 40
2.5
 49
1.25
 74
     0
 49
-0.25
 74
     0
 49
0.25
 74
     0
 49
-0.25
 74
     0
 49
0.25
 74
     0
 49
-0.25
 74
     0
  0
ENDTAB
  0
TABLE
  2
LAYER
  5
2
330
0
100
AcDbSymbolTable
 70
     9
  0
LAYER
  5
F
330
2
100
AcDbSymbolTableRecord
100
AcDbLayerTableRecord
  2
0
 70
     0
 62
     7
  6
CONTINUOUS
  0
LAYER
  5
62
330
2
100
AcDbSymbolTableRecord
100
AcDbLayerTableRecord
  2
VIEWPORT
 70
     0
 62
     7
  6
CONTINUOUS
  0
LAYER
  5
6B
330
2
100
AcDbSymbolTableRecord
100
AcDbLayerTableRecord
  2
ZUWAKU
 70
     0
 62
     7
  6
CONTINUOUS
  0
LAYER
  5
14B
330
2
100
AcDbSymbolTableRecord
100
AcDbLayerTableRecord
  2
SEIHIN
 70
     0
 62
     3
  6
CONTINUOUS
  0
LAYER
  5
14C
330
2
100
AcDbSymbolTableRecord
100
AcDbLayerTableRecord
  2
SUNPOU
 70
     0
 62
     4
  6
CONTINUOUS
  0
LAYER
  5
314
330
2
100
AcDbSymbolTableRecord
100
AcDbLayerTableRecord
  2
DEFPOINTS
 70
     0
 62
     7
  6
CONTINUOUS
  0
LAYER
  5
5B0
330
2
100
AcDbSymbolTableRecord
100
AcDbLayerTableRecord
  2
MOJI
 70
     0
 62
     2
  6
CONTINUOUS
  0
LAYER
  5
780
330
2
100
AcDbSymbolTableRecord
100
AcDbLayerTableRecord
  2
CENTER_L
 70
     0
 62
     1
  6
CENTER
  0
LAYER
  5
922
330
2
100
AcDbSymbolTableRecord
100
AcDbLayerTableRecord
  2
NOKITOI
 70
     0
 62
     8
  6
PHANTOM
  0
ENDTAB
  0
TABLE
  2
STYLE
  5
3
330
0
100
AcDbSymbolTable
 70
     2
  0
STYLE
  5
10
330
3
100
AcDbSymbolTableRecord
100
AcDbTextStyleTableRecord
  2
STANDARD
 70
     0
 40
0.0
 41
1.0
 50
0.0
 71
     0
 42
2.5
  3
TXT
  4
bigfont.shx
  0
STYLE
  5
5B1
330
3
100
AcDbSymbolTableRecord
100
AcDbTextStyleTableRecord
  2
ｽﾀｲﾙ1
 70
     0
 40
0.0
 41
1.0
 50
0.0
 71
     0
 42
2.5
  3
MS PGothic.ttf
  4

1001
ACAD
1000
MS PGothic
1071
    32818
  0
ENDTAB
  0
TABLE
  2
VIEW
  5
6
330
0
100
AcDbSymbolTable
 70
     0
  0
ENDTAB
  0
TABLE
  2
UCS
  5
7
330
0
100
AcDbSymbolTable
 70
     0
  0
ENDTAB
  0
TABLE
  2
APPID
  5
9
330
0
100
AcDbSymbolTable
 70
     1
  0
APPID
  5
11
330
9
100
AcDbSymbolTableRecord
100
AcDbRegAppTableRecord
  2
ACAD
 70
     0
  0
ENDTAB
  0
TABLE
  2
DIMSTYLE
  5
A
330
0
100
AcDbSymbolTable
 70
     1
  0
DIMSTYLE
105
1D
102
{ACAD_REACTORS
330
CD3
330
CD4
330
CD5
330
CD6
102
}
330
A
100
AcDbSymbolTableRecord
100
AcDbDimStyleTableRecord
  2
STANDARD
 70
     0
  3

  4

  5

  6

  7

 40
1.0
 41
0.18
 42
0.0625
 43
0.38
 44
0.18
 45
0.0
 46
0.0
 47
0.0
 48
0.0
140
0.18
141
0.09
142
0.0
143
25.4
144
1.0
145
0.0
146
1.0
147
0.09
 71
     0
 72
     0
 73
     1
 74
     1
 75
     0
 76
     0
 77
     0
 78
     0
170
     0
171
     2
172
     0
173
     0
174
     0
175
     0
176
     0
177
     0
178
     0
270
     2
271
     4
272
     4
273
     2
274
     2
340
10
275
     0
280
     0
281
     0
282
     0
283
     1
284
     0
285
     0
286
     0
287
     3
288
     0
  0
ENDTAB
  0
TABLE
  2
BLOCK_RECORD
  5
1
330
0
100
AcDbSymbolTable
 70
     5
  0
BLOCK_RECORD
  5
1A
102
{ACAD_XDICTIONARY
360
520
102
}
330
1
100
AcDbSymbolTableRecord
100
AcDbBlockTableRecord
  2
*MODEL_SPACE
  0
BLOCK_RECORD
  5
17
102
{ACAD_XDICTIONARY
360
51E
102
}
330
1
100
AcDbSymbolTableRecord
100
AcDbBlockTableRecord
  2
*PAPER_SPACE
  0
BLOCK_RECORD
  5
B2
330
1
100
AcDbSymbolTableRecord
100
AcDbBlockTableRecord
  2
_OPEN
  0
BLOCK_RECORD
  5
D98
330
1
100
AcDbSymbolTableRecord
100
AcDbBlockTableRecord
  2
*D1
  0
BLOCK_RECORD
  5
DA4
330
1
100
AcDbSymbolTableRecord
100
AcDbBlockTableRecord
  2
*D2
  0
BLOCK_RECORD
  5
DB0
330
1
100
AcDbSymbolTableRecord
100
AcDbBlockTableRecord
  2
*D3
  0
BLOCK_RECORD
  5
DBC
330
1
100
AcDbSymbolTableRecord
100
AcDbBlockTableRecord
  2
*D4
  0
ENDTAB
  0
ENDSEC
  0
SECTION
  2
BLOCKS
  0
BLOCK
  5
1B
330
1A
100
AcDbEntity
  8
0
100
AcDbBlockBegin
  2
*MODEL_SPACE
 70
     0
 10
0.0
 20
0.0
 30
0.0
  3
*MODEL_SPACE
  1

  0
ENDBLK
  5
1C
330
1A
100
AcDbEntity
  8
0
100
AcDbBlockEnd
  0
BLOCK
  5
18
330
17
100
AcDbEntity
 67
     1
  8
0
100
AcDbBlockBegin
  2
*PAPER_SPACE
 70
     0
 10
0.0
 20
0.0
 30
0.0
  3
*PAPER_SPACE
  1

  0
ENDBLK
  5
19
330
17
100
AcDbEntity
 67
     1
  8
0
100
AcDbBlockEnd
  0
BLOCK
  5
B3
330
B2
100
AcDbEntity
  8
0
100
AcDbBlockBegin
  2
_OPEN
 70
     0
 10
0.0
 20
0.0
 30
0.0
  3
_OPEN
  1

  0
LINE
  5
B4
330
B2
100
AcDbEntity
  8
0
  6
BYBLOCK
 62
     0
100
AcDbLine
 10
-1.0
 20
0.1666666666666666
 30
0.0
 11
0.0
 21
0.0
 31
0.0
  0
LINE
  5
B5
330
B2
100
AcDbEntity
  8
0
  6
BYBLOCK
 62
     0
100
AcDbLine
 10
0.0
 20
0.0
 30
0.0
 11
-1.0
 21
-0.1666666666666666
 31
0.0
  0
LINE
  5
B6
330
B2
100
AcDbEntity
  8
0
  6
BYBLOCK
 62
     0
100
AcDbLine
 10
0.0
 20
0.0
 30
0.0
 11
-1.0
 21
0.0
 31
0.0
  0
ENDBLK
  5
B7
330
B2
100
AcDbEntity
  8
0
100
AcDbBlockEnd
  0
BLOCK
  5
DA2
330
D98
100
AcDbEntity
  8
0
100
AcDbBlockBegin
  2
*D1
 70
     1
 10
0.0
 20
0.0
 30
0.0
  3
*D1
  1

  0
LINE
  5
DC8
330
D98
100
AcDbEntity
  8
SUNPOU
  6
CONTINUOUS
 62
     4
100
AcDbLine
 10
197.4249289221789
 20
247.4782189112798
 30
0.0
 11
221.104335475484
 21
247.4782189112798
 31
0.0
  0
LINE
  5
DC9
330
D98
100
AcDbEntity
  8
SUNPOU
  6
CONTINUOUS
 62
     4
100
AcDbLine
 10
197.4246289221789
 20
177.4788189112798
 30
0.0
 11
221.104335475484
 21
177.4788189112798
 31
0.0
  0
LINE
  5
DCA
330
D98
100
AcDbEntity
  8
SUNPOU
  6
CONTINUOUS
 62
     4
100
AcDbLine
 10
219.6043354754841
 20
244.4782189112798
 30
0.0
 11
219.604335475484
 21
180.4788189112798
 31
0.0
  0
INSERT
  5
DCB
330
D98
100
AcDbEntity
  8
SUNPOU
  6
CONTINUOUS
 62
     4
100
AcDbBlockReference
  2
_OPEN
 10
219.6043354754841
 20
247.4782189112798
 30
0.0
 41
3.0
 42
3.0
 43
3.0
 50
90.0
  0
INSERT
  5
DCC
330
D98
100
AcDbEntity
  8
SUNPOU
  6
CONTINUOUS
 62
     4
100
AcDbBlockReference
  2
_OPEN
 10
219.604335475484
 20
177.4788189112798
 30
0.0
 41
3.0
 42
3.0
 43
3.0
 50
270.0
  0
MTEXT
  5
DCD
330
D98
100
AcDbEntity
  8
SUNPOU
  6
CONTINUOUS
 62
     4
100
AcDbMText
 10
217.104335475484
 20
212.4785189112798
 30
0.0
 40
3.0
 41
0.0
 71
     5
 72
     1
  1
\A1;70
 11
0.0000000000000001
 21
1.0
 31
0.0
1001
ACAD
1000
MTEXTBEGIN
1070
    73
1070
     1
1070
    44
1040
1.0
1070
    74
1070
     0
1000
MTEXTEND
  0
POINT
  5
DCE
330
D98
100
AcDbEntity
  8
DEFPOINTS
  6
CONTINUOUS
 62
     0
100
AcDbPoint
 10
194.4249289221789
 20
247.4782189112798
 30
0.0
  0
POINT
  5
DCF
330
D98
100
AcDbEntity
  8
DEFPOINTS
  6
CONTINUOUS
 62
     0
100
AcDbPoint
 10
194.4246289221789
 20
177.4788189112798
 30
0.0
  0
POINT
  5
DD0
330
D98
100
AcDbEntity
  8
DEFPOINTS
  6
CONTINUOUS
 62
     0
100
AcDbPoint
 10
219.604335475484
 20
177.4788189112798
 30
0.0
  0
ENDBLK
  5
DA3
330
D98
100
AcDbEntity
  8
0
100
AcDbBlockEnd
  0
BLOCK
  5
DAE
330
DA4
100
AcDbEntity
  8
0
100
AcDbBlockBegin
  2
*D2
 70
     1
 10
0.0
 20
0.0
 30
0.0
  3
*D2
  1

  0
LINE
  5
DD1
330
DA4
100
AcDbEntity
  8
SUNPOU
  6
CONTINUOUS
 62
     4
100
AcDbLine
 10
196.4589289221789
 20
112.4784189112798
 30
0.0
 11
221.6043354754841
 21
112.4784189112798
 31
0.0
  0
LINE
  5
DD2
330
DA4
100
AcDbEntity
  8
SUNPOU
  6
CONTINUOUS
 62
     4
100
AcDbLine
 10
172.8821289221789
 20
59.07831891127989
 30
0.0
 11
221.604335475484
 21
59.07831891127988
 31
0.0
  0
LINE
  5
DD3
330
DA4
100
AcDbEntity
  8
SUNPOU
  6
CONTINUOUS
 62
     4
100
AcDbLine
 10
220.104335475484
 20
109.4784189112798
 30
0.0
 11
220.104335475484
 21
62.07831891127987
 31
0.0
  0
INSERT
  5
DD4
330
DA4
100
AcDbEntity
  8
SUNPOU
  6
CONTINUOUS
 62
     4
100
AcDbBlockReference
  2
_OPEN
 10
220.104335475484
 20
112.4784189112798
 30
0.0
 41
3.0
 42
3.0
 43
3.0
 50
90.0
  0
INSERT
  5
DD5
330
DA4
100
AcDbEntity
  8
SUNPOU
  6
CONTINUOUS
 62
     4
100
AcDbBlockReference
  2
_OPEN
 10
220.104335475484
 20
59.07831891127988
 30
0.0
 41
3.0
 42
3.0
 43
3.0
 50
270.0
  0
MTEXT
  5
DD6
330
DA4
100
AcDbEntity
  8
SUNPOU
  6
CONTINUOUS
 62
     4
100
AcDbMText
 10
217.604335475484
 20
85.77836891127992
 30
0.0
 40
3.0
 41
0.0
 71
     5
 72
     1
  1
\A1;53
 11
0.0000000000000001
 21
1.0
 31
0.0
1001
ACAD
1000
MTEXTBEGIN
1070
    73
1070
     1
1070
    44
1040
1.0
1070
    74
1070
     0
1000
MTEXTEND
  0
POINT
  5
DD7
330
DA4
100
AcDbEntity
  8
DEFPOINTS
  6
CONTINUOUS
 62
     0
100
AcDbPoint
 10
193.4589289221789
 20
112.4784189112798
 30
0.0
  0
POINT
  5
DD8
330
DA4
100
AcDbEntity
  8
DEFPOINTS
  6
CONTINUOUS
 62
     0
100
AcDbPoint
 10
169.8821289221789
 20
59.07831891127989
 30
0.0
  0
POINT
  5
DD9
330
DA4
100
AcDbEntity
  8
DEFPOINTS
  6
CONTINUOUS
 62
     0
100
AcDbPoint
 10
220.104335475484
 20
59.07831891127988
 30
0.0
  0
ENDBLK
  5
DAF
330
DA4
100
AcDbEntity
  8
0
100
AcDbBlockEnd
  0
BLOCK
  5
DBA
330
DB0
100
AcDbEntity
  8
0
100
AcDbBlockBegin
  2
*D3
 70
     1
 10
0.0
 20
0.0
 30
0.0
  3
*D3
  1

  0
LINE
  5
DDA
330
DB0
100
AcDbEntity
  8
SUNPOU
  6
CONTINUOUS
 62
     4
100
AcDbLine
 10
194.4589289221789
 20
114.4784189112798
 30
0.0
 11
194.4589289221789
 21
140.8737566706841
 31
0.0
  0
LINE
  5
DDB
330
DB0
100
AcDbEntity
  8
SUNPOU
  6
CONTINUOUS
 62
     4
100
AcDbLine
 10
75.88992892217885
 20
114.47851891128
 30
0.0
 11
75.88992892217885
 21
140.8737566706841
 31
0.0
  0
LINE
  5
DDC
330
DB0
100
AcDbEntity
  8
SUNPOU
  6
CONTINUOUS
 62
     4
100
AcDbLine
 10
191.4589289221789
 20
139.3737566706842
 30
0.0
 11
78.88992892217885
 21
139.3737566706842
 31
0.0
  0
INSERT
  5
DDD
330
DB0
100
AcDbEntity
  8
SUNPOU
  6
CONTINUOUS
 62
     4
100
AcDbBlockReference
  2
_OPEN
 10
194.4589289221789
 20
139.3737566706842
 30
0.0
 41
3.0
 42
3.0
 43
3.0
  0
INSERT
  5
DDE
330
DB0
100
AcDbEntity
  8
SUNPOU
  6
CONTINUOUS
 62
     4
100
AcDbBlockReference
  2
_OPEN
 10
75.88992892217885
 20
139.3737566706842
 30
0.0
 41
3.0
 42
3.0
 43
3.0
 50
180.0
  0
MTEXT
  5
DDF
330
DB0
100
AcDbEntity
  8
SUNPOU
  6
CONTINUOUS
 62
     4
100
AcDbMText
 10
135.1744289221789
 20
141.8737566706842
 30
0.0
 40
3.0
 41
0.0
 71
     5
 72
     1
  1
\A1;119
1001
ACAD
1000
MTEXTBEGIN
1070
    73
1070
     1
1070
    44
1040
1.0
1070
    74
1070
     0
1000
MTEXTEND
  0
POINT
  5
DE0
330
DB0
100
AcDbEntity
  8
DEFPOINTS
  6
CONTINUOUS
 62
     0
100
AcDbPoint
 10
194.4589289221789
 20
111.4784189112798
 30
0.0
  0
POINT
  5
DE1
330
DB0
100
AcDbEntity
  8
DEFPOINTS
  6
CONTINUOUS
 62
     0
100
AcDbPoint
 10
75.88992892217885
 20
111.47851891128
 30
0.0
  0
POINT
  5
DE2
330
DB0
100
AcDbEntity
  8
DEFPOINTS
  6
CONTINUOUS
 62
     0
100
AcDbPoint
 10
75.88992892217885
 20
139.3737566706842
 30
0.0
  0
ENDBLK
  5
DBB
330
DB0
100
AcDbEntity
  8
0
100
AcDbBlockEnd
  0
BLOCK
  5
DC6
330
DBC
100
AcDbEntity
  8
0
100
AcDbBlockBegin
  2
*D4
 70
     1
 10
0.0
 20
0.0
 30
0.0
  3
*D4
  1

  0
LINE
  5
DE3
330
DBC
100
AcDbEntity
  8
SUNPOU
  6
CONTINUOUS
 62
     4
100
AcDbLine
 10
170.724350432695
 20
56.07832133788576
 30
0.0
 11
170.724350432695
 21
35.25465134038836
 31
0.0
  0
LINE
  5
DE4
330
DBC
100
AcDbEntity
  8
SUNPOU
  6
CONTINUOUS
 62
     4
100
AcDbLine
 10
99.62449664563481
 20
56.07842376396344
 30
0.0
 11
99.62449664563481
 21
35.25465134038836
 31
0.0
  0
LINE
  5
DE5
330
DBC
100
AcDbEntity
  8
SUNPOU
  6
CONTINUOUS
 62
     4
100
AcDbLine
 10
167.724350432695
 20
36.75465134038836
 30
0.0
 11
102.6244966456347
 21
36.75465134038836
 31
0.0
  0
INSERT
  5
DE6
330
DBC
100
AcDbEntity
  8
SUNPOU
  6
CONTINUOUS
 62
     4
100
AcDbBlockReference
  2
_OPEN
 10
170.724350432695
 20
36.75465134038836
 30
0.0
 41
3.0
 42
3.0
 43
3.0
  0
INSERT
  5
DE7
330
DBC
100
AcDbEntity
  8
SUNPOU
  6
CONTINUOUS
 62
     4
100
AcDbBlockReference
  2
_OPEN
 10
99.62449664563481
 20
36.75465134038836
 30
0.0
 41
3.0
 42
3.0
 43
3.0
 50
180.0
  0
MTEXT
  5
DE8
330
DBC
100
AcDbEntity
  8
SUNPOU
  6
CONTINUOUS
 62
     4
100
AcDbMText
 10
135.1744235391649
 20
39.25465134038836
 30
0.0
 40
3.0
 41
0.0
 71
     5
 72
     1
  1
\A1;71
1001
ACAD
1000
MTEXTBEGIN
1070
    73
1070
     1
1070
    44
1040
1.0
1070
    74
1070
     0
1000
MTEXTEND
  0
POINT
  5
DE9
330
DBC
100
AcDbEntity
  8
DEFPOINTS
  6
CONTINUOUS
 62
     0
100
AcDbPoint
 10
170.724350432695
 20
59.07832133788577
 30
0.0
  0
POINT
  5
DEA
330
DBC
100
AcDbEntity
  8
DEFPOINTS
  6
CONTINUOUS
 62
     0
100
AcDbPoint
 10
99.62449664563481
 20
59.07842376396344
 30
0.0
  0
POINT
  5
DEB
330
DBC
100
AcDbEntity
  8
DEFPOINTS
  6
CONTINUOUS
 62
     0
100
AcDbPoint
 10
99.62449664563481
 20
36.75465134038836
 30
0.0
  0
ENDBLK
  5
DC7
330
DBC
100
AcDbEntity
  8
0
100
AcDbBlockEnd
  0
ENDSEC
  0
SECTION
  2
ENTITIES
  0
LINE
  5
66C
330
1A
100
AcDbEntity
  8
ZUWAKU
100
AcDbLine
 10
104.3233009526605
 20
7.599999652471407
 30
0.0
 11
223.7121822931222
 21
7.599999652471403
 31
0.0
  0
LINE
  5
66D
330
1A
100
AcDbEntity
  8
ZUWAKU
100
AcDbLine
 10
104.3233009526605
 20
7.799999652471404
 30
0.0
 11
223.7121822931222
 21
7.799999652471408
 31
0.0
  0
LINE
  5
66E
330
1A
100
AcDbEntity
  8
ZUWAKU
100
AcDbLine
 10
104.3233009526605
 20
7.699999652471404
 30
0.0
 11
223.7121822931222
 21
7.699999652471404
 31
0.0
  0
LINE
  5
66F
330
1A
100
AcDbEntity
  8
ZUWAKU
100
AcDbLine
 10
0.0000003076265784
 20
15.39999965247139
 30
0.0
 11
398.7000003076265
 21
15.39999965247139
 31
0.0
  0
LINE
  5
670
330
1A
100
AcDbEntity
  8
ZUWAKU
100
AcDbLine
 10
0.0000003076265784
 20
15.29999965247139
 30
0.0
 11
398.7000003076265
 21
15.29999965247139
 31
0.0
  0
LINE
  5
671
330
1A
100
AcDbEntity
  8
ZUWAKU
100
AcDbLine
 10
0.0000003076265784
 20
15.19999965247139
 30
0.0
 11
398.7000003076265
 21
15.19999965247139
 31
0.0
  0
LINE
  5
672
330
1A
100
AcDbEntity
  8
ZUWAKU
100
AcDbLine
 10
0.0000003076265784
 20
15.09999965247138
 30
0.0
 11
398.7000003076265
 21
15.09999965247138
 31
0.0
  0
LINE
  5
673
330
1A
100
AcDbEntity
  8
ZUWAKU
100
AcDbLine
 10
0.0000003076265784
 20
14.99999965247138
 30
0.0
 11
398.7000003076265
 21
14.99999965247138
 31
0.0
  0
LWPOLYLINE
  5
674
330
1A
100
AcDbEntity
  8
ZUWAKU
100
AcDbPolyline
 90
        4
 70
     1
 43
0.0
 10
0.1000003076265443
 20
275.6999996524714
 10
0.1000003076265443
 20
0.0999996524714106
 10
398.7000003076265
 20
0.0999996524714222
 10
398.7000003076266
 20
275.6999996524714
  0
LWPOLYLINE
  5
675
330
1A
100
AcDbEntity
  8
ZUWAKU
100
AcDbPolyline
 90
        4
 70
     1
 43
0.0
 10
0.300000307626533
 20
275.4999996524714
 10
0.300000307626533
 20
0.2999996524713992
 10
398.5000003076267
 20
0.2999996524714223
 10
398.5000003076265
 20
275.4999996524714
  0
LWPOLYLINE
  5
676
330
1A
100
AcDbEntity
  8
ZUWAKU
100
AcDbPolyline
 90
        4
 70
     1
 43
0.0
 10
0.0000003076265784
 20
275.7999996524714
 10
0.0000003076265784
 20
-0.0000003475286121
 10
398.8000003076266
 20
-0.0000003475285784
 10
398.8000003076266
 20
275.7999996524714
  0
LWPOLYLINE
  5
677
330
1A
100
AcDbEntity
  8
ZUWAKU
100
AcDbPolyline
 90
        4
 70
     1
 43
0.0
 10
0.2000003076265671
 20
275.5999996524713
 10
0.2000003076265671
 20
0.1999996524714334
 10
398.6000003076266
 20
0.1999996524714218
 10
398.6000003076266
 20
275.5999996524713
  0
LWPOLYLINE
  5
678
330
1A
100
AcDbEntity
  8
ZUWAKU
100
AcDbPolyline
 90
        4
 70
     1
 43
0.0
 10
0.4000003076265557
 20
275.3999996524714
 10
0.4000003076265557
 20
0.399999652471422
 10
398.4000003076265
 20
0.399999652471422
 10
398.4000003076265
 20
275.3999996524714
  0
TEXT
  5
679
330
1A
100
AcDbEntity
  8
MOJI
100
AcDbText
 10
46.47889510171114
 20
6.370588717608768
 30
0.0
 40
3.0
  1
ライナートップ
 41
0.9
  7
ｽﾀｲﾙ1
100
AcDbText
  0
HATCH
  5
67A
330
1A
100
AcDbEntity
  8
ZUWAKU
100
AcDbHatch
 10
0.0
 20
0.0
 30
0.0
210
0.0
220
0.0
230
1.0
  2
ANSI37
 70
     0
 71
     0
 91
        8
 92
        7
 72
     1
 73
     1
 93
       24
 10
7.251131638186507
 20
8.822423892963179
 42
-0.1989123673796348
 10
7.046106385017139
 20
9.317398639793704
 42
0.0
 10
7.046106385017139
 20
9.962499652471393
 42
-0.4142135623730912
 10
7.308606385017128
 20
10.22499965247138
 42
0.0
 10
8.796106385017083
 20
10.22499965247138
 42
0.4142135623731546
 10
9.058606385017128
 20
10.48749965247138
 42
0.0
 10
9.058606385017128
 20
11.36249965247139
 42
0.4142135623731586
 10
8.796106385017083
 20
11.62499965247139
 42
0.0
 10
7.046106385017139
 20
11.62499965247139
 42
0.4142135623730928
 10
5.646106385017162
 20
10.2249996524714
 42
0.0
 10
5.646106385017162
 20
9.317398639793768
 42
0.1989123673796619
 10
6.261182144525378
 20
7.832474399301965
 42
0.0
 10
7.716081131847715
 20
6.377575411979636
 42
-0.1989123673796613
 10
7.921106385017139
 20
5.882600665149043
 42
0.0
 10
7.921106385017139
 20
5.237499652471385
 42
-0.4142135623730911
 10
7.658606385017151
 20
4.974999652471389
 42
0.0
 10
6.171106385017196
 20
4.974999652471389
 42
0.4142135623731526
 10
5.908606385017151
 20
4.712499652471395
 42
0.0
 10
5.908606385017151
 20
3.837499652471384
 42
0.4142135623731526
 10
6.171106385017196
 20
3.57499965247139
 42
0.0
 10
7.921106385017139
 20
3.57499965247139
 42
0.4142135623731044
 10
9.321106385017174
 20
4.974999652471378
 42
0.0
 10
9.321106385017174
 20
5.882600665149015
 42
0.1989123673796604
 10
8.706030625508901
 20
7.367524905640784
 42
0.0
 97
        0
 92
        7
 72
     1
 73
     1
 93
       16
 10
11.77110638501716
 20
9.524999652471393
 42
-0.4142135623730935
 10
12.47110638501715
 20
10.22499965247138
 42
0.0
 10
13.43360638501712
 20
10.22499965247138
 42
0.4142135623731546
 10
13.69610638501717
 20
10.48749965247138
 42
0.0
 10
13.69610638501717
 20
11.36249965247139
 42
0.4142135623730951
 10
13.43360638501718
 20
11.62499965247139
 42
0.0
 10
12.47110638501709
 20
11.62499965247137
 42
0.4142135623730892
 10
10.37110638501712
 20
9.524999652471358
 42
0.0
 10
10.37110638501712
 20
5.674999652471402
 42
0.4142135623730969
 10
12.47110638501715
 20
3.57499965247139
 42
0.0
 10
13.43360638501712
 20
3.57499965247139
 42
0.4142135623731526
 10
13.69610638501717
 20
3.837499652471384
 42
0.0
 10
13.69610638501717
 20
4.712499652471395
 42
0.4142135623730891
 10
13.43360638501718
 20
4.974999652471389
 42
0.0
 10
12.47110638501715
 20
4.974999652471389
 42
-0.4142135623730928
 10
11.77110638501716
 20
5.674999652471383
 42
0.0
 97
        0
 92
        7
 72
     1
 73
     1
 93
        2
 10
12.12110638501712
 20
7.599999652471389
 42
1.0
 10
13.87110638501712
 20
7.599999652471389
 42
1.0
 97
        0
 92
        7
 72
     1
 73
     1
 93
       26
 10
18.65742962610613
 20
9.602523249253103
 42
0.0
 10
19.18824944267504
 20
11.28345266838789
 42
0.5069206636600134
 10
18.93793399307736
 20
11.62499965247139
 42
0.0
 10
18.08848930327275
 20
11.62499965247139
 42
0.3272098845218764
 10
17.83817385367507
 20
11.44154663655487
 42
0.0
 10
16.90403891635918
 20
8.483452668387929
 42
-0.3272098845219541
 10
16.65372346676145
 20
8.299999652471388
 42
0.0
 10
16.58360638501721
 20
8.299999652471388
 42
-0.4142135623731526
 10
16.32110638501717
 20
8.562499652471382
 42
0.0
 10
16.32110638501717
 20
11.36249965247139
 42
0.4142135623730951
 10
16.05860638501718
 20
11.62499965247139
 42
0.0
 10
15.18360638501713
 20
11.62499965247139
 42
0.4142135623730871
 10
14.92110638501713
 20
11.3624996524714
 42
0.0
 10
14.92110638501713
 20
3.837499652471384
 42
0.4142135623730891
 10
15.18360638501713
 20
3.57499965247139
 42
0.0
 10
16.05860638501712
 20
3.57499965247139
 42
0.4142135623731526
 10
16.32110638501717
 20
3.837499652471384
 42
0.0
 10
16.32110638501717
 20
6.637499652471396
 42
-0.4142135623731526
 10
16.58360638501721
 20
6.89999965247139
 42
0.0
 10
16.6537234667615
 20
6.89999965247139
 42
-0.3272098845218915
 10
16.90403891635918
 20
6.716546636554852
 42
0.0
 10
17.83817385367507
 20
3.758452668387926
 42
0.3272098845218902
 10
18.08848930327275
 20
3.57499965247139
 42
0.0
 10
18.93793399307736
 20
3.57499965247139
 42
0.5069206636600335
 10
19.18824944267504
 20
3.916546636554894
 42
0.0
 10
18.02505375343821
 20
7.599999652471458
 42
0.0
 97
        0
 92
        7
 72
     1
 73
     1
 93
        8
 10
21.74610638501712
 20
11.36249965247139
 42
0.4142135623731546
 10
21.48360638501708
 20
11.62499965247139
 42
0.0
 10
20.60860638501719
 20
11.62499965247139
 42
0.4142135623731507
 10
20.34610638501715
 20
11.3624996524714
 42
0.0
 10
20.34610638501715
 20
3.837499652471384
 42
0.4142135623731526
 10
20.60860638501719
 20
3.57499965247139
 42
0.0
 10
21.48360638501708
 20
3.57499965247139
 42
0.4142135623731526
 10
21.74610638501712
 20
3.837499652471384
 42
0.0
 97
        0
 92
        7
 72
     1
 73
     1
 93
       24
 10
24.19610638501717
 20
9.962499652471393
 42
-0.4142135623731546
 10
24.45860638501722
 20
10.22499965247138
 42
0.0
 10
25.94610638501717
 20
10.22499965247138
 42
0.4142135623730911
 10
26.20860638501716
 20
10.48749965247138
 42
0.0
 10
26.20860638501716
 20
11.36249965247139
 42
0.4142135623730952
 10
25.94610638501717
 20
11.62499965247139
 42
0.0
 10
24.19610638501717
 20
11.62499965247139
 42
0.4142135623731048
 10
22.79610638501714
 20
10.2249996524714
 42
0.0
 10
22.79610638501714
 20
9.317398639793768
 42
0.1989123673796613
 10
23.41118214452541
 20
7.832474399301993
 42
0.0
 10
24.86608113184775
 20
6.377575411979659
 42
-0.1989123673796402
 10
25.07110638501717
 20
5.882600665149123
 42
0.0
 10
25.07110638501717
 20
5.237499652471385
 42
-0.4142135623730911
 10
24.80860638501718
 20
4.974999652471389
 42
0.0
 10
23.32110638501717
 20
4.974999652471389
 42
0.4142135623731526
 10
23.05860638501712
 20
4.712499652471395
 42
0.0
 10
23.05860638501712
 20
3.837499652471384
 42
0.4142135623730891
 10
23.32110638501711
 20
3.57499965247139
 42
0.0
 10
25.07110638501717
 20
3.57499965247139
 42
0.4142135623730925
 10
26.47110638501715
 20
4.974999652471378
 42
0.0
 10
26.47110638501715
 20
5.882600665149015
 42
0.1989123673796675
 10
25.85603062550887
 20
7.367524905640841
 42
0.0
 10
24.4011316381866
 20
8.822423892963099
 42
-0.1989123673796652
 10
24.19610638501717
 20
9.317398639793683
 42
0.0
 97
        0
 92
        7
 72
     1
 73
     1
 93
       16
 10
28.92110638501714
 20
11.36249965247138
 42
0.414213562373103
 10
28.65860638501715
 20
11.62499965247139
 42
0.0
 10
27.78360638501715
 20
11.62499965247139
 42
0.4142135623730871
 10
27.52110638501716
 20
11.3624996524714
 42
0.0
 10
27.52110638501716
 20
4.974999652471378
 42
0.4142135623730926
 10
28.92110638501714
 20
3.57499965247139
 42
0.0
 10
30.67110638501714
 20
3.57499965247139
 42
0.4142135623731044
 10
32.07110638501717
 20
4.974999652471378
 42
0.0
 10
32.07110638501717
 20
11.36249965247139
 42
0.4142135623730951
 10
31.80860638501718
 20
11.62499965247139
 42
0.0
 10
30.93360638501712
 20
11.62499965247139
 42
0.4142135623730871
 10
30.67110638501714
 20
11.3624996524714
 42
0.0
 10
30.67110638501714
 20
5.499999652471377
 42
-0.414213562373088
 10
30.14610638501716
 20
4.974999652471389
 42
0.0
 10
29.44610638501717
 20
4.974999652471389
 42
-0.4142135623731197
 10
28.92110638501714
 20
5.499999652471377
 42
0.0
 97
        0
 92
        7
 72
     1
 73
     1
 93
        8
 10
34.52110638501716
 20
11.3624996524714
 42
0.4142135623730871
 10
34.25860638501717
 20
11.62499965247139
 42
0.0
 10
33.38360638501717
 20
11.62499965247139
 42
0.4142135623731507
 10
33.12110638501712
 20
11.3624996524714
 42
0.0
 10
33.12110638501712
 20
3.837499652471384
 42
0.4142135623730891
 10
33.38360638501711
 20
3.57499965247139
 42
0.0
 10
34.25860638501717
 20
3.57499965247139
 42
0.4142135623730891
 10
34.52110638501716
 20
3.837499652471384
 42
0.0
 97
        0
 75
     0
 76
     1
 52
0.0
 41
0.1
 77
     0
 78
     2
 53
45.0
 43
-450.4711518597129
 44
-6.600000347528578
 45
-0.2245064030267288
 46
0.2245064030267288
 79
     0
 53
135.0
 43
-450.4711518597129
 44
-6.600000347528578
 45
-0.2245064030267288
 46
-0.2245064030267288
 79
     0
 47
0.057451373970553
 98
        8
 10
8.039927789138232
 20
7.583586475414165
 10
11.20225781084616
 20
9.422030743696893
 10
12.5821842504564
 20
7.755940475506747
 10
15.45703029844514
 20
8.100648475692139
 10
20.91923631710494
 20
8.330454609462947
 10
23.44910075519135
 20
9.709287810674993
 10
28.27884329382675
 20
9.364578610018895
 10
33.91354011743795
 20
9.594384743789703
  0
LINE
  5
67B
330
1A
100
AcDbEntity
  8
ZUWAKU
100
AcDbLine
 10
12.47110638501715
 20
11.62499965247137
 30
0.0
 11
13.43360638501712
 21
11.62499965247139
 31
0.0
  0
LINE
  5
67C
330
1A
100
AcDbEntity
  8
ZUWAKU
100
AcDbLine
 10
13.43360638501712
 20
10.22499965247138
 30
0.0
 11
12.47110638501715
 21
10.22499965247138
 31
0.0
  0
LINE
  5
67D
330
1A
100
AcDbEntity
  8
ZUWAKU
100
AcDbLine
 10
12.47110638501715
 20
4.974999652471389
 30
0.0
 11
13.43360638501712
 21
4.974999652471389
 31
0.0
  0
LINE
  5
67E
330
1A
100
AcDbEntity
  8
ZUWAKU
100
AcDbLine
 10
13.43360638501712
 20
3.57499965247139
 30
0.0
 11
12.47110638501715
 21
3.57499965247139
 31
0.0
  0
CIRCLE
  5
67F
330
1A
100
AcDbEntity
  8
ZUWAKU
100
AcDbCircle
 10
12.99610638501712
 20
7.599999652471389
 30
0.0
 40
0.875
  0
ARC
  5
680
330
1A
100
AcDbEntity
  8
ZUWAKU
100
AcDbCircle
 10
7.746106385017128
 20
9.31739863979374
 30
0.0
 40
0.7
100
AcDbArc
 50
180.0000000000016
 51
224.9999999999988
  0
LINE
  5
681
330
1A
100
AcDbEntity
  8
ZUWAKU
100
AcDbLine
 10
11.77110638501716
 20
9.52499965247139
 30
0.0
 11
11.77110638501716
 21
5.674999652471392
 31
0.0
  0
LINE
  5
682
330
1A
100
AcDbEntity
  8
ZUWAKU
100
AcDbLine
 10
10.37110638501712
 20
5.674999652471392
 30
0.0
 11
10.37110638501712
 21
9.524999652471368
 31
0.0
  0
ARC
  5
683
330
1A
100
AcDbEntity
  8
ZUWAKU
100
AcDbCircle
 10
7.746106385017128
 20
9.31739863979374
 30
0.0
 40
2.099999999999999
100
AcDbArc
 50
180.0
 51
225.0
  0
ARC
  5
684
330
1A
100
AcDbEntity
  8
ZUWAKU
100
AcDbCircle
 10
7.921106385017139
 20
4.974999652471389
 30
0.0
 40
1.399999999999999
100
AcDbArc
 50
270.0
 51
0.0
  0
ARC
  5
685
330
1A
100
AcDbEntity
  8
ZUWAKU
100
AcDbCircle
 10
12.47110638501715
 20
5.674999652471392
 30
0.0
 40
2.099999999999999
100
AcDbArc
 50
180.0
 51
270.0
  0
ARC
  5
686
330
1A
100
AcDbEntity
  8
ZUWAKU
100
AcDbCircle
 10
7.221106385017151
 20
5.882600665149041
 30
0.0
 40
2.099999999999999
100
AcDbArc
 50
0.0
 51
45.0
  0
LINE
  5
687
330
1A
100
AcDbEntity
  8
ZUWAKU
100
AcDbLine
 10
8.706030625508901
 20
7.367524905640802
 30
0.0
 11
7.251131638186564
 21
8.82242389296314
 31
0.0
  0
LINE
  5
688
330
1A
100
AcDbEntity
  8
ZUWAKU
100
AcDbLine
 10
7.921106385017139
 20
5.237499652471392
 30
0.0
 11
7.921106385017139
 21
5.882600665149062
 31
0.0
  0
ARC
  5
689
330
1A
100
AcDbEntity
  8
ZUWAKU
100
AcDbCircle
 10
7.658606385017151
 20
5.237499652471392
 30
0.0
 40
0.2625
100
AcDbArc
 50
270.0
 51
0.0
  0
ARC
  5
68A
330
1A
100
AcDbEntity
  8
ZUWAKU
100
AcDbCircle
 10
7.221106385017151
 20
5.882600665149062
 30
0.0
 40
0.7
100
AcDbArc
 50
0.0
 51
45.0
  0
LINE
  5
68B
330
1A
100
AcDbEntity
  8
ZUWAKU
100
AcDbLine
 10
5.908606385017151
 20
3.83749965247139
 30
0.0
 11
5.908606385017151
 21
4.71249965247139
 31
0.0
  0
ARC
  5
68C
330
1A
100
AcDbEntity
  8
ZUWAKU
100
AcDbCircle
 10
6.171106385017139
 20
3.83749965247139
 30
0.0
 40
0.2625
100
AcDbArc
 50
180.0
 51
270.0
  0
ARC
  5
68D
330
1A
100
AcDbEntity
  8
ZUWAKU
100
AcDbCircle
 10
6.171106385017139
 20
4.71249965247139
 30
0.0
 40
0.2625
100
AcDbArc
 50
90.0
 51
180.0
  0
LINE
  5
68E
330
1A
100
AcDbEntity
  8
ZUWAKU
100
AcDbLine
 10
6.171106385017139
 20
3.57499965247139
 30
0.0
 11
7.921106385017139
 21
3.57499965247139
 31
0.0
  0
LINE
  5
68F
330
1A
100
AcDbEntity
  8
ZUWAKU
100
AcDbLine
 10
6.171106385017139
 20
4.974999652471389
 30
0.0
 11
7.658606385017151
 21
4.974999652471389
 31
0.0
  0
LINE
  5
690
330
1A
100
AcDbEntity
  8
ZUWAKU
100
AcDbLine
 10
6.261182144525378
 20
7.832474399301979
 30
0.0
 11
7.716081131847715
 21
6.377575411979648
 31
0.0
  0
LINE
  5
691
330
1A
100
AcDbEntity
  8
ZUWAKU
100
AcDbLine
 10
9.321106385017174
 20
4.974999652471389
 30
0.0
 11
9.321106385017174
 21
5.882600665149062
 31
0.0
  0
ARC
  5
692
330
1A
100
AcDbEntity
  8
ZUWAKU
100
AcDbCircle
 10
12.47110638501715
 20
5.674999652471392
 30
0.0
 40
0.7
100
AcDbArc
 50
180.0
 51
270.0
  0
ARC
  5
693
330
1A
100
AcDbEntity
  8
ZUWAKU
100
AcDbCircle
 10
8.796106385017139
 20
11.36249965247138
 30
0.0
 40
0.2625
100
AcDbArc
 50
0.0
 51
90.0
  0
ARC
  5
694
330
1A
100
AcDbEntity
  8
ZUWAKU
100
AcDbCircle
 10
8.796106385017139
 20
10.48749965247138
 30
0.0
 40
0.2625
100
AcDbArc
 50
270.0
 51
0.0
  0
LINE
  5
695
330
1A
100
AcDbEntity
  8
ZUWAKU
100
AcDbLine
 10
7.046106385017139
 20
11.62499965247139
 30
0.0
 11
8.796106385017139
 21
11.62499965247139
 31
0.0
  0
ARC
  5
696
330
1A
100
AcDbEntity
  8
ZUWAKU
100
AcDbCircle
 10
7.308606385017128
 20
9.96249965247139
 30
0.0
 40
0.2625
100
AcDbArc
 50
90.0
 51
180.0
  0
LINE
  5
697
330
1A
100
AcDbEntity
  8
ZUWAKU
100
AcDbLine
 10
7.046106385017139
 20
9.96249965247139
 30
0.0
 11
7.046106385017139
 21
9.317398639793719
 31
0.0
  0
LINE
  5
698
330
1A
100
AcDbEntity
  8
ZUWAKU
100
AcDbLine
 10
8.796106385017139
 20
10.22499965247138
 30
0.0
 11
7.308606385017128
 21
10.22499965247138
 31
0.0
  0
LINE
  5
699
330
1A
100
AcDbEntity
  8
ZUWAKU
100
AcDbLine
 10
5.646106385017162
 20
10.22499965247138
 30
0.0
 11
5.646106385017162
 21
9.317398639793719
 31
0.0
  0
ARC
  5
69A
330
1A
100
AcDbEntity
  8
ZUWAKU
100
AcDbCircle
 10
7.046106385017139
 20
10.22499965247138
 30
0.0
 40
1.399999999999999
100
AcDbArc
 50
90.0
 51
180.0
  0
LINE
  5
69B
330
1A
100
AcDbEntity
  8
ZUWAKU
100
AcDbLine
 10
9.058606385017128
 20
11.36249965247138
 30
0.0
 11
9.058606385017128
 21
10.48749965247138
 31
0.0
  0
ARC
  5
69C
330
1A
100
AcDbEntity
  8
ZUWAKU
100
AcDbCircle
 10
12.47110638501715
 20
9.52499965247139
 30
0.0
 40
0.7
100
AcDbArc
 50
90.0
 51
180.0
  0
ARC
  5
69D
330
1A
100
AcDbEntity
  8
ZUWAKU
100
AcDbCircle
 10
12.47110638501715
 20
9.524999652471368
 30
0.0
 40
2.099999999999999
100
AcDbArc
 50
90.0
 51
180.0
  0
LINE
  5
69E
330
1A
100
AcDbEntity
  8
ZUWAKU
100
AcDbLine
 10
39.66331508162068
 20
14.99999965247138
 30
0.0
 11
39.66331508162079
 21
0.399999652471422
 31
0.0
  0
LINE
  5
69F
330
1A
100
AcDbEntity
  8
ZUWAKU
100
AcDbLine
 10
39.7633150816207
 20
14.99999965247138
 30
0.0
 11
39.76331508162081
 21
0.399999652471422
 31
0.0
  0
LINE
  5
6A0
330
1A
100
AcDbEntity
  8
ZUWAKU
100
AcDbLine
 10
39.56331508162077
 20
14.99999965247138
 30
0.0
 11
39.56331508162077
 21
0.399999652471422
 31
0.0
  0
LINE
  5
6A1
330
1A
100
AcDbEntity
  8
ZUWAKU
100
AcDbLine
 10
32.07110638501717
 20
4.974999652471389
 30
0.0
 11
32.07110638501717
 21
11.36249965247138
 31
0.0
  0
LINE
  5
6A2
330
1A
100
AcDbEntity
  8
ZUWAKU
100
AcDbLine
 10
30.67110638501714
 20
11.36249965247138
 30
0.0
 11
30.67110638501714
 21
5.499999652471387
 31
0.0
  0
LINE
  5
6A3
330
1A
100
AcDbEntity
  8
ZUWAKU
100
AcDbLine
 10
34.52110638501716
 20
3.83749965247139
 30
0.0
 11
34.52110638501716
 21
11.36249965247138
 31
0.0
  0
LINE
  5
6A4
330
1A
100
AcDbEntity
  8
ZUWAKU
100
AcDbLine
 10
33.12110638501712
 20
11.36249965247138
 30
0.0
 11
33.12110638501712
 21
3.83749965247139
 31
0.0
  0
ARC
  5
6A5
330
1A
100
AcDbEntity
  8
ZUWAKU
100
AcDbCircle
 10
24.89610638501716
 20
9.31739863979374
 30
0.0
 40
0.7
100
AcDbArc
 50
180.0000000000016
 51
224.9999999999988
  0
ARC
  5
6A6
330
1A
100
AcDbEntity
  8
ZUWAKU
100
AcDbCircle
 10
24.89610638501716
 20
9.31739863979374
 30
0.0
 40
2.099999999999999
100
AcDbArc
 50
180.0
 51
225.0
  0
LINE
  5
6A7
330
1A
100
AcDbEntity
  8
ZUWAKU
100
AcDbLine
 10
18.65742962610613
 20
9.602523249253103
 30
0.0
 11
18.02505375343821
 21
7.599999652471399
 31
0.0
  0
LINE
  5
6A8
330
1A
100
AcDbEntity
  8
ZUWAKU
100
AcDbLine
 10
20.34610638501715
 20
11.36249965247138
 30
0.0
 11
20.34610638501715
 21
3.83749965247139
 31
0.0
  0
LINE
  5
6A9
330
1A
100
AcDbEntity
  8
ZUWAKU
100
AcDbLine
 10
21.74610638501712
 20
3.83749965247139
 30
0.0
 11
21.74610638501712
 21
11.36249965247138
 31
0.0
  0
LINE
  5
6AA
330
1A
100
AcDbEntity
  8
ZUWAKU
100
AcDbLine
 10
27.52110638501716
 20
11.36249965247138
 30
0.0
 11
27.52110638501716
 21
4.974999652471389
 31
0.0
  0
LINE
  5
6AB
330
1A
100
AcDbEntity
  8
ZUWAKU
100
AcDbLine
 10
28.92110638501714
 20
5.499999652471387
 30
0.0
 11
28.92110638501714
 21
11.36249965247138
 31
0.0
  0
LINE
  5
6AC
330
1A
100
AcDbEntity
  8
ZUWAKU
100
AcDbLine
 10
16.32110638501717
 20
8.562499652471391
 30
0.0
 11
16.32110638501717
 21
11.36249965247138
 31
0.0
  0
LINE
  5
6AD
330
1A
100
AcDbEntity
  8
ZUWAKU
100
AcDbLine
 10
14.92110638501713
 20
11.36249965247138
 30
0.0
 11
14.92110638501713
 21
3.83749965247139
 31
0.0
  0
LINE
  5
6AE
330
1A
100
AcDbEntity
  8
ZUWAKU
100
AcDbLine
 10
17.83817385367507
 20
11.44154663655487
 30
0.0
 11
16.90403891635918
 21
8.483452668387904
 31
0.0
  0
LINE
  5
6AF
330
1A
100
AcDbEntity
  8
ZUWAKU
100
AcDbLine
 10
30.14610638501716
 20
4.974999652471389
 30
0.0
 11
29.44610638501717
 21
4.974999652471389
 31
0.0
  0
LINE
  5
6B0
330
1A
100
AcDbEntity
  8
ZUWAKU
100
AcDbLine
 10
28.92110638501714
 20
3.57499965247139
 30
0.0
 11
30.67110638501714
 21
3.57499965247139
 31
0.0
  0
LINE
  5
6B1
330
1A
100
AcDbEntity
  8
ZUWAKU
100
AcDbLine
 10
20.60860638501714
 20
3.57499965247139
 30
0.0
 11
21.48360638501713
 21
3.57499965247139
 31
0.0
  0
LINE
  5
6B2
330
1A
100
AcDbEntity
  8
ZUWAKU
100
AcDbLine
 10
17.83817385367507
 20
3.758452668387903
 30
0.0
 11
16.90403891635918
 21
6.716546636554873
 31
0.0
  0
ARC
  5
6B3
330
1A
100
AcDbEntity
  8
ZUWAKU
100
AcDbCircle
 10
16.6537234667615
 20
8.562499652471391
 30
0.0
 40
0.2625
100
AcDbArc
 50
270.0
 51
342.4744316262769
  0
LINE
  5
6B4
330
1A
100
AcDbEntity
  8
ZUWAKU
100
AcDbLine
 10
16.6537234667615
 20
8.299999652471388
 30
0.0
 11
16.58360638501716
 21
8.299999652471388
 31
0.0
  0
LINE
  5
6B5
330
1A
100
AcDbEntity
  8
ZUWAKU
100
AcDbLine
 10
16.58360638501716
 20
6.89999965247139
 30
0.0
 11
16.6537234667615
 21
6.89999965247139
 31
0.0
  0
ARC
  5
6B6
330
1A
100
AcDbEntity
  8
ZUWAKU
100
AcDbCircle
 10
16.58360638501716
 20
8.562499652471391
 30
0.0
 40
0.2625
100
AcDbArc
 50
180.0
 51
270.0
  0
LINE
  5
6B7
330
1A
100
AcDbEntity
  8
ZUWAKU
100
AcDbLine
 10
15.18360638501713
 20
3.57499965247139
 30
0.0
 11
16.05860638501712
 21
3.57499965247139
 31
0.0
  0
ARC
  5
6B8
330
1A
100
AcDbEntity
  8
ZUWAKU
100
AcDbCircle
 10
16.05860638501712
 20
3.83749965247139
 30
0.0
 40
0.2625
100
AcDbArc
 50
270.0
 51
0.0
  0
LINE
  5
6B9
330
1A
100
AcDbEntity
  8
ZUWAKU
100
AcDbLine
 10
16.32110638501717
 20
3.83749965247139
 30
0.0
 11
16.32110638501717
 21
6.63749965247139
 31
0.0
  0
LINE
  5
6BA
330
1A
100
AcDbEntity
  8
ZUWAKU
100
AcDbLine
 10
13.69610638501717
 20
4.71249965247139
 30
0.0
 11
13.69610638501717
 21
3.83749965247139
 31
0.0
  0
ARC
  5
6BB
330
1A
100
AcDbEntity
  8
ZUWAKU
100
AcDbCircle
 10
13.43360638501712
 20
3.83749965247139
 30
0.0
 40
0.2625
100
AcDbArc
 50
270.0
 51
0.0
  0
ARC
  5
6BC
330
1A
100
AcDbEntity
  8
ZUWAKU
100
AcDbCircle
 10
13.43360638501712
 20
4.71249965247139
 30
0.0
 40
0.2625
100
AcDbArc
 50
0.0
 51
90.0
  0
ARC
  5
6BD
330
1A
100
AcDbEntity
  8
ZUWAKU
100
AcDbCircle
 10
15.18360638501713
 20
3.83749965247139
 30
0.0
 40
0.2625
100
AcDbArc
 50
180.0
 51
270.0
  0
ARC
  5
6BE
330
1A
100
AcDbEntity
  8
ZUWAKU
100
AcDbCircle
 10
16.6537234667615
 20
6.63749965247139
 30
0.0
 40
0.2625
100
AcDbArc
 50
17.52556837372303
 51
90.0
  0
ARC
  5
6BF
330
1A
100
AcDbEntity
  8
ZUWAKU
100
AcDbCircle
 10
16.58360638501716
 20
6.63749965247139
 30
0.0
 40
0.2625
100
AcDbArc
 50
90.0
 51
180.0
  0
ARC
  5
6C0
330
1A
100
AcDbEntity
  8
ZUWAKU
100
AcDbCircle
 10
20.60860638501714
 20
3.83749965247139
 30
0.0
 40
0.2625
100
AcDbArc
 50
180.0
 51
270.0
  0
LINE
  5
6C1
330
1A
100
AcDbEntity
  8
ZUWAKU
100
AcDbLine
 10
18.08848930327281
 20
3.57499965247139
 30
0.0
 11
18.9379339930773
 21
3.57499965247139
 31
0.0
  0
ARC
  5
6C2
330
1A
100
AcDbEntity
  8
ZUWAKU
100
AcDbCircle
 10
18.9379339930773
 20
3.83749965247139
 30
0.0
 40
0.2625
100
AcDbArc
 50
270.0
 51
17.52556837372303
  0
LINE
  5
6C3
330
1A
100
AcDbEntity
  8
ZUWAKU
100
AcDbLine
 10
19.18824944267504
 20
3.916546636554876
 30
0.0
 11
18.02505375343821
 21
7.599999652471399
 31
0.0
  0
ARC
  5
6C4
330
1A
100
AcDbEntity
  8
ZUWAKU
100
AcDbCircle
 10
18.08848930327281
 20
3.83749965247139
 30
0.0
 40
0.2625
100
AcDbArc
 50
197.525568373723
 51
270.0
  0
ARC
  5
6C5
330
1A
100
AcDbEntity
  8
ZUWAKU
100
AcDbCircle
 10
28.92110638501714
 20
4.974999652471389
 30
0.0
 40
1.399999999999999
100
AcDbArc
 50
180.0
 51
270.0
  0
ARC
  5
6C6
330
1A
100
AcDbEntity
  8
ZUWAKU
100
AcDbCircle
 10
25.07110638501717
 20
4.974999652471389
 30
0.0
 40
1.399999999999999
100
AcDbArc
 50
270.0
 51
0.0
  0
LINE
  5
6C7
330
1A
100
AcDbEntity
  8
ZUWAKU
100
AcDbLine
 10
25.85603062550893
 20
7.367524905640802
 30
0.0
 11
24.40113163818654
 21
8.82242389296314
 31
0.0
  0
LINE
  5
6C8
330
1A
100
AcDbEntity
  8
ZUWAKU
100
AcDbLine
 10
25.07110638501717
 20
5.237499652471392
 30
0.0
 11
25.07110638501717
 21
5.882600665149062
 31
0.0
  0
ARC
  5
6C9
330
1A
100
AcDbEntity
  8
ZUWAKU
100
AcDbCircle
 10
24.37110638501712
 20
5.882600665149062
 30
0.0
 40
0.7
100
AcDbArc
 50
0.0
 51
45.0
  0
ARC
  5
6CA
330
1A
100
AcDbEntity
  8
ZUWAKU
100
AcDbCircle
 10
24.80860638501713
 20
5.237499652471392
 30
0.0
 40
0.2625
100
AcDbArc
 50
270.0
 51
0.0
  0
LINE
  5
6CB
330
1A
100
AcDbEntity
  8
ZUWAKU
100
AcDbLine
 10
23.05860638501712
 20
3.83749965247139
 30
0.0
 11
23.05860638501712
 21
4.71249965247139
 31
0.0
  0
ARC
  5
6CC
330
1A
100
AcDbEntity
  8
ZUWAKU
100
AcDbCircle
 10
23.32110638501717
 20
3.83749965247139
 30
0.0
 40
0.2625
100
AcDbArc
 50
180.0
 51
270.0
  0
ARC
  5
6CD
330
1A
100
AcDbEntity
  8
ZUWAKU
100
AcDbCircle
 10
21.48360638501713
 20
3.83749965247139
 30
0.0
 40
0.2625
100
AcDbArc
 50
270.0
 51
0.0
  0
ARC
  5
6CE
330
1A
100
AcDbEntity
  8
ZUWAKU
100
AcDbCircle
 10
23.32110638501717
 20
4.71249965247139
 30
0.0
 40
0.2625
100
AcDbArc
 50
90.0
 51
180.0
  0
LINE
  5
6CF
330
1A
100
AcDbEntity
  8
ZUWAKU
100
AcDbLine
 10
23.32110638501717
 20
4.974999652471389
 30
0.0
 11
24.80860638501713
 21
4.974999652471389
 31
0.0
  0
LINE
  5
6D0
330
1A
100
AcDbEntity
  8
ZUWAKU
100
AcDbLine
 10
23.32110638501717
 20
3.57499965247139
 30
0.0
 11
25.07110638501717
 21
3.57499965247139
 31
0.0
  0
LINE
  5
6D1
330
1A
100
AcDbEntity
  8
ZUWAKU
100
AcDbLine
 10
23.41118214452541
 20
7.832474399301979
 30
0.0
 11
24.86608113184775
 21
6.377575411979648
 31
0.0
  0
LINE
  5
6D2
330
1A
100
AcDbEntity
  8
ZUWAKU
100
AcDbLine
 10
26.47110638501715
 20
4.974999652471389
 30
0.0
 11
26.47110638501715
 21
5.882600665149062
 31
0.0
  0
ARC
  5
6D3
330
1A
100
AcDbEntity
  8
ZUWAKU
100
AcDbCircle
 10
24.37110638501712
 20
5.882600665149041
 30
0.0
 40
2.099999999999999
100
AcDbArc
 50
0.0
 51
45.0
  0
ARC
  5
6D4
330
1A
100
AcDbEntity
  8
ZUWAKU
100
AcDbCircle
 10
29.44610638501717
 20
5.499999652471387
 30
0.0
 40
0.525
100
AcDbArc
 50
180.0
 51
270.0
  0
ARC
  5
6D5
330
1A
100
AcDbEntity
  8
ZUWAKU
100
AcDbCircle
 10
30.67110638501714
 20
4.974999652471389
 30
0.0
 40
1.399999999999999
100
AcDbArc
 50
270.0
 51
0.0
  0
LINE
  5
6D6
330
1A
100
AcDbEntity
  8
ZUWAKU
100
AcDbLine
 10
33.38360638501717
 20
3.57499965247139
 30
0.0
 11
34.25860638501717
 21
3.57499965247139
 31
0.0
  0
ARC
  5
6D7
330
1A
100
AcDbEntity
  8
ZUWAKU
100
AcDbCircle
 10
33.38360638501717
 20
3.83749965247139
 30
0.0
 40
0.2625
100
AcDbArc
 50
180.0
 51
270.0
  0
ARC
  5
6D8
330
1A
100
AcDbEntity
  8
ZUWAKU
100
AcDbCircle
 10
30.14610638501716
 20
5.499999652471387
 30
0.0
 40
0.525
100
AcDbArc
 50
270.0
 51
0.0
  0
ARC
  5
6D9
330
1A
100
AcDbEntity
  8
ZUWAKU
100
AcDbCircle
 10
34.25860638501717
 20
3.83749965247139
 30
0.0
 40
0.2625
100
AcDbArc
 50
270.0
 51
0.0
  0
LINE
  5
6DA
330
1A
100
AcDbEntity
  8
ZUWAKU
100
AcDbLine
 10
21.48360638501713
 20
11.62499965247139
 30
0.0
 11
20.60860638501714
 21
11.62499965247139
 31
0.0
  0
ARC
  5
6DB
330
1A
100
AcDbEntity
  8
ZUWAKU
100
AcDbCircle
 10
16.05860638501712
 20
11.36249965247138
 30
0.0
 40
0.2625
100
AcDbArc
 50
0.0
 51
90.0
  0
LINE
  5
6DC
330
1A
100
AcDbEntity
  8
ZUWAKU
100
AcDbLine
 10
16.05860638501712
 20
11.62499965247139
 30
0.0
 11
15.18360638501713
 21
11.62499965247139
 31
0.0
  0
ARC
  5
6DD
330
1A
100
AcDbEntity
  8
ZUWAKU
100
AcDbCircle
 10
13.43360638501712
 20
11.36249965247138
 30
0.0
 40
0.2625
100
AcDbArc
 50
0.0
 51
90.0
  0
ARC
  5
6DE
330
1A
100
AcDbEntity
  8
ZUWAKU
100
AcDbCircle
 10
15.18360638501713
 20
11.36249965247138
 30
0.0
 40
0.2625
100
AcDbArc
 50
90.0
 51
180.0
  0
ARC
  5
6DF
330
1A
100
AcDbEntity
  8
ZUWAKU
100
AcDbCircle
 10
13.43360638501712
 20
10.48749965247138
 30
0.0
 40
0.2625
100
AcDbArc
 50
270.0
 51
0.0
  0
LINE
  5
6E0
330
1A
100
AcDbEntity
  8
ZUWAKU
100
AcDbLine
 10
13.69610638501717
 20
11.36249965247138
 30
0.0
 11
13.69610638501717
 21
10.48749965247138
 31
0.0
  0
ARC
  5
6E1
330
1A
100
AcDbEntity
  8
ZUWAKU
100
AcDbCircle
 10
20.60860638501714
 20
11.36249965247138
 30
0.0
 40
0.2625
100
AcDbArc
 50
90.0
 51
180.0
  0
LINE
  5
6E2
330
1A
100
AcDbEntity
  8
ZUWAKU
100
AcDbLine
 10
18.08848930327281
 20
11.62499965247139
 30
0.0
 11
18.9379339930773
 21
11.62499965247139
 31
0.0
  0
ARC
  5
6E3
330
1A
100
AcDbEntity
  8
ZUWAKU
100
AcDbCircle
 10
18.9379339930773
 20
11.36249965247138
 30
0.0
 40
0.2625
100
AcDbArc
 50
342.4744316262769
 51
90.0
  0
LINE
  5
6E4
330
1A
100
AcDbEntity
  8
ZUWAKU
100
AcDbLine
 10
19.18824944267504
 20
11.2834526683879
 30
0.0
 11
18.65742962610613
 21
9.602523249253103
 31
0.0
  0
ARC
  5
6E5
330
1A
100
AcDbEntity
  8
ZUWAKU
100
AcDbCircle
 10
18.08848930327281
 20
11.36249965247138
 30
0.0
 40
0.2625
100
AcDbArc
 50
90.0
 51
162.4744316262769
  0
LINE
  5
6E6
330
1A
100
AcDbEntity
  8
ZUWAKU
100
AcDbLine
 10
24.19610638501717
 20
11.62499965247139
 30
0.0
 11
25.94610638501717
 21
11.62499965247139
 31
0.0
  0
LINE
  5
6E7
330
1A
100
AcDbEntity
  8
ZUWAKU
100
AcDbLine
 10
25.94610638501717
 20
10.22499965247138
 30
0.0
 11
24.45860638501716
 21
10.22499965247138
 31
0.0
  0
ARC
  5
6E8
330
1A
100
AcDbEntity
  8
ZUWAKU
100
AcDbCircle
 10
24.45860638501716
 20
9.96249965247139
 30
0.0
 40
0.2625
100
AcDbArc
 50
90.0
 51
180.0
  0
LINE
  5
6E9
330
1A
100
AcDbEntity
  8
ZUWAKU
100
AcDbLine
 10
24.19610638501717
 20
9.96249965247139
 30
0.0
 11
24.19610638501717
 21
9.317398639793719
 31
0.0
  0
ARC
  5
6EA
330
1A
100
AcDbEntity
  8
ZUWAKU
100
AcDbCircle
 10
21.48360638501713
 20
11.36249965247138
 30
0.0
 40
0.2625
100
AcDbArc
 50
0.0
 51
90.0
  0
LINE
  5
6EB
330
1A
100
AcDbEntity
  8
ZUWAKU
100
AcDbLine
 10
22.79610638501714
 20
10.22499965247138
 30
0.0
 11
22.79610638501714
 21
9.317398639793719
 31
0.0
  0
ARC
  5
6EC
330
1A
100
AcDbEntity
  8
ZUWAKU
100
AcDbCircle
 10
24.19610638501717
 20
10.22499965247138
 30
0.0
 40
1.399999999999999
100
AcDbArc
 50
90.0
 51
180.0
  0
ARC
  5
6ED
330
1A
100
AcDbEntity
  8
ZUWAKU
100
AcDbCircle
 10
28.65860638501715
 20
11.36249965247138
 30
0.0
 40
0.2625
100
AcDbArc
 50
0.0
 51
90.0
  0
ARC
  5
6EE
330
1A
100
AcDbEntity
  8
ZUWAKU
100
AcDbCircle
 10
27.78360638501715
 20
11.36249965247138
 30
0.0
 40
0.2625
100
AcDbArc
 50
90.0
 51
180.0
  0
LINE
  5
6EF
330
1A
100
AcDbEntity
  8
ZUWAKU
100
AcDbLine
 10
28.65860638501715
 20
11.62499965247139
 30
0.0
 11
27.78360638501715
 21
11.62499965247139
 31
0.0
  0
ARC
  5
6F0
330
1A
100
AcDbEntity
  8
ZUWAKU
100
AcDbCircle
 10
25.94610638501717
 20
11.36249965247138
 30
0.0
 40
0.2625
100
AcDbArc
 50
0.0
 51
90.0
  0
ARC
  5
6F1
330
1A
100
AcDbEntity
  8
ZUWAKU
100
AcDbCircle
 10
25.94610638501717
 20
10.48749965247138
 30
0.0
 40
0.2625
100
AcDbArc
 50
270.0
 51
0.0
  0
LINE
  5
6F2
330
1A
100
AcDbEntity
  8
ZUWAKU
100
AcDbLine
 10
26.20860638501716
 20
11.36249965247138
 30
0.0
 11
26.20860638501716
 21
10.48749965247138
 31
0.0
  0
LINE
  5
6F3
330
1A
100
AcDbEntity
  8
ZUWAKU
100
AcDbLine
 10
34.25860638501717
 20
11.62499965247139
 30
0.0
 11
33.38360638501717
 21
11.62499965247139
 31
0.0
  0
ARC
  5
6F4
330
1A
100
AcDbEntity
  8
ZUWAKU
100
AcDbCircle
 10
33.38360638501717
 20
11.36249965247138
 30
0.0
 40
0.2625
100
AcDbArc
 50
90.0
 51
180.0
  0
ARC
  5
6F5
330
1A
100
AcDbEntity
  8
ZUWAKU
100
AcDbCircle
 10
31.80860638501712
 20
11.36249965247138
 30
0.0
 40
0.2625
100
AcDbArc
 50
0.0
 51
90.0
  0
LINE
  5
6F6
330
1A
100
AcDbEntity
  8
ZUWAKU
100
AcDbLine
 10
31.80860638501712
 20
11.62499965247139
 30
0.0
 11
30.93360638501712
 21
11.62499965247139
 31
0.0
  0
ARC
  5
6F7
330
1A
100
AcDbEntity
  8
ZUWAKU
100
AcDbCircle
 10
30.93360638501712
 20
11.36249965247138
 30
0.0
 40
0.2625
100
AcDbArc
 50
90.0
 51
180.0
  0
ARC
  5
6F8
330
1A
100
AcDbEntity
  8
ZUWAKU
100
AcDbCircle
 10
34.25860638501717
 20
11.36249965247138
 30
0.0
 40
0.2625
100
AcDbArc
 50
0.0
 51
90.0
  0
TEXT
  5
6F9
330
1A
100
AcDbEntity
  8
MOJI
100
AcDbText
 10
119.9136016480521
 20
1.602460181175098
 30
0.0
 40
2.799999999999999
  1
Ｘ７０Ｕ
 41
0.9
  7
ｽﾀｲﾙ1
100
AcDbText
  0
TEXT
  5
6FA
330
1A
100
AcDbEntity
  8
MOJI
100
AcDbText
 10
119.9136016480521
 20
9.002460181175081
 30
0.0
 40
2.799999999999999
  1
ジョイント
 41
0.9
  7
ｽﾀｲﾙ1
100
AcDbText
  0
LINE
  5
6FB
330
1A
100
AcDbEntity
  8
ZUWAKU
100
AcDbLine
 10
104.1233009526605
 20
14.99999965247138
 30
0.0
 11
104.1233009526605
 21
0.399999652471422
 31
0.0
  0
LINE
  5
6FC
330
1A
100
AcDbEntity
  8
ZUWAKU
100
AcDbLine
 10
104.3233009526604
 20
14.99999965247138
 30
0.0
 11
104.3233009526605
 21
0.399999652471422
 31
0.0
  0
LINE
  5
6FD
330
1A
100
AcDbEntity
  8
ZUWAKU
100
AcDbLine
 10
104.2233009526604
 20
14.99999965247138
 30
0.0
 11
104.2233009526605
 21
0.399999652471422
 31
0.0
  0
TEXT
  5
6FE
330
1A
100
AcDbEntity
  8
ZUWAKU
100
AcDbText
 10
104.8620234637653
 20
4.827677921664196
 30
0.0
 40
2.0
  1
サイズ
 41
0.9
  7
ｽﾀｲﾙ1
100
AcDbText
  0
TEXT
  5
6FF
330
1A
100
AcDbEntity
  8
ZUWAKU
100
AcDbText
 10
104.8620234637652
 20
12.02767792166417
 30
0.0
 40
2.0
  1
品名
 41
0.9
  7
ｽﾀｲﾙ1
100
AcDbText
  0
LINE
  5
700
330
1A
100
AcDbEntity
  8
ZUWAKU
100
AcDbLine
 10
324.4086015627286
 20
7.599999652471403
 30
0.0
 11
348.6245055818972
 21
7.599999652471405
 31
0.0
  0
LINE
  5
701
330
1A
100
AcDbEntity
  8
ZUWAKU
100
AcDbLine
 10
324.4086015627288
 20
7.699999652471406
 30
0.0
 11
348.6245055818972
 21
7.699999652471404
 31
0.0
  0
LINE
  5
702
330
1A
100
AcDbEntity
  8
ZUWAKU
100
AcDbLine
 10
324.4086015627286
 20
7.799999652471404
 30
0.0
 11
348.6245055818972
 21
7.799999652471404
 31
0.0
  0
TEXT
  5
703
330
1A
100
AcDbEntity
  8
ZUWAKU
100
AcDbText
 10
329.1019691512778
 20
9.002460181175081
 30
0.0
 40
2.799999999999999
  1
　　．　　．　　
 41
0.9
  7
ｽﾀｲﾙ1
100
AcDbText
  0
LINE
  5
704
330
1A
100
AcDbEntity
  8
ZUWAKU
100
AcDbLine
 10
252.599590056697
 20
7.599999652471407
 30
0.0
 11
276.2634781906827
 21
7.599999652471407
 31
0.0
  0
LINE
  5
705
330
1A
100
AcDbEntity
  8
ZUWAKU
100
AcDbLine
 10
252.599590056697
 20
7.699999652471404
 30
0.0
 11
276.2634781906827
 21
7.699999652471404
 31
0.0
  0
LINE
  5
706
330
1A
100
AcDbEntity
  8
ZUWAKU
100
AcDbLine
 10
252.599590056697
 20
7.799999652471404
 30
0.0
 11
276.2634781906827
 21
7.799999652471404
 31
0.0
  0
TEXT
  5
707
330
1A
100
AcDbEntity
  8
MOJI
100
AcDbText
 10
231.2836394686208
 20
5.97130851330138
 30
0.0
 40
2.799999999999999
  1
ＧＪ２７□
 41
0.9
  7
ｽﾀｲﾙ1
100
AcDbText
  0
LINE
  5
708
330
1A
100
AcDbEntity
  8
ZUWAKU
100
AcDbLine
 10
223.8121822931221
 20
14.99999965247138
 30
0.0
 11
223.8121822931223
 21
0.399999652471422
 31
0.0
  0
LINE
  5
709
330
1A
100
AcDbEntity
  8
ZUWAKU
100
AcDbLine
 10
223.9121822931222
 20
14.99999965247138
 30
0.0
 11
223.9121822931223
 21
0.399999652471422
 31
0.0
  0
LINE
  5
70A
330
1A
100
AcDbEntity
  8
ZUWAKU
100
AcDbLine
 10
223.7121822931222
 20
14.99999965247138
 30
0.0
 11
223.7121822931222
 21
0.399999652471422
 31
0.0
  0
TEXT
  5
70B
330
1A
100
AcDbEntity
  8
MOJI
100
AcDbText
 10
264.020454293783
 20
9.002460181175081
 30
0.0
 40
2.799999999999999
  1
Ａ３
 41
0.9
  7
ｽﾀｲﾙ1
100
AcDbText
  0
LINE
  5
70C
330
1A
100
AcDbEntity
  8
ZUWAKU
100
AcDbLine
 10
252.4995900566969
 20
14.99999965247138
 30
0.0
 11
252.4995900566971
 21
0.399999652471422
 31
0.0
  0
LINE
  5
70D
330
1A
100
AcDbEntity
  8
ZUWAKU
100
AcDbLine
 10
252.599590056697
 20
14.99999965247138
 30
0.0
 11
252.5995900566971
 21
0.399999652471422
 31
0.0
  0
LINE
  5
70E
330
1A
100
AcDbEntity
  8
ZUWAKU
100
AcDbLine
 10
252.399590056697
 20
14.99999965247138
 30
0.0
 11
252.399590056697
 21
0.399999652471422
 31
0.0
  0
TEXT
  5
70F
330
1A
100
AcDbEntity
  8
ZUWAKU
100
AcDbText
 10
231.3468811353801
 20
1.307035108041134
 30
0.0
 40
1.5
  1
□には色品番が入ります
 41
0.9
  7
ｽﾀｲﾙ1
100
AcDbText
  0
TEXT
  5
710
330
1A
100
AcDbEntity
  8
ZUWAKU
100
AcDbText
 10
253.3383125678019
 20
4.827677921664196
 30
0.0
 40
2.0
  1
縮尺
 41
0.9
  7
ｽﾀｲﾙ1
100
AcDbText
  0
TEXT
  5
711
330
1A
100
AcDbEntity
  8
MOJI
100
AcDbText
 10
264.020454293783
 20
1.602460181175098
 30
0.0
 40
2.799999999999999
  1
１/１
 41
0.9
  7
ｽﾀｲﾙ1
100
AcDbText
  0
TEXT
  5
712
330
1A
100
AcDbEntity
  8
ZUWAKU
100
AcDbText
 10
224.650904804227
 20
12.02767792166417
 30
0.0
 40
2.0
  1
品番
 41
0.9
  7
ｽﾀｲﾙ1
100
AcDbText
  0
TEXT
  5
713
330
1A
100
AcDbEntity
  8
ZUWAKU
100
AcDbText
 10
253.3383125678018
 20
12.02767792166417
 30
0.0
 40
2.0
  1
用紙
 41
0.9
  7
ｽﾀｲﾙ1
100
AcDbText
  0
LINE
  5
714
330
1A
100
AcDbEntity
  8
ZUWAKU
100
AcDbLine
 10
324.3086015627287
 20
14.99999965247138
 30
0.0
 11
324.3086015627288
 21
0.399999652471422
 31
0.0
  0
LINE
  5
715
330
1A
100
AcDbEntity
  8
ZUWAKU
100
AcDbLine
 10
324.4086015627288
 20
14.99999965247138
 30
0.0
 11
324.4086015627289
 21
0.399999652471422
 31
0.0
  0
LINE
  5
716
330
1A
100
AcDbEntity
  8
ZUWAKU
100
AcDbLine
 10
324.2086015627288
 20
14.99999965247138
 30
0.0
 11
324.2086015627288
 21
0.399999652471422
 31
0.0
  0
LINE
  5
717
330
1A
100
AcDbEntity
  8
ZUWAKU
100
AcDbLine
 10
276.3634781906826
 20
14.99999965247138
 30
0.0
 11
276.3634781906828
 21
0.399999652471422
 31
0.0
  0
LINE
  5
718
330
1A
100
AcDbEntity
  8
ZUWAKU
100
AcDbLine
 10
276.4634781906827
 20
14.99999965247138
 30
0.0
 11
276.4634781906828
 21
0.399999652471422
 31
0.0
  0
LINE
  5
719
330
1A
100
AcDbEntity
  8
ZUWAKU
100
AcDbLine
 10
276.2634781906827
 20
14.99999965247138
 30
0.0
 11
276.2634781906827
 21
0.399999652471422
 31
0.0
  0
TEXT
  5
71A
330
1A
100
AcDbEntity
  8
ZUWAKU
100
AcDbText
 10
325.1473240738336
 20
12.02767792166417
 30
0.0
 40
2.0
  1
DATE
 41
0.9
  7
ｽﾀｲﾙ1
100
AcDbText
  0
LINE
  5
71B
330
1A
100
AcDbEntity
  8
ZUWAKU
100
AcDbLine
 10
348.6245055818972
 20
14.99999965247138
 30
0.0
 11
348.6245055818972
 21
0.399999652471422
 31
0.0
  0
LINE
  5
71C
330
1A
100
AcDbEntity
  8
ZUWAKU
100
AcDbLine
 10
348.7245055818972
 20
14.99999965247138
 30
0.0
 11
348.7245055818972
 21
0.399999652471422
 31
0.0
  0
LINE
  5
71D
330
1A
100
AcDbEntity
  8
ZUWAKU
100
AcDbLine
 10
348.8245055818971
 20
14.99999965247138
 30
0.0
 11
348.8245055818972
 21
0.399999652471422
 31
0.0
  0
LINE
  5
71E
330
1A
100
AcDbEntity
  8
ZUWAKU
100
AcDbLine
 10
348.9245055818971
 20
14.99999965247138
 30
0.0
 11
348.9245055818972
 21
0.399999652471422
 31
0.0
  0
TEXT
  5
71F
330
1A
100
AcDbEntity
  8
ZUWAKU
100
AcDbText
 10
354.2640424037484
 20
8.776919320314789
 30
0.0
 40
3.0
  1
積水化学工業株式会社
 41
0.9
  7
ｽﾀｲﾙ1
100
AcDbText
  0
TEXT
  5
720
330
1A
100
AcDbEntity
  8
ZUWAKU
100
AcDbText
 10
354.2640424037484
 20
3.32441980939842
 30
0.0
 40
3.0
  1
建材事業部
 41
0.9
  7
ｽﾀｲﾙ1
100
AcDbText
  0
DIMENSION
  5
CD3
330
1A
100
AcDbEntity
  8
SUNPOU
  6
CONTINUOUS
100
AcDbDimension
  2
*D1
 10
219.604335475484
 20
177.4788189112798
 30
0.0
 11
217.104335475484
 21
212.4785189112798
 31
0.0
 70
    32
  3
STANDARD
100
AcDbAlignedDimension
 13
194.4249289221789
 23
247.4782189112798
 33
0.0
 14
194.4246289221789
 24
177.4788189112798
 34
0.0
 50
90.0
100
AcDbRotatedDimension
1001
ACAD
1000
DSTYLE
1002
{
1070
   140
1040
3.0
1070
    74
1070
     0
1070
   172
1070
     1
1070
    73
1070
     0
1070
   272
1070
     2
1070
    77
1070
     3
1070
   173
1070
     1
1070
   147
1040
1.0
1070
    42
1040
3.0
1070
    44
1040
1.5
1070
    43
1040
7.0
1070
   271
1070
     0
1070
   178
1070
     4
1070
   177
1070
     4
1070
   176
1070
     4
1070
   141
1040
150.0
1070
     7
1000
_OPEN
1070
     6
1000
_OPEN
1070
    41
1040
3.0
1002
}
  0
DIMENSION
  5
CD4
330
1A
100
AcDbEntity
  8
SUNPOU
  6
CONTINUOUS
100
AcDbDimension
  2
*D2
 10
220.104335475484
 20
59.07831891127988
 30
0.0
 11
217.604335475484
 21
85.77836891127992
 31
0.0
 70
    32
  3
STANDARD
100
AcDbAlignedDimension
 13
193.4589289221789
 23
112.4784189112798
 33
0.0
 14
169.8821289221789
 24
59.07831891127989
 34
0.0
 50
90.0
100
AcDbRotatedDimension
1001
ACAD
1000
DSTYLE
1002
{
1070
   140
1040
3.0
1070
    74
1070
     0
1070
   172
1070
     1
1070
    73
1070
     0
1070
   272
1070
     2
1070
    77
1070
     3
1070
   173
1070
     1
1070
   147
1040
1.0
1070
    42
1040
3.0
1070
    44
1040
1.5
1070
    43
1040
7.0
1070
   271
1070
     0
1070
   178
1070
     4
1070
   177
1070
     4
1070
   176
1070
     4
1070
   141
1040
150.0
1070
     7
1000
_OPEN
1070
     6
1000
_OPEN
1070
    41
1040
3.0
1002
}
  0
DIMENSION
  5
CD5
330
1A
100
AcDbEntity
  8
SUNPOU
  6
CONTINUOUS
100
AcDbDimension
  2
*D3
 10
75.88992892217885
 20
139.3737566706842
 30
0.0
 11
135.1744289221789
 21
141.8737566706842
 31
0.0
 70
    32
  3
STANDARD
100
AcDbAlignedDimension
 13
194.4589289221789
 23
111.4784189112798
 33
0.0
 14
75.88992892217885
 24
111.47851891128
 34
0.0
100
AcDbRotatedDimension
1001
ACAD
1000
DSTYLE
1002
{
1070
   140
1040
3.0
1070
    74
1070
     0
1070
   172
1070
     1
1070
    73
1070
     0
1070
   272
1070
     2
1070
    77
1070
     3
1070
   173
1070
     1
1070
   147
1040
1.0
1070
    42
1040
3.0
1070
    44
1040
1.5
1070
    43
1040
7.0
1070
   271
1070
     0
1070
   178
1070
     4
1070
   177
1070
     4
1070
   176
1070
     4
1070
   141
1040
150.0
1070
     7
1000
_OPEN
1070
     6
1000
_OPEN
1070
    41
1040
3.0
1002
}
  0
DIMENSION
  5
CD6
330
1A
100
AcDbEntity
  8
SUNPOU
  6
CONTINUOUS
100
AcDbDimension
  2
*D4
 10
99.62449664563481
 20
36.75465134038836
 30
0.0
 11
135.1744235391649
 21
39.25465134038836
 31
0.0
 70
    32
  3
STANDARD
100
AcDbAlignedDimension
 13
170.724350432695
 23
59.07832133788577
 33
0.0
 14
99.62449664563481
 24
59.07842376396344
 34
0.0
100
AcDbRotatedDimension
1001
ACAD
1000
DSTYLE
1002
{
1070
   140
1040
3.0
1070
    74
1070
     0
1070
   172
1070
     1
1070
    73
1070
     0
1070
   272
1070
     2
1070
    77
1070
     3
1070
   173
1070
     1
1070
   147
1040
1.0
1070
    42
1040
3.0
1070
    44
1040
1.5
1070
    43
1040
7.0
1070
   271
1070
     0
1070
   178
1070
     4
1070
   177
1070
     4
1070
   176
1070
     4
1070
   141
1040
150.0
1070
     7
1000
_OPEN
1070
     6
1000
_OPEN
1070
    41
1040
3.0
1002
}
  0
LINE
  5
CD7
330
1A
100
AcDbEntity
  8
SEIHIN
  6
CONTINUOUS
 62
     3
 48
16.0
100
AcDbLine
 10
168.0894289221789
 20
60.87831891127999
 30
0.0
 11
135.1743289221789
 21
60.8782189112799
 31
0.0
  0
LINE
  5
CD8
330
1A
100
AcDbEntity
  8
SEIHIN
  6
CONTINUOUS
 62
     3
 48
16.0
100
AcDbLine
 10
169.8821289221789
 20
59.07831891127989
 30
0.0
 11
135.1743289221789
 21
59.07821891127998
 31
0.0
  0
LINE
  5
CD9
330
1A
100
AcDbEntity
  8
SEIHIN
  6
CONTINUOUS
 62
     3
 48
16.0
100
AcDbLine
 10
169.8821289221789
 20
59.57831891127998
 30
0.0
 11
135.1743289221789
 21
59.57821891127991
 31
0.0
  0
LINE
  5
CDA
330
1A
100
AcDbEntity
  8
NOKITOI
  6
PHANTOM
 62
     8
 48
5.0
100
AcDbLine
 10
102.0591289221787
 20
60.87826891127983
 30
0.0
 11
168.2897289221787
 21
60.87816891127997
 31
0.0
  0
LINE
  5
CDB
330
1A
100
AcDbEntity
  8
NOKITOI
  6
PHANTOM
 62
     8
 48
5.0
100
AcDbLine
 10
168.2897289221787
 20
60.87816891127997
 30
0.0
 11
102.0591289221787
 21
60.87826891127983
 31
0.0
  0
LINE
  5
CDC
330
1A
100
AcDbEntity
  8
NOKITOI
  6
PHANTOM
 62
     8
 48
5.0
100
AcDbLine
 10
107.3748289221787
 20
62.17166891127985
 30
0.0
 11
162.9740289221787
 21
62.17156891127982
 31
0.0
  0
LINE
  5
CDD
330
1A
100
AcDbEntity
  8
SEIHIN
  6
CONTINUOUS
 62
     3
 48
16.0
100
AcDbLine
 10
89.32492892217892
 20
71.20471891127991
 30
0.0
 11
84.07832892217886
 21
97.22611891128
 31
0.0
  0
LINE
  5
CDE
330
1A
100
AcDbEntity
  8
SEIHIN
  6
CONTINUOUS
 62
     3
 48
16.0
100
AcDbLine
 10
90.8021289221789
 20
72.98561891127997
 30
0.0
 11
85.55162892217891
 21
99.02611891127998
 31
0.0
  0
LINE
  5
CDF
330
1A
100
AcDbEntity
  8
SEIHIN
  6
CONTINUOUS
 62
     3
 48
16.0
100
AcDbLine
 10
89.81512892217892
 20
71.3035189112799
 30
0.0
 11
84.58832892217889
 21
97.22611891128
 31
0.0
  0
LINE
  5
CE0
330
1A
100
AcDbEntity
  8
NOKITOI
  6
PHANTOM
 62
     8
 48
5.0
100
AcDbLine
 10
92.15752892217864
 20
73.99986891127984
 30
0.0
 11
86.22652892217871
 21
102.1697689112799
 31
0.0
  0
LINE
  5
CE1
330
1A
100
AcDbEntity
  8
NOKITOI
  6
PHANTOM
 62
     8
 48
5.0
100
AcDbLine
 10
91.04892892217874
 20
72.98696891127983
 30
0.0
 11
85.21032892217858
 21
100.7182689112799
 31
0.0
  0
LINE
  5
CE2
330
1A
100
AcDbEntity
  8
NOKITOI
  6
PHANTOM
 62
     8
 48
5.0
100
AcDbLine
 10
102.7340289221786
 20
62.17826891127984
 30
0.0
 11
105.3758289221786
 21
62.17826891127984
 31
0.0
  0
LINE
  5
CE3
330
1A
100
AcDbEntity
  8
NOKITOI
  6
PHANTOM
 62
     8
 48
5.0
100
AcDbLine
 10
105.5135289221786
 20
69.56796891127996
 30
0.0
 11
99.29262892217872
 21
69.56796891127996
 31
0.0
  0
LINE
  5
CE4
330
1A
100
AcDbEntity
  8
NOKITOI
  6
PHANTOM
 62
     8
 48
5.0
100
AcDbLine
 10
107.1759289221787
 20
70.86796891127997
 30
0.0
 11
97.26522892217879
 21
70.86796891127997
 31
0.0
  0
LINE
  5
CE5
330
1A
100
AcDbEntity
  8
SEIHIN
  6
CONTINUOUS
 62
     3
 48
16.0
100
AcDbLine
 10
100.4666289221789
 20
59.0784189112799
 30
0.0
 11
135.1745289221789
 21
59.07821891127998
 31
0.0
  0
LINE
  5
CE6
330
1A
100
AcDbEntity
  8
SEIHIN
  6
CONTINUOUS
 62
     3
 48
16.0
100
AcDbLine
 10
102.2593289221787
 20
60.87831891127999
 30
0.0
 11
135.1744289221787
 21
60.8782189112799
 31
0.0
  0
LINE
  5
CE7
330
1A
100
AcDbEntity
  8
SEIHIN
  6
CONTINUOUS
 62
     3
 48
16.0
100
AcDbLine
 10
100.4666289221789
 20
59.5784189112799
 30
0.0
 11
135.1745289221789
 21
59.57821891127991
 31
0.0
  0
ARC
  5
CE8
330
1A
100
AcDbEntity
  8
NOKITOI
  6
PHANTOM
 62
     8
 48
5.0
100
AcDbCircle
 10
88.28890276096961
 20
59.77192880179595
 30
0.0
 40
14.22848866365036
100
AcDbArc
 50
51.52529185494234
 51
71.45345265407101
  0
ARC
  5
CE9
330
1A
100
AcDbEntity
  8
SEIHIN
  6
CONTINUOUS
 62
     3
 48
16.0
100
AcDbCircle
 10
85.7640653953444
 20
57.10617826519245
 30
0.0
 40
14.00004666961683
100
AcDbArc
 50
11.42851044327771
 51
72.37736768076596
  0
ARC
  5
CEA
330
1A
100
AcDbEntity
  8
SEIHIN
  6
CONTINUOUS
 62
     3
 48
16.0
100
AcDbCircle
 10
85.76403201460022
 20
57.10621546505746
 30
0.0
 40
14.50009083661241
100
AcDbArc
 50
11.42843585830363
 51
72.37717358038229
  0
ARC
  5
CEB
330
1A
100
AcDbEntity
  8
SEIHIN
  6
CONTINUOUS
 62
     3
 48
16.0
100
AcDbCircle
 10
87.58211250896948
 20
58.78333662159474
 30
0.0
 40
13.99997559784568
100
AcDbArc
 50
11.90764865858442
 51
73.73841726207055
  0
ARC
  5
CEC
330
1A
100
AcDbEntity
  8
NOKITOI
  6
PHANTOM
 62
     8
 48
5.0
100
AcDbCircle
 10
88.28883599196553
 20
59.77196093838614
 30
0.0
 40
12.93471022655885
100
AcDbArc
 50
8.676219579621786
 51
74.45245455808946
  0
ARC
  5
CED
330
1A
100
AcDbEntity
  8
SEIHIN
  6
CONTINUOUS
 62
     3
 48
16.0
100
AcDbCircle
 10
100.4666773305611
 20
60.07837931314393
 30
0.0
 40
0.4999604042075796
100
AcDbArc
 50
191.4280074147075
 51
269.9944523686763
  0
ARC
  5
CEE
330
1A
100
AcDbEntity
  8
SEIHIN
  6
CONTINUOUS
 62
     3
 48
16.0
100
AcDbCircle
 10
100.4667059162535
 20
60.07843773092566
 30
0.0
 40
1.000018819910407
100
AcDbArc
 50
191.4326016846385
 51
270.0013181176093
  0
ARC
  5
CEF
330
1A
100
AcDbEntity
  8
SEIHIN
  6
CONTINUOUS
 62
     3
 48
16.0
100
AcDbCircle
 10
90.30521363035308
 20
71.40243595954411
 30
0.0
 40
1.000025069812966
100
AcDbArc
 50
191.4032001705349
 51
252.3815316632289
  0
ARC
  5
CF0
330
1A
100
AcDbEntity
  8
SEIHIN
  6
CONTINUOUS
 62
     3
 48
16.0
100
AcDbCircle
 10
90.30521871673688
 20
71.40233028908298
 30
0.0
 40
0.4999516927796185
100
AcDbArc
 50
191.3990946444559
 51
252.385637189297
  0
ARC
  5
CF1
330
1A
100
AcDbEntity
  8
NOKITOI
  6
PHANTOM
 62
     8
 48
5.0
100
AcDbCircle
 10
88.28883411919202
 20
59.77195829551184
 30
0.0
 40
14.23472333170272
100
AcDbArc
 50
11.37541821407346
 51
40.79334907830746
  0
ARC
  5
CF2
330
1A
100
AcDbEntity
  8
SEIHIN
  6
CONTINUOUS
 62
     3
 48
16.0
100
AcDbCircle
 10
102.2593221602172
 20
61.87832439624983
 30
0.0
 40
1.000005484992705
100
AcDbArc
 50
191.9058653169036
 51
270.00038742973
  0
ARC
  5
CF3
330
1A
100
AcDbEntity
  8
NOKITOI
  6
PHANTOM
 62
     8
 48
5.0
100
AcDbCircle
 10
102.7341058810505
 20
62.67828777556818
 30
0.0
 40
0.5000188648192144
100
AcDbArc
 50
191.386728855441
 51
270.0026402191986
  0
ARC
  5
CF4
330
1A
100
AcDbEntity
  8
NOKITOI
  6
PHANTOM
 62
     8
 48
5.0
100
AcDbCircle
 10
102.0591365361963
 20
61.87326237103594
 30
0.0
 40
0.9949934597852239
100
AcDbArc
 50
188.6761125650602
 51
269.9995615538234
  0
ARC
  5
CF5
330
1A
100
AcDbEntity
  8
NOKITOI
  6
PHANTOM
 62
     8
 48
5.0
100
AcDbCircle
 10
99.29263258148189
 20
69.26797690315954
 30
0.0
 40
0.2999920081427447
100
AcDbArc
 50
90.00069889403132
 51
220.79672841758
  0
ARC
  5
CF6
330
1A
100
AcDbEntity
  8
NOKITOI
  6
PHANTOM
 62
     8
 48
5.0
100
AcDbCircle
 10
97.2652322345378
 20
71.06696775549451
 30
0.0
 40
0.1989988442421132
100
AcDbArc
 50
231.528094904241
 51
269.9990463050553
  0
ARC
  5
CF7
330
1A
100
AcDbEntity
  8
NOKITOI
  6
PHANTOM
 62
     8
 48
5.0
100
AcDbCircle
 10
93.1311488039501
 20
74.20484657419987
 30
0.0
 40
0.995060928010462
100
AcDbArc
 50
191.8877567214146
 51
251.4524867922939
  0
ARC
  5
CF8
330
1A
100
AcDbEntity
  8
SEIHIN
  6
CONTINUOUS
 62
     3
 48
16.0
100
AcDbCircle
 10
91.78238192131436
 20
73.18316121190253
 30
0.0
 40
0.9999594506025221
100
AcDbArc
 50
191.3937443283915
 51
253.7359543136013
  0
ARC
  5
CF9
330
1A
100
AcDbEntity
  8
NOKITOI
  6
PHANTOM
 62
     8
 48
5.0
100
AcDbCircle
 10
92.02256894656619
 20
73.19192624705403
 30
0.0
 40
0.9949785960395137
100
AcDbArc
 50
191.8875585738772
 51
254.4495841050101
  0
LINE
  5
CFA
330
1A
100
AcDbEntity
  8
CENTER_L
  6
CENTER
 62
     1
 48
5.0
100
AcDbLine
 10
135.1744289221787
 20
51.9741189112799
 30
0.0
 11
135.1744289221787
 21
76.17007099218304
 31
0.0
  0
LINE
  5
CFB
330
1A
100
AcDbEntity
  8
NOKITOI
  6
PHANTOM
 62
     8
 48
5.0
100
AcDbLine
 10
107.1758289221787
 20
62.37066891127998
 30
0.0
 11
107.1759289221787
 21
70.86796891127997
 31
0.0
  0
LINE
  5
CFC
330
1A
100
AcDbEntity
  8
NOKITOI
  6
PHANTOM
 62
     8
 48
5.0
100
AcDbLine
 10
105.8758289221786
 20
62.67826891127995
 30
0.0
 11
105.8758289221786
 21
69.20556891127998
 31
0.0
  0
ARC
  5
CFD
330
1A
100
AcDbEntity
  8
NOKITOI
  6
PHANTOM
 62
     8
 48
5.0
100
AcDbCircle
 10
105.3758289221785
 20
62.6782689112799
 30
0.0
 40
0.5000000000000569
100
AcDbArc
 50
270.0000000000065
 51
0.0000000000065138
  0
ARC
  5
CFE
330
1A
100
AcDbEntity
  8
NOKITOI
  6
PHANTOM
 62
     8
 48
5.0
100
AcDbCircle
 10
107.3748289221787
 20
62.37066891127992
 30
0.0
 40
0.1990000000000691
100
AcDbArc
 50
179.9999999999837
 51
269.9999999999837
  0
LINE
  5
CFF
330
1A
100
AcDbEntity
  8
NOKITOI
  6
PHANTOM
 62
     8
 48
5.0
100
AcDbLine
 10
106.3708289221786
 20
70.06286891127982
 30
0.0
 11
105.5135289221786
 21
69.56796891127996
 31
0.0
  0
LINE
  5
D00
330
1A
100
AcDbEntity
  8
NOKITOI
  6
PHANTOM
 62
     8
 48
5.0
100
AcDbLine
 10
106.3708289221786
 20
70.06286891127982
 30
0.0
 11
105.8758289221786
 21
69.20556891127998
 31
0.0
  0
LINE
  5
D01
330
1A
100
AcDbEntity
  8
NOKITOI
  6
PHANTOM
 62
     8
 48
5.0
100
AcDbLine
 10
83.10012892217873
 20
105.6759689112799
 30
0.0
 11
83.10012892217873
 21
108.0898689112799
 31
0.0
  0
LINE
  5
D02
330
1A
100
AcDbEntity
  8
NOKITOI
  6
PHANTOM
 62
     8
 48
5.0
100
AcDbLine
 10
79.46592892217864
 20
108.0898689112799
 30
0.0
 11
79.46592892217864
 21
104.1596689112799
 31
0.0
  0
LINE
  5
D03
330
1A
100
AcDbEntity
  8
NOKITOI
  6
PHANTOM
 62
     8
 48
5.0
100
AcDbLine
 10
84.39352892217863
 20
109.8807689112798
 30
0.0
 11
84.39352892217863
 21
105.6759689112799
 31
0.0
  0
LINE
  5
D04
330
1A
100
AcDbEntity
  8
SEIHIN
  6
CONTINUOUS
 62
     3
 48
16.0
100
AcDbLine
 10
75.88992892217885
 20
111.47851891128
 30
0.0
 11
75.88982892217893
 21
99.02851891127992
 31
0.0
  0
LINE
  5
D05
330
1A
100
AcDbEntity
  8
SEIHIN
  6
CONTINUOUS
 62
     3
 48
16.0
100
AcDbLine
 10
77.68982892217883
 20
100.8285189112799
 30
0.0
 11
77.68982892217883
 21
109.65101891128
 31
0.0
  0
LINE
  5
D06
330
1A
100
AcDbEntity
  8
NOKITOI
  6
PHANTOM
 62
     8
 48
5.0
100
AcDbLine
 10
78.17242892217876
 20
101.8712689112798
 30
0.0
 11
78.17242892217876
 21
109.8807689112798
 31
0.0
  0
LINE
  5
D07
330
1A
100
AcDbEntity
  8
SEIHIN
  6
CONTINUOUS
 62
     3
 48
16.0
100
AcDbLine
 10
76.88982892217893
 20
98.02851891127998
 30
0.0
 11
83.60812892217893
 21
98.02851891127998
 31
0.0
  0
LINE
  5
D08
330
1A
100
AcDbEntity
  8
SEIHIN
  6
CONTINUOUS
 62
     3
 48
16.0
100
AcDbLine
 10
78.68982892217883
 20
99.82851891127999
 30
0.0
 11
84.5713289221789
 21
99.82851891127999
 31
0.0
  0
LINE
  5
D09
330
1A
100
AcDbEntity
  8
NOKITOI
  6
PHANTOM
 62
     8
 48
5.0
100
AcDbLine
 10
85.01562892217879
 20
100.8762689112798
 30
0.0
 11
79.16742892217877
 21
100.8762689112798
 31
0.0
  0
ARC
  5
D0A
330
1A
100
AcDbEntity
  8
NOKITOI
  6
PHANTOM
 62
     8
 48
5.0
100
AcDbCircle
 10
81.45587892217866
 20
104.15971891128
 30
0.0
 40
1.989950000628206
100
AcDbArc
 50
180.0014396286233
 51
270.0014396286237
  0
ARC
  5
D0B
330
1A
100
AcDbEntity
  8
SEIHIN
  6
CONTINUOUS
 62
     3
 48
16.0
100
AcDbCircle
 10
78.68982892217883
 20
100.8285189112799
 30
0.0
 40
1.0
100
AcDbArc
 50
180.0
 51
270.0
  0
ARC
  5
D0C
330
1A
100
AcDbEntity
  8
SEIHIN
  6
CONTINUOUS
 62
     3
 48
16.0
100
AcDbCircle
 10
76.88982892217888
 20
99.02851891127994
 30
0.0
 40
0.9999999999999715
100
AcDbArc
 50
180.0000000000016
 51
270.0000000000016
  0
ARC
  5
D0D
330
1A
100
AcDbEntity
  8
NOKITOI
  6
PHANTOM
 62
     8
 48
5.0
100
AcDbCircle
 10
79.16742892217877
 20
101.8712689112798
 30
0.0
 40
0.9950000000000045
100
AcDbArc
 50
180.0
 51
270.0
  0
ARC
  5
D0E
330
1A
100
AcDbEntity
  8
SEIHIN
  6
CONTINUOUS
 62
     3
 48
16.0
100
AcDbCircle
 10
83.09803926059311
 20
97.02851044885163
 30
0.0
 40
1.000008462481795
100
AcDbArc
 50
11.39704541169479
 51
90.00059234248734
  0
ARC
  5
D0F
330
1A
100
AcDbEntity
  8
SEIHIN
  6
CONTINUOUS
 62
     3
 48
16.0
100
AcDbCircle
 10
83.6080793798809
 20
97.02855946292443
 30
0.0
 40
0.9999594495828198
100
AcDbArc
 50
11.39474662678271
 51
89.99716132030538
  0
ARC
  5
D10
330
1A
100
AcDbEntity
  8
SEIHIN
  6
CONTINUOUS
 62
     3
 48
16.0
100
AcDbCircle
 10
84.57133926059311
 20
98.8285104488516
 30
0.0
 40
1.000008462481828
100
AcDbArc
 50
11.39704541169439
 51
90.00059234248896
  0
LINE
  5
D11
330
1A
100
AcDbEntity
  8
NOKITOI
  6
PHANTOM
 62
     8
 48
5.0
100
AcDbLine
 10
84.39352892217863
 20
105.6759689112799
 30
0.0
 11
83.10012892217873
 21
105.6759689112799
 31
0.0
  0
LINE
  5
D12
330
1A
100
AcDbEntity
  8
NOKITOI
  6
PHANTOM
 62
     8
 48
5.0
100
AcDbLine
 10
81.45592892217877
 20
102.1697689112799
 30
0.0
 11
86.22652892217871
 21
102.1697689112799
 31
0.0
  0
ARC
  5
D13
330
1A
100
AcDbEntity
  8
NOKITOI
  6
PHANTOM
 62
     8
 48
5.0
100
AcDbCircle
 10
85.01561047956448
 20
100.6772838747167
 30
0.0
 40
0.1989850374177657
100
AcDbArc
 50
11.88631382809302
 51
89.9946896310657
  0
LINE
  5
D14
330
1A
100
AcDbEntity
  8
SEIHIN
  6
CONTINUOUS
 62
     3
 48
16.0
100
AcDbLine
 10
83.35792892217893
 20
112.47851891128
 30
0.0
 11
76.88992892217891
 21
112.47851891128
 31
0.0
  0
LINE
  5
D15
330
1A
100
AcDbEntity
  8
NOKITOI
  6
PHANTOM
 62
     8
 48
5.0
100
AcDbLine
 10
79.16742892217877
 20
110.8757689112799
 30
0.0
 11
83.39862892217871
 21
110.8757689112799
 31
0.0
  0
ARC
  5
D16
330
1A
100
AcDbEntity
  8
NOKITOI
  6
PHANTOM
 62
     8
 48
5.0
100
AcDbCircle
 10
80.95837892217861
 20
108.0898189112798
 30
0.0
 40
1.49245000083754
100
AcDbArc
 50
89.99808047909004
 51
179.99808047909
  0
LINE
  5
D17
330
1A
100
AcDbEntity
  8
SEIHIN
  6
CONTINUOUS
 62
     3
 48
16.0
100
AcDbLine
 10
85.08992892217884
 20
110.4784189112798
 30
0.0
 11
78.71692892217885
 21
110.6507189112799
 31
0.0
  0
ARC
  5
D18
330
1A
100
AcDbEntity
  8
SEIHIN
  6
CONTINUOUS
 62
     3
 48
16.0
100
AcDbCircle
 10
76.88992892217886
 20
111.4785189112799
 30
0.0
 40
1.000000000000028
100
AcDbArc
 50
89.99999999999836
 51
179.9999999999983
  0
ARC
  5
D19
330
1A
100
AcDbEntity
  8
SEIHIN
  6
CONTINUOUS
 62
     3
 48
16.0
100
AcDbCircle
 10
78.68986254604823
 20
109.651051636021
 30
0.0
 40
1.000033624404824
100
AcDbArc
 50
88.44907363183478
 51
180.0018749265064
  0
ARC
  5
D1A
330
1A
100
AcDbEntity
  8
NOKITOI
  6
PHANTOM
 62
     8
 48
5.0
100
AcDbCircle
 10
79.16742892217877
 20
109.8807689112798
 30
0.0
 40
0.9950000000000613
100
AcDbArc
 50
90.00000000000325
 51
180.0000000000032
  0
ARC
  5
D1B
330
1A
100
AcDbEntity
  8
SEIHIN
  6
CONTINUOUS
 62
     3
 48
16.0
100
AcDbCircle
 10
85.08993065416508
 20
111.4784219111888
 30
0.0
 40
2.000003002496294
100
AcDbArc
 50
269.9970855976496
 51
30.00315912183902
  0
ARC
  5
D1C
330
1A
100
AcDbEntity
  8
NOKITOI
  6
PHANTOM
 62
     8
 48
5.0
100
AcDbCircle
 10
83.39857892217862
 20
109.8808189112799
 30
0.0
 40
0.9949500012563332
100
AcDbArc
 50
359.9971206704047
 51
89.99712067040476
  0
ARC
  5
D1D
330
1A
100
AcDbEntity
  8
NOKITOI
  6
PHANTOM
 62
     8
 48
5.0
100
AcDbCircle
 10
81.60762892217865
 20
108.0898689112799
 30
0.0
 40
1.492399999999918
100
AcDbArc
 50
0.0000000000020356
 51
90.00000000000245
  0
LINE
  5
D1E
330
1A
100
AcDbEntity
  8
NOKITOI
  6
PHANTOM
 62
     8
 48
5.0
100
AcDbLine
 10
81.60762892217865
 20
109.5822689112798
 30
0.0
 11
80.95842892217872
 21
109.5822689112798
 31
0.0
  0
LINE
  5
D1F
330
1A
100
AcDbEntity
  8
SEIHIN
  6
CONTINUOUS
 62
     3
 48
16.0
100
AcDbLine
 10
85.08992892217884
 20
110.4784189112798
 30
0.0
 11
85.08982892217892
 21
109.4784189112798
 31
0.0
  0
ARC
  5
D20
330
1A
100
AcDbEntity
  8
SEIHIN
  6
CONTINUOUS
 62
     3
 48
16.0
100
AcDbCircle
 10
85.08992892217889
 20
111.4784189112799
 30
0.0
 40
2.000006002491007
100
AcDbArc
 50
30.00320873521766
 51
149.9967912647825
  0
LINE
  5
D21
330
1A
100
AcDbEntity
  8
SEIHIN
  6
CONTINUOUS
 62
     3
 48
16.0
100
AcDbLine
 10
179.5467289221787
 20
72.98551891127999
 30
0.0
 11
184.7972289221789
 21
99.02601891127993
 31
0.0
  0
LINE
  5
D22
330
1A
100
AcDbEntity
  8
SEIHIN
  6
CONTINUOUS
 62
     3
 48
16.0
100
AcDbLine
 10
181.0238289221787
 20
71.20461891127999
 30
0.0
 11
186.2705289221789
 21
97.22611891128
 31
0.0
  0
LINE
  5
D23
330
1A
100
AcDbEntity
  8
SEIHIN
  6
CONTINUOUS
 62
     3
 48
16.0
100
AcDbLine
 10
180.5337289221789
 20
71.30341891127997
 30
0.0
 11
185.7605289221789
 21
97.22601891128
 31
0.0
  0
LINE
  5
D24
330
1A
100
AcDbEntity
  8
NOKITOI
  6
PHANTOM
 62
     8
 48
5.0
100
AcDbLine
 10
179.3000289221788
 20
72.98676891127982
 30
0.0
 11
185.1387289221785
 21
100.7181689112798
 31
0.0
  0
LINE
  5
D25
330
1A
100
AcDbEntity
  8
NOKITOI
  6
PHANTOM
 62
     8
 48
5.0
100
AcDbLine
 10
178.1913289221787
 20
73.99926891127998
 30
0.0
 11
183.6463289221786
 21
99.90816891127984
 31
0.0
  0
ARC
  5
D26
330
1A
100
AcDbEntity
  8
SEIHIN
  6
CONTINUOUS
 62
     3
 48
16.0
100
AcDbCircle
 10
169.8821283171905
 20
60.07831841627947
 30
0.0
 40
0.4999995049998668
100
AcDbArc
 50
270.0000693266308
 51
348.5800176237707
  0
ARC
  5
D27
330
1A
100
AcDbEntity
  8
SEIHIN
  6
CONTINUOUS
 62
     3
 48
16.0
100
AcDbCircle
 10
169.8820799103124
 20
60.07827881467219
 30
0.0
 40
0.9999599045934244
100
AcDbArc
 50
270.0028082856944
 51
348.5760054393141
  0
ARC
  5
D28
330
1A
100
AcDbEntity
  8
SEIHIN
  6
CONTINUOUS
 62
     3
 48
16.0
100
AcDbCircle
 10
184.5847207265853
 20
57.10620977802784
 30
0.0
 40
14.49996912996959
100
AcDbArc
 50
107.6225434273427
 51
168.5718471339719
  0
ARC
  5
D29
330
1A
100
AcDbEntity
  8
SEIHIN
  6
CONTINUOUS
 62
     3
 48
16.0
100
AcDbCircle
 10
182.7666806072888
 20
58.78326677807734
 30
0.0
 40
14.00002452202798
100
AcDbArc
 50
106.261248391706
 51
168.0921014390866
  0
ARC
  5
D2A
330
1A
100
AcDbEntity
  8
SEIHIN
  6
CONTINUOUS
 62
     3
 48
16.0
100
AcDbCircle
 10
184.5847569883279
 20
57.10625018845374
 30
0.0
 40
13.99999766092316
100
AcDbArc
 50
107.6229731680637
 51
168.5717493147778
  0
ARC
  5
D2B
330
1A
100
AcDbEntity
  8
NOKITOI
  6
PHANTOM
 62
     8
 48
5.0
100
AcDbCircle
 10
182.0599177658578
 20
59.77195632980579
 30
0.0
 40
12.93449408578155
100
AcDbArc
 50
105.547333235354
 51
171.3240617643019
  0
ARC
  5
D2C
330
1A
100
AcDbEntity
  8
NOKITOI
  6
PHANTOM
 62
     8
 48
5.0
100
AcDbCircle
 10
182.0600233887668
 20
59.77186267101453
 30
0.0
 40
12.93461262833301
100
AcDbArc
 50
105.5476727870196
 51
171.3237222126368
  0
ARC
  5
D2D
330
1A
100
AcDbEntity
  8
NOKITOI
  6
PHANTOM
 62
     8
 48
5.0
100
AcDbCircle
 10
182.0599873768695
 20
59.77178404672361
 30
0.0
 40
14.23462403148678
100
AcDbArc
 50
139.2075062369006
 51
168.623785948384
  0
LINE
  5
D2E
330
1A
100
AcDbEntity
  8
NOKITOI
  6
PHANTOM
 62
     8
 48
5.0
100
AcDbLine
 10
171.0560289221785
 20
69.56756891127984
 30
0.0
 11
164.8354289221787
 21
69.56756891127984
 31
0.0
  0
LINE
  5
D2F
330
1A
100
AcDbEntity
  8
NOKITOI
  6
PHANTOM
 62
     8
 48
5.0
100
AcDbLine
 10
163.1731289221785
 20
70.86766891127982
 30
0.0
 11
173.1536289221786
 21
70.86756891127996
 31
0.0
  0
LINE
  5
D30
330
1A
100
AcDbEntity
  8
NOKITOI
  6
PHANTOM
 62
     8
 48
5.0
100
AcDbLine
 10
158.9740289221787
 20
62.17156891127982
 30
0.0
 11
144.2196289221786
 21
62.17156891127982
 31
0.0
  0
LINE
  5
D31
330
1A
100
AcDbEntity
  8
NOKITOI
  6
PHANTOM
 62
     8
 48
5.0
100
AcDbLine
 10
163.1730289221787
 20
62.37066891127998
 30
0.0
 11
163.1731289221785
 21
70.86766891127982
 31
0.0
  0
LINE
  5
D32
330
1A
100
AcDbEntity
  8
NOKITOI
  6
PHANTOM
 62
     8
 48
5.0
100
AcDbLine
 10
164.4731289221787
 20
69.20526891127983
 30
0.0
 11
164.4731289221787
 21
62.67816891127987
 31
0.0
  0
LINE
  5
D33
330
1A
100
AcDbEntity
  8
NOKITOI
  6
PHANTOM
 62
     8
 48
5.0
100
AcDbLine
 10
167.6148289221787
 20
62.17816891127998
 30
0.0
 11
164.9731289221787
 21
62.17816891127998
 31
0.0
  0
ARC
  5
D34
330
1A
100
AcDbEntity
  8
NOKITOI
  6
PHANTOM
 62
     8
 48
5.0
100
AcDbCircle
 10
164.9731289221786
 20
62.67816891127992
 30
0.0
 40
0.4999999999999432
100
AcDbArc
 50
180.0000000000065
 51
270.0000000000065
  0
ARC
  5
D35
330
1A
100
AcDbEntity
  8
NOKITOI
  6
PHANTOM
 62
     8
 48
5.0
100
AcDbCircle
 10
162.9739789221786
 20
62.3706189112799
 30
0.0
 40
0.1990500062799141
100
AcDbArc
 50
270.0143923080609
 51
0.0143923080609163
  0
ARC
  5
D36
330
1A
100
AcDbEntity
  8
SEIHIN
  6
CONTINUOUS
 62
     3
 48
16.0
100
AcDbCircle
 10
168.0894356841404
 20
61.87832439624992
 30
0.0
 40
1.00000548499278
100
AcDbArc
 50
269.9996125702674
 51
348.0941346830931
  0
ARC
  5
D37
330
1A
100
AcDbEntity
  8
NOKITOI
  6
PHANTOM
 62
     8
 48
5.0
100
AcDbCircle
 10
167.6148519633069
 20
62.67818777556818
 30
0.0
 40
0.5000188648190603
100
AcDbArc
 50
269.9973597808037
 51
348.6132711445601
  0
ARC
  5
D38
330
1A
100
AcDbEntity
  8
NOKITOI
  6
PHANTOM
 62
     8
 48
5.0
100
AcDbCircle
 10
168.2897788502746
 20
61.87321179887857
 30
0.0
 40
0.9950428888512103
100
AcDbArc
 50
269.9971250795227
 51
351.321442679507
  0
LINE
  5
D39
330
1A
100
AcDbEntity
  8
NOKITOI
  6
PHANTOM
 62
     8
 48
5.0
100
AcDbLine
 10
163.9781289221785
 20
70.06256891127984
 30
0.0
 11
164.8354289221787
 21
69.56756891127984
 31
0.0
  0
LINE
  5
D3A
330
1A
100
AcDbEntity
  8
NOKITOI
  6
PHANTOM
 62
     8
 48
5.0
100
AcDbLine
 10
163.9781289221785
 20
70.06256891127984
 30
0.0
 11
164.4731289221787
 21
69.20526891127983
 31
0.0
  0
ARC
  5
D3B
330
1A
100
AcDbEntity
  8
NOKITOI
  6
PHANTOM
 62
     8
 48
5.0
100
AcDbCircle
 10
182.0600434257273
 20
59.77187683546836
 30
0.0
 40
14.22809199964113
100
AcDbArc
 50
108.5474584936554
 51
128.7537062451649
  0
ARC
  5
D3C
330
1A
100
AcDbEntity
  8
NOKITOI
  6
PHANTOM
 62
     8
 48
5.0
100
AcDbCircle
 10
171.05604260003
 20
69.26753904758601
 30
0.0
 40
0.3000298640056128
100
AcDbArc
 50
319.2190584222774
 51
90.00261201719977
  0
ARC
  5
D3D
330
1A
100
AcDbEntity
  8
SEIHIN
  6
CONTINUOUS
 62
     3
 48
16.0
100
AcDbCircle
 10
180.0435442140046
 20
71.4023359595443
 30
0.0
 40
1.000025069813014
100
AcDbArc
 50
287.6184683367651
 51
348.5967998294613
  0
ARC
  5
D3E
330
1A
100
AcDbEntity
  8
SEIHIN
  6
CONTINUOUS
 62
     3
 48
16.0
100
AcDbCircle
 10
180.0435837060685
 20
71.40228000267038
 30
0.0
 40
0.5000158480156102
100
AcDbArc
 50
287.618691866237
 51
348.596576300005
  0
ARC
  5
D3F
330
1A
100
AcDbEntity
  8
NOKITOI
  6
PHANTOM
 62
     8
 48
5.0
100
AcDbCircle
 10
177.2177724917298
 20
74.20431786304883
 30
0.0
 40
0.9950135261271753
100
AcDbArc
 50
288.5445751594485
 51
348.1074736523477
  0
ARC
  5
D40
330
1A
100
AcDbEntity
  8
SEIHIN
  6
CONTINUOUS
 62
     3
 48
16.0
100
AcDbCircle
 10
178.5664529003833
 20
73.18324501394733
 30
0.0
 40
1.000018345123287
100
AcDbArc
 50
286.258467083924
 51
348.5961929022526
  0
ARC
  5
D41
330
1A
100
AcDbEntity
  8
NOKITOI
  6
PHANTOM
 62
     8
 48
5.0
100
AcDbCircle
 10
178.3264032590308
 20
73.19184816266738
 30
0.0
 40
0.9949690575286499
100
AcDbArc
 50
285.5437330810335
 51
348.1110361155303
  0
ARC
  5
D42
330
1A
100
AcDbEntity
  8
SEIHIN
  6
CONTINUOUS
 62
     3
 48
16.0
100
AcDbCircle
 10
185.2589289221788
 20
111.4783189112799
 30
0.0
 40
2.000006002490979
100
AcDbArc
 50
30.00320873521619
 51
149.9967912647839
  0
LINE
  5
D43
330
1A
100
AcDbEntity
  8
NOKITOI
  6
PHANTOM
 62
     8
 48
5.0
100
AcDbLine
 10
191.1816289221787
 20
110.8756689112799
 30
0.0
 11
185.9779289221787
 21
110.8755689112798
 31
0.0
  0
LINE
  5
D44
330
1A
100
AcDbEntity
  8
SEIHIN
  6
CONTINUOUS
 62
     3
 48
16.0
100
AcDbLine
 10
185.2589289221787
 20
110.4783189112799
 30
0.0
 11
191.6319289221789
 21
110.6506189112799
 31
0.0
  0
ARC
  5
D45
330
1A
100
AcDbEntity
  8
SEIHIN
  6
CONTINUOUS
 62
     3
 48
16.0
100
AcDbCircle
 10
186.7407185837645
 20
97.02841044885165
 30
0.0
 40
1.000008462481697
100
AcDbArc
 50
89.99940765751349
 51
168.6029545883068
  0
ARC
  5
D46
330
1A
100
AcDbEntity
  8
SEIHIN
  6
CONTINUOUS
 62
     3
 48
16.0
100
AcDbCircle
 10
187.2508185837646
 20
97.02841044885156
 30
0.0
 40
1.000008462481802
100
AcDbArc
 50
89.9994076575086
 51
168.6029545883019
  0
LINE
  5
D47
330
1A
100
AcDbEntity
  8
NOKITOI
  6
PHANTOM
 62
     8
 48
5.0
100
AcDbLine
 10
185.3334289221786
 20
100.8760689112799
 30
0.0
 11
191.1816289221787
 21
100.8760689112799
 31
0.0
  0
LINE
  5
D48
330
1A
100
AcDbEntity
  8
NOKITOI
  6
PHANTOM
 62
     8
 48
5.0
100
AcDbLine
 10
190.8766289221787
 20
102.1760689112798
 30
0.0
 11
185.4523289221787
 21
102.1761689112798
 31
0.0
  0
LINE
  5
D49
330
1A
100
AcDbEntity
  8
SEIHIN
  6
CONTINUOUS
 62
     3
 48
16.0
100
AcDbLine
 10
191.6590289221788
 20
99.82841891127998
 30
0.0
 11
185.7775289221789
 21
99.82841891127998
 31
0.0
  0
LINE
  5
D4A
330
1A
100
AcDbEntity
  8
NOKITOI
  6
PHANTOM
 62
     8
 48
5.0
100
AcDbLine
 10
187.0102289221785
 20
109.5755689112799
 30
0.0
 11
185.4523289221787
 21
102.1761689112798
 31
0.0
  0
LINE
  5
D4B
330
1A
100
AcDbEntity
  8
NOKITOI
  6
PHANTOM
 62
     8
 48
5.0
100
AcDbLine
 10
183.6463289221786
 20
99.90816891127984
 30
0.0
 11
185.9554289221785
 21
110.8755689112798
 31
0.0
  0
ARC
  5
D4C
330
1A
100
AcDbEntity
  8
SEIHIN
  6
CONTINUOUS
 62
     3
 48
16.0
100
AcDbCircle
 10
185.7775185837647
 20
98.82841044885157
 30
0.0
 40
1.000008462481856
100
AcDbArc
 50
89.99940765751267
 51
168.6029545883076
  0
ARC
  5
D4D
330
1A
100
AcDbEntity
  8
NOKITOI
  6
PHANTOM
 62
     8
 48
5.0
100
AcDbCircle
 10
185.3334473647929
 20
100.6771838747166
 30
0.0
 40
0.1989850374179911
100
AcDbArc
 50
90.00531036897097
 51
168.1136861719431
  0
ARC
  5
D4E
330
1A
100
AcDbEntity
  8
SEIHIN
  6
CONTINUOUS
 62
     3
 48
16.0
100
AcDbCircle
 10
185.258927189521
 20
111.4783219125253
 30
0.0
 40
2.000003001246166
100
AcDbArc
 50
149.9968409016981
 51
270.0000496369149
  0
LINE
  5
D4F
330
1A
100
AcDbEntity
  8
SEIHIN
  6
CONTINUOUS
 62
     3
 48
16.0
100
AcDbLine
 10
185.2589289221787
 20
110.4783189112799
 30
0.0
 11
185.2590289221789
 21
109.4783189112799
 31
0.0
  0
LINE
  5
D50
330
1A
100
AcDbEntity
  8
SEIHIN
  6
CONTINUOUS
 62
     3
 48
16.0
100
AcDbLine
 10
194.4589289221789
 20
111.4784189112798
 30
0.0
 11
194.4590289221789
 21
99.02841891127998
 31
0.0
  0
LINE
  5
D51
330
1A
100
AcDbEntity
  8
SEIHIN
  6
CONTINUOUS
 62
     3
 48
16.0
100
AcDbLine
 10
192.6590289221787
 20
100.8284189112798
 30
0.0
 11
192.6590289221787
 21
109.65101891128
 31
0.0
  0
LINE
  5
D52
330
1A
100
AcDbEntity
  8
NOKITOI
  6
PHANTOM
 62
     8
 48
5.0
100
AcDbLine
 10
190.8766289221787
 20
102.1760689112798
 30
0.0
 11
190.8766289221787
 21
109.5755689112799
 31
0.0
  0
LINE
  5
D53
330
1A
100
AcDbEntity
  8
NOKITOI
  6
PHANTOM
 62
     8
 48
5.0
100
AcDbLine
 10
192.1766289221787
 20
101.8710689112798
 30
0.0
 11
192.1766289221787
 21
109.8806689112798
 31
0.0
  0
ARC
  5
D54
330
1A
100
AcDbEntity
  8
SEIHIN
  6
CONTINUOUS
 62
     3
 48
16.0
100
AcDbCircle
 10
191.6590289221788
 20
100.8284189112798
 30
0.0
 40
0.9999999999999005
100
AcDbArc
 50
270.0000000000008
 51
0.0000000000008142
  0
LINE
  5
D55
330
1A
100
AcDbEntity
  8
SEIHIN
  6
CONTINUOUS
 62
     3
 48
16.0
100
AcDbLine
 10
193.4590289221787
 20
98.02841891127991
 30
0.0
 11
186.7407289221787
 21
98.02841891127991
 31
0.0
  0
ARC
  5
D56
330
1A
100
AcDbEntity
  8
SEIHIN
  6
CONTINUOUS
 62
     3
 48
16.0
100
AcDbCircle
 10
193.4590289221787
 20
99.02841891128003
 30
0.0
 40
1.000000000000113
100
AcDbArc
 50
269.9999999999967
 51
359.9999999999967
  0
ARC
  5
D57
330
1A
100
AcDbEntity
  8
NOKITOI
  6
PHANTOM
 62
     8
 48
5.0
100
AcDbCircle
 10
191.1816289221788
 20
101.8710689112799
 30
0.0
 40
0.9949999999999192
100
AcDbArc
 50
269.9999999999951
 51
359.9999999999951
  0
ARC
  5
D58
330
1A
100
AcDbEntity
  8
SEIHIN
  6
CONTINUOUS
 62
     3
 48
16.0
100
AcDbCircle
 10
193.4589289221789
 20
111.4784189112798
 30
0.0
 40
1.0
100
AcDbArc
 50
0.0
 51
90.0
  0
LINE
  5
D59
330
1A
100
AcDbEntity
  8
NOKITOI
  6
PHANTOM
 62
     8
 48
5.0
100
AcDbLine
 10
190.8766289221787
 20
109.5755689112799
 30
0.0
 11
187.0102289221785
 21
109.5755689112799
 31
0.0
  0
ARC
  5
D5A
330
1A
100
AcDbEntity
  8
SEIHIN
  6
CONTINUOUS
 62
     3
 48
16.0
100
AcDbCircle
 10
191.6590466324925
 20
109.6510016728768
 30
0.0
 40
0.9999822898348563
100
AcDbArc
 50
0.0009877052406307
 51
91.54821658972759
  0
ARC
  5
D5B
330
1A
100
AcDbEntity
  8
NOKITOI
  6
PHANTOM
 62
     8
 48
5.0
100
AcDbCircle
 10
191.1816289221787
 20
109.8806689112799
 30
0.0
 40
0.9950000000000613
100
AcDbArc
 50
359.9999999999967
 51
89.99999999999674
  0
LINE
  5
D5C
330
1A
100
AcDbEntity
  8
SEIHIN
  6
CONTINUOUS
 62
     3
 48
16.0
100
AcDbLine
 10
186.9909289221789
 20
112.4784189112798
 30
0.0
 11
193.4589289221789
 21
112.4784189112798
 31
0.0
  0
LINE
  5
D5D
330
1A
100
AcDbEntity
  8
CENTER_L
  6
CENTER
 62
     1
 48
5.0
100
AcDbLine
 10
202.9850289221789
 20
212.47871891128
 30
0.0
 11
64.63802892217888
 21
212.47821891128
 31
0.0
  0
LINE
  5
D5E
330
1A
100
AcDbEntity
  8
SEIHIN
  6
CONTINUOUS
 62
     3
 48
16.0
100
AcDbLine
 10
183.3020289221789
 20
227.47821891128
 30
0.0
 11
183.3020289221789
 21
247.4784189112799
 31
0.0
  0
LINE
  5
D5F
330
1A
100
AcDbEntity
  8
SEIHIN
  6
CONTINUOUS
 62
     3
 48
16.0
100
AcDbLine
 10
187.0112289221789
 20
227.47821891128
 30
0.0
 11
187.0112289221789
 21
247.4784189112799
 31
0.0
  0
LINE
  5
D60
330
1A
100
AcDbEntity
  8
SEIHIN
  6
CONTINUOUS
 62
     3
 48
16.0
100
AcDbLine
 10
194.4244289221787
 20
247.4784189112799
 30
0.0
 11
194.4244289221787
 21
212.4784189112798
 31
0.0
  0
LINE
  5
D61
330
1A
100
AcDbEntity
  8
SEIHIN
  6
CONTINUOUS
 62
     3
 48
16.0
100
AcDbLine
 10
179.4245289221789
 20
212.4784189112798
 30
0.0
 11
179.4245289221789
 21
247.4784189112799
 31
0.0
  0
LINE
  5
D62
330
1A
100
AcDbEntity
  8
SEIHIN
  6
CONTINUOUS
 62
     3
 48
16.0
100
AcDbLine
 10
168.9245289221789
 20
212.4784189112798
 30
0.0
 11
168.9245289221789
 21
247.4784189112799
 31
0.0
  0
LINE
  5
D63
330
1A
100
AcDbEntity
  8
SEIHIN
  6
CONTINUOUS
 62
     3
 48
16.0
100
AcDbLine
 10
83.3376289221789
 20
227.4783189112798
 30
0.0
 11
83.3376289221789
 21
247.4785189112799
 31
0.0
  0
LINE
  5
D64
330
1A
100
AcDbEntity
  8
SEIHIN
  6
CONTINUOUS
 62
     3
 48
16.0
100
AcDbLine
 10
87.04682892217892
 20
227.4783189112798
 30
0.0
 11
87.04682892217892
 21
247.4785189112799
 31
0.0
  0
LINE
  5
D65
330
1A
100
AcDbEntity
  8
SEIHIN
  6
CONTINUOUS
 62
     3
 48
16.0
100
AcDbLine
 10
75.92442892217883
 20
247.4785189112799
 30
0.0
 11
75.92442892217883
 21
212.4785189112799
 31
0.0
  0
LINE
  5
D66
330
1A
100
AcDbEntity
  8
SEIHIN
  6
CONTINUOUS
 62
     3
 48
16.0
100
AcDbLine
 10
101.4243289221789
 20
212.4785189112799
 30
0.0
 11
101.4243289221789
 21
247.4785189112799
 31
0.0
  0
LINE
  5
D67
330
1A
100
AcDbEntity
  8
SEIHIN
  6
CONTINUOUS
 62
     3
 48
16.0
100
AcDbLine
 10
90.92432892217891
 20
212.4785189112799
 30
0.0
 11
90.92432892217891
 21
247.4785189112799
 31
0.0
  0
LINE
  5
D68
330
1A
100
AcDbEntity
  8
CENTER_L
  6
CENTER
 62
     1
 48
5.0
100
AcDbLine
 10
135.1744289221787
 20
166.3688189112798
 30
0.0
 11
135.1744289221787
 21
257.35751891128
 31
0.0
  0
LINE
  5
D69
330
1A
100
AcDbEntity
  8
SEIHIN
  6
CONTINUOUS
 62
     3
 48
16.0
100
AcDbLine
 10
135.1749289221789
 20
177.4784189112798
 30
0.0
 11
194.4246289221789
 21
177.4790189112799
 31
0.0
  0
LINE
  5
D6A
330
1A
100
AcDbEntity
  8
SEIHIN
  6
CONTINUOUS
 62
     3
 48
16.0
100
AcDbLine
 10
101.4243289221789
 20
212.47871891128
 30
0.0
 11
101.4240289221789
 21
177.4787189112799
 31
0.0
  0
LINE
  5
D6B
330
1A
100
AcDbEntity
  8
SEIHIN
  6
CONTINUOUS
 62
     3
 48
16.0
100
AcDbLine
 10
75.92412892217891
 20
177.4789189112799
 30
0.0
 11
75.92442892217883
 21
212.4789189112799
 31
0.0
  0
LINE
  5
D6C
330
1A
100
AcDbEntity
  8
SEIHIN
  6
CONTINUOUS
 62
     3
 48
16.0
100
AcDbLine
 10
90.92432892217891
 20
212.4788189112797
 30
0.0
 11
90.92402892217894
 21
177.4788189112798
 31
0.0
  0
LINE
  5
D6D
330
1A
100
AcDbEntity
  8
SEIHIN
  6
CONTINUOUS
 62
     3
 48
16.0
100
AcDbLine
 10
87.04672892217883
 20
197.4791189112798
 30
0.0
 11
87.04652892217893
 21
177.4788189112798
 31
0.0
  0
LINE
  5
D6E
330
1A
100
AcDbEntity
  8
SEIHIN
  6
CONTINUOUS
 62
     3
 48
16.0
100
AcDbLine
 10
83.33742892217884
 20
197.4791189112798
 30
0.0
 11
83.3372289221789
 21
177.4788189112798
 31
0.0
  0
LINE
  5
D6F
330
1A
100
AcDbEntity
  8
SEIHIN
  6
CONTINUOUS
 62
     3
 48
16.0
100
AcDbLine
 10
135.1738289221789
 20
177.4784189112798
 30
0.0
 11
75.92412892217891
 21
177.4791189112798
 31
0.0
  0
LINE
  5
D70
330
1A
100
AcDbEntity
  8
SEIHIN
  6
CONTINUOUS
 62
     3
 48
16.0
100
AcDbLine
 10
85.38942892217892
 20
212.4788189112797
 30
0.0
 11
85.38922892217886
 21
197.4791189112798
 31
0.0
  0
LINE
  5
D71
330
1A
100
AcDbEntity
  8
SEIHIN
  6
CONTINUOUS
 62
     3
 48
16.0
100
AcDbLine
 10
77.72442892217885
 20
212.4789189112799
 30
0.0
 11
77.72432892217892
 21
197.4791189112798
 31
0.0
  0
LINE
  5
D72
330
1A
100
AcDbEntity
  8
SEIHIN
  6
CONTINUOUS
 62
     3
 48
16.0
100
AcDbLine
 10
77.72432892262981
 20
197.4791865427098
 30
0.0
 11
87.04622892217889
 21
197.4790189112799
 31
0.0
  0
LINE
  5
D73
330
1A
100
AcDbEntity
  8
SEIHIN
  6
CONTINUOUS
 62
     3
 48
16.0
100
AcDbLine
 10
77.72442892217885
 20
212.4785189112799
 30
0.0
 11
77.72442892217885
 21
227.4783189112798
 31
0.0
  0
LINE
  5
D74
330
1A
100
AcDbEntity
  8
SEIHIN
  6
CONTINUOUS
 62
     3
 48
16.0
100
AcDbLine
 10
85.38942892217892
 20
212.4785189112799
 30
0.0
 11
85.38942892217892
 21
227.4783189112798
 31
0.0
  0
LINE
  5
D75
330
1A
100
AcDbEntity
  8
SEIHIN
  6
CONTINUOUS
 62
     3
 48
16.0
100
AcDbLine
 10
77.72442892217885
 20
227.4783189112798
 30
0.0
 11
87.04642892217885
 21
227.4783189112798
 31
0.0
  0
LINE
  5
D76
330
1A
100
AcDbEntity
  8
SEIHIN
  6
CONTINUOUS
 62
     3
 48
16.0
100
AcDbLine
 10
168.9245289221789
 20
212.4786189112799
 30
0.0
 11
168.9247289221789
 21
177.4786189112798
 31
0.0
  0
LINE
  5
D77
330
1A
100
AcDbEntity
  8
SEIHIN
  6
CONTINUOUS
 62
     3
 48
16.0
100
AcDbLine
 10
179.4245289221789
 20
212.47871891128
 30
0.0
 11
179.4247289221789
 21
177.4787189112799
 31
0.0
  0
LINE
  5
D78
330
1A
100
AcDbEntity
  8
SEIHIN
  6
CONTINUOUS
 62
     3
 48
16.0
100
AcDbLine
 10
194.4246289221789
 20
177.4788189112798
 30
0.0
 11
194.4244289221787
 21
212.4788189112797
 31
0.0
  0
LINE
  5
D79
330
1A
100
AcDbEntity
  8
SEIHIN
  6
CONTINUOUS
 62
     3
 48
16.0
100
AcDbLine
 10
187.0114289221789
 20
197.4790189112799
 30
0.0
 11
187.0115289221789
 21
177.4788189112798
 31
0.0
  0
LINE
  5
D7A
330
1A
100
AcDbEntity
  8
SEIHIN
  6
CONTINUOUS
 62
     3
 48
16.0
100
AcDbLine
 10
183.3021289221787
 20
197.4790189112799
 30
0.0
 11
183.3022289221789
 21
177.4787189112799
 31
0.0
  0
LINE
  5
D7B
330
1A
100
AcDbEntity
  8
SEIHIN
  6
CONTINUOUS
 62
     3
 48
16.0
100
AcDbLine
 10
184.9594289221789
 20
212.47871891128
 30
0.0
 11
184.9595289221787
 21
197.4790189112799
 31
0.0
  0
LINE
  5
D7C
330
1A
100
AcDbEntity
  8
SEIHIN
  6
CONTINUOUS
 62
     3
 48
16.0
100
AcDbLine
 10
192.6244289221789
 20
212.4788189112797
 30
0.0
 11
192.6245289221789
 21
197.4790189112799
 31
0.0
  0
LINE
  5
D7D
330
1A
100
AcDbEntity
  8
SEIHIN
  6
CONTINUOUS
 62
     3
 48
16.0
100
AcDbLine
 10
192.624528921728
 20
197.479086544508
 30
0.0
 11
183.3025289221787
 21
197.4789189112799
 31
0.0
  0
LINE
  5
D7E
330
1A
100
AcDbEntity
  8
SEIHIN
  6
CONTINUOUS
 62
     3
 48
16.0
100
AcDbLine
 10
192.6244289221789
 20
227.47821891128
 30
0.0
 11
183.3024289221789
 21
227.47821891128
 31
0.0
  0
LINE
  5
D7F
330
1A
100
AcDbEntity
  8
SEIHIN
  6
CONTINUOUS
 62
     3
 48
16.0
100
AcDbLine
 10
184.9594289221789
 20
212.4784189112798
 30
0.0
 11
184.9594289221789
 21
227.47821891128
 31
0.0
  0
LINE
  5
D80
330
1A
100
AcDbEntity
  8
SEIHIN
  6
CONTINUOUS
 62
     3
 48
16.0
100
AcDbLine
 10
192.6244289221789
 20
212.4784189112798
 30
0.0
 11
192.6244289221789
 21
227.47821891128
 31
0.0
  0
LINE
  5
D81
330
1A
100
AcDbEntity
  8
SEIHIN
  6
CONTINUOUS
 62
     3
 48
16.0
100
AcDbLine
 10
135.1747289221789
 20
247.4785189112799
 30
0.0
 11
194.4249289221789
 21
247.4782189112798
 31
0.0
  0
LINE
  5
D82
330
1A
100
AcDbEntity
  8
SEIHIN
  6
CONTINUOUS
 62
     3
 48
16.0
100
AcDbLine
 10
135.1741289221787
 20
247.4785189112799
 30
0.0
 11
75.92392892217884
 21
247.47831891128
 31
0.0
  0
LINE
  5
D83
330
1A
100
AcDbEntity
  8
SEIHIN
  6
CONTINUOUS
 62
     3
 48
16.0
100
AcDbLine
 10
340.1745289221787
 20
113.4778189112799
 30
0.0
 11
320.1744289221787
 21
113.4778189112799
 31
0.0
  0
LINE
  5
D84
330
1A
100
AcDbEntity
  8
SEIHIN
  6
CONTINUOUS
 62
     3
 48
16.0
100
AcDbLine
 10
336.1744289221789
 20
59.07811891127991
 30
0.0
 11
305.1744289221787
 21
59.07821891127998
 31
0.0
  0
LINE
  5
D85
330
1A
100
AcDbEntity
  8
SEIHIN
  6
CONTINUOUS
 62
     3
 48
16.0
100
AcDbLine
 10
340.1745289221787
 20
98.02811891127991
 30
0.0
 11
305.1744289221787
 21
98.02821891127999
 31
0.0
  0
LINE
  5
D86
330
1A
100
AcDbEntity
  8
SEIHIN
  6
CONTINUOUS
 62
     3
 48
16.0
100
AcDbLine
 10
305.1746289221789
 20
112.4783189112799
 30
0.0
 11
340.1745289221787
 21
112.47821891128
 31
0.0
  0
LINE
  5
D87
330
1A
100
AcDbEntity
  8
SEIHIN
  6
CONTINUOUS
 62
     3
 48
16.0
100
AcDbLine
 10
336.1744289221789
 20
70.53961891127997
 30
0.0
 11
305.1744289221787
 21
70.53961891127997
 31
0.0
  0
LINE
  5
D88
330
1A
100
AcDbEntity
  8
SEIHIN
  6
CONTINUOUS
 62
     3
 48
16.0
100
AcDbLine
 10
270.1744289221787
 20
113.4779189112799
 30
0.0
 11
270.1744289221787
 21
60.07821891127992
 31
0.0
  0
LINE
  5
D89
330
1A
100
AcDbEntity
  8
SEIHIN
  6
CONTINUOUS
 62
     3
 48
16.0
100
AcDbLine
 10
274.1744289221788
 20
59.07821891127998
 30
0.0
 11
274.1745289221789
 21
112.4784189112798
 31
0.0
  0
LINE
  5
D8A
330
1A
100
AcDbEntity
  8
CENTER_L
  6
CENTER
 62
     1
 48
5.0
100
AcDbLine
 10
305.1744289221787
 20
52.64201891127999
 30
0.0
 11
305.1744289221787
 21
118.8280189112799
 31
0.0
  0
LINE
  5
D8B
330
1A
100
AcDbEntity
  8
SEIHIN
  6
CONTINUOUS
 62
     3
 48
16.0
100
AcDbLine
 10
274.1744289221788
 20
70.53961891127997
 30
0.0
 11
305.1744289221787
 21
70.53961891127997
 31
0.0
  0
LINE
  5
D8C
330
1A
100
AcDbEntity
  8
SEIHIN
  6
CONTINUOUS
 62
     3
 48
16.0
100
AcDbLine
 10
274.1744289221788
 20
59.07821891127998
 30
0.0
 11
305.1744289221787
 21
59.07821891127998
 31
0.0
  0
LINE
  5
D8D
330
1A
100
AcDbEntity
  8
SEIHIN
  6
CONTINUOUS
 62
     3
 48
16.0
100
AcDbLine
 10
274.1744289221788
 20
59.07821891127998
 30
0.0
 11
270.1745289221789
 21
60.07821891127992
 31
0.0
  0
LINE
  5
D8E
330
1A
100
AcDbEntity
  8
SEIHIN
  6
CONTINUOUS
 62
     3
 48
16.0
100
AcDbLine
 10
274.1744289221788
 20
70.53961891127997
 30
0.0
 11
270.1745289221789
 21
71.53961891127991
 31
0.0
  0
LINE
  5
D8F
330
1A
100
AcDbEntity
  8
SEIHIN
  6
CONTINUOUS
 62
     3
 48
16.0
100
AcDbLine
 10
305.1743289221787
 20
112.4783189112799
 30
0.0
 11
270.1744289221787
 21
112.4783189112799
 31
0.0
  0
LINE
  5
D90
330
1A
100
AcDbEntity
  8
SEIHIN
  6
CONTINUOUS
 62
     3
 48
16.0
100
AcDbLine
 10
270.1744289221787
 20
98.02821891127999
 30
0.0
 11
305.1744289221787
 21
98.02821891127999
 31
0.0
  0
LINE
  5
D91
330
1A
100
AcDbEntity
  8
SEIHIN
  6
CONTINUOUS
 62
     3
 48
16.0
100
AcDbLine
 10
270.1744289221787
 20
113.4779189112799
 30
0.0
 11
290.1744289221787
 21
113.4779189112799
 31
0.0
  0
LINE
  5
D92
330
1A
100
AcDbEntity
  8
SEIHIN
  6
CONTINUOUS
 62
     3
 48
16.0
100
AcDbLine
 10
290.1744289221787
 20
113.4778189112799
 30
0.0
 11
290.1744289221787
 21
112.4783189112799
 31
0.0
  0
LINE
  5
D93
330
1A
100
AcDbEntity
  8
SEIHIN
  6
CONTINUOUS
 62
     3
 48
16.0
100
AcDbLine
 10
320.1744289221787
 20
113.4778189112799
 30
0.0
 11
320.1744289221787
 21
112.4783189112799
 31
0.0
  0
LINE
  5
D94
330
1A
100
AcDbEntity
  8
SEIHIN
  6
CONTINUOUS
 62
     3
 48
16.0
100
AcDbLine
 10
336.1744289221789
 20
59.07811891127991
 30
0.0
 11
336.1744289221789
 21
112.4783189112799
 31
0.0
  0
LINE
  5
D95
330
1A
100
AcDbEntity
  8
SEIHIN
  6
CONTINUOUS
 62
     3
 48
16.0
100
AcDbLine
 10
340.1745289221787
 20
113.4778189112799
 30
0.0
 11
340.1744289221789
 21
60.07811891127992
 31
0.0
  0
LINE
  5
D96
330
1A
100
AcDbEntity
  8
SEIHIN
  6
CONTINUOUS
 62
     3
 48
16.0
100
AcDbLine
 10
336.1744289221789
 20
59.07811891127991
 30
0.0
 11
340.1743289221788
 21
60.07811891127992
 31
0.0
  0
LINE
  5
D97
330
1A
100
AcDbEntity
  8
SEIHIN
  6
CONTINUOUS
 62
     3
 48
16.0
100
AcDbLine
 10
336.1744289221789
 20
70.53961891127997
 30
0.0
 11
340.1743289221788
 21
71.53951891127992
 31
0.0
  0
VIEWPORT
  5
22
330
17
100
AcDbEntity
 67
     1
  8
0
100
AcDbViewport
 10
313.6808219178082
 20
148.5
 30
0.0
 40
627.3616438356165
 41
297.0
 68
     2
 69
     1
1001
ACAD
1000
MVIEW
1002
{
1070
    16
1010
0.0
1020
0.0
1030
0.0
1010
0.0
1020
0.0
1030
1.0
1040
0.0
1040
297.0
1040
313.6808219178082
1040
148.5
1040
50.0
1040
0.0
1040
0.0
1070
     0
1070
   100
1070
     1
1070
     0
1070
     0
1070
     0
1070
     0
1070
     0
1040
0.0
1040
0.0
1040
0.0
1040
1.0
1040
1.0
1040
10.0
1040
10.0
1070
     0
1002
{
1002
}
1002
}
  0
VIEWPORT
  5
64
330
17
100
AcDbEntity
 67
     1
  8
VIEWPORT
100
AcDbViewport
 10
210.0
 20
148.5
 30
0.0
 40
420.0
 41
297.0
 68
     1
 69
     2
1001
ACAD
1000
MVIEW
1002
{
1070
    16
1010
0.0
1020
0.0
1030
0.0
1010
0.0
1020
0.0
1030
1.0
1040
0.0
1040
302.9399999999998
1040
210.0
1040
148.5
1040
50.0
1040
0.0
1040
0.0
1070
     0
1070
   100
1070
     1
1070
     0
1070
     0
1070
     0
1070
     0
1070
     0
1040
0.0
1040
0.0
1040
0.0
1040
5.0
1040
5.0
1040
0.0
1040
0.0
1070
     0
1002
{
1002
}
1002
}
  0
ENDSEC
  0
SECTION
  2
OBJECTS
  0
DICTIONARY
  5
C
330
0
100
AcDbDictionary
  3
ACAD_GROUP
350
D
  3
ACAD_LAYOUT
350
4B1
  3
ACAD_MLINESTYLE
350
E
  3
ACAD_PLOTSETTINGS
350
4B2
  3
ACAD_PLOTSTYLENAME
350
4AF
  3
ACDBHEADERROUNDTRIPXREC
350
DF3
  0
DICTIONARY
  5
520
330
1A
100
AcDbDictionary
280
     1
  3
ACAD_LAYOUTSELFREF
360
E15
  0
DICTIONARY
  5
51E
330
17
100
AcDbDictionary
280
     1
  3
ACAD_LAYOUTSELFREF
360
E14
  0
DICTIONARY
  5
D
102
{ACAD_REACTORS
330
C
102
}
330
C
100
AcDbDictionary
  0
DICTIONARY
  5
4B1
102
{ACAD_REACTORS
330
C
102
}
330
C
100
AcDbDictionary
  0
DICTIONARY
  5
E
102
{ACAD_REACTORS
330
C
102
}
330
C
100
AcDbDictionary
  3
STANDARD
350
13
  0
DICTIONARY
  5
4B2
102
{ACAD_REACTORS
330
C
102
}
330
C
100
AcDbDictionary
  0
ACDBDICTIONARYWDFLT
  5
4AF
102
{ACAD_REACTORS
330
C
102
}
330
C
100
AcDbDictionary
281
     1
  3
Normal
350
4B0
100
AcDbDictionaryWithDefault
340
4B0
1001
ACAD
1000
TREAT_AS_HARD
1070
     0
1000
TREAT_AS_HARD
1070
     0
1000
TREAT_AS_HARD
1070
     0
  0
DICTIONARY
  5
DF3
102
{ACAD_REACTORS
330
C
102
}
330
C
100
AcDbDictionary
  3
TSTACKALIGN
350
DF4
  3
TSTACKSIZE
350
DF5
  3
HYPERLINKBASE
350
DF6
  3
STYLESHEET
350
DF7
  3
LAYOUTDICT
350
DF8
  3
PLOTSETDICT
350
DF9
  3
PLOTSTYLNAMDICT
350
DFA
  3
LWETCUNION
350
DFB
  3
INSUNITS
350
DFC
  3
CEPSNTYPE
350
DFD
  3
FINGERPRINTGUID
350
DFE
  3
VERSIONGUID
350
DFF
  3
PSVPSCALE
350
E00
  3
DIMSTYLEDATA
350
E01
  3
PUCSORTHOREF
350
E02
  3
PUCSORTHOVIEW
350
E03
  3
PUCSBASE
350
E04
  3
PUCSORGTOP
350
E05
  3
PUCSORGBOTTOM
350
E06
  3
PUCSORGLEFT
350
E07
  3
PUCSORGRIGHT
350
E08
  3
PUCSORGFRONT
350
E09
  3
PUCSORGBACK
350
E0A
  3
UCSORTHOREF
350
E0B
  3
UCSORTHOVIEW
350
E0C
  3
UCSBASE
350
E0D
  3
UCSORGTOP
350
E0E
  3
UCSORGBOTTOM
350
E0F
  3
UCSORGLEFT
350
E10
  3
UCSORGRIGHT
350
E11
  3
UCSORGFRONT
350
E12
  3
UCSORGBACK
350
E13
  0
XRECORD
  5
E15
102
{ACAD_REACTORS
330
520
102
}
330
520
100
AcDbXrecord
340
1A
  0
XRECORD
  5
E14
102
{ACAD_REACTORS
330
51E
102
}
330
51E
100
AcDbXrecord
340
17
  0
MLINESTYLE
  5
13
102
{ACAD_REACTORS
330
E
102
}
330
E
100
AcDbMlineStyle
  2
STANDARD
 70
     0
  3

 62
     0
 51
90.0
 52
90.0
 71
     2
 49
0.5
 62
   256
  6
BYLAYER
 49
-0.5
 62
   256
  6
BYLAYER
  0
ACDBPLACEHOLDER
  5
4B0
102
{ACAD_REACTORS
330
4AF
102
}
330
4AF
100
AcDbPlaceHolder
280
     0
  0
XRECORD
  5
DF4
102
{ACAD_REACTORS
330
DF3
102
}
330
DF3
100
AcDbXrecord
 90
        1
  0
XRECORD
  5
DF5
102
{ACAD_REACTORS
330
DF3
102
}
330
DF3
100
AcDbXrecord
 90
       70
  0
XRECORD
  5
DF6
102
{ACAD_REACTORS
330
DF3
102
}
330
DF3
100
AcDbXrecord
  1

  0
XRECORD
  5
DF7
102
{ACAD_REACTORS
330
DF3
102
}
330
DF3
100
AcDbXrecord
  1
systemprinter.ctb
  0
XRECORD
  5
DF8
102
{ACAD_REACTORS
330
DF3
102
}
330
DF3
100
AcDbXrecord
340
4B1
  0
XRECORD
  5
DF9
102
{ACAD_REACTORS
330
DF3
102
}
330
DF3
100
AcDbXrecord
340
4B2
  0
XRECORD
  5
DFA
102
{ACAD_REACTORS
330
DF3
102
}
330
DF3
100
AcDbXrecord
340
4AF
  0
XRECORD
  5
DFB
102
{ACAD_REACTORS
330
DF3
102
}
330
DF3
100
AcDbXrecord
 90
    10781
  0
XRECORD
  5
DFC
102
{ACAD_REACTORS
330
DF3
102
}
330
DF3
100
AcDbXrecord
 90
        0
  0
XRECORD
  5
DFD
102
{ACAD_REACTORS
330
DF3
102
}
330
DF3
100
AcDbXrecord
 90
        0
  0
XRECORD
  5
DFE
102
{ACAD_REACTORS
330
DF3
102
}
330
DF3
100
AcDbXrecord
  1
{5A2975E0-A988-11D4-932C-0050DA99388B}
  0
XRECORD
  5
DFF
102
{ACAD_REACTORS
330
DF3
102
}
330
DF3
100
AcDbXrecord
  1
{9F619FA7-AD8A-411C-8145-735EDF58E6F6}
  0
XRECORD
  5
E00
102
{ACAD_REACTORS
330
DF3
102
}
330
DF3
100
AcDbXrecord
 40
0.0
  0
XRECORD
  5
E01
102
{ACAD_REACTORS
330
DF3
102
}
330
DF3
100
AcDbXrecord
1000
DSTYLE
1002
{
1070
   341
340
B2
1070
   343
340
B2
1070
   344
340
B2
1070
   371
 70
    -1
1070
   372
 70
    -1
1002
}
  0
XRECORD
  5
E02
102
{ACAD_REACTORS
330
DF3
102
}
330
DF3
100
AcDbXrecord
340
0
  0
XRECORD
  5
E03
102
{ACAD_REACTORS
330
DF3
102
}
330
DF3
100
AcDbXrecord
 70
     0
  0
XRECORD
  5
E04
102
{ACAD_REACTORS
330
DF3
102
}
330
DF3
100
AcDbXrecord
340
0
  0
XRECORD
  5
E05
102
{ACAD_REACTORS
330
DF3
102
}
330
DF3
100
AcDbXrecord
 10
0.0
 20
0.0
 30
0.0
  0
XRECORD
  5
E06
102
{ACAD_REACTORS
330
DF3
102
}
330
DF3
100
AcDbXrecord
 10
0.0
 20
0.0
 30
0.0
  0
XRECORD
  5
E07
102
{ACAD_REACTORS
330
DF3
102
}
330
DF3
100
AcDbXrecord
 10
0.0
 20
0.0
 30
0.0
  0
XRECORD
  5
E08
102
{ACAD_REACTORS
330
DF3
102
}
330
DF3
100
AcDbXrecord
 10
0.0
 20
0.0
 30
0.0
  0
XRECORD
  5
E09
102
{ACAD_REACTORS
330
DF3
102
}
330
DF3
100
AcDbXrecord
 10
0.0
 20
0.0
 30
0.0
  0
XRECORD
  5
E0A
102
{ACAD_REACTORS
330
DF3
102
}
330
DF3
100
AcDbXrecord
 10
0.0
 20
0.0
 30
0.0
  0
XRECORD
  5
E0B
102
{ACAD_REACTORS
330
DF3
102
}
330
DF3
100
AcDbXrecord
340
0
  0
XRECORD
  5
E0C
102
{ACAD_REACTORS
330
DF3
102
}
330
DF3
100
AcDbXrecord
 70
     0
  0
XRECORD
  5
E0D
102
{ACAD_REACTORS
330
DF3
102
}
330
DF3
100
AcDbXrecord
340
0
  0
XRECORD
  5
E0E
102
{ACAD_REACTORS
330
DF3
102
}
330
DF3
100
AcDbXrecord
 10
0.0
 20
0.0
 30
0.0
  0
XRECORD
  5
E0F
102
{ACAD_REACTORS
330
DF3
102
}
330
DF3
100
AcDbXrecord
 10
0.0
 20
0.0
 30
0.0
  0
XRECORD
  5
E10
102
{ACAD_REACTORS
330
DF3
102
}
330
DF3
100
AcDbXrecord
 10
0.0
 20
0.0
 30
0.0
  0
XRECORD
  5
E11
102
{ACAD_REACTORS
330
DF3
102
}
330
DF3
100
AcDbXrecord
 10
0.0
 20
0.0
 30
0.0
  0
XRECORD
  5
E12
102
{ACAD_REACTORS
330
DF3
102
}
330
DF3
100
AcDbXrecord
 10
0.0
 20
0.0
 30
0.0
  0
XRECORD
  5
E13
102
{ACAD_REACTORS
330
DF3
102
}
330
DF3
100
AcDbXrecord
 10
0.0
 20
0.0
 30
0.0
  0
ENDSEC
  0
EOF
