  0
SECTION
  2
HEADER
  9
$ACADVER
  1
AC1014
  9
$ACADMAINTVER
 70
     9
  9
$DWGCODEPAGE
  3
ANSI_932
  9
$INSBASE
 10
0.0
 20
0.0
 30
0.0
  9
$EXTMIN
 10
-0.0128164049386896
 20
-0.0090630292066862
 30
-0.0015258207003583
  9
$EXTMAX
 10
398.8000497813338
 20
275.8226172440017
 30
0.0000000349246037
  9
$LIMMIN
 10
0.0
 20
0.0
  9
$LIMMAX
 10
420.0
 20
297.0
  9
$ORTHOMODE
 70
     0
  9
$REGENMODE
 70
     1
  9
$FILLMODE
 70
     1
  9
$QTEXTMODE
 70
     0
  9
$MIRRTEXT
 70
     1
  9
$DRAGMODE
 70
     2
  9
$LTSCALE
 40
1.0
  9
$OSMODE
 70
    35
  9
$ATTMODE
 70
     1
  9
$TEXTSIZE
 40
2.5
  9
$TRACEWID
 40
1.0
  9
$TEXTSTYLE
  7
STYLE1
  9
$CLAYER
  8
SUNPOU
  9
$CELTYPE
  6
BYLAYER
  9
$CECOLOR
 62
   256
  9
$CELTSCALE
 40
1.0
  9
$DELOBJ
 70
     1
  9
$DISPSILH
 70
     0
  9
$DIMSCALE
 40
1.0
  9
$DIMASZ
 40
3.0
  9
$DIMEXO
 40
3.0
  9
$DIMDLI
 40
7.0
  9
$DIMRND
 40
0.0
  9
$DIMDLE
 40
0.0
  9
$DIMEXE
 40
1.5
  9
$DIMTP
 40
0.0
  9
$DIMTM
 40
0.0
  9
$DIMTXT
 40
3.0
  9
$DIMCEN
 40
150.0
  9
$DIMTSZ
 40
0.0
  9
$DIMTOL
 70
     0
  9
$DIMLIM
 70
     0
  9
$DIMTIH
 70
     0
  9
$DIMTOH
 70
     0
  9
$DIMSE1
 70
     0
  9
$DIMSE2
 70
     0
  9
$DIMTAD
 70
     3
  9
$DIMZIN
 70
     0
  9
$DIMBLK
  1

  9
$DIMASO
 70
     1
  9
$DIMSHO
 70
     1
  9
$DIMPOST
  1

  9
$DIMAPOST
  1

  9
$DIMALT
 70
     0
  9
$DIMALTD
 70
     2
  9
$DIMALTF
 40
25.4
  9
$DIMLFAC
 40
1.0
  9
$DIMTOFL
 70
     1
  9
$DIMTVP
 40
0.0
  9
$DIMTIX
 70
     0
  9
$DIMSOXD
 70
     0
  9
$DIMSAH
 70
     1
  9
$DIMBLK1
  1
OPEN
  9
$DIMBLK2
  1
OPEN
  9
$DIMSTYLE
  2
STANDARD
  9
$DIMCLRD
 70
   256
  9
$DIMCLRE
 70
   256
  9
$DIMCLRT
 70
   256
  9
$DIMTFAC
 40
1.0
  9
$DIMGAP
 40
1.0
  9
$DIMJUST
 70
     0
  9
$DIMSD1
 70
     0
  9
$DIMSD2
 70
     0
  9
$DIMTOLJ
 70
     1
  9
$DIMTZIN
 70
     0
  9
$DIMALTZ
 70
     0
  9
$DIMALTTZ
 70
     0
  9
$DIMFIT
 70
     3
  9
$DIMUPT
 70
     0
  9
$DIMUNIT
 70
     2
  9
$DIMDEC
 70
     0
  9
$DIMTDEC
 70
     0
  9
$DIMALTU
 70
     2
  9
$DIMALTTD
 70
     2
  9
$DIMTXSTY
  7
STANDARD
  9
$DIMAUNIT
 70
     0
  9
$LUNITS
 70
     2
  9
$LUPREC
 70
     4
  9
$SKETCHINC
 40
1.0
  9
$FILLETRAD
 40
10.0
  9
$AUNITS
 70
     0
  9
$AUPREC
 70
     0
  9
$MENU
  1
.
  9
$ELEVATION
 40
0.0
  9
$PELEVATION
 40
0.0
  9
$THICKNESS
 40
0.0
  9
$LIMCHECK
 70
     0
  9
$BLIPMODE
 70
     0
  9
$CHAMFERA
 40
10.0
  9
$CHAMFERB
 40
10.0
  9
$CHAMFERC
 40
20.0
  9
$CHAMFERD
 40
0.0
  9
$SKPOLY
 70
     0
  9
$TDCREATE
 40
2450994.350997107
  9
$TDUPDATE
 40
2453817.683382523
  9
$TDINDWG
 40
0.1113867130
  9
$TDUSRTIMER
 40
0.1113867130
  9
$USRTIMER
 70
     1
  9
$ANGBASE
 50
0.0
  9
$ANGDIR
 70
     0
  9
$PDMODE
 70
     1
  9
$PDSIZE
 40
0.0
  9
$PLINEWID
 40
0.0
  9
$COORDS
 70
     1
  9
$SPLFRAME
 70
     0
  9
$SPLINETYPE
 70
     6
  9
$SPLINESEGS
 70
     8
  9
$ATTDIA
 70
     0
  9
$ATTREQ
 70
     1
  9
$HANDLING
 70
 10241
  9
$HANDSEED
  5
706
  9
$SURFTAB1
 70
     6
  9
$SURFTAB2
 70
     6
  9
$SURFTYPE
 70
     6
  9
$SURFU
 70
     6
  9
$SURFV
 70
     6
  9
$UCSNAME
  2

  9
$UCSORG
 10
0.0
 20
0.0
 30
0.0
  9
$UCSXDIR
 10
1.0
 20
0.0
 30
0.0
  9
$UCSYDIR
 10
0.0
 20
1.0
 30
0.0
  9
$PUCSNAME
  2

  9
$PUCSORG
 10
0.0
 20
0.0
 30
0.0
  9
$PUCSXDIR
 10
1.0
 20
0.0
 30
0.0
  9
$PUCSYDIR
 10
0.0
 20
1.0
 30
0.0
  9
$USERI1
 70
     0
  9
$USERI2
 70
     0
  9
$USERI3
 70
     0
  9
$USERI4
 70
     0
  9
$USERI5
 70
     0
  9
$USERR1
 40
0.0
  9
$USERR2
 40
0.0
  9
$USERR3
 40
0.0
  9
$USERR4
 40
0.0
  9
$USERR5
 40
0.0
  9
$WORLDVIEW
 70
     1
  9
$SHADEDGE
 70
     3
  9
$SHADEDIF
 70
    70
  9
$TILEMODE
 70
     1
  9
$MAXACTVP
 70
    16
  9
$PINSBASE
 10
0.0
 20
0.0
 30
0.0
  9
$PLIMCHECK
 70
     0
  9
$PEXTMIN
 10
0.0
 20
0.0
 30
0.0
  9
$PEXTMAX
 10
420.0
 20
297.0
 30
0.0
  9
$PLIMMIN
 10
0.0
 20
0.0
  9
$PLIMMAX
 10
420.0
 20
297.0
  9
$UNITMODE
 70
     0
  9
$VISRETAIN
 70
     0
  9
$PLINEGEN
 70
     0
  9
$PSLTSCALE
 70
     1
  9
$TREEDEPTH
 70
  3020
  9
$PICKSTYLE
 70
     1
  9
$CMLSTYLE
  2
STANDARD
  9
$CMLJUST
 70
     0
  9
$CMLSCALE
 40
1.0
  9
$PROXYGRAPHICS
 70
     1
  9
$MEASUREMENT
 70
     1
  0
ENDSEC
  0
SECTION
  2
CLASSES
  0
CLASS
  1
ACDBDICTIONARYWDFLT
  2
AcDbDictionaryWithDefault
  3
AutoCAD 2000
 90
        0
280
     0
281
     0
  0
CLASS
  1
ACDBPLACEHOLDER
  2
AcDbPlaceHolder
  3
AutoCAD 2000
 90
        0
280
     0
281
     0
  0
CLASS
  1
LAYOUT
  2
AcDbLayout
  3
AutoCAD 2000
 90
        0
280
     0
281
     0
  0
CLASS
  1
LONG_TRANSACTION
  2
AcDbLongTransaction
  3
AutoCAD 2000
 90
        0
280
     0
281
     0
  0
CLASS
  1
LWPOLYLINE
  2
AcDbPolyline
  3
AutoCAD 2000
 90
        0
280
     0
281
     1
  0
CLASS
  1
HATCH
  2
AcDbHatch
  3
AutoCAD 2000
 90
        0
280
     0
281
     1
  0
CLASS
  1
XRECORD
  2
AcDbXrecord
  3
AutoCAD 2000
 90
        0
280
     0
281
     0
  0
CLASS
  1
LONG_TRANSACTION
  2
AcDbLongTransaction
  3
AutoCAD 2000
 90
        0
280
     0
281
     0
  0
CLASS
  1
LWPOLYLINE
  2
AcDbPolyline
  3
AutoCAD 2000
 90
        0
280
     0
281
     1
  0
CLASS
  1
HATCH
  2
AcDbHatch
  3
AutoCAD 2000
 90
        0
280
     0
281
     1
  0
CLASS
  1
XRECORD
  2
AcDbXrecord
  3
AutoCAD 2000
 90
        0
280
     0
281
     0
  0
CLASS
  1
LONG_TRANSACTION
  2
AcDbLongTransaction
  3
AutoCAD 2000
 90
        0
280
     0
281
     0
  0
CLASS
  1
LWPOLYLINE
  2
AcDbPolyline
  3
AutoCAD 2000
 90
        0
280
     0
281
     1
  0
CLASS
  1
HATCH
  2
AcDbHatch
  3
AutoCAD 2000
 90
        0
280
     0
281
     1
  0
CLASS
  1
XRECORD
  2
AcDbXrecord
  3
AutoCAD 2000
 90
        0
280
     0
281
     0
  0
ENDSEC
  0
SECTION
  2
TABLES
  0
TABLE
  2
VPORT
  5
8
330
0
100
AcDbSymbolTable
 70
     2
  0
VPORT
  5
6E2
330
8
100
AcDbSymbolTableRecord
100
AcDbViewportTableRecord
  2
*ACTIVE
 70
     0
 10
0.0
 20
0.0
 11
1.0
 21
1.0
 12
231.4748292434682
 22
154.2887811628268
 13
0.0
 23
0.0
 14
5.0
 24
5.0
 15
0.0
 25
0.0
 16
0.0
 26
0.0
 36
1.0
 17
0.0
 27
0.0
 37
0.0
 40
330.1044899165682
 41
1.795454545454545
 42
50.0
 43
0.0
 44
0.0
 50
0.0
 51
0.0
 71
     0
 72
   100
 73
     1
 74
     0
 75
     0
 76
     0
 77
     0
 78
     0
  0
ENDTAB
  0
TABLE
  2
LTYPE
  5
5
330
0
100
AcDbSymbolTable
 70
     3
  0
LTYPE
  5
14
330
5
100
AcDbSymbolTableRecord
100
AcDbLinetypeTableRecord
  2
BYBLOCK
 70
     0
  3

 72
    65
 73
     0
 40
0.0
  0
LTYPE
  5
15
330
5
100
AcDbSymbolTableRecord
100
AcDbLinetypeTableRecord
  2
BYLAYER
 70
     0
  3

 72
    65
 73
     0
 40
0.0
  0
LTYPE
  5
16
330
5
100
AcDbSymbolTableRecord
100
AcDbLinetypeTableRecord
  2
CONTINUOUS
 70
     0
  3
Solid line
 72
    65
 73
     0
 40
0.0
  0
LTYPE
  5
120
330
5
100
AcDbSymbolTableRecord
100
AcDbLinetypeTableRecord
  2
CENTER
 70
     0
  3
____ _ ____ _ ____ _ ____ _ ____ _ ____ _ ____ 
 72
    65
 73
     4
 40
2.0
 49
1.25
 74
     0
 49
-0.25
 74
     0
 49
0.25
 74
     0
 49
-0.25
 74
     0
  0
LTYPE
  5
122
330
5
100
AcDbSymbolTableRecord
100
AcDbLinetypeTableRecord
  2
PHANTOM
 70
     0
  3
______  __  __  ______  __  __  ______  __  __ 
 72
    65
 73
     6
 40
2.5
 49
1.25
 74
     0
 49
-0.25
 74
     0
 49
0.25
 74
     0
 49
-0.25
 74
     0
 49
0.25
 74
     0
 49
-0.25
 74
     0
  0
ENDTAB
  0
TABLE
  2
LAYER
  5
2
330
0
100
AcDbSymbolTable
 70
     9
  0
LAYER
  5
F
330
2
100
AcDbSymbolTableRecord
100
AcDbLayerTableRecord
  2
0
 70
     0
 62
     7
  6
CONTINUOUS
  0
LAYER
  5
62
330
2
100
AcDbSymbolTableRecord
100
AcDbLayerTableRecord
  2
VIEWPORT
 70
     0
 62
     7
  6
CONTINUOUS
  0
LAYER
  5
6B
330
2
100
AcDbSymbolTableRecord
100
AcDbLayerTableRecord
  2
ZUWAKU
 70
     0
 62
     7
  6
CONTINUOUS
  0
LAYER
  5
152
330
2
100
AcDbSymbolTableRecord
100
AcDbLayerTableRecord
  2
SEIHIN
 70
     0
 62
     3
  6
CONTINUOUS
  0
LAYER
  5
153
330
2
100
AcDbSymbolTableRecord
100
AcDbLayerTableRecord
  2
SUNPOU
 70
     0
 62
     4
  6
CONTINUOUS
  0
LAYER
  5
154
330
2
100
AcDbSymbolTableRecord
100
AcDbLayerTableRecord
  2
CENTER_L
 70
     0
 62
     1
  6
CENTER
  0
LAYER
  5
1D9
330
2
100
AcDbSymbolTableRecord
100
AcDbLayerTableRecord
  2
NOKITOI
 70
     0
 62
     8
  6
PHANTOM
  0
LAYER
  5
4A0
330
2
100
AcDbSymbolTableRecord
100
AcDbLayerTableRecord
  2
DEFPOINTS
 70
     0
 62
     7
  6
CONTINUOUS
  0
LAYER
  5
56B
330
2
100
AcDbSymbolTableRecord
100
AcDbLayerTableRecord
  2
MOJI
 70
     0
 62
     2
  6
CONTINUOUS
  0
ENDTAB
  0
TABLE
  2
STYLE
  5
3
330
0
100
AcDbSymbolTable
 70
     3
  0
STYLE
  5
10
330
3
100
AcDbSymbolTableRecord
100
AcDbTextStyleTableRecord
  2
STANDARD
 70
     0
 40
0.0
 41
1.0
 50
0.0
 71
     0
 42
2.5
  3
TXT
  4
bigfont.shx
  0
STYLE
  5
14E
330
3
100
AcDbSymbolTableRecord
100
AcDbTextStyleTableRecord
  2
STYLE1
 70
     0
 40
0.0
 41
1.0
 50
0.0
 71
     0
 42
2.5
  3
TXT
  4

  0
STYLE
  5
56C
330
3
100
AcDbSymbolTableRecord
100
AcDbTextStyleTableRecord
  2
ｽﾀｲﾙ1
 70
     0
 40
0.0
 41
1.0
 50
0.0
 71
     0
 42
2.5
  3
MS PGothic.ttf
  4

1001
ACAD
1000
MS PGothic
1071
    32818
  0
ENDTAB
  0
TABLE
  2
VIEW
  5
6
330
0
100
AcDbSymbolTable
 70
     0
  0
ENDTAB
  0
TABLE
  2
UCS
  5
7
330
0
100
AcDbSymbolTable
 70
     0
  0
ENDTAB
  0
TABLE
  2
APPID
  5
9
330
0
100
AcDbSymbolTable
 70
     1
  0
APPID
  5
11
330
9
100
AcDbSymbolTableRecord
100
AcDbRegAppTableRecord
  2
ACAD
 70
     0
  0
ENDTAB
  0
TABLE
  2
DIMSTYLE
  5
A
330
0
100
AcDbSymbolTable
 70
     1
  0
DIMSTYLE
105
1D
102
{ACAD_REACTORS
330
4A5
330
4B2
330
4BF
330
4CC
102
}
330
A
100
AcDbSymbolTableRecord
100
AcDbDimStyleTableRecord
  2
STANDARD
 70
     0
  3

  4

  5

  6

  7

 40
1.0
 41
0.18
 42
0.0625
 43
0.38
 44
0.18
 45
0.0
 46
0.0
 47
0.0
 48
0.0
140
0.18
141
0.09
142
0.0
143
25.4
144
1.0
145
0.0
146
1.0
147
0.09
 71
     0
 72
     0
 73
     1
 74
     1
 75
     0
 76
     0
 77
     0
 78
     0
170
     0
171
     2
172
     0
173
     0
174
     0
175
     0
176
     0
177
     0
178
     0
270
     2
271
     4
272
     4
273
     2
274
     2
340
10
275
     0
280
     0
281
     0
282
     0
283
     1
284
     0
285
     0
286
     0
287
     3
288
     0
  0
ENDTAB
  0
TABLE
  2
BLOCK_RECORD
  5
1
330
0
100
AcDbSymbolTable
 70
     5
  0
BLOCK_RECORD
  5
1A
102
{ACAD_XDICTIONARY
360
529
102
}
330
1
100
AcDbSymbolTableRecord
100
AcDbBlockTableRecord
  2
*MODEL_SPACE
  0
BLOCK_RECORD
  5
17
102
{ACAD_XDICTIONARY
360
527
102
}
330
1
100
AcDbSymbolTableRecord
100
AcDbBlockTableRecord
  2
*PAPER_SPACE
  0
BLOCK_RECORD
  5
B2
330
1
100
AcDbSymbolTableRecord
100
AcDbBlockTableRecord
  2
_OPEN
  0
BLOCK_RECORD
  5
498
330
1
100
AcDbSymbolTableRecord
100
AcDbBlockTableRecord
  2
*D1
  0
BLOCK_RECORD
  5
4A6
330
1
100
AcDbSymbolTableRecord
100
AcDbBlockTableRecord
  2
*D2
  0
BLOCK_RECORD
  5
4B3
330
1
100
AcDbSymbolTableRecord
100
AcDbBlockTableRecord
  2
*D3
  0
BLOCK_RECORD
  5
4C0
330
1
100
AcDbSymbolTableRecord
100
AcDbBlockTableRecord
  2
*D4
  0
ENDTAB
  0
ENDSEC
  0
SECTION
  2
BLOCKS
  0
BLOCK
  5
1B
330
1A
100
AcDbEntity
  8
0
100
AcDbBlockBegin
  2
*MODEL_SPACE
 70
     0
 10
0.0
 20
0.0
 30
0.0
  3
*MODEL_SPACE
  1

  0
ENDBLK
  5
1C
330
1A
100
AcDbEntity
  8
0
100
AcDbBlockEnd
  0
BLOCK
  5
18
330
17
100
AcDbEntity
 67
     1
  8
0
100
AcDbBlockBegin
  2
*PAPER_SPACE
 70
     0
 10
0.0
 20
0.0
 30
0.0
  3
*PAPER_SPACE
  1

  0
ENDBLK
  5
19
330
17
100
AcDbEntity
 67
     1
  8
0
100
AcDbBlockEnd
  0
BLOCK
  5
B3
330
B2
100
AcDbEntity
  8
0
100
AcDbBlockBegin
  2
_OPEN
 70
     0
 10
0.0
 20
0.0
 30
0.0
  3
_OPEN
  1

  0
LINE
  5
B4
330
B2
100
AcDbEntity
  8
0
  6
BYBLOCK
 62
     0
100
AcDbLine
 10
-1.0
 20
0.1666666666666666
 30
0.0
 11
0.0
 21
0.0
 31
0.0
  0
LINE
  5
B5
330
B2
100
AcDbEntity
  8
0
  6
BYBLOCK
 62
     0
100
AcDbLine
 10
0.0
 20
0.0
 30
0.0
 11
-1.0
 21
-0.1666666666666666
 31
0.0
  0
LINE
  5
B6
330
B2
100
AcDbEntity
  8
0
  6
BYBLOCK
 62
     0
100
AcDbLine
 10
0.0
 20
0.0
 30
0.0
 11
-1.0
 21
0.0
 31
0.0
  0
ENDBLK
  5
B7
330
B2
100
AcDbEntity
  8
0
100
AcDbBlockEnd
  0
BLOCK
  5
499
330
498
100
AcDbEntity
  8
0
100
AcDbBlockBegin
  2
*D1
 70
     1
 10
0.0
 20
0.0
 30
0.0
  3
*D1
  1

  0
LINE
  5
49A
330
498
100
AcDbEntity
  8
0
  6
BYBLOCK
 62
     4
100
AcDbLine
 10
215.6005734008188
 20
123.7036220710226
 30
0.0
 11
227.2205077244054
 21
123.7036220710226
 31
0.0
  0
LINE
  5
49B
330
498
100
AcDbEntity
  8
0
  6
BYBLOCK
 62
     4
100
AcDbLine
 10
196.7807734008187
 20
80.40362207102257
 30
0.0
 11
227.2205077244054
 21
80.40362207102257
 31
0.0
  0
LINE
  5
49C
330
498
100
AcDbEntity
  8
0
  6
BYBLOCK
 62
     4
100
AcDbLine
 10
225.7205077244055
 20
120.7036220710226
 30
0.0
 11
225.7205077244055
 21
83.40362207102257
 31
0.0
  0
INSERT
  5
49D
330
498
100
AcDbEntity
  8
0
  6
BYBLOCK
 62
     4
100
AcDbBlockReference
  2
_OPEN
 10
225.7205077244055
 20
123.7036220710226
 30
0.0
 41
3.0
 42
3.0
 43
3.0
 50
90.0
  0
INSERT
  5
49E
330
498
100
AcDbEntity
  8
0
  6
BYBLOCK
 62
     4
100
AcDbBlockReference
  2
_OPEN
 10
225.7205077244055
 20
80.40362207102257
 30
0.0
 41
3.0
 42
3.0
 43
3.0
 50
270.0
  0
MTEXT
  5
49F
330
498
100
AcDbEntity
  8
0
  6
BYBLOCK
 62
     4
100
AcDbMText
 10
223.2205077244054
 20
102.0536220710225
 30
0.0
 40
3.0
 41
0.0
 71
     5
 72
     5
  1
\A1;43
 11
0.0
 21
1.0
 31
0.0
1001
ACAD
1000
MTEXTBEGIN
1070
    73
1070
     1
1070
    44
1040
1.0
1070
    74
1070
     0
1000
MTEXTEND
1000
MTEXTBEGIN
1070
    73
1070
     1
1070
    44
1040
1.0
1070
    74
1070
     0
1000
MTEXTEND
1000
MTEXTBEGIN
1070
    73
1070
     1
1070
    44
1040
1.0
1070
    74
1070
     0
1000
MTEXTEND
  0
POINT
  5
4A1
330
498
100
AcDbEntity
  8
DEFPOINTS
  6
BYBLOCK
 62
     0
100
AcDbPoint
 10
212.6005734008188
 20
123.7036220710226
 30
0.0
  0
POINT
  5
4A2
330
498
100
AcDbEntity
  8
DEFPOINTS
  6
BYBLOCK
 62
     0
100
AcDbPoint
 10
193.7807734008187
 20
80.40362207102257
 30
0.0
  0
POINT
  5
4A3
330
498
100
AcDbEntity
  8
DEFPOINTS
  6
BYBLOCK
 62
     0
100
AcDbPoint
 10
225.7205077244055
 20
80.40362207102257
 30
0.0
  0
ENDBLK
  5
4A4
330
498
100
AcDbEntity
  8
0
100
AcDbBlockEnd
  0
BLOCK
  5
4A7
330
4A6
100
AcDbEntity
  8
0
100
AcDbBlockBegin
  2
*D2
 70
     1
 10
0.0
 20
0.0
 30
0.0
  3
*D2
  1

  0
LINE
  5
4A8
330
4A6
100
AcDbEntity
  8
0
  6
BYBLOCK
 62
     4
100
AcDbLine
 10
194.6994536018472
 20
77.40362207102255
 30
0.0
 11
194.6994536018472
 21
64.00665392377516
 31
0.0
  0
LINE
  5
4A9
330
4A6
100
AcDbEntity
  8
0
  6
BYBLOCK
 62
     4
100
AcDbLine
 10
143.50169319979
 20
77.40362207102257
 30
0.0
 11
143.50169319979
 21
64.00665392377516
 31
0.0
  0
LINE
  5
4AA
330
4A6
100
AcDbEntity
  8
0
  6
BYBLOCK
 62
     4
100
AcDbLine
 10
191.6994536018472
 20
65.50665392377516
 30
0.0
 11
146.50169319979
 21
65.50665392377516
 31
0.0
  0
INSERT
  5
4AB
330
4A6
100
AcDbEntity
  8
0
  6
BYBLOCK
 62
     4
100
AcDbBlockReference
  2
_OPEN
 10
194.6994536018472
 20
65.50665392377516
 30
0.0
 41
3.0
 42
3.0
 43
3.0
  0
INSERT
  5
4AC
330
4A6
100
AcDbEntity
  8
0
  6
BYBLOCK
 62
     4
100
AcDbBlockReference
  2
_OPEN
 10
143.50169319979
 20
65.50665392377516
 30
0.0
 41
3.0
 42
3.0
 43
3.0
 50
180.0
  0
MTEXT
  5
4AD
330
4A6
100
AcDbEntity
  8
0
  6
BYBLOCK
 62
     4
100
AcDbMText
 10
169.1005734008186
 20
68.00665392377516
 30
0.0
 40
3.0
 41
0.0
 71
     5
 72
     5
  1
\A1;51
1001
ACAD
1000
MTEXTBEGIN
1070
    73
1070
     1
1070
    44
1040
1.0
1070
    74
1070
     0
1000
MTEXTEND
1000
MTEXTBEGIN
1070
    73
1070
     1
1070
    44
1040
1.0
1070
    74
1070
     0
1000
MTEXTEND
1000
MTEXTBEGIN
1070
    73
1070
     1
1070
    44
1040
1.0
1070
    74
1070
     0
1000
MTEXTEND
  0
POINT
  5
4AE
330
4A6
100
AcDbEntity
  8
DEFPOINTS
  6
BYBLOCK
 62
     0
100
AcDbPoint
 10
194.6994536018472
 20
80.40362207102255
 30
0.0
  0
POINT
  5
4AF
330
4A6
100
AcDbEntity
  8
DEFPOINTS
  6
BYBLOCK
 62
     0
100
AcDbPoint
 10
143.50169319979
 20
80.40362207102257
 30
0.0
  0
POINT
  5
4B0
330
4A6
100
AcDbEntity
  8
DEFPOINTS
  6
BYBLOCK
 62
     0
100
AcDbPoint
 10
143.50169319979
 20
65.50665392377516
 30
0.0
  0
ENDBLK
  5
4B1
330
4A6
100
AcDbEntity
  8
0
100
AcDbBlockEnd
  0
BLOCK
  5
4E2
330
4B3
100
AcDbEntity
  8
0
100
AcDbBlockBegin
  2
*D3
 70
     1
 10
0.0
 20
0.0
 30
0.0
  3
*D3
  1

  0
LINE
  5
4E3
330
4B3
100
AcDbEntity
  8
0
  6
BYBLOCK
 62
     4
100
AcDbLine
 10
291.2078734008188
 20
127.7036220710226
 30
0.0
 11
291.2078734008188
 21
146.0230377099176
 31
0.0
  0
LINE
  5
4E4
330
4B3
100
AcDbEntity
  8
0
  6
BYBLOCK
 62
     4
100
AcDbLine
 10
251.2078734008186
 20
127.7036220710226
 30
0.0
 11
251.2078734008186
 21
146.0230377099176
 31
0.0
  0
LINE
  5
4E5
330
4B3
100
AcDbEntity
  8
0
  6
BYBLOCK
 62
     4
100
AcDbLine
 10
288.2078734008188
 20
144.5230377099176
 30
0.0
 11
254.2078734008187
 21
144.5230377099176
 31
0.0
  0
INSERT
  5
4E6
330
4B3
100
AcDbEntity
  8
0
  6
BYBLOCK
 62
     4
100
AcDbBlockReference
  2
_OPEN
 10
291.2078734008188
 20
144.5230377099176
 30
0.0
 41
3.0
 42
3.0
 43
3.0
  0
INSERT
  5
4E7
330
4B3
100
AcDbEntity
  8
0
  6
BYBLOCK
 62
     4
100
AcDbBlockReference
  2
_OPEN
 10
251.2078734008186
 20
144.5230377099176
 30
0.0
 41
3.0
 42
3.0
 43
3.0
 50
180.0
  0
MTEXT
  5
4E8
330
4B3
100
AcDbEntity
  8
0
  6
BYBLOCK
 62
     4
100
AcDbMText
 10
271.2078734008187
 20
147.0230377099176
 30
0.0
 40
3.0
 41
0.0
 71
     5
 72
     5
  1
\A1;40
1001
ACAD
1000
MTEXTBEGIN
1070
    73
1070
     1
1070
    44
1040
1.0
1070
    74
1070
     0
1000
MTEXTEND
1000
MTEXTBEGIN
1070
    73
1070
     1
1070
    44
1040
1.0
1070
    74
1070
     0
1000
MTEXTEND
1000
MTEXTBEGIN
1070
    73
1070
     1
1070
    44
1040
1.0
1070
    74
1070
     0
1000
MTEXTEND
  0
POINT
  5
4E9
330
4B3
100
AcDbEntity
  8
DEFPOINTS
  6
BYBLOCK
 62
     0
100
AcDbPoint
 10
291.2078734008188
 20
124.7036220710226
 30
0.0
  0
POINT
  5
4EA
330
4B3
100
AcDbEntity
  8
DEFPOINTS
  6
BYBLOCK
 62
     0
100
AcDbPoint
 10
251.2078734008186
 20
124.7036220710226
 30
0.0
  0
POINT
  5
4EB
330
4B3
100
AcDbEntity
  8
DEFPOINTS
  6
BYBLOCK
 62
     0
100
AcDbPoint
 10
251.2078734008186
 20
144.5230377099176
 30
0.0
  0
ENDBLK
  5
4EC
330
4B3
100
AcDbEntity
  8
0
100
AcDbBlockEnd
  0
BLOCK
  5
4D7
330
4C0
100
AcDbEntity
  8
0
100
AcDbBlockBegin
  2
*D4
 70
     1
 10
0.0
 20
0.0
 30
0.0
  3
*D4
  1

  0
LINE
  5
4D8
330
4C0
100
AcDbEntity
  8
0
  6
BYBLOCK
 62
     4
100
AcDbLine
 10
213.6005734008187
 20
125.7036220710226
 30
0.0
 11
213.6005734008187
 21
145.8778519021158
 31
0.0
  0
LINE
  5
4D9
330
4C0
100
AcDbEntity
  8
0
  6
BYBLOCK
 62
     4
100
AcDbLine
 10
124.6006734008188
 20
125.7036220710226
 30
0.0
 11
124.6006734008188
 21
145.8778519021158
 31
0.0
  0
LINE
  5
4DA
330
4C0
100
AcDbEntity
  8
0
  6
BYBLOCK
 62
     4
100
AcDbLine
 10
210.6005734008186
 20
144.3778519021158
 30
0.0
 11
127.6006734008188
 21
144.3778519021158
 31
0.0
  0
INSERT
  5
4DB
330
4C0
100
AcDbEntity
  8
0
  6
BYBLOCK
 62
     4
100
AcDbBlockReference
  2
_OPEN
 10
213.6005734008187
 20
144.3778519021158
 30
0.0
 41
3.0
 42
3.0
 43
3.0
  0
INSERT
  5
4DC
330
4C0
100
AcDbEntity
  8
0
  6
BYBLOCK
 62
     4
100
AcDbBlockReference
  2
_OPEN
 10
124.6006734008188
 20
144.3778519021158
 30
0.0
 41
3.0
 42
3.0
 43
3.0
 50
180.0
  0
MTEXT
  5
4DD
330
4C0
100
AcDbEntity
  8
0
  6
BYBLOCK
 62
     4
100
AcDbMText
 10
169.1006234008187
 20
146.8778519021158
 30
0.0
 40
3.0
 41
0.0
 71
     5
 72
     5
  1
\A1;89
1001
ACAD
1000
MTEXTBEGIN
1070
    73
1070
     1
1070
    44
1040
1.0
1070
    74
1070
     0
1000
MTEXTEND
1000
MTEXTBEGIN
1070
    73
1070
     1
1070
    44
1040
1.0
1070
    74
1070
     0
1000
MTEXTEND
1000
MTEXTBEGIN
1070
    73
1070
     1
1070
    44
1040
1.0
1070
    74
1070
     0
1000
MTEXTEND
  0
POINT
  5
4DE
330
4C0
100
AcDbEntity
  8
DEFPOINTS
  6
BYBLOCK
 62
     0
100
AcDbPoint
 10
213.6005734008187
 20
122.7036220710226
 30
0.0
  0
POINT
  5
4DF
330
4C0
100
AcDbEntity
  8
DEFPOINTS
  6
BYBLOCK
 62
     0
100
AcDbPoint
 10
124.6006734008188
 20
122.7036220710226
 30
0.0
  0
POINT
  5
4E0
330
4C0
100
AcDbEntity
  8
DEFPOINTS
  6
BYBLOCK
 62
     0
100
AcDbPoint
 10
124.6006734008188
 20
144.3778519021158
 30
0.0
  0
ENDBLK
  5
4E1
330
4C0
100
AcDbEntity
  8
0
100
AcDbBlockEnd
  0
ENDSEC
  0
SECTION
  2
ENTITIES
  0
LINE
  5
3E0
330
1A
100
AcDbEntity
  8
NOKITOI
  6
PHANTOM
 62
     8
 48
5.0
100
AcDbLine
 10
193.4005734008187
 20
81.90362207102259
 30
0.0
 11
169.1005734008188
 21
81.90362207102259
 31
0.0
  0
LINE
  5
3E1
330
1A
100
AcDbEntity
  8
NOKITOI
  6
PHANTOM
 62
     8
 48
5.0
100
AcDbLine
 10
169.1005734008188
 20
83.10362207102262
 30
0.0
 11
188.6005734008188
 21
83.10362207102262
 31
0.0
  0
LINE
  5
3E2
330
1A
100
AcDbEntity
  8
SEIHIN
  6
CONTINUOUS
 62
     3
 48
16.0
100
AcDbLine
 10
169.1005734008188
 20
81.90362207102259
 30
0.0
 11
192.5377734008186
 21
81.90362207102259
 31
0.0
  0
LINE
  5
3E3
330
1A
100
AcDbEntity
  8
SEIHIN
  6
CONTINUOUS
 62
     3
 48
16.0
100
AcDbLine
 10
193.3505734008188
 20
80.9036220710225
 30
0.0
 11
169.1005734008188
 21
80.9036220710225
 31
0.0
  0
LINE
  5
3E4
330
1A
100
AcDbEntity
  8
SEIHIN
  6
CONTINUOUS
 62
     3
 48
16.0
100
AcDbLine
 10
193.7807734008187
 20
80.40362207102257
 30
0.0
 11
169.1005734008188
 21
80.40362207102257
 31
0.0
  0
LINE
  5
3E7
330
1A
100
AcDbEntity
  8
CENTER_L
  6
CENTER
 62
     1
 48
5.0
100
AcDbLine
 10
117.6006734008188
 20
196.5251637069592
 30
0.0
 11
220.6006234008523
 21
196.5250691671845
 31
0.0
  0
LINE
  5
3EA
330
1A
100
AcDbEntity
  8
CENTER_L
  6
CENTER
 62
     1
 48
5.0
100
AcDbLine
 10
169.1005734008188
 20
72.39012207102257
 30
0.0
 11
169.1005734008188
 21
94.55503435761075
 31
0.0
  0
LINE
  5
3EF
330
1A
100
AcDbEntity
  8
NOKITOI
  6
PHANTOM
 62
     8
 48
5.0
100
AcDbLine
 10
142.1784734008188
 20
88.80362207102256
 30
0.0
 11
149.6005734008188
 21
88.80362207102256
 31
0.0
  0
LINE
  5
3F0
330
1A
100
AcDbEntity
  8
NOKITOI
  6
PHANTOM
 62
     8
 48
5.0
100
AcDbLine
 10
143.3405734008187
 20
87.60362207102252
 30
0.0
 11
148.4005734008187
 21
87.60362207102252
 31
0.0
  0
ARC
  5
3F1
330
1A
100
AcDbEntity
  8
NOKITOI
  6
PHANTOM
 62
     8
 48
5.0
100
AcDbCircle
 10
134.0162690396933
 20
79.73623024233032
 30
0.0
 40
12.19993877054614
100
AcDbArc
 50
16.02263637925393
 51
40.15603560521631
  0
ARC
  5
3F2
330
1A
100
AcDbEntity
  8
NOKITOI
  6
PHANTOM
 62
     8
 48
5.0
100
AcDbCircle
 10
134.0162692879487
 20
79.73622638699342
 30
0.0
 40
10.99994632941524
100
AcDbArc
 50
11.36374015671925
 51
75.87555169639184
  0
ARC
  5
3F3
330
1A
100
AcDbEntity
  8
SEIHIN
  6
CONTINUOUS
 62
     3
 48
16.0
100
AcDbCircle
 10
134.0083373083343
 20
80.0471617529048
 30
0.0
 40
11.0000074730233
100
AcDbArc
 50
13.77045153694443
 51
70.80496099913521
  0
ARC
  5
3F4
330
1A
100
AcDbEntity
  8
SEIHIN
  6
CONTINUOUS
 62
     3
 48
16.0
100
AcDbCircle
 10
134.0083747007385
 20
80.04712061176494
 30
0.0
 40
10.00004370740457
100
AcDbArc
 50
9.716277565947297
 51
73.67361697286106
  0
ARC
  5
3F5
330
1A
100
AcDbEntity
  8
SEIHIN
  6
CONTINUOUS
 62
     3
 48
16.0
100
AcDbCircle
 10
134.0083788628545
 20
80.04711586468273
 30
0.0
 40
9.500005988157273
100
AcDbArc
 50
7.422790665527054
 51
75.27759852940897
  0
ARC
  5
3F6
330
1A
100
AcDbEntity
  8
SEIHIN
  6
CONTINUOUS
 62
     3
 48
16.0
100
AcDbCircle
 10
144.8506028100403
 20
81.90359727040757
 30
0.0
 40
0.9999751998175177
100
AcDbArc
 50
189.7168575178456
 51
269.9983149339384
  0
ARC
  5
3F7
330
1A
100
AcDbEntity
  8
SEIHIN
  6
CONTINUOUS
 62
     3
 48
16.0
100
AcDbCircle
 10
144.4203838773881
 20
81.4036128709379
 30
0.0
 40
0.9999907999702125
100
AcDbArc
 50
187.4229029282983
 51
269.9993997312646
  0
LINE
  5
3F8
330
1A
100
AcDbEntity
  8
NOKITOI
  6
PHANTOM
 62
     8
 48
5.0
100
AcDbLine
 10
131.4990734008187
 20
121.9036220710225
 30
0.0
 11
137.7331734008187
 21
91.35622207102256
 31
0.0
  0
LINE
  5
3F9
330
1A
100
AcDbEntity
  8
NOKITOI
  6
PHANTOM
 62
     8
 48
5.0
100
AcDbLine
 10
131.7006734008188
 20
114.9036220710226
 30
0.0
 11
136.7005734008188
 21
90.4036220710226
 31
0.0
  0
LINE
  5
3FA
330
1A
100
AcDbEntity
  8
SEIHIN
  6
CONTINUOUS
 62
     3
 48
16.0
100
AcDbLine
 10
135.7001734008187
 20
89.98772207102257
 30
0.0
 11
130.6804734008186
 21
112.8183220710224
 31
0.0
  0
LINE
  5
3FB
330
1A
100
AcDbEntity
  8
SEIHIN
  6
CONTINUOUS
 62
     3
 48
16.0
100
AcDbLine
 10
136.1238734008188
 20
90.3888220710225
 30
0.0
 11
131.0825734008187
 21
113.3183220710224
 31
0.0
  0
LINE
  5
3FC
330
1A
100
AcDbEntity
  8
SEIHIN
  6
CONTINUOUS
 62
     3
 48
16.0
100
AcDbLine
 10
136.9770734008187
 20
91.16532207102251
 30
0.0
 11
131.8864734008188
 21
114.3183220710225
 31
0.0
  0
ARC
  5
3FD
330
1A
100
AcDbEntity
  8
NOKITOI
  6
PHANTOM
 62
     8
 48
5.0
100
AcDbCircle
 10
134.0162316138426
 20
79.73624606591158
 30
0.0
 40
12.19997945109428
100
AcDbArc
 50
48.00719042627341
 51
72.26181654227993
  0
ARC
  5
3FE
330
1A
100
AcDbEntity
  8
SEIHIN
  6
CONTINUOUS
 62
     3
 48
16.0
100
AcDbCircle
 10
137.9537604122668
 20
91.3800366999348
 30
0.0
 40
1.000009945050736
100
AcDbArc
 50
192.3986604877469
 51
250.805029814036
  0
ARC
  5
3FF
330
1A
100
AcDbEntity
  8
SEIHIN
  6
CONTINUOUS
 62
     3
 48
16.0
100
AcDbCircle
 10
137.1005741775143
 20
90.60362123916934
 30
0.0
 40
1.000020069798832
100
AcDbArc
 50
192.3976259902778
 51
253.6744233342643
  0
ARC
  5
400
330
1A
100
AcDbEntity
  8
SEIHIN
  6
CONTINUOUS
 62
     3
 48
16.0
100
AcDbCircle
 10
136.676891492577
 20
90.20240322889014
 30
0.0
 40
1.000033114607383
100
AcDbArc
 50
192.3964051862381
 51
255.2732403373917
  0
LINE
  5
401
330
1A
100
AcDbEntity
  8
NOKITOI
  6
PHANTOM
 62
     8
 48
5.0
100
AcDbLine
 10
130.5169734008186
 20
120.7036220710226
 30
0.0
 11
127.8006734008187
 21
120.7036220710226
 31
0.0
  0
LINE
  5
402
330
1A
100
AcDbEntity
  8
NOKITOI
  6
PHANTOM
 62
     8
 48
5.0
100
AcDbLine
 10
131.4556734008188
 20
116.1036220710226
 30
0.0
 11
127.8006734008187
 21
116.1036220710226
 31
0.0
  0
LINE
  5
403
330
1A
100
AcDbEntity
  8
NOKITOI
  6
PHANTOM
 62
     8
 48
5.0
100
AcDbLine
 10
126.6005734008188
 20
114.9036220710226
 30
0.0
 11
131.7006734008188
 21
114.9036220710226
 31
0.0
  0
LINE
  5
404
330
1A
100
AcDbEntity
  8
NOKITOI
  6
PHANTOM
 62
     8
 48
5.0
100
AcDbLine
 10
126.6006734008187
 20
121.9036220710225
 30
0.0
 11
131.4990734008187
 21
121.9036220710225
 31
0.0
  0
LINE
  5
405
330
1A
100
AcDbEntity
  8
SEIHIN
  6
CONTINUOUS
 62
     3
 48
16.0
100
AcDbLine
 10
127.1005734008188
 20
115.1036220710225
 30
0.0
 11
130.9098734008188
 21
115.1036220710225
 31
0.0
  0
LINE
  5
406
330
1A
100
AcDbEntity
  8
SEIHIN
  6
CONTINUOUS
 62
     3
 48
16.0
100
AcDbLine
 10
132.3005734008188
 20
121.7036220710226
 30
0.0
 11
127.1809734008188
 21
122.1164220710224
 31
0.0
  0
LINE
  5
407
330
1A
100
AcDbEntity
  8
SEIHIN
  6
CONTINUOUS
 62
     3
 48
16.0
100
AcDbLine
 10
125.6006734008188
 20
123.7036220710226
 30
0.0
 11
130.5684734008188
 21
123.7036220710226
 31
0.0
  0
LINE
  5
408
330
1A
100
AcDbEntity
  8
SEIHIN
  6
CONTINUOUS
 62
     3
 48
16.0
100
AcDbLine
 10
126.1006734008188
 20
114.1036220710225
 30
0.0
 11
130.1058734008187
 21
114.1036220710225
 31
0.0
  0
LINE
  5
409
330
1A
100
AcDbEntity
  8
SEIHIN
  6
CONTINUOUS
 62
     3
 48
16.0
100
AcDbLine
 10
125.6006734008188
 20
113.6036220710224
 30
0.0
 11
129.7038734008188
 21
113.6036220710224
 31
0.0
  0
ARC
  5
40A
330
1A
100
AcDbEntity
  8
SEIHIN
  6
CONTINUOUS
 62
     3
 48
16.0
100
AcDbCircle
 10
125.6006734008188
 20
114.6036220710225
 30
0.0
 40
1.000000000000056
100
AcDbArc
 50
179.9999999999967
 51
269.9999999999967
  0
LINE
  5
40B
330
1A
100
AcDbEntity
  8
NOKITOI
  6
PHANTOM
 62
     8
 48
5.0
100
AcDbLine
 10
127.8006734008187
 20
120.7036220710226
 30
0.0
 11
127.8006734008187
 21
116.1036220710226
 31
0.0
  0
LINE
  5
40C
330
1A
100
AcDbEntity
  8
NOKITOI
  6
PHANTOM
 62
     8
 48
5.0
100
AcDbLine
 10
126.6005734008188
 20
114.9036220710226
 30
0.0
 11
126.6006734008187
 21
121.9036220710225
 31
0.0
  0
LINE
  5
40D
330
1A
100
AcDbEntity
  8
SEIHIN
  6
CONTINUOUS
 62
     3
 48
16.0
100
AcDbLine
 10
126.1005734008188
 20
116.1036220710225
 30
0.0
 11
126.1005734008188
 21
121.1197220710224
 31
0.0
  0
LINE
  5
40E
330
1A
100
AcDbEntity
  8
SEIHIN
  6
CONTINUOUS
 62
     3
 48
16.0
100
AcDbLine
 10
124.6006734008188
 20
122.7036220710226
 30
0.0
 11
124.6006734008188
 21
114.6036220710225
 31
0.0
  0
LINE
  5
40F
330
1A
100
AcDbEntity
  8
SEIHIN
  6
CONTINUOUS
 62
     3
 48
16.0
100
AcDbLine
 10
125.1006734008187
 20
123.5696220710226
 30
0.0
 11
125.1006734008187
 21
115.1036220710225
 31
0.0
  0
ARC
  5
410
330
1A
100
AcDbEntity
  8
SEIHIN
  6
CONTINUOUS
 62
     3
 48
16.0
100
AcDbCircle
 10
127.1005734008188
 20
116.1036220710225
 30
0.0
 40
1.0
100
AcDbArc
 50
180.0
 51
270.0
  0
ARC
  5
411
330
1A
100
AcDbEntity
  8
SEIHIN
  6
CONTINUOUS
 62
     3
 48
16.0
100
AcDbCircle
 10
127.100542162343
 20
121.1196932509655
 30
0.0
 40
0.9999687619394547
100
AcDbArc
 50
85.38650181185637
 51
179.9983486807902
  0
ARC
  5
412
330
1A
100
AcDbEntity
  8
SEIHIN
  6
CONTINUOUS
 62
     3
 48
16.0
100
AcDbCircle
 10
125.6006734008188
 20
122.7036220710226
 30
0.0
 40
1.0
100
AcDbArc
 50
90.0
 51
180.0
  0
ARC
  5
413
330
1A
100
AcDbEntity
  8
SEIHIN
  6
CONTINUOUS
 62
     3
 48
16.0
100
AcDbCircle
 10
126.1006734008187
 20
115.1036220710226
 30
0.0
 40
1.000000000000056
100
AcDbArc
 50
180.0000000000032
 51
270.0000000000032
  0
ARC
  5
414
330
1A
100
AcDbEntity
  8
SEIHIN
  6
CONTINUOUS
 62
     3
 48
16.0
100
AcDbCircle
 10
129.703824784818
 20
112.6036611600504
 30
0.0
 40
0.9999609121537535
100
AcDbArc
 50
12.3961267057041
 51
89.99721439945089
  0
ARC
  5
415
330
1A
100
AcDbEntity
  8
SEIHIN
  6
CONTINUOUS
 62
     3
 48
16.0
100
AcDbCircle
 10
130.1058855205341
 20
113.1036123261175
 30
0.0
 40
1.000009744978536
100
AcDbArc
 50
12.39837649543847
 51
90.00069440177238
  0
LINE
  5
416
330
1A
100
AcDbEntity
  8
NOKITOI
  6
PHANTOM
 62
     8
 48
5.0
100
AcDbLine
 10
130.5169734008186
 20
120.7036220710226
 30
0.0
 11
131.4556734008188
 21
116.1036220710226
 31
0.0
  0
LINE
  5
417
330
1A
100
AcDbEntity
  8
SEIHIN
  6
CONTINUOUS
 62
     3
 48
16.0
100
AcDbLine
 10
132.3005734008188
 20
120.7036220710226
 30
0.0
 11
132.3005734008188
 21
121.7036220710226
 31
0.0
  0
ARC
  5
418
330
1A
100
AcDbEntity
  8
SEIHIN
  6
CONTINUOUS
 62
     3
 48
16.0
100
AcDbCircle
 10
132.3005611024927
 20
122.7036433720457
 30
0.0
 40
2.000021301060951
100
AcDbArc
 50
270.0003523173374
 51
150.0010569320002
  0
ARC
  5
419
330
1A
100
AcDbEntity
  8
SEIHIN
  6
CONTINUOUS
 62
     3
 48
16.0
100
AcDbCircle
 10
130.909824784818
 20
114.1036611600505
 30
0.0
 40
0.9999609121538242
100
AcDbArc
 50
12.39612670570738
 51
89.99721439945414
  0
LINE
  5
41A
330
1A
100
AcDbEntity
  8
NOKITOI
  6
PHANTOM
 62
     8
 48
5.0
100
AcDbLine
 10
144.8005734008189
 20
81.90362207102259
 30
0.0
 11
169.1005734008188
 21
81.90362207102259
 31
0.0
  0
LINE
  5
41B
330
1A
100
AcDbEntity
  8
NOKITOI
  6
PHANTOM
 62
     8
 48
5.0
100
AcDbLine
 10
169.1005734008188
 20
83.10362207102262
 30
0.0
 11
149.6005734008188
 21
83.10362207102262
 31
0.0
  0
LINE
  5
41C
330
1A
100
AcDbEntity
  8
SEIHIN
  6
CONTINUOUS
 62
     3
 48
16.0
100
AcDbLine
 10
169.1005734008188
 20
81.90362207102259
 30
0.0
 11
145.6634734008187
 21
81.90362207102259
 31
0.0
  0
LINE
  5
41D
330
1A
100
AcDbEntity
  8
SEIHIN
  6
CONTINUOUS
 62
     3
 48
16.0
100
AcDbLine
 10
144.8505734008188
 20
80.9036220710225
 30
0.0
 11
169.1005734008188
 21
80.9036220710225
 31
0.0
  0
LINE
  5
41E
330
1A
100
AcDbEntity
  8
SEIHIN
  6
CONTINUOUS
 62
     3
 48
16.0
100
AcDbLine
 10
144.4203734008186
 20
80.40362207102257
 30
0.0
 11
169.1005734008188
 21
80.40362207102257
 31
0.0
  0
LINE
  5
41F
330
1A
100
AcDbEntity
  8
NOKITOI
  6
PHANTOM
 62
     8
 48
5.0
100
AcDbLine
 10
148.4005734008187
 20
83.10362207102262
 30
0.0
 11
145.7422734008187
 21
83.10362207102262
 31
0.0
  0
LINE
  5
420
330
1A
100
AcDbEntity
  8
NOKITOI
  6
PHANTOM
 62
     8
 48
5.0
100
AcDbLine
 10
149.6005734008188
 20
83.10362207102262
 30
0.0
 11
149.6005734008188
 21
88.80362207102256
 31
0.0
  0
LINE
  5
421
330
1A
100
AcDbEntity
  8
NOKITOI
  6
PHANTOM
 62
     8
 48
5.0
100
AcDbLine
 10
148.4005734008187
 20
83.10362207102262
 30
0.0
 11
148.4005734008187
 21
87.60362207102252
 31
0.0
  0
ARC
  5
422
330
1A
100
AcDbEntity
  8
SEIHIN
  6
CONTINUOUS
 62
     3
 48
16.0
100
AcDbCircle
 10
145.6634366574176
 20
82.90365089519168
 30
0.0
 40
1.000028824844084
100
AcDbArc
 50
193.7757234098252
 51
270.0021051811268
  0
LINE
  5
423
330
1A
100
AcDbEntity
  8
SEIHIN
  6
CONTINUOUS
 62
     3
 48
16.0
100
AcDbLine
 10
124.6006734008188
 20
177.0250650357487
 30
0.0
 11
124.6006734008188
 21
216.0250650357486
 31
0.0
  0
LINE
  5
424
330
1A
100
AcDbEntity
  8
SEIHIN
  6
CONTINUOUS
 62
     3
 48
16.0
100
AcDbLine
 10
130.5685734008188
 20
176.5250650357486
 30
0.0
 11
130.5685734008188
 21
216.5251650357485
 31
0.0
  0
LINE
  5
425
330
1A
100
AcDbEntity
  8
SEIHIN
  6
CONTINUOUS
 62
     3
 48
16.0
100
AcDbLine
 10
144.6922734008188
 20
176.5250650357486
 30
0.0
 11
144.6922734008188
 21
216.5251650357485
 31
0.0
  0
LINE
  5
426
330
1A
100
AcDbEntity
  8
SEIHIN
  6
CONTINUOUS
 62
     3
 48
16.0
100
AcDbLine
 10
137.1006734008188
 20
176.5250650357486
 30
0.0
 11
137.1006734008188
 21
216.5251650357485
 31
0.0
  0
LINE
  5
427
330
1A
100
AcDbEntity
  8
CENTER_L
  6
CENTER
 62
     1
 48
5.0
100
AcDbLine
 10
169.1006734008186
 20
169.5250650357486
 30
0.0
 11
169.1006734008186
 21
223.5250650357485
 31
0.0
  0
LINE
  5
428
330
1A
100
AcDbEntity
  8
SEIHIN
  6
CONTINUOUS
 62
     3
 48
16.0
100
AcDbLine
 10
134.3005734008188
 20
176.5250650357486
 30
0.0
 11
134.3006734008187
 21
216.5251650357485
 31
0.0
  0
LINE
  5
429
330
1A
100
AcDbEntity
  8
SEIHIN
  6
CONTINUOUS
 62
     3
 48
16.0
100
AcDbLine
 10
128.6006734008188
 20
176.5250650357486
 30
0.0
 11
209.6005734008185
 21
176.5250650357486
 31
0.0
  0
LINE
  5
42D
330
1A
100
AcDbEntity
  8
SEIHIN
  6
CONTINUOUS
 62
     3
 48
16.0
100
AcDbLine
 10
124.6006734008188
 20
177.0250650357487
 30
0.0
 11
128.6006734008188
 21
176.5250650357486
 31
0.0
  0
LINE
  5
42F
330
1A
100
AcDbEntity
  8
SEIHIN
  6
CONTINUOUS
 62
     3
 48
16.0
100
AcDbLine
 10
209.6006734008187
 20
216.5250650357485
 30
0.0
 11
128.6006734008188
 21
216.5250650357485
 31
0.0
  0
LINE
  5
430
330
1A
100
AcDbEntity
  8
SEIHIN
  6
CONTINUOUS
 62
     3
 48
16.0
100
AcDbLine
 10
124.6006734008188
 20
216.0250650357486
 30
0.0
 11
128.6006734008188
 21
216.5250650357485
 31
0.0
  0
LINE
  5
431
330
1A
100
AcDbEntity
  8
CENTER_L
  6
CENTER
 62
     1
 48
5.0
100
AcDbLine
 10
271.2078734008187
 20
130.6797220710225
 30
0.0
 11
271.2078734008187
 21
75.37452207102251
 31
0.0
  0
LINE
  5
435
330
1A
100
AcDbEntity
  8
NOKITOI
  6
PHANTOM
 62
     8
 48
5.0
100
AcDbLine
 10
207.6842734008187
 20
120.7035220710224
 30
0.0
 11
210.4005734008187
 21
120.7035220710224
 31
0.0
  0
LINE
  5
436
330
1A
100
AcDbEntity
  8
NOKITOI
  6
PHANTOM
 62
     8
 48
5.0
100
AcDbLine
 10
211.6005734008188
 20
114.9035220710225
 30
0.0
 11
206.5005734008188
 21
114.9035220710225
 31
0.0
  0
LINE
  5
437
330
1A
100
AcDbEntity
  8
NOKITOI
  6
PHANTOM
 62
     8
 48
5.0
100
AcDbLine
 10
206.7454734008188
 20
116.1035220710225
 30
0.0
 11
210.4005734008187
 21
116.1035220710225
 31
0.0
  0
LINE
  5
438
330
1A
100
AcDbEntity
  8
NOKITOI
  6
PHANTOM
 62
     8
 48
5.0
100
AcDbLine
 10
211.6005734008188
 20
121.9035220710225
 30
0.0
 11
206.7021734008188
 21
121.9035220710225
 31
0.0
  0
LINE
  5
439
330
1A
100
AcDbEntity
  8
SEIHIN
  6
CONTINUOUS
 62
     3
 48
16.0
100
AcDbLine
 10
212.6005734008188
 20
123.7036220710226
 30
0.0
 11
207.6326734008187
 21
123.7036220710226
 31
0.0
  0
LINE
  5
43A
330
1A
100
AcDbEntity
  8
SEIHIN
  6
CONTINUOUS
 62
     3
 48
16.0
100
AcDbLine
 10
211.1005734008188
 20
115.1036220710225
 30
0.0
 11
207.2912734008188
 21
115.1036220710225
 31
0.0
  0
LINE
  5
43B
330
1A
100
AcDbEntity
  8
SEIHIN
  6
CONTINUOUS
 62
     3
 48
16.0
100
AcDbLine
 10
205.9005734008187
 20
121.7036220710226
 30
0.0
 11
211.0201734008188
 21
122.1164220710224
 31
0.0
  0
LINE
  5
43C
330
1A
100
AcDbEntity
  8
SEIHIN
  6
CONTINUOUS
 62
     3
 48
16.0
100
AcDbLine
 10
212.1005734008188
 20
114.1036220710225
 30
0.0
 11
208.0952734008187
 21
114.1036220710225
 31
0.0
  0
LINE
  5
43D
330
1A
100
AcDbEntity
  8
SEIHIN
  6
CONTINUOUS
 62
     3
 48
16.0
100
AcDbLine
 10
212.6005734008188
 20
113.6036220710224
 30
0.0
 11
208.4973734008186
 21
113.6036220710224
 31
0.0
  0
LINE
  5
43F
330
1A
100
AcDbEntity
  8
NOKITOI
  6
PHANTOM
 62
     8
 48
5.0
100
AcDbLine
 10
206.7021734008188
 20
121.9035220710225
 30
0.0
 11
200.4679734008188
 21
91.35612207102258
 31
0.0
  0
LINE
  5
440
330
1A
100
AcDbEntity
  8
NOKITOI
  6
PHANTOM
 62
     8
 48
5.0
100
AcDbLine
 10
206.5005734008188
 20
114.9035220710225
 30
0.0
 11
201.5005734008188
 21
90.4036220710226
 31
0.0
  0
LINE
  5
441
330
1A
100
AcDbEntity
  8
SEIHIN
  6
CONTINUOUS
 62
     3
 48
16.0
100
AcDbLine
 10
201.2240734008188
 20
91.16532207102251
 30
0.0
 11
206.3145734008188
 21
114.3183220710225
 31
0.0
  0
LINE
  5
442
330
1A
100
AcDbEntity
  8
SEIHIN
  6
CONTINUOUS
 62
     3
 48
16.0
100
AcDbLine
 10
202.0772734008188
 20
90.3888220710225
 30
0.0
 11
207.1186734008188
 21
113.3183220710224
 31
0.0
  0
LINE
  5
443
330
1A
100
AcDbEntity
  8
SEIHIN
  6
CONTINUOUS
 62
     3
 48
16.0
100
AcDbLine
 10
202.5009734008186
 20
89.98772207102257
 30
0.0
 11
207.5206734008188
 21
112.8183220710224
 31
0.0
  0
LINE
  5
444
330
1A
100
AcDbEntity
  8
NOKITOI
  6
PHANTOM
 62
     8
 48
5.0
100
AcDbLine
 10
196.0226734008188
 20
88.8035220710226
 30
0.0
 11
188.6005734008188
 21
88.80362207102256
 31
0.0
  0
ARC
  5
445
330
1A
100
AcDbEntity
  8
NOKITOI
  6
PHANTOM
 62
     8
 48
5.0
100
AcDbCircle
 10
204.1849503844896
 20
79.7362663118879
 30
0.0
 40
12.19997101530972
100
AcDbArc
 50
139.8443138052131
 51
163.9780719705774
  0
LINE
  5
446
330
1A
100
AcDbEntity
  8
NOKITOI
  6
PHANTOM
 62
     8
 48
5.0
100
AcDbLine
 10
194.8605734008188
 20
87.60362207102252
 30
0.0
 11
189.8005734008189
 21
87.60362207102252
 31
0.0
  0
ARC
  5
447
330
1A
100
AcDbEntity
  8
NOKITOI
  6
PHANTOM
 62
     8
 48
5.0
100
AcDbCircle
 10
204.1848775136888
 20
79.7361263869933
 30
0.0
 40
10.99994632941526
100
AcDbArc
 50
104.1244483036074
 51
168.6362598432798
  0
ARC
  5
448
330
1A
100
AcDbEntity
  8
SEIHIN
  6
CONTINUOUS
 62
     3
 48
16.0
100
AcDbCircle
 10
192.53774823947
 20
82.90360233313306
 30
0.0
 40
0.9999802624270222
100
AcDbArc
 50
270.001441667541
 51
346.2264592511199
  0
ARC
  5
449
330
1A
100
AcDbEntity
  8
SEIHIN
  6
CONTINUOUS
 62
     3
 48
16.0
100
AcDbCircle
 10
193.3505439915972
 20
81.90359727040748
 30
0.0
 40
0.9999751998174247
100
AcDbArc
 50
270.0016850660672
 51
350.283142482159
  0
ARC
  5
44A
330
1A
100
AcDbEntity
  8
SEIHIN
  6
CONTINUOUS
 62
     3
 48
16.0
100
AcDbCircle
 10
204.192792719389
 20
80.04714331063665
 30
0.0
 40
11.00001937500322
100
AcDbArc
 50
109.1949249048314
 51
166.2289284683914
  0
ARC
  5
44B
330
1A
100
AcDbEntity
  8
SEIHIN
  6
CONTINUOUS
 62
     3
 48
16.0
100
AcDbCircle
 10
204.192772100899
 20
80.04712061176494
 30
0.0
 40
10.00004370740458
100
AcDbArc
 50
106.326383027139
 51
170.2837224340527
  0
LINE
  5
44C
330
1A
100
AcDbEntity
  8
NOKITOI
  6
PHANTOM
 62
     8
 48
5.0
100
AcDbLine
 10
188.6005734008188
 20
83.10352207102253
 30
0.0
 11
188.6005734008188
 21
88.80362207102256
 31
0.0
  0
LINE
  5
44D
330
1A
100
AcDbEntity
  8
NOKITOI
  6
PHANTOM
 62
     8
 48
5.0
100
AcDbLine
 10
189.8005734008189
 20
83.10362207102262
 30
0.0
 11
189.8005734008189
 21
87.60362207102252
 31
0.0
  0
LINE
  5
44E
330
1A
100
AcDbEntity
  8
NOKITOI
  6
PHANTOM
 62
     8
 48
5.0
100
AcDbLine
 10
189.8005734008189
 20
83.10362207102262
 30
0.0
 11
192.4588734008188
 21
83.10362207102262
 31
0.0
  0
ARC
  5
44F
330
1A
100
AcDbEntity
  8
NOKITOI
  6
PHANTOM
 62
     8
 48
5.0
100
AcDbCircle
 10
204.184915187795
 20
79.73614606591198
 30
0.0
 40
12.19997945109404
100
AcDbArc
 50
107.7381834577211
 51
131.9928095737274
  0
ARC
  5
450
330
1A
100
AcDbEntity
  8
SEIHIN
  6
CONTINUOUS
 62
     3
 48
16.0
100
AcDbCircle
 10
200.2473863893706
 20
91.38003669993498
 30
0.0
 40
1.00000994505085
100
AcDbArc
 50
289.1949701859556
 51
347.6013395122451
  0
ARC
  5
451
330
1A
100
AcDbEntity
  8
SEIHIN
  6
CONTINUOUS
 62
     3
 48
16.0
100
AcDbCircle
 10
201.1005870047211
 20
90.60363663958957
 30
0.0
 40
1.000030807120904
100
AcDbArc
 50
286.324537939338
 51
347.595739542821
  0
ARC
  5
452
330
1A
100
AcDbEntity
  8
SEIHIN
  6
CONTINUOUS
 62
     3
 48
16.0
100
AcDbCircle
 10
204.1927679387828
 20
80.04711586468259
 30
0.0
 40
9.50000598815737
100
AcDbArc
 50
104.7224014705902
 51
172.5772093344722
  0
ARC
  5
453
330
1A
100
AcDbEntity
  8
SEIHIN
  6
CONTINUOUS
 62
     3
 48
16.0
100
AcDbCircle
 10
193.7807629242492
 20
81.4036128709379
 30
0.0
 40
0.9999907999702106
100
AcDbArc
 50
270.0006002687362
 51
352.5770970717017
  0
ARC
  5
454
330
1A
100
AcDbEntity
  8
SEIHIN
  6
CONTINUOUS
 62
     3
 48
16.0
100
AcDbCircle
 10
201.5242695662336
 20
90.20241807778445
 30
0.0
 40
1.000043851545496
100
AcDbArc
 50
284.7257533897252
 51
347.5969928003777
  0
ARC
  5
455
330
1A
100
AcDbEntity
  8
SEIHIN
  6
CONTINUOUS
 62
     3
 48
16.0
100
AcDbCircle
 10
208.4973612811033
 20
112.6036123261175
 30
0.0
 40
1.000009744978372
100
AcDbArc
 50
89.99930559822924
 51
167.6016235045621
  0
ARC
  5
456
330
1A
100
AcDbEntity
  8
SEIHIN
  6
CONTINUOUS
 62
     3
 48
16.0
100
AcDbCircle
 10
208.0953220168196
 20
113.1036611600505
 30
0.0
 40
0.9999609121538179
100
AcDbArc
 50
90.002785600554
 51
167.6038732943001
  0
LINE
  5
457
330
1A
100
AcDbEntity
  8
NOKITOI
  6
PHANTOM
 62
     8
 48
5.0
100
AcDbLine
 10
207.6842734008187
 20
120.7035220710224
 30
0.0
 11
206.7454734008188
 21
116.1035220710225
 31
0.0
  0
LINE
  5
458
330
1A
100
AcDbEntity
  8
SEIHIN
  6
CONTINUOUS
 62
     3
 48
16.0
100
AcDbLine
 10
205.9005734008187
 20
120.7036220710226
 30
0.0
 11
205.9005734008187
 21
121.7036220710226
 31
0.0
  0
ARC
  5
459
330
1A
100
AcDbEntity
  8
SEIHIN
  6
CONTINUOUS
 62
     3
 48
16.0
100
AcDbCircle
 10
205.9005856991448
 20
122.7036433720456
 30
0.0
 40
2.000021301060911
100
AcDbArc
 50
29.9989430680016
 51
269.9996476826641
  0
ARC
  5
45A
330
1A
100
AcDbEntity
  8
SEIHIN
  6
CONTINUOUS
 62
     3
 48
16.0
100
AcDbCircle
 10
207.2912612811034
 20
114.1036123261175
 30
0.0
 40
1.000009744978471
100
AcDbArc
 50
89.99930559822272
 51
167.6016235045572
  0
ARC
  5
460
330
1A
100
AcDbEntity
  8
SEIHIN
  6
CONTINUOUS
 62
     3
 48
16.0
100
AcDbCircle
 10
212.6005734008186
 20
114.6036220710224
 30
0.0
 40
0.9999999999999715
100
AcDbArc
 50
270.0000000000081
 51
0.0000000000081422
  0
LINE
  5
461
330
1A
100
AcDbEntity
  8
NOKITOI
  6
PHANTOM
 62
     8
 48
5.0
100
AcDbLine
 10
210.4005734008187
 20
120.7035220710224
 30
0.0
 11
210.4005734008187
 21
116.1035220710225
 31
0.0
  0
LINE
  5
462
330
1A
100
AcDbEntity
  8
NOKITOI
  6
PHANTOM
 62
     8
 48
5.0
100
AcDbLine
 10
211.6005734008188
 20
114.9035220710225
 30
0.0
 11
211.6005734008188
 21
121.9035220710225
 31
0.0
  0
LINE
  5
463
330
1A
100
AcDbEntity
  8
SEIHIN
  6
CONTINUOUS
 62
     3
 48
16.0
100
AcDbLine
 10
212.1005734008188
 20
116.1036220710225
 30
0.0
 11
212.1005734008188
 21
121.1197220710224
 31
0.0
  0
LINE
  5
464
330
1A
100
AcDbEntity
  8
SEIHIN
  6
CONTINUOUS
 62
     3
 48
16.0
100
AcDbLine
 10
213.1005734008188
 20
123.5696220710226
 30
0.0
 11
213.1005734008188
 21
115.1036220710225
 31
0.0
  0
LINE
  5
465
330
1A
100
AcDbEntity
  8
SEIHIN
  6
CONTINUOUS
 62
     3
 48
16.0
100
AcDbLine
 10
213.6005734008187
 20
122.7036220710226
 30
0.0
 11
213.6005734008187
 21
114.6036220710225
 31
0.0
  0
ARC
  5
466
330
1A
100
AcDbEntity
  8
SEIHIN
  6
CONTINUOUS
 62
     3
 48
16.0
100
AcDbCircle
 10
211.1005734008188
 20
116.1036220710225
 30
0.0
 40
1.0
100
AcDbArc
 50
270.0
 51
0.0
  0
ARC
  5
467
330
1A
100
AcDbEntity
  8
SEIHIN
  6
CONTINUOUS
 62
     3
 48
16.0
100
AcDbCircle
 10
211.1006046392946
 20
121.1196932509655
 30
0.0
 40
0.9999687619394549
100
AcDbArc
 50
0.0016513192097869
 51
94.61349818814362
  0
ARC
  5
468
330
1A
100
AcDbEntity
  8
SEIHIN
  6
CONTINUOUS
 62
     3
 48
16.0
100
AcDbCircle
 10
212.6005734008188
 20
122.7036220710226
 30
0.0
 40
0.9999999999999147
100
AcDbArc
 50
359.9999999999951
 51
89.99999999999511
  0
ARC
  5
469
330
1A
100
AcDbEntity
  8
SEIHIN
  6
CONTINUOUS
 62
     3
 48
16.0
100
AcDbCircle
 10
212.1005734008188
 20
115.1036220710225
 30
0.0
 40
1.0
100
AcDbArc
 50
270.0
 51
0.0
  0
LINE
  5
46C
330
1A
100
AcDbEntity
  8
SEIHIN
  6
CONTINUOUS
 62
     3
 48
16.0
100
AcDbLine
 10
271.2078734008187
 20
124.7036220710226
 30
0.0
 11
291.2078734008188
 21
124.7036220710226
 31
0.0
  0
LINE
  5
46D
330
1A
100
AcDbEntity
  8
SEIHIN
  6
CONTINUOUS
 62
     3
 48
16.0
100
AcDbLine
 10
271.2078734008187
 20
123.7036220710226
 30
0.0
 11
291.2078734008188
 21
123.7036220710226
 31
0.0
  0
LINE
  5
46E
330
1A
100
AcDbEntity
  8
SEIHIN
  6
CONTINUOUS
 62
     3
 48
16.0
100
AcDbLine
 10
271.2078734008187
 20
113.6036220710224
 30
0.0
 11
287.2078734008188
 21
113.6036220710224
 31
0.0
  0
LINE
  5
46F
330
1A
100
AcDbEntity
  8
SEIHIN
  6
CONTINUOUS
 62
     3
 48
16.0
100
AcDbLine
 10
271.2078734008187
 20
80.40362207102257
 30
0.0
 11
287.2078734008188
 21
80.40362207102257
 31
0.0
  0
LINE
  5
470
330
1A
100
AcDbEntity
  8
SEIHIN
  6
CONTINUOUS
 62
     3
 48
16.0
100
AcDbLine
 10
271.2078734008187
 20
89.48412207102256
 30
0.0
 11
287.2078734008188
 21
89.48412207102256
 31
0.0
  0
LINE
  5
471
330
1A
100
AcDbEntity
  8
SEIHIN
  6
CONTINUOUS
 62
     3
 48
16.0
100
AcDbLine
 10
255.2078734008186
 20
123.7036220710226
 30
0.0
 11
255.2078734008186
 21
80.40362207102257
 31
0.0
  0
LINE
  5
472
330
1A
100
AcDbEntity
  8
SEIHIN
  6
CONTINUOUS
 62
     3
 48
16.0
100
AcDbLine
 10
251.2078734008186
 20
124.7036220710226
 30
0.0
 11
251.2078734008186
 21
80.9036220710225
 31
0.0
  0
LINE
  5
473
330
1A
100
AcDbEntity
  8
SEIHIN
  6
CONTINUOUS
 62
     3
 48
16.0
100
AcDbLine
 10
271.2078734008187
 20
89.48412207102256
 30
0.0
 11
255.2078734008186
 21
89.48412207102256
 31
0.0
  0
LINE
  5
474
330
1A
100
AcDbEntity
  8
SEIHIN
  6
CONTINUOUS
 62
     3
 48
16.0
100
AcDbLine
 10
271.2078734008187
 20
80.40362207102257
 30
0.0
 11
255.2078734008186
 21
80.40362207102257
 31
0.0
  0
LINE
  5
475
330
1A
100
AcDbEntity
  8
SEIHIN
  6
CONTINUOUS
 62
     3
 48
16.0
100
AcDbLine
 10
251.2078734008186
 20
89.98412207102251
 30
0.0
 11
255.2078734008186
 21
89.48412207102256
 31
0.0
  0
LINE
  5
476
330
1A
100
AcDbEntity
  8
SEIHIN
  6
CONTINUOUS
 62
     3
 48
16.0
100
AcDbLine
 10
251.2079734008188
 20
80.9036220710225
 30
0.0
 11
255.2078734008186
 21
80.40362207102257
 31
0.0
  0
LINE
  5
477
330
1A
100
AcDbEntity
  8
SEIHIN
  6
CONTINUOUS
 62
     3
 48
16.0
100
AcDbLine
 10
271.2078734008187
 20
123.7036220710226
 30
0.0
 11
251.2078734008186
 21
123.7036220710226
 31
0.0
  0
LINE
  5
478
330
1A
100
AcDbEntity
  8
SEIHIN
  6
CONTINUOUS
 62
     3
 48
16.0
100
AcDbLine
 10
271.2078734008187
 20
124.7036220710226
 30
0.0
 11
251.2078734008186
 21
124.7036220710226
 31
0.0
  0
LINE
  5
479
330
1A
100
AcDbEntity
  8
SEIHIN
  6
CONTINUOUS
 62
     3
 48
16.0
100
AcDbLine
 10
271.2078734008187
 20
113.6036220710224
 30
0.0
 11
255.2078734008186
 21
113.6036220710224
 31
0.0
  0
LINE
  5
47A
330
1A
100
AcDbEntity
  8
SEIHIN
  6
CONTINUOUS
 62
     3
 48
16.0
100
AcDbLine
 10
251.2078734008186
 20
114.1036220710225
 30
0.0
 11
255.2078734008186
 21
113.6036220710224
 31
0.0
  0
LINE
  5
47B
330
1A
100
AcDbEntity
  8
SEIHIN
  6
CONTINUOUS
 62
     3
 48
16.0
100
AcDbLine
 10
291.2078734008188
 20
124.7036220710226
 30
0.0
 11
291.2078734008188
 21
80.9036220710225
 31
0.0
  0
LINE
  5
47C
330
1A
100
AcDbEntity
  8
SEIHIN
  6
CONTINUOUS
 62
     3
 48
16.0
100
AcDbLine
 10
287.2078734008188
 20
123.7036220710226
 30
0.0
 11
287.2078734008188
 21
80.40362207102257
 31
0.0
  0
LINE
  5
47D
330
1A
100
AcDbEntity
  8
SEIHIN
  6
CONTINUOUS
 62
     3
 48
16.0
100
AcDbLine
 10
291.2078734008188
 20
89.98412207102251
 30
0.0
 11
287.2078734008188
 21
89.48412207102256
 31
0.0
  0
LINE
  5
47E
330
1A
100
AcDbEntity
  8
SEIHIN
  6
CONTINUOUS
 62
     3
 48
16.0
100
AcDbLine
 10
291.2078734008188
 20
80.9036220710225
 30
0.0
 11
287.2078734008188
 21
80.40362207102257
 31
0.0
  0
LINE
  5
47F
330
1A
100
AcDbEntity
  8
SEIHIN
  6
CONTINUOUS
 62
     3
 48
16.0
100
AcDbLine
 10
291.2078734008188
 20
114.1036220710225
 30
0.0
 11
287.2078734008188
 21
113.6036220710224
 31
0.0
  0
LINE
  5
480
330
1A
100
AcDbEntity
  8
SEIHIN
  6
CONTINUOUS
 62
     3
 48
16.0
100
AcDbLine
 10
213.6005734008187
 20
177.0250650357487
 30
0.0
 11
213.6006734008188
 21
216.0250650357486
 31
0.0
  0
LINE
  5
481
330
1A
100
AcDbEntity
  8
SEIHIN
  6
CONTINUOUS
 62
     3
 48
16.0
100
AcDbLine
 10
207.6326734008187
 20
176.5250650357486
 30
0.0
 11
207.6327734008188
 21
216.5250650357485
 31
0.0
  0
LINE
  5
482
330
1A
100
AcDbEntity
  8
SEIHIN
  6
CONTINUOUS
 62
     3
 48
16.0
100
AcDbLine
 10
193.5089734008188
 20
176.5250650357486
 30
0.0
 11
193.5090734008188
 21
216.5250650357485
 31
0.0
  0
LINE
  5
483
330
1A
100
AcDbEntity
  8
SEIHIN
  6
CONTINUOUS
 62
     3
 48
16.0
100
AcDbLine
 10
201.1006734008188
 20
176.5250650357486
 30
0.0
 11
201.1006734008188
 21
216.5250650357485
 31
0.0
  0
LINE
  5
484
330
1A
100
AcDbEntity
  8
SEIHIN
  6
CONTINUOUS
 62
     3
 48
16.0
100
AcDbLine
 10
203.9006734008186
 20
176.5250650357486
 30
0.0
 11
203.9006734008186
 21
216.5250650357485
 31
0.0
  0
LINE
  5
485
330
1A
100
AcDbEntity
  8
SEIHIN
  6
CONTINUOUS
 62
     3
 48
16.0
100
AcDbLine
 10
213.6005734008187
 20
177.0250650357487
 30
0.0
 11
209.6005734008187
 21
176.5250650357486
 31
0.0
  0
LINE
  5
489
330
1A
100
AcDbEntity
  8
SEIHIN
  6
CONTINUOUS
 62
     3
 48
16.0
100
AcDbLine
 10
213.6006734008188
 20
216.0250650357486
 30
0.0
 11
209.6006734008188
 21
216.5250650357485
 31
0.0
  0
DIMENSION
  5
4A5
330
1A
100
AcDbEntity
  8
SUNPOU
  6
CONTINUOUS
100
AcDbDimension
  2
*D1
 10
225.7205077244055
 20
80.40362207102257
 30
0.0
 11
223.2205077244054
 21
102.0536220710225
 31
0.0
 70
    32
  3
STANDARD
100
AcDbAlignedDimension
 13
212.6005734008188
 23
123.7036220710226
 33
0.0
 14
193.7807734008187
 24
80.40362207102257
 34
0.0
 50
90.0
100
AcDbRotatedDimension
1001
ACAD
1000
DSTYLE
1002
{
1070
   140
1040
3.0
1070
    74
1070
     0
1070
   172
1070
     1
1070
    73
1070
     0
1070
   272
1070
     2
1070
    77
1070
     3
1070
   173
1070
     1
1070
   147
1040
1.0
1070
    42
1040
3.0
1070
    44
1040
1.5
1070
    43
1040
7.0
1070
   271
1070
     0
1070
   178
1070
     4
1070
   177
1070
     4
1070
   176
1070
     4
1070
   141
1040
150.0
1070
     7
1000
_OPEN
1070
     6
1000
_OPEN
1070
    41
1040
3.0
1002
}
  0
DIMENSION
  5
4B2
330
1A
100
AcDbEntity
  8
SUNPOU
  6
CONTINUOUS
100
AcDbDimension
  2
*D2
 10
143.50169319979
 20
65.50665392377516
 30
0.0
 11
169.1005734008186
 21
68.00665392377516
 31
0.0
 70
    32
  3
STANDARD
100
AcDbAlignedDimension
 13
194.6994536018472
 23
80.40362207102255
 33
0.0
 14
143.50169319979
 24
80.40362207102257
 34
0.0
100
AcDbRotatedDimension
1001
ACAD
1000
DSTYLE
1002
{
1070
   140
1040
3.0
1070
    74
1070
     0
1070
   172
1070
     1
1070
    73
1070
     0
1070
   272
1070
     2
1070
    77
1070
     3
1070
   173
1070
     1
1070
   147
1040
1.0
1070
    42
1040
3.0
1070
    44
1040
1.5
1070
    43
1040
7.0
1070
   271
1070
     0
1070
   178
1070
     4
1070
   177
1070
     4
1070
   176
1070
     4
1070
   141
1040
150.0
1070
     7
1000
_OPEN
1070
     6
1000
_OPEN
1070
    41
1040
3.0
1002
}
  0
DIMENSION
  5
4BF
330
1A
100
AcDbEntity
  8
SUNPOU
  6
CONTINUOUS
100
AcDbDimension
  2
*D3
 10
251.2078734008186
 20
144.5230377099176
 30
0.0
 11
271.2078734008187
 21
147.0230377099176
 31
0.0
 70
    32
  3
STANDARD
100
AcDbAlignedDimension
 13
291.2078734008188
 23
124.7036220710226
 33
0.0
 14
251.2078734008186
 24
124.7036220710226
 34
0.0
100
AcDbRotatedDimension
1001
ACAD
1000
DSTYLE
1002
{
1070
   140
1040
3.0
1070
    74
1070
     0
1070
   172
1070
     1
1070
    73
1070
     0
1070
   272
1070
     2
1070
    77
1070
     3
1070
   173
1070
     1
1070
   147
1040
1.0
1070
    42
1040
3.0
1070
    44
1040
1.5
1070
    43
1040
7.0
1070
   271
1070
     0
1070
   178
1070
     4
1070
   177
1070
     4
1070
   176
1070
     4
1070
   141
1040
150.0
1070
     7
1000
_OPEN
1070
     6
1000
_OPEN
1070
    41
1040
3.0
1002
}
  0
DIMENSION
  5
4CC
330
1A
100
AcDbEntity
  8
SUNPOU
  6
CONTINUOUS
100
AcDbDimension
  2
*D4
 10
124.6006734008188
 20
144.3778519021158
 30
0.0
 11
169.1006234008187
 21
146.8778519021158
 31
0.0
 70
    32
  3
STANDARD
100
AcDbAlignedDimension
 13
213.6005734008187
 23
122.7036220710226
 33
0.0
 14
124.6006734008188
 24
122.7036220710226
 34
0.0
100
AcDbRotatedDimension
1001
ACAD
1000
DSTYLE
1002
{
1070
   140
1040
3.0
1070
    74
1070
     0
1070
   172
1070
     1
1070
    73
1070
     0
1070
   272
1070
     2
1070
    77
1070
     3
1070
   173
1070
     1
1070
   147
1040
1.0
1070
    42
1040
3.0
1070
    44
1040
1.5
1070
    43
1040
7.0
1070
   271
1070
     0
1070
   178
1070
     4
1070
   177
1070
     4
1070
   176
1070
     4
1070
   141
1040
150.0
1070
     7
1000
_OPEN
1070
     6
1000
_OPEN
1070
    41
1040
3.0
1002
}
  0
LWPOLYLINE
  5
627
330
1A
100
AcDbEntity
  8
ZUWAKU
100
AcDbPolyline
 90
        4
 70
     1
 43
0.0
 10
0.4000003632512517
 20
275.4000002150744
 10
0.4000003632512517
 20
0.400000215074499
 10
398.4000003632512
 20
0.400000215074499
 10
398.4000003632512
 20
275.4000002150744
  0
LWPOLYLINE
  5
628
330
1A
100
AcDbEntity
  8
ZUWAKU
100
AcDbPolyline
 90
        4
 70
     1
 43
0.0
 10
0.200000363251263
 20
275.6000002150745
 10
0.200000363251263
 20
0.2000002150745104
 10
398.6000003632513
 20
0.2000002150744988
 10
398.6000003632513
 20
275.6000002150745
  0
LWPOLYLINE
  5
629
330
1A
100
AcDbEntity
  8
ZUWAKU
100
AcDbPolyline
 90
        4
 70
     1
 43
0.0
 10
0.0000003632512744
 20
275.8000002150744
 10
0.0000003632512744
 20
0.0000002150744649
 10
398.8000003632513
 20
0.0000002150744987
 10
398.8000003632513
 20
275.8000002150745
  0
LWPOLYLINE
  5
62A
330
1A
100
AcDbEntity
  8
ZUWAKU
100
AcDbPolyline
 90
        4
 70
     1
 43
0.0
 10
0.3000003632512289
 20
275.5000002150745
 10
0.3000003632512289
 20
0.3000002150744763
 10
398.5000003632514
 20
0.3000002150744994
 10
398.5000003632512
 20
275.5000002150745
  0
LWPOLYLINE
  5
62B
330
1A
100
AcDbEntity
  8
ZUWAKU
100
AcDbPolyline
 90
        4
 70
     1
 43
0.0
 10
0.1000003632512403
 20
275.7000002150745
 10
0.1000003632512403
 20
0.1000002150744876
 10
398.7000003632512
 20
0.1000002150744992
 10
398.7000003632513
 20
275.7000002150745
  0
LINE
  5
62C
330
1A
100
AcDbEntity
  8
ZUWAKU
100
AcDbLine
 10
0.0000003632512744
 20
15.00000021507446
 30
0.0
 11
398.7000003632512
 21
15.00000021507446
 31
0.0
  0
LINE
  5
62D
330
1A
100
AcDbEntity
  8
ZUWAKU
100
AcDbLine
 10
0.0000003632512744
 20
15.10000021507446
 30
0.0
 11
398.7000003632512
 21
15.10000021507446
 31
0.0
  0
LINE
  5
62E
330
1A
100
AcDbEntity
  8
ZUWAKU
100
AcDbLine
 10
0.0000003632512744
 20
15.20000021507446
 30
0.0
 11
398.7000003632512
 21
15.20000021507446
 31
0.0
  0
LINE
  5
62F
330
1A
100
AcDbEntity
  8
ZUWAKU
100
AcDbLine
 10
0.0000003632512744
 20
15.30000021507446
 30
0.0
 11
398.7000003632512
 21
15.30000021507446
 31
0.0
  0
LINE
  5
630
330
1A
100
AcDbEntity
  8
ZUWAKU
100
AcDbLine
 10
0.0000003632512744
 20
15.40000021507447
 30
0.0
 11
398.7000003632512
 21
15.40000021507447
 31
0.0
  0
LINE
  5
631
330
1A
100
AcDbEntity
  8
ZUWAKU
100
AcDbLine
 10
104.3233010082852
 20
7.700000215074481
 30
0.0
 11
223.7121823487469
 21
7.700000215074481
 31
0.0
  0
LINE
  5
632
330
1A
100
AcDbEntity
  8
ZUWAKU
100
AcDbLine
 10
104.3233010082852
 20
7.800000215074481
 30
0.0
 11
223.7121823487469
 21
7.800000215074485
 31
0.0
  0
LINE
  5
633
330
1A
100
AcDbEntity
  8
ZUWAKU
100
AcDbLine
 10
104.3233010082852
 20
7.600000215074484
 30
0.0
 11
223.7121823487469
 21
7.60000021507448
 31
0.0
  0
CIRCLE
  5
634
330
1A
100
AcDbEntity
  8
ZUWAKU
100
AcDbCircle
 10
12.99610644064182
 20
7.600000215074466
 30
0.0
 40
0.875
  0
LINE
  5
635
330
1A
100
AcDbEntity
  8
ZUWAKU
100
AcDbLine
 10
13.43360644064182
 20
3.575000215074467
 30
0.0
 11
12.47110644064184
 21
3.575000215074467
 31
0.0
  0
LINE
  5
636
330
1A
100
AcDbEntity
  8
ZUWAKU
100
AcDbLine
 10
12.47110644064184
 20
4.975000215074466
 30
0.0
 11
13.43360644064182
 21
4.975000215074466
 31
0.0
  0
LINE
  5
637
330
1A
100
AcDbEntity
  8
ZUWAKU
100
AcDbLine
 10
13.43360644064182
 20
10.22500021507446
 30
0.0
 11
12.47110644064184
 21
10.22500021507446
 31
0.0
  0
LINE
  5
638
330
1A
100
AcDbEntity
  8
ZUWAKU
100
AcDbLine
 10
12.47110644064184
 20
11.62500021507444
 30
0.0
 11
13.43360644064182
 21
11.62500021507446
 31
0.0
  0
HATCH
  5
639
330
1A
100
AcDbEntity
  8
ZUWAKU
100
AcDbHatch
 10
0.0
 20
0.0
 30
0.0
210
0.0
220
0.0
230
1.0
  2
ANSI37
 70
     0
 71
     0
 91
        8
 92
        7
 72
     1
 73
     1
 93
       24
 10
7.251131693811203
 20
8.822424455566256
 42
-0.1989123673796348
 10
7.046106440641835
 20
9.317399202396781
 42
0.0
 10
7.046106440641835
 20
9.96250021507447
 42
-0.4142135623730912
 10
7.308606440641824
 20
10.22500021507446
 42
0.0
 10
8.796106440641779
 20
10.22500021507446
 42
0.4142135623731546
 10
9.058606440641824
 20
10.48750021507446
 42
0.0
 10
9.058606440641824
 20
11.36250021507446
 42
0.4142135623731586
 10
8.796106440641779
 20
11.62500021507446
 42
0.0
 10
7.046106440641835
 20
11.62500021507446
 42
0.4142135623730928
 10
5.646106440641858
 20
10.22500021507448
 42
0.0
 10
5.646106440641858
 20
9.317399202396845
 42
0.1989123673796619
 10
6.261182200150074
 20
7.832474961905042
 42
0.0
 10
7.716081187472411
 20
6.377575974582713
 42
-0.1989123673796613
 10
7.921106440641835
 20
5.88260122775212
 42
0.0
 10
7.921106440641835
 20
5.237500215074462
 42
-0.4142135623730911
 10
7.658606440641847
 20
4.975000215074466
 42
0.0
 10
6.171106440641892
 20
4.975000215074466
 42
0.4142135623731526
 10
5.908606440641847
 20
4.712500215074472
 42
0.0
 10
5.908606440641847
 20
3.837500215074461
 42
0.4142135623731526
 10
6.171106440641892
 20
3.575000215074467
 42
0.0
 10
7.921106440641835
 20
3.575000215074467
 42
0.4142135623731044
 10
9.321106440641869
 20
4.975000215074455
 42
0.0
 10
9.321106440641869
 20
5.882601227752092
 42
0.1989123673796604
 10
8.706030681133597
 20
7.367525468243862
 42
0.0
 97
        0
 92
        7
 72
     1
 73
     1
 93
       16
 10
11.77110644064185
 20
9.52500021507447
 42
-0.4142135623730935
 10
12.47110644064184
 20
10.22500021507446
 42
0.0
 10
13.43360644064182
 20
10.22500021507446
 42
0.4142135623731546
 10
13.69610644064187
 20
10.48750021507446
 42
0.0
 10
13.69610644064187
 20
11.36250021507446
 42
0.4142135623730951
 10
13.43360644064188
 20
11.62500021507446
 42
0.0
 10
12.47110644064179
 20
11.62500021507444
 42
0.4142135623730892
 10
10.37110644064182
 20
9.525000215074435
 42
0.0
 10
10.37110644064182
 20
5.675000215074479
 42
0.4142135623730969
 10
12.47110644064184
 20
3.575000215074467
 42
0.0
 10
13.43360644064182
 20
3.575000215074467
 42
0.4142135623731526
 10
13.69610644064187
 20
3.837500215074461
 42
0.0
 10
13.69610644064187
 20
4.712500215074472
 42
0.4142135623730891
 10
13.43360644064188
 20
4.975000215074466
 42
0.0
 10
12.47110644064184
 20
4.975000215074466
 42
-0.4142135623730928
 10
11.77110644064185
 20
5.67500021507446
 42
0.0
 97
        0
 92
        7
 72
     1
 73
     1
 93
        2
 10
12.12110644064182
 20
7.600000215074466
 42
1.0
 10
13.87110644064182
 20
7.600000215074466
 42
1.0
 97
        0
 92
        7
 72
     1
 73
     1
 93
       26
 10
18.65742968173083
 20
9.60252381185618
 42
0.0
 10
19.18824949829974
 20
11.28345323099097
 42
0.5069206636600134
 10
18.93793404870206
 20
11.62500021507446
 42
0.0
 10
18.08848935889744
 20
11.62500021507446
 42
0.3272098845218764
 10
17.83817390929977
 20
11.44154719915795
 42
0.0
 10
16.90403897198388
 20
8.483453230991006
 42
-0.3272098845219541
 10
16.65372352238614
 20
8.300000215074465
 42
0.0
 10
16.58360644064191
 20
8.300000215074465
 42
-0.4142135623731526
 10
16.32110644064186
 20
8.562500215074459
 42
0.0
 10
16.32110644064186
 20
11.36250021507446
 42
0.4142135623730951
 10
16.05860644064188
 20
11.62500021507446
 42
0.0
 10
15.18360644064182
 20
11.62500021507446
 42
0.4142135623730871
 10
14.92110644064183
 20
11.36250021507447
 42
0.0
 10
14.92110644064183
 20
3.837500215074461
 42
0.4142135623730891
 10
15.18360644064182
 20
3.575000215074467
 42
0.0
 10
16.05860644064182
 20
3.575000215074467
 42
0.4142135623731526
 10
16.32110644064186
 20
3.837500215074461
 42
0.0
 10
16.32110644064186
 20
6.637500215074473
 42
-0.4142135623731526
 10
16.58360644064191
 20
6.900000215074467
 42
0.0
 10
16.6537235223862
 20
6.900000215074467
 42
-0.3272098845218915
 10
16.90403897198388
 20
6.716547199157929
 42
0.0
 10
17.83817390929977
 20
3.758453230991003
 42
0.3272098845218902
 10
18.08848935889744
 20
3.575000215074467
 42
0.0
 10
18.93793404870206
 20
3.575000215074467
 42
0.5069206636600335
 10
19.18824949829974
 20
3.916547199157971
 42
0.0
 10
18.02505380906291
 20
7.600000215074535
 42
0.0
 97
        0
 92
        7
 72
     1
 73
     1
 93
        8
 10
21.74610644064182
 20
11.36250021507447
 42
0.4142135623731546
 10
21.48360644064177
 20
11.62500021507446
 42
0.0
 10
20.60860644064189
 20
11.62500021507446
 42
0.4142135623731507
 10
20.34610644064184
 20
11.36250021507447
 42
0.0
 10
20.34610644064184
 20
3.837500215074461
 42
0.4142135623731526
 10
20.60860644064189
 20
3.575000215074467
 42
0.0
 10
21.48360644064177
 20
3.575000215074467
 42
0.4142135623731526
 10
21.74610644064182
 20
3.837500215074461
 42
0.0
 97
        0
 92
        7
 72
     1
 73
     1
 93
       24
 10
24.19610644064187
 20
9.96250021507447
 42
-0.4142135623731546
 10
24.45860644064191
 20
10.22500021507446
 42
0.0
 10
25.94610644064187
 20
10.22500021507446
 42
0.4142135623730911
 10
26.20860644064185
 20
10.48750021507446
 42
0.0
 10
26.20860644064185
 20
11.36250021507446
 42
0.4142135623730952
 10
25.94610644064187
 20
11.62500021507446
 42
0.0
 10
24.19610644064187
 20
11.62500021507446
 42
0.4142135623731048
 10
22.79610644064183
 20
10.22500021507448
 42
0.0
 10
22.79610644064183
 20
9.317399202396845
 42
0.1989123673796613
 10
23.4111822001501
 20
7.83247496190507
 42
0.0
 10
24.86608118747244
 20
6.377575974582736
 42
-0.1989123673796402
 10
25.07110644064187
 20
5.8826012277522
 42
0.0
 10
25.07110644064187
 20
5.237500215074462
 42
-0.4142135623730911
 10
24.80860644064188
 20
4.975000215074466
 42
0.0
 10
23.32110644064186
 20
4.975000215074466
 42
0.4142135623731526
 10
23.05860644064182
 20
4.712500215074472
 42
0.0
 10
23.05860644064182
 20
3.837500215074461
 42
0.4142135623730891
 10
23.32110644064181
 20
3.575000215074467
 42
0.0
 10
25.07110644064187
 20
3.575000215074467
 42
0.4142135623730925
 10
26.47110644064184
 20
4.975000215074455
 42
0.0
 10
26.47110644064184
 20
5.882601227752092
 42
0.1989123673796675
 10
25.85603068113357
 20
7.367525468243918
 42
0.0
 10
24.40113169381129
 20
8.822424455566176
 42
-0.1989123673796652
 10
24.19610644064187
 20
9.31739920239676
 42
0.0
 97
        0
 92
        7
 72
     1
 73
     1
 93
       16
 10
28.92110644064183
 20
11.36250021507446
 42
0.414213562373103
 10
28.65860644064184
 20
11.62500021507446
 42
0.0
 10
27.78360644064184
 20
11.62500021507446
 42
0.4142135623730871
 10
27.52110644064186
 20
11.36250021507447
 42
0.0
 10
27.52110644064186
 20
4.975000215074455
 42
0.4142135623730926
 10
28.92110644064183
 20
3.575000215074467
 42
0.0
 10
30.67110644064183
 20
3.575000215074467
 42
0.4142135623731044
 10
32.07110644064186
 20
4.975000215074455
 42
0.0
 10
32.07110644064186
 20
11.36250021507446
 42
0.4142135623730951
 10
31.80860644064188
 20
11.62500021507446
 42
0.0
 10
30.93360644064182
 20
11.62500021507446
 42
0.4142135623730871
 10
30.67110644064183
 20
11.36250021507447
 42
0.0
 10
30.67110644064183
 20
5.500000215074454
 42
-0.414213562373088
 10
30.14610644064186
 20
4.975000215074466
 42
0.0
 10
29.44610644064187
 20
4.975000215074466
 42
-0.4142135623731197
 10
28.92110644064183
 20
5.500000215074454
 42
0.0
 97
        0
 92
        7
 72
     1
 73
     1
 93
        8
 10
34.52110644064186
 20
11.36250021507447
 42
0.4142135623730871
 10
34.25860644064186
 20
11.62500021507446
 42
0.0
 10
33.38360644064187
 20
11.62500021507446
 42
0.4142135623731507
 10
33.12110644064182
 20
11.36250021507447
 42
0.0
 10
33.12110644064182
 20
3.837500215074461
 42
0.4142135623730891
 10
33.38360644064181
 20
3.575000215074467
 42
0.0
 10
34.25860644064186
 20
3.575000215074467
 42
0.4142135623730891
 10
34.52110644064186
 20
3.837500215074461
 42
0.0
 97
        0
 75
     0
 76
     1
 52
0.0
 41
0.1
 77
     0
 78
     2
 53
45.0
 43
-450.4711518040882
 44
-6.5999997849255
 45
-0.2245064030267288
 46
0.2245064030267288
 79
     0
 53
135.0
 43
-450.4711518040882
 44
-6.5999997849255
 45
-0.2245064030267288
 46
-0.2245064030267288
 79
     0
 47
0.057451373970553
 98
        8
 10
8.039927844762928
 20
7.583587038017242
 10
11.20225786647085
 20
9.42203130629997
 10
12.5821843060811
 20
7.755941038109824
 10
15.45703035406984
 20
8.100649038295216
 10
20.91923637272964
 20
8.330455172066024
 10
23.44910081081605
 20
9.70928837327807
 10
28.27884334945144
 20
9.364579172621972
 10
33.91354017306264
 20
9.59438530639278
  0
ARC
  5
63A
330
1A
100
AcDbEntity
  8
ZUWAKU
100
AcDbCircle
 10
7.746106440641824
 20
9.317399202396817
 30
0.0
 40
2.099999999999999
100
AcDbArc
 50
180.0
 51
225.0
  0
LINE
  5
63B
330
1A
100
AcDbEntity
  8
ZUWAKU
100
AcDbLine
 10
10.37110644064182
 20
5.675000215074469
 30
0.0
 11
10.37110644064182
 21
9.525000215074445
 31
0.0
  0
LINE
  5
63C
330
1A
100
AcDbEntity
  8
ZUWAKU
100
AcDbLine
 10
11.77110644064185
 20
9.525000215074467
 30
0.0
 11
11.77110644064185
 21
5.675000215074469
 31
0.0
  0
ARC
  5
63D
330
1A
100
AcDbEntity
  8
ZUWAKU
100
AcDbCircle
 10
7.746106440641824
 20
9.317399202396817
 30
0.0
 40
0.7
100
AcDbArc
 50
180.0000000000016
 51
224.9999999999988
  0
ARC
  5
63E
330
1A
100
AcDbEntity
  8
ZUWAKU
100
AcDbCircle
 10
12.47110644064184
 20
5.675000215074469
 30
0.0
 40
2.099999999999999
100
AcDbArc
 50
180.0
 51
270.0
  0
ARC
  5
63F
330
1A
100
AcDbEntity
  8
ZUWAKU
100
AcDbCircle
 10
7.921106440641835
 20
4.975000215074466
 30
0.0
 40
1.399999999999999
100
AcDbArc
 50
270.0
 51
0.0
  0
ARC
  5
640
330
1A
100
AcDbEntity
  8
ZUWAKU
100
AcDbCircle
 10
7.221106440641847
 20
5.882601227752118
 30
0.0
 40
2.099999999999999
100
AcDbArc
 50
0.0
 51
45.0
  0
LINE
  5
641
330
1A
100
AcDbEntity
  8
ZUWAKU
100
AcDbLine
 10
6.261182200150074
 20
7.832474961905056
 30
0.0
 11
7.716081187472411
 21
6.377575974582725
 31
0.0
  0
LINE
  5
642
330
1A
100
AcDbEntity
  8
ZUWAKU
100
AcDbLine
 10
6.171106440641835
 20
4.975000215074466
 30
0.0
 11
7.658606440641847
 21
4.975000215074466
 31
0.0
  0
LINE
  5
643
330
1A
100
AcDbEntity
  8
ZUWAKU
100
AcDbLine
 10
6.171106440641835
 20
3.575000215074467
 30
0.0
 11
7.921106440641835
 21
3.575000215074467
 31
0.0
  0
ARC
  5
644
330
1A
100
AcDbEntity
  8
ZUWAKU
100
AcDbCircle
 10
6.171106440641835
 20
4.712500215074467
 30
0.0
 40
0.2625
100
AcDbArc
 50
90.0
 51
180.0
  0
ARC
  5
645
330
1A
100
AcDbEntity
  8
ZUWAKU
100
AcDbCircle
 10
6.171106440641835
 20
3.837500215074467
 30
0.0
 40
0.2625
100
AcDbArc
 50
180.0
 51
270.0
  0
LINE
  5
646
330
1A
100
AcDbEntity
  8
ZUWAKU
100
AcDbLine
 10
5.908606440641847
 20
3.837500215074467
 30
0.0
 11
5.908606440641847
 21
4.712500215074467
 31
0.0
  0
ARC
  5
647
330
1A
100
AcDbEntity
  8
ZUWAKU
100
AcDbCircle
 10
7.221106440641847
 20
5.88260122775214
 30
0.0
 40
0.7
100
AcDbArc
 50
0.0
 51
45.0
  0
ARC
  5
648
330
1A
100
AcDbEntity
  8
ZUWAKU
100
AcDbCircle
 10
7.658606440641847
 20
5.237500215074469
 30
0.0
 40
0.2625
100
AcDbArc
 50
270.0
 51
0.0
  0
LINE
  5
649
330
1A
100
AcDbEntity
  8
ZUWAKU
100
AcDbLine
 10
7.921106440641835
 20
5.237500215074469
 30
0.0
 11
7.921106440641835
 21
5.88260122775214
 31
0.0
  0
LINE
  5
64A
330
1A
100
AcDbEntity
  8
ZUWAKU
100
AcDbLine
 10
8.706030681133597
 20
7.367525468243879
 30
0.0
 11
7.251131693811259
 21
8.822424455566217
 31
0.0
  0
ARC
  5
64B
330
1A
100
AcDbEntity
  8
ZUWAKU
100
AcDbCircle
 10
12.47110644064184
 20
5.675000215074469
 30
0.0
 40
0.7
100
AcDbArc
 50
180.0
 51
270.0
  0
LINE
  5
64C
330
1A
100
AcDbEntity
  8
ZUWAKU
100
AcDbLine
 10
9.321106440641869
 20
4.975000215074466
 30
0.0
 11
9.321106440641869
 21
5.88260122775214
 31
0.0
  0
ARC
  5
64D
330
1A
100
AcDbEntity
  8
ZUWAKU
100
AcDbCircle
 10
8.796106440641835
 20
10.48750021507446
 30
0.0
 40
0.2625
100
AcDbArc
 50
270.0
 51
0.0
  0
ARC
  5
64E
330
1A
100
AcDbEntity
  8
ZUWAKU
100
AcDbCircle
 10
8.796106440641835
 20
11.36250021507446
 30
0.0
 40
0.2625
100
AcDbArc
 50
0.0
 51
90.0
  0
ARC
  5
64F
330
1A
100
AcDbEntity
  8
ZUWAKU
100
AcDbCircle
 10
7.046106440641835
 20
10.22500021507446
 30
0.0
 40
1.399999999999999
100
AcDbArc
 50
90.0
 51
180.0
  0
LINE
  5
650
330
1A
100
AcDbEntity
  8
ZUWAKU
100
AcDbLine
 10
5.646106440641858
 20
10.22500021507446
 30
0.0
 11
5.646106440641858
 21
9.317399202396796
 31
0.0
  0
LINE
  5
651
330
1A
100
AcDbEntity
  8
ZUWAKU
100
AcDbLine
 10
8.796106440641835
 20
10.22500021507446
 30
0.0
 11
7.308606440641824
 21
10.22500021507446
 31
0.0
  0
LINE
  5
652
330
1A
100
AcDbEntity
  8
ZUWAKU
100
AcDbLine
 10
7.046106440641835
 20
9.962500215074467
 30
0.0
 11
7.046106440641835
 21
9.317399202396796
 31
0.0
  0
ARC
  5
653
330
1A
100
AcDbEntity
  8
ZUWAKU
100
AcDbCircle
 10
7.308606440641824
 20
9.962500215074467
 30
0.0
 40
0.2625
100
AcDbArc
 50
90.0
 51
180.0
  0
LINE
  5
654
330
1A
100
AcDbEntity
  8
ZUWAKU
100
AcDbLine
 10
7.046106440641835
 20
11.62500021507446
 30
0.0
 11
8.796106440641835
 21
11.62500021507446
 31
0.0
  0
ARC
  5
655
330
1A
100
AcDbEntity
  8
ZUWAKU
100
AcDbCircle
 10
12.47110644064184
 20
9.525000215074445
 30
0.0
 40
2.099999999999999
100
AcDbArc
 50
90.0
 51
180.0
  0
ARC
  5
656
330
1A
100
AcDbEntity
  8
ZUWAKU
100
AcDbCircle
 10
12.47110644064184
 20
9.525000215074467
 30
0.0
 40
0.7
100
AcDbArc
 50
90.0
 51
180.0
  0
LINE
  5
657
330
1A
100
AcDbEntity
  8
ZUWAKU
100
AcDbLine
 10
9.058606440641824
 20
11.36250021507446
 30
0.0
 11
9.058606440641824
 21
10.48750021507446
 31
0.0
  0
LINE
  5
658
330
1A
100
AcDbEntity
  8
ZUWAKU
100
AcDbLine
 10
17.83817390929977
 20
11.44154719915795
 30
0.0
 11
16.90403897198388
 21
8.483453230990981
 31
0.0
  0
LINE
  5
659
330
1A
100
AcDbEntity
  8
ZUWAKU
100
AcDbLine
 10
14.92110644064183
 20
11.36250021507446
 30
0.0
 11
14.92110644064183
 21
3.837500215074467
 31
0.0
  0
LINE
  5
65A
330
1A
100
AcDbEntity
  8
ZUWAKU
100
AcDbLine
 10
16.32110644064186
 20
8.562500215074468
 30
0.0
 11
16.32110644064186
 21
11.36250021507446
 31
0.0
  0
LINE
  5
65B
330
1A
100
AcDbEntity
  8
ZUWAKU
100
AcDbLine
 10
28.92110644064183
 20
5.500000215074464
 30
0.0
 11
28.92110644064183
 21
11.36250021507446
 31
0.0
  0
LINE
  5
65C
330
1A
100
AcDbEntity
  8
ZUWAKU
100
AcDbLine
 10
27.52110644064186
 20
11.36250021507446
 30
0.0
 11
27.52110644064186
 21
4.975000215074466
 31
0.0
  0
LINE
  5
65D
330
1A
100
AcDbEntity
  8
ZUWAKU
100
AcDbLine
 10
21.74610644064182
 20
3.837500215074467
 30
0.0
 11
21.74610644064182
 21
11.36250021507446
 31
0.0
  0
LINE
  5
65E
330
1A
100
AcDbEntity
  8
ZUWAKU
100
AcDbLine
 10
20.34610644064184
 20
11.36250021507446
 30
0.0
 11
20.34610644064184
 21
3.837500215074467
 31
0.0
  0
LINE
  5
65F
330
1A
100
AcDbEntity
  8
ZUWAKU
100
AcDbLine
 10
18.65742968173083
 20
9.60252381185618
 30
0.0
 11
18.02505380906291
 21
7.600000215074476
 31
0.0
  0
ARC
  5
660
330
1A
100
AcDbEntity
  8
ZUWAKU
100
AcDbCircle
 10
24.89610644064185
 20
9.317399202396817
 30
0.0
 40
2.099999999999999
100
AcDbArc
 50
180.0
 51
225.0
  0
ARC
  5
661
330
1A
100
AcDbEntity
  8
ZUWAKU
100
AcDbCircle
 10
24.89610644064185
 20
9.317399202396817
 30
0.0
 40
0.7
100
AcDbArc
 50
180.0000000000016
 51
224.9999999999988
  0
LINE
  5
662
330
1A
100
AcDbEntity
  8
ZUWAKU
100
AcDbLine
 10
33.12110644064182
 20
11.36250021507446
 30
0.0
 11
33.12110644064182
 21
3.837500215074467
 31
0.0
  0
LINE
  5
663
330
1A
100
AcDbEntity
  8
ZUWAKU
100
AcDbLine
 10
34.52110644064186
 20
3.837500215074467
 30
0.0
 11
34.52110644064186
 21
11.36250021507446
 31
0.0
  0
LINE
  5
664
330
1A
100
AcDbEntity
  8
ZUWAKU
100
AcDbLine
 10
30.67110644064183
 20
11.36250021507446
 30
0.0
 11
30.67110644064183
 21
5.500000215074464
 31
0.0
  0
LINE
  5
665
330
1A
100
AcDbEntity
  8
ZUWAKU
100
AcDbLine
 10
32.07110644064186
 20
4.975000215074466
 30
0.0
 11
32.07110644064186
 21
11.36250021507446
 31
0.0
  0
LINE
  5
666
330
1A
100
AcDbEntity
  8
ZUWAKU
100
AcDbLine
 10
39.56331513724546
 20
15.00000021507446
 30
0.0
 11
39.56331513724546
 21
0.400000215074499
 31
0.0
  0
LINE
  5
667
330
1A
100
AcDbEntity
  8
ZUWAKU
100
AcDbLine
 10
39.7633151372454
 20
15.00000021507446
 30
0.0
 11
39.76331513724551
 21
0.400000215074499
 31
0.0
  0
LINE
  5
668
330
1A
100
AcDbEntity
  8
ZUWAKU
100
AcDbLine
 10
39.66331513724537
 20
15.00000021507446
 30
0.0
 11
39.66331513724549
 21
0.400000215074499
 31
0.0
  0
TEXT
  5
669
330
1A
100
AcDbEntity
  8
MOJI
100
AcDbText
 10
46.47889515733583
 20
6.370589280211845
 30
0.0
 40
3.0
  1
ライナートップ
 41
0.9
  7
ｽﾀｲﾙ1
100
AcDbText
  0
LINE
  5
66A
330
1A
100
AcDbEntity
  8
ZUWAKU
100
AcDbLine
 10
28.92110644064183
 20
3.575000215074467
 30
0.0
 11
30.67110644064183
 21
3.575000215074467
 31
0.0
  0
LINE
  5
66B
330
1A
100
AcDbEntity
  8
ZUWAKU
100
AcDbLine
 10
30.14610644064186
 20
4.975000215074466
 30
0.0
 11
29.44610644064187
 21
4.975000215074466
 31
0.0
  0
LINE
  5
66C
330
1A
100
AcDbEntity
  8
ZUWAKU
100
AcDbLine
 10
20.60860644064183
 20
3.575000215074467
 30
0.0
 11
21.48360644064183
 21
3.575000215074467
 31
0.0
  0
LINE
  5
66D
330
1A
100
AcDbEntity
  8
ZUWAKU
100
AcDbLine
 10
17.83817390929977
 20
3.75845323099098
 30
0.0
 11
16.90403897198388
 21
6.71654719915795
 31
0.0
  0
ARC
  5
66E
330
1A
100
AcDbEntity
  8
ZUWAKU
100
AcDbCircle
 10
16.58360644064186
 20
6.637500215074467
 30
0.0
 40
0.2625
100
AcDbArc
 50
90.0
 51
180.0
  0
ARC
  5
66F
330
1A
100
AcDbEntity
  8
ZUWAKU
100
AcDbCircle
 10
16.6537235223862
 20
6.637500215074467
 30
0.0
 40
0.2625
100
AcDbArc
 50
17.52556837372303
 51
90.0
  0
ARC
  5
670
330
1A
100
AcDbEntity
  8
ZUWAKU
100
AcDbCircle
 10
15.18360644064182
 20
3.837500215074467
 30
0.0
 40
0.2625
100
AcDbArc
 50
180.0
 51
270.0
  0
ARC
  5
671
330
1A
100
AcDbEntity
  8
ZUWAKU
100
AcDbCircle
 10
13.43360644064182
 20
4.712500215074467
 30
0.0
 40
0.2625
100
AcDbArc
 50
0.0
 51
90.0
  0
ARC
  5
672
330
1A
100
AcDbEntity
  8
ZUWAKU
100
AcDbCircle
 10
13.43360644064182
 20
3.837500215074467
 30
0.0
 40
0.2625
100
AcDbArc
 50
270.0
 51
0.0
  0
LINE
  5
673
330
1A
100
AcDbEntity
  8
ZUWAKU
100
AcDbLine
 10
13.69610644064187
 20
4.712500215074467
 30
0.0
 11
13.69610644064187
 21
3.837500215074467
 31
0.0
  0
LINE
  5
674
330
1A
100
AcDbEntity
  8
ZUWAKU
100
AcDbLine
 10
16.32110644064186
 20
3.837500215074467
 30
0.0
 11
16.32110644064186
 21
6.637500215074467
 31
0.0
  0
ARC
  5
675
330
1A
100
AcDbEntity
  8
ZUWAKU
100
AcDbCircle
 10
16.05860644064182
 20
3.837500215074467
 30
0.0
 40
0.2625
100
AcDbArc
 50
270.0
 51
0.0
  0
LINE
  5
676
330
1A
100
AcDbEntity
  8
ZUWAKU
100
AcDbLine
 10
15.18360644064182
 20
3.575000215074467
 30
0.0
 11
16.05860644064182
 21
3.575000215074467
 31
0.0
  0
ARC
  5
677
330
1A
100
AcDbEntity
  8
ZUWAKU
100
AcDbCircle
 10
16.58360644064186
 20
8.562500215074468
 30
0.0
 40
0.2625
100
AcDbArc
 50
180.0
 51
270.0
  0
LINE
  5
678
330
1A
100
AcDbEntity
  8
ZUWAKU
100
AcDbLine
 10
16.58360644064186
 20
6.900000215074467
 30
0.0
 11
16.6537235223862
 21
6.900000215074467
 31
0.0
  0
LINE
  5
679
330
1A
100
AcDbEntity
  8
ZUWAKU
100
AcDbLine
 10
16.6537235223862
 20
8.300000215074465
 30
0.0
 11
16.58360644064186
 21
8.300000215074465
 31
0.0
  0
ARC
  5
67A
330
1A
100
AcDbEntity
  8
ZUWAKU
100
AcDbCircle
 10
16.6537235223862
 20
8.562500215074468
 30
0.0
 40
0.2625
100
AcDbArc
 50
270.0
 51
342.4744316262769
  0
ARC
  5
67B
330
1A
100
AcDbEntity
  8
ZUWAKU
100
AcDbCircle
 10
18.0884893588975
 20
3.837500215074467
 30
0.0
 40
0.2625
100
AcDbArc
 50
197.525568373723
 51
270.0
  0
LINE
  5
67C
330
1A
100
AcDbEntity
  8
ZUWAKU
100
AcDbLine
 10
19.18824949829974
 20
3.916547199157953
 30
0.0
 11
18.02505380906291
 21
7.600000215074476
 31
0.0
  0
ARC
  5
67D
330
1A
100
AcDbEntity
  8
ZUWAKU
100
AcDbCircle
 10
18.937934048702
 20
3.837500215074467
 30
0.0
 40
0.2625
100
AcDbArc
 50
270.0
 51
17.52556837372303
  0
LINE
  5
67E
330
1A
100
AcDbEntity
  8
ZUWAKU
100
AcDbLine
 10
18.0884893588975
 20
3.575000215074467
 30
0.0
 11
18.937934048702
 21
3.575000215074467
 31
0.0
  0
ARC
  5
67F
330
1A
100
AcDbEntity
  8
ZUWAKU
100
AcDbCircle
 10
20.60860644064183
 20
3.837500215074467
 30
0.0
 40
0.2625
100
AcDbArc
 50
180.0
 51
270.0
  0
ARC
  5
680
330
1A
100
AcDbEntity
  8
ZUWAKU
100
AcDbCircle
 10
25.07110644064187
 20
4.975000215074466
 30
0.0
 40
1.399999999999999
100
AcDbArc
 50
270.0
 51
0.0
  0
ARC
  5
681
330
1A
100
AcDbEntity
  8
ZUWAKU
100
AcDbCircle
 10
28.92110644064183
 20
4.975000215074466
 30
0.0
 40
1.399999999999999
100
AcDbArc
 50
180.0
 51
270.0
  0
LINE
  5
682
330
1A
100
AcDbEntity
  8
ZUWAKU
100
AcDbLine
 10
25.85603068113363
 20
7.367525468243879
 30
0.0
 11
24.40113169381123
 21
8.822424455566217
 31
0.0
  0
LINE
  5
683
330
1A
100
AcDbEntity
  8
ZUWAKU
100
AcDbLine
 10
23.4111822001501
 20
7.832474961905056
 30
0.0
 11
24.86608118747244
 21
6.377575974582725
 31
0.0
  0
LINE
  5
684
330
1A
100
AcDbEntity
  8
ZUWAKU
100
AcDbLine
 10
23.32110644064186
 20
3.575000215074467
 30
0.0
 11
25.07110644064187
 21
3.575000215074467
 31
0.0
  0
LINE
  5
685
330
1A
100
AcDbEntity
  8
ZUWAKU
100
AcDbLine
 10
23.32110644064186
 20
4.975000215074466
 30
0.0
 11
24.80860644064182
 21
4.975000215074466
 31
0.0
  0
ARC
  5
686
330
1A
100
AcDbEntity
  8
ZUWAKU
100
AcDbCircle
 10
23.32110644064186
 20
4.712500215074467
 30
0.0
 40
0.2625
100
AcDbArc
 50
90.0
 51
180.0
  0
ARC
  5
687
330
1A
100
AcDbEntity
  8
ZUWAKU
100
AcDbCircle
 10
21.48360644064183
 20
3.837500215074467
 30
0.0
 40
0.2625
100
AcDbArc
 50
270.0
 51
0.0
  0
ARC
  5
688
330
1A
100
AcDbEntity
  8
ZUWAKU
100
AcDbCircle
 10
23.32110644064186
 20
3.837500215074467
 30
0.0
 40
0.2625
100
AcDbArc
 50
180.0
 51
270.0
  0
LINE
  5
689
330
1A
100
AcDbEntity
  8
ZUWAKU
100
AcDbLine
 10
23.05860644064182
 20
3.837500215074467
 30
0.0
 11
23.05860644064182
 21
4.712500215074467
 31
0.0
  0
ARC
  5
68A
330
1A
100
AcDbEntity
  8
ZUWAKU
100
AcDbCircle
 10
24.80860644064182
 20
5.237500215074469
 30
0.0
 40
0.2625
100
AcDbArc
 50
270.0
 51
0.0
  0
ARC
  5
68B
330
1A
100
AcDbEntity
  8
ZUWAKU
100
AcDbCircle
 10
24.37110644064182
 20
5.88260122775214
 30
0.0
 40
0.7
100
AcDbArc
 50
0.0
 51
45.0
  0
LINE
  5
68C
330
1A
100
AcDbEntity
  8
ZUWAKU
100
AcDbLine
 10
25.07110644064187
 20
5.237500215074469
 30
0.0
 11
25.07110644064187
 21
5.88260122775214
 31
0.0
  0
ARC
  5
68D
330
1A
100
AcDbEntity
  8
ZUWAKU
100
AcDbCircle
 10
29.44610644064187
 20
5.500000215074464
 30
0.0
 40
0.525
100
AcDbArc
 50
180.0
 51
270.0
  0
ARC
  5
68E
330
1A
100
AcDbEntity
  8
ZUWAKU
100
AcDbCircle
 10
24.37110644064182
 20
5.882601227752118
 30
0.0
 40
2.099999999999999
100
AcDbArc
 50
0.0
 51
45.0
  0
LINE
  5
68F
330
1A
100
AcDbEntity
  8
ZUWAKU
100
AcDbLine
 10
26.47110644064184
 20
4.975000215074466
 30
0.0
 11
26.47110644064184
 21
5.88260122775214
 31
0.0
  0
ARC
  5
690
330
1A
100
AcDbEntity
  8
ZUWAKU
100
AcDbCircle
 10
30.67110644064183
 20
4.975000215074466
 30
0.0
 40
1.399999999999999
100
AcDbArc
 50
270.0
 51
0.0
  0
LINE
  5
691
330
1A
100
AcDbEntity
  8
ZUWAKU
100
AcDbLine
 10
33.38360644064187
 20
3.575000215074467
 30
0.0
 11
34.25860644064186
 21
3.575000215074467
 31
0.0
  0
ARC
  5
692
330
1A
100
AcDbEntity
  8
ZUWAKU
100
AcDbCircle
 10
30.14610644064186
 20
5.500000215074464
 30
0.0
 40
0.525
100
AcDbArc
 50
270.0
 51
0.0
  0
ARC
  5
693
330
1A
100
AcDbEntity
  8
ZUWAKU
100
AcDbCircle
 10
33.38360644064187
 20
3.837500215074467
 30
0.0
 40
0.2625
100
AcDbArc
 50
180.0
 51
270.0
  0
ARC
  5
694
330
1A
100
AcDbEntity
  8
ZUWAKU
100
AcDbCircle
 10
34.25860644064186
 20
3.837500215074467
 30
0.0
 40
0.2625
100
AcDbArc
 50
270.0
 51
0.0
  0
LINE
  5
695
330
1A
100
AcDbEntity
  8
ZUWAKU
100
AcDbLine
 10
21.48360644064183
 20
11.62500021507446
 30
0.0
 11
20.60860644064183
 21
11.62500021507446
 31
0.0
  0
LINE
  5
696
330
1A
100
AcDbEntity
  8
ZUWAKU
100
AcDbLine
 10
13.69610644064187
 20
11.36250021507446
 30
0.0
 11
13.69610644064187
 21
10.48750021507446
 31
0.0
  0
ARC
  5
697
330
1A
100
AcDbEntity
  8
ZUWAKU
100
AcDbCircle
 10
13.43360644064182
 20
10.48750021507446
 30
0.0
 40
0.2625
100
AcDbArc
 50
270.0
 51
0.0
  0
ARC
  5
698
330
1A
100
AcDbEntity
  8
ZUWAKU
100
AcDbCircle
 10
15.18360644064182
 20
11.36250021507446
 30
0.0
 40
0.2625
100
AcDbArc
 50
90.0
 51
180.0
  0
ARC
  5
699
330
1A
100
AcDbEntity
  8
ZUWAKU
100
AcDbCircle
 10
13.43360644064182
 20
11.36250021507446
 30
0.0
 40
0.2625
100
AcDbArc
 50
0.0
 51
90.0
  0
LINE
  5
69A
330
1A
100
AcDbEntity
  8
ZUWAKU
100
AcDbLine
 10
16.05860644064182
 20
11.62500021507446
 30
0.0
 11
15.18360644064182
 21
11.62500021507446
 31
0.0
  0
ARC
  5
69B
330
1A
100
AcDbEntity
  8
ZUWAKU
100
AcDbCircle
 10
16.05860644064182
 20
11.36250021507446
 30
0.0
 40
0.2625
100
AcDbArc
 50
0.0
 51
90.0
  0
ARC
  5
69C
330
1A
100
AcDbEntity
  8
ZUWAKU
100
AcDbCircle
 10
18.0884893588975
 20
11.36250021507446
 30
0.0
 40
0.2625
100
AcDbArc
 50
90.0
 51
162.4744316262769
  0
LINE
  5
69D
330
1A
100
AcDbEntity
  8
ZUWAKU
100
AcDbLine
 10
19.18824949829974
 20
11.28345323099098
 30
0.0
 11
18.65742968173083
 21
9.60252381185618
 31
0.0
  0
ARC
  5
69E
330
1A
100
AcDbEntity
  8
ZUWAKU
100
AcDbCircle
 10
18.937934048702
 20
11.36250021507446
 30
0.0
 40
0.2625
100
AcDbArc
 50
342.4744316262769
 51
90.0
  0
LINE
  5
69F
330
1A
100
AcDbEntity
  8
ZUWAKU
100
AcDbLine
 10
18.0884893588975
 20
11.62500021507446
 30
0.0
 11
18.937934048702
 21
11.62500021507446
 31
0.0
  0
ARC
  5
6A0
330
1A
100
AcDbEntity
  8
ZUWAKU
100
AcDbCircle
 10
20.60860644064183
 20
11.36250021507446
 30
0.0
 40
0.2625
100
AcDbArc
 50
90.0
 51
180.0
  0
LINE
  5
6A1
330
1A
100
AcDbEntity
  8
ZUWAKU
100
AcDbLine
 10
25.94610644064187
 20
10.22500021507446
 30
0.0
 11
24.45860644064186
 21
10.22500021507446
 31
0.0
  0
LINE
  5
6A2
330
1A
100
AcDbEntity
  8
ZUWAKU
100
AcDbLine
 10
24.19610644064187
 20
11.62500021507446
 30
0.0
 11
25.94610644064187
 21
11.62500021507446
 31
0.0
  0
ARC
  5
6A3
330
1A
100
AcDbEntity
  8
ZUWAKU
100
AcDbCircle
 10
24.19610644064187
 20
10.22500021507446
 30
0.0
 40
1.399999999999999
100
AcDbArc
 50
90.0
 51
180.0
  0
LINE
  5
6A4
330
1A
100
AcDbEntity
  8
ZUWAKU
100
AcDbLine
 10
22.79610644064183
 20
10.22500021507446
 30
0.0
 11
22.79610644064183
 21
9.317399202396796
 31
0.0
  0
ARC
  5
6A5
330
1A
100
AcDbEntity
  8
ZUWAKU
100
AcDbCircle
 10
21.48360644064183
 20
11.36250021507446
 30
0.0
 40
0.2625
100
AcDbArc
 50
0.0
 51
90.0
  0
LINE
  5
6A6
330
1A
100
AcDbEntity
  8
ZUWAKU
100
AcDbLine
 10
24.19610644064187
 20
9.962500215074467
 30
0.0
 11
24.19610644064187
 21
9.317399202396796
 31
0.0
  0
ARC
  5
6A7
330
1A
100
AcDbEntity
  8
ZUWAKU
100
AcDbCircle
 10
24.45860644064186
 20
9.962500215074467
 30
0.0
 40
0.2625
100
AcDbArc
 50
90.0
 51
180.0
  0
LINE
  5
6A8
330
1A
100
AcDbEntity
  8
ZUWAKU
100
AcDbLine
 10
26.20860644064185
 20
11.36250021507446
 30
0.0
 11
26.20860644064185
 21
10.48750021507446
 31
0.0
  0
ARC
  5
6A9
330
1A
100
AcDbEntity
  8
ZUWAKU
100
AcDbCircle
 10
25.94610644064187
 20
10.48750021507446
 30
0.0
 40
0.2625
100
AcDbArc
 50
270.0
 51
0.0
  0
ARC
  5
6AA
330
1A
100
AcDbEntity
  8
ZUWAKU
100
AcDbCircle
 10
25.94610644064187
 20
11.36250021507446
 30
0.0
 40
0.2625
100
AcDbArc
 50
0.0
 51
90.0
  0
LINE
  5
6AB
330
1A
100
AcDbEntity
  8
ZUWAKU
100
AcDbLine
 10
28.65860644064184
 20
11.62500021507446
 30
0.0
 11
27.78360644064184
 21
11.62500021507446
 31
0.0
  0
ARC
  5
6AC
330
1A
100
AcDbEntity
  8
ZUWAKU
100
AcDbCircle
 10
27.78360644064184
 20
11.36250021507446
 30
0.0
 40
0.2625
100
AcDbArc
 50
90.0
 51
180.0
  0
ARC
  5
6AD
330
1A
100
AcDbEntity
  8
ZUWAKU
100
AcDbCircle
 10
28.65860644064184
 20
11.36250021507446
 30
0.0
 40
0.2625
100
AcDbArc
 50
0.0
 51
90.0
  0
LINE
  5
6AE
330
1A
100
AcDbEntity
  8
ZUWAKU
100
AcDbLine
 10
34.25860644064186
 20
11.62500021507446
 30
0.0
 11
33.38360644064187
 21
11.62500021507446
 31
0.0
  0
ARC
  5
6AF
330
1A
100
AcDbEntity
  8
ZUWAKU
100
AcDbCircle
 10
30.93360644064182
 20
11.36250021507446
 30
0.0
 40
0.2625
100
AcDbArc
 50
90.0
 51
180.0
  0
LINE
  5
6B0
330
1A
100
AcDbEntity
  8
ZUWAKU
100
AcDbLine
 10
31.80860644064182
 20
11.62500021507446
 30
0.0
 11
30.93360644064182
 21
11.62500021507446
 31
0.0
  0
ARC
  5
6B1
330
1A
100
AcDbEntity
  8
ZUWAKU
100
AcDbCircle
 10
31.80860644064182
 20
11.36250021507446
 30
0.0
 40
0.2625
100
AcDbArc
 50
0.0
 51
90.0
  0
ARC
  5
6B2
330
1A
100
AcDbEntity
  8
ZUWAKU
100
AcDbCircle
 10
33.38360644064187
 20
11.36250021507446
 30
0.0
 40
0.2625
100
AcDbArc
 50
90.0
 51
180.0
  0
ARC
  5
6B3
330
1A
100
AcDbEntity
  8
ZUWAKU
100
AcDbCircle
 10
34.25860644064186
 20
11.36250021507446
 30
0.0
 40
0.2625
100
AcDbArc
 50
0.0
 51
90.0
  0
LINE
  5
6B4
330
1A
100
AcDbEntity
  8
ZUWAKU
100
AcDbLine
 10
104.2233010082851
 20
15.00000021507446
 30
0.0
 11
104.2233010082852
 21
0.400000215074499
 31
0.0
  0
LINE
  5
6B5
330
1A
100
AcDbEntity
  8
ZUWAKU
100
AcDbLine
 10
104.3233010082851
 20
15.00000021507446
 30
0.0
 11
104.3233010082852
 21
0.400000215074499
 31
0.0
  0
LINE
  5
6B6
330
1A
100
AcDbEntity
  8
ZUWAKU
100
AcDbLine
 10
104.1233010082852
 20
15.00000021507446
 30
0.0
 11
104.1233010082852
 21
0.400000215074499
 31
0.0
  0
TEXT
  5
6B7
330
1A
100
AcDbEntity
  8
MOJI
100
AcDbText
 10
119.9136017036768
 20
9.002460743778158
 30
0.0
 40
2.799999999999999
  1
ジョイント
 41
0.9
  7
ｽﾀｲﾙ1
100
AcDbText
  0
TEXT
  5
6B8
330
1A
100
AcDbEntity
  8
ZUWAKU
100
AcDbText
 10
104.86202351939
 20
4.827678484267273
 30
0.0
 40
2.0
  1
サイズ
 41
0.9
  7
ｽﾀｲﾙ1
100
AcDbText
  0
TEXT
  5
6B9
330
1A
100
AcDbEntity
  8
MOJI
100
AcDbText
 10
119.9136017036768
 20
1.602460743778175
 30
0.0
 40
2.799999999999999
  1
Ｘ４０
 41
0.9
  7
ｽﾀｲﾙ1
100
AcDbText
  0
TEXT
  5
6BA
330
1A
100
AcDbEntity
  8
ZUWAKU
100
AcDbText
 10
104.8620235193899
 20
12.02767848426725
 30
0.0
 40
2.0
  1
品名
 41
0.9
  7
ｽﾀｲﾙ1
100
AcDbText
  0
TEXT
  5
6BB
330
1A
100
AcDbEntity
  8
ZUWAKU
100
AcDbText
 10
329.1019692069024
 20
9.002460743778158
 30
0.0
 40
2.799999999999999
  1
　　．　　．　　
 41
0.9
  7
ｽﾀｲﾙ1
100
AcDbText
  0
LINE
  5
6BC
330
1A
100
AcDbEntity
  8
ZUWAKU
100
AcDbLine
 10
324.4086016183533
 20
7.800000215074481
 30
0.0
 11
348.6245056375218
 21
7.800000215074481
 31
0.0
  0
LINE
  5
6BD
330
1A
100
AcDbEntity
  8
ZUWAKU
100
AcDbLine
 10
324.4086016183534
 20
7.700000215074483
 30
0.0
 11
348.6245056375218
 21
7.700000215074481
 31
0.0
  0
LINE
  5
6BE
330
1A
100
AcDbEntity
  8
ZUWAKU
100
AcDbLine
 10
324.4086016183533
 20
7.60000021507448
 30
0.0
 11
348.6245056375218
 21
7.600000215074482
 31
0.0
  0
LINE
  5
6BF
330
1A
100
AcDbEntity
  8
ZUWAKU
100
AcDbLine
 10
252.5995901123217
 20
7.800000215074481
 30
0.0
 11
276.2634782463075
 21
7.800000215074481
 31
0.0
  0
LINE
  5
6C0
330
1A
100
AcDbEntity
  8
ZUWAKU
100
AcDbLine
 10
252.5995901123217
 20
7.700000215074481
 30
0.0
 11
276.2634782463075
 21
7.700000215074481
 31
0.0
  0
LINE
  5
6C1
330
1A
100
AcDbEntity
  8
ZUWAKU
100
AcDbLine
 10
252.5995901123217
 20
7.600000215074484
 30
0.0
 11
276.2634782463075
 21
7.600000215074484
 31
0.0
  0
LINE
  5
6C2
330
1A
100
AcDbEntity
  8
ZUWAKU
100
AcDbLine
 10
252.3995901123218
 20
15.00000021507446
 30
0.0
 11
252.3995901123218
 21
0.400000215074499
 31
0.0
  0
LINE
  5
6C3
330
1A
100
AcDbEntity
  8
ZUWAKU
100
AcDbLine
 10
252.5995901123217
 20
15.00000021507446
 30
0.0
 11
252.5995901123218
 21
0.400000215074499
 31
0.0
  0
LINE
  5
6C4
330
1A
100
AcDbEntity
  8
ZUWAKU
100
AcDbLine
 10
252.4995901123217
 20
15.00000021507446
 30
0.0
 11
252.4995901123218
 21
0.400000215074499
 31
0.0
  0
TEXT
  5
6C5
330
1A
100
AcDbEntity
  8
MOJI
100
AcDbText
 10
264.0204543494077
 20
9.002460743778158
 30
0.0
 40
2.799999999999999
  1
Ａ３
 41
0.9
  7
ｽﾀｲﾙ1
100
AcDbText
  0
LINE
  5
6C6
330
1A
100
AcDbEntity
  8
ZUWAKU
100
AcDbLine
 10
223.7121823487469
 20
15.00000021507446
 30
0.0
 11
223.7121823487469
 21
0.400000215074499
 31
0.0
  0
LINE
  5
6C7
330
1A
100
AcDbEntity
  8
ZUWAKU
100
AcDbLine
 10
223.9121823487469
 20
15.00000021507446
 30
0.0
 11
223.912182348747
 21
0.400000215074499
 31
0.0
  0
LINE
  5
6C8
330
1A
100
AcDbEntity
  8
ZUWAKU
100
AcDbLine
 10
223.8121823487468
 20
15.00000021507446
 30
0.0
 11
223.812182348747
 21
0.400000215074499
 31
0.0
  0
TEXT
  5
6C9
330
1A
100
AcDbEntity
  8
MOJI
100
AcDbText
 10
231.2836395242455
 20
5.971309075904457
 30
0.0
 40
2.799999999999999
  1
ＧＪ２８□
 41
0.9
  7
ｽﾀｲﾙ1
100
AcDbText
  0
TEXT
  5
6CA
330
1A
100
AcDbEntity
  8
ZUWAKU
100
AcDbText
 10
231.3468811910048
 20
1.307035670644211
 30
0.0
 40
1.5
  1
□には色品番が入ります
 41
0.9
  7
ｽﾀｲﾙ1
100
AcDbText
  0
TEXT
  5
6CB
330
1A
100
AcDbEntity
  8
ZUWAKU
100
AcDbText
 10
253.3383126234266
 20
4.827678484267273
 30
0.0
 40
2.0
  1
縮尺
 41
0.9
  7
ｽﾀｲﾙ1
100
AcDbText
  0
TEXT
  5
6CC
330
1A
100
AcDbEntity
  8
MOJI
100
AcDbText
 10
264.0204543494077
 20
1.602460743778175
 30
0.0
 40
2.799999999999999
  1
１/１
 41
0.9
  7
ｽﾀｲﾙ1
100
AcDbText
  0
TEXT
  5
6CD
330
1A
100
AcDbEntity
  8
ZUWAKU
100
AcDbText
 10
224.6509048598517
 20
12.02767848426725
 30
0.0
 40
2.0
  1
品番
 41
0.9
  7
ｽﾀｲﾙ1
100
AcDbText
  0
TEXT
  5
6CE
330
1A
100
AcDbEntity
  8
ZUWAKU
100
AcDbText
 10
253.3383126234265
 20
12.02767848426725
 30
0.0
 40
2.0
  1
用紙
 41
0.9
  7
ｽﾀｲﾙ1
100
AcDbText
  0
LINE
  5
6CF
330
1A
100
AcDbEntity
  8
ZUWAKU
100
AcDbLine
 10
276.2634782463075
 20
15.00000021507446
 30
0.0
 11
276.2634782463075
 21
0.400000215074499
 31
0.0
  0
LINE
  5
6D0
330
1A
100
AcDbEntity
  8
ZUWAKU
100
AcDbLine
 10
276.4634782463074
 20
15.00000021507446
 30
0.0
 11
276.4634782463075
 21
0.400000215074499
 31
0.0
  0
LINE
  5
6D1
330
1A
100
AcDbEntity
  8
ZUWAKU
100
AcDbLine
 10
276.3634782463074
 20
15.00000021507446
 30
0.0
 11
276.3634782463075
 21
0.400000215074499
 31
0.0
  0
LINE
  5
6D2
330
1A
100
AcDbEntity
  8
ZUWAKU
100
AcDbLine
 10
324.2086016183535
 20
15.00000021507446
 30
0.0
 11
324.2086016183535
 21
0.400000215074499
 31
0.0
  0
LINE
  5
6D3
330
1A
100
AcDbEntity
  8
ZUWAKU
100
AcDbLine
 10
324.4086016183534
 20
15.00000021507446
 30
0.0
 11
324.4086016183536
 21
0.400000215074499
 31
0.0
  0
LINE
  5
6D4
330
1A
100
AcDbEntity
  8
ZUWAKU
100
AcDbLine
 10
324.3086016183534
 20
15.00000021507446
 30
0.0
 11
324.3086016183535
 21
0.400000215074499
 31
0.0
  0
TEXT
  5
6D5
330
1A
100
AcDbEntity
  8
ZUWAKU
100
AcDbText
 10
325.1473241294583
 20
12.02767848426725
 30
0.0
 40
2.0
  1
DATE
 41
0.9
  7
ｽﾀｲﾙ1
100
AcDbText
  0
TEXT
  5
6D6
330
1A
100
AcDbEntity
  8
ZUWAKU
100
AcDbText
 10
354.2640424593731
 20
8.776919882917866
 30
0.0
 40
3.0
  1
積水化学工業株式会社
 41
0.9
  7
ｽﾀｲﾙ1
100
AcDbText
  0
LINE
  5
6D7
330
1A
100
AcDbEntity
  8
ZUWAKU
100
AcDbLine
 10
348.9245056375218
 20
15.00000021507446
 30
0.0
 11
348.9245056375219
 21
0.400000215074499
 31
0.0
  0
LINE
  5
6D8
330
1A
100
AcDbEntity
  8
ZUWAKU
100
AcDbLine
 10
348.8245056375218
 20
15.00000021507446
 30
0.0
 11
348.8245056375219
 21
0.400000215074499
 31
0.0
  0
LINE
  5
6D9
330
1A
100
AcDbEntity
  8
ZUWAKU
100
AcDbLine
 10
348.7245056375219
 20
15.00000021507446
 30
0.0
 11
348.7245056375219
 21
0.400000215074499
 31
0.0
  0
LINE
  5
6DA
330
1A
100
AcDbEntity
  8
ZUWAKU
100
AcDbLine
 10
348.6245056375218
 20
15.00000021507446
 30
0.0
 11
348.6245056375218
 21
0.400000215074499
 31
0.0
  0
TEXT
  5
6DB
330
1A
100
AcDbEntity
  8
ZUWAKU
100
AcDbText
 10
354.2640424593731
 20
3.324420372001497
 30
0.0
 40
3.0
  1
建材事業部
 41
0.9
  7
ｽﾀｲﾙ1
100
AcDbText
  0
VIEWPORT
  5
22
330
17
100
AcDbEntity
 67
     1
  8
0
100
AcDbViewport
 10
313.6808219178082
 20
148.5
 30
0.0
 40
627.3616438356165
 41
297.0
 68
     2
 69
     1
1001
ACAD
1000
MVIEW
1002
{
1070
    16
1010
0.0
1020
0.0
1030
0.0
1010
0.0
1020
0.0
1030
1.0
1040
0.0
1040
297.0
1040
313.6808219178082
1040
148.5
1040
50.0
1040
0.0
1040
0.0
1070
     0
1070
   100
1070
     1
1070
     0
1070
     0
1070
     0
1070
     0
1070
     0
1040
0.0
1040
0.0
1040
0.0
1040
1.0
1040
1.0
1040
10.0
1040
10.0
1070
     0
1002
{
1002
}
1002
}
  0
VIEWPORT
  5
64
330
17
100
AcDbEntity
 67
     1
  8
VIEWPORT
100
AcDbViewport
 10
210.0
 20
148.5
 30
0.0
 40
420.0
 41
297.0
 68
     1
 69
     2
1001
ACAD
1000
MVIEW
1002
{
1070
    16
1010
0.0
1020
0.0
1030
0.0
1010
0.0
1020
0.0
1030
1.0
1040
0.0
1040
302.9399999999998
1040
210.0
1040
148.5
1040
50.0
1040
0.0
1040
0.0
1070
     0
1070
   100
1070
     1
1070
     0
1070
     0
1070
     0
1070
     0
1070
     0
1040
0.0
1040
0.0
1040
0.0
1040
5.0
1040
5.0
1040
0.0
1040
0.0
1070
     0
1002
{
1002
}
1002
}
  0
ENDSEC
  0
SECTION
  2
OBJECTS
  0
DICTIONARY
  5
C
330
0
100
AcDbDictionary
  3
ACAD_GROUP
350
D
  3
ACAD_LAYOUT
350
4F9
  3
ACAD_MLINESTYLE
350
E
  3
ACAD_PLOTSETTINGS
350
4FA
  3
ACAD_PLOTSTYLENAME
350
4F7
  3
ACDBHEADERROUNDTRIPXREC
350
6E3
  0
DICTIONARY
  5
529
330
1A
100
AcDbDictionary
280
     1
  3
ACAD_LAYOUTSELFREF
360
705
  0
DICTIONARY
  5
527
330
17
100
AcDbDictionary
280
     1
  3
ACAD_LAYOUTSELFREF
360
704
  0
DICTIONARY
  5
D
102
{ACAD_REACTORS
330
C
102
}
330
C
100
AcDbDictionary
  0
DICTIONARY
  5
4F9
102
{ACAD_REACTORS
330
C
102
}
330
C
100
AcDbDictionary
  0
DICTIONARY
  5
E
102
{ACAD_REACTORS
330
C
102
}
330
C
100
AcDbDictionary
  3
STANDARD
350
13
  0
DICTIONARY
  5
4FA
102
{ACAD_REACTORS
330
C
102
}
330
C
100
AcDbDictionary
  0
ACDBDICTIONARYWDFLT
  5
4F7
102
{ACAD_REACTORS
330
C
102
}
330
C
100
AcDbDictionary
281
     1
  3
Normal
350
4F8
100
AcDbDictionaryWithDefault
340
4F8
1001
ACAD
1000
TREAT_AS_HARD
1070
     0
1000
TREAT_AS_HARD
1070
     0
  0
DICTIONARY
  5
6E3
102
{ACAD_REACTORS
330
C
102
}
330
C
100
AcDbDictionary
  3
TSTACKALIGN
350
6E4
  3
TSTACKSIZE
350
6E5
  3
HYPERLINKBASE
350
6E6
  3
STYLESHEET
350
6E7
  3
LAYOUTDICT
350
6E8
  3
PLOTSETDICT
350
6E9
  3
PLOTSTYLNAMDICT
350
6EA
  3
LWETCUNION
350
6EB
  3
INSUNITS
350
6EC
  3
CEPSNTYPE
350
6ED
  3
FINGERPRINTGUID
350
6EE
  3
VERSIONGUID
350
6EF
  3
PSVPSCALE
350
6F0
  3
DIMSTYLEDATA
350
6F1
  3
PUCSORTHOREF
350
6F2
  3
PUCSORTHOVIEW
350
6F3
  3
PUCSBASE
350
6F4
  3
PUCSORGTOP
350
6F5
  3
PUCSORGBOTTOM
350
6F6
  3
PUCSORGLEFT
350
6F7
  3
PUCSORGRIGHT
350
6F8
  3
PUCSORGFRONT
350
6F9
  3
PUCSORGBACK
350
6FA
  3
UCSORTHOREF
350
6FB
  3
UCSORTHOVIEW
350
6FC
  3
UCSBASE
350
6FD
  3
UCSORGTOP
350
6FE
  3
UCSORGBOTTOM
350
6FF
  3
UCSORGLEFT
350
700
  3
UCSORGRIGHT
350
701
  3
UCSORGFRONT
350
702
  3
UCSORGBACK
350
703
  0
XRECORD
  5
705
102
{ACAD_REACTORS
330
529
102
}
330
529
100
AcDbXrecord
340
1A
  0
XRECORD
  5
704
102
{ACAD_REACTORS
330
527
102
}
330
527
100
AcDbXrecord
340
17
  0
MLINESTYLE
  5
13
102
{ACAD_REACTORS
330
E
102
}
330
E
100
AcDbMlineStyle
  2
STANDARD
 70
     0
  3

 62
     0
 51
90.0
 52
90.0
 71
     2
 49
0.5
 62
   256
  6
BYLAYER
 49
-0.5
 62
   256
  6
BYLAYER
  0
ACDBPLACEHOLDER
  5
4F8
102
{ACAD_REACTORS
330
4F7
102
}
330
4F7
100
AcDbPlaceHolder
280
     0
  0
XRECORD
  5
6E4
102
{ACAD_REACTORS
330
6E3
102
}
330
6E3
100
AcDbXrecord
 90
        1
  0
XRECORD
  5
6E5
102
{ACAD_REACTORS
330
6E3
102
}
330
6E3
100
AcDbXrecord
 90
       70
  0
XRECORD
  5
6E6
102
{ACAD_REACTORS
330
6E3
102
}
330
6E3
100
AcDbXrecord
  1

  0
XRECORD
  5
6E7
102
{ACAD_REACTORS
330
6E3
102
}
330
6E3
100
AcDbXrecord
  1
systemprinter.ctb
  0
XRECORD
  5
6E8
102
{ACAD_REACTORS
330
6E3
102
}
330
6E3
100
AcDbXrecord
340
4F9
  0
XRECORD
  5
6E9
102
{ACAD_REACTORS
330
6E3
102
}
330
6E3
100
AcDbXrecord
340
4FA
  0
XRECORD
  5
6EA
102
{ACAD_REACTORS
330
6E3
102
}
330
6E3
100
AcDbXrecord
340
4F7
  0
XRECORD
  5
6EB
102
{ACAD_REACTORS
330
6E3
102
}
330
6E3
100
AcDbXrecord
 90
    10781
  0
XRECORD
  5
6EC
102
{ACAD_REACTORS
330
6E3
102
}
330
6E3
100
AcDbXrecord
 90
        0
  0
XRECORD
  5
6ED
102
{ACAD_REACTORS
330
6E3
102
}
330
6E3
100
AcDbXrecord
 90
        0
  0
XRECORD
  5
6EE
102
{ACAD_REACTORS
330
6E3
102
}
330
6E3
100
AcDbXrecord
  1
{DB288EFF-D53F-47D7-B5F8-0FA4A2F2A780}
  0
XRECORD
  5
6EF
102
{ACAD_REACTORS
330
6E3
102
}
330
6E3
100
AcDbXrecord
  1
{1E0D25C3-80E7-4B18-AE55-44771EB6E5BA}
  0
XRECORD
  5
6F0
102
{ACAD_REACTORS
330
6E3
102
}
330
6E3
100
AcDbXrecord
 40
0.0
  0
XRECORD
  5
6F1
102
{ACAD_REACTORS
330
6E3
102
}
330
6E3
100
AcDbXrecord
1000
DSTYLE
1002
{
1070
   341
340
B2
1070
   343
340
B2
1070
   344
340
B2
1070
   371
 70
    -1
1070
   372
 70
    -1
1002
}
  0
XRECORD
  5
6F2
102
{ACAD_REACTORS
330
6E3
102
}
330
6E3
100
AcDbXrecord
340
0
  0
XRECORD
  5
6F3
102
{ACAD_REACTORS
330
6E3
102
}
330
6E3
100
AcDbXrecord
 70
     0
  0
XRECORD
  5
6F4
102
{ACAD_REACTORS
330
6E3
102
}
330
6E3
100
AcDbXrecord
340
0
  0
XRECORD
  5
6F5
102
{ACAD_REACTORS
330
6E3
102
}
330
6E3
100
AcDbXrecord
 10
0.0
 20
0.0
 30
0.0
  0
XRECORD
  5
6F6
102
{ACAD_REACTORS
330
6E3
102
}
330
6E3
100
AcDbXrecord
 10
0.0
 20
0.0
 30
0.0
  0
XRECORD
  5
6F7
102
{ACAD_REACTORS
330
6E3
102
}
330
6E3
100
AcDbXrecord
 10
0.0
 20
0.0
 30
0.0
  0
XRECORD
  5
6F8
102
{ACAD_REACTORS
330
6E3
102
}
330
6E3
100
AcDbXrecord
 10
0.0
 20
0.0
 30
0.0
  0
XRECORD
  5
6F9
102
{ACAD_REACTORS
330
6E3
102
}
330
6E3
100
AcDbXrecord
 10
0.0
 20
0.0
 30
0.0
  0
XRECORD
  5
6FA
102
{ACAD_REACTORS
330
6E3
102
}
330
6E3
100
AcDbXrecord
 10
0.0
 20
0.0
 30
0.0
  0
XRECORD
  5
6FB
102
{ACAD_REACTORS
330
6E3
102
}
330
6E3
100
AcDbXrecord
340
0
  0
XRECORD
  5
6FC
102
{ACAD_REACTORS
330
6E3
102
}
330
6E3
100
AcDbXrecord
 70
     0
  0
XRECORD
  5
6FD
102
{ACAD_REACTORS
330
6E3
102
}
330
6E3
100
AcDbXrecord
340
0
  0
XRECORD
  5
6FE
102
{ACAD_REACTORS
330
6E3
102
}
330
6E3
100
AcDbXrecord
 10
0.0
 20
0.0
 30
0.0
  0
XRECORD
  5
6FF
102
{ACAD_REACTORS
330
6E3
102
}
330
6E3
100
AcDbXrecord
 10
0.0
 20
0.0
 30
0.0
  0
XRECORD
  5
700
102
{ACAD_REACTORS
330
6E3
102
}
330
6E3
100
AcDbXrecord
 10
0.0
 20
0.0
 30
0.0
  0
XRECORD
  5
701
102
{ACAD_REACTORS
330
6E3
102
}
330
6E3
100
AcDbXrecord
 10
0.0
 20
0.0
 30
0.0
  0
XRECORD
  5
702
102
{ACAD_REACTORS
330
6E3
102
}
330
6E3
100
AcDbXrecord
 10
0.0
 20
0.0
 30
0.0
  0
XRECORD
  5
703
102
{ACAD_REACTORS
330
6E3
102
}
330
6E3
100
AcDbXrecord
 10
0.0
 20
0.0
 30
0.0
  0
ENDSEC
  0
EOF
