  0
SECTION
  2
HEADER
  9
$ACADVER
  1
AC1015
  9
$ACADMAINTVER
 70
    20
  9
$DWGCODEPAGE
  3
ANSI_932
  9
$INSBASE
 10
0.0
 20
0.0
 30
0.0
  9
$EXTMIN
 10
0.0000000135560185
 20
-0.0000001317113174
 30
0.0
  9
$EXTMAX
 10
797.6000000135561
 20
551.5999998682888
 30
0.0
  9
$LIMMIN
 10
0.0
 20
0.0
  9
$LIMMAX
 10
840.0
 20
594.0
  9
$ORTHOMODE
 70
     1
  9
$REGENMODE
 70
     1
  9
$FILLMODE
 70
     1
  9
$QTEXTMODE
 70
     0
  9
$MIRRTEXT
 70
     1
  9
$LTSCALE
 40
2.0
  9
$ATTMODE
 70
     1
  9
$TEXTSIZE
 40
5.0
  9
$TRACEWID
 40
1.0
  9
$TEXTSTYLE
  7
STANDARD
  9
$CLAYER
  8
SEIHIN
  9
$CELTYPE
  6
BYLAYER
  9
$CECOLOR
 62
   256
  9
$CELTSCALE
 40
1.0
  9
$DISPSILH
 70
     0
  9
$DIMSCALE
 40
1.0
  9
$DIMASZ
 40
7.0
  9
$DIMEXO
 40
6.0
  9
$DIMDLI
 40
14.0
  9
$DIMRND
 40
0.0
  9
$DIMDLE
 40
0.0
  9
$DIMEXE
 40
3.0
  9
$DIMTP
 40
0.0
  9
$DIMTM
 40
0.0
  9
$DIMTXT
 40
6.0
  9
$DIMCEN
 40
150.0
  9
$DIMTSZ
 40
0.0
  9
$DIMTOL
 70
     0
  9
$DIMLIM
 70
     0
  9
$DIMTIH
 70
     0
  9
$DIMTOH
 70
     0
  9
$DIMSE1
 70
     0
  9
$DIMSE2
 70
     0
  9
$DIMTAD
 70
     3
  9
$DIMZIN
 70
     0
  9
$DIMBLK
  1

  9
$DIMASO
 70
     1
  9
$DIMSHO
 70
     1
  9
$DIMPOST
  1

  9
$DIMAPOST
  1

  9
$DIMALT
 70
     0
  9
$DIMALTD
 70
     2
  9
$DIMALTF
 40
25.4
  9
$DIMLFAC
 40
1.0
  9
$DIMTOFL
 70
     1
  9
$DIMTVP
 40
0.0
  9
$DIMTIX
 70
     0
  9
$DIMSOXD
 70
     0
  9
$DIMSAH
 70
     1
  9
$DIMBLK1
  1
OPEN
  9
$DIMBLK2
  1
OPEN
  9
$DIMSTYLE
  2
STANDARD
  9
$DIMCLRD
 70
   256
  9
$DIMCLRE
 70
   256
  9
$DIMCLRT
 70
   256
  9
$DIMTFAC
 40
1.0
  9
$DIMGAP
 40
2.0
  9
$DIMJUST
 70
     0
  9
$DIMSD1
 70
     0
  9
$DIMSD2
 70
     0
  9
$DIMTOLJ
 70
     1
  9
$DIMTZIN
 70
     0
  9
$DIMALTZ
 70
     0
  9
$DIMALTTZ
 70
     0
  9
$DIMUPT
 70
     0
  9
$DIMDEC
 70
     0
  9
$DIMTDEC
 70
     0
  9
$DIMALTU
 70
     2
  9
$DIMALTTD
 70
     2
  9
$DIMTXSTY
  7
STANDARD
  9
$DIMAUNIT
 70
     0
  9
$DIMADEC
 70
     0
  9
$DIMALTRND
 40
0.0
  9
$DIMAZIN
 70
     0
  9
$DIMDSEP
 70
    46
  9
$DIMATFIT
 70
     3
  9
$DIMFRAC
 70
     0
  9
$DIMLDRBLK
  1
OPEN
  9
$DIMLUNIT
 70
     2
  9
$DIMLWD
 70
    -1
  9
$DIMLWE
 70
    -1
  9
$DIMTMOVE
 70
     2
  9
$LUNITS
 70
     2
  9
$LUPREC
 70
     4
  9
$SKETCHINC
 40
1.0
  9
$FILLETRAD
 40
20.0
  9
$AUNITS
 70
     0
  9
$AUPREC
 70
     0
  9
$MENU
  1
.
  9
$ELEVATION
 40
0.0
  9
$PELEVATION
 40
0.0
  9
$THICKNESS
 40
0.0
  9
$LIMCHECK
 70
     0
  9
$CHAMFERA
 40
20.0
  9
$CHAMFERB
 40
20.0
  9
$CHAMFERC
 40
40.0
  9
$CHAMFERD
 40
0.0
  9
$SKPOLY
 70
     0
  9
$TDCREATE
 40
2451023.646678588
  9
$TDUCREATE
 40
2451023.271678588
  9
$TDUPDATE
 40
2456745.571472326
  9
$TDUUPDATE
 40
2456745.196472327
  9
$TDINDWG
 40
0.1991773958
  9
$TDUSRTIMER
 40
0.1991773958
  9
$USRTIMER
 70
     1
  9
$ANGBASE
 50
0.0
  9
$ANGDIR
 70
     0
  9
$PDMODE
 70
     0
  9
$PDSIZE
 40
0.0
  9
$PLINEWID
 40
0.0
  9
$SPLFRAME
 70
     0
  9
$SPLINETYPE
 70
     6
  9
$SPLINESEGS
 70
     8
  9
$HANDSEED
  5
35B1
  9
$SURFTAB1
 70
     6
  9
$SURFTAB2
 70
     6
  9
$SURFTYPE
 70
     6
  9
$SURFU
 70
     6
  9
$SURFV
 70
     6
  9
$UCSBASE
  2

  9
$UCSNAME
  2

  9
$UCSORG
 10
0.0
 20
0.0
 30
0.0
  9
$UCSXDIR
 10
1.0
 20
0.0
 30
0.0
  9
$UCSYDIR
 10
0.0
 20
1.0
 30
0.0
  9
$UCSORTHOREF
  2

  9
$UCSORTHOVIEW
 70
     0
  9
$UCSORGTOP
 10
0.0
 20
0.0
 30
0.0
  9
$UCSORGBOTTOM
 10
0.0
 20
0.0
 30
0.0
  9
$UCSORGLEFT
 10
0.0
 20
0.0
 30
0.0
  9
$UCSORGRIGHT
 10
0.0
 20
0.0
 30
0.0
  9
$UCSORGFRONT
 10
0.0
 20
0.0
 30
0.0
  9
$UCSORGBACK
 10
0.0
 20
0.0
 30
0.0
  9
$PUCSBASE
  2

  9
$PUCSNAME
  2

  9
$PUCSORG
 10
0.0
 20
0.0
 30
0.0
  9
$PUCSXDIR
 10
1.0
 20
0.0
 30
0.0
  9
$PUCSYDIR
 10
0.0
 20
1.0
 30
0.0
  9
$PUCSORTHOREF
  2

  9
$PUCSORTHOVIEW
 70
     0
  9
$PUCSORGTOP
 10
0.0
 20
0.0
 30
0.0
  9
$PUCSORGBOTTOM
 10
0.0
 20
0.0
 30
0.0
  9
$PUCSORGLEFT
 10
0.0
 20
0.0
 30
0.0
  9
$PUCSORGRIGHT
 10
0.0
 20
0.0
 30
0.0
  9
$PUCSORGFRONT
 10
0.0
 20
0.0
 30
0.0
  9
$PUCSORGBACK
 10
0.0
 20
0.0
 30
0.0
  9
$USERI1
 70
     0
  9
$USERI2
 70
     0
  9
$USERI3
 70
     0
  9
$USERI4
 70
     0
  9
$USERI5
 70
     0
  9
$USERR1
 40
0.0
  9
$USERR2
 40
0.0
  9
$USERR3
 40
0.0
  9
$USERR4
 40
0.0
  9
$USERR5
 40
0.0
  9
$WORLDVIEW
 70
     1
  9
$SHADEDGE
 70
     3
  9
$SHADEDIF
 70
    70
  9
$TILEMODE
 70
     1
  9
$MAXACTVP
 70
    16
  9
$PINSBASE
 10
0.0
 20
0.0
 30
0.0
  9
$PLIMCHECK
 70
     0
  9
$PEXTMIN
 10
0.0
 20
0.0
 30
0.0
  9
$PEXTMAX
 10
420.0
 20
297.0
 30
0.0
  9
$PLIMMIN
 10
0.0
 20
0.0
  9
$PLIMMAX
 10
420.0
 20
297.0
  9
$UNITMODE
 70
     0
  9
$VISRETAIN
 70
     0
  9
$PLINEGEN
 70
     0
  9
$PSLTSCALE
 70
     1
  9
$TREEDEPTH
 70
  3020
  9
$CMLSTYLE
  2
STANDARD
  9
$CMLJUST
 70
     0
  9
$CMLSCALE
 40
1.0
  9
$PROXYGRAPHICS
 70
     1
  9
$MEASUREMENT
 70
     1
  9
$CELWEIGHT
370
    -1
  9
$ENDCAPS
280
     0
  9
$JOINSTYLE
280
     0
  9
$LWDISPLAY
290
     0
  9
$INSUNITS
 70
     0
  9
$HYPERLINKBASE
  1

  9
$STYLESHEET
  1
monochrome.ctb
  9
$XEDIT
290
     1
  9
$CEPSNTYPE
380
     0
  9
$PSTYLEMODE
290
     1
  9
$FINGERPRINTGUID
  2
{8EA77232-D3C6-11D3-932C-444553540000}
  9
$VERSIONGUID
  2
{8380350C-982C-49B2-9E83-24FF6F3A42BC}
  9
$EXTNAMES
290
     1
  9
$PSVPSCALE
 40
0.0
  9
$OLESTARTUP
290
     0
  0
ENDSEC
  0
SECTION
  2
CLASSES
  0
CLASS
  1
ACDBDICTIONARYWDFLT
  2
AcDbDictionaryWithDefault
  3
ObjectDBX Classes
 90
        0
280
     0
281
     0
  0
CLASS
  1
ACDBPLACEHOLDER
  2
AcDbPlaceHolder
  3
ObjectDBX Classes
 90
        0
280
     0
281
     0
  0
CLASS
  1
LAYOUT
  2
AcDbLayout
  3
ObjectDBX Classes
 90
        0
280
     0
281
     0
  0
CLASS
  1
DICTIONARYVAR
  2
AcDbDictionaryVar
  3
ObjectDBX Classes
 90
        0
280
     0
281
     0
  0
ENDSEC
  0
SECTION
  2
TABLES
  0
TABLE
  2
VPORT
  5
8
330
0
100
AcDbSymbolTable
 70
     3
  0
VPORT
  5
35A5
330
8
100
AcDbSymbolTableRecord
100
AcDbViewportTableRecord
  2
*Active
 70
     0
 10
0.0
 20
0.0
 11
1.0
 21
1.0
 12
477.3844936509094
 22
320.1235983494864
 13
0.0
 23
0.0
 14
5.0
 24
5.0
 15
0.0
 25
0.0
 16
0.0
 26
0.0
 36
1.0
 17
0.0
 27
0.0
 37
0.0
 40
788.4413700282606
 41
2.19891745602165
 42
50.0
 43
0.0
 44
0.0
 50
0.0
 51
0.0
 71
     0
 72
   100
 73
     1
 74
     0
 75
     0
 76
     0
 77
     0
 78
     0
281
     0
 65
     1
110
0.0
120
0.0
130
0.0
111
1.0
121
0.0
131
0.0
112
0.0
122
1.0
132
0.0
 79
     0
146
0.0
  0
ENDTAB
  0
TABLE
  2
LTYPE
  5
5
330
0
100
AcDbSymbolTable
 70
     3
  0
LTYPE
  5
14
330
5
100
AcDbSymbolTableRecord
100
AcDbLinetypeTableRecord
  2
BYBLOCK
 70
     0
  3

 72
    65
 73
     0
 40
0.0
  0
LTYPE
  5
15
330
5
100
AcDbSymbolTableRecord
100
AcDbLinetypeTableRecord
  2
BYLAYER
 70
     0
  3

 72
    65
 73
     0
 40
0.0
  0
LTYPE
  5
16
330
5
100
AcDbSymbolTableRecord
100
AcDbLinetypeTableRecord
  2
CONTINUOUS
 70
     0
  3
Solid line
 72
    65
 73
     0
 40
0.0
  0
LTYPE
  5
115
330
5
100
AcDbSymbolTableRecord
100
AcDbLinetypeTableRecord
  2
PHANTOM
 70
     0
  3
______  __  __  ______  __  __  ______  __  __ 
 72
    65
 73
     6
 40
2.5
 49
1.25
 74
     0
 49
-0.25
 74
     0
 49
0.25
 74
     0
 49
-0.25
 74
     0
 49
0.25
 74
     0
 49
-0.25
 74
     0
  0
LTYPE
  5
135
330
5
100
AcDbSymbolTableRecord
100
AcDbLinetypeTableRecord
  2
CENTER
 70
     0
  3
____ _ ____ _ ____ _ ____ _ ____ _ ____ _ ____ 
 72
    65
 73
     4
 40
2.0
 49
1.25
 74
     0
 49
-0.25
 74
     0
 49
0.25
 74
     0
 49
-0.25
 74
     0
  0
ENDTAB
  0
TABLE
  2
LAYER
  5
2
330
0
100
AcDbSymbolTable
 70
     9
  0
LAYER
  5
F
330
2
100
AcDbSymbolTableRecord
100
AcDbLayerTableRecord
  2
0
 70
     0
 62
     7
  6
CONTINUOUS
370
    -3
390
883
  0
LAYER
  5
62
330
2
100
AcDbSymbolTableRecord
100
AcDbLayerTableRecord
  2
VIEWPORT
 70
     0
 62
     7
  6
CONTINUOUS
370
    -3
390
883
  0
LAYER
  5
65
330
2
100
AcDbSymbolTableRecord
100
AcDbLayerTableRecord
  2
ZUWAKU
 70
     0
 62
     7
  6
CONTINUOUS
370
    -3
390
883
  0
LAYER
  5
1D7
330
2
100
AcDbSymbolTableRecord
100
AcDbLayerTableRecord
  2
SEIHIN
 70
     0
 62
     3
  6
CONTINUOUS
370
    -3
390
883
  0
LAYER
  5
1D9
330
2
100
AcDbSymbolTableRecord
100
AcDbLayerTableRecord
  2
SUNPOU
 70
     0
 62
     4
  6
CONTINUOUS
370
    -3
390
883
  0
LAYER
  5
1DA
330
2
100
AcDbSymbolTableRecord
100
AcDbLayerTableRecord
  2
DEFPOINTS
 70
     0
 62
     7
  6
CONTINUOUS
290
     0
370
    -3
390
883
  0
LAYER
  5
11D9
330
2
100
AcDbSymbolTableRecord
100
AcDbLayerTableRecord
  2
moji
 70
     0
 62
     2
  6
CONTINUOUS
370
    -3
390
883
  0
LAYER
  5
2A53
330
2
100
AcDbSymbolTableRecord
100
AcDbLayerTableRecord
  2
NOKITOI
 70
     0
 62
     8
  6
PHANTOM
370
    -3
390
883
  0
LAYER
  5
2E35
330
2
100
AcDbSymbolTableRecord
100
AcDbLayerTableRecord
  2
CENTER_L
 70
     0
 62
     1
  6
CENTER
370
    -3
390
883
  0
ENDTAB
  0
TABLE
  2
STYLE
  5
3
330
0
100
AcDbSymbolTable
 70
     2
  0
STYLE
  5
10
330
3
100
AcDbSymbolTableRecord
100
AcDbTextStyleTableRecord
  2
STANDARD
 70
     0
 40
0.0
 41
1.0
 50
0.0
 71
     0
 42
5.0
  3
TXT
  4
bigfont.shx
  0
STYLE
  5
11DA
330
3
100
AcDbSymbolTableRecord
100
AcDbTextStyleTableRecord
  2
ｽﾀｲﾙ1
 70
     0
 40
0.0
 41
1.0
 50
0.0
 71
     0
 42
2.5
  3

  4

1001
ACAD
1000
MS PGothic
1071
    32818
  0
ENDTAB
  0
TABLE
  2
VIEW
  5
6
330
0
100
AcDbSymbolTable
 70
     0
  0
ENDTAB
  0
TABLE
  2
UCS
  5
7
330
0
100
AcDbSymbolTable
 70
     0
  0
ENDTAB
  0
TABLE
  2
APPID
  5
9
330
0
100
AcDbSymbolTable
 70
     1
  0
APPID
  5
11
330
9
100
AcDbSymbolTableRecord
100
AcDbRegAppTableRecord
  2
ACAD
 70
     0
  0
ENDTAB
  0
TABLE
  2
DIMSTYLE
  5
A
330
0
100
AcDbSymbolTable
 70
     1
100
AcDbDimStyleTable
 71
     1
340
1D
  0
DIMSTYLE
105
1D
102
{ACAD_REACTORS
330
2F1A
330
2F1B
330
2F75
330
2FAC
330
2FAE
330
2FAF
330
2FB3
330
342F
102
}
330
A
100
AcDbSymbolTableRecord
100
AcDbDimStyleTableRecord
  2
STANDARD
 70
     0
340
10
  0
ENDTAB
  0
TABLE
  2
BLOCK_RECORD
  5
1
330
0
100
AcDbSymbolTable
 70
    11
  0
BLOCK_RECORD
  5
1A
102
{ACAD_XDICTIONARY
360
8E1
102
}
330
1
100
AcDbSymbolTableRecord
100
AcDbBlockTableRecord
  2
*MODEL_SPACE
340
886
  0
BLOCK_RECORD
  5
17
102
{ACAD_XDICTIONARY
360
8DF
102
}
330
1
100
AcDbSymbolTableRecord
100
AcDbBlockTableRecord
  2
*PAPER_SPACE
340
887
  0
BLOCK_RECORD
  5
6D
330
1
100
AcDbSymbolTableRecord
100
AcDbBlockTableRecord
  2
_OPEN
340
0
102
{BLKREFS
331
322C
331
322D
331
3235
331
3236
331
349B
331
349C
331
34B7
331
34B8
331
34EA
331
34EB
331
3532
331
3533
331
353B
331
353C
331
3575
331
3576
102
}
  0
BLOCK_RECORD
  5
2D7F
330
1
100
AcDbSymbolTableRecord
100
AcDbBlockTableRecord
  2
A$C1305
340
0
102
{BLKREFS
331
2F29
102
}
  0
BLOCK_RECORD
  5
2FF8
330
1
100
AcDbSymbolTableRecord
100
AcDbBlockTableRecord
  2
*D2
340
0
  0
BLOCK_RECORD
  5
3004
330
1
100
AcDbSymbolTableRecord
100
AcDbBlockTableRecord
  2
*D3
340
0
  0
BLOCK_RECORD
  5
301C
330
1
100
AcDbSymbolTableRecord
100
AcDbBlockTableRecord
  2
*D4
340
0
  0
BLOCK_RECORD
  5
3028
330
1
100
AcDbSymbolTableRecord
100
AcDbBlockTableRecord
  2
*D5
340
0
  0
BLOCK_RECORD
  5
3034
330
1
100
AcDbSymbolTableRecord
100
AcDbBlockTableRecord
  2
*D6
340
0
  0
BLOCK_RECORD
  5
3040
330
1
100
AcDbSymbolTableRecord
100
AcDbBlockTableRecord
  2
*D7
340
0
  0
BLOCK_RECORD
  5
304C
330
1
100
AcDbSymbolTableRecord
100
AcDbBlockTableRecord
  2
*D8
340
0
  0
BLOCK_RECORD
  5
3290
330
1
100
AcDbSymbolTableRecord
100
AcDbBlockTableRecord
  2
*X9
340
0
102
{BLKREFS
331
139E
102
}
  0
BLOCK_RECORD
  5
3430
330
1
100
AcDbSymbolTableRecord
100
AcDbBlockTableRecord
  2
*D10
340
0
  0
ENDTAB
  0
ENDSEC
  0
SECTION
  2
BLOCKS
  0
BLOCK
  5
1B
330
1A
100
AcDbEntity
  8
0
100
AcDbBlockBegin
  2
*MODEL_SPACE
 70
     0
 10
0.0
 20
0.0
 30
0.0
  3
*MODEL_SPACE
  1

  0
ENDBLK
  5
1C
330
1A
100
AcDbEntity
  8
0
100
AcDbBlockEnd
  0
BLOCK
  5
18
330
17
100
AcDbEntity
 67
     1
  8
0
100
AcDbBlockBegin
  2
*PAPER_SPACE
 70
     0
 10
0.0
 20
0.0
 30
0.0
  3
*PAPER_SPACE
  1

  0
ENDBLK
  5
19
330
17
100
AcDbEntity
 67
     1
  8
0
100
AcDbBlockEnd
  0
BLOCK
  5
6E
330
6D
100
AcDbEntity
  8
0
100
AcDbBlockBegin
  2
_OPEN
 70
     0
 10
0.0
 20
0.0
 30
0.0
  3
_OPEN
  1

  0
LINE
  5
6F
330
6D
100
AcDbEntity
  8
0
  6
ByBlock
 62
     0
100
AcDbLine
 10
-1.0
 20
0.1666666666666666
 30
0.0
 11
0.0
 21
0.0
 31
0.0
  0
LINE
  5
70
330
6D
100
AcDbEntity
  8
0
  6
ByBlock
 62
     0
100
AcDbLine
 10
0.0
 20
0.0
 30
0.0
 11
-1.0
 21
-0.1666666666666666
 31
0.0
  0
LINE
  5
71
330
6D
100
AcDbEntity
  8
0
  6
ByBlock
 62
     0
100
AcDbLine
 10
0.0
 20
0.0
 30
0.0
 11
-1.0
 21
0.0
 31
0.0
  0
ENDBLK
  5
72
330
6D
100
AcDbEntity
  8
0
100
AcDbBlockEnd
  0
BLOCK
  5
2DC7
330
2D7F
100
AcDbEntity
  8
0
100
AcDbBlockBegin
  2
A$C1305
 70
     0
 10
0.0
 20
0.0
 30
0.0
  3
A$C1305
  1

  0
LINE
  5
2D80
330
2D7F
100
AcDbEntity
  8
NOKITOI
  6
PHANTOM
 62
     8
 48
5.0
100
AcDbLine
 10
29.18435908443393
 20
10.10187063730222
 30
0.0
 11
19.27365908443391
 21
10.10187063730222
 31
0.0
  0
LINE
  5
2D81
330
2D7F
100
AcDbEntity
  8
NOKITOI
  6
PHANTOM
 62
     8
 48
5.0
100
AcDbLine
 10
90.2981590844339
 20
0.1120706373022813
 30
0.0
 11
24.06755908443392
 21
0.1121706373021425
 31
0.0
  0
LINE
  5
2D82
330
2D7F
100
AcDbEntity
  8
NOKITOI
  6
PHANTOM
 62
     8
 48
5.0
100
AcDbLine
 10
24.06755908443392
 20
0.1121706373021425
 30
0.0
 11
90.2981590844339
 21
0.1120706373022813
 31
0.0
  0
LINE
  5
2D83
330
2D7F
100
AcDbEntity
  8
NOKITOI
  6
PHANTOM
 62
     8
 48
5.0
100
AcDbLine
 10
13.05735908443387
 20
12.22087063730214
 30
0.0
 11
7.218759084433712
 21
39.95217063730228
 31
0.0
  0
LINE
  5
2D84
330
2D7F
100
AcDbEntity
  8
NOKITOI
  6
PHANTOM
 62
     8
 48
5.0
100
AcDbLine
 10
14.16595908443378
 20
13.23377063730208
 30
0.0
 11
8.234959084433851
 21
41.4036706373023
 31
0.0
  0
ARC
  5
2D85
330
2D7F
100
AcDbEntity
  8
NOKITOI
  6
PHANTOM
 62
     8
 48
5.0
100
AcDbCircle
 10
15.13957896620524
 20
13.43874830022218
 30
0.0
 40
0.995060928010462
100
AcDbArc
 50
191.8877567214145
 51
251.4524867922934
  0
ARC
  5
2D86
330
2D7F
100
AcDbEntity
  8
NOKITOI
  6
PHANTOM
 62
     8
 48
5.0
100
AcDbCircle
 10
10.29733292322475
 20
-0.9941694721817382
 30
0.0
 40
14.22848866365036
100
AcDbArc
 50
51.52529185494254
 51
71.45345265407107
  0
ARC
  5
2D87
330
2D7F
100
AcDbEntity
  8
NOKITOI
  6
PHANTOM
 62
     8
 48
5.0
100
AcDbCircle
 10
10.29726615422066
 20
-0.9941373355915743
 30
0.0
 40
12.93471022655885
100
AcDbArc
 50
8.676219579622014
 51
74.45245455808978
  0
ARC
  5
2D88
330
2D7F
100
AcDbEntity
  8
NOKITOI
  6
PHANTOM
 62
     8
 48
5.0
100
AcDbCircle
 10
24.06756669845151
 20
1.107164097058215
 30
0.0
 40
0.9949934597852239
100
AcDbArc
 50
188.67611256506
 51
269.9995615538235
  0
ARC
  5
2D89
330
2D7F
100
AcDbEntity
  8
NOKITOI
  6
PHANTOM
 62
     8
 48
5.0
100
AcDbCircle
 10
19.27366239679292
 20
10.30086948151677
 30
0.0
 40
0.1989988442421132
100
AcDbArc
 50
231.5280949042412
 51
269.9990463050557
  0
ARC
  5
2D8A
330
2D7F
100
AcDbEntity
  8
NOKITOI
  6
PHANTOM
 62
     8
 48
5.0
100
AcDbCircle
 10
14.03099910882133
 20
12.42582797307631
 30
0.0
 40
0.9949785960395136
100
AcDbArc
 50
191.8875585738773
 51
254.4495841050105
  0
LINE
  5
2D8B
330
2D7F
100
AcDbEntity
  8
NOKITOI
  6
PHANTOM
 62
     8
 48
5.0
100
AcDbLine
 10
27.88425908443378
 20
1.912170637302209
 30
0.0
 11
27.88425908443378
 21
8.439470637302292
 31
0.0
  0
LINE
  5
2D8C
330
2D7F
100
AcDbEntity
  8
NOKITOI
  6
PHANTOM
 62
     8
 48
5.0
100
AcDbLine
 10
28.37925908443378
 20
9.296770637302074
 30
0.0
 11
27.88425908443378
 21
8.439470637302292
 31
0.0
  0
LINE
  5
2D8D
330
2D7F
100
AcDbEntity
  8
NOKITOI
  6
PHANTOM
 62
     8
 48
5.0
100
AcDbLine
 10
28.37925908443378
 20
9.296770637302074
 30
0.0
 11
27.52195908443377
 21
8.801870637302274
 31
0.0
  0
ARC
  5
2D8E
330
2D7F
100
AcDbEntity
  8
NOKITOI
  6
PHANTOM
 62
     8
 48
5.0
100
AcDbCircle
 10
21.30106274373702
 20
8.501878629181817
 30
0.0
 40
0.2999920081427447
100
AcDbArc
 50
90.00069889403098
 51
220.79672841758
  0
ARC
  5
2D8F
330
2D7F
100
AcDbEntity
  8
NOKITOI
  6
PHANTOM
 62
     8
 48
5.0
100
AcDbCircle
 10
10.29726428144715
 20
-0.9941399784659095
 30
0.0
 40
14.23472333170272
100
AcDbArc
 50
11.37541821407357
 51
40.79334907830751
  0
LINE
  5
2D90
330
2D7F
100
AcDbEntity
  8
NOKITOI
  6
PHANTOM
 62
     8
 48
5.0
100
AcDbLine
 10
27.52195908443377
 20
8.801870637302274
 30
0.0
 11
21.30105908443386
 21
8.801870637302274
 31
0.0
  0
LINE
  5
2D91
330
2D7F
100
AcDbEntity
  8
NOKITOI
  6
PHANTOM
 62
     8
 48
5.0
100
AcDbLine
 10
24.74245908443378
 20
1.412170637302096
 30
0.0
 11
27.38425908443378
 21
1.412170637302096
 31
0.0
  0
ARC
  5
2D92
330
2D7F
100
AcDbEntity
  8
NOKITOI
  6
PHANTOM
 62
     8
 48
5.0
100
AcDbCircle
 10
24.74253604330567
 20
1.912189501590431
 30
0.0
 40
0.5000188648192144
100
AcDbArc
 50
191.3867288554411
 51
270.0026402191985
  0
ARC
  5
2D93
330
2D7F
100
AcDbEntity
  8
NOKITOI
  6
PHANTOM
 62
     8
 48
5.0
100
AcDbCircle
 10
27.38425908443366
 20
1.912170637302209
 30
0.0
 40
0.500000000000057
100
AcDbArc
 50
270.0000000000065
 51
0.0000000000065138
  0
LINE
  5
2D94
330
2D7F
100
AcDbEntity
  8
NOKITOI
  6
PHANTOM
 62
     8
 48
5.0
100
AcDbLine
 10
0.1808590844339051
 20
41.10517063730208
 30
0.0
 11
0.1808590844339051
 21
49.11467063730207
 31
0.0
  0
ARC
  5
2D95
330
2D7F
100
AcDbEntity
  8
NOKITOI
  6
PHANTOM
 62
     8
 48
5.0
100
AcDbCircle
 10
3.616059084433799
 20
47.32377063730222
 30
0.0
 40
1.492399999999918
100
AcDbArc
 50
0.0000000000021823
 51
90.00000000000218
  0
ARC
  5
2D96
330
2D7F
100
AcDbEntity
  8
NOKITOI
  6
PHANTOM
 62
     8
 48
5.0
100
AcDbCircle
 10
2.966809084433748
 20
47.32372063730211
 30
0.0
 40
1.49245000083754
100
AcDbArc
 50
89.99808047909008
 51
179.99808047909
  0
LINE
  5
2D97
330
2D7F
100
AcDbEntity
  8
NOKITOI
  6
PHANTOM
 62
     8
 48
5.0
100
AcDbLine
 10
6.401959084433769
 20
49.11467063730207
 30
0.0
 11
6.401959084433769
 21
44.90987063730222
 31
0.0
  0
LINE
  5
2D98
330
2D7F
100
AcDbEntity
  8
NOKITOI
  6
PHANTOM
 62
     8
 48
5.0
100
AcDbLine
 10
3.464359084433908
 20
41.4036706373023
 30
0.0
 11
8.234959084433851
 21
41.4036706373023
 31
0.0
  0
LINE
  5
2D99
330
2D7F
100
AcDbEntity
  8
NOKITOI
  6
PHANTOM
 62
     8
 48
5.0
100
AcDbLine
 10
7.024059084433928
 20
40.11017063730206
 30
0.0
 11
1.175859084433909
 21
40.11017063730206
 31
0.0
  0
ARC
  5
2D9A
330
2D7F
100
AcDbEntity
  8
NOKITOI
  6
PHANTOM
 62
     8
 48
5.0
100
AcDbCircle
 10
3.464309084433806
 20
43.39362063730232
 30
0.0
 40
1.989950000628206
100
AcDbArc
 50
180.0014396286234
 51
270.0014396286234
  0
LINE
  5
2D9B
330
2D7F
100
AcDbEntity
  8
NOKITOI
  6
PHANTOM
 62
     8
 48
5.0
100
AcDbLine
 10
1.474359084433784
 20
47.32377063730222
 30
0.0
 11
1.474359084433784
 21
43.39357063730221
 31
0.0
  0
ARC
  5
2D9C
330
2D7F
100
AcDbEntity
  8
NOKITOI
  6
PHANTOM
 62
     8
 48
5.0
100
AcDbCircle
 10
1.175859084433909
 20
41.10517063730208
 30
0.0
 40
0.9950000000000043
100
AcDbArc
 50
180.0
 51
270.0
  0
LINE
  5
2D9D
330
2D7F
100
AcDbEntity
  8
NOKITOI
  6
PHANTOM
 62
     8
 48
5.0
100
AcDbLine
 10
5.108559084433863
 20
44.90987063730222
 30
0.0
 11
5.108559084433863
 21
47.32377063730222
 31
0.0
  0
LINE
  5
2D9E
330
2D7F
100
AcDbEntity
  8
NOKITOI
  6
PHANTOM
 62
     8
 48
5.0
100
AcDbLine
 10
6.401959084433769
 20
44.90987063730222
 30
0.0
 11
5.108559084433863
 21
44.90987063730222
 31
0.0
  0
ARC
  5
2D9F
330
2D7F
100
AcDbEntity
  8
NOKITOI
  6
PHANTOM
 62
     8
 48
5.0
100
AcDbCircle
 10
7.024040641819623
 20
39.91118560073897
 30
0.0
 40
0.1989850374177657
100
AcDbArc
 50
11.88631382809314
 51
89.99468963106556
  0
LINE
  5
2DA0
330
2D7F
100
AcDbEntity
  8
NOKITOI
  6
PHANTOM
 62
     8
 48
5.0
100
AcDbLine
 10
1.175859084433909
 20
50.1096706373022
 30
0.0
 11
5.407059084433853
 21
50.1096706373022
 31
0.0
  0
ARC
  5
2DA1
330
2D7F
100
AcDbEntity
  8
NOKITOI
  6
PHANTOM
 62
     8
 48
5.0
100
AcDbCircle
 10
1.175859084433909
 20
49.1146706373022
 30
0.0
 40
0.9950000000000612
100
AcDbArc
 50
90.00000000000328
 51
180.0000000000032
  0
LINE
  5
2DA2
330
2D7F
100
AcDbEntity
  8
NOKITOI
  6
PHANTOM
 62
     8
 48
5.0
100
AcDbLine
 10
3.616059084433799
 20
48.81617063730209
 30
0.0
 11
2.966859084433848
 21
48.81617063730209
 31
0.0
  0
ARC
  5
2DA3
330
2D7F
100
AcDbEntity
  8
NOKITOI
  6
PHANTOM
 62
     8
 48
5.0
100
AcDbCircle
 10
5.407009084433751
 20
49.11472063730225
 30
0.0
 40
0.9949500012563332
100
AcDbArc
 50
359.9971206704048
 51
89.99712067040489
  0
LINE
  5
2DA4
330
2D7F
100
AcDbEntity
  8
NOKITOI
  6
PHANTOM
 62
     8
 48
5.0
100
AcDbLine
 10
85.18155908443374
 20
10.10157063730207
 30
0.0
 11
95.16205908443373
 21
10.10147063730221
 31
0.0
  0
ARC
  5
2DA5
330
2D7F
100
AcDbEntity
  8
NOKITOI
  6
PHANTOM
 62
     8
 48
5.0
100
AcDbCircle
 10
104.068453551022
 20
-0.994235602963158
 30
0.0
 40
12.93461262833301
100
AcDbArc
 50
105.5476727870198
 51
171.3237222126366
  0
ARC
  5
2DA6
330
2D7F
100
AcDbEntity
  8
NOKITOI
  6
PHANTOM
 62
     8
 48
5.0
100
AcDbCircle
 10
104.0683479281129
 20
-0.994141944171929
 30
0.0
 40
12.93449408578155
100
AcDbArc
 50
105.5473332353544
 51
171.3240617643019
  0
LINE
  5
2DA7
330
2D7F
100
AcDbEntity
  8
NOKITOI
  6
PHANTOM
 62
     8
 48
5.0
100
AcDbLine
 10
29.38325908443392
 20
1.405570637302162
 30
0.0
 11
84.98245908443392
 21
1.405470637302072
 31
0.0
  0
ARC
  5
2DA8
330
2D7F
100
AcDbEntity
  8
NOKITOI
  6
PHANTOM
 62
     8
 48
5.0
100
AcDbCircle
 10
29.38325908443392
 20
1.60457063730223
 30
0.0
 40
0.1990000000000691
100
AcDbArc
 50
179.9999999999836
 51
269.9999999999836
  0
LINE
  5
2DA9
330
2D7F
100
AcDbEntity
  8
NOKITOI
  6
PHANTOM
 62
     8
 48
5.0
100
AcDbLine
 10
29.18425908443385
 20
1.60457063730223
 30
0.0
 11
29.18435908443393
 21
10.10187063730222
 31
0.0
  0
LINE
  5
2DAA
330
2D7F
100
AcDbEntity
  8
NOKITOI
  6
PHANTOM
 62
     8
 48
5.0
100
AcDbLine
 10
80.98245908443391
 20
1.405470637302072
 30
0.0
 11
66.22805908443378
 21
1.405470637302072
 31
0.0
  0
ARC
  5
2DAB
330
2D7F
100
AcDbEntity
  8
NOKITOI
  6
PHANTOM
 62
     8
 48
5.0
100
AcDbCircle
 10
90.2982090125298
 20
1.107113524900853
 30
0.0
 40
0.9950428888512103
100
AcDbArc
 50
269.9971250795227
 51
351.3214426795069
  0
LINE
  5
2DAC
330
2D7F
100
AcDbEntity
  8
NOKITOI
  6
PHANTOM
 62
     8
 48
5.0
100
AcDbLine
 10
85.98655908443367
 20
9.296470637302148
 30
0.0
 11
86.4815590844339
 21
8.43917063730214
 31
0.0
  0
LINE
  5
2DAD
330
2D7F
100
AcDbEntity
  8
NOKITOI
  6
PHANTOM
 62
     8
 48
5.0
100
AcDbLine
 10
85.98655908443367
 20
9.296470637302148
 30
0.0
 11
86.84385908443392
 21
8.801470637302145
 31
0.0
  0
ARC
  5
2DAE
330
2D7F
100
AcDbEntity
  8
NOKITOI
  6
PHANTOM
 62
     8
 48
5.0
100
AcDbCircle
 10
84.98240908443381
 20
1.604520637302185
 30
0.0
 40
0.1990500062799141
100
AcDbArc
 50
270.0143923080611
 51
0.014392308061115
  0
LINE
  5
2DAF
330
2D7F
100
AcDbEntity
  8
NOKITOI
  6
PHANTOM
 62
     8
 48
5.0
100
AcDbLine
 10
85.18145908443385
 20
1.60457063730223
 30
0.0
 11
85.18155908443374
 21
10.10157063730207
 31
0.0
  0
LINE
  5
2DB0
330
2D7F
100
AcDbEntity
  8
NOKITOI
  6
PHANTOM
 62
     8
 48
5.0
100
AcDbLine
 10
86.4815590844339
 20
8.43917063730214
 30
0.0
 11
86.4815590844339
 21
1.912070637302121
 31
0.0
  0
ARC
  5
2DB1
330
2D7F
100
AcDbEntity
  8
NOKITOI
  6
PHANTOM
 62
     8
 48
5.0
100
AcDbCircle
 10
104.0684175391246
 20
-0.9943142272541079
 30
0.0
 40
14.23462403148677
100
AcDbArc
 50
139.2075062369005
 51
168.6237859483839
  0
LINE
  5
2DB2
330
2D7F
100
AcDbEntity
  8
NOKITOI
  6
PHANTOM
 62
     8
 48
5.0
100
AcDbLine
 10
93.0644590844337
 20
8.801470637302145
 30
0.0
 11
86.84385908443392
 21
8.801470637302145
 31
0.0
  0
ARC
  5
2DB3
330
2D7F
100
AcDbEntity
  8
NOKITOI
  6
PHANTOM
 62
     8
 48
5.0
100
AcDbCircle
 10
93.06447276228515
 20
8.501440773608294
 30
0.0
 40
0.3000298640056128
100
AcDbArc
 50
319.2190584222777
 51
90.00261201719956
  0
LINE
  5
2DB4
330
2D7F
100
AcDbEntity
  8
NOKITOI
  6
PHANTOM
 62
     8
 48
5.0
100
AcDbLine
 10
89.62325908443395
 20
1.412070637302235
 30
0.0
 11
86.98155908443389
 21
1.412070637302235
 31
0.0
  0
ARC
  5
2DB5
330
2D7F
100
AcDbEntity
  8
NOKITOI
  6
PHANTOM
 62
     8
 48
5.0
100
AcDbCircle
 10
86.9815590844338
 20
1.912070637302235
 30
0.0
 40
0.4999999999999433
100
AcDbArc
 50
180.0000000000065
 51
270.0000000000065
  0
ARC
  5
2DB6
330
2D7F
100
AcDbEntity
  8
NOKITOI
  6
PHANTOM
 62
     8
 48
5.0
100
AcDbCircle
 10
89.62328212556213
 20
1.912089501590456
 30
0.0
 40
0.5000188648190603
100
AcDbArc
 50
269.9973597808039
 51
348.6132711445601
  0
LINE
  5
2DB7
330
2D7F
100
AcDbEntity
  8
NOKITOI
  6
PHANTOM
 62
     8
 48
5.0
100
AcDbLine
 10
100.1997590844339
 20
13.23317063730223
 30
0.0
 11
105.6547590844337
 21
39.14207063730214
 31
0.0
  0
LINE
  5
2DB8
330
2D7F
100
AcDbEntity
  8
NOKITOI
  6
PHANTOM
 62
     8
 48
5.0
100
AcDbLine
 10
101.3084590844339
 20
12.22067063730207
 30
0.0
 11
107.1471590844337
 21
39.95207063730208
 31
0.0
  0
ARC
  5
2DB9
330
2D7F
100
AcDbEntity
  8
NOKITOI
  6
PHANTOM
 62
     8
 48
5.0
100
AcDbCircle
 10
99.22620265398494
 20
13.43821958907108
 30
0.0
 40
0.9950135261271752
100
AcDbArc
 50
288.5445751594487
 51
348.1074736523478
  0
ARC
  5
2DBA
330
2D7F
100
AcDbEntity
  8
NOKITOI
  6
PHANTOM
 62
     8
 48
5.0
100
AcDbCircle
 10
104.0684735879824
 20
-0.9942214385093848
 30
0.0
 40
14.22809199964113
100
AcDbArc
 50
108.5474584936555
 51
128.7537062451648
  0
ARC
  5
2DBB
330
2D7F
100
AcDbEntity
  8
NOKITOI
  6
PHANTOM
 62
     8
 48
5.0
100
AcDbCircle
 10
100.334833421286
 20
12.42574988868966
 30
0.0
 40
0.9949690575286499
100
AcDbArc
 50
285.5437330810338
 51
348.1110361155302
  0
LINE
  5
2DBC
330
2D7F
100
AcDbEntity
  8
NOKITOI
  6
PHANTOM
 62
     8
 48
5.0
100
AcDbLine
 10
112.8850590844339
 20
41.40997063730208
 30
0.0
 11
107.4607590844339
 21
41.41007063730215
 31
0.0
  0
LINE
  5
2DBD
330
2D7F
100
AcDbEntity
  8
NOKITOI
  6
PHANTOM
 62
     8
 48
5.0
100
AcDbLine
 10
113.1900590844338
 20
50.10957063730223
 30
0.0
 11
107.9863590844338
 21
50.10947063730213
 31
0.0
  0
LINE
  5
2DBE
330
2D7F
100
AcDbEntity
  8
NOKITOI
  6
PHANTOM
 62
     8
 48
5.0
100
AcDbLine
 10
112.8850590844339
 20
48.80947063730229
 30
0.0
 11
109.0186590844336
 21
48.80947063730229
 31
0.0
  0
LINE
  5
2DBF
330
2D7F
100
AcDbEntity
  8
NOKITOI
  6
PHANTOM
 62
     8
 48
5.0
100
AcDbLine
 10
107.3418590844337
 20
40.10997063730224
 30
0.0
 11
113.1900590844338
 21
40.10997063730224
 31
0.0
  0
LINE
  5
2DC0
330
2D7F
100
AcDbEntity
  8
NOKITOI
  6
PHANTOM
 62
     8
 48
5.0
100
AcDbLine
 10
109.0186590844336
 20
48.80947063730229
 30
0.0
 11
107.4607590844339
 21
41.41007063730215
 31
0.0
  0
LINE
  5
2DC1
330
2D7F
100
AcDbEntity
  8
NOKITOI
  6
PHANTOM
 62
     8
 48
5.0
100
AcDbLine
 10
105.6547590844337
 20
39.14207063730214
 30
0.0
 11
107.9638590844336
 21
50.10947063730213
 31
0.0
  0
ARC
  5
2DC2
330
2D7F
100
AcDbEntity
  8
NOKITOI
  6
PHANTOM
 62
     8
 48
5.0
100
AcDbCircle
 10
107.341877527048
 20
39.91108560073893
 30
0.0
 40
0.1989850374179911
100
AcDbArc
 50
90.00531036897127
 51
168.1136861719432
  0
LINE
  5
2DC3
330
2D7F
100
AcDbEntity
  8
NOKITOI
  6
PHANTOM
 62
     8
 48
5.0
100
AcDbLine
 10
114.1850590844338
 20
41.10497063730213
 30
0.0
 11
114.1850590844338
 21
49.1145706373021
 31
0.0
  0
LINE
  5
2DC4
330
2D7F
100
AcDbEntity
  8
NOKITOI
  6
PHANTOM
 62
     8
 48
5.0
100
AcDbLine
 10
112.8850590844339
 20
41.40997063730208
 30
0.0
 11
112.8850590844339
 21
48.80947063730229
 31
0.0
  0
ARC
  5
2DC5
330
2D7F
100
AcDbEntity
  8
NOKITOI
  6
PHANTOM
 62
     8
 48
5.0
100
AcDbCircle
 10
113.1900590844339
 20
41.10497063730218
 30
0.0
 40
0.9949999999999191
100
AcDbArc
 50
269.999999999995
 51
359.9999999999951
  0
ARC
  5
2DC6
330
2D7F
100
AcDbEntity
  8
NOKITOI
  6
PHANTOM
 62
     8
 48
5.0
100
AcDbCircle
 10
113.1900590844338
 20
49.11457063730221
 30
0.0
 40
0.9950000000000612
100
AcDbArc
 50
359.9999999999967
 51
89.99999999999673
  0
ENDBLK
  5
2DC8
330
2D7F
100
AcDbEntity
  8
0
100
AcDbBlockEnd
  0
BLOCK
  5
3002
330
2FF8
100
AcDbEntity
  8
0
100
AcDbBlockBegin
  2
*D2
 70
     1
 10
0.0
 20
0.0
 30
0.0
  3
*D2
  1

  0
LINE
  5
3538
330
2FF8
100
AcDbEntity
  8
SUNPOU
 62
     4
370
    -2
100
AcDbLine
 10
541.2403191279744
 20
186.7883828738287
 30
0.0
 11
541.2403191279744
 21
220.0585677573408
 31
0.0
  0
LINE
  5
3539
330
2FF8
100
AcDbEntity
  8
SUNPOU
 62
     4
370
    -2
100
AcDbLine
 10
387.3395137754592
 20
183.7921828738287
 30
0.0
 11
387.3395137754592
 21
220.0585677573408
 31
0.0
  0
LINE
  5
353A
330
2FF8
100
AcDbEntity
  8
SUNPOU
 62
     4
370
    -2
100
AcDbLine
 10
534.2403191279744
 20
217.0585677573408
 30
0.0
 11
394.3395137754592
 21
217.0585677573408
 31
0.0
  0
INSERT
  5
353B
330
2FF8
100
AcDbEntity
  8
SUNPOU
 62
     4
370
    -2
100
AcDbBlockReference
  2
_OPEN
 10
541.2403191279744
 20
217.0585677573408
 30
0.0
 41
7.0
 42
7.0
 43
7.0
  0
INSERT
  5
353C
330
2FF8
100
AcDbEntity
  8
SUNPOU
 62
     4
370
    -2
100
AcDbBlockReference
  2
_OPEN
 10
387.3395137754592
 20
217.0585677573408
 30
0.0
 41
7.0
 42
7.0
 43
7.0
 50
180.0
  0
MTEXT
  5
353D
330
2FF8
100
AcDbEntity
  8
SUNPOU
 62
     4
100
AcDbMText
 10
464.2899164517167
 20
222.0585677573408
 30
0.0
 40
6.0
 41
0.0
 71
     5
 72
     1
  1
\A1;154
 73
     1
 44
1.0
1001
ACAD
1000
MTEXTBEGIN
1070
    73
1070
     1
1070
    44
1040
1.0
1070
    74
1070
     0
1000
MTEXTEND
  0
POINT
  5
353E
330
2FF8
100
AcDbEntity
  8
DEFPOINTS
 62
     0
100
AcDbPoint
 10
541.2403191279744
 20
180.7883828738287
 30
0.0
  0
POINT
  5
353F
330
2FF8
100
AcDbEntity
  8
DEFPOINTS
 62
     0
100
AcDbPoint
 10
387.3395137754592
 20
177.7921828738287
 30
0.0
  0
POINT
  5
3540
330
2FF8
100
AcDbEntity
  8
DEFPOINTS
 62
     0
100
AcDbPoint
 10
387.3395137754592
 20
217.0585677573408
 30
0.0
  0
ENDBLK
  5
3003
330
2FF8
100
AcDbEntity
  8
0
100
AcDbBlockEnd
  0
BLOCK
  5
300E
330
3004
100
AcDbEntity
  8
0
100
AcDbBlockBegin
  2
*D3
 70
     1
 10
0.0
 20
0.0
 30
0.0
  3
*D3
  1

  0
LINE
  5
3229
330
3004
100
AcDbEntity
  8
SUNPOU
 62
     4
370
    -2
100
AcDbLine
 10
506.2395137754593
 20
183.7921828738287
 30
0.0
 11
506.2395137754593
 21
201.3695070276327
 31
0.0
  0
LINE
  5
322A
330
3004
100
AcDbEntity
  8
SUNPOU
 62
     4
370
    -2
100
AcDbLine
 10
387.3395137754592
 20
183.7921828738287
 30
0.0
 11
387.3395137754592
 21
201.3695070276327
 31
0.0
  0
LINE
  5
322B
330
3004
100
AcDbEntity
  8
SUNPOU
 62
     4
370
    -2
100
AcDbLine
 10
499.2395137754593
 20
198.3695070276327
 30
0.0
 11
394.3395137754592
 21
198.3695070276327
 31
0.0
  0
INSERT
  5
322C
330
3004
100
AcDbEntity
  8
SUNPOU
 62
     4
370
    -2
100
AcDbBlockReference
  2
_OPEN
 10
506.2395137754593
 20
198.3695070276327
 30
0.0
 41
7.0
 42
7.0
 43
7.0
  0
INSERT
  5
322D
330
3004
100
AcDbEntity
  8
SUNPOU
 62
     4
370
    -2
100
AcDbBlockReference
  2
_OPEN
 10
387.3395137754592
 20
198.3695070276327
 30
0.0
 41
7.0
 42
7.0
 43
7.0
 50
180.0
  0
MTEXT
  5
322E
330
3004
100
AcDbEntity
  8
SUNPOU
 62
     4
100
AcDbMText
 10
447.893303857769
 20
203.3695070276327
 30
0.0
 40
6.0
 41
0.0
 71
     5
 72
     5
  1
\A1;119
 73
     1
 44
1.0
1001
ACAD
1000
MTEXTBEGIN
1070
    73
1070
     1
1070
    44
1040
1.0
1070
    74
1070
     0
1000
MTEXTEND
  0
POINT
  5
322F
330
3004
100
AcDbEntity
  8
DEFPOINTS
 62
     0
100
AcDbPoint
 10
506.2395137754593
 20
177.7921828738287
 30
0.0
  0
POINT
  5
3230
330
3004
100
AcDbEntity
  8
DEFPOINTS
 62
     0
100
AcDbPoint
 10
387.3395137754592
 20
177.7921828738287
 30
0.0
  0
POINT
  5
3231
330
3004
100
AcDbEntity
  8
DEFPOINTS
 62
     0
100
AcDbPoint
 10
387.3395137754592
 20
198.3695070276327
 30
0.0
  0
ENDBLK
  5
300F
330
3004
100
AcDbEntity
  8
0
100
AcDbBlockEnd
  0
BLOCK
  5
3026
330
301C
100
AcDbEntity
  8
0
100
AcDbBlockBegin
  2
*D4
 70
     1
 10
0.0
 20
0.0
 30
0.0
  3
*D4
  1

  0
LINE
  5
3232
330
301C
100
AcDbEntity
  8
SUNPOU
 62
     4
370
    -2
100
AcDbLine
 10
482.3822137754593
 20
114.9921828738287
 30
0.0
 11
482.3822137754593
 21
98.24777070852443
 31
0.0
  0
LINE
  5
3233
330
301C
100
AcDbEntity
  8
SUNPOU
 62
     4
370
    -2
100
AcDbLine
 10
411.1967137754592
 20
114.9921828738287
 30
0.0
 11
411.1967137754592
 21
98.24777070852443
 31
0.0
  0
LINE
  5
3234
330
301C
100
AcDbEntity
  8
SUNPOU
 62
     4
370
    -2
100
AcDbLine
 10
475.3822137754593
 20
101.2477707085244
 30
0.0
 11
418.1967137754591
 21
101.2477707085244
 31
0.0
  0
INSERT
  5
3235
330
301C
100
AcDbEntity
  8
SUNPOU
 62
     4
370
    -2
100
AcDbBlockReference
  2
_OPEN
 10
482.3822137754593
 20
101.2477707085244
 30
0.0
 41
7.0
 42
7.0
 43
7.0
  0
INSERT
  5
3236
330
301C
100
AcDbEntity
  8
SUNPOU
 62
     4
370
    -2
100
AcDbBlockReference
  2
_OPEN
 10
411.1967137754592
 20
101.2477707085244
 30
0.0
 41
7.0
 42
7.0
 43
7.0
 50
180.0
  0
MTEXT
  5
3237
330
301C
100
AcDbEntity
  8
SUNPOU
 62
     4
100
AcDbMText
 10
446.7894637754592
 20
106.2477707085244
 30
0.0
 40
6.0
 41
0.0
 71
     5
 72
     5
  1
\A1;71
 73
     1
 44
1.0
1001
ACAD
1000
MTEXTBEGIN
1070
    73
1070
     1
1070
    44
1040
1.0
1070
    74
1070
     0
1000
MTEXTEND
  0
POINT
  5
3238
330
301C
100
AcDbEntity
  8
DEFPOINTS
 62
     0
100
AcDbPoint
 10
482.3822137754593
 20
120.9921828738287
 30
0.0
  0
POINT
  5
3239
330
301C
100
AcDbEntity
  8
DEFPOINTS
 62
     0
100
AcDbPoint
 10
411.1967137754592
 20
120.9921828738287
 30
0.0
  0
POINT
  5
323A
330
301C
100
AcDbEntity
  8
DEFPOINTS
 62
     0
100
AcDbPoint
 10
411.1967137754592
 20
101.2477707085244
 30
0.0
  0
ENDBLK
  5
3027
330
301C
100
AcDbEntity
  8
0
100
AcDbBlockEnd
  0
BLOCK
  5
3032
330
3028
100
AcDbEntity
  8
0
100
AcDbBlockBegin
  2
*D5
 70
     1
 10
0.0
 20
0.0
 30
0.0
  3
*D5
  1

  0
LINE
  5
352F
330
3028
100
AcDbEntity
  8
SUNPOU
 62
     4
370
    -2
100
AcDbLine
 10
547.2403191279744
 20
178.7921828738287
 30
0.0
 11
570.3293589788549
 21
178.7921828738287
 31
0.0
  0
LINE
  5
3530
330
3028
100
AcDbEntity
  8
SUNPOU
 62
     4
370
    -2
100
AcDbLine
 10
547.2403191279744
 20
124.9921828738286
 30
0.0
 11
570.3293589788549
 21
124.9921828738286
 31
0.0
  0
LINE
  5
3531
330
3028
100
AcDbEntity
  8
SUNPOU
 62
     4
370
    -2
100
AcDbLine
 10
567.3293589788549
 20
171.7921828738287
 30
0.0
 11
567.3293589788549
 21
131.9921828738287
 31
0.0
  0
INSERT
  5
3532
330
3028
100
AcDbEntity
  8
SUNPOU
 62
     4
370
    -2
100
AcDbBlockReference
  2
_OPEN
 10
567.3293589788549
 20
178.7921828738287
 30
0.0
 41
7.0
 42
7.0
 43
7.0
 50
90.0
  0
INSERT
  5
3533
330
3028
100
AcDbEntity
  8
SUNPOU
 62
     4
370
    -2
100
AcDbBlockReference
  2
_OPEN
 10
567.3293589788549
 20
124.9921828738286
 30
0.0
 41
7.0
 42
7.0
 43
7.0
 50
270.0
  0
MTEXT
  5
3534
330
3028
100
AcDbEntity
  8
SUNPOU
 62
     4
100
AcDbMText
 10
562.3293589788549
 20
151.8921828738288
 30
0.0
 40
6.0
 41
0.0
 71
     5
 72
     1
  1
\A1;54
 11
0.0000000000000001
 21
1.0
 31
0.0
 73
     1
 44
1.0
1001
ACAD
1000
MTEXTBEGIN
1070
    73
1070
     1
1070
    44
1040
1.0
1070
    74
1070
     0
1000
MTEXTEND
  0
POINT
  5
3535
330
3028
100
AcDbEntity
  8
DEFPOINTS
 62
     0
100
AcDbPoint
 10
541.2403191279744
 20
178.7921828738287
 30
0.0
  0
POINT
  5
3536
330
3028
100
AcDbEntity
  8
DEFPOINTS
 62
     0
100
AcDbPoint
 10
541.2403191279744
 20
124.9921828738287
 30
0.0
  0
POINT
  5
3537
330
3028
100
AcDbEntity
  8
DEFPOINTS
 62
     0
100
AcDbPoint
 10
567.3293589788549
 20
124.9921828738286
 30
0.0
  0
ENDBLK
  5
3033
330
3028
100
AcDbEntity
  8
0
100
AcDbBlockEnd
  0
BLOCK
  5
303E
330
3034
100
AcDbEntity
  8
0
100
AcDbBlockBegin
  2
*D6
 70
     1
 10
0.0
 20
0.0
 30
0.0
  3
*D6
  1

  0
LINE
  5
34E7
330
3034
100
AcDbEntity
  8
SUNPOU
 62
     4
370
    -2
100
AcDbLine
 10
573.3403137754593
 20
470.043781842985
 30
0.0
 11
605.8426491768356
 21
470.043781842985
 31
0.0
  0
LINE
  5
34E8
330
3034
100
AcDbEntity
  8
SUNPOU
 62
     4
370
    -2
100
AcDbLine
 10
512.2396522954736
 20
315.9435818430148
 30
0.0
 11
605.8426491768356
 21
315.9435818430148
 31
0.0
  0
LINE
  5
34E9
330
3034
100
AcDbEntity
  8
SUNPOU
 62
     4
370
    -2
100
AcDbLine
 10
602.8426491768356
 20
463.0437818429849
 30
0.0
 11
602.8426491768356
 21
322.9435818430149
 31
0.0
  0
INSERT
  5
34EA
330
3034
100
AcDbEntity
  8
SUNPOU
 62
     4
370
    -2
100
AcDbBlockReference
  2
_OPEN
 10
602.8426491768356
 20
470.043781842985
 30
0.0
 41
7.0
 42
7.0
 43
7.0
 50
90.0
  0
INSERT
  5
34EB
330
3034
100
AcDbEntity
  8
SUNPOU
 62
     4
370
    -2
100
AcDbBlockReference
  2
_OPEN
 10
602.8426491768356
 20
315.9435818430148
 30
0.0
 41
7.0
 42
7.0
 43
7.0
 50
270.0
  0
MTEXT
  5
34EC
330
3034
100
AcDbEntity
  8
SUNPOU
 62
     4
100
AcDbMText
 10
597.8426491768354
 20
394.4936318429012
 30
0.0
 40
6.0
 41
0.0
 71
     5
 72
     1
  1
\A1;154
 11
0.0000000000000001
 21
1.0
 31
0.0
 73
     1
 44
1.0
1001
ACAD
1000
MTEXTBEGIN
1070
    73
1070
     1
1070
    44
1040
1.0
1070
    74
1070
     0
1000
MTEXTEND
  0
POINT
  5
34ED
330
3034
100
AcDbEntity
  8
DEFPOINTS
 62
     0
100
AcDbPoint
 10
567.3403137754593
 20
470.043781842985
 30
0.0
  0
POINT
  5
34EE
330
3034
100
AcDbEntity
  8
DEFPOINTS
 62
     0
100
AcDbPoint
 10
506.2396522954736
 20
315.9435818430148
 30
0.0
  0
POINT
  5
34EF
330
3034
100
AcDbEntity
  8
DEFPOINTS
 62
     0
100
AcDbPoint
 10
602.8426491768356
 20
315.9435818430148
 30
0.0
  0
ENDBLK
  5
303F
330
3034
100
AcDbEntity
  8
0
100
AcDbBlockEnd
  0
BLOCK
  5
304A
330
3040
100
AcDbEntity
  8
0
100
AcDbBlockBegin
  2
*D7
 70
     1
 10
0.0
 20
0.0
 30
0.0
  3
*D7
  1

  0
LINE
  5
34B4
330
3040
100
AcDbEntity
  8
SUNPOU
 62
     4
370
    -2
100
AcDbLine
 10
547.2403191279744
 20
470.043781842985
 30
0.0
 11
570.2968725162142
 21
470.043781842985
 31
0.0
  0
LINE
  5
34B5
330
3040
100
AcDbEntity
  8
SUNPOU
 62
     4
370
    -2
100
AcDbLine
 10
547.2403191279744
 20
351.1437818429848
 30
0.0
 11
570.2968725162142
 21
351.1437818429848
 31
0.0
  0
LINE
  5
34B6
330
3040
100
AcDbEntity
  8
SUNPOU
 62
     4
370
    -2
100
AcDbLine
 10
567.2968725162141
 20
463.0437818429849
 30
0.0
 11
567.2968725162141
 21
358.1437818429848
 31
0.0
  0
INSERT
  5
34B7
330
3040
100
AcDbEntity
  8
SUNPOU
 62
     4
370
    -2
100
AcDbBlockReference
  2
_OPEN
 10
567.2968725162141
 20
470.043781842985
 30
0.0
 41
7.0
 42
7.0
 43
7.0
 50
90.0
  0
INSERT
  5
34B8
330
3040
100
AcDbEntity
  8
SUNPOU
 62
     4
370
    -2
100
AcDbBlockReference
  2
_OPEN
 10
567.2968725162141
 20
351.1437818429848
 30
0.0
 41
7.0
 42
7.0
 43
7.0
 50
270.0
  0
MTEXT
  5
34B9
330
3040
100
AcDbEntity
  8
SUNPOU
 62
     4
100
AcDbMText
 10
562.2968725162141
 20
410.5937818429849
 30
0.0
 40
6.0
 41
0.0
 71
     5
 72
     1
  1
\A1;119
 11
0.0000000000000001
 21
1.0
 31
0.0
 73
     1
 44
1.0
1001
ACAD
1000
MTEXTBEGIN
1070
    73
1070
     1
1070
    44
1040
1.0
1070
    74
1070
     0
1000
MTEXTEND
  0
POINT
  5
34BA
330
3040
100
AcDbEntity
  8
DEFPOINTS
 62
     0
100
AcDbPoint
 10
541.2403191279744
 20
470.043781842985
 30
0.0
  0
POINT
  5
34BB
330
3040
100
AcDbEntity
  8
DEFPOINTS
 62
     0
100
AcDbPoint
 10
541.2403191279744
 20
351.1437818429848
 30
0.0
  0
POINT
  5
34BC
330
3040
100
AcDbEntity
  8
DEFPOINTS
 62
     0
100
AcDbPoint
 10
567.2968725162141
 20
351.1437818429848
 30
0.0
  0
ENDBLK
  5
304B
330
3040
100
AcDbEntity
  8
0
100
AcDbBlockEnd
  0
BLOCK
  5
3056
330
304C
100
AcDbEntity
  8
0
100
AcDbBlockBegin
  2
*D8
 70
     1
 10
0.0
 20
0.0
 30
0.0
  3
*D8
  1

  0
LINE
  5
3572
330
304C
100
AcDbEntity
  8
SUNPOU
 62
     4
370
    -2
100
AcDbLine
 10
561.3402137754591
 20
351.1437818429848
 30
0.0
 11
564.0728228740491
 21
351.1437818429848
 31
0.0
  0
LINE
  5
3573
330
304C
100
AcDbEntity
  8
SUNPOU
 62
     4
370
    -2
100
AcDbLine
 10
512.2397009075029
 20
315.9435818428513
 30
0.0
 11
570.0728228740492
 21
315.9435818428513
 31
0.0
  0
LINE
  5
3574
330
304C
100
AcDbEntity
  8
SUNPOU
 62
     4
370
    -2
100
AcDbLine
 10
567.0728228740491
 20
344.1437818429847
 30
0.0
 11
567.0728228740491
 21
322.9435818428513
 31
0.0
  0
INSERT
  5
3575
330
304C
100
AcDbEntity
  8
SUNPOU
 62
     4
370
    -2
100
AcDbBlockReference
  2
_OPEN
 10
567.0728228740491
 20
351.1437818429848
 30
0.0
 41
7.0
 42
7.0
 43
7.0
 50
90.0
  0
INSERT
  5
3576
330
304C
100
AcDbEntity
  8
SUNPOU
 62
     4
370
    -2
100
AcDbBlockReference
  2
_OPEN
 10
567.0728228740491
 20
315.9435818428513
 30
0.0
 41
7.0
 42
7.0
 43
7.0
 50
270.0
  0
MTEXT
  5
3577
330
304C
100
AcDbEntity
  8
SUNPOU
 62
     4
100
AcDbMText
 10
562.072822874049
 20
335.0436318429011
 30
0.0
 40
6.0
 41
0.0
 71
     5
 72
     1
  1
\A1;35
 11
0.0000000000000001
 21
1.0
 31
0.0
 73
     1
 44
1.0
1001
ACAD
1000
MTEXTBEGIN
1070
    73
1070
     1
1070
    44
1040
1.0
1070
    74
1070
     0
1000
MTEXTEND
  0
POINT
  5
3578
330
304C
100
AcDbEntity
  8
DEFPOINTS
 62
     0
100
AcDbPoint
 10
567.3402137754591
 20
351.1437818429848
 30
0.0
  0
POINT
  5
3579
330
304C
100
AcDbEntity
  8
DEFPOINTS
 62
     0
100
AcDbPoint
 10
506.2397009075028
 20
315.9435818428513
 30
0.0
  0
POINT
  5
357A
330
304C
100
AcDbEntity
  8
DEFPOINTS
 62
     0
100
AcDbPoint
 10
567.0728228740491
 20
315.9435818428513
 30
0.0
  0
ENDBLK
  5
3057
330
304C
100
AcDbEntity
  8
0
100
AcDbBlockEnd
  0
BLOCK
  5
3424
330
3290
100
AcDbEntity
  8
0
100
AcDbBlockBegin
  2
*X9
 70
     1
 10
0.0
 20
0.0
 30
0.0
  3
*X9
  1

  0
LINE
  5
3291
330
3290
100
AcDbEntity
  8
0
 62
     0
100
AcDbLine
 10
69.04221216833718
 20
22.60416893857376
 30
0.0
 11
68.39638123862227
 21
23.24999986828874
 31
0.0
  0
LINE
  5
3292
330
3290
100
AcDbEntity
  8
0
 62
     0
100
AcDbLine
 10
69.04221216833718
 20
21.70614332646687
 30
0.0
 11
67.49835562651532
 21
23.24999986828874
 31
0.0
  0
LINE
  5
3293
330
3290
100
AcDbEntity
  8
0
 62
     0
100
AcDbLine
 10
69.04221216833713
 20
20.80811771435993
 30
0.0
 11
66.62107822232218
 21
23.22925166037487
 31
0.0
  0
LINE
  5
3294
330
3290
100
AcDbEntity
  8
0
 62
     0
100
AcDbLine
 10
69.04221216833718
 20
19.91009210225309
 30
0.0
 11
66.24221216833712
 21
22.7100921022531
 31
0.0
  0
LINE
  5
3295
330
3290
100
AcDbEntity
  8
0
 62
     0
100
AcDbLine
 10
69.04221216833718
 20
19.01206649014614
 30
0.0
 11
66.24221216833712
 21
21.81206649014621
 31
0.0
  0
LINE
  5
3296
330
3290
100
AcDbEntity
  8
0
 62
     0
100
AcDbLine
 10
69.04221216833713
 20
18.11404087803919
 30
0.0
 11
66.24221216833706
 21
20.91404087803926
 31
0.0
  0
LINE
  5
3297
330
3290
100
AcDbEntity
  8
0
 62
     0
100
AcDbLine
 10
64.14221216833709
 20
22.11601526593239
 30
0.0
 11
63.0082275659808
 21
23.24999986828874
 31
0.0
  0
LINE
  5
3298
330
3290
100
AcDbEntity
  8
0
 62
     0
100
AcDbLine
 10
69.04221216833718
 20
17.21601526593235
 30
0.0
 11
66.24221216833712
 21
20.01601526593242
 31
0.0
  0
LINE
  5
3299
330
3290
100
AcDbEntity
  8
0
 62
     0
100
AcDbLine
 10
64.14221216833709
 20
21.2179896538255
 30
0.0
 11
62.11020195387385
 21
23.24999986828868
 31
0.0
  0
LINE
  5
329A
330
3290
100
AcDbEntity
  8
0
 62
     0
100
AcDbLine
 10
69.04221216833713
 20
16.31798965382541
 30
0.0
 11
66.24221216833712
 21
19.11798965382547
 31
0.0
  0
LINE
  5
329B
330
3290
100
AcDbEntity
  8
0
 62
     0
100
AcDbLine
 10
64.14221216833709
 20
20.31996404171855
 30
0.0
 11
61.43670120320002
 21
23.02547500685563
 31
0.0
  0
LINE
  5
329C
330
3290
100
AcDbEntity
  8
0
 62
     0
100
AcDbLine
 10
69.04221216833713
 20
15.41996404171851
 30
0.0
 11
66.24221216833706
 21
18.21996404171853
 31
0.0
  0
LINE
  5
329D
330
3290
100
AcDbEntity
  8
0
 62
     0
100
AcDbLine
 10
64.14221216833721
 20
19.42193842961154
 30
0.0
 11
61.34221216833703
 21
22.22193842961167
 31
0.0
  0
LINE
  5
329E
330
3290
100
AcDbEntity
  8
0
 62
     0
100
AcDbLine
 10
69.04221216833718
 20
14.52193842961156
 30
0.0
 11
66.24221216833712
 21
17.32193842961163
 31
0.0
  0
LINE
  5
329F
330
3290
100
AcDbEntity
  8
0
 62
     0
100
AcDbLine
 10
64.14221216833715
 20
18.52391281750465
 30
0.0
 11
61.34221216833703
 21
21.32391281750483
 31
0.0
  0
LINE
  5
32A0
330
3290
100
AcDbEntity
  8
0
 62
     0
100
AcDbLine
 10
69.04221216833713
 20
13.62391281750467
 30
0.0
 11
66.24221216833706
 21
16.42391281750474
 31
0.0
  0
LINE
  5
32A1
330
3290
100
AcDbEntity
  8
0
 62
     0
100
AcDbLine
 10
64.14221216833715
 20
17.62588720539776
 30
0.0
 11
61.34221216833703
 21
20.42588720539789
 31
0.0
  0
LINE
  5
32A2
330
3290
100
AcDbEntity
  8
0
 62
     0
100
AcDbLine
 10
69.04221216833713
 20
12.72588720539778
 30
0.0
 11
66.24221216833706
 21
15.52588720539785
 31
0.0
  0
LINE
  5
32A3
330
3290
100
AcDbEntity
  8
0
 62
     0
100
AcDbLine
 10
64.14221216833709
 20
16.72786159329081
 30
0.0
 11
61.34221216833697
 21
19.52786159329093
 31
0.0
  0
LINE
  5
32A4
330
3290
100
AcDbEntity
  8
0
 62
     0
100
AcDbLine
 10
69.04221216833708
 20
11.82786159329083
 30
0.0
 11
66.24221216833706
 21
14.6278615932909
 31
0.0
  0
LINE
  5
32A5
330
3290
100
AcDbEntity
  8
0
 62
     0
100
AcDbLine
 10
64.14221216833715
 20
15.82983598118397
 30
0.0
 11
61.34221216833703
 21
18.6298359811841
 31
0.0
  0
LINE
  5
32A6
330
3290
100
AcDbEntity
  8
0
 62
     0
100
AcDbLine
 10
57.84221216833708
 20
22.12983598118404
 30
0.0
 11
56.72204828123245
 21
23.24999986828868
 31
0.0
  0
LINE
  5
32A7
330
3290
100
AcDbEntity
  8
0
 62
     0
100
AcDbLine
 10
69.04221216833713
 20
10.929835981184
 30
0.0
 11
66.24221216833706
 21
13.72983598118401
 31
0.0
  0
LINE
  5
32A8
330
3290
100
AcDbEntity
  8
0
 62
     0
100
AcDbLine
 10
64.14221216833715
 20
14.93181036907702
 30
0.0
 11
61.34221216833697
 21
17.73181036907715
 31
0.0
  0
LINE
  5
32A9
330
3290
100
AcDbEntity
  8
0
 62
     0
100
AcDbLine
 10
57.84221216833703
 20
21.23181036907709
 30
0.0
 11
55.82402266912549
 21
23.24999986828868
 31
0.0
  0
LINE
  5
32AA
330
3290
100
AcDbEntity
  8
0
 62
     0
100
AcDbLine
 10
69.04221216833713
 20
10.03181036907705
 30
0.0
 11
66.24221216833706
 21
12.83181036907712
 31
0.0
  0
LINE
  5
32AB
330
3290
100
AcDbEntity
  8
0
 62
     0
100
AcDbLine
 10
64.14221216833709
 20
14.03378475697013
 30
0.0
 11
61.34221216833703
 21
16.83378475697014
 31
0.0
  0
LINE
  5
32AC
330
3290
100
AcDbEntity
  8
0
 62
     0
100
AcDbLine
 10
57.84221216833703
 20
20.3337847569702
 30
0.0
 11
55.14244944501303
 21
23.0335474802942
 31
0.0
  0
LINE
  5
32AD
330
3290
100
AcDbEntity
  8
0
 62
     0
100
AcDbLine
 10
69.04221216833708
 20
9.133784756970158
 30
0.0
 11
66.242212168337
 21
11.93378475697017
 31
0.0
  0
LINE
  5
32AE
330
3290
100
AcDbEntity
  8
0
 62
     0
100
AcDbLine
 10
64.14221216833715
 20
13.13575914486319
 30
0.0
 11
61.34221216833708
 21
15.93575914486325
 31
0.0
  0
LINE
  5
32AF
330
3290
100
AcDbEntity
  8
0
 62
     0
100
AcDbLine
 10
57.84221216833708
 20
19.43575914486325
 30
0.0
 11
55.04221216833707
 21
22.23575914486326
 31
0.0
  0
LINE
  5
32B0
330
3290
100
AcDbEntity
  8
0
 62
     0
100
AcDbLine
 10
69.04221216833713
 20
8.235759144863209
 30
0.0
 11
66.24221216833706
 21
11.03575914486327
 31
0.0
  0
LINE
  5
32B1
330
3290
100
AcDbEntity
  8
0
 62
     0
100
AcDbLine
 10
64.14221216833709
 20
12.23773353275629
 30
0.0
 11
61.34221216833708
 21
15.03773353275636
 31
0.0
  0
LINE
  5
32B2
330
3290
100
AcDbEntity
  8
0
 62
     0
100
AcDbLine
 10
57.84221216833714
 20
18.5377335327563
 30
0.0
 11
55.04221216833713
 21
21.33773353275632
 31
0.0
  0
LINE
  5
32B3
330
3290
100
AcDbEntity
  8
0
 62
     0
100
AcDbLine
 10
68.97024681344731
 20
7.409698887646129
 30
0.0
 11
66.24221216833706
 21
10.13773353275638
 31
0.0
  0
LINE
  5
32B4
330
3290
100
AcDbEntity
  8
0
 62
     0
100
AcDbLine
 10
64.14221216833715
 20
11.33970792064929
 30
0.0
 11
61.34221216833703
 21
14.13970792064941
 31
0.0
  0
LINE
  5
32B5
330
3290
100
AcDbEntity
  8
0
 62
     0
100
AcDbLine
 10
57.84221216833708
 20
17.63970792064941
 30
0.0
 11
55.04221216833713
 21
20.43970792064937
 31
0.0
  0
LINE
  5
32B6
330
3290
100
AcDbEntity
  8
0
 62
     0
100
AcDbLine
 10
68.33192022069784
 20
7.149999868288659
 30
0.0
 11
66.242212168337
 21
9.239707920649493
 31
0.0
  0
LINE
  5
32B7
330
3290
100
AcDbEntity
  8
0
 62
     0
100
AcDbLine
 10
57.84221216833708
 20
16.74168230854246
 30
0.0
 11
55.04221216833707
 21
19.54168230854242
 31
0.0
  0
LINE
  5
32B8
330
3290
100
AcDbEntity
  8
0
 62
     0
100
AcDbLine
 10
64.14221216833715
 20
10.44168230854239
 30
0.0
 11
61.34221216833703
 21
13.24168230854252
 31
0.0
  0
LINE
  5
32B9
330
3290
100
AcDbEntity
  8
0
 62
     0
100
AcDbLine
 10
52.41721216833707
 20
22.16668230854248
 30
0.0
 11
51.33389460859075
 21
23.24999986828874
 31
0.0
  0
LINE
  5
32BA
330
3290
100
AcDbEntity
  8
0
 62
     0
100
AcDbLine
 10
67.43389460859095
 20
7.149999868288546
 30
0.0
 11
66.242212168337
 21
8.341682308542544
 31
0.0
  0
LINE
  5
32BB
330
3290
100
AcDbEntity
  8
0
 62
     0
100
AcDbLine
 10
57.84221216833708
 20
15.84365669643557
 30
0.0
 11
55.04221216833713
 21
18.64365669643558
 31
0.0
  0
LINE
  5
32BC
330
3290
100
AcDbEntity
  8
0
 62
     0
100
AcDbLine
 10
52.41721216833707
 20
21.26865669643558
 30
0.0
 11
50.43586899648392
 21
23.24999986828879
 31
0.0
  0
LINE
  5
32BD
330
3290
100
AcDbEntity
  8
0
 62
     0
100
AcDbLine
 10
64.11625386769157
 20
9.569614997081146
 30
0.0
 11
61.34221216833703
 21
12.34365669643563
 31
0.0
  0
LINE
  5
32BE
330
3290
100
AcDbEntity
  8
0
 62
     0
100
AcDbLine
 10
57.84221216833708
 20
14.94563108432868
 30
0.0
 11
55.04221216833713
 21
17.74563108432863
 31
0.0
  0
LINE
  5
32BF
330
3290
100
AcDbEntity
  8
0
 62
     0
100
AcDbLine
 10
52.22163162222324
 20
20.56621163044253
 30
0.0
 11
49.53784338437708
 21
23.24999986828868
 31
0.0
  0
LINE
  5
32C0
330
3290
100
AcDbEntity
  8
0
 62
     0
100
AcDbLine
 10
63.92326857243432
 20
8.864574680231385
 30
0.0
 11
61.34221216833703
 21
11.44563108432874
 31
0.0
  0
LINE
  5
32C1
330
3290
100
AcDbEntity
  8
0
 62
     0
100
AcDbLine
 10
57.84221216833708
 20
14.04760547222173
 30
0.0
 11
55.04221216833707
 21
16.84760547222174
 31
0.0
  0
LINE
  5
32C2
330
3290
100
AcDbEntity
  8
0
 62
     0
100
AcDbLine
 10
51.43981777227009
 20
20.44999986828867
 30
0.0
 11
48.63981777227007
 21
23.24999986828874
 31
0.0
  0
LINE
  5
32C3
330
3290
100
AcDbEntity
  8
0
 62
     0
100
AcDbLine
 10
63.59823669651075
 20
8.291580944048007
 30
0.0
 11
61.27069642917752
 21
10.6191212113813
 31
0.0
  0
LINE
  5
32C4
330
3290
100
AcDbEntity
  8
0
 62
     0
100
AcDbLine
 10
57.84221216833708
 20
13.1495798601149
 30
0.0
 11
55.04221216833713
 21
15.94957986011485
 31
0.0
  0
LINE
  5
32C5
330
3290
100
AcDbEntity
  8
0
 62
     0
100
AcDbLine
 10
50.54179216016326
 20
20.44999986828873
 30
0.0
 11
47.80422543098587
 21
23.18756659746612
 31
0.0
  0
LINE
  5
32C6
330
3290
100
AcDbEntity
  8
0
 62
     0
100
AcDbLine
 10
63.16619489918571
 20
7.825597129266213
 30
0.0
 11
60.86911079071001
 21
10.12268123774191
 31
0.0
  0
LINE
  5
32C7
330
3290
100
AcDbEntity
  8
0
 62
     0
100
AcDbLine
 10
57.84221216833708
 20
12.25155424800795
 30
0.0
 11
55.04221216833707
 21
15.0515542480079
 31
0.0
  0
LINE
  5
32C8
330
3290
100
AcDbEntity
  8
0
 62
     0
100
AcDbLine
 10
49.6437665480563
 20
20.44999986828873
 30
0.0
 11
47.13958500645247
 21
22.9541814098925
 31
0.0
  0
LINE
  5
32C9
330
3290
100
AcDbEntity
  8
0
 62
     0
100
AcDbLine
 10
62.63003255425968
 20
7.463733862085348
 30
0.0
 11
60.1437665480563
 21
9.949999868288671
 31
0.0
  0
LINE
  5
32CA
330
3290
100
AcDbEntity
  8
0
 62
     0
100
AcDbLine
 10
57.84221216833703
 20
11.353528635901
 30
0.0
 11
55.04221216833713
 21
14.1535286359009
 31
0.0
  0
LINE
  5
32CB
330
3290
100
AcDbEntity
  8
0
 62
     0
100
AcDbLine
 10
48.7675307639675
 20
20.42821004027053
 30
0.0
 11
46.59698406924229
 21
22.59875673499573
 31
0.0
  0
LINE
  5
32CC
330
3290
100
AcDbEntity
  8
0
 62
     0
100
AcDbLine
 10
61.97361999434838
 20
7.222120809889702
 30
0.0
 11
59.24574093594941
 21
9.949999868288671
 31
0.0
  0
LINE
  5
32CD
330
3290
100
AcDbEntity
  8
0
 62
     0
100
AcDbLine
 10
48.39221216833715
 20
19.90550302379392
 30
0.0
 11
46.15887201019774
 21
22.13884318193334
 31
0.0
  0
LINE
  5
32CE
330
3290
100
AcDbEntity
  8
0
 62
     0
100
AcDbLine
 10
61.14771532384253
 20
7.149999868288603
 30
0.0
 11
55.04221216833713
 21
13.255503023794
 31
0.0
  0
LINE
  5
32CF
330
3290
100
AcDbEntity
  8
0
 62
     0
100
AcDbLine
 10
48.3922121683372
 20
19.00747741168709
 30
0.0
 11
45.82710109784471
 21
21.57258848217958
 31
0.0
  0
LINE
  5
32D0
330
3290
100
AcDbEntity
  8
0
 62
     0
100
AcDbLine
 10
60.24968971173564
 20
7.149999868288603
 30
0.0
 11
55.04221216833719
 21
12.35747741168711
 31
0.0
  0
LINE
  5
32D1
330
3290
100
AcDbEntity
  8
0
 62
     0
100
AcDbLine
 10
48.59875644944094
 20
17.90290751847641
 30
0.0
 11
45.6249225784806
 21
20.87674138943669
 31
0.0
  0
LINE
  5
32D2
330
3290
100
AcDbEntity
  8
0
 62
     0
100
AcDbLine
 10
59.35166409962874
 20
7.149999868288603
 30
0.0
 11
55.04221216833713
 21
11.45945179958022
 31
0.0
  0
LINE
  5
32D3
330
3290
100
AcDbEntity
  8
0
 62
     0
100
AcDbLine
 10
52.81581587102846
 20
12.78782248478194
 30
0.0
 11
45.59221216833708
 21
20.01142618747326
 31
0.0
  0
LINE
  5
32D4
330
3290
100
AcDbEntity
  8
0
 62
     0
100
AcDbLine
 10
43.492212168337
 20
22.11142618747334
 30
0.0
 11
42.35363848752172
 21
23.24999986828868
 31
0.0
  0
LINE
  5
32D5
330
3290
100
AcDbEntity
  8
0
 62
     0
100
AcDbLine
 10
58.4536384875218
 20
7.149999868288603
 30
0.0
 11
55.04221216833713
 21
10.56142618747327
 31
0.0
  0
LINE
  5
32D6
330
3290
100
AcDbEntity
  8
0
 62
     0
100
AcDbLine
 10
52.94221216833716
 20
11.7634005753664
 30
0.0
 11
45.59221216833714
 21
19.11340057536643
 31
0.0
  0
LINE
  5
32D7
330
3290
100
AcDbEntity
  8
0
 62
     0
100
AcDbLine
 10
43.49221216833711
 20
21.21340057536639
 30
0.0
 11
41.45561287541477
 21
23.24999986828879
 31
0.0
  0
LINE
  5
32D8
330
3290
100
AcDbEntity
  8
0
 62
     0
100
AcDbLine
 10
57.53916499667003
 20
7.166447747033544
 30
0.0
 11
55.05866004708201
 21
9.646952696621553
 31
0.0
  0
LINE
  5
32D9
330
3290
100
AcDbEntity
  8
0
 62
     0
100
AcDbLine
 10
43.49221216833711
 20
20.3153749632595
 30
0.0
 11
40.7848222805618
 21
23.02276485103476
 31
0.0
  0
LINE
  5
32DA
330
3290
100
AcDbEntity
  8
0
 62
     0
100
AcDbLine
 10
52.94221216833711
 20
10.86537496325945
 30
0.0
 11
45.61562283621947
 21
18.19196429537715
 31
0.0
  0
LINE
  5
32DB
330
3290
100
AcDbEntity
  8
0
 62
     0
100
AcDbLine
 10
43.49221216833711
 20
19.41734935115255
 30
0.0
 11
40.6922121683371
 21
22.21734935115251
 31
0.0
  0
LINE
  5
32DC
330
3290
100
AcDbEntity
  8
0
 62
     0
100
AcDbLine
 10
52.94221216833699
 20
9.96734935115262
 30
0.0
 11
45.93374225405949
 21
16.97581926543017
 31
0.0
  0
LINE
  5
32DD
330
3290
100
AcDbEntity
  8
0
 62
     0
100
AcDbLine
 10
43.49221216833711
 20
18.51932373904566
 30
0.0
 11
40.69221216833716
 21
21.31932373904561
 31
0.0
  0
LINE
  5
32DE
330
3290
100
AcDbEntity
  8
0
 62
     0
100
AcDbLine
 10
52.83365035074803
 20
9.177885556634748
 30
0.0
 11
50.13801556170972
 21
11.87352034567306
 31
0.0
  0
LINE
  5
32DF
330
3290
100
AcDbEntity
  8
0
 62
     0
100
AcDbLine
 10
43.49221216833711
 20
17.62129812693877
 30
0.0
 11
40.6922121683371
 21
20.42129812693872
 31
0.0
  0
LINE
  5
32E0
330
3290
100
AcDbEntity
  8
0
 62
     0
100
AcDbLine
 10
38.4007252677601
 20
22.71278502751574
 30
0.0
 11
37.86351042698709
 21
23.24999986828879
 31
0.0
  0
LINE
  5
32E1
330
3290
100
AcDbEntity
  8
0
 62
     0
100
AcDbLine
 10
52.56577464298647
 20
8.547735652289418
 30
0.0
 11
50.14221216833715
 21
10.97129812693873
 31
0.0
  0
LINE
  5
32E2
330
3290
100
AcDbEntity
  8
0
 62
     0
100
AcDbLine
 10
43.49221216833706
 20
16.72327251483182
 30
0.0
 11
40.6922121683371
 21
19.52327251483183
 31
0.0
  0
LINE
  5
32E3
330
3290
100
AcDbEntity
  8
0
 62
     0
100
AcDbLine
 10
38.20179760350749
 20
22.01368707966139
 30
0.0
 11
36.9654848148802
 21
23.24999986828874
 31
0.0
  0
LINE
  5
32E4
330
3290
100
AcDbEntity
  8
0
 62
     0
100
AcDbLine
 10
52.18278784481118
 20
8.032696838357765
 30
0.0
 11
50.04492698545067
 21
10.17055769771826
 31
0.0
  0
LINE
  5
32E5
330
3290
100
AcDbEntity
  8
0
 62
     0
100
AcDbLine
 10
43.49221216833706
 20
15.82524690272492
 30
0.0
 11
40.6922121683371
 21
18.62524690272488
 31
0.0
  0
LINE
  5
32E6
330
3290
100
AcDbEntity
  8
0
 62
     0
100
AcDbLine
 10
37.9862714566018
 20
21.33118761446013
 30
0.0
 11
36.07705589313122
 21
23.24040317793077
 31
0.0
  0
LINE
  5
32E7
330
3290
100
AcDbEntity
  8
0
 62
     0
100
AcDbLine
 10
51.69646887969554
 20
7.620990191366388
 30
0.0
 11
49.36745920277331
 21
9.949999868288671
 31
0.0
  0
LINE
  5
32E8
330
3290
100
AcDbEntity
  8
0
 62
     0
100
AcDbLine
 10
43.49221216833711
 20
14.92722129061803
 30
0.0
 11
40.6922121683371
 21
17.72722129061799
 31
0.0
  0
LINE
  5
32E9
330
3290
100
AcDbEntity
  8
0
 62
     0
100
AcDbLine
 10
37.77074530969628
 20
20.64868814925887
 30
0.0
 11
35.64274530969624
 21
22.77668814925892
 31
0.0
  0
LINE
  5
32EA
330
3290
100
AcDbEntity
  8
0
 62
     0
100
AcDbLine
 10
51.10038493123517
 20
7.319048527719928
 30
0.0
 11
48.46943359066642
 21
9.949999868288728
 31
0.0
  0
LINE
  5
32EB
330
3290
100
AcDbEntity
  8
0
 62
     0
100
AcDbLine
 10
43.49221216833706
 20
14.02919567851114
 30
0.0
 11
40.6922121683371
 21
16.8291956785111
 31
0.0
  0
LINE
  5
32EC
330
3290
100
AcDbEntity
  8
0
 62
     0
100
AcDbLine
 10
37.55521916279042
 20
19.96618868405778
 30
0.0
 11
35.42721916279044
 21
22.09418868405777
 31
0.0
  0
LINE
  5
32ED
330
3290
100
AcDbEntity
  8
0
 62
     0
100
AcDbLine
 10
50.3627122795877
 20
7.158695567260508
 30
0.0
 11
47.57140797855953
 21
9.949999868288671
 31
0.0
  0
LINE
  5
32EE
330
3290
100
AcDbEntity
  8
0
 62
     0
100
AcDbLine
 10
43.49221216833706
 20
13.13117006640419
 30
0.0
 11
40.69221216833705
 21
15.93117006640415
 31
0.0
  0
LINE
  5
32EF
330
3290
100
AcDbEntity
  8
0
 62
     0
100
AcDbLine
 10
37.33969301588485
 20
19.28368921885641
 30
0.0
 11
35.21169301588475
 21
21.41168921885645
 31
0.0
  0
LINE
  5
32F0
330
3290
100
AcDbEntity
  8
0
 62
     0
100
AcDbLine
 10
49.47338236645265
 20
7.149999868288603
 30
0.0
 11
46.67338236645258
 21
9.949999868288671
 31
0.0
  0
LINE
  5
32F1
330
3290
100
AcDbEntity
  8
0
 62
     0
100
AcDbLine
 10
43.49221216833706
 20
12.2331444542973
 30
0.0
 11
40.6922121683371
 21
15.03314445429731
 31
0.0
  0
LINE
  5
32F2
330
3290
100
AcDbEntity
  8
0
 62
     0
100
AcDbLine
 10
37.12416686897928
 20
18.60118975365515
 30
0.0
 11
34.99616686897912
 21
20.72918975365525
 31
0.0
  0
LINE
  5
32F3
330
3290
100
AcDbEntity
  8
0
 62
     0
100
AcDbLine
 10
48.57535675434576
 20
7.149999868288659
 30
0.0
 11
46.14174505704937
 21
9.583611565585044
 31
0.0
  0
LINE
  5
32F4
330
3290
100
AcDbEntity
  8
0
 62
     0
100
AcDbLine
 10
36.90864072207353
 20
17.91869028845394
 30
0.0
 11
34.78064072207349
 21
20.04669028845399
 31
0.0
  0
LINE
  5
32F5
330
3290
100
AcDbEntity
  8
0
 62
     0
100
AcDbLine
 10
43.49221216833706
 20
11.33511884219041
 30
0.0
 11
40.6922121683371
 21
14.13511884219036
 31
0.0
  0
LINE
  5
32F6
330
3290
100
AcDbEntity
  8
0
 62
     0
100
AcDbLine
 10
32.6422121683371
 20
22.18511884219038
 30
0.0
 11
31.57733114223879
 21
23.24999986828863
 31
0.0
  0
LINE
  5
32F7
330
3290
100
AcDbEntity
  8
0
 62
     0
100
AcDbLine
 10
47.67733114223887
 20
7.149999868288603
 30
0.0
 11
46.11721216833712
 21
8.710118842190354
 31
0.0
  0
LINE
  5
32F8
330
3290
100
AcDbEntity
  8
0
 62
     0
100
AcDbLine
 10
36.69311457516784
 20
17.23619082325268
 30
0.0
 11
34.56511457516786
 21
19.36419082325267
 31
0.0
  0
LINE
  5
32F9
330
3290
100
AcDbEntity
  8
0
 62
     0
100
AcDbLine
 10
43.49221216833706
 20
10.43709323008346
 30
0.0
 11
40.69221216833705
 21
13.23709323008347
 31
0.0
  0
LINE
  5
32FA
330
3290
100
AcDbEntity
  8
0
 62
     0
100
AcDbLine
 10
32.6422121683371
 20
21.28709323008343
 30
0.0
 11
30.6793055301319
 21
23.24999986828863
 31
0.0
  0
LINE
  5
32FB
330
3290
100
AcDbEntity
  8
0
 62
     0
100
AcDbLine
 10
46.77930553013186
 20
7.149999868288659
 30
0.0
 11
46.11721216833706
 21
7.812093230083405
 31
0.0
  0
LINE
  5
32FC
330
3290
100
AcDbEntity
  8
0
 62
     0
100
AcDbLine
 10
36.47758842826215
 20
16.55369135805142
 30
0.0
 11
34.34958842826211
 21
18.68169135805146
 31
0.0
  0
LINE
  5
32FD
330
3290
100
AcDbEntity
  8
0
 62
     0
100
AcDbLine
 10
32.64221216833704
 20
20.38906761797648
 30
0.0
 11
29.96676723943944
 21
23.06451254687414
 31
0.0
  0
LINE
  5
32FE
330
3290
100
AcDbEntity
  8
0
 62
     0
100
AcDbLine
 10
43.492212168337
 20
9.53906761797657
 30
0.0
 11
40.69221216833705
 21
12.33906761797652
 31
0.0
  0
LINE
  5
32FF
330
3290
100
AcDbEntity
  8
0
 62
     0
100
AcDbLine
 10
36.26206228135652
 20
15.87119189285022
 30
0.0
 11
34.13406228135654
 21
17.9991918928502
 31
0.0
  0
LINE
  5
3300
330
3290
100
AcDbEntity
  8
0
 62
     0
100
AcDbLine
 10
32.6422121683371
 20
19.49104200586964
 30
0.0
 11
29.84221216833703
 21
22.29104200586966
 31
0.0
  0
LINE
  5
3301
330
3290
100
AcDbEntity
  8
0
 62
     0
100
AcDbLine
 10
43.49221216833706
 20
8.641042005869678
 30
0.0
 11
40.69221216833705
 21
11.44104200586963
 31
0.0
  0
LINE
  5
3302
330
3290
100
AcDbEntity
  8
0
 62
     0
100
AcDbLine
 10
36.05697377196463
 20
15.17825479013515
 30
0.0
 11
33.91853613445079
 21
17.316692427649
 31
0.0
  0
LINE
  5
3303
330
3290
100
AcDbEntity
  8
0
 62
     0
100
AcDbLine
 10
32.6422121683371
 20
18.59301639376269
 30
0.0
 11
29.84221216833703
 21
21.39301639376276
 31
0.0
  0
LINE
  5
3304
330
3290
100
AcDbEntity
  8
0
 62
     0
100
AcDbLine
 10
43.492212168337
 20
7.743016393762729
 30
0.0
 11
40.69221216833705
 21
10.54301639376274
 31
0.0
  0
LINE
  5
3305
330
3290
100
AcDbEntity
  8
0
 62
     0
100
AcDbLine
 10
36.47144713139863
 20
13.86575581859421
 30
0.0
 11
33.62798863876617
 21
16.70921431122667
 31
0.0
  0
LINE
  5
3306
330
3290
100
AcDbEntity
  8
0
 62
     0
100
AcDbLine
 10
32.64221216833715
 20
17.69499078165569
 30
0.0
 11
29.84221216833697
 21
20.49499078165581
 31
0.0
  0
LINE
  5
3307
330
3290
100
AcDbEntity
  8
0
 62
     0
100
AcDbLine
 10
43.15316717100467
 20
7.184035778988118
 30
0.0
 11
40.6922121683371
 21
9.644990781655735
 31
0.0
  0
LINE
  5
3308
330
3290
100
AcDbEntity
  8
0
 62
     0
100
AcDbLine
 10
36.88592049083269
 20
12.55325684705332
 30
0.0
 11
29.84221216833703
 21
19.59696516954898
 31
0.0
  0
LINE
  5
3309
330
3290
100
AcDbEntity
  8
0
 62
     0
100
AcDbLine
 10
27.39221216833715
 20
22.04696516954886
 30
0.0
 11
26.18917746959738
 21
23.24999986828863
 31
0.0
  0
LINE
  5
330A
330
3290
100
AcDbEntity
  8
0
 62
     0
100
AcDbLine
 10
42.28917746959734
 20
7.149999868288659
 30
0.0
 11
40.69221216833716
 21
8.746965169548843
 31
0.0
  0
LINE
  5
330B
330
3290
100
AcDbEntity
  8
0
 62
     0
100
AcDbLine
 10
37.30039385026657
 20
11.24075787551243
 30
0.0
 11
29.84221216833703
 21
18.69893955744203
 31
0.0
  0
LINE
  5
330C
330
3290
100
AcDbEntity
  8
0
 62
     0
100
AcDbLine
 10
27.39221216833715
 20
21.14893955744191
 30
0.0
 11
25.29115185749038
 21
23.24999986828868
 31
0.0
  0
LINE
  5
330D
330
3290
100
AcDbEntity
  8
0
 62
     0
100
AcDbLine
 10
41.39115185749034
 20
7.149999868288716
 30
0.0
 11
40.6922121683371
 21
7.848939557441951
 31
0.0
  0
LINE
  5
330E
330
3290
100
AcDbEntity
  8
0
 62
     0
100
AcDbLine
 10
27.12530547294705
 20
20.51782064072506
 30
0.0
 11
24.42508375473563
 21
23.21804235893643
 31
0.0
  0
LINE
  5
330F
330
3290
100
AcDbEntity
  8
0
 62
     0
100
AcDbLine
 10
37.71486720970051
 20
9.928258903971595
 30
0.0
 11
29.84221216833709
 21
17.80091394533502
 31
0.0
  0
LINE
  5
3310
330
3290
100
AcDbEntity
  8
0
 62
     0
100
AcDbLine
 10
32.97972109067871
 20
13.76537941088651
 30
0.0
 11
29.84221216833709
 21
16.90288833322813
 31
0.0
  0
LINE
  5
3311
330
3290
100
AcDbEntity
  8
0
 62
     0
100
AcDbLine
 10
26.29510063327661
 20
20.44999986828856
 30
0.0
 11
23.68704068514836
 21
23.05805981641686
 31
0.0
  0
LINE
  5
3312
330
3290
100
AcDbEntity
  8
0
 62
     0
100
AcDbLine
 10
38.12934056913451
 20
8.615759932430705
 30
0.0
 11
34.03703287682663
 21
12.70806762473853
 31
0.0
  0
LINE
  5
3313
330
3290
100
AcDbEntity
  8
0
 62
     0
100
AcDbLine
 10
32.64221216833715
 20
13.20486272112117
 30
0.0
 11
29.84221216833709
 21
16.00486272112124
 31
0.0
  0
LINE
  5
3314
330
3290
100
AcDbEntity
  8
0
 62
     0
100
AcDbLine
 10
25.3970750211696
 20
20.44999986828867
 30
0.0
 11
23.04831926931763
 21
22.79875562014064
 31
0.0
  0
LINE
  5
3315
330
3290
100
AcDbEntity
  8
0
 62
     0
100
AcDbLine
 10
38.36437942684512
 20
7.48269546261315
 30
0.0
 11
34.45150623626057
 21
11.39556865319775
 31
0.0
  0
LINE
  5
3316
330
3290
100
AcDbEntity
  8
0
 62
     0
100
AcDbLine
 10
32.6422121683371
 20
12.30683710901428
 30
0.0
 11
29.84221216833703
 21
15.10683710901429
 31
0.0
  0
LINE
  5
3317
330
3290
100
AcDbEntity
  8
0
 62
     0
100
AcDbLine
 10
24.55396151862607
 20
20.39508775872531
 30
0.0
 11
22.48957029398309
 21
22.45947898336829
 31
0.0
  0
LINE
  5
3318
330
3290
100
AcDbEntity
  8
0
 62
     0
100
AcDbLine
 10
37.79904940906277
 20
7.149999868288603
 30
0.0
 11
34.86597959569451
 21
10.08306968165686
 31
0.0
  0
LINE
  5
3319
330
3290
100
AcDbEntity
  8
0
 62
     0
100
AcDbLine
 10
32.6422121683371
 20
11.40881149690733
 30
0.0
 11
29.84221216833703
 21
14.2088114969074
 31
0.0
  0
LINE
  5
331A
330
3290
100
AcDbEntity
  8
0
 62
     0
100
AcDbLine
 10
23.98210532578707
 20
20.06891833945736
 30
0.0
 11
22.00191508537131
 21
22.04910857987312
 31
0.0
  0
LINE
  5
331B
330
3290
100
AcDbEntity
  8
0
 62
     0
100
AcDbLine
 10
36.90102379695583
 20
7.149999868288603
 30
0.0
 11
35.28045295512857
 21
8.770570710115862
 31
0.0
  0
LINE
  5
331C
330
3290
100
AcDbEntity
  8
0
 62
     0
100
AcDbLine
 10
27.72764130113484
 20
15.42535675200275
 30
0.0
 11
26.21756905205109
 21
16.9354290010865
 31
0.0
  0
LINE
  5
331D
330
3290
100
AcDbEntity
  8
0
 62
     0
100
AcDbLine
 10
32.64221216833721
 20
10.51078588480038
 30
0.0
 11
29.84221216833709
 21
13.31078588480051
 31
0.0
  0
LINE
  5
331E
330
3290
100
AcDbEntity
  8
0
 62
     0
100
AcDbLine
 10
23.62598375565813
 20
19.52701429747946
 30
0.0
 11
21.58254905936008
 21
21.57044899377752
 31
0.0
  0
LINE
  5
331F
330
3290
100
AcDbEntity
  8
0
 62
     0
100
AcDbLine
 10
35.95266518064432
 20
7.200332872493277
 30
0.0
 11
35.70231100905301
 21
7.450687044084588
 31
0.0
  0
LINE
  5
3320
330
3290
100
AcDbEntity
  8
0
 62
     0
100
AcDbLine
 10
27.64112764099292
 20
14.61384480003772
 30
0.0
 11
25.40605710008606
 21
16.84891534094458
 31
0.0
  0
LINE
  5
3321
330
3290
100
AcDbEntity
  8
0
 62
     0
100
AcDbLine
 10
23.54221216833719
 20
18.71276027269346
 30
0.0
 11
21.23361003839841
 21
21.02136240263224
 31
0.0
  0
LINE
  5
3322
330
3290
100
AcDbEntity
  8
0
 62
     0
100
AcDbLine
 10
32.64221216833715
 20
9.612760272693435
 30
0.0
 11
29.84221216833703
 21
12.41276027269362
 31
0.0
  0
LINE
  5
3323
330
3290
100
AcDbEntity
  8
0
 62
     0
100
AcDbLine
 10
27.30927208169487
 20
14.04767474722877
 30
0.0
 11
24.8398870472771
 21
16.51705978164654
 31
0.0
  0
LINE
  5
3324
330
3290
100
AcDbEntity
  8
0
 62
     0
100
AcDbLine
 10
23.54221216833719
 20
17.81473466058651
 30
0.0
 11
20.96303033118823
 21
20.39391649773546
 31
0.0
  0
LINE
  5
3325
330
3290
100
AcDbEntity
  8
0
 62
     0
100
AcDbLine
 10
32.64221216833715
 20
8.714734660586543
 30
0.0
 11
29.84221216833709
 21
11.51473466058661
 31
0.0
  0
LINE
  5
3326
330
3290
100
AcDbEntity
  8
0
 62
     0
100
AcDbLine
 10
23.54221216833719
 20
16.91670904847962
 30
0.0
 11
20.78831645826239
 21
19.67060475855447
 31
0.0
  0
LINE
  5
3327
330
3290
100
AcDbEntity
  8
0
 62
     0
100
AcDbLine
 10
26.80743863955843
 20
13.65148257725843
 30
0.0
 11
24.44369487730677
 21
16.01522633951009
 31
0.0
  0
LINE
  5
3328
330
3290
100
AcDbEntity
  8
0
 62
     0
100
AcDbLine
 10
18.11721216833712
 20
22.34170904847974
 30
0.0
 11
17.20892134852812
 21
23.24999986828874
 31
0.0
  0
LINE
  5
3329
330
3290
100
AcDbEntity
  8
0
 62
     0
100
AcDbLine
 10
32.64221216833721
 20
7.816709048479651
 30
0.0
 11
29.84221216833714
 21
10.61670904847972
 31
0.0
  0
LINE
  5
332A
330
3290
100
AcDbEntity
  8
0
 62
     0
100
AcDbLine
 10
23.54221216833719
 20
16.01868343637272
 30
0.0
 11
20.74221216833712
 21
18.81868343637279
 31
0.0
  0
LINE
  5
332B
330
3290
100
AcDbEntity
  8
0
 62
     0
100
AcDbLine
 10
26.107119197131
 20
13.45377640757891
 30
0.0
 11
24.24598870762725
 21
15.31490689708266
 31
0.0
  0
LINE
  5
332C
330
3290
100
AcDbEntity
  8
0
 62
     0
100
AcDbLine
 10
18.11721216833706
 20
21.4436834363728
 30
0.0
 11
16.31089573642117
 21
23.24999986828868
 31
0.0
  0
LINE
  5
332D
330
3290
100
AcDbEntity
  8
0
 62
     0
100
AcDbLine
 10
32.3543083670665
 20
7.206587237643418
 30
0.0
 11
29.84221216833709
 21
9.718683436372771
 31
0.0
  0
LINE
  5
332E
330
3290
100
AcDbEntity
  8
0
 62
     0
100
AcDbLine
 10
23.54221216833719
 20
15.12065782426577
 30
0.0
 11
20.74221216833712
 21
17.92065782426584
 31
0.0
  0
LINE
  5
332F
330
3290
100
AcDbEntity
  8
0
 62
     0
100
AcDbLine
 10
18.00817819806673
 20
20.65469179453623
 30
0.0
 11
15.41287012431417
 21
23.24999986828874
 31
0.0
  0
LINE
  5
3330
330
3290
100
AcDbEntity
  8
0
 62
     0
100
AcDbLine
 10
31.5128701243143
 20
7.149999868288659
 30
0.0
 11
29.84221216833709
 21
8.820657824265879
 31
0.0
  0
LINE
  5
3331
330
3290
100
AcDbEntity
  8
0
 62
     0
100
AcDbLine
 10
23.54221216833713
 20
14.22263221215888
 30
0.0
 11
20.74221216833706
 21
17.02263221215889
 31
0.0
  0
LINE
  5
3332
330
3290
100
AcDbEntity
  8
0
 62
     0
100
AcDbLine
 10
17.31484451220734
 20
20.44999986828867
 30
0.0
 11
14.51484451220727
 21
23.24999986828874
 31
0.0
  0
LINE
  5
3333
330
3290
100
AcDbEntity
  8
0
 62
     0
100
AcDbLine
 10
30.61484451220735
 20
7.149999868288603
 30
0.0
 11
29.84221216833709
 21
7.92263221215893
 31
0.0
  0
LINE
  5
3334
330
3290
100
AcDbEntity
  8
0
 62
     0
100
AcDbLine
 10
23.54221216833725
 20
13.32460660005194
 30
0.0
 11
20.74221216833712
 21
16.12460660005206
 31
0.0
  0
LINE
  5
3335
330
3290
100
AcDbEntity
  8
0
 62
     0
100
AcDbLine
 10
16.41681890010045
 20
20.44999986828873
 30
0.0
 11
13.65168962799561
 21
23.21512914039357
 31
0.0
  0
LINE
  5
3336
330
3290
100
AcDbEntity
  8
0
 62
     0
100
AcDbLine
 10
27.38960971950019
 20
9.477209048888937
 30
0.0
 11
26.91942134893748
 21
9.947397419451704
 31
0.0
  0
LINE
  5
3337
330
3290
100
AcDbEntity
  8
0
 62
     0
100
AcDbLine
 10
23.54221216833725
 20
12.42658098794499
 30
0.0
 11
20.74221216833712
 21
15.22658098794511
 31
0.0
  0
LINE
  5
3338
330
3290
100
AcDbEntity
  8
0
 62
     0
100
AcDbLine
 10
15.5187932879935
 20
20.44999986828867
 30
0.0
 11
12.95855481951713
 21
23.0102383367651
 31
0.0
  0
LINE
  5
3339
330
3290
100
AcDbEntity
  8
0
 62
     0
100
AcDbLine
 10
27.39221216833721
 20
8.576580987945021
 30
0.0
 11
26.01879328799356
 21
9.949999868288671
 31
0.0
  0
LINE
  5
333A
330
3290
100
AcDbEntity
  8
0
 62
     0
100
AcDbLine
 10
23.54221216833719
 20
11.52855537583804
 30
0.0
 11
20.74221216833718
 21
14.32855537583811
 31
0.0
  0
LINE
  5
333B
330
3290
100
AcDbEntity
  8
0
 62
     0
100
AcDbLine
 10
14.62076767588667
 20
20.44999986828856
 30
0.0
 11
12.39430815966989
 21
22.67645938450534
 31
0.0
  0
LINE
  5
333C
330
3290
100
AcDbEntity
  8
0
 62
     0
100
AcDbLine
 10
27.39221216833715
 20
7.678555375838072
 30
0.0
 11
25.12076767588667
 21
9.949999868288557
 31
0.0
  0
LINE
  5
333D
330
3290
100
AcDbEntity
  8
0
 62
     0
100
AcDbLine
 10
14.11047484827207
 20
20.06226708379637
 30
0.0
 11
11.93621534742914
 21
22.23652658463931
 31
0.0
  0
LINE
  5
333E
330
3290
100
AcDbEntity
  8
0
 62
     0
100
AcDbLine
 10
27.0044793838448
 20
7.168262548223651
 30
0.0
 11
20.74221216833718
 21
13.43052976373127
 31
0.0
  0
LINE
  5
333F
330
3290
100
AcDbEntity
  8
0
 62
     0
100
AcDbLine
 10
14.09221216833714
 20
19.18250415162436
 30
0.0
 11
11.58273414496005
 21
21.69198217500144
 31
0.0
  0
LINE
  5
3340
330
3290
100
AcDbEntity
  8
0
 62
     0
100
AcDbLine
 10
26.1247164516729
 20
7.149999868288603
 30
0.0
 11
20.74221216833718
 21
12.53250415162432
 31
0.0
  0
LINE
  5
3341
330
3290
100
AcDbEntity
  8
0
 62
     0
100
AcDbLine
 10
14.15434787647257
 20
18.22234283138192
 30
0.0
 11
11.35185404266633
 21
21.02483666518822
 31
0.0
  0
LINE
  5
3342
330
3290
100
AcDbEntity
  8
0
 62
     0
100
AcDbLine
 10
25.22669083956589
 20
7.149999868288659
 30
0.0
 11
20.74221216833712
 21
11.63447853951737
 31
0.0
  0
LINE
  5
3343
330
3290
100
AcDbEntity
  8
0
 62
     0
100
AcDbLine
 10
18.4465882595598
 20
13.03207683618785
 30
0.0
 11
11.29221216833719
 21
20.18645292741047
 31
0.0
  0
LINE
  5
3344
330
3290
100
AcDbEntity
  8
0
 62
     0
100
AcDbLine
 10
24.27539314040235
 20
7.203271955345314
 30
0.0
 11
20.79548425539377
 21
10.68318084035388
 31
0.0
  0
LINE
  5
3345
330
3290
100
AcDbEntity
  8
0
 62
     0
100
AcDbLine
 10
18.63848277364502
 20
11.94215670999574
 30
0.0
 11
11.29221216833707
 21
19.28842731530369
 31
0.0
  0
LINE
  5
3346
330
3290
100
AcDbEntity
  8
0
 62
     0
100
AcDbLine
 10
22.90158522780075
 20
7.679054255839957
 30
0.0
 11
21.27126655588836
 21
9.309372927752406
 31
0.0
  0
LINE
  5
3347
330
3290
100
AcDbEntity
  8
0
 62
     0
100
AcDbLine
 10
18.64221216833721
 20
11.0404017031966
 30
0.0
 11
11.29977661575947
 21
18.38283725577429
 31
0.0
  0
LINE
  5
3348
330
3290
100
AcDbEntity
  8
0
 62
     0
100
AcDbLine
 10
18.64221216833709
 20
10.14237609108977
 30
0.0
 11
11.52306737408332
 21
17.26152088534348
 31
0.0
  0
LINE
  5
3349
330
3290
100
AcDbEntity
  8
0
 62
     0
100
AcDbLine
 10
18.56969217220518
 20
9.316870475114853
 30
0.0
 11
15.80630052858612
 21
12.08026211873391
 31
0.0
  0
LINE
  5
334A
330
3290
100
AcDbEntity
  8
0
 62
     0
100
AcDbLine
 10
18.32775423317633
 20
8.660782802036749
 30
0.0
 11
15.84221216833708
 21
11.146324866876
 31
0.0
  0
LINE
  5
334B
330
3290
100
AcDbEntity
  8
0
 62
     0
100
AcDbLine
 10
17.96563498579456
 20
8.12487643731157
 30
0.0
 11
15.80631313603641
 21
10.28419828706973
 31
0.0
  0
LINE
  5
334C
330
3290
100
AcDbEntity
  8
0
 62
     0
100
AcDbLine
 10
17.49940861352769
 20
7.693077197471552
 30
0.0
 11
15.24248594271057
 21
9.949999868288728
 31
0.0
  0
LINE
  5
334D
330
3290
100
AcDbEntity
  8
0
 62
     0
100
AcDbLine
 10
16.92614416579488
 20
7.368316033097471
 30
0.0
 11
14.34446033060362
 21
9.949999868288671
 31
0.0
  0
LINE
  5
334E
330
3290
100
AcDbEntity
  8
0
 62
     0
100
AcDbLine
 10
16.22073157670894
 20
7.17570301007646
 30
0.0
 11
13.44643471849673
 21
9.949999868288671
 31
0.0
  0
LINE
  5
334F
330
3290
100
AcDbEntity
  8
0
 62
     0
100
AcDbLine
 10
15.34840910638979
 20
7.149999868288659
 30
0.0
 11
12.54840910638978
 21
9.949999868288671
 31
0.0
  0
LINE
  5
3350
330
3290
100
AcDbEntity
  8
0
 62
     0
100
AcDbLine
 10
14.45038349428296
 20
7.149999868288603
 30
0.0
 11
11.89705959946508
 21
9.703323763106538
 31
0.0
  0
LINE
  5
3351
330
3290
100
AcDbEntity
  8
0
 62
     0
100
AcDbLine
 10
13.55235788217595
 20
7.149999868288659
 30
0.0
 11
11.81721216833716
 21
8.885145582127449
 31
0.0
  0
LINE
  5
3352
330
3290
100
AcDbEntity
  8
0
 62
     0
100
AcDbLine
 10
12.65433227006912
 20
7.149999868288603
 30
0.0
 11
11.81721216833716
 21
7.987119970020557
 31
0.0
  0
LINE
  5
3353
330
3290
100
AcDbEntity
  8
0
 62
     0
100
AcDbLine
 10
68.63389945300406
 20
7.163131645406167
 30
0.0
 11
69.02908039121985
 21
7.558312583621955
 31
0.0
  0
LINE
  5
3354
330
3290
100
AcDbEntity
  8
0
 62
     0
100
AcDbLine
 10
67.72274206377961
 20
7.149999868288546
 30
0.0
 11
69.0422121683373
 21
8.469469972846241
 31
0.0
  0
LINE
  5
3355
330
3290
100
AcDbEntity
  8
0
 62
     0
100
AcDbLine
 10
66.82471645167272
 20
7.149999868288546
 30
0.0
 11
69.0422121683373
 21
9.367495584953132
 31
0.0
  0
LINE
  5
3356
330
3290
100
AcDbEntity
  8
0
 62
     0
100
AcDbLine
 10
66.27340973158897
 20
7.49671876031175
 30
0.0
 11
69.04221216833724
 21
10.26552119706008
 31
0.0
  0
LINE
  5
3357
330
3290
100
AcDbEntity
  8
0
 62
     0
100
AcDbLine
 10
66.24221216833717
 20
8.363546809166905
 30
0.0
 11
69.04221216833724
 21
11.16354680916691
 31
0.0
  0
LINE
  5
3358
330
3290
100
AcDbEntity
  8
0
 62
     0
100
AcDbLine
 10
66.24221216833723
 20
9.261572421273797
 30
0.0
 11
69.04221216833724
 21
12.06157242127386
 31
0.0
  0
LINE
  5
3359
330
3290
100
AcDbEntity
  8
0
 62
     0
100
AcDbLine
 10
66.24221216833717
 20
10.15959803338074
 30
0.0
 11
69.04221216833724
 21
12.95959803338081
 31
0.0
  0
LINE
  5
335A
330
3290
100
AcDbEntity
  8
0
 62
     0
100
AcDbLine
 10
66.24221216833717
 20
11.05762364548763
 30
0.0
 11
69.04221216833724
 21
13.8576236454877
 31
0.0
  0
LINE
  5
335B
330
3290
100
AcDbEntity
  8
0
 62
     0
100
AcDbLine
 10
62.66877703040245
 20
7.484188507552914
 30
0.0
 11
63.80802352907301
 21
8.62343500622353
 31
0.0
  0
LINE
  5
335C
330
3290
100
AcDbEntity
  8
0
 62
     0
100
AcDbLine
 10
66.24221216833717
 20
11.95564925759453
 30
0.0
 11
69.04221216833724
 21
14.7556492575946
 31
0.0
  0
LINE
  5
335D
330
3290
100
AcDbEntity
  8
0
 62
     0
100
AcDbLine
 10
61.43820886387965
 20
7.151645953137006
 30
0.0
 11
64.14056608348897
 21
9.854003172746274
 31
0.0
  0
LINE
  5
335E
330
3290
100
AcDbEntity
  8
0
 62
     0
100
AcDbLine
 10
66.24221216833717
 20
12.85367486970148
 30
0.0
 11
69.04221216833724
 21
15.65367486970149
 31
0.0
  0
LINE
  5
335F
330
3290
100
AcDbEntity
  8
0
 62
     0
100
AcDbLine
 10
60.53853716692424
 20
7.149999868288546
 30
0.0
 11
64.14221216833727
 21
10.75367486970151
 31
0.0
  0
LINE
  5
3360
330
3290
100
AcDbEntity
  8
0
 62
     0
100
AcDbLine
 10
66.24221216833717
 20
13.75170048180837
 30
0.0
 11
69.04221216833718
 21
16.55170048180844
 31
0.0
  0
LINE
  5
3361
330
3290
100
AcDbEntity
  8
0
 62
     0
100
AcDbLine
 10
59.64051155481735
 20
7.149999868288546
 30
0.0
 11
64.14221216833721
 21
11.65170048180846
 31
0.0
  0
LINE
  5
3362
330
3290
100
AcDbEntity
  8
0
 62
     0
100
AcDbLine
 10
66.24221216833729
 20
14.64972609391532
 30
0.0
 11
69.04221216833724
 21
17.44972609391533
 31
0.0
  0
LINE
  5
3363
330
3290
100
AcDbEntity
  8
0
 62
     0
100
AcDbLine
 10
58.74248594271051
 20
7.149999868288603
 30
0.0
 11
64.14221216833727
 21
12.54972609391535
 31
0.0
  0
LINE
  5
3364
330
3290
100
AcDbEntity
  8
0
 62
     0
100
AcDbLine
 10
61.23762096625615
 20
10.54316050394118
 30
0.0
 11
64.14221216833727
 21
13.44775170602224
 31
0.0
  0
LINE
  5
3365
330
3290
100
AcDbEntity
  8
0
 62
     0
100
AcDbLine
 10
66.24221216833723
 20
15.54775170602226
 30
0.0
 11
69.04221216833724
 21
18.34775170602222
 31
0.0
  0
LINE
  5
3366
330
3290
100
AcDbEntity
  8
0
 62
     0
100
AcDbLine
 10
57.84446033060351
 20
7.149999868288546
 30
0.0
 11
60.74905153268463
 21
10.05459107036961
 31
0.0
  0
LINE
  5
3367
330
3290
100
AcDbEntity
  8
0
 62
     0
100
AcDbLine
 10
61.34221216833714
 20
11.54577731812912
 30
0.0
 11
64.14221216833721
 21
14.34577731812919
 31
0.0
  0
LINE
  5
3368
330
3290
100
AcDbEntity
  8
0
 62
     0
100
AcDbLine
 10
66.24221216833723
 20
16.44577731812916
 30
0.0
 11
69.04221216833718
 21
19.24577731812917
 31
0.0
  0
LINE
  5
3369
330
3290
100
AcDbEntity
  8
0
 62
     0
100
AcDbLine
 10
57.05838446987383
 20
7.261949619665756
 30
0.0
 11
59.74643471849669
 21
9.949999868288614
 31
0.0
  0
LINE
  5
336A
330
3290
100
AcDbEntity
  8
0
 62
     0
100
AcDbLine
 10
61.3422121683372
 20
12.44380293023613
 30
0.0
 11
64.14221216833721
 21
15.24380293023608
 31
0.0
  0
LINE
  5
336B
330
3290
100
AcDbEntity
  8
0
 62
     0
100
AcDbLine
 10
66.24221216833717
 20
17.34380293023611
 30
0.0
 11
69.04221216833718
 21
20.14380293023606
 31
0.0
  0
LINE
  5
336C
330
3290
100
AcDbEntity
  8
0
 62
     0
100
AcDbLine
 10
56.43039760266367
 20
7.531988364562607
 30
0.0
 11
58.84928689203412
 21
9.950877653933048
 31
0.0
  0
LINE
  5
336D
330
3290
100
AcDbEntity
  8
0
 62
     0
100
AcDbLine
 10
61.34221216833726
 20
13.34182854234302
 30
0.0
 11
64.14221216833721
 21
16.14182854234298
 31
0.0
  0
LINE
  5
336E
330
3290
100
AcDbEntity
  8
0
 62
     0
100
AcDbLine
 10
66.24221216833723
 20
18.241828542343
 30
0.0
 11
69.04221216833718
 21
21.04182854234295
 31
0.0
  0
LINE
  5
336F
330
3290
100
AcDbEntity
  8
0
 62
     0
100
AcDbLine
 10
55.91713772129861
 20
7.916754095304327
 30
0.0
 11
58.20580830332142
 21
10.20542467732719
 31
0.0
  0
LINE
  5
3370
330
3290
100
AcDbEntity
  8
0
 62
     0
100
AcDbLine
 10
61.34221216833726
 20
14.23985415444991
 30
0.0
 11
64.14221216833721
 21
17.03985415444992
 31
0.0
  0
LINE
  5
3371
330
3290
100
AcDbEntity
  8
0
 62
     0
100
AcDbLine
 10
66.24221216833723
 20
19.13985415444989
 30
0.0
 11
69.04221216833718
 21
21.9398541544499
 31
0.0
  0
LINE
  5
3372
330
3290
100
AcDbEntity
  8
0
 62
     0
100
AcDbLine
 10
55.50717354607349
 20
8.404815532186148
 30
0.0
 11
57.868570024912
 21
10.76621201102472
 31
0.0
  0
LINE
  5
3373
330
3290
100
AcDbEntity
  8
0
 62
     0
100
AcDbLine
 10
61.3422121683372
 20
15.13787976655686
 30
0.0
 11
64.14221216833727
 21
17.93787976655693
 31
0.0
  0
LINE
  5
3374
330
3290
100
AcDbEntity
  8
0
 62
     0
100
AcDbLine
 10
66.24221216833717
 20
20.03787976655684
 30
0.0
 11
69.03206301478673
 21
22.82773061300639
 31
0.0
  0
LINE
  5
3375
330
3290
100
AcDbEntity
  8
0
 62
     0
100
AcDbLine
 10
55.20724866763948
 20
9.002916265859141
 30
0.0
 11
57.8422121683372
 21
11.6378797665568
 31
0.0
  0
LINE
  5
3376
330
3290
100
AcDbEntity
  8
0
 62
     0
100
AcDbLine
 10
61.34221216833726
 20
16.0359053786637
 30
0.0
 11
64.14221216833732
 21
18.83590537866377
 31
0.0
  0
LINE
  5
3377
330
3290
100
AcDbEntity
  8
0
 62
     0
100
AcDbLine
 10
66.24221216833729
 20
20.93590537866379
 30
0.0
 11
68.55494866970724
 21
23.24864188003374
 31
0.0
  0
LINE
  5
3378
330
3290
100
AcDbEntity
  8
0
 62
     0
100
AcDbLine
 10
55.04983513268303
 20
9.743528343009529
 30
0.0
 11
57.8422121683372
 21
12.5359053786637
 31
0.0
  0
LINE
  5
3379
330
3290
100
AcDbEntity
  8
0
 62
     0
100
AcDbLine
 10
61.3422121683372
 20
16.93393099077065
 30
0.0
 11
64.14221216833727
 21
19.73393099077071
 31
0.0
  0
LINE
  5
337A
330
3290
100
AcDbEntity
  8
0
 62
     0
100
AcDbLine
 10
66.24221216833729
 20
21.83393099077068
 30
0.0
 11
67.65828104585517
 21
23.24999986828863
 31
0.0
  0
LINE
  5
337B
330
3290
100
AcDbEntity
  8
0
 62
     0
100
AcDbLine
 10
55.04221216833724
 20
10.63393099077063
 30
0.0
 11
57.84221216833725
 21
13.4339309907707
 31
0.0
  0
LINE
  5
337C
330
3290
100
AcDbEntity
  8
0
 62
     0
100
AcDbLine
 10
61.3422121683372
 20
17.83195660287759
 30
0.0
 11
64.14221216833727
 21
20.63195660287761
 31
0.0
  0
LINE
  5
337D
330
3290
100
AcDbEntity
  8
0
 62
     0
100
AcDbLine
 10
55.04221216833719
 20
11.53195660287758
 30
0.0
 11
57.84221216833725
 21
14.33195660287765
 31
0.0
  0
LINE
  5
337E
330
3290
100
AcDbEntity
  8
0
 62
     0
100
AcDbLine
 10
66.24225888308462
 20
22.73200331762502
 30
0.0
 11
66.7602087190009
 21
23.24995315354124
 31
0.0
  0
LINE
  5
337F
330
3290
100
AcDbEntity
  8
0
 62
     0
100
AcDbLine
 10
50.72065653762519
 20
7.21040097216553
 30
0.0
 11
52.88181106446035
 21
9.371555499000749
 31
0.0
  0
LINE
  5
3380
330
3290
100
AcDbEntity
  8
0
 62
     0
100
AcDbLine
 10
55.04221216833719
 20
12.42998221498448
 30
0.0
 11
57.84221216833725
 21
15.22998221498454
 31
0.0
  0
LINE
  5
3381
330
3290
100
AcDbEntity
  8
0
 62
     0
100
AcDbLine
 10
61.3422121683372
 20
18.72998221498449
 30
0.0
 11
64.14221216833721
 21
21.52998221498456
 31
0.0
  0
LINE
  5
3382
330
3290
100
AcDbEntity
  8
0
 62
     0
100
AcDbLine
 10
49.76222982164131
 20
7.149999868288659
 30
0.0
 11
52.94221216833716
 21
10.32998221498451
 31
0.0
  0
LINE
  5
3383
330
3290
100
AcDbEntity
  8
0
 62
     0
100
AcDbLine
 10
55.04221216833719
 20
13.32800782709137
 30
0.0
 11
57.84221216833725
 21
16.12800782709143
 31
0.0
  0
LINE
  5
3384
330
3290
100
AcDbEntity
  8
0
 62
     0
100
AcDbLine
 10
61.3422121683372
 20
19.62800782709138
 30
0.0
 11
64.14221216833727
 21
22.42800782709145
 31
0.0
  0
LINE
  5
3385
330
3290
100
AcDbEntity
  8
0
 62
     0
100
AcDbLine
 10
48.86420420953442
 20
7.149999868288603
 30
0.0
 11
52.94221216833722
 21
11.22800782709134
 31
0.0
  0
LINE
  5
3386
330
3290
100
AcDbEntity
  8
0
 62
     0
100
AcDbLine
 10
55.04221216833719
 20
14.22603343919831
 30
0.0
 11
57.84221216833725
 21
17.02603343919833
 31
0.0
  0
LINE
  5
3387
330
3290
100
AcDbEntity
  8
0
 62
     0
100
AcDbLine
 10
61.3422121683372
 20
20.52603343919827
 30
0.0
 11
63.94847471350312
 21
23.13229598436425
 31
0.0
  0
LINE
  5
3388
330
3290
100
AcDbEntity
  8
0
 62
     0
100
AcDbLine
 10
47.96617859742752
 20
7.149999868288659
 30
0.0
 11
52.92789356792423
 21
12.11171483878536
 31
0.0
  0
LINE
  5
3389
330
3290
100
AcDbEntity
  8
0
 62
     0
100
AcDbLine
 10
55.04221216833724
 20
15.12405905130532
 30
0.0
 11
57.8422121683372
 21
17.92405905130528
 31
0.0
  0
LINE
  5
338A
330
3290
100
AcDbEntity
  8
0
 62
     0
100
AcDbLine
 10
61.34221216833714
 20
21.42405905130522
 30
0.0
 11
63.1681529853206
 21
23.24999986828868
 31
0.0
  0
LINE
  5
338B
330
3290
100
AcDbEntity
  8
0
 62
     0
100
AcDbLine
 10
47.06815298532058
 20
7.149999868288659
 30
0.0
 11
52.79298119729549
 21
12.87482808026351
 31
0.0
  0
LINE
  5
338C
330
3290
100
AcDbEntity
  8
0
 62
     0
100
AcDbLine
 10
55.0422121683373
 20
16.02208466341216
 30
0.0
 11
57.84221216833725
 21
18.82208466341217
 31
0.0
  0
LINE
  5
338D
330
3290
100
AcDbEntity
  8
0
 62
     0
100
AcDbLine
 10
50.14221216833732
 20
11.12208466341218
 30
0.0
 11
52.55239374037694
 21
13.5322662354518
 31
0.0
  0
LINE
  5
338E
330
3290
100
AcDbEntity
  8
0
 62
     0
100
AcDbLine
 10
61.3422121683372
 20
22.32208466341211
 30
0.0
 11
62.27012737321377
 21
23.24999986828868
 31
0.0
  0
LINE
  5
338F
330
3290
100
AcDbEntity
  8
0
 62
     0
100
AcDbLine
 10
46.29838272634481
 20
7.278255221419726
 30
0.0
 11
48.9701273732137
 21
9.949999868288614
 31
0.0
  0
LINE
  5
3390
330
3290
100
AcDbEntity
  8
0
 62
     0
100
AcDbLine
 10
50.12234159320991
 20
12.00023970039171
 30
0.0
 11
52.2288944355164
 21
14.1067925426982
 31
0.0
  0
LINE
  5
3391
330
3290
100
AcDbEntity
  8
0
 62
     0
100
AcDbLine
 10
55.04221216833724
 20
16.92011027551911
 30
0.0
 11
57.8422121683372
 21
19.72011027551906
 31
0.0
  0
LINE
  5
3392
330
3290
100
AcDbEntity
  8
0
 62
     0
100
AcDbLine
 10
46.11721216833723
 20
7.995110275519039
 30
0.0
 11
48.07210176110675
 21
9.949999868288614
 31
0.0
  0
LINE
  5
3393
330
3290
100
AcDbEntity
  8
0
 62
     0
100
AcDbLine
 10
49.84795675607102
 20
12.62388047535984
 30
0.0
 11
51.83302331758858
 21
14.60894703687739
 31
0.0
  0
LINE
  5
3394
330
3290
100
AcDbEntity
  8
0
 62
     0
100
AcDbLine
 10
55.04221216833724
 20
17.818135887626
 30
0.0
 11
57.8422121683372
 21
20.61813588762601
 31
0.0
  0
LINE
  5
3395
330
3290
100
AcDbEntity
  8
0
 62
     0
100
AcDbLine
 10
46.11721216833717
 20
8.893135887625987
 30
0.0
 11
47.17407614899985
 21
9.949999868288671
 31
0.0
  0
LINE
  5
3396
330
3290
100
AcDbEntity
  8
0
 62
     0
100
AcDbLine
 10
55.04221216833724
 20
18.71616149973289
 30
0.0
 11
57.84221216833725
 21
21.51616149973285
 31
0.0
  0
LINE
  5
3397
330
3290
100
AcDbEntity
  8
0
 62
     0
100
AcDbLine
 10
49.40668185895396
 20
13.08063119034955
 30
0.0
 11
51.38658084627627
 21
15.06053017767186
 31
0.0
  0
LINE
  5
3398
330
3290
100
AcDbEntity
  8
0
 62
     0
100
AcDbLine
 10
48.95766905290049
 20
13.52964399640302
 30
0.0
 11
50.93756804022286
 21
15.50954298372545
 31
0.0
  0
LINE
  5
3399
330
3290
100
AcDbEntity
  8
0
 62
     0
100
AcDbLine
 10
55.04221216833724
 20
19.61418711183984
 30
0.0
 11
57.8422121683372
 21
22.4141871118398
 31
0.0
  0
LINE
  5
339A
330
3290
100
AcDbEntity
  8
0
 62
     0
100
AcDbLine
 10
42.578024924786
 20
7.149999868288603
 30
0.0
 11
43.49221216833718
 21
8.064187111839714
 31
0.0
  0
LINE
  5
339B
330
3290
100
AcDbEntity
  8
0
 62
     0
100
AcDbLine
 10
48.50865624684701
 20
13.9786568024565
 30
0.0
 11
50.48855523416938
 21
15.95855578977892
 31
0.0
  0
LINE
  5
339C
330
3290
100
AcDbEntity
  8
0
 62
     0
100
AcDbLine
 10
55.04221216833719
 20
20.51221272394673
 30
0.0
 11
57.65603126023854
 21
23.12603181584802
 31
0.0
  0
LINE
  5
339D
330
3290
100
AcDbEntity
  8
0
 62
     0
100
AcDbLine
 10
41.67999931267906
 20
7.149999868288603
 30
0.0
 11
43.49221216833723
 21
8.96221272394672
 31
0.0
  0
LINE
  5
339E
330
3290
100
AcDbEntity
  8
0
 62
     0
100
AcDbLine
 10
48.05964344079353
 20
14.42766960850997
 30
0.0
 11
50.03954242811591
 21
16.4075685958324
 31
0.0
  0
LINE
  5
339F
330
3290
100
AcDbEntity
  8
0
 62
     0
100
AcDbLine
 10
55.04221216833719
 20
21.41023833605368
 30
0.0
 11
56.88197370057219
 21
23.24999986828868
 31
0.0
  0
LINE
  5
33A0
330
3290
100
AcDbEntity
  8
0
 62
     0
100
AcDbLine
 10
40.89358483843414
 20
7.261611006150587
 30
0.0
 11
43.49221216833718
 21
9.860238336053669
 31
0.0
  0
LINE
  5
33A1
330
3290
100
AcDbEntity
  8
0
 62
     0
100
AcDbLine
 10
47.61063063474011
 20
14.87668241456339
 30
0.0
 11
49.59052962206249
 21
16.85658140188582
 31
0.0
  0
LINE
  5
33A2
330
3290
100
AcDbEntity
  8
0
 62
     0
100
AcDbLine
 10
55.0422121683373
 20
22.30826394816063
 30
0.0
 11
55.9839480884653
 21
23.24999986828863
 31
0.0
  0
LINE
  5
33A3
330
3290
100
AcDbEntity
  8
0
 62
     0
100
AcDbLine
 10
40.69221216833722
 20
7.958263948160549
 30
0.0
 11
43.49221216833723
 21
10.7582639481605
 31
0.0
  0
LINE
  5
33A4
330
3290
100
AcDbEntity
  8
0
 62
     0
100
AcDbLine
 10
47.16161782868664
 20
15.32569522061686
 30
0.0
 11
49.14151681600902
 21
17.30559420793929
 31
0.0
  0
LINE
  5
33A5
330
3290
100
AcDbEntity
  8
0
 62
     0
100
AcDbLine
 10
40.69221216833722
 20
8.856289560267498
 30
0.0
 11
43.49221216833718
 21
11.65628956026745
 31
0.0
  0
LINE
  5
33A6
330
3290
100
AcDbEntity
  8
0
 62
     0
100
AcDbLine
 10
46.71463392764531
 20
15.77673693168253
 30
0.0
 11
48.69860746102734
 21
17.7607104650645
 31
0.0
  0
LINE
  5
33A7
330
3290
100
AcDbEntity
  8
0
 62
     0
100
AcDbLine
 10
40.69221216833722
 20
9.75431517237439
 30
0.0
 11
43.49221216833718
 21
12.5543151723744
 31
0.0
  0
LINE
  5
33A8
330
3290
100
AcDbEntity
  8
0
 62
     0
100
AcDbLine
 10
51.38789686425139
 20
20.44999986828861
 30
0.0
 11
52.41721216833724
 21
21.47931517237442
 31
0.0
  0
LINE
  5
33A9
330
3290
100
AcDbEntity
  8
0
 62
     0
100
AcDbLine
 10
38.19955594362699
 20
7.261658947664159
 30
0.0
 11
38.28920830508201
 21
7.351311309119239
 31
0.0
  0
LINE
  5
33AA
330
3290
100
AcDbEntity
  8
0
 62
     0
100
AcDbLine
 10
46.31663174882334
 20
16.2767603649674
 30
0.0
 11
48.41626602624194
 21
18.376394642386
 31
0.0
  0
LINE
  5
33AB
330
3290
100
AcDbEntity
  8
0
 62
     0
100
AcDbLine
 10
40.69221216833722
 20
10.65234078448128
 30
0.0
 11
43.49221216833723
 21
13.45234078448124
 31
0.0
  0
LINE
  5
33AC
330
3290
100
AcDbEntity
  8
0
 62
     0
100
AcDbLine
 10
50.48987125214461
 20
20.44999986828867
 30
0.0
 11
52.41721216833724
 21
22.37734078448131
 31
0.0
  0
LINE
  5
33AD
330
3290
100
AcDbEntity
  8
0
 62
     0
100
AcDbLine
 10
37.18987125214454
 20
7.149999868288603
 30
0.0
 11
38.25565034845107
 21
8.215778964595131
 31
0.0
  0
LINE
  5
33AE
330
3290
100
AcDbEntity
  8
0
 62
     0
100
AcDbLine
 10
45.99079748442664
 20
16.84895171267766
 30
0.0
 11
48.39221216833732
 21
19.25036639658833
 31
0.0
  0
LINE
  5
33AF
330
3290
100
AcDbEntity
  8
0
 62
     0
100
AcDbLine
 10
40.69221216833722
 20
11.55036639658817
 30
0.0
 11
43.49221216833718
 21
14.35036639658818
 31
0.0
  0
LINE
  5
33B0
330
3290
100
AcDbEntity
  8
0
 62
     0
100
AcDbLine
 10
49.5918456400376
 20
20.44999986828861
 30
0.0
 11
52.25054323653933
 21
23.10869746479034
 31
0.0
  0
LINE
  5
33B1
330
3290
100
AcDbEntity
  8
0
 62
     0
100
AcDbLine
 10
36.29184564003754
 20
7.149999868288546
 30
0.0
 11
38.04012420154538
 21
8.898278429796391
 31
0.0
  0
LINE
  5
33B2
330
3290
100
AcDbEntity
  8
0
 62
     0
100
AcDbLine
 10
40.69221216833716
 20
12.44839200869512
 30
0.0
 11
43.49221216833718
 21
15.24839200869507
 31
0.0
  0
LINE
  5
33B3
330
3290
100
AcDbEntity
  8
0
 62
     0
100
AcDbLine
 10
45.74741542175655
 20
17.50359526211451
 30
0.0
 11
51.49382002793072
 21
23.24999986828868
 31
0.0
  0
LINE
  5
33B4
330
3290
100
AcDbEntity
  8
0
 62
     0
100
AcDbLine
 10
35.69983132938256
 20
7.45601116974052
 30
0.0
 11
37.82459805463969
 21
9.580777894997652
 31
0.0
  0
LINE
  5
33B5
330
3290
100
AcDbEntity
  8
0
 62
     0
100
AcDbLine
 10
40.69221216833716
 20
13.34641762080207
 30
0.0
 11
43.49221216833711
 21
16.14641762080202
 31
0.0
  0
LINE
  5
33B6
330
3290
100
AcDbEntity
  8
0
 62
     0
100
AcDbLine
 10
45.60870856267086
 20
18.26291401513578
 30
0.0
 11
50.59579441582383
 21
23.24999986828868
 31
0.0
  0
LINE
  5
33B7
330
3290
100
AcDbEntity
  8
0
 62
     0
100
AcDbLine
 10
35.48107190773396
 20
8.13527736019887
 30
0.0
 11
37.60907190773401
 21
10.26327736019891
 31
0.0
  0
LINE
  5
33B8
330
3290
100
AcDbEntity
  8
0
 62
     0
100
AcDbLine
 10
40.69221216833722
 20
14.24444323290891
 30
0.0
 11
43.49221216833718
 21
17.04444323290892
 31
0.0
  0
LINE
  5
33B9
330
3290
100
AcDbEntity
  8
0
 62
     0
100
AcDbLine
 10
45.59221216833726
 20
19.144443232909
 30
0.0
 11
49.69776880371694
 21
23.24999986828868
 31
0.0
  0
LINE
  5
33BA
330
3290
100
AcDbEntity
  8
0
 62
     0
100
AcDbLine
 10
35.26554576082833
 20
8.817776825400073
 30
0.0
 11
37.39354576082843
 21
10.94577682540011
 31
0.0
  0
LINE
  5
33BB
330
3290
100
AcDbEntity
  8
0
 62
     0
100
AcDbLine
 10
40.69221216833727
 20
15.14246884501591
 30
0.0
 11
43.49221216833718
 21
17.94246884501581
 31
0.0
  0
LINE
  5
33BC
330
3290
100
AcDbEntity
  8
0
 62
     0
100
AcDbLine
 10
45.59221216833726
 20
20.04246884501589
 30
0.0
 11
48.79974319161004
 21
23.24999986828868
 31
0.0
  0
LINE
  5
33BD
330
3290
100
AcDbEntity
  8
0
 62
     0
100
AcDbLine
 10
35.05001961392264
 20
9.500276290601334
 30
0.0
 11
37.1780196139228
 21
11.62827629060149
 31
0.0
  0
LINE
  5
33BE
330
3290
100
AcDbEntity
  8
0
 62
     0
100
AcDbLine
 10
40.69221216833722
 20
16.04049445712286
 30
0.0
 11
43.49221216833723
 21
18.84049445712281
 31
0.0
  0
LINE
  5
33BF
330
3290
100
AcDbEntity
  8
0
 62
     0
100
AcDbLine
 10
34.83449346701696
 20
10.18277575580259
 30
0.0
 11
36.96249346701705
 21
12.31077575580264
 31
0.0
  0
LINE
  5
33C0
330
3290
100
AcDbEntity
  8
0
 62
     0
100
AcDbLine
 10
45.6455288384584
 20
20.99381112724405
 30
0.0
 11
47.84840090938172
 21
23.19668319816736
 31
0.0
  0
LINE
  5
33C1
330
3290
100
AcDbEntity
  8
0
 62
     0
100
AcDbLine
 10
31.80171757950296
 20
7.149999868288603
 30
0.0
 11
32.64221216833715
 21
7.990494457122792
 31
0.0
  0
LINE
  5
33C2
330
3290
100
AcDbEntity
  8
0
 62
     0
100
AcDbLine
 10
34.61896732011144
 20
10.86527522100391
 30
0.0
 11
36.74696732011142
 21
12.9932752210039
 31
0.0
  0
LINE
  5
33C3
330
3290
100
AcDbEntity
  8
0
 62
     0
100
AcDbLine
 10
40.69221216833727
 20
16.93852006922969
 30
0.0
 11
43.49221216833723
 21
19.73852006922971
 31
0.0
  0
LINE
  5
33C4
330
3290
100
AcDbEntity
  8
0
 62
     0
100
AcDbLine
 10
30.90369196739613
 20
7.149999868288546
 30
0.0
 11
32.64221216833727
 21
8.888520069229741
 31
0.0
  0
LINE
  5
33C5
330
3290
100
AcDbEntity
  8
0
 62
     0
100
AcDbLine
 10
34.40344117320569
 20
11.54777468620506
 30
0.0
 11
36.53144117320574
 21
13.67577468620516
 31
0.0
  0
LINE
  5
33C6
330
3290
100
AcDbEntity
  8
0
 62
     0
100
AcDbLine
 10
40.69221216833722
 20
17.83654568133664
 30
0.0
 11
43.49221216833723
 21
20.6365456813366
 31
0.0
  0
LINE
  5
33C7
330
3290
100
AcDbEntity
  8
0
 62
     0
100
AcDbLine
 10
30.08681610294047
 20
7.231149615939898
 30
0.0
 11
32.64221216833727
 21
9.78654568133669
 31
0.0
  0
LINE
  5
33C8
330
3290
100
AcDbEntity
  8
0
 62
     0
100
AcDbLine
 10
34.1879150263
 20
12.23027415140632
 30
0.0
 11
36.31591502630005
 21
14.35827415140642
 31
0.0
  0
LINE
  5
33C9
330
3290
100
AcDbEntity
  8
0
 62
     0
100
AcDbLine
 10
40.69221216833722
 20
18.73457129344359
 30
0.0
 11
43.49221216833718
 21
21.53457129344355
 31
0.0
  0
LINE
  5
33CA
330
3290
100
AcDbEntity
  8
0
 62
     0
100
AcDbLine
 10
29.8422121683372
 20
7.884571293443514
 30
0.0
 11
32.64221216833727
 21
10.68457129344358
 31
0.0
  0
LINE
  5
33CB
330
3290
100
AcDbEntity
  8
0
 62
     0
100
AcDbLine
 10
33.97238887939437
 20
12.91277361660752
 30
0.0
 11
36.10038887939453
 21
15.04077361660768
 31
0.0
  0
LINE
  5
33CC
330
3290
100
AcDbEntity
  8
0
 62
     0
100
AcDbLine
 10
40.69221216833727
 20
19.63259690555043
 30
0.0
 11
43.49221216833723
 21
22.43259690555044
 31
0.0
  0
LINE
  5
33CD
330
3290
100
AcDbEntity
  8
0
 62
     0
100
AcDbLine
 10
29.8422121683372
 20
8.782596905550406
 30
0.0
 11
32.64221216833727
 21
11.58259690555047
 31
0.0
  0
LINE
  5
33CE
330
3290
100
AcDbEntity
  8
0
 62
     0
100
AcDbLine
 10
33.73759009242264
 20
13.57600044174279
 30
0.0
 11
36.36788416035353
 21
16.20629450967368
 31
0.0
  0
LINE
  5
33CF
330
3290
100
AcDbEntity
  8
0
 62
     0
100
AcDbLine
 10
40.69221216833722
 20
20.53062251765738
 30
0.0
 11
43.29593674583878
 21
23.13434709515889
 31
0.0
  0
LINE
  5
33D0
330
3290
100
AcDbEntity
  8
0
 62
     0
100
AcDbLine
 10
29.8422121683372
 20
9.680622517657354
 30
0.0
 11
32.64221216833727
 21
12.48062251765736
 31
0.0
  0
LINE
  5
33D1
330
3290
100
AcDbEntity
  8
0
 62
     0
100
AcDbLine
 10
33.05040472255524
 20
13.78684068398235
 30
0.0
 11
36.78235751978752
 21
17.51879348121463
 31
0.0
  0
LINE
  5
33D2
330
3290
100
AcDbEntity
  8
0
 62
     0
100
AcDbLine
 10
29.8422121683372
 20
10.57864812976424
 30
0.0
 11
32.6553713526435
 21
13.39180731407054
 31
0.0
  0
LINE
  5
33D3
330
3290
100
AcDbEntity
  8
0
 62
     0
100
AcDbLine
 10
40.69221216833722
 20
21.42864812976427
 30
0.0
 11
42.51356390686157
 21
23.24999986828868
 31
0.0
  0
LINE
  5
33D4
330
3290
100
AcDbEntity
  8
0
 62
     0
100
AcDbLine
 10
26.41356390686155
 20
7.149999868288603
 30
0.0
 11
27.39221216833721
 21
8.128648129764314
 31
0.0
  0
LINE
  5
33D5
330
3290
100
AcDbEntity
  8
0
 62
     0
100
AcDbLine
 10
29.84221216833714
 20
11.47667374187119
 30
0.0
 11
37.19683087922147
 21
18.83129245275552
 31
0.0
  0
LINE
  5
33D6
330
3290
100
AcDbEntity
  8
0
 62
     0
100
AcDbLine
 10
40.69221216833716
 20
22.32667374187122
 30
0.0
 11
41.61553829475457
 21
23.24999986828863
 31
0.0
  0
LINE
  5
33D7
330
3290
100
AcDbEntity
  8
0
 62
     0
100
AcDbLine
 10
25.51553829475461
 20
7.149999868288659
 30
0.0
 11
27.39221216833727
 21
9.02667374187132
 31
0.0
  0
LINE
  5
33D8
330
3290
100
AcDbEntity
  8
0
 62
     0
100
AcDbLine
 10
29.8422121683372
 20
12.37469935397803
 30
0.0
 11
37.61130423865558
 21
20.14379142429647
 31
0.0
  0
LINE
  5
33D9
330
3290
100
AcDbEntity
  8
0
 62
     0
100
AcDbLine
 10
24.62919330699782
 20
7.161680492638708
 30
0.0
 11
27.25087788473104
 21
9.783365070371871
 31
0.0
  0
LINE
  5
33DA
330
3290
100
AcDbEntity
  8
0
 62
     0
100
AcDbLine
 10
29.84221216833714
 20
13.27272496608498
 30
0.0
 11
33.16948707054081
 21
16.59999986828865
 31
0.0
  0
LINE
  5
33DB
330
3290
100
AcDbEntity
  8
0
 62
     0
100
AcDbLine
 10
33.93346990578169
 20
17.36398270352953
 30
0.0
 11
38.02577759808952
 21
21.45629039583736
 31
0.0
  0
LINE
  5
33DC
330
3290
100
AcDbEntity
  8
0
 62
     0
100
AcDbLine
 10
23.86103278955085
 20
7.291545587298628
 30
0.0
 11
26.51948707054078
 21
9.949999868288614
 31
0.0
  0
LINE
  5
33DD
330
3290
100
AcDbEntity
  8
0
 62
     0
100
AcDbLine
 10
29.84221216833714
 20
14.17075057819193
 30
0.0
 11
32.66020273904548
 21
16.9887411489002
 31
0.0
  0
LINE
  5
33DE
330
3290
100
AcDbEntity
  8
0
 62
     0
100
AcDbLine
 10
34.34794326521564
 20
18.67648167507036
 30
0.0
 11
38.40084904989084
 21
22.72938745974562
 31
0.0
  0
LINE
  5
33DF
330
3290
100
AcDbEntity
  8
0
 62
     0
100
AcDbLine
 10
23.19989853272443
 20
7.528436942579219
 30
0.0
 11
25.62146145843389
 21
9.949999868288614
 31
0.0
  0
LINE
  5
33E0
330
3290
100
AcDbEntity
  8
0
 62
     0
100
AcDbLine
 10
29.8422121683372
 20
15.06877619029876
 30
0.0
 11
32.64221216833732
 21
17.86877619029889
 31
0.0
  0
LINE
  5
33E1
330
3290
100
AcDbEntity
  8
0
 62
     0
100
AcDbLine
 10
34.76241662464957
 20
19.98898064661119
 30
0.0
 11
38.00683717732164
 21
23.23340119928326
 31
0.0
  0
LINE
  5
33E2
330
3290
100
AcDbEntity
  8
0
 62
     0
100
AcDbLine
 10
22.62229524856014
 20
7.8488592705217
 30
0.0
 11
24.73835710705299
 21
9.964921129014612
 31
0.0
  0
LINE
  5
33E3
330
3290
100
AcDbEntity
  8
0
 62
     0
100
AcDbLine
 10
29.84221216833714
 20
15.96680180240571
 30
0.0
 11
32.64221216833727
 21
18.76680180240583
 31
0.0
  0
LINE
  5
33E4
330
3290
100
AcDbEntity
  8
0
 62
     0
100
AcDbLine
 10
35.17688998408352
 20
21.30147961815203
 30
0.0
 11
37.12541023422005
 21
23.24999986828863
 31
0.0
  0
LINE
  5
33E5
330
3290
100
AcDbEntity
  8
0
 62
     0
100
AcDbLine
 10
22.11734028217808
 20
8.24192991624659
 30
0.0
 11
24.10404096603469
 21
10.2286306001032
 31
0.0
  0
LINE
  5
33E6
330
3290
100
AcDbEntity
  8
0
 62
     0
100
AcDbLine
 10
29.84221216833714
 20
16.8648274145126
 30
0.0
 11
32.64221216833727
 21
19.66482741451278
 31
0.0
  0
LINE
  5
33E7
330
3290
100
AcDbEntity
  8
0
 62
     0
100
AcDbLine
 10
26.50384630011365
 20
13.52646154628917
 30
0.0
 11
27.66575049033674
 21
14.68836573651225
 31
0.0
  0
LINE
  5
33E8
330
3290
100
AcDbEntity
  8
0
 62
     0
100
AcDbLine
 10
35.5913633435174
 20
22.61397858969292
 30
0.0
 11
36.22738462211311
 21
23.24999986828863
 31
0.0
  0
LINE
  5
33E9
330
3290
100
AcDbEntity
  8
0
 62
     0
100
AcDbLine
 10
21.68090320884823
 20
8.703518455023754
 30
0.0
 11
23.6937900147625
 21
10.71640526093802
 31
0.0
  0
LINE
  5
33EA
330
3290
100
AcDbEntity
  8
0
 62
     0
100
AcDbLine
 10
25.57887345848383
 20
13.49951431676629
 30
0.0
 11
27.69269771985961
 21
15.61333857814202
 31
0.0
  0
LINE
  5
33EB
330
3290
100
AcDbEntity
  8
0
 62
     0
100
AcDbLine
 10
29.8422121683372
 20
17.76285302661961
 30
0.0
 11
32.64221216833727
 21
20.56285302661968
 31
0.0
  0
LINE
  5
33EC
330
3290
100
AcDbEntity
  8
0
 62
     0
100
AcDbLine
 10
21.31388398390527
 20
9.234524842187681
 30
0.0
 11
23.54221216833719
 21
11.46285302661965
 31
0.0
  0
LINE
  5
33ED
330
3290
100
AcDbEntity
  8
0
 62
     0
100
AcDbLine
 10
24.96472688906363
 20
13.78339335945287
 30
0.0
 11
27.40881867717297
 21
16.22748514756227
 31
0.0
  0
LINE
  5
33EE
330
3290
100
AcDbEntity
  8
0
 62
     0
100
AcDbLine
 10
29.8422121683372
 20
18.6608786387265
 30
0.0
 11
32.64221216833727
 21
21.46087863872657
 31
0.0
  0
LINE
  5
33EF
330
3290
100
AcDbEntity
  8
0
 62
     0
100
AcDbLine
 10
21.02256647398053
 20
9.841232944369835
 30
0.0
 11
23.54221216833719
 21
12.36087863872649
 31
0.0
  0
LINE
  5
33F0
330
3290
100
AcDbEntity
  8
0
 62
     0
100
AcDbLine
 10
24.52676696207391
 20
14.24345904457016
 30
0.0
 11
26.94875299205575
 21
16.66544507455194
 31
0.0
  0
LINE
  5
33F1
330
3290
100
AcDbEntity
  8
0
 62
     0
100
AcDbLine
 10
29.8422121683372
 20
19.55890425083345
 30
0.0
 11
32.64221216833727
 21
22.35890425083346
 31
0.0
  0
LINE
  5
33F2
330
3290
100
AcDbEntity
  8
0
 62
     0
100
AcDbLine
 10
20.82142910980588
 20
10.53812119230213
 30
0.0
 11
23.54221216833719
 21
13.25890425083344
 31
0.0
  0
LINE
  5
33F3
330
3290
100
AcDbEntity
  8
0
 62
     0
100
AcDbLine
 10
24.27071622966554
 20
14.88543392426868
 30
0.0
 11
26.30677811235717
 21
16.92149580696036
 31
0.0
  0
LINE
  5
33F4
330
3290
100
AcDbEntity
  8
0
 62
     0
100
AcDbLine
 10
20.74221216833712
 20
11.35692986294032
 30
0.0
 11
23.54221216833719
 21
14.15692986294033
 31
0.0
  0
LINE
  5
33F5
330
3290
100
AcDbEntity
  8
0
 62
     0
100
AcDbLine
 10
29.8422121683372
 20
20.45692986294034
 30
0.0
 11
32.48496205998208
 21
23.09967975458528
 31
0.0
  0
LINE
  5
33F6
330
3290
100
AcDbEntity
  8
0
 62
     0
100
AcDbLine
 10
16.65621541046153
 20
7.270933105064727
 30
0.0
 11
18.52127893156125
 21
9.135996626164455
 31
0.0
  0
LINE
  5
33F7
330
3290
100
AcDbEntity
  8
0
 62
     0
100
AcDbLine
 10
24.38912931314633
 20
15.90187261985636
 30
0.0
 11
25.29033941676954
 21
16.80308272347957
 31
0.0
  0
LINE
  5
33F8
330
3290
100
AcDbEntity
  8
0
 62
     0
100
AcDbLine
 10
20.74221216833712
 20
12.25495547504715
 30
0.0
 11
23.5422121683373
 21
15.05495547504728
 31
0.0
  0
LINE
  5
33F9
330
3290
100
AcDbEntity
  8
0
 62
     0
100
AcDbLine
 10
29.8422121683372
 20
21.35495547504723
 30
0.0
 11
31.73725656157859
 21
23.24999986828863
 31
0.0
  0
LINE
  5
33FA
330
3290
100
AcDbEntity
  8
0
 62
     0
100
AcDbLine
 10
15.63725656157856
 20
7.149999868288603
 30
0.0
 11
18.64221216833732
 21
10.1549554750473
 31
0.0
  0
LINE
  5
33FB
330
3290
100
AcDbEntity
  8
0
 62
     0
100
AcDbLine
 10
20.74221216833712
 20
13.1529810871541
 30
0.0
 11
23.54221216833725
 21
15.95298108715423
 31
0.0
  0
LINE
  5
33FC
330
3290
100
AcDbEntity
  8
0
 62
     0
100
AcDbLine
 10
29.8422121683372
 20
22.25298108715413
 30
0.0
 11
30.8392309494717
 21
23.24999986828868
 31
0.0
  0
LINE
  5
33FD
330
3290
100
AcDbEntity
  8
0
 62
     0
100
AcDbLine
 10
14.73923094947156
 20
7.149999868288546
 30
0.0
 11
18.64221216833726
 21
11.05298108715425
 31
0.0
  0
LINE
  5
33FE
330
3290
100
AcDbEntity
  8
0
 62
     0
100
AcDbLine
 10
20.74221216833712
 20
14.05100669926099
 30
0.0
 11
23.54221216833725
 21
16.85100669926117
 31
0.0
  0
LINE
  5
33FF
330
3290
100
AcDbEntity
  8
0
 62
     0
100
AcDbLine
 10
13.84120533736473
 20
7.149999868288659
 30
0.0
 11
18.63827281577602
 21
11.94706734669995
 31
0.0
  0
LINE
  5
3400
330
3290
100
AcDbEntity
  8
0
 62
     0
100
AcDbLine
 10
20.74221216833712
 20
14.94903231136794
 30
0.0
 11
23.54221216833725
 21
17.74903231136807
 31
0.0
  0
LINE
  5
3401
330
3290
100
AcDbEntity
  8
0
 62
     0
100
AcDbLine
 10
26.24317972525791
 20
20.44999986828873
 30
0.0
 11
27.39221216833732
 21
21.59903231136815
 31
0.0
  0
LINE
  5
3402
330
3290
100
AcDbEntity
  8
0
 62
     0
100
AcDbLine
 10
12.94317972525778
 20
7.149999868288603
 30
0.0
 11
18.5286109794547
 21
12.73543112248552
 31
0.0
  0
LINE
  5
3403
330
3290
100
AcDbEntity
  8
0
 62
     0
100
AcDbLine
 10
20.74221216833712
 20
15.84705792347483
 30
0.0
 11
23.54221216833725
 21
18.64705792347496
 31
0.0
  0
LINE
  5
3404
330
3290
100
AcDbEntity
  8
0
 62
     0
100
AcDbLine
 10
15.8422121683372
 20
10.94705792347491
 30
0.0
 11
18.30627223541057
 21
13.41111799054829
 31
0.0
  0
LINE
  5
3405
330
3290
100
AcDbEntity
  8
0
 62
     0
100
AcDbLine
 10
25.3451541131509
 20
20.44999986828861
 30
0.0
 11
27.39221216833732
 21
22.49705792347498
 31
0.0
  0
LINE
  5
3406
330
3290
100
AcDbEntity
  8
0
 62
     0
100
AcDbLine
 10
12.10287998841085
 20
7.207725743548564
 30
0.0
 11
14.8451541131509
 21
9.949999868288614
 31
0.0
  0
LINE
  5
3407
330
3290
100
AcDbEntity
  8
0
 62
     0
100
AcDbLine
 10
20.74221216833706
 20
16.74508353558173
 30
0.0
 11
23.70802687411686
 21
19.71089824136152
 31
0.0
  0
LINE
  5
3408
330
3290
100
AcDbEntity
  8
0
 62
     0
100
AcDbLine
 10
15.84005307672794
 20
11.84292444397255
 30
0.0
 11
17.99784070073855
 21
14.00071206798321
 31
0.0
  0
LINE
  5
3409
330
3290
100
AcDbEntity
  8
0
 62
     0
100
AcDbLine
 10
24.2813137952644
 20
20.28418516250906
 30
0.0
 11
27.15874475341741
 21
23.16161612066202
 31
0.0
  0
LINE
  5
340A
330
3290
100
AcDbEntity
  8
0
 62
     0
100
AcDbLine
 10
11.81721216833722
 20
7.820083535581829
 30
0.0
 11
13.947128501044
 21
9.949999868288614
 31
0.0
  0
LINE
  5
340B
330
3290
100
AcDbEntity
  8
0
 62
     0
100
AcDbLine
 10
15.62045005722723
 20
12.52134703657884
 30
0.0
 11
17.61559873589965
 21
14.51649571525126
 31
0.0
  0
LINE
  5
340C
330
3290
100
AcDbEntity
  8
0
 62
     0
100
AcDbLine
 10
20.74221216833706
 20
17.64310914768867
 30
0.0
 11
26.34910288893701
 21
23.24999986828863
 31
0.0
  0
LINE
  5
340D
330
3290
100
AcDbEntity
  8
0
 62
     0
100
AcDbLine
 10
11.81721216833716
 20
8.718109147688778
 30
0.0
 11
13.04910288893706
 21
9.949999868288671
 31
0.0
  0
LINE
  5
340E
330
3290
100
AcDbEntity
  8
0
 62
     0
100
AcDbLine
 10
15.19419522892252
 20
12.99311782038097
 30
0.0
 11
17.17409421624489
 21
14.97301680770334
 31
0.0
  0
LINE
  5
340F
330
3290
100
AcDbEntity
  8
0
 62
     0
100
AcDbLine
 10
20.74221216833712
 20
18.54113475979551
 30
0.0
 11
25.45107727683006
 21
23.24999986828851
 31
0.0
  0
LINE
  5
3410
330
3290
100
AcDbEntity
  8
0
 62
     0
100
AcDbLine
 10
11.88616409035694
 20
9.685086681815391
 30
0.0
 11
12.08212535481056
 21
9.881047946269006
 31
0.0
  0
LINE
  5
3411
330
3290
100
AcDbEntity
  8
0
 62
     0
100
AcDbLine
 10
20.7621872824937
 20
19.45913548605904
 30
0.0
 11
24.53307655056671
 21
23.2300247541321
 31
0.0
  0
LINE
  5
3412
330
3290
100
AcDbEntity
  8
0
 62
     0
100
AcDbLine
 10
14.74518242286905
 20
13.44213062643445
 30
0.0
 11
16.72508141019142
 21
15.42202961375682
 31
0.0
  0
LINE
  5
3413
330
3290
100
AcDbEntity
  8
0
 62
     0
100
AcDbLine
 10
21.06165071475948
 20
20.65662453043183
 30
0.0
 11
23.33558750619397
 21
22.93056132186632
 31
0.0
  0
LINE
  5
3414
330
3290
100
AcDbEntity
  8
0
 62
     0
100
AcDbLine
 10
14.29616961681557
 20
13.89114343248792
 30
0.0
 11
16.27606860413794
 21
15.87104241981029
 31
0.0
  0
LINE
  5
3415
330
3290
100
AcDbEntity
  8
0
 62
     0
100
AcDbLine
 10
13.84715681076216
 20
14.34015623854134
 30
0.0
 11
15.82705579808447
 21
16.3200552258636
 31
0.0
  0
LINE
  5
3416
330
3290
100
AcDbEntity
  8
0
 62
     0
100
AcDbLine
 10
13.39814400470868
 20
14.78916904459481
 30
0.0
 11
15.378042992031
 21
16.76906803191707
 31
0.0
  0
LINE
  5
3417
330
3290
100
AcDbEntity
  8
0
 62
     0
100
AcDbLine
 10
12.94913119865521
 20
15.23818185064829
 30
0.0
 11
14.92903018597752
 21
17.21808083797055
 31
0.0
  0
LINE
  5
3418
330
3290
100
AcDbEntity
  8
0
 62
     0
100
AcDbLine
 10
17.26292360418864
 20
20.44999986828861
 30
0.0
 11
18.11721216833712
 21
21.30428843243715
 31
0.0
  0
LINE
  5
3419
330
3290
100
AcDbEntity
  8
0
 62
     0
100
AcDbLine
 10
12.50020170662986
 20
15.68727797072989
 30
0.0
 11
14.48026735006232
 21
17.66734361416235
 31
0.0
  0
LINE
  5
341A
330
3290
100
AcDbEntity
  8
0
 62
     0
100
AcDbLine
 10
16.36489799208175
 20
20.44999986828861
 30
0.0
 11
18.11721216833717
 21
22.20231404454404
 31
0.0
  0
LINE
  5
341B
330
3290
100
AcDbEntity
  8
0
 62
     0
100
AcDbLine
 10
12.08873378207829
 20
16.1738356582851
 30
0.0
 11
14.15037046877438
 21
18.23547234498125
 31
0.0
  0
LINE
  5
341C
330
3290
100
AcDbEntity
  8
0
 62
     0
100
AcDbLine
 10
15.4668723799748
 20
20.44999986828861
 30
0.0
 11
18.03065326857603
 21
23.01378075688985
 31
0.0
  0
LINE
  5
341D
330
3290
100
AcDbEntity
  8
0
 62
     0
100
AcDbLine
 10
11.74827317581582
 20
16.73140066412958
 30
0.0
 11
14.09221216833725
 21
19.07533965665101
 31
0.0
  0
LINE
  5
341E
330
3290
100
AcDbEntity
  8
0
 62
     0
100
AcDbLine
 10
14.56638011869779
 20
20.4475332191185
 30
0.0
 11
17.36884676786786
 21
23.24999986828863
 31
0.0
  0
LINE
  5
341F
330
3290
100
AcDbEntity
  8
0
 62
     0
100
AcDbLine
 10
11.48757988008373
 20
17.36873298050443
 30
0.0
 11
14.09467881750731
 21
19.97583191792807
 31
0.0
  0
LINE
  5
3420
330
3290
100
AcDbEntity
  8
0
 62
     0
100
AcDbLine
 10
11.32576791783566
 20
18.10494663036326
 30
0.0
 11
16.47082115576103
 21
23.24999986828857
 31
0.0
  0
LINE
  5
3421
330
3290
100
AcDbEntity
  8
0
 62
     0
100
AcDbLine
 10
11.29221216833724
 20
18.96941649297179
 30
0.0
 11
15.57279554365408
 21
23.24999986828863
 31
0.0
  0
LINE
  5
3422
330
3290
100
AcDbEntity
  8
0
 62
     0
100
AcDbLine
 10
11.29221216833724
 20
19.86744210507868
 30
0.0
 11
14.67476993154713
 21
23.24999986828863
 31
0.0
  0
LINE
  5
3423
330
3290
100
AcDbEntity
  8
0
 62
     0
100
AcDbLine
 10
11.31240417877546
 20
20.78565972762385
 30
0.0
 11
13.75655230900207
 21
23.22980785785046
 31
0.0
  0
ENDBLK
  5
3425
330
3290
100
AcDbEntity
  8
0
100
AcDbBlockEnd
  0
BLOCK
  5
343A
330
3430
100
AcDbEntity
  8
0
100
AcDbBlockBegin
  2
*D10
 70
     1
 10
0.0
 20
0.0
 30
0.0
  3
*D10
  1

  0
LINE
  5
3498
330
3430
100
AcDbEntity
  8
SUNPOU
100
AcDbLine
 10
446.7903191279743
 20
416.5938337871722
 30
0.0
 11
446.7903191279743
 21
503.6167728734824
 31
0.0
  0
LINE
  5
3499
330
3430
100
AcDbEntity
  8
SUNPOU
100
AcDbLine
 10
541.2403191279744
 20
416.5936818429847
 30
0.0
 11
541.2403191279744
 21
503.6167728734824
 31
0.0
  0
LINE
  5
349A
330
3430
100
AcDbEntity
  8
SUNPOU
100
AcDbLine
 10
453.7903191279744
 20
500.6167728734824
 30
0.0
 11
534.2403191279744
 21
500.6167728734824
 31
0.0
  0
INSERT
  5
349B
330
3430
100
AcDbEntity
  8
SUNPOU
100
AcDbBlockReference
  2
_OPEN
 10
446.7903191279743
 20
500.6167728734824
 30
0.0
 41
7.0
 42
7.0
 43
7.0
 50
180.0
  0
INSERT
  5
349C
330
3430
100
AcDbEntity
  8
SUNPOU
100
AcDbBlockReference
  2
_OPEN
 10
541.2403191279744
 20
500.6167728734824
 30
0.0
 41
7.0
 42
7.0
 43
7.0
  0
MTEXT
  5
349D
330
3430
100
AcDbEntity
  8
SUNPOU
100
AcDbMText
 10
494.0153191279744
 20
505.6167728734824
 30
0.0
 40
6.0
 41
0.0
 71
     5
 72
     1
  1
\A1;94
 73
     1
 44
1.0
1001
ACAD
1000
MTEXTBEGIN
1070
    73
1070
     1
1070
    44
1040
1.0
1070
    74
1070
     0
1000
MTEXTEND
  0
POINT
  5
349E
330
3430
100
AcDbEntity
  8
DEFPOINTS
 62
     0
100
AcDbPoint
 10
446.7903191279743
 20
410.5938337871722
 30
0.0
  0
POINT
  5
349F
330
3430
100
AcDbEntity
  8
DEFPOINTS
 62
     0
100
AcDbPoint
 10
541.2403191279744
 20
410.5936818429848
 30
0.0
  0
POINT
  5
34A0
330
3430
100
AcDbEntity
  8
DEFPOINTS
 62
     0
100
AcDbPoint
 10
541.2403191279744
 20
500.6167728734824
 30
0.0
  0
ENDBLK
  5
343B
330
3430
100
AcDbEntity
  8
0
100
AcDbBlockEnd
  0
ENDSEC
  0
SECTION
  2
ENTITIES
  0
LINE
  5
1390
330
1A
100
AcDbEntity
  8
ZUWAKU
100
AcDbLine
 10
208.646601303624
 20
15.19999986828872
 30
0.0
 11
447.4243639845474
 21
15.19999986828871
 31
0.0
  0
LINE
  5
1391
330
1A
100
AcDbEntity
  8
ZUWAKU
100
AcDbLine
 10
208.646601303624
 20
15.59999986828871
 30
0.0
 11
447.4243639845474
 21
15.59999986828872
 31
0.0
  0
LINE
  5
1392
330
1A
100
AcDbEntity
  8
ZUWAKU
100
AcDbLine
 10
208.646601303624
 20
15.39999986828872
 30
0.0
 11
447.4243639845474
 21
15.39999986828872
 31
0.0
  0
LINE
  5
1393
330
1A
100
AcDbEntity
  8
ZUWAKU
100
AcDbLine
 10
0.0000000135560185
 20
30.7999998682887
 30
0.0
 11
797.4000000135559
 21
30.7999998682887
 31
0.0
  0
LINE
  5
1394
330
1A
100
AcDbEntity
  8
ZUWAKU
100
AcDbLine
 10
0.0000000135560185
 20
30.59999986828869
 30
0.0
 11
797.4000000135559
 21
30.59999986828869
 31
0.0
  0
LINE
  5
1395
330
1A
100
AcDbEntity
  8
ZUWAKU
100
AcDbLine
 10
0.0000000135560185
 20
30.39999986828869
 30
0.0
 11
797.4000000135559
 21
30.39999986828869
 31
0.0
  0
LINE
  5
1396
330
1A
100
AcDbEntity
  8
ZUWAKU
100
AcDbLine
 10
0.0000000135560185
 20
30.19999986828869
 30
0.0
 11
797.4000000135559
 21
30.19999986828869
 31
0.0
  0
LINE
  5
1397
330
1A
100
AcDbEntity
  8
ZUWAKU
100
AcDbLine
 10
0.0000000135560185
 20
29.99999986828868
 30
0.0
 11
797.4000000135559
 21
29.99999986828868
 31
0.0
  0
LWPOLYLINE
  5
1398
330
1A
100
AcDbEntity
  8
ZUWAKU
100
AcDbPolyline
 90
        4
 70
     1
 43
0.0
 10
0.2000000135559503
 20
551.3999998682887
 10
0.2000000135559503
 20
0.1999998682887281
 10
797.4000000135559
 20
0.1999998682887511
 10
797.4000000135561
 20
551.3999998682887
  0
LWPOLYLINE
  5
1399
330
1A
100
AcDbEntity
  8
ZUWAKU
100
AcDbPolyline
 90
        4
 70
     1
 43
0.0
 10
0.6000000135559276
 20
550.9999998682888
 10
0.6000000135559276
 20
0.5999998682887054
 10
797.0000000135562
 20
0.5999998682887516
 10
797.000000013556
 20
550.9999998682888
  0
LWPOLYLINE
  5
139A
330
1A
100
AcDbEntity
  8
ZUWAKU
100
AcDbPolyline
 90
        4
 70
     1
 43
0.0
 10
0.0000000135560185
 20
551.5999998682887
 10
0.0000000135560185
 20
-0.0000001317113174
 10
797.6000000135561
 20
-0.0000001317112499
 10
797.6000000135561
 20
551.5999998682888
  0
LWPOLYLINE
  5
139B
330
1A
100
AcDbEntity
  8
ZUWAKU
100
AcDbPolyline
 90
        4
 70
     1
 43
0.0
 10
0.4000000135559958
 20
551.1999998682887
 10
0.4000000135559958
 20
0.3999998682887735
 10
797.200000013556
 20
0.3999998682887504
 10
797.200000013556
 20
551.1999998682887
  0
LWPOLYLINE
  5
139C
330
1A
100
AcDbEntity
  8
ZUWAKU
100
AcDbPolyline
 90
        4
 70
     1
 43
0.0
 10
0.800000013555973
 20
550.7999998682887
 10
0.800000013555973
 20
0.7999998682887508
 10
796.8000000135559
 20
0.7999998682887508
 10
796.8000000135559
 20
550.7999998682887
  0
TEXT
  5
139D
330
1A
100
AcDbEntity
  8
moji
100
AcDbText
 10
92.95778960172516
 20
12.74117799856344
 30
0.0
 40
6.0
  1
ライナートップＸ７０Ｕ
 41
0.9
  7
ｽﾀｲﾙ1
100
AcDbText
  0
INSERT
  5
139E
330
1A
100
AcDbEntity
  8
ZUWAKU
  6
Continuous
100
AcDbBlockReference
  2
*X9
 10
0.0
 20
0.0
 30
0.0
1001
ACAD
1000
HATCH
1002
{
1070
    19
1000
ANSI37
1040
0.2
1040
0.0
1000
R14_HATCH_DATA
1000
139E
1011
1.0
1021
0.0
1031
0.0
1011
0.0
1021
1.0
1031
0.0
1011
0.0
1021
0.0
1031
1.0
1040
0.0
1010
0.0
1020
0.0
1030
1.0
1000
ANSI37
1070
     0
1070
     0
1071
        8
1071
        7
1070
     1
1070
     1
1071
       24
1040
14.50226267467587
1040
17.64484834927226
1040
-0.1989123673796348
1040
14.09221216833714
1040
18.63479784293332
1040
0.0
1040
14.09221216833714
1040
19.92499986828869
1040
-0.4142135623730912
1040
14.61721216833712
1040
20.44999986828869
1040
0.0
1040
17.59221216833703
1040
20.44999986828869
1040
0.4142135623731546
1040
18.11721216833712
1040
20.97499986828868
1040
0.0
1040
18.11721216833712
1040
22.72499986828869
1040
0.4142135623731586
1040
17.59221216833703
1040
23.24999986828869
1040
0.0
1040
14.09221216833714
1040
23.24999986828869
1040
0.4142135623730928
1040
11.29221216833719
1040
20.44999986828871
1040
0.0
1040
11.29221216833719
1040
18.63479784293344
1040
0.1989123673796619
1040
12.52236368735362
1040
15.66494936194984
1040
0.0
1040
15.43216166199829
1040
12.75515138730518
1040
-0.1989123673796613
1040
15.84221216833714
1040
11.76520189364399
1040
0.0
1040
15.84221216833714
1040
10.47499986828867
1040
-0.4142135623730911
1040
15.31721216833716
1040
9.949999868288685
1040
0.0
1040
12.34221216833725
1040
9.949999868288685
1040
0.4142135623731526
1040
11.81721216833716
1040
9.424999868288697
1040
0.0
1040
11.81721216833716
1040
7.674999868288676
1040
0.4142135623731526
1040
12.34221216833725
1040
7.149999868288688
1040
0.0
1040
15.84221216833714
1040
7.149999868288688
1040
0.4142135623731044
1040
18.64221216833721
1040
9.949999868288664
1040
0.0
1040
18.64221216833721
1040
11.76520189364393
1040
0.1989123673796604
1040
17.41206064932066
1040
14.73505037462748
1040
0.0
1071
        0
1071
        7
1070
     1
1070
     1
1071
       16
1040
23.54221216833719
1040
19.04999986828869
1040
-0.4142135623730935
1040
24.94221216833717
1040
20.44999986828869
1040
0.0
1040
26.86721216833712
1040
20.44999986828869
1040
0.4142135623731546
1040
27.39221216833721
1040
20.97499986828868
1040
0.0
1040
27.39221216833721
1040
22.72499986828869
1040
0.4142135623730951
1040
26.86721216833723
1040
23.24999986828869
1040
0.0
1040
24.94221216833705
1040
23.24999986828865
1040
0.4142135623730892
1040
20.74221216833712
1040
19.04999986828862
1040
0.0
1040
20.74221216833712
1040
11.34999986828871
1040
0.4142135623730969
1040
24.94221216833717
1040
7.149999868288688
1040
0.0
1040
26.86721216833712
1040
7.149999868288688
1040
0.4142135623731526
1040
27.39221216833721
1040
7.674999868288676
1040
0.0
1040
27.39221216833721
1040
9.424999868288697
1040
0.4142135623730891
1040
26.86721216833723
1040
9.949999868288685
1040
0.0
1040
24.94221216833717
1040
9.949999868288685
1040
-0.4142135623730928
1040
23.54221216833719
1040
11.34999986828867
1040
0.0
1071
        0
1071
        7
1070
     1
1070
     1
1071
        2
1040
24.24221216833712
1040
15.19999986828868
1040
1.0
1040
27.74221216833712
1040
15.19999986828868
1040
1.0
1071
        0
1071
        7
1070
     1
1070
     1
1071
       26
1040
37.31485865051514
1040
19.20504706185211
1040
0.0
1040
38.37649828365295
1040
22.5669059001217
1040
0.5069206636600134
1040
37.87586738445759
1040
23.24999986828869
1040
0.0
1040
36.17697800484837
1040
23.24999986828869
1040
0.3272098845218764
1040
35.67634710565301
1040
22.88309383645566
1040
0.0
1040
33.80807723102123
1040
16.96690590012176
1040
-0.3272098845219541
1040
33.30744633182576
1040
16.59999986828868
1040
0.0
1040
33.1672121683373
1040
16.59999986828868
1040
-0.4142135623731526
1040
32.64221216833721
1040
17.12499986828867
1040
0.0
1040
32.64221216833721
1040
22.72499986828869
1040
0.4142135623730951
1040
32.11721216833723
1040
23.24999986828869
1040
0.0
1040
30.36721216833712
1040
23.24999986828869
1040
0.4142135623730871
1040
29.84221216833714
1040
22.7249998682887
1040
0.0
1040
29.84221216833714
1040
7.674999868288676
1040
0.4142135623730891
1040
30.36721216833712
1040
7.149999868288688
1040
0.0
1040
32.11721216833712
1040
7.149999868288688
1040
0.4142135623731526
1040
32.64221216833721
1040
7.674999868288676
1040
0.0
1040
32.64221216833721
1040
13.2749998682887
1040
-0.4142135623731526
1040
33.1672121683373
1040
13.79999986828869
1040
0.0
1040
33.30744633182587
1040
13.79999986828869
1040
-0.3272098845218915
1040
33.80807723102123
1040
13.43309383645561
1040
0.0
1040
35.67634710565301
1040
7.516905900121759
1040
0.3272098845218902
1040
36.17697800484837
1040
7.149999868288688
1040
0.0
1040
37.87586738445759
1040
7.149999868288688
1040
0.5069206636600335
1040
38.37649828365295
1040
7.833093836455695
1040
0.0
1040
36.05010690517929
1040
15.19999986828882
1040
0.0
1071
        0
1071
        7
1070
     1
1070
     1
1071
        8
1040
43.49221216833711
1040
22.7249998682887
1040
0.4142135623731546
1040
42.96721216833702
1040
23.24999986828869
1040
0.0
1040
41.21721216833726
1040
23.24999986828869
1040
0.4142135623731507
1040
40.69221216833716
1040
22.7249998682887
1040
0.0
1040
40.69221216833716
1040
7.674999868288676
1040
0.4142135623731526
1040
41.21721216833726
1040
7.149999868288688
1040
0.0
1040
42.96721216833702
1040
7.149999868288688
1040
0.4142135623731526
1040
43.49221216833711
1040
7.674999868288676
1040
0.0
1071
        0
1071
        7
1070
     1
1070
     1
1071
       24
1040
48.3922121683372
1040
19.92499986828869
1040
-0.4142135623731546
1040
48.9172121683373
1040
20.44999986828869
1040
0.0
1040
51.89221216833721
1040
20.44999986828869
1040
0.4142135623730911
1040
52.41721216833719
1040
20.97499986828868
1040
0.0
1040
52.41721216833719
1040
22.72499986828869
1040
0.4142135623730952
1040
51.89221216833721
1040
23.24999986828869
1040
0.0
1040
48.3922121683372
1040
23.24999986828869
1040
0.4142135623731048
1040
45.59221216833714
1040
20.44999986828871
1040
0.0
1040
45.59221216833714
1040
18.63479784293344
1040
0.1989123673796613
1040
46.82236368735368
1040
15.66494936194989
1040
0.0
1040
49.73216166199836
1040
12.75515138730522
1040
-0.1989123673796402
1040
50.14221216833721
1040
11.76520189364415
1040
0.0
1040
50.14221216833721
1040
10.47499986828867
1040
-0.4142135623730911
1040
49.61721216833723
1040
9.949999868288685
1040
0.0
1040
46.64221216833721
1040
9.949999868288685
1040
0.4142135623731526
1040
46.11721216833712
1040
9.424999868288697
1040
0.0
1040
46.11721216833712
1040
7.674999868288676
1040
0.4142135623730891
1040
46.64221216833709
1040
7.149999868288688
1040
0.0
1040
50.14221216833721
1040
7.149999868288688
1040
0.4142135623730925
1040
52.94221216833716
1040
9.949999868288664
1040
0.0
1040
52.94221216833716
1040
11.76520189364393
1040
0.1989123673796675
1040
51.71206064932062
1040
14.73505037462759
1040
0.0
1040
48.80226267467605
1040
17.6448483492721
1040
-0.1989123673796652
1040
48.3922121683372
1040
18.63479784293327
1040
0.0
1071
        0
1071
        7
1070
     1
1070
     1
1071
       16
1040
57.84221216833714
1040
22.72499986828868
1040
0.414213562373103
1040
57.31721216833716
1040
23.24999986828869
1040
0.0
1040
55.56721216833716
1040
23.24999986828869
1040
0.4142135623730871
1040
55.04221216833719
1040
22.7249998682887
1040
0.0
1040
55.04221216833719
1040
9.949999868288664
1040
0.4142135623730926
1040
57.84221216833714
1040
7.149999868288688
1040
0.0
1040
61.34221216833714
1040
7.149999868288688
1040
0.4142135623731044
1040
64.14221216833721
1040
9.949999868288664
1040
0.0
1040
64.14221216833721
1040
22.72499986828869
1040
0.4142135623730951
1040
63.61721216833723
1040
23.24999986828869
1040
0.0
1040
61.86721216833712
1040
23.24999986828869
1040
0.4142135623730871
1040
61.34221216833714
1040
22.7249998682887
1040
0.0
1040
61.34221216833714
1040
10.99999986828866
1040
-0.414213562373088
1040
60.29221216833718
1040
9.949999868288685
1040
0.0
1040
58.89221216833721
1040
9.949999868288685
1040
-0.4142135623731197
1040
57.84221216833714
1040
10.99999986828866
1040
0.0
1071
        0
1071
        7
1070
     1
1070
     1
1071
        8
1040
69.04221216833718
1040
22.7249998682887
1040
0.4142135623730871
1040
68.51721216833721
1040
23.24999986828869
1040
0.0
1040
66.76721216833721
1040
23.24999986828869
1040
0.4142135623731507
1040
66.24221216833712
1040
22.7249998682887
1040
0.0
1040
66.24221216833712
1040
7.674999868288676
1040
0.4142135623730891
1040
66.76721216833709
1040
7.149999868288688
1040
0.0
1040
68.51721216833721
1040
7.149999868288688
1040
0.4142135623730891
1040
69.04221216833718
1040
7.674999868288676
1040
0.0
1071
        0
1070
     0
1070
     1
1040
0.0
1040
0.2
1070
     0
1070
     2
1040
0.7853981633974483
1040
-900.942304321123
1040
-13.20000013171125
1040
-0.4490128060534576
1040
0.4490128060534577
1070
     0
1040
2.356194490192344
1040
-900.942304321123
1040
-13.20000013171125
1040
-0.4490128060534577
1040
-0.4490128060534576
1070
     0
1040
0.057451373970553
1071
        8
1040
16.07985497657933
1040
15.16717351417424
1040
0.0
1040
22.40451501999519
1040
18.84406205073969
1040
0.0
1040
25.16436789921568
1040
15.5118815143594
1040
0.0
1040
30.91405999519316
1040
16.20129751473018
1040
0.0
1040
41.83847203251275
1040
16.6609097822718
1040
0.0
1040
46.89820090868557
1040
19.41857618469589
1040
0.0
1040
56.55768598595637
1040
18.7291577833837
1040
0.0
1040
67.82707963317875
1040
19.18877005092531
1040
0.0
1002
}
  0
LINE
  5
139F
330
1A
100
AcDbEntity
  8
ZUWAKU
100
AcDbLine
 10
24.94221216833717
 20
23.24999986828865
 30
0.0
 11
26.86721216833712
 21
23.24999986828869
 31
0.0
  0
LINE
  5
13A0
330
1A
100
AcDbEntity
  8
ZUWAKU
100
AcDbLine
 10
26.86721216833712
 20
20.44999986828869
 30
0.0
 11
24.94221216833717
 21
20.44999986828869
 31
0.0
  0
LINE
  5
13A1
330
1A
100
AcDbEntity
  8
ZUWAKU
100
AcDbLine
 10
24.94221216833717
 20
9.949999868288685
 30
0.0
 11
26.86721216833712
 21
9.949999868288685
 31
0.0
  0
LINE
  5
13A2
330
1A
100
AcDbEntity
  8
ZUWAKU
100
AcDbLine
 10
26.86721216833712
 20
7.149999868288688
 30
0.0
 11
24.94221216833717
 21
7.149999868288688
 31
0.0
  0
CIRCLE
  5
13A3
330
1A
100
AcDbEntity
  8
ZUWAKU
100
AcDbCircle
 10
25.99221216833712
 20
15.19999986828868
 30
0.0
 40
1.75
  0
ARC
  5
13A4
330
1A
100
AcDbEntity
  8
ZUWAKU
100
AcDbCircle
 10
15.49221216833712
 20
18.63479784293339
 30
0.0
 40
1.399999999999999
100
AcDbArc
 50
180.0000000000016
 51
224.9999999999988
  0
LINE
  5
13A5
330
1A
100
AcDbEntity
  8
ZUWAKU
100
AcDbLine
 10
23.54221216833719
 20
19.04999986828869
 30
0.0
 11
23.54221216833719
 21
11.34999986828869
 31
0.0
  0
LINE
  5
13A6
330
1A
100
AcDbEntity
  8
ZUWAKU
100
AcDbLine
 10
20.74221216833712
 20
11.34999986828869
 30
0.0
 11
20.74221216833712
 21
19.04999986828864
 31
0.0
  0
ARC
  5
13A7
330
1A
100
AcDbEntity
  8
ZUWAKU
100
AcDbCircle
 10
15.49221216833712
 20
18.63479784293339
 30
0.0
 40
4.199999999999999
100
AcDbArc
 50
180.0
 51
225.0
  0
ARC
  5
13A8
330
1A
100
AcDbEntity
  8
ZUWAKU
100
AcDbCircle
 10
15.84221216833714
 20
9.949999868288685
 30
0.0
 40
2.799999999999999
100
AcDbArc
 50
270.0
 51
0.0
  0
ARC
  5
13A9
330
1A
100
AcDbEntity
  8
ZUWAKU
100
AcDbCircle
 10
24.94221216833717
 20
11.34999986828869
 30
0.0
 40
4.199999999999999
100
AcDbArc
 50
180.0
 51
270.0
  0
ARC
  5
13AA
330
1A
100
AcDbEntity
  8
ZUWAKU
100
AcDbCircle
 10
14.44221216833716
 20
11.76520189364399
 30
0.0
 40
4.199999999999999
100
AcDbArc
 50
0.0
 51
45.0
  0
LINE
  5
13AB
330
1A
100
AcDbEntity
  8
ZUWAKU
100
AcDbLine
 10
17.41206064932066
 20
14.73505037462751
 30
0.0
 11
14.50226267467599
 21
17.64484834927219
 31
0.0
  0
LINE
  5
13AC
330
1A
100
AcDbEntity
  8
ZUWAKU
100
AcDbLine
 10
15.84221216833714
 20
10.47499986828869
 30
0.0
 11
15.84221216833714
 21
11.76520189364403
 31
0.0
  0
ARC
  5
13AD
330
1A
100
AcDbEntity
  8
ZUWAKU
100
AcDbCircle
 10
15.31721216833716
 20
10.47499986828869
 30
0.0
 40
0.525
100
AcDbArc
 50
270.0
 51
0.0
  0
ARC
  5
13AE
330
1A
100
AcDbEntity
  8
ZUWAKU
100
AcDbCircle
 10
14.44221216833716
 20
11.76520189364403
 30
0.0
 40
1.399999999999999
100
AcDbArc
 50
0.0
 51
45.0
  0
LINE
  5
13AF
330
1A
100
AcDbEntity
  8
ZUWAKU
100
AcDbLine
 10
11.81721216833716
 20
7.674999868288686
 30
0.0
 11
11.81721216833716
 21
9.424999868288686
 31
0.0
  0
ARC
  5
13B0
330
1A
100
AcDbEntity
  8
ZUWAKU
100
AcDbCircle
 10
12.34221216833714
 20
7.674999868288686
 30
0.0
 40
0.525
100
AcDbArc
 50
180.0
 51
270.0
  0
ARC
  5
13B1
330
1A
100
AcDbEntity
  8
ZUWAKU
100
AcDbCircle
 10
12.34221216833714
 20
9.424999868288686
 30
0.0
 40
0.525
100
AcDbArc
 50
90.0
 51
180.0
  0
LINE
  5
13B2
330
1A
100
AcDbEntity
  8
ZUWAKU
100
AcDbLine
 10
12.34221216833714
 20
7.149999868288688
 30
0.0
 11
15.84221216833714
 21
7.149999868288688
 31
0.0
  0
LINE
  5
13B3
330
1A
100
AcDbEntity
  8
ZUWAKU
100
AcDbLine
 10
12.34221216833714
 20
9.949999868288685
 30
0.0
 11
15.31721216833716
 21
9.949999868288685
 31
0.0
  0
LINE
  5
13B4
330
1A
100
AcDbEntity
  8
ZUWAKU
100
AcDbLine
 10
12.52236368735362
 20
15.66494936194986
 30
0.0
 11
15.43216166199829
 21
12.7551513873052
 31
0.0
  0
LINE
  5
13B5
330
1A
100
AcDbEntity
  8
ZUWAKU
100
AcDbLine
 10
18.64221216833721
 20
9.949999868288685
 30
0.0
 11
18.64221216833721
 21
11.76520189364403
 31
0.0
  0
ARC
  5
13B6
330
1A
100
AcDbEntity
  8
ZUWAKU
100
AcDbCircle
 10
24.94221216833717
 20
11.34999986828869
 30
0.0
 40
1.399999999999999
100
AcDbArc
 50
180.0
 51
270.0
  0
ARC
  5
13B7
330
1A
100
AcDbEntity
  8
ZUWAKU
100
AcDbCircle
 10
17.59221216833714
 20
22.72499986828869
 30
0.0
 40
0.525
100
AcDbArc
 50
0.0
 51
90.0
  0
ARC
  5
13B8
330
1A
100
AcDbEntity
  8
ZUWAKU
100
AcDbCircle
 10
17.59221216833714
 20
20.97499986828868
 30
0.0
 40
0.525
100
AcDbArc
 50
270.0
 51
0.0
  0
LINE
  5
13B9
330
1A
100
AcDbEntity
  8
ZUWAKU
100
AcDbLine
 10
14.09221216833714
 20
23.24999986828869
 30
0.0
 11
17.59221216833714
 21
23.24999986828869
 31
0.0
  0
ARC
  5
13BA
330
1A
100
AcDbEntity
  8
ZUWAKU
100
AcDbCircle
 10
14.61721216833712
 20
19.92499986828869
 30
0.0
 40
0.525
100
AcDbArc
 50
90.0
 51
180.0
  0
LINE
  5
13BB
330
1A
100
AcDbEntity
  8
ZUWAKU
100
AcDbLine
 10
14.09221216833714
 20
19.92499986828869
 30
0.0
 11
14.09221216833714
 21
18.63479784293334
 31
0.0
  0
LINE
  5
13BC
330
1A
100
AcDbEntity
  8
ZUWAKU
100
AcDbLine
 10
17.59221216833714
 20
20.44999986828869
 30
0.0
 11
14.61721216833712
 21
20.44999986828869
 31
0.0
  0
LINE
  5
13BD
330
1A
100
AcDbEntity
  8
ZUWAKU
100
AcDbLine
 10
11.29221216833719
 20
20.44999986828869
 30
0.0
 11
11.29221216833719
 21
18.63479784293334
 31
0.0
  0
ARC
  5
13BE
330
1A
100
AcDbEntity
  8
ZUWAKU
100
AcDbCircle
 10
14.09221216833714
 20
20.44999986828869
 30
0.0
 40
2.799999999999999
100
AcDbArc
 50
90.0
 51
180.0
  0
LINE
  5
13BF
330
1A
100
AcDbEntity
  8
ZUWAKU
100
AcDbLine
 10
18.11721216833712
 20
22.72499986828869
 30
0.0
 11
18.11721216833712
 21
20.97499986828868
 31
0.0
  0
ARC
  5
13C0
330
1A
100
AcDbEntity
  8
ZUWAKU
100
AcDbCircle
 10
24.94221216833717
 20
19.04999986828869
 30
0.0
 40
1.399999999999999
100
AcDbArc
 50
90.0
 51
180.0
  0
ARC
  5
13C1
330
1A
100
AcDbEntity
  8
ZUWAKU
100
AcDbCircle
 10
24.94221216833717
 20
19.04999986828864
 30
0.0
 40
4.199999999999999
100
AcDbArc
 50
90.0
 51
180.0
  0
LINE
  5
13C2
330
1A
100
AcDbEntity
  8
ZUWAKU
100
AcDbLine
 10
79.32662956154422
 20
29.99999986828868
 30
0.0
 11
79.32662956154445
 21
0.7999998682887508
 31
0.0
  0
LINE
  5
13C3
330
1A
100
AcDbEntity
  8
ZUWAKU
100
AcDbLine
 10
79.52662956154426
 20
29.99999986828868
 30
0.0
 11
79.52662956154449
 21
0.7999998682887508
 31
0.0
  0
LINE
  5
13C4
330
1A
100
AcDbEntity
  8
ZUWAKU
100
AcDbLine
 10
79.12662956154441
 20
29.99999986828868
 30
0.0
 11
79.12662956154441
 21
0.7999998682887508
 31
0.0
  0
LINE
  5
13C5
330
1A
100
AcDbEntity
  8
ZUWAKU
100
AcDbLine
 10
64.14221216833721
 20
9.949999868288685
 30
0.0
 11
64.14221216833721
 21
22.72499986828869
 31
0.0
  0
LINE
  5
13C6
330
1A
100
AcDbEntity
  8
ZUWAKU
100
AcDbLine
 10
61.34221216833714
 20
22.72499986828869
 30
0.0
 11
61.34221216833714
 21
10.99999986828868
 31
0.0
  0
LINE
  5
13C7
330
1A
100
AcDbEntity
  8
ZUWAKU
100
AcDbLine
 10
69.04221216833718
 20
7.674999868288686
 30
0.0
 11
69.04221216833718
 21
22.72499986828869
 31
0.0
  0
LINE
  5
13C8
330
1A
100
AcDbEntity
  8
ZUWAKU
100
AcDbLine
 10
66.24221216833712
 20
22.72499986828869
 30
0.0
 11
66.24221216833712
 21
7.674999868288686
 31
0.0
  0
ARC
  5
13C9
330
1A
100
AcDbEntity
  8
ZUWAKU
100
AcDbCircle
 10
49.79221216833718
 20
18.63479784293339
 30
0.0
 40
1.399999999999999
100
AcDbArc
 50
180.0000000000016
 51
224.9999999999988
  0
ARC
  5
13CA
330
1A
100
AcDbEntity
  8
ZUWAKU
100
AcDbCircle
 10
49.79221216833718
 20
18.63479784293339
 30
0.0
 40
4.199999999999999
100
AcDbArc
 50
180.0
 51
225.0
  0
LINE
  5
13CB
330
1A
100
AcDbEntity
  8
ZUWAKU
100
AcDbLine
 10
37.31485865051514
 20
19.20504706185211
 30
0.0
 11
36.05010690517929
 21
15.1999998682887
 31
0.0
  0
LINE
  5
13CC
330
1A
100
AcDbEntity
  8
ZUWAKU
100
AcDbLine
 10
40.69221216833716
 20
22.72499986828869
 30
0.0
 11
40.69221216833716
 21
7.674999868288686
 31
0.0
  0
LINE
  5
13CD
330
1A
100
AcDbEntity
  8
ZUWAKU
100
AcDbLine
 10
43.49221216833711
 20
7.674999868288686
 30
0.0
 11
43.49221216833711
 21
22.72499986828869
 31
0.0
  0
LINE
  5
13CE
330
1A
100
AcDbEntity
  8
ZUWAKU
100
AcDbLine
 10
55.04221216833719
 20
22.72499986828869
 30
0.0
 11
55.04221216833719
 21
9.949999868288685
 31
0.0
  0
LINE
  5
13CF
330
1A
100
AcDbEntity
  8
ZUWAKU
100
AcDbLine
 10
57.84221216833714
 20
10.99999986828868
 30
0.0
 11
57.84221216833714
 21
22.72499986828869
 31
0.0
  0
LINE
  5
13D0
330
1A
100
AcDbEntity
  8
ZUWAKU
100
AcDbLine
 10
32.64221216833721
 20
17.12499986828869
 30
0.0
 11
32.64221216833721
 21
22.72499986828869
 31
0.0
  0
LINE
  5
13D1
330
1A
100
AcDbEntity
  8
ZUWAKU
100
AcDbLine
 10
29.84221216833714
 20
22.72499986828869
 30
0.0
 11
29.84221216833714
 21
7.674999868288686
 31
0.0
  0
LINE
  5
13D2
330
1A
100
AcDbEntity
  8
ZUWAKU
100
AcDbLine
 10
35.67634710565301
 20
22.88309383645566
 30
0.0
 11
33.80807723102123
 21
16.96690590012171
 31
0.0
  0
LINE
  5
13D3
330
1A
100
AcDbEntity
  8
ZUWAKU
100
AcDbLine
 10
60.29221216833718
 20
9.949999868288685
 30
0.0
 11
58.89221216833721
 21
9.949999868288685
 31
0.0
  0
LINE
  5
13D4
330
1A
100
AcDbEntity
  8
ZUWAKU
100
AcDbLine
 10
57.84221216833714
 20
7.149999868288688
 30
0.0
 11
61.34221216833714
 21
7.149999868288688
 31
0.0
  0
LINE
  5
13D5
330
1A
100
AcDbEntity
  8
ZUWAKU
100
AcDbLine
 10
41.21721216833714
 20
7.149999868288688
 30
0.0
 11
42.96721216833714
 21
7.149999868288688
 31
0.0
  0
LINE
  5
13D6
330
1A
100
AcDbEntity
  8
ZUWAKU
100
AcDbLine
 10
35.67634710565301
 20
7.516905900121713
 30
0.0
 11
33.80807723102123
 21
13.43309383645565
 31
0.0
  0
ARC
  5
13D7
330
1A
100
AcDbEntity
  8
ZUWAKU
100
AcDbCircle
 10
33.30744633182587
 20
17.12499986828869
 30
0.0
 40
0.525
100
AcDbArc
 50
270.0
 51
342.474431626277
  0
LINE
  5
13D8
330
1A
100
AcDbEntity
  8
ZUWAKU
100
AcDbLine
 10
33.30744633182587
 20
16.59999986828868
 30
0.0
 11
33.16721216833719
 21
16.59999986828868
 31
0.0
  0
LINE
  5
13D9
330
1A
100
AcDbEntity
  8
ZUWAKU
100
AcDbLine
 10
33.16721216833719
 20
13.79999986828869
 30
0.0
 11
33.30744633182587
 21
13.79999986828869
 31
0.0
  0
ARC
  5
13DA
330
1A
100
AcDbEntity
  8
ZUWAKU
100
AcDbCircle
 10
33.16721216833719
 20
17.12499986828869
 30
0.0
 40
0.525
100
AcDbArc
 50
180.0
 51
270.0
  0
LINE
  5
13DB
330
1A
100
AcDbEntity
  8
ZUWAKU
100
AcDbLine
 10
30.36721216833712
 20
7.149999868288688
 30
0.0
 11
32.11721216833712
 21
7.149999868288688
 31
0.0
  0
ARC
  5
13DC
330
1A
100
AcDbEntity
  8
ZUWAKU
100
AcDbCircle
 10
32.11721216833712
 20
7.674999868288686
 30
0.0
 40
0.525
100
AcDbArc
 50
270.0
 51
0.0
  0
LINE
  5
13DD
330
1A
100
AcDbEntity
  8
ZUWAKU
100
AcDbLine
 10
32.64221216833721
 20
7.674999868288686
 30
0.0
 11
32.64221216833721
 21
13.27499986828869
 31
0.0
  0
LINE
  5
13DE
330
1A
100
AcDbEntity
  8
ZUWAKU
100
AcDbLine
 10
27.39221216833721
 20
9.424999868288686
 30
0.0
 11
27.39221216833721
 21
7.674999868288686
 31
0.0
  0
ARC
  5
13DF
330
1A
100
AcDbEntity
  8
ZUWAKU
100
AcDbCircle
 10
26.86721216833712
 20
7.674999868288686
 30
0.0
 40
0.525
100
AcDbArc
 50
270.0
 51
0.0
  0
ARC
  5
13E0
330
1A
100
AcDbEntity
  8
ZUWAKU
100
AcDbCircle
 10
26.86721216833712
 20
9.424999868288686
 30
0.0
 40
0.525
100
AcDbArc
 50
0.0
 51
90.0
  0
ARC
  5
13E1
330
1A
100
AcDbEntity
  8
ZUWAKU
100
AcDbCircle
 10
30.36721216833712
 20
7.674999868288686
 30
0.0
 40
0.525
100
AcDbArc
 50
180.0
 51
270.0
  0
ARC
  5
13E2
330
1A
100
AcDbEntity
  8
ZUWAKU
100
AcDbCircle
 10
33.30744633182587
 20
13.27499986828869
 30
0.0
 40
0.525
100
AcDbArc
 50
17.52556837372303
 51
90.0
  0
ARC
  5
13E3
330
1A
100
AcDbEntity
  8
ZUWAKU
100
AcDbCircle
 10
33.16721216833719
 20
13.27499986828869
 30
0.0
 40
0.525
100
AcDbArc
 50
90.0
 51
180.0
  0
ARC
  5
13E4
330
1A
100
AcDbEntity
  8
ZUWAKU
100
AcDbCircle
 10
41.21721216833714
 20
7.674999868288686
 30
0.0
 40
0.525
100
AcDbArc
 50
180.0
 51
270.0
  0
LINE
  5
13E5
330
1A
100
AcDbEntity
  8
ZUWAKU
100
AcDbLine
 10
36.17697800484848
 20
7.149999868288688
 30
0.0
 11
37.87586738445748
 21
7.149999868288688
 31
0.0
  0
ARC
  5
13E6
330
1A
100
AcDbEntity
  8
ZUWAKU
100
AcDbCircle
 10
37.87586738445748
 20
7.674999868288686
 30
0.0
 40
0.525
100
AcDbArc
 50
270.0
 51
17.52556837372303
  0
LINE
  5
13E7
330
1A
100
AcDbEntity
  8
ZUWAKU
100
AcDbLine
 10
38.37649828365295
 20
7.83309383645566
 30
0.0
 11
36.05010690517929
 21
15.1999998682887
 31
0.0
  0
ARC
  5
13E8
330
1A
100
AcDbEntity
  8
ZUWAKU
100
AcDbCircle
 10
36.17697800484848
 20
7.674999868288686
 30
0.0
 40
0.525
100
AcDbArc
 50
197.525568373723
 51
270.0
  0
ARC
  5
13E9
330
1A
100
AcDbEntity
  8
ZUWAKU
100
AcDbCircle
 10
57.84221216833714
 20
9.949999868288685
 30
0.0
 40
2.799999999999999
100
AcDbArc
 50
180.0
 51
270.0
  0
ARC
  5
13EA
330
1A
100
AcDbEntity
  8
ZUWAKU
100
AcDbCircle
 10
50.14221216833721
 20
9.949999868288685
 30
0.0
 40
2.799999999999999
100
AcDbArc
 50
270.0
 51
0.0
  0
LINE
  5
13EB
330
1A
100
AcDbEntity
  8
ZUWAKU
100
AcDbLine
 10
51.71206064932073
 20
14.73505037462751
 30
0.0
 11
48.80226267467595
 21
17.64484834927219
 31
0.0
  0
LINE
  5
13EC
330
1A
100
AcDbEntity
  8
ZUWAKU
100
AcDbLine
 10
50.14221216833721
 20
10.47499986828869
 30
0.0
 11
50.14221216833721
 21
11.76520189364403
 31
0.0
  0
ARC
  5
13ED
330
1A
100
AcDbEntity
  8
ZUWAKU
100
AcDbCircle
 10
48.74221216833712
 20
11.76520189364403
 30
0.0
 40
1.399999999999999
100
AcDbArc
 50
0.0
 51
45.0
  0
ARC
  5
13EE
330
1A
100
AcDbEntity
  8
ZUWAKU
100
AcDbCircle
 10
49.61721216833712
 20
10.47499986828869
 30
0.0
 40
0.525
100
AcDbArc
 50
270.0
 51
0.0
  0
LINE
  5
13EF
330
1A
100
AcDbEntity
  8
ZUWAKU
100
AcDbLine
 10
46.11721216833712
 20
7.674999868288686
 30
0.0
 11
46.11721216833712
 21
9.424999868288686
 31
0.0
  0
ARC
  5
13F0
330
1A
100
AcDbEntity
  8
ZUWAKU
100
AcDbCircle
 10
46.64221216833721
 20
7.674999868288686
 30
0.0
 40
0.525
100
AcDbArc
 50
180.0
 51
270.0
  0
ARC
  5
13F1
330
1A
100
AcDbEntity
  8
ZUWAKU
100
AcDbCircle
 10
42.96721216833714
 20
7.674999868288686
 30
0.0
 40
0.525
100
AcDbArc
 50
270.0
 51
0.0
  0
ARC
  5
13F2
330
1A
100
AcDbEntity
  8
ZUWAKU
100
AcDbCircle
 10
46.64221216833721
 20
9.424999868288686
 30
0.0
 40
0.525
100
AcDbArc
 50
90.0
 51
180.0
  0
LINE
  5
13F3
330
1A
100
AcDbEntity
  8
ZUWAKU
100
AcDbLine
 10
46.64221216833721
 20
9.949999868288685
 30
0.0
 11
49.61721216833712
 21
9.949999868288685
 31
0.0
  0
LINE
  5
13F4
330
1A
100
AcDbEntity
  8
ZUWAKU
100
AcDbLine
 10
46.64221216833721
 20
7.149999868288688
 30
0.0
 11
50.14221216833721
 21
7.149999868288688
 31
0.0
  0
LINE
  5
13F5
330
1A
100
AcDbEntity
  8
ZUWAKU
100
AcDbLine
 10
46.82236368735368
 20
15.66494936194986
 30
0.0
 11
49.73216166199836
 21
12.7551513873052
 31
0.0
  0
LINE
  5
13F6
330
1A
100
AcDbEntity
  8
ZUWAKU
100
AcDbLine
 10
52.94221216833716
 20
9.949999868288685
 30
0.0
 11
52.94221216833716
 21
11.76520189364403
 31
0.0
  0
ARC
  5
13F7
330
1A
100
AcDbEntity
  8
ZUWAKU
100
AcDbCircle
 10
48.74221216833712
 20
11.76520189364399
 30
0.0
 40
4.199999999999999
100
AcDbArc
 50
0.0
 51
45.0
  0
ARC
  5
13F8
330
1A
100
AcDbEntity
  8
ZUWAKU
100
AcDbCircle
 10
58.89221216833721
 20
10.99999986828868
 30
0.0
 40
1.049999999999999
100
AcDbArc
 50
180.0
 51
270.0
  0
ARC
  5
13F9
330
1A
100
AcDbEntity
  8
ZUWAKU
100
AcDbCircle
 10
61.34221216833714
 20
9.949999868288685
 30
0.0
 40
2.799999999999999
100
AcDbArc
 50
270.0
 51
0.0
  0
LINE
  5
13FA
330
1A
100
AcDbEntity
  8
ZUWAKU
100
AcDbLine
 10
66.76721216833721
 20
7.149999868288688
 30
0.0
 11
68.51721216833721
 21
7.149999868288688
 31
0.0
  0
ARC
  5
13FB
330
1A
100
AcDbEntity
  8
ZUWAKU
100
AcDbCircle
 10
66.76721216833721
 20
7.674999868288686
 30
0.0
 40
0.525
100
AcDbArc
 50
180.0
 51
270.0
  0
ARC
  5
13FC
330
1A
100
AcDbEntity
  8
ZUWAKU
100
AcDbCircle
 10
60.29221216833718
 20
10.99999986828868
 30
0.0
 40
1.049999999999999
100
AcDbArc
 50
270.0
 51
0.0
  0
ARC
  5
13FD
330
1A
100
AcDbEntity
  8
ZUWAKU
100
AcDbCircle
 10
68.51721216833721
 20
7.674999868288686
 30
0.0
 40
0.525
100
AcDbArc
 50
270.0
 51
0.0
  0
LINE
  5
13FE
330
1A
100
AcDbEntity
  8
ZUWAKU
100
AcDbLine
 10
42.96721216833714
 20
23.24999986828869
 30
0.0
 11
41.21721216833714
 21
23.24999986828869
 31
0.0
  0
ARC
  5
13FF
330
1A
100
AcDbEntity
  8
ZUWAKU
100
AcDbCircle
 10
32.11721216833712
 20
22.72499986828869
 30
0.0
 40
0.525
100
AcDbArc
 50
0.0
 51
90.0
  0
LINE
  5
1400
330
1A
100
AcDbEntity
  8
ZUWAKU
100
AcDbLine
 10
32.11721216833712
 20
23.24999986828869
 30
0.0
 11
30.36721216833712
 21
23.24999986828869
 31
0.0
  0
ARC
  5
1401
330
1A
100
AcDbEntity
  8
ZUWAKU
100
AcDbCircle
 10
26.86721216833712
 20
22.72499986828869
 30
0.0
 40
0.525
100
AcDbArc
 50
0.0
 51
90.0
  0
ARC
  5
1402
330
1A
100
AcDbEntity
  8
ZUWAKU
100
AcDbCircle
 10
30.36721216833712
 20
22.72499986828869
 30
0.0
 40
0.525
100
AcDbArc
 50
90.0
 51
180.0
  0
ARC
  5
1403
330
1A
100
AcDbEntity
  8
ZUWAKU
100
AcDbCircle
 10
26.86721216833712
 20
20.97499986828868
 30
0.0
 40
0.525
100
AcDbArc
 50
270.0
 51
0.0
  0
LINE
  5
1404
330
1A
100
AcDbEntity
  8
ZUWAKU
100
AcDbLine
 10
27.39221216833721
 20
22.72499986828869
 30
0.0
 11
27.39221216833721
 21
20.97499986828868
 31
0.0
  0
ARC
  5
1405
330
1A
100
AcDbEntity
  8
ZUWAKU
100
AcDbCircle
 10
41.21721216833714
 20
22.72499986828869
 30
0.0
 40
0.525
100
AcDbArc
 50
90.0
 51
180.0
  0
LINE
  5
1406
330
1A
100
AcDbEntity
  8
ZUWAKU
100
AcDbLine
 10
36.17697800484848
 20
23.24999986828869
 30
0.0
 11
37.87586738445748
 21
23.24999986828869
 31
0.0
  0
ARC
  5
1407
330
1A
100
AcDbEntity
  8
ZUWAKU
100
AcDbCircle
 10
37.87586738445748
 20
22.72499986828869
 30
0.0
 40
0.525
100
AcDbArc
 50
342.474431626277
 51
90.0
  0
LINE
  5
1408
330
1A
100
AcDbEntity
  8
ZUWAKU
100
AcDbLine
 10
38.37649828365295
 20
22.56690590012172
 30
0.0
 11
37.31485865051514
 21
19.20504706185211
 31
0.0
  0
ARC
  5
1409
330
1A
100
AcDbEntity
  8
ZUWAKU
100
AcDbCircle
 10
36.17697800484848
 20
22.72499986828869
 30
0.0
 40
0.525
100
AcDbArc
 50
90.0
 51
162.474431626277
  0
LINE
  5
140A
330
1A
100
AcDbEntity
  8
ZUWAKU
100
AcDbLine
 10
48.3922121683372
 20
23.24999986828869
 30
0.0
 11
51.89221216833721
 21
23.24999986828869
 31
0.0
  0
LINE
  5
140B
330
1A
100
AcDbEntity
  8
ZUWAKU
100
AcDbLine
 10
51.89221216833721
 20
20.44999986828869
 30
0.0
 11
48.91721216833719
 21
20.44999986828869
 31
0.0
  0
ARC
  5
140C
330
1A
100
AcDbEntity
  8
ZUWAKU
100
AcDbCircle
 10
48.91721216833719
 20
19.92499986828869
 30
0.0
 40
0.525
100
AcDbArc
 50
90.0
 51
180.0
  0
LINE
  5
140D
330
1A
100
AcDbEntity
  8
ZUWAKU
100
AcDbLine
 10
48.3922121683372
 20
19.92499986828869
 30
0.0
 11
48.3922121683372
 21
18.63479784293334
 31
0.0
  0
ARC
  5
140E
330
1A
100
AcDbEntity
  8
ZUWAKU
100
AcDbCircle
 10
42.96721216833714
 20
22.72499986828869
 30
0.0
 40
0.525
100
AcDbArc
 50
0.0
 51
90.0
  0
LINE
  5
140F
330
1A
100
AcDbEntity
  8
ZUWAKU
100
AcDbLine
 10
45.59221216833714
 20
20.44999986828869
 30
0.0
 11
45.59221216833714
 21
18.63479784293334
 31
0.0
  0
ARC
  5
1410
330
1A
100
AcDbEntity
  8
ZUWAKU
100
AcDbCircle
 10
48.3922121683372
 20
20.44999986828869
 30
0.0
 40
2.799999999999999
100
AcDbArc
 50
90.0
 51
180.0
  0
ARC
  5
1411
330
1A
100
AcDbEntity
  8
ZUWAKU
100
AcDbCircle
 10
57.31721216833716
 20
22.72499986828869
 30
0.0
 40
0.525
100
AcDbArc
 50
0.0
 51
90.0
  0
ARC
  5
1412
330
1A
100
AcDbEntity
  8
ZUWAKU
100
AcDbCircle
 10
55.56721216833716
 20
22.72499986828869
 30
0.0
 40
0.525
100
AcDbArc
 50
90.0
 51
180.0
  0
LINE
  5
1413
330
1A
100
AcDbEntity
  8
ZUWAKU
100
AcDbLine
 10
57.31721216833716
 20
23.24999986828869
 30
0.0
 11
55.56721216833716
 21
23.24999986828869
 31
0.0
  0
ARC
  5
1414
330
1A
100
AcDbEntity
  8
ZUWAKU
100
AcDbCircle
 10
51.89221216833721
 20
22.72499986828869
 30
0.0
 40
0.525
100
AcDbArc
 50
0.0
 51
90.0
  0
ARC
  5
1415
330
1A
100
AcDbEntity
  8
ZUWAKU
100
AcDbCircle
 10
51.89221216833721
 20
20.97499986828868
 30
0.0
 40
0.525
100
AcDbArc
 50
270.0
 51
0.0
  0
LINE
  5
1416
330
1A
100
AcDbEntity
  8
ZUWAKU
100
AcDbLine
 10
52.41721216833719
 20
22.72499986828869
 30
0.0
 11
52.41721216833719
 21
20.97499986828868
 31
0.0
  0
LINE
  5
1417
330
1A
100
AcDbEntity
  8
ZUWAKU
100
AcDbLine
 10
68.51721216833721
 20
23.24999986828869
 30
0.0
 11
66.76721216833721
 21
23.24999986828869
 31
0.0
  0
ARC
  5
1418
330
1A
100
AcDbEntity
  8
ZUWAKU
100
AcDbCircle
 10
66.76721216833721
 20
22.72499986828869
 30
0.0
 40
0.525
100
AcDbArc
 50
90.0
 51
180.0
  0
ARC
  5
1419
330
1A
100
AcDbEntity
  8
ZUWAKU
100
AcDbCircle
 10
63.61721216833712
 20
22.72499986828869
 30
0.0
 40
0.525
100
AcDbArc
 50
0.0
 51
90.0
  0
LINE
  5
141A
330
1A
100
AcDbEntity
  8
ZUWAKU
100
AcDbLine
 10
63.61721216833712
 20
23.24999986828869
 30
0.0
 11
61.86721216833712
 21
23.24999986828869
 31
0.0
  0
ARC
  5
141B
330
1A
100
AcDbEntity
  8
ZUWAKU
100
AcDbCircle
 10
61.86721216833712
 20
22.72499986828869
 30
0.0
 40
0.525
100
AcDbArc
 50
90.0
 51
180.0
  0
ARC
  5
141C
330
1A
100
AcDbEntity
  8
ZUWAKU
100
AcDbCircle
 10
68.51721216833721
 20
22.72499986828869
 30
0.0
 40
0.525
100
AcDbArc
 50
0.0
 51
90.0
  0
TEXT
  5
141D
330
1A
100
AcDbEntity
  8
moji
100
AcDbText
 10
239.8272026944071
 20
18.00492092569607
 30
0.0
 40
5.599999999999999
  1
曲り
 41
0.9
  7
ｽﾀｲﾙ1
100
AcDbText
  0
TEXT
  5
141E
330
1A
100
AcDbEntity
  8
moji
100
AcDbText
 10
239.8272026944071
 20
3.204920925696104
 30
0.0
 40
5.599999999999999
  1
Ｘ７０Ｕ
 41
0.9
  7
ｽﾀｲﾙ1
100
AcDbText
  0
LINE
  5
141F
330
1A
100
AcDbEntity
  8
ZUWAKU
100
AcDbLine
 10
208.2466013036239
 20
29.99999986828868
 30
0.0
 11
208.2466013036239
 21
0.7999998682887508
 31
0.0
  0
LINE
  5
1420
330
1A
100
AcDbEntity
  8
ZUWAKU
100
AcDbLine
 10
208.6466013036238
 20
29.99999986828868
 30
0.0
 11
208.646601303624
 21
0.7999998682887508
 31
0.0
  0
LINE
  5
1421
330
1A
100
AcDbEntity
  8
ZUWAKU
100
AcDbLine
 10
208.4466013036238
 20
29.99999986828868
 30
0.0
 11
208.446601303624
 21
0.7999998682887508
 31
0.0
  0
TEXT
  5
1422
330
1A
100
AcDbEntity
  8
ZUWAKU
100
AcDbText
 10
209.7240463258336
 20
9.6553564066743
 30
0.0
 40
4.0
  1
サイズ
 41
0.9
  7
ｽﾀｲﾙ1
100
AcDbText
  0
TEXT
  5
1423
330
1A
100
AcDbEntity
  8
ZUWAKU
100
AcDbText
 10
209.7240463258333
 20
24.05535640667427
 30
0.0
 40
4.0
  1
品名
 41
0.9
  7
ｽﾀｲﾙ1
100
AcDbText
  0
LINE
  5
1424
330
1A
100
AcDbEntity
  8
ZUWAKU
100
AcDbLine
 10
648.8172025237602
 20
15.19999986828871
 30
0.0
 11
697.2490105620972
 21
15.19999986828872
 31
0.0
  0
LINE
  5
1425
330
1A
100
AcDbEntity
  8
ZUWAKU
100
AcDbLine
 10
648.8172025237604
 20
15.39999986828872
 30
0.0
 11
697.2490105620972
 21
15.39999986828872
 31
0.0
  0
LINE
  5
1426
330
1A
100
AcDbEntity
  8
ZUWAKU
100
AcDbLine
 10
648.8172025237602
 20
15.59999986828871
 30
0.0
 11
697.2490105620972
 21
15.59999986828871
 31
0.0
  0
TEXT
  5
1427
330
1A
100
AcDbEntity
  8
ZUWAKU
100
AcDbText
 10
658.2039377008584
 20
18.00492092569607
 30
0.0
 40
5.599999999999999
  1
　　．　　．　　
 41
0.9
  7
ｽﾀｲﾙ1
100
AcDbText
  0
LINE
  5
1428
330
1A
100
AcDbEntity
  8
ZUWAKU
100
AcDbLine
 10
505.1991795116968
 20
15.19999986828872
 30
0.0
 11
552.5269557796685
 21
15.19999986828872
 31
0.0
  0
LINE
  5
1429
330
1A
100
AcDbEntity
  8
ZUWAKU
100
AcDbLine
 10
505.1991795116968
 20
15.39999986828872
 30
0.0
 11
552.5269557796685
 21
15.39999986828872
 31
0.0
  0
LINE
  5
142A
330
1A
100
AcDbEntity
  8
ZUWAKU
100
AcDbLine
 10
505.1991795116968
 20
15.59999986828871
 30
0.0
 11
552.5269557796685
 21
15.59999986828871
 31
0.0
  0
TEXT
  5
142B
330
1A
100
AcDbEntity
  8
moji
100
AcDbText
 10
463.246432004558
 20
11.94261758994866
 30
0.0
 40
5.599999999999999
  1
ＧＪ３１□
 41
0.9
  7
ｽﾀｲﾙ1
100
AcDbText
  0
LINE
  5
142C
330
1A
100
AcDbEntity
  8
ZUWAKU
100
AcDbLine
 10
447.6243639845472
 20
29.99999986828868
 30
0.0
 11
447.6243639845474
 21
0.7999998682887508
 31
0.0
  0
LINE
  5
142D
330
1A
100
AcDbEntity
  8
ZUWAKU
100
AcDbLine
 10
447.8243639845472
 20
29.99999986828868
 30
0.0
 11
447.8243639845475
 21
0.7999998682887508
 31
0.0
  0
LINE
  5
142E
330
1A
100
AcDbEntity
  8
ZUWAKU
100
AcDbLine
 10
447.4243639845474
 20
29.99999986828868
 30
0.0
 11
447.4243639845474
 21
0.7999998682887508
 31
0.0
  0
TEXT
  5
142F
330
1A
100
AcDbEntity
  8
moji
100
AcDbText
 10
528.0409079858689
 20
18.00492092569607
 30
0.0
 40
5.599999999999999
  1
Ａ３
 41
0.9
  7
ｽﾀｲﾙ1
100
AcDbText
  0
LINE
  5
1430
330
1A
100
AcDbEntity
  8
ZUWAKU
100
AcDbLine
 10
504.9991795116969
 20
29.99999986828868
 30
0.0
 11
504.999179511697
 21
0.7999998682887508
 31
0.0
  0
LINE
  5
1431
330
1A
100
AcDbEntity
  8
ZUWAKU
100
AcDbLine
 10
505.1991795116968
 20
29.99999986828868
 30
0.0
 11
505.1991795116971
 21
0.7999998682887508
 31
0.0
  0
LINE
  5
1432
330
1A
100
AcDbEntity
  8
ZUWAKU
100
AcDbLine
 10
504.799179511697
 20
29.99999986828868
 30
0.0
 11
504.799179511697
 21
0.7999998682887508
 31
0.0
  0
TEXT
  5
1433
330
1A
100
AcDbEntity
  8
ZUWAKU
100
AcDbText
 10
461.6981352414684
 20
2.908329108177895
 30
0.0
 40
3.0
  1
□には色品番が入ります
 41
0.9
  7
ｽﾀｲﾙ1
100
AcDbText
  0
TEXT
  5
1434
330
1A
100
AcDbEntity
  8
ZUWAKU
100
AcDbText
 10
506.6766245339067
 20
9.6553564066743
 30
0.0
 40
4.0
  1
縮尺
 41
0.9
  7
ｽﾀｲﾙ1
100
AcDbText
  0
TEXT
  5
1435
330
1A
100
AcDbEntity
  8
moji
100
AcDbText
 10
528.0409079858689
 20
3.204920925696104
 30
0.0
 40
5.599999999999999
  1
１/２
 41
0.9
  7
ｽﾀｲﾙ1
100
AcDbText
  0
TEXT
  5
1436
330
1A
100
AcDbEntity
  8
ZUWAKU
100
AcDbText
 10
449.3018090067569
 20
24.05535640667427
 30
0.0
 40
4.0
  1
品番
 41
0.9
  7
ｽﾀｲﾙ1
100
AcDbText
  0
TEXT
  5
1437
330
1A
100
AcDbEntity
  8
ZUWAKU
100
AcDbText
 10
506.6766245339065
 20
24.05535640667427
 30
0.0
 40
4.0
  1
用紙
 41
0.9
  7
ｽﾀｲﾙ1
100
AcDbText
  0
LINE
  5
1438
330
1A
100
AcDbEntity
  8
ZUWAKU
100
AcDbLine
 10
648.6172025237603
 20
29.99999986828868
 30
0.0
 11
648.6172025237606
 21
0.7999998682887508
 31
0.0
  0
LINE
  5
1439
330
1A
100
AcDbEntity
  8
ZUWAKU
100
AcDbLine
 10
648.8172025237604
 20
29.99999986828868
 30
0.0
 11
648.8172025237607
 21
0.7999998682887508
 31
0.0
  0
LINE
  5
143A
330
1A
100
AcDbEntity
  8
ZUWAKU
100
AcDbLine
 10
648.4172025237605
 20
29.99999986828868
 30
0.0
 11
648.4172025237605
 21
0.7999998682887508
 31
0.0
  0
LINE
  5
143B
330
1A
100
AcDbEntity
  8
ZUWAKU
100
AcDbLine
 10
552.7269557796683
 20
29.99999986828868
 30
0.0
 11
552.7269557796684
 21
0.7999998682887508
 31
0.0
  0
LINE
  5
143C
330
1A
100
AcDbEntity
  8
ZUWAKU
100
AcDbLine
 10
552.9269557796683
 20
29.99999986828868
 30
0.0
 11
552.9269557796685
 21
0.7999998682887508
 31
0.0
  0
LINE
  5
143D
330
1A
100
AcDbEntity
  8
ZUWAKU
100
AcDbLine
 10
552.5269557796685
 20
29.99999986828868
 30
0.0
 11
552.5269557796685
 21
0.7999998682887508
 31
0.0
  0
TEXT
  5
143E
330
1A
100
AcDbEntity
  8
ZUWAKU
100
AcDbText
 10
650.29464754597
 20
24.05535640667427
 30
0.0
 40
4.0
  1
DATE
 41
0.9
  7
ｽﾀｲﾙ1
100
AcDbText
  0
LINE
  5
143F
330
1A
100
AcDbEntity
  8
ZUWAKU
100
AcDbLine
 10
697.2490105620972
 20
29.99999986828868
 30
0.0
 11
697.2490105620972
 21
0.7999998682887508
 31
0.0
  0
LINE
  5
1440
330
1A
100
AcDbEntity
  8
ZUWAKU
100
AcDbLine
 10
697.4490105620973
 20
29.99999986828868
 30
0.0
 11
697.4490105620973
 21
0.7999998682887508
 31
0.0
  0
LINE
  5
1441
330
1A
100
AcDbEntity
  8
ZUWAKU
100
AcDbLine
 10
697.6490105620971
 20
29.99999986828868
 30
0.0
 11
697.6490105620974
 21
0.7999998682887508
 31
0.0
  0
LINE
  5
1442
330
1A
100
AcDbEntity
  8
ZUWAKU
100
AcDbLine
 10
697.8490105620972
 20
29.99999986828868
 30
0.0
 11
697.8490105620974
 21
0.7999998682887508
 31
0.0
  0
TEXT
  5
1443
330
1A
100
AcDbEntity
  8
ZUWAKU
100
AcDbText
 10
708.5280842057998
 20
12.35383920397548
 30
0.0
 40
6.0
  1
積水化学工業株式会社
 41
0.9
  7
ｽﾀｲﾙ1
100
AcDbText
  0
LINE
  5
2F19
330
1A
100
AcDbEntity
  8
CENTER_L
  6
CENTER
 62
     1
 48
5.0
100
AcDbLine
 10
380.3407213040241
 20
477.0438857313597
 30
0.0
 11
513.2399169519247
 21
344.1437818429847
 31
0.0
  0
DIMENSION
  5
2F1A
330
1A
100
AcDbEntity
  8
SUNPOU
100
AcDbDimension
  2
*D2
 10
387.3395137754592
 20
217.0585677573408
 30
0.0
 11
464.2899164517167
 21
222.0585677573408
 31
0.0
 70
    32
 71
     5
 42
153.9008053525152
  3
STANDARD
100
AcDbAlignedDimension
 13
541.2403191279744
 23
180.7883828738287
 33
0.0
 14
387.3395137754592
 24
177.7921828738287
 34
0.0
100
AcDbRotatedDimension
1001
ACAD
1000
DSTYLE
1002
{
1070
   140
1040
6.0
1070
    74
1070
     0
1070
   172
1070
     1
1070
    73
1070
     0
1070
   272
1070
     2
1070
    77
1070
     3
1070
   173
1070
     1
1070
   147
1040
2.0
1070
    42
1040
6.0
1070
    44
1040
3.0
1070
    43
1040
14.0
1070
   271
1070
     0
1070
   178
1070
     4
1070
   177
1070
     4
1070
   176
1070
     4
1070
   141
1040
150.0
1070
     7
1000
_OPEN
1070
     6
1000
_OPEN
1070
    41
1040
7.0
1002
}
  0
DIMENSION
  5
2F1B
330
1A
100
AcDbEntity
  8
SUNPOU
100
AcDbDimension
  2
*D3
 10
387.3395137754592
 20
198.3695070276327
 30
0.0
 11
447.893303857769
 21
198.3695070276327
 31
0.0
 70
   160
 71
     5
 42
-1.0
  3
STANDARD
100
AcDbAlignedDimension
 13
506.2395137754593
 23
177.7921828738287
 33
0.0
 14
387.3395137754592
 24
177.7921828738287
 34
0.0
100
AcDbRotatedDimension
1001
ACAD
1000
DSTYLE
1002
{
1070
   140
1040
6.0
1070
    74
1070
     0
1070
   172
1070
     1
1070
    73
1070
     0
1070
   272
1070
     2
1070
    77
1070
     3
1070
   173
1070
     1
1070
   147
1040
2.0
1070
    42
1040
6.0
1070
    44
1040
3.0
1070
    43
1040
14.0
1070
   271
1070
     0
1070
   178
1070
     4
1070
   177
1070
     4
1070
   176
1070
     4
1070
   141
1040
150.0
1070
     7
1000
_OPEN
1070
     6
1000
_OPEN
1070
    41
1040
7.0
1002
}
  0
LINE
  5
2F1D
330
1A
100
AcDbEntity
  8
SEIHIN
  6
Continuous
 62
     3
 48
16.0
100
AcDbLine
 10
419.3401137754592
 20
454.8438818429848
 30
0.0
 11
407.540113775459
 21
454.8438818429848
 31
0.0
  0
LINE
  5
2F1E
330
1A
100
AcDbEntity
  8
SEIHIN
  6
Continuous
 62
     3
 48
16.0
100
AcDbLine
 10
404.7840137754589
 20
452.6000818429849
 30
0.0
 11
414.031013775459
 21
443.3529818429847
 31
0.0
  0
ARC
  5
2F1F
330
1A
100
AcDbEntity
  8
SEIHIN
  6
Continuous
 62
     3
 48
16.0
100
AcDbCircle
 10
399.1970901669308
 20
124.8970081789916
 30
0.0
 40
14.00002882838494
100
AcDbArc
 50
13.41176903016025
 51
72.61482194267715
  0
LINE
  5
2F20
330
1A
100
AcDbEntity
  8
SEIHIN
  6
Continuous
 62
     3
 48
16.0
100
AcDbLine
 10
405.2585137754592
 20
167.6752828738287
 30
0.0
 11
488.3311137754593
 21
166.2209828738287
 31
0.0
  0
LINE
  5
2F21
330
1A
100
AcDbEntity
  8
SEIHIN
  6
Continuous
 62
     3
 48
16.0
100
AcDbLine
 10
405.0532137754592
 20
139.5078828738288
 30
0.0
 11
488.5329137754592
 21
138.5217828738288
 31
0.0
  0
LINE
  5
2F22
330
1A
100
AcDbEntity
  8
SEIHIN
  6
Continuous
 62
     3
 48
16.0
100
AcDbLine
 10
515.1404244804897
 20
470.0438123985112
 30
0.0
 11
387.3398137754592
 21
470.0438818429847
 31
0.0
  0
LINE
  5
2F23
330
1A
100
AcDbEntity
  8
SEIHIN
  6
Continuous
 62
     3
 48
16.0
100
AcDbLine
 10
387.339662387652
 20
315.9438818429809
 30
0.0
 11
446.7895623876519
 21
315.943781842981
 31
0.0
  0
LINE
  5
2F24
330
1A
100
AcDbEntity
  8
SEIHIN
  6
Continuous
 62
     3
 48
16.0
100
AcDbLine
 10
515.1404244804897
 20
468.0437793984888
 30
0.0
 11
391.3402137754593
 21
468.0438818429849
 31
0.0
  0
LINE
  5
2F25
330
1A
100
AcDbEntity
  8
SEIHIN
  6
Continuous
 62
     3
 48
16.0
100
AcDbLine
 10
398.6890137754592
 20
178.7921828738287
 30
0.0
 11
446.789413775459
 21
178.7921828738287
 31
0.0
  0
ARC
  5
2F26
330
1A
100
AcDbEntity
  8
SEIHIN
  6
Continuous
 62
     3
 48
16.0
100
AcDbCircle
 10
399.1970866092182
 20
124.8970108391778
 30
0.0
 40
12.50000607102756
100
AcDbArc
 50
13.41141180386299
 51
74.92744292102514
  0
ARC
  5
2F27
330
1A
100
AcDbEntity
  8
SEIHIN
  6
Continuous
 62
     3
 48
16.0
100
AcDbCircle
 10
399.1971725230495
 20
124.8969199042367
 30
0.0
 40
12.00002310201098
100
AcDbArc
 50
13.41218641380133
 51
72.61528618229803
  0
LINE
  5
2F28
330
1A
100
AcDbEntity
  8
SEIHIN
  6
Continuous
 62
     3
 48
16.0
100
AcDbLine
 10
419.3401137754592
 20
460.3788818429848
 30
0.0
 11
402.0052137754592
 21
460.3788818429848
 31
0.0
  0
INSERT
  5
2F29
330
1A
100
AcDbEntity
  8
0
100
AcDbBlockReference
  2
A$C1305
 10
389.6065546910252
 20
126.8799622365264
 30
0.0
  0
LINE
  5
2F2A
330
1A
100
AcDbEntity
  8
SEIHIN
  6
Continuous
 62
     3
 48
16.0
100
AcDbLine
 10
135.0149230769702
 20
167.9426828734952
 30
0.0
 11
255.0149230769702
 21
165.9423828734953
 31
0.0
  0
LINE
  5
2F2B
330
1A
100
AcDbEntity
  8
SEIHIN
  6
Continuous
 62
     3
 48
16.0
100
AcDbLine
 10
143.0148230769702
 20
167.8092828734953
 30
0.0
 11
149.0148230769702
 21
139.8974828734953
 31
0.0
  0
LINE
  5
2F2C
330
1A
100
AcDbEntity
  8
SEIHIN
  6
Continuous
 62
     3
 48
16.0
100
AcDbLine
 10
289.015023077259
 20
180.7922695400175
 30
0.0
 11
269.0150164397886
 21
180.7923250955915
 31
0.0
  0
LINE
  5
2F2D
330
1A
100
AcDbEntity
  8
SEIHIN
  6
Continuous
 62
     3
 48
16.0
100
AcDbLine
 10
135.0149230769702
 20
167.9426828734952
 30
0.0
 11
135.0149230769702
 21
180.7925828734953
 31
0.0
  0
LINE
  5
2F2E
330
1A
100
AcDbEntity
  8
SEIHIN
  6
Continuous
 62
     3
 48
16.0
100
AcDbLine
 10
289.015023077259
 20
165.9422695400174
 30
0.0
 11
269.0149669399081
 21
165.9423362068713
 31
0.0
  0
LINE
  5
2F2F
330
1A
100
AcDbEntity
  8
SEIHIN
  6
Continuous
 62
     3
 48
16.0
100
AcDbLine
 10
289.0149230772591
 20
136.8970695400175
 30
0.0
 11
269.0148701227362
 21
136.8971362068607
 31
0.0
  0
LINE
  5
2F30
330
1A
100
AcDbEntity
  8
SEIHIN
  6
Continuous
 62
     3
 48
16.0
100
AcDbLine
 10
289.0149230772591
 20
124.9922695400175
 30
0.0
 11
269.0148304401357
 21
124.9923362068818
 31
0.0
  0
LINE
  5
2F31
330
1A
100
AcDbEntity
  8
SEIHIN
  6
Continuous
 62
     3
 48
16.0
100
AcDbLine
 10
160.0148230769702
 20
127.9926828734953
 30
0.0
 11
255.0148230769703
 21
124.9923828734953
 31
0.0
  0
LINE
  5
2F32
330
1A
100
AcDbEntity
  8
SEIHIN
  6
Continuous
 62
     3
 48
16.0
100
AcDbLine
 10
149.0148230769702
 20
139.8974828734953
 30
0.0
 11
255.0147230769704
 21
136.8971828734953
 31
0.0
  0
ARC
  5
2F33
330
1A
100
AcDbEntity
  8
SEIHIN
  6
Continuous
 62
     3
 48
16.0
100
AcDbCircle
 10
148.0149170619123
 20
127.9392893833664
 30
0.0
 40
12.00002480143303
100
AcDbArc
 50
0.2549354507825269
 51
85.22026836566483
  0
LINE
  5
2F34
330
1A
100
AcDbEntity
  8
SEIHIN
  6
Continuous
 62
     3
 48
16.0
100
AcDbLine
 10
289.0148230772591
 20
124.9922695400175
 30
0.0
 11
289.015023077259
 21
182.7835695400175
 31
0.0
  0
LINE
  5
2F35
330
1A
100
AcDbEntity
  8
SEIHIN
  6
Continuous
 62
     3
 48
16.0
100
AcDbLine
 10
289.015023077259
 20
182.7835695400175
 30
0.0
 11
269.0150230774812
 21
182.7836362067397
 31
0.0
  0
LINE
  5
2F37
330
1A
100
AcDbEntity
  8
SEIHIN
  6
Continuous
 62
     3
 48
16.0
100
AcDbLine
 10
405.3395137754592
 20
178.7921828738287
 30
0.0
 11
405.0395137754592
 21
137.6196828738287
 31
0.0
  0
LINE
  5
2F38
330
1A
100
AcDbEntity
  8
SEIHIN
  6
Continuous
 62
     3
 48
16.0
100
AcDbLine
 10
401.0071137754591
 20
138.5028828738288
 30
0.0
 11
396.0394137754594
 21
163.1397828738287
 31
0.0
  0
LINE
  5
2F39
330
1A
100
AcDbEntity
  8
SEIHIN
  6
Continuous
 62
     3
 48
16.0
100
AcDbLine
 10
395.5294137754592
 20
163.1397828738287
 30
0.0
 11
400.397413775459
 21
138.9970828738288
 31
0.0
  0
LINE
  5
2F3A
330
1A
100
AcDbEntity
  8
SEIHIN
  6
Continuous
 62
     3
 48
16.0
100
AcDbLine
 10
402.3580137754591
 20
139.3924828738288
 30
0.0
 11
397.1664137754593
 21
165.1397828738286
 31
0.0
  0
ARC
  5
2F3B
330
1A
100
AcDbEntity
  8
SEIHIN
  6
Continuous
 62
     3
 48
16.0
100
AcDbCircle
 10
403.8284422793826
 20
139.6888512251136
 30
0.0
 40
3.499973407166622
100
AcDbArc
 50
191.3995477063601
 51
252.6138321380483
  0
ARC
  5
2F3C
330
1A
100
AcDbEntity
  8
SEIHIN
  6
Continuous
 62
     3
 48
16.0
100
AcDbCircle
 10
402.9676318224161
 20
138.8981636321084
 30
0.0
 40
1.999969472344574
100
AcDbArc
 50
191.3991849636115
 51
254.9291669385204
  0
ARC
  5
2F3D
330
1A
100
AcDbEntity
  8
SEIHIN
  6
Continuous
 62
     3
 48
16.0
100
AcDbCircle
 10
403.8284328518193
 20
139.6889616930847
 30
0.0
 40
1.500010650092771
100
AcDbArc
 50
191.3996377605613
 51
252.6138212305391
  0
LINE
  5
2F3E
330
1A
100
AcDbEntity
  8
SEIHIN
  6
Continuous
 62
     3
 48
16.0
100
AcDbLine
 10
403.2895137754591
 20
163.7921828738287
 30
0.0
 11
403.5149137754592
 21
177.3171828738287
 31
0.0
  0
LINE
  5
2F3F
330
1A
100
AcDbEntity
  8
SEIHIN
  6
Continuous
 62
     3
 48
16.0
100
AcDbLine
 10
400.6126137754592
 20
170.8671828738289
 30
0.0
 11
400.7895137754593
 21
163.7921828738287
 31
0.0
  0
ARC
  5
2F40
330
1A
100
AcDbEntity
  8
SEIHIN
  6
Continuous
 62
     3
 48
16.0
100
AcDbCircle
 10
395.0591241138735
 20
162.9421744114003
 30
0.0
 40
1.000008462481867
100
AcDbArc
 50
11.3970454116912
 51
90.0005923424865
  0
ARC
  5
2F41
330
1A
100
AcDbEntity
  8
SEIHIN
  6
Continuous
 62
     3
 48
16.0
100
AcDbCircle
 10
388.339513775459
 20
164.9421828738288
 30
0.0
 40
1.000000000000085
100
AcDbArc
 50
180.0000000000049
 51
270.0000000000049
  0
ARC
  5
2F42
330
1A
100
AcDbEntity
  8
SEIHIN
  6
Continuous
 62
     3
 48
16.0
100
AcDbCircle
 10
394.5491241138735
 20
162.9421744114003
 30
0.0
 40
1.000008462481867
100
AcDbArc
 50
11.3970454116912
 51
90.0005923424865
  0
LINE
  5
2F43
330
1A
100
AcDbEntity
  8
SEIHIN
  6
Continuous
 62
     3
 48
16.0
100
AcDbLine
 10
394.5491137754593
 20
163.9421828738287
 30
0.0
 11
388.3395137754593
 21
163.9421828738287
 31
0.0
  0
LINE
  5
2F44
330
1A
100
AcDbEntity
  8
SEIHIN
  6
Continuous
 62
     3
 48
16.0
100
AcDbLine
 10
400.7895137754593
 20
163.7921828738287
 30
0.0
 11
403.2895137754591
 21
163.7921828738287
 31
0.0
  0
LINE
  5
2F45
330
1A
100
AcDbEntity
  8
SEIHIN
  6
Continuous
 62
     3
 48
16.0
100
AcDbLine
 10
393.7900137754593
 20
178.7921828738287
 30
0.0
 11
388.3395137754593
 21
178.7921828738287
 31
0.0
  0
LINE
  5
2F46
330
1A
100
AcDbEntity
  8
SEIHIN
  6
Continuous
 62
     3
 48
16.0
100
AcDbLine
 10
396.7395137754593
 20
176.9921828738287
 30
0.0
 11
389.4395137754593
 21
176.9921828738287
 31
0.0
  0
LINE
  5
2F47
330
1A
100
AcDbEntity
  8
SEIHIN
  6
Continuous
 62
     3
 48
16.0
100
AcDbLine
 10
389.3395137754592
 20
167.9538828738287
 30
0.0
 11
394.961313775459
 21
167.8554828738287
 31
0.0
  0
LINE
  5
2F48
330
1A
100
AcDbEntity
  8
SEIHIN
  6
Continuous
 62
     3
 48
16.0
100
AcDbLine
 10
396.1861137754594
 20
165.9421828738287
 30
0.0
 11
390.3395137754593
 21
165.9421828738287
 31
0.0
  0
LINE
  5
2F49
330
1A
100
AcDbEntity
  8
SEIHIN
  6
Continuous
 62
     3
 48
16.0
100
AcDbLine
 10
387.3395137754592
 20
177.7921828738287
 30
0.0
 11
387.3395137754592
 21
164.9421828738287
 31
0.0
  0
LINE
  5
2F4A
330
1A
100
AcDbEntity
  8
SEIHIN
  6
Continuous
 62
     3
 48
16.0
100
AcDbLine
 10
389.3395137754592
 20
176.8921828738287
 30
0.0
 11
389.3395137754592
 21
166.9421828738287
 31
0.0
  0
ARC
  5
2F4B
330
1A
100
AcDbEntity
  8
SEIHIN
  6
Continuous
 62
     3
 48
16.0
100
AcDbCircle
 10
390.3395137754592
 20
166.9421828738288
 30
0.0
 40
1.000000000000085
100
AcDbArc
 50
180.0000000000049
 51
270.0000000000049
  0
ARC
  5
2F4C
330
1A
100
AcDbEntity
  8
SEIHIN
  6
Continuous
 62
     3
 48
16.0
100
AcDbCircle
 10
388.339513775459
 20
177.7921828738286
 30
0.0
 40
1.000000000000085
100
AcDbArc
 50
89.99999999999511
 51
179.9999999999951
  0
ARC
  5
2F4D
330
1A
100
AcDbEntity
  8
SEIHIN
  6
Continuous
 62
     3
 48
16.0
100
AcDbCircle
 10
389.4395137754592
 20
176.8921828738287
 30
0.0
 40
0.1000000000000512
100
AcDbArc
 50
89.99999999991857
 51
179.9999999999186
  0
ARC
  5
2F4E
330
1A
100
AcDbEntity
  8
SEIHIN
  6
Continuous
 62
     3
 48
16.0
100
AcDbCircle
 10
396.2395226057217
 20
178.2921910816637
 30
0.0
 40
2.500016325960008
100
AcDbArc
 50
281.5366761111895
 51
344.2785094812625
  0
ARC
  5
2F4F
330
1A
100
AcDbEntity
  8
SEIHIN
  6
Continuous
 62
     3
 48
16.0
100
AcDbCircle
 10
397.6135818192895
 20
170.7922140408192
 30
0.0
 40
2.999968833179708
100
AcDbArc
 50
1.431963185548552
 51
89.99938967577564
  0
LINE
  5
2F50
330
1A
100
AcDbEntity
  8
SEIHIN
  6
Continuous
 62
     3
 48
16.0
100
AcDbLine
 10
395.3395137754592
 20
173.7921828738287
 30
0.0
 11
397.6136137754593
 21
173.7921828738287
 31
0.0
  0
ARC
  5
2F51
330
1A
100
AcDbEntity
  8
SEIHIN
  6
Continuous
 62
     3
 48
16.0
100
AcDbCircle
 10
396.1861241138735
 20
164.9421744114003
 30
0.0
 40
1.000008462481867
100
AcDbArc
 50
11.3970454116912
 51
90.0005923424865
  0
LINE
  5
2F52
330
1A
100
AcDbEntity
  8
SEIHIN
  6
Continuous
 62
     3
 48
16.0
100
AcDbLine
 10
394.8395137754593
 20
165.9425828738287
 30
0.0
 11
395.3395137754592
 21
173.7921828738287
 31
0.0
  0
LINE
  5
2F53
330
1A
100
AcDbEntity
  8
SEIHIN
  6
Continuous
 62
     3
 48
16.0
100
AcDbLine
 10
400.6904137754593
 20
167.7551828738287
 30
0.0
 11
403.3547137754593
 21
167.7085828738287
 31
0.0
  0
LINE
  5
2F54
330
1A
100
AcDbEntity
  8
SEIHIN
  6
Continuous
 62
     3
 48
16.0
100
AcDbLine
 10
396.7395137754593
 20
176.9921828738287
 30
0.0
 11
396.7395137754593
 21
175.8426828738287
 31
0.0
  0
ARC
  5
2F55
330
1A
100
AcDbEntity
  8
SEIHIN
  6
Continuous
 62
     3
 48
16.0
100
AcDbCircle
 10
396.2395198787652
 20
178.2921813940038
 30
0.0
 40
2.500016325938849
100
AcDbArc
 50
344.2787401330051
 51
168.4630827281607
  0
ARC
  5
2F56
330
1A
100
AcDbEntity
  8
SEIHIN
  6
Continuous
 62
     3
 48
16.0
100
AcDbCircle
 10
405.0147095319931
 20
177.292178700507
 30
0.0
 40
1.500004173327671
100
AcDbArc
 50
89.99983791198975
 51
179.0448693525525
  0
LINE
  5
2F57
330
1A
100
AcDbEntity
  8
SEIHIN
  6
Continuous
 62
     3
 48
16.0
100
AcDbLine
 10
405.0147137754591
 20
178.7921828738287
 30
0.0
 11
405.3395137754592
 21
178.7921828738287
 31
0.0
  0
LINE
  5
2F58
330
1A
100
AcDbEntity
  8
SEIHIN
  6
Continuous
 62
     3
 48
16.0
100
AcDbLine
 10
389.3398439244803
 20
345.0438784784984
 30
0.0
 11
389.3402137754593
 21
466.0438818429847
 31
0.0
  0
LINE
  5
2F59
330
1A
100
AcDbEntity
  8
SEIHIN
  6
Continuous
 62
     3
 48
16.0
100
AcDbLine
 10
387.3397062903332
 20
345.0438818429071
 30
0.0
 11
387.3402137754593
 21
470.0442818429849
 31
0.0
  0
LINE
  5
2F5A
330
1A
100
AcDbEntity
  8
SEIHIN
  6
Continuous
 62
     3
 48
16.0
100
AcDbLine
 10
397.0031536778065
 20
335.9442131715528
 30
0.0
 11
397.0051137754592
 21
418.0439818429849
 31
0.0
  0
LINE
  5
2F5B
330
1A
100
AcDbEntity
  8
SEIHIN
  6
Continuous
 62
     3
 48
16.0
100
AcDbLine
 10
402.5397573416794
 20
315.9438562750743
 30
0.0
 11
402.5401137754592
 21
418.0439818429849
 31
0.0
  0
LINE
  5
2F5C
330
1A
100
AcDbEntity
  8
SEIHIN
  6
Continuous
 62
     3
 48
16.0
100
AcDbLine
 10
393.7902623876518
 20
315.9438818429809
 30
0.0
 11
393.7903290541512
 21
335.9438983393888
 31
0.0
  0
LINE
  5
2F5D
330
1A
100
AcDbEntity
  8
SEIHIN
  6
Continuous
 62
     3
 48
16.0
100
AcDbLine
 10
398.7392623876518
 20
318.943781842981
 30
0.0
 11
398.7387565365984
 21
335.9438819395204
 31
0.0
  0
ARC
  5
2F5F
330
1A
100
AcDbEntity
  8
SEIHIN
  6
Continuous
 62
     3
 48
16.0
100
AcDbCircle
 10
389.8398345074784
 20
336.4455802589345
 30
0.0
 40
0.5
100
AcDbArc
 50
180.0
 51
270.0
  0
LINE
  5
2F60
330
1A
100
AcDbEntity
  8
SEIHIN
  6
Continuous
 62
     3
 48
16.0
100
AcDbLine
 10
405.3400137754591
 20
418.0438818429849
 30
0.0
 11
405.3400137754591
 21
438.0438818429848
 31
0.0
  0
LINE
  5
2F61
330
1A
100
AcDbEntity
  8
SEIHIN
  6
Continuous
 62
     3
 48
16.0
100
AcDbLine
 10
403.515413775459
 20
418.0438818429849
 30
0.0
 11
403.5155137754593
 21
438.0438818429848
 31
0.0
  0
LINE
  5
2F62
330
1A
100
AcDbEntity
  8
SEIHIN
  6
Continuous
 62
     3
 48
16.0
100
AcDbLine
 10
395.3400137754591
 20
418.0438818429849
 30
0.0
 11
395.3400137754591
 21
420.0439818429849
 31
0.0
  0
LINE
  5
2F63
330
1A
100
AcDbEntity
  8
SEIHIN
  6
Continuous
 62
     3
 48
16.0
100
AcDbLine
 10
400.6131137754591
 20
418.0438818429849
 30
0.0
 11
400.6131137754591
 21
420.0439818429849
 31
0.0
  0
LINE
  5
2F64
330
1A
100
AcDbEntity
  8
SEIHIN
  6
Continuous
 62
     3
 48
16.0
100
AcDbLine
 10
395.3400137754591
 20
418.0439818429849
 30
0.0
 11
405.339713775459
 21
418.0439818429849
 31
0.0
  0
LINE
  5
2F65
330
1A
100
AcDbEntity
  8
SEIHIN
  6
Continuous
 62
     3
 48
16.0
100
AcDbLine
 10
402.5401137754592
 20
438.0439818429849
 30
0.0
 11
402.5401137754592
 21
449.8438818429847
 31
0.0
  0
LINE
  5
2F66
330
1A
100
AcDbEntity
  8
SEIHIN
  6
Continuous
 62
     3
 48
16.0
100
AcDbLine
 10
397.0052137754592
 20
438.0439818429849
 30
0.0
 11
397.0052137754592
 21
455.3788818429849
 31
0.0
  0
LINE
  5
2F67
330
1A
100
AcDbEntity
  8
SEIHIN
  6
Continuous
 62
     3
 48
16.0
100
AcDbLine
 10
397.0051137754592
 20
420.0439818429849
 30
0.0
 11
397.0052137754592
 21
436.0439818429849
 31
0.0
  0
LINE
  5
2F68
330
1A
100
AcDbEntity
  8
SEIHIN
  6
Continuous
 62
     3
 48
16.0
100
AcDbLine
 10
402.5401137754592
 20
420.0439818429849
 30
0.0
 11
402.5401137754592
 21
436.0439818429849
 31
0.0
  0
LINE
  5
2F69
330
1A
100
AcDbEntity
  8
SEIHIN
  6
Continuous
 62
     3
 48
16.0
100
AcDbLine
 10
395.3400137754591
 20
420.0439818429849
 30
0.0
 11
403.5151137754592
 21
420.0439818429849
 31
0.0
  0
LINE
  5
2F6A
330
1A
100
AcDbEntity
  8
SEIHIN
  6
Continuous
 62
     3
 48
16.0
100
AcDbLine
 10
395.3400137754591
 20
436.0439818429849
 30
0.0
 11
403.5152137754592
 21
436.0439818429849
 31
0.0
  0
LINE
  5
2F6B
330
1A
100
AcDbEntity
  8
SEIHIN
  6
Continuous
 62
     3
 48
16.0
100
AcDbLine
 10
395.3400137754591
 20
438.0439818429849
 30
0.0
 11
405.339713775459
 21
438.0439818429849
 31
0.0
  0
LINE
  5
2F6C
330
1A
100
AcDbEntity
  8
SEIHIN
  6
Continuous
 62
     3
 48
16.0
100
AcDbLine
 10
395.3400137754591
 20
436.0439818429849
 30
0.0
 11
395.340113775459
 21
438.0438818429848
 31
0.0
  0
LINE
  5
2F6D
330
1A
100
AcDbEntity
  8
SEIHIN
  6
Continuous
 62
     3
 48
16.0
100
AcDbLine
 10
400.6132137754593
 20
436.0439818429849
 30
0.0
 11
400.6132137754593
 21
438.0438818429848
 31
0.0
  0
ARC
  5
2F6E
330
1A
100
AcDbEntity
  8
SEIHIN
  6
Continuous
 62
     3
 48
16.0
100
AcDbCircle
 10
407.540113775459
 20
449.8438818429847
 30
0.0
 40
4.999999999999913
100
AcDbArc
 50
90.00000000000161
 51
180.0000000000008
  0
ARC
  5
2F6F
330
1A
100
AcDbEntity
  8
SEIHIN
  6
Continuous
 62
     3
 48
16.0
100
AcDbCircle
 10
402.0052137754592
 20
455.3788818429849
 30
0.0
 40
5.000000000000085
100
AcDbArc
 50
89.99999999999836
 51
179.9999999999992
  0
LINE
  5
2F70
330
1A
100
AcDbEntity
  8
SEIHIN
  6
Continuous
 62
     3
 48
16.0
100
AcDbLine
 10
398.8866137754592
 20
458.4974818429849
 30
0.0
 11
403.1599137754589
 21
454.2241818429848
 31
0.0
  0
ARC
  5
2F71
330
1A
100
AcDbEntity
  8
SEIHIN
  6
Continuous
 62
     3
 48
16.0
100
AcDbCircle
 10
391.3402137754593
 20
466.0438818429849
 30
0.0
 40
2.000000000000084
100
AcDbArc
 50
90.00000000000325
 51
180.0000000000024
  0
LINE
  5
2F73
330
1A
100
AcDbEntity
  8
CENTER_L
  6
CENTER
 62
     1
 48
5.0
100
AcDbLine
 10
446.7895566840692
 20
312.9128014735989
 30
0.0
 11
446.789913775459
 21
416.8246818429849
 31
0.0
  0
TEXT
  5
2F74
330
1A
100
AcDbEntity
  8
SUNPOU
  6
Continuous
 62
     4
100
AcDbText
 10
670.7313264191348
 20
40.37625093035972
 30
0.0
 40
6.0
  1
※ のきといの差込み寸法を示す
100
AcDbText
  0
DIMENSION
  5
2F75
330
1A
100
AcDbEntity
  8
SUNPOU
100
AcDbDimension
  2
*D4
 10
411.1967137754592
 20
101.2477707085244
 30
0.0
 11
446.7894637754592
 21
106.2477707085244
 31
0.0
 70
    32
 71
     5
 42
-1.0
  3
STANDARD
100
AcDbAlignedDimension
 13
482.3822137754593
 23
120.9921828738287
 33
0.0
 14
411.1967137754592
 24
120.9921828738287
 34
0.0
100
AcDbRotatedDimension
1001
ACAD
1000
DSTYLE
1002
{
1070
   140
1040
6.0
1070
    74
1070
     0
1070
   172
1070
     1
1070
    73
1070
     0
1070
   272
1070
     2
1070
    77
1070
     3
1070
   173
1070
     1
1070
   147
1040
2.0
1070
    42
1040
6.0
1070
    44
1040
3.0
1070
    43
1040
14.0
1070
   271
1070
     0
1070
   178
1070
     4
1070
   177
1070
     4
1070
   176
1070
     4
1070
   141
1040
150.0
1070
     7
1000
_OPEN
1070
     6
1000
_OPEN
1070
    41
1040
7.0
1002
}
  0
LINE
  5
2F76
330
1A
100
AcDbEntity
  8
SEIHIN
  6
Continuous
 62
     3
 48
16.0
100
AcDbLine
 10
521.239656167032
 20
180.7883828738287
 30
0.0
 11
541.2396561670319
 21
180.7883828738287
 31
0.0
  0
LINE
  5
2F77
330
1A
100
AcDbEntity
  8
SEIHIN
  6
Continuous
 62
     3
 48
16.0
100
AcDbLine
 10
479.3045137754592
 20
124.9921828738287
 30
0.0
 11
521.2396561670317
 21
124.9921828738286
 31
0.0
  0
LINE
  5
2F78
330
1A
100
AcDbEntity
  8
SEIHIN
  6
Continuous
 62
     3
 48
16.0
100
AcDbLine
 10
491.7020137754593
 20
136.7834828738287
 30
0.0
 11
521.2396561670318
 21
136.7834828738287
 31
0.0
  0
LINE
  5
2F79
330
1A
100
AcDbEntity
  8
SEIHIN
  6
Continuous
 62
     3
 48
16.0
100
AcDbLine
 10
498.5198137754592
 20
163.9421828738287
 30
0.0
 11
521.2396561670317
 21
163.9422161533691
 31
0.0
  0
LINE
  5
2F7A
330
1A
100
AcDbEntity
  8
SEIHIN
  6
Continuous
 62
     3
 48
16.0
100
AcDbLine
 10
499.7890137754593
 20
178.7921828738287
 30
0.0
 11
521.2396561670318
 21
178.7921828738288
 31
0.0
  0
LINE
  5
2F7B
330
1A
100
AcDbEntity
  8
SEIHIN
  6
Continuous
 62
     3
 48
16.0
100
AcDbLine
 10
479.3045137754592
 20
125.4921828738287
 30
0.0
 11
446.789413775459
 21
125.4920828738287
 31
0.0
  0
LINE
  5
2F7C
330
1A
100
AcDbEntity
  8
SEIHIN
  6
Continuous
 62
     3
 48
16.0
100
AcDbLine
 10
479.3045137754592
 20
124.9921828738287
 30
0.0
 11
446.789413775459
 21
124.9920828738287
 31
0.0
  0
LINE
  5
2F7D
330
1A
100
AcDbEntity
  8
SEIHIN
  6
Continuous
 62
     3
 48
16.0
100
AcDbLine
 10
446.789413775459
 20
126.9920828738287
 30
0.0
 11
479.3045137754592
 21
126.9921828738287
 31
0.0
  0
LINE
  5
2F7E
330
1A
100
AcDbEntity
  8
SEIHIN
  6
Continuous
 62
     3
 48
16.0
100
AcDbLine
 10
494.890013775459
 20
178.7921828738287
 30
0.0
 11
446.789413775459
 21
178.7921828738287
 31
0.0
  0
LINE
  5
2F7F
330
1A
100
AcDbEntity
  8
CENTER_L
  6
CENTER
 62
     1
 48
5.0
100
AcDbLine
 10
446.789413775459
 20
119.1939828738288
 30
0.0
 11
446.789413775459
 21
186.6160828738287
 31
0.0
  0
LINE
  5
2F80
330
1A
100
AcDbEntity
  8
SEIHIN
  6
Continuous
 62
     3
 48
16.0
100
AcDbLine
 10
414.2744137754593
 20
125.4921828738287
 30
0.0
 11
446.789413775459
 21
125.4920828738287
 31
0.0
  0
LINE
  5
2F81
330
1A
100
AcDbEntity
  8
SEIHIN
  6
Continuous
 62
     3
 48
16.0
100
AcDbLine
 10
414.2744137754593
 20
124.9921828738287
 30
0.0
 11
446.789413775459
 21
124.9920828738287
 31
0.0
  0
LINE
  5
2F82
330
1A
100
AcDbEntity
  8
SEIHIN
  6
Continuous
 62
     3
 48
16.0
100
AcDbLine
 10
446.789413775459
 20
126.9920828738287
 30
0.0
 11
414.2744137754593
 21
126.9921828738287
 31
0.0
  0
ARC
  5
2F83
330
1A
100
AcDbEntity
  8
SEIHIN
  6
Continuous
 62
     3
 48
16.0
100
AcDbCircle
 10
414.2744122514781
 20
128.4921840771612
 30
0.0
 40
1.500001203333221
100
AcDbArc
 50
193.4109582213663
 51
270.0000582117449
  0
ARC
  5
2F84
330
1A
100
AcDbEntity
  8
SEIHIN
  6
Continuous
 62
     3
 48
16.0
100
AcDbCircle
 10
414.2743960391318
 20
128.49219687793
 30
0.0
 40
3.00001400415384
100
AcDbArc
 50
193.4130965104358
 51
270.0003387373192
  0
ARC
  5
2F85
330
1A
100
AcDbEntity
  8
SEIHIN
  6
Continuous
 62
     3
 48
16.0
100
AcDbCircle
 10
414.2744463885948
 20
128.4921571229251
 30
0.0
 40
3.499974249248287
100
AcDbArc
 50
193.4111500470757
 51
269.9994661117777
  0
LINE
  5
2F86
330
1A
100
AcDbEntity
  8
SEIHIN
  6
Continuous
 62
     3
 48
16.0
100
AcDbLine
 10
492.5718137754592
 20
138.5028828738288
 30
0.0
 11
497.5395137754593
 21
163.1397828738287
 31
0.0
  0
LINE
  5
2F87
330
1A
100
AcDbEntity
  8
SEIHIN
  6
Continuous
 62
     3
 48
16.0
100
AcDbLine
 10
498.0496137754592
 20
163.1397828738287
 30
0.0
 11
493.1816137754593
 21
138.9971828738286
 31
0.0
  0
LINE
  5
2F88
330
1A
100
AcDbEntity
  8
SEIHIN
  6
Continuous
 62
     3
 48
16.0
100
AcDbLine
 10
491.2210137754593
 20
139.3924828738288
 30
0.0
 11
496.412613775459
 21
165.1397828738286
 31
0.0
  0
LINE
  5
2F89
330
1A
100
AcDbEntity
  8
SEIHIN
  6
Continuous
 62
     3
 48
16.0
100
AcDbLine
 10
488.2395137754593
 20
178.7921828738287
 30
0.0
 11
488.5395137754591
 21
137.6196828738287
 31
0.0
  0
ARC
  5
2F8A
330
1A
100
AcDbEntity
  8
SEIHIN
  6
Continuous
 62
     3
 48
16.0
100
AcDbCircle
 10
494.3818757661597
 20
124.8970493838382
 30
0.0
 40
12.00000116538443
100
AcDbArc
 50
107.384850368165
 51
166.6443746436516
  0
ARC
  5
2F8B
330
1A
100
AcDbEntity
  8
SEIHIN
  6
Continuous
 62
     3
 48
16.0
100
AcDbCircle
 10
494.381825140728
 20
124.8969945733213
 30
0.0
 40
12.50001766839267
100
AcDbArc
 50
105.0724677564347
 51
166.5880530077639
  0
ARC
  5
2F8C
330
1A
100
AcDbEntity
  8
SEIHIN
  6
Continuous
 62
     3
 48
16.0
100
AcDbCircle
 10
494.3818167525076
 20
124.8969860648021
 30
0.0
 40
14.00001388892184
100
AcDbArc
 50
107.3846798778204
 51
166.5881233499675
  0
ARC
  5
2F8D
330
1A
100
AcDbEntity
  8
SEIHIN
  6
Continuous
 62
     3
 48
16.0
100
AcDbCircle
 10
479.3045315117865
 20
128.4921968779299
 30
0.0
 40
3.000014004153702
100
AcDbArc
 50
269.9996612626824
 51
346.5869034895657
  0
ARC
  5
2F8E
330
1A
100
AcDbEntity
  8
SEIHIN
  6
Continuous
 62
     3
 48
16.0
100
AcDbCircle
 10
479.3045427594883
 20
128.4922057593933
 30
0.0
 40
3.500022885684571
100
AcDbArc
 50
269.999525528094
 51
346.5882212890404
  0
ARC
  5
2F8F
330
1A
100
AcDbEntity
  8
SEIHIN
  6
Continuous
 62
     3
 48
16.0
100
AcDbCircle
 10
479.3045152994402
 20
128.4921840771611
 30
0.0
 40
1.50000120333312
100
AcDbArc
 50
269.9999417882584
 51
346.5890417786376
  0
ARC
  5
2F90
330
1A
100
AcDbEntity
  8
SEIHIN
  6
Continuous
 62
     3
 48
16.0
100
AcDbCircle
 10
489.7506143340755
 20
139.6889834940284
 30
0.0
 40
1.49999571166076
100
AcDbArc
 50
287.3815689861798
 51
348.5993976912816
  0
ARC
  5
2F91
330
1A
100
AcDbEntity
  8
SEIHIN
  6
Continuous
 62
     3
 48
16.0
100
AcDbCircle
 10
489.7506049079171
 20
139.6889730282149
 30
0.0
 40
3.499958467622628
100
AcDbArc
 50
287.3841921902031
 51
348.600038873348
  0
ARC
  5
2F92
330
1A
100
AcDbEntity
  8
SEIHIN
  6
Continuous
 62
     3
 48
16.0
100
AcDbCircle
 10
490.6112957285022
 20
138.8981636321084
 30
0.0
 40
1.999969472344577
100
AcDbArc
 50
285.0708330614796
 51
348.6008150363876
  0
ARC
  5
2F93
330
1A
100
AcDbEntity
  8
SEIHIN
  6
Continuous
 62
     3
 48
16.0
100
AcDbCircle
 10
505.2395137754593
 20
164.9421828738287
 30
0.0
 40
1.0
100
AcDbArc
 50
270.0
 51
0.0
  0
ARC
  5
2F94
330
1A
100
AcDbEntity
  8
SEIHIN
  6
Continuous
 62
     3
 48
16.0
100
AcDbCircle
 10
498.519803437045
 20
162.9421744114003
 30
0.0
 40
1.000008462481865
100
AcDbArc
 50
89.99940765751349
 51
168.6029545883088
  0
ARC
  5
2F95
330
1A
100
AcDbEntity
  8
SEIHIN
  6
Continuous
 62
     3
 48
16.0
100
AcDbCircle
 10
499.0298034370448
 20
162.9421744114003
 30
0.0
 40
1.000008462481865
100
AcDbArc
 50
89.99940765751349
 51
168.6029545883088
  0
LINE
  5
2F96
330
1A
100
AcDbEntity
  8
SEIHIN
  6
Continuous
 62
     3
 48
16.0
100
AcDbLine
 10
492.9664137754592
 20
170.8671828738289
 30
0.0
 11
492.7895137754592
 21
163.7921828738287
 31
0.0
  0
LINE
  5
2F97
330
1A
100
AcDbEntity
  8
SEIHIN
  6
Continuous
 62
     3
 48
16.0
100
AcDbLine
 10
490.2894137754593
 20
163.7921828738287
 30
0.0
 11
490.0640137754591
 21
177.3171828738287
 31
0.0
  0
LINE
  5
2F98
330
1A
100
AcDbEntity
  8
SEIHIN
  6
Continuous
 62
     3
 48
16.0
100
AcDbLine
 10
492.7895137754592
 20
163.7921828738287
 30
0.0
 11
490.2894137754593
 21
163.7921828738287
 31
0.0
  0
ARC
  5
2F99
330
1A
100
AcDbEntity
  8
SEIHIN
  6
Continuous
 62
     3
 48
16.0
100
AcDbCircle
 10
488.5642180189251
 20
177.292178700507
 30
0.0
 40
1.500004173327724
100
AcDbArc
 50
0.9551306474483098
 51
90.00016208801026
  0
LINE
  5
2F9A
330
1A
100
AcDbEntity
  8
SEIHIN
  6
Continuous
 62
     3
 48
16.0
100
AcDbLine
 10
488.5642137754593
 20
178.7921828738287
 30
0.0
 11
488.2395137754593
 21
178.7921828738287
 31
0.0
  0
LINE
  5
2F9B
330
1A
100
AcDbEntity
  8
SEIHIN
  6
Continuous
 62
     3
 48
16.0
100
AcDbLine
 10
506.2395137754593
 20
177.7921828738287
 30
0.0
 11
506.2395137754593
 21
164.9421828738287
 31
0.0
  0
LINE
  5
2F9C
330
1A
100
AcDbEntity
  8
SEIHIN
  6
Continuous
 62
     3
 48
16.0
100
AcDbLine
 10
504.2395137754594
 20
176.8921828738287
 30
0.0
 11
504.2395137754594
 21
166.9421828738287
 31
0.0
  0
ARC
  5
2F9D
330
1A
100
AcDbEntity
  8
SEIHIN
  6
Continuous
 62
     3
 48
16.0
100
AcDbCircle
 10
497.3395049451966
 20
178.2921910816637
 30
0.0
 40
2.500016325959887
100
AcDbArc
 50
195.7214905187351
 51
258.4633238888088
  0
LINE
  5
2F9E
330
1A
100
AcDbEntity
  8
SEIHIN
  6
Continuous
 62
     3
 48
16.0
100
AcDbLine
 10
498.7395137754593
 20
165.9425828738287
 30
0.0
 11
498.239513775459
 21
173.7921828738287
 31
0.0
  0
LINE
  5
2F9F
330
1A
100
AcDbEntity
  8
SEIHIN
  6
Continuous
 62
     3
 48
16.0
100
AcDbLine
 10
497.3929137754592
 20
165.9421828738287
 30
0.0
 11
503.2395137754593
 21
165.9421828738287
 31
0.0
  0
LINE
  5
2FA0
330
1A
100
AcDbEntity
  8
SEIHIN
  6
Continuous
 62
     3
 48
16.0
100
AcDbLine
 10
498.239513775459
 20
173.7921828738287
 30
0.0
 11
495.9654137754592
 21
173.7921828738287
 31
0.0
  0
ARC
  5
2FA1
330
1A
100
AcDbEntity
  8
SEIHIN
  6
Continuous
 62
     3
 48
16.0
100
AcDbCircle
 10
497.392903437045
 20
164.9421744114003
 30
0.0
 40
1.000008462481972
100
AcDbArc
 50
89.9994076575086
 51
168.602954588304
  0
LINE
  5
2FA2
330
1A
100
AcDbEntity
  8
SEIHIN
  6
Continuous
 62
     3
 48
16.0
100
AcDbLine
 10
490.2495137754593
 20
166.1873828738287
 30
0.0
 11
492.8482137754593
 21
166.1419828738288
 31
0.0
  0
ARC
  5
2FA3
330
1A
100
AcDbEntity
  8
SEIHIN
  6
Continuous
 62
     3
 48
16.0
100
AcDbCircle
 10
495.965445731629
 20
170.7922140408191
 30
0.0
 40
2.999968833179797
100
AcDbArc
 50
90.00061032422271
 51
178.5680368144498
  0
ARC
  5
2FA4
330
1A
100
AcDbEntity
  8
SEIHIN
  6
Continuous
 62
     3
 48
16.0
100
AcDbCircle
 10
503.2395137754593
 20
166.9421828738287
 30
0.0
 40
1.0
100
AcDbArc
 50
270.0
 51
0.0
  0
LINE
  5
2FA5
330
1A
100
AcDbEntity
  8
SEIHIN
  6
Continuous
 62
     3
 48
16.0
100
AcDbLine
 10
498.7334137754593
 20
166.0388828738287
 30
0.0
 11
504.2395137754594
 21
165.9424828738288
 31
0.0
  0
ARC
  5
2FA6
330
1A
100
AcDbEntity
  8
SEIHIN
  6
Continuous
 62
     3
 48
16.0
100
AcDbCircle
 10
497.3395076721531
 20
178.2921813940038
 30
0.0
 40
2.500016325938825
100
AcDbArc
 50
11.53691727184006
 51
195.7212598669949
  0
LINE
  5
2FA7
330
1A
100
AcDbEntity
  8
SEIHIN
  6
Continuous
 62
     3
 48
16.0
100
AcDbLine
 10
496.8395137754591
 20
176.9921828738287
 30
0.0
 11
504.1395137754592
 21
176.9921828738287
 31
0.0
  0
LINE
  5
2FA8
330
1A
100
AcDbEntity
  8
SEIHIN
  6
Continuous
 62
     3
 48
16.0
100
AcDbLine
 10
496.8395137754591
 20
176.9921828738287
 30
0.0
 11
496.8395137754591
 21
175.8426828738287
 31
0.0
  0
ARC
  5
2FA9
330
1A
100
AcDbEntity
  8
SEIHIN
  6
Continuous
 62
     3
 48
16.0
100
AcDbCircle
 10
505.2395137754593
 20
177.7921828738287
 30
0.0
 40
1.0
100
AcDbArc
 50
0.0
 51
90.0
  0
ARC
  5
2FAA
330
1A
100
AcDbEntity
  8
SEIHIN
  6
Continuous
 62
     3
 48
16.0
100
AcDbCircle
 10
504.1395137754592
 20
176.8921828738287
 30
0.0
 40
0.0999999999999659
100
AcDbArc
 50
0.0000000000325689
 51
90.00000000003257
  0
LINE
  5
2FAB
330
1A
100
AcDbEntity
  8
SEIHIN
  6
Continuous
 62
     3
 48
16.0
100
AcDbLine
 10
521.2396561670318
 20
180.7883828738287
 30
0.0
 11
521.2396561670318
 21
178.7921828738287
 31
0.0
  0
DIMENSION
  5
2FAC
330
1A
100
AcDbEntity
  8
SUNPOU
100
AcDbDimension
  2
*D5
 10
567.3293589788549
 20
124.9921828738286
 30
0.0
 11
567.3293589788549
 21
151.8921828738288
 31
0.0
 70
   160
 71
     5
 42
53.80000000000006
  3
STANDARD
100
AcDbAlignedDimension
 13
541.2403191279744
 23
178.7921828738287
 33
0.0
 14
541.2403191279744
 24
124.9921828738287
 34
0.0
 50
90.0
100
AcDbRotatedDimension
1001
ACAD
1000
DSTYLE
1002
{
1070
   140
1040
6.0
1070
    74
1070
     0
1070
   172
1070
     1
1070
    73
1070
     0
1070
   272
1070
     2
1070
    77
1070
     3
1070
   173
1070
     1
1070
   147
1040
2.0
1070
    42
1040
6.0
1070
    44
1040
3.0
1070
    43
1040
14.0
1070
   271
1070
     0
1070
   178
1070
     4
1070
   177
1070
     4
1070
   176
1070
     4
1070
   141
1040
150.0
1070
     7
1000
_OPEN
1070
     6
1000
_OPEN
1070
    41
1040
7.0
1002
}
  0
LINE
  5
2FAD
330
1A
100
AcDbEntity
  8
SEIHIN
  6
Continuous
 62
     3
 48
16.0
100
AcDbLine
 10
541.2396561670318
 20
180.7883828738287
 30
0.0
 11
541.2396561670318
 21
124.9921828738287
 31
0.0
  0
DIMENSION
  5
2FAE
330
1A
100
AcDbEntity
  8
SUNPOU
100
AcDbDimension
  2
*D6
 10
602.8426491768356
 20
315.9435818430148
 30
0.0
 11
602.8426491768355
 21
394.4936318429012
 31
0.0
 70
   160
 71
     5
 42
154.1001999999701
  3
STANDARD
100
AcDbAlignedDimension
 13
567.3403137754593
 23
470.043781842985
 33
0.0
 14
506.2396522954736
 24
315.9435818430148
 34
0.0
 50
90.0
100
AcDbRotatedDimension
1001
ACAD
1000
DSTYLE
1002
{
1070
   140
1040
6.0
1070
    74
1070
     0
1070
   172
1070
     1
1070
    73
1070
     0
1070
   272
1070
     2
1070
    77
1070
     3
1070
   173
1070
     1
1070
   147
1040
2.0
1070
    42
1040
6.0
1070
    44
1040
3.0
1070
    43
1040
14.0
1070
   271
1070
     0
1070
   178
1070
     4
1070
   177
1070
     4
1070
   176
1070
     4
1070
   141
1040
150.0
1070
     7
1000
_OPEN
1070
     6
1000
_OPEN
1070
    41
1040
7.0
1002
}
  0
DIMENSION
  5
2FAF
330
1A
100
AcDbEntity
  8
SUNPOU
100
AcDbDimension
  2
*D7
 10
567.2968725162141
 20
351.1437818429848
 30
0.0
 11
567.2968725162141
 21
410.5937818429849
 31
0.0
 70
   160
 71
     5
 42
118.9000000000002
  3
STANDARD
100
AcDbAlignedDimension
 13
541.2403191279744
 23
470.043781842985
 33
0.0
 14
541.2403191279744
 24
351.1437818429848
 34
0.0
 50
90.0
100
AcDbRotatedDimension
1001
ACAD
1000
DSTYLE
1002
{
1070
   140
1040
6.0
1070
    74
1070
     0
1070
   172
1070
     1
1070
    73
1070
     0
1070
   272
1070
     2
1070
    77
1070
     3
1070
   173
1070
     1
1070
   147
1040
2.0
1070
    42
1040
6.0
1070
    44
1040
3.0
1070
    43
1040
14.0
1070
   271
1070
     0
1070
   178
1070
     4
1070
   177
1070
     4
1070
   176
1070
     4
1070
   141
1040
150.0
1070
     7
1000
_OPEN
1070
     6
1000
_OPEN
1070
    41
1040
7.0
1002
}
  0
LINE
  5
2FB2
330
1A
100
AcDbEntity
  8
SEIHIN
  6
Continuous
 62
     3
 48
16.0
100
AcDbLine
 10
541.2403191279744
 20
470.043781842985
 30
0.0
 11
541.2403191279744
 21
410.593881842985
 31
0.0
  0
DIMENSION
  5
2FB3
330
1A
100
AcDbEntity
  8
SUNPOU
100
AcDbDimension
  2
*D8
 10
567.0728228740491
 20
315.9435818428513
 30
0.0
 11
567.072822874049
 21
335.0436318429011
 31
0.0
 70
   160
 71
     5
 42
35.20020000013346
  3
STANDARD
100
AcDbAlignedDimension
 13
567.3402137754591
 23
351.1437818429848
 33
0.0
 14
506.2397009075028
 24
315.9435818428513
 34
0.0
 50
90.0
100
AcDbRotatedDimension
1001
ACAD
1000
DSTYLE
1002
{
1070
   140
1040
6.0
1070
    74
1070
     0
1070
   172
1070
     1
1070
    73
1070
     0
1070
   272
1070
     2
1070
    77
1070
     3
1070
   173
1070
     1
1070
   147
1040
2.0
1070
    42
1040
6.0
1070
    44
1040
3.0
1070
    43
1040
14.0
1070
   271
1070
     0
1070
   178
1070
     4
1070
   177
1070
     4
1070
   176
1070
     4
1070
   141
1040
150.0
1070
     7
1000
_OPEN
1070
     6
1000
_OPEN
1070
    41
1040
7.0
1002
}
  0
LINE
  5
2FB5
330
1A
100
AcDbEntity
  8
SEIHIN
  6
Continuous
 62
     3
 48
16.0
100
AcDbLine
 10
541.2403191279744
 20
458.6441818429849
 30
0.0
 11
521.2403185965761
 21
458.6465375930161
 31
0.0
  0
LINE
  5
2FB6
330
1A
100
AcDbEntity
  8
SEIHIN
  6
Continuous
 62
     3
 48
16.0
100
AcDbLine
 10
541.2403191279744
 20
463.5932818429849
 30
0.0
 11
521.2392022258831
 21
463.5955373411909
 31
0.0
  0
LINE
  5
2FB7
330
1A
100
AcDbEntity
  8
SEIHIN
  6
Continuous
 62
     3
 48
16.0
100
AcDbLine
 10
541.2402191279746
 20
362.5432818429849
 30
0.0
 11
521.2402191279746
 21
362.5432818429849
 31
0.0
  0
LINE
  5
2FB8
330
1A
100
AcDbEntity
  8
SEIHIN
  6
Continuous
 62
     3
 48
16.0
100
AcDbLine
 10
541.2402191279746
 20
357.5943818429848
 30
0.0
 11
521.2396561670318
 21
357.5943151744418
 31
0.0
  0
LINE
  5
2FB9
330
1A
100
AcDbEntity
  8
SEIHIN
  6
Continuous
 62
     3
 48
16.0
100
AcDbLine
 10
541.2403191279744
 20
444.3436818429848
 30
0.0
 11
418.0401137754592
 21
444.3438818429848
 31
0.0
  0
LINE
  5
2FBA
330
1A
100
AcDbEntity
  8
CENTER_L
  6
CENTER
 62
     1
 48
5.0
100
AcDbLine
 10
548.3309755846335
 20
410.5939135858276
 30
0.0
 11
440.5594137754593
 21
410.5942818429848
 31
0.0
  0
LINE
  5
2FBB
330
1A
100
AcDbEntity
  8
SEIHIN
  6
Continuous
 62
     3
 48
16.0
100
AcDbLine
 10
541.2403191279744
 20
366.3438818429848
 30
0.0
 11
504.2398137754591
 21
366.3438818429848
 31
0.0
  0
LINE
  5
2FBC
330
1A
100
AcDbEntity
  8
SEIHIN
  6
Continuous
 62
     3
 48
16.0
100
AcDbLine
 10
515.1404244804897
 20
351.1437818429848
 30
0.0
 11
510.2397137754592
 21
351.1437818429848
 31
0.0
  0
LINE
  5
2FBD
330
1A
100
AcDbEntity
  8
SEIHIN
  6
Continuous
 62
     3
 48
16.0
100
AcDbLine
 10
541.2403191279744
 20
376.8438818429848
 30
0.0
 11
486.5397137754593
 21
376.8438818429848
 31
0.0
  0
LINE
  5
2FBE
330
1A
100
AcDbEntity
  8
SEIHIN
  6
Continuous
 62
     3
 48
16.0
100
AcDbLine
 10
541.2403191279744
 20
454.8436818429849
 30
0.0
 11
439.3401137754593
 21
454.8438818429848
 31
0.0
  0
LINE
  5
2FBF
330
1A
100
AcDbEntity
  8
SEIHIN
  6
Continuous
 62
     3
 48
16.0
100
AcDbLine
 10
483.0578137754591
 20
374.3258818429848
 30
0.0
 11
492.1918137754592
 21
365.1918818429849
 31
0.0
  0
ARC
  5
2FC0
330
1A
100
AcDbEntity
  8
SEIHIN
  6
Continuous
 62
     3
 48
16.0
100
AcDbCircle
 10
486.5397137754593
 20
370.8438818429846
 30
0.0
 40
6.000000000000056
100
AcDbArc
 50
90.0
 51
179.9999999999992
  0
LINE
  5
2FC1
330
1A
100
AcDbEntity
  8
SEIHIN
  6
Continuous
 62
     3
 48
16.0
100
AcDbLine
 10
413.0397573416496
 20
315.9438386131439
 30
0.0
 11
413.0401137754592
 21
439.3438818429848
 31
0.0
  0
LINE
  5
2FC2
330
1A
100
AcDbEntity
  8
SEIHIN
  6
Continuous
 62
     3
 48
16.0
100
AcDbLine
 10
506.2396623876519
 20
315.9435818429809
 30
0.0
 11
446.7896623876519
 21
315.943781842981
 31
0.0
  0
LINE
  5
2FC3
330
1A
100
AcDbEntity
  8
SEIHIN
  6
Continuous
 62
     3
 48
16.0
100
AcDbLine
 10
450.7896623876519
 20
315.943781842981
 30
0.0
 11
468.0722623876518
 21
315.943781842981
 31
0.0
  0
LINE
  5
2FC4
330
1A
100
AcDbEntity
  8
SEIHIN
  6
Continuous
 62
     3
 48
16.0
100
AcDbLine
 10
504.2397354288946
 20
336.4419289668505
 30
0.0
 11
504.2398623876518
 21
345.043881842981
 31
0.0
  0
LINE
  5
2FC5
330
1A
100
AcDbEntity
  8
SEIHIN
  6
Continuous
 62
     3
 48
16.0
100
AcDbLine
 10
496.5728995021902
 20
335.943340548298
 30
0.0
 11
496.574713775459
 21
353.1439818429849
 31
0.0
  0
LINE
  5
2FC6
330
1A
100
AcDbEntity
  8
SEIHIN
  6
Continuous
 62
     3
 48
16.0
100
AcDbLine
 10
480.5395215444057
 20
315.9436683026641
 30
0.0
 11
480.539713775459
 21
370.8438818429848
 31
0.0
  0
LINE
  5
2FC7
330
1A
100
AcDbEntity
  8
SEIHIN
  6
Continuous
 62
     3
 48
16.0
100
AcDbLine
 10
491.0395720925487
 20
315.9436329786925
 30
0.0
 11
491.0397137754593
 21
353.1439818429849
 31
0.0
  0
LINE
  5
2FC8
330
1A
100
AcDbEntity
  8
SEIHIN
  6
Continuous
 62
     3
 48
16.0
100
AcDbLine
 10
506.2396522954736
 20
315.9435818430148
 30
0.0
 11
506.2397556397562
 21
345.04897443101
 31
0.0
  0
LINE
  5
2FC9
330
1A
100
AcDbEntity
  8
SEIHIN
  6
Continuous
 62
     3
 48
16.0
100
AcDbLine
 10
499.7890623876521
 20
315.9435818429809
 30
0.0
 11
499.7892623876518
 21
335.9436818429809
 31
0.0
  0
LINE
  5
2FCA
330
1A
100
AcDbEntity
  8
SEIHIN
  6
Continuous
 62
     3
 48
16.0
100
AcDbLine
 10
494.8400623876517
 20
318.943581842981
 30
0.0
 11
494.8402323886516
 21
335.9436818094979
 31
0.0
  0
ARC
  5
2FCC
330
1A
100
AcDbEntity
  8
SEIHIN
  6
Continuous
 62
     3
 48
16.0
100
AcDbCircle
 10
503.7397354288947
 20
336.4419289668505
 30
0.0
 40
0.4999999999999433
100
AcDbArc
 50
269.9999999999935
 51
359.9999999999935
  0
ARC
  5
2FCD
330
1A
100
AcDbEntity
  8
SEIHIN
  6
Continuous
 62
     3
 48
16.0
100
AcDbCircle
 10
510.2398137754591
 20
347.1437818429848
 30
0.0
 40
6.000000000000084
100
AcDbArc
 50
90.0
 51
179.9999999999992
  0
ARC
  5
2FCE
330
1A
100
AcDbEntity
  8
SEIHIN
  6
Continuous
 62
     3
 48
16.0
100
AcDbCircle
 10
510.2398137754593
 20
347.1437818429848
 30
0.0
 40
4.0
100
AcDbArc
 50
90.0
 51
180.0
  0
LINE
  5
2FCF
330
1A
100
AcDbEntity
  8
SEIHIN
  6
Continuous
 62
     3
 48
16.0
100
AcDbLine
 10
521.2400217192111
 20
360.8078694610865
 30
0.0
 11
504.2398137754591
 21
360.808981842985
 31
0.0
  0
ARC
  5
2FD0
330
1A
100
AcDbEntity
  8
SEIHIN
  6
Continuous
 62
     3
 48
16.0
100
AcDbCircle
 10
497.0398137754592
 20
360.3438818429848
 30
0.0
 40
5.999999999999886
100
AcDbArc
 50
90.0
 51
180.0000000000008
  0
LINE
  5
2FD1
330
1A
100
AcDbEntity
  8
SEIHIN
  6
Continuous
 62
     3
 48
16.0
100
AcDbLine
 10
498.2397137754593
 20
355.1439818429849
 30
0.0
 11
488.2397137754592
 21
355.1439818429849
 31
0.0
  0
LINE
  5
2FD2
330
1A
100
AcDbEntity
  8
SEIHIN
  6
Continuous
 62
     3
 48
16.0
100
AcDbLine
 10
498.2397137754593
 20
353.1439818429849
 30
0.0
 11
488.2397137754592
 21
353.1439818429849
 31
0.0
  0
LINE
  5
2FD3
330
1A
100
AcDbEntity
  8
SEIHIN
  6
Continuous
 62
     3
 48
16.0
100
AcDbLine
 10
490.0644137754593
 20
361.1439818429849
 30
0.0
 11
488.2398137754591
 21
361.1439818429849
 31
0.0
  0
LINE
  5
2FD4
330
1A
100
AcDbEntity
  8
SEIHIN
  6
Continuous
 62
     3
 48
16.0
100
AcDbLine
 10
490.0644137754593
 20
355.1439818429849
 30
0.0
 11
490.0644137754593
 21
361.1439818429849
 31
0.0
  0
LINE
  5
2FD5
330
1A
100
AcDbEntity
  8
SEIHIN
  6
Continuous
 62
     3
 48
16.0
100
AcDbLine
 10
488.2398137754591
 20
353.1439818429849
 30
0.0
 11
488.2398137754591
 21
361.1439818429849
 31
0.0
  0
LINE
  5
2FD6
330
1A
100
AcDbEntity
  8
SEIHIN
  6
Continuous
 62
     3
 48
16.0
100
AcDbLine
 10
504.2398137754591
 20
359.1439818429849
 30
0.0
 11
504.2398137754591
 21
369.143981842985
 31
0.0
  0
LINE
  5
2FD7
330
1A
100
AcDbEntity
  8
SEIHIN
  6
Continuous
 62
     3
 48
16.0
100
AcDbLine
 10
502.2398137754593
 20
359.1439818429849
 30
0.0
 11
502.2398137754593
 21
369.143981842985
 31
0.0
  0
LINE
  5
2FD8
330
1A
100
AcDbEntity
  8
SEIHIN
  6
Continuous
 62
     3
 48
16.0
100
AcDbLine
 10
493.5459137754593
 20
363.8377818429848
 30
0.0
 11
497.2484137754592
 21
360.135281842985
 31
0.0
  0
ARC
  5
2FD9
330
1A
100
AcDbEntity
  8
SEIHIN
  6
Continuous
 62
     3
 48
16.0
100
AcDbCircle
 10
501.5747137754591
 20
355.8089818429849
 30
0.0
 40
5.000000000000085
100
AcDbArc
 50
89.99999999999836
 51
179.9999999999992
  0
LINE
  5
2FDA
330
1A
100
AcDbEntity
  8
SEIHIN
  6
Continuous
 62
     3
 48
16.0
100
AcDbLine
 10
496.574713775459
 20
355.1439818429849
 30
0.0
 11
496.574713775459
 21
355.8089818429849
 31
0.0
  0
LINE
  5
2FDB
330
1A
100
AcDbEntity
  8
SEIHIN
  6
Continuous
 62
     3
 48
16.0
100
AcDbLine
 10
498.2398137754592
 20
353.1439818429849
 30
0.0
 11
498.2398137754592
 21
355.1439818429849
 31
0.0
  0
LINE
  5
2FDC
330
1A
100
AcDbEntity
  8
SEIHIN
  6
Continuous
 62
     3
 48
16.0
100
AcDbLine
 10
492.9667137754591
 20
353.1439818429849
 30
0.0
 11
492.9667137754591
 21
355.1439818429849
 31
0.0
  0
LINE
  5
2FDD
330
1A
100
AcDbEntity
  8
SEIHIN
  6
Continuous
 62
     3
 48
16.0
100
AcDbLine
 10
491.0397137754593
 20
355.1439818429849
 30
0.0
 11
491.0398137754593
 21
360.3438818429848
 31
0.0
  0
LINE
  5
2FDE
330
1A
100
AcDbEntity
  8
SEIHIN
  6
Continuous
 62
     3
 48
16.0
100
AcDbLine
 10
502.2398137754593
 20
360.808981842985
 30
0.0
 11
501.5747137754593
 21
360.808981842985
 31
0.0
  0
LINE
  5
2FDF
330
1A
100
AcDbEntity
  8
SEIHIN
  6
Continuous
 62
     3
 48
16.0
100
AcDbLine
 10
504.2398137754591
 20
359.1437818429848
 30
0.0
 11
502.2398137754593
 21
359.1437818429848
 31
0.0
  0
LINE
  5
2FE0
330
1A
100
AcDbEntity
  8
SEIHIN
  6
Continuous
 62
     3
 48
16.0
100
AcDbLine
 10
502.2398137754593
 20
366.3438818429848
 30
0.0
 11
497.039813775459
 21
366.3438818429848
 31
0.0
  0
LINE
  5
2FE1
330
1A
100
AcDbEntity
  8
SEIHIN
  6
Continuous
 62
     3
 48
16.0
100
AcDbLine
 10
502.2398137754593
 20
367.3192818429849
 30
0.0
 11
496.2398137754592
 21
367.319181842985
 31
0.0
  0
LINE
  5
2FE2
330
1A
100
AcDbEntity
  8
SEIHIN
  6
Continuous
 62
     3
 48
16.0
100
AcDbLine
 10
504.2398137754591
 20
369.1437818429847
 30
0.0
 11
496.2398137754592
 21
369.1437818429847
 31
0.0
  0
LINE
  5
2FE3
330
1A
100
AcDbEntity
  8
SEIHIN
  6
Continuous
 62
     3
 48
16.0
100
AcDbLine
 10
496.2398137754592
 20
367.3192818429849
 30
0.0
 11
496.2398137754592
 21
369.1437818429847
 31
0.0
  0
LINE
  5
2FE4
330
1A
100
AcDbEntity
  8
SEIHIN
  6
Continuous
 62
     3
 48
16.0
100
AcDbLine
 10
504.2398137754591
 20
364.416981842985
 30
0.0
 11
502.2398137754593
 21
364.416981842985
 31
0.0
  0
ARC
  5
2FE7
330
1A
100
AcDbEntity
  8
SEIHIN
  6
Continuous
 62
     3
 48
16.0
100
AcDbCircle
 10
520.7402191279747
 20
353.6437818429849
 30
0.0
 40
0.4999999999999716
100
AcDbArc
 50
270.0000000000163
 51
0.0000000000162844
  0
LINE
  5
2FE8
330
1A
100
AcDbEntity
  8
SEIHIN
  6
Continuous
 62
     3
 48
16.0
100
AcDbLine
 10
521.239926906436
 20
460.3829450576866
 30
0.0
 11
439.3401137754593
 21
460.3787818429848
 31
0.0
  0
ARC
  5
2FE9
330
1A
100
AcDbEntity
  8
SEIHIN
  6
Continuous
 62
     3
 48
16.0
100
AcDbCircle
 10
418.0401137754592
 20
439.3438818429848
 30
0.0
 40
5.0
100
AcDbArc
 50
90.0
 51
180.0
  0
LINE
  5
2FEA
330
1A
100
AcDbEntity
  8
SEIHIN
  6
Continuous
 62
     3
 48
16.0
100
AcDbLine
 10
437.3401137754592
 20
460.3787818429848
 30
0.0
 11
421.3401137754593
 21
460.3788818429848
 31
0.0
  0
LINE
  5
2FEB
330
1A
100
AcDbEntity
  8
SEIHIN
  6
Continuous
 62
     3
 48
16.0
100
AcDbLine
 10
437.3401137754592
 20
454.8438818429848
 30
0.0
 11
421.3401137754593
 21
454.8438818429848
 31
0.0
  0
LINE
  5
2FEC
330
1A
100
AcDbEntity
  8
SEIHIN
  6
Continuous
 62
     3
 48
16.0
100
AcDbLine
 10
439.3402137754591
 20
453.8683818429849
 30
0.0
 11
419.3402137754591
 21
453.8684818429849
 31
0.0
  0
LINE
  5
2FED
330
1A
100
AcDbEntity
  8
SEIHIN
  6
Continuous
 62
     3
 48
16.0
100
AcDbLine
 10
439.3402137754591
 20
452.0438818429849
 30
0.0
 11
419.3402137754591
 21
452.0438818429849
 31
0.0
  0
LINE
  5
2FEE
330
1A
100
AcDbEntity
  8
SEIHIN
  6
Continuous
 62
     3
 48
16.0
100
AcDbLine
 10
421.3401137754593
 20
462.0439818429848
 30
0.0
 11
421.3401137754593
 21
453.8687818429849
 31
0.0
  0
LINE
  5
2FEF
330
1A
100
AcDbEntity
  8
SEIHIN
  6
Continuous
 62
     3
 48
16.0
100
AcDbLine
 10
419.3401137754592
 20
462.0439818429848
 30
0.0
 11
419.3401137754592
 21
452.0442818429848
 31
0.0
  0
LINE
  5
2FF0
330
1A
100
AcDbEntity
  8
SEIHIN
  6
Continuous
 62
     3
 48
16.0
100
AcDbLine
 10
421.3401137754593
 20
462.0438818429847
 30
0.0
 11
419.3402137754591
 21
462.0438818429847
 31
0.0
  0
LINE
  5
2FF1
330
1A
100
AcDbEntity
  8
SEIHIN
  6
Continuous
 62
     3
 48
16.0
100
AcDbLine
 10
421.3401137754593
 20
456.7708818429848
 30
0.0
 11
419.3402137754591
 21
456.7707818429849
 31
0.0
  0
LINE
  5
2FF2
330
1A
100
AcDbEntity
  8
SEIHIN
  6
Continuous
 62
     3
 48
16.0
100
AcDbLine
 10
439.3401137754593
 20
462.0438818429847
 30
0.0
 11
439.3401137754593
 21
452.0441818429848
 31
0.0
  0
LINE
  5
2FF3
330
1A
100
AcDbEntity
  8
SEIHIN
  6
Continuous
 62
     3
 48
16.0
100
AcDbLine
 10
437.3401137754592
 20
462.0438818429847
 30
0.0
 11
437.3401137754592
 21
453.8687818429849
 31
0.0
  0
LINE
  5
2FF4
330
1A
100
AcDbEntity
  8
SEIHIN
  6
Continuous
 62
     3
 48
16.0
100
AcDbLine
 10
439.3402137754591
 20
462.0438818429847
 30
0.0
 11
437.3401137754592
 21
462.0438818429847
 31
0.0
  0
LINE
  5
2FF5
330
1A
100
AcDbEntity
  8
SEIHIN
  6
Continuous
 62
     3
 48
16.0
100
AcDbLine
 10
439.3402137754591
 20
456.7707818429849
 30
0.0
 11
437.3401137754592
 21
456.7707818429849
 31
0.0
  0
LINE
  5
2FF6
330
1A
100
AcDbEntity
  8
SEIHIN
  6
Continuous
 62
     3
 48
16.0
100
AcDbLine
 10
541.2403191279744
 20
351.1437818429848
 30
0.0
 11
541.2403191279744
 21
410.5936818429848
 31
0.0
  0
ARC
  5
2FF7
330
1A
100
AcDbEntity
  8
SEIHIN
  6
Continuous
 62
     3
 48
16.0
100
AcDbCircle
 10
520.7383116018229
 20
467.54377628856
 30
0.0
 40
0.5
100
AcDbArc
 50
0.0
 51
90.0
  0
MTEXT
  5
30C0
330
1A
100
AcDbEntity
  8
moji
100
AcDbMText
 10
229.4376941033006
 20
371.4815109731671
 30
0.0
 40
6.0
 41
151.5362
 71
     1
 72
     5
  1
{\fProxy 1|b0|i0|c128|p78;ｽﾐ飾り（出）\U+2161型（GG84）装着用ﾘﾌﾞ}
 73
     1
 44
1.0
1001
ACAD
1000
MTEXTBEGIN
1070
    73
1070
     1
1070
    44
1040
1.0
1070
    74
1070
     0
1000
MTEXTEND
  0
MTEXT
  5
30C1
330
1A
100
AcDbEntity
  8
moji
100
AcDbMText
 10
590.2688354479091
 20
268.7310549357558
 30
0.0
 40
6.0
 41
151.5362
 71
     1
 72
     5
  1
{\fProxy 1|b0|i0|c128|p78;ｽﾐ飾り（入）\U+2161型（GG83）装着用ﾘﾌﾞ}
 73
     1
 44
1.0
1001
ACAD
1000
MTEXTBEGIN
1070
    73
1070
     1
1070
    44
1040
1.0
1070
    74
1070
     0
1000
MTEXTEND
  0
LEADER
  5
30C4
330
1A
100
AcDbEntity
  8
SUNPOU
100
AcDbLeader
  3
STANDARD
 76
     3
 10
395.3400137754591
 20
418.0438818429849
 30
0.0
 10
355.4234231653554
 20
359.760234050399
 30
0.0
 10
228.0435994049117
 20
359.760234050399
 30
0.0
1001
ACAD
1000
DSTYLE
1002
{
1070
     6
1000
OPEN
1070
    41
1040
7.0
1070
    42
1040
6.0
1070
    43
1040
14.0
1070
    44
1040
3.0
1070
    73
1070
     0
1070
    74
1070
     0
1070
    77
1070
     0
1070
   140
1040
6.0
1070
   141
1040
150.0
1070
   147
1040
2.0
1070
   172
1070
     1
1070
   173
1070
     1
1070
   176
1070
   256
1070
   177
1070
   256
1070
   178
1070
   256
1070
   271
1070
     0
1070
   272
1070
     0
1070
   279
1070
     2
1070
   341
1005
6D
1070
   343
1005
6D
1070
   344
1005
6D
1070
   371
1070
    -1
1070
   372
1070
    -1
1002
}
  0
LEADER
  5
30C6
330
1A
100
AcDbEntity
  8
SUNPOU
100
AcDbLeader
  3
STANDARD
 76
     3
 10
498.2398137754592
 20
353.1439818429849
 30
0.0
 10
588.3277069969872
 20
258.0406778648719
 30
0.0
 10
716.4647988569709
 20
258.0406778648719
 30
0.0
1001
ACAD
1000
DSTYLE
1002
{
1070
     6
1000
OPEN
1070
    41
1040
7.0
1070
    42
1040
6.0
1070
    43
1040
14.0
1070
    44
1040
3.0
1070
    73
1070
     0
1070
    74
1070
     0
1070
    77
1070
     0
1070
   140
1040
6.0
1070
   141
1040
150.0
1070
   147
1040
2.0
1070
   172
1070
     1
1070
   173
1070
     1
1070
   176
1070
   256
1070
   177
1070
   256
1070
   178
1070
   256
1070
   271
1070
     0
1070
   272
1070
     0
1070
   279
1070
     2
1070
   341
1005
6D
1070
   343
1005
6D
1070
   344
1005
6D
1070
   371
1070
    -1
1070
   372
1070
    -1
1002
}
  0
DIMENSION
  5
342F
330
1A
100
AcDbEntity
  8
SUNPOU
100
AcDbDimension
  2
*D10
 10
541.2403191279744
 20
500.6167728734824
 30
0.0
 11
494.0153191279744
 21
505.6167728734824
 31
0.0
 70
    32
 71
     5
 42
94.45000000000005
  3
STANDARD
100
AcDbAlignedDimension
 13
446.7903191279743
 23
410.5938337871722
 33
0.0
 14
541.2403191279744
 24
410.5936818429848
 34
0.0
100
AcDbRotatedDimension
1001
ACAD
1000
DSTYLE
1002
{
1070
    41
1040
7.0
1070
    42
1040
6.0
1070
    43
1040
14.0
1070
    44
1040
3.0
1070
    73
1070
     0
1070
    74
1070
     0
1070
    77
1070
     3
1070
   140
1040
6.0
1070
   141
1040
150.0
1070
   147
1040
2.0
1070
   172
1070
     1
1070
   173
1070
     1
1070
   176
1070
   256
1070
   177
1070
   256
1070
   178
1070
   256
1070
   271
1070
     0
1070
   272
1070
     0
1070
   279
1070
     2
1070
   341
1005
6D
1070
   343
1005
6D
1070
   344
1005
6D
1070
   371
1070
    -1
1070
   372
1070
    -1
1002
}
  0
LINE
  5
3459
330
1A
100
AcDbEntity
  8
SUNPOU
100
AcDbLine
 10
504.2398137754591
 20
347.1437818429848
 30
0.0
 11
504.2398137754591
 21
357.5632170587671
 31
0.0
  0
LINE
  5
345C
330
1A
100
AcDbEntity
  8
SEIHIN
100
AcDbLine
 10
541.2403191279744
 20
458.6441818429849
 30
0.0
 11
521.2403191279744
 21
458.6441818429849
 31
0.0
  0
LINE
  5
345D
330
1A
100
AcDbEntity
  8
SEIHIN
100
AcDbLine
 10
521.2403191279744
 20
458.6441818429849
 30
0.0
 11
521.2383116018229
 21
467.54377628856
 31
0.0
  0
LINE
  5
345E
330
1A
100
AcDbEntity
  8
SEIHIN
100
AcDbLine
 10
515.1404244804897
 20
468.0437793984888
 30
0.0
 11
520.7383118796
 21
468.04377628856
 31
0.0
  0
LINE
  5
345F
330
1A
100
AcDbEntity
  8
SEIHIN
100
AcDbLine
 10
541.2402191279746
 20
362.5432818429849
 30
0.0
 11
521.2402191279746
 21
362.5432818429849
 31
0.0
  0
LINE
  5
3460
330
1A
100
AcDbEntity
  8
SEIHIN
100
AcDbLine
 10
521.2402191279746
 20
362.5432818429849
 30
0.0
 11
521.2392031571439
 21
353.6119237414391
 31
0.0
  0
LINE
  5
3461
330
1A
100
AcDbEntity
  8
SEIHIN
100
AcDbLine
 10
510.2398137754592
 20
353.1437818429848
 30
0.0
 11
520.753557359842
 21
353.143781842985
 31
0.0
  0
LINE
  5
3462
330
1A
100
AcDbEntity
  8
SEIHIN
100
AcDbLine
 10
515.1404244804897
 20
470.0438123985112
 30
0.0
 11
541.2403191279744
 21
470.0438123985112
 31
0.0
  0
LINE
  5
3463
330
1A
100
AcDbEntity
  8
SEIHIN
100
AcDbLine
 10
541.2403191279744
 20
351.1437818429848
 30
0.0
 11
515.1404244804897
 21
351.1437818429848
 31
0.0
  0
LINE
  5
347B
330
1A
100
AcDbEntity
  8
SEIHIN
100
AcDbLine
 10
488.2398137754591
 20
353.1439818429849
 30
0.0
 11
488.2397158778317
 21
315.9436423978892
 31
0.0
  0
LINE
  5
347E
330
1A
100
AcDbEntity
  8
SEIHIN
100
AcDbLine
 10
398.7392623876518
 20
315.9438818429809
 30
0.0
 11
398.7392623876518
 21
335.943881842981
 31
0.0
  0
LINE
  5
347F
330
1A
100
AcDbEntity
  8
SEIHIN
100
AcDbLine
 10
398.7392623876518
 20
335.943881842981
 30
0.0
 11
389.8398345074784
 21
335.9455802589345
 31
0.0
  0
LINE
  5
3480
330
1A
100
AcDbEntity
  8
SEIHIN
100
AcDbLine
 10
494.8400623876517
 20
315.9436818429809
 30
0.0
 11
494.8400623876517
 21
335.9436818429809
 31
0.0
  0
LINE
  5
3481
330
1A
100
AcDbEntity
  8
SEIHIN
100
AcDbLine
 10
494.8400623876517
 20
335.9436818429809
 30
0.0
 11
503.7398143491652
 21
335.941928973079
 31
0.0
  0
LINE
  5
3482
330
1A
100
AcDbEntity
  8
SEIHIN
100
AcDbLine
 10
387.339662387652
 20
315.9438818429809
 30
0.0
 11
387.339662387652
 21
345.043881842981
 31
0.0
  0
LINE
  5
3483
330
1A
100
AcDbEntity
  8
SEIHIN
100
AcDbLine
 10
389.3398345074784
 20
336.4455802589345
 30
0.0
 11
389.3398345074784
 21
345.043881842981
 31
0.0
  0
LINE
  5
3484
330
1A
100
AcDbEntity
  8
SEIHIN
100
AcDbLine
 10
506.2397556397562
 20
345.04897443101
 30
0.0
 11
506.2398137754593
 21
347.1437818429848
 31
0.0
  0
LINE
  5
3485
330
1A
100
AcDbEntity
  8
SEIHIN
100
AcDbLine
 10
504.2398623876518
 20
345.043881842981
 30
0.0
 11
504.2398137754591
 21
347.1437818429848
 31
0.0
  0
LINE
  5
3504
330
1A
100
AcDbEntity
  8
SEIHIN
  6
Continuous
 62
     3
 48
16.0
100
AcDbLine
 10
521.2396561670318
 20
124.9921828738287
 30
0.0
 11
541.2396561670318
 21
124.9921828738287
 31
0.0
  0
LINE
  5
3505
330
1A
100
AcDbEntity
  8
SEIHIN
  6
Continuous
 62
     3
 48
16.0
100
AcDbLine
 10
521.2396561670318
 20
136.7834828738286
 30
0.0
 11
541.2396561670318
 21
136.7834828738287
 31
0.0
  0
LINE
  5
3506
330
1A
100
AcDbEntity
  8
SEIHIN
  6
Continuous
 62
     3
 48
16.0
100
AcDbLine
 10
521.2396561670318
 20
163.9422454499135
 30
0.0
 11
541.2397561670318
 21
163.9422828738287
 31
0.0
  0
LINE
  5
3507
330
1A
100
AcDbEntity
  8
SEIHIN
  6
Continuous
 62
     3
 48
16.0
100
AcDbLine
 10
521.2396561670318
 20
178.7921828738287
 30
0.0
 11
541.2396561670318
 21
178.7921828738287
 31
0.0
  0
LINE
  5
3509
330
1A
100
AcDbEntity
  8
CENTER_L
100
AcDbLine
 10
541.2396561670318
 20
180.7883828738287
 30
0.0
 11
521.2396561670318
 21
180.7883828738287
 31
0.0
  0
LINE
  5
354E
330
1A
100
AcDbEntity
  8
SEIHIN
100
AcDbLine
 10
289.015023077259
 20
182.7835695400175
 30
0.0
 11
269.015023077259
 21
182.7835695400175
 31
0.0
  0
LINE
  5
354F
330
1A
100
AcDbEntity
  8
SEIHIN
100
AcDbLine
 10
269.015023077259
 20
182.7835695400175
 30
0.0
 11
269.0148304401357
 21
124.9923362068818
 31
0.0
  0
LINE
  5
355B
330
1A
100
AcDbEntity
  8
SEIHIN
  6
Continuous
 62
     3
 48
16.0
100
AcDbLine
 10
269.0149669399082
 20
165.9423362070158
 30
0.0
 11
255.0150230769702
 21
165.9423828734953
 31
0.0
  0
LINE
  5
355C
330
1A
100
AcDbEntity
  8
SEIHIN
  6
Continuous
 62
     3
 48
16.0
100
AcDbLine
 10
269.0150164397405
 20
180.7923106512915
 30
0.0
 11
135.0150230769703
 21
180.7926828734952
 31
0.0
  0
LINE
  5
355D
330
1A
100
AcDbEntity
  8
SEIHIN
  6
Continuous
 62
     3
 48
16.0
100
AcDbLine
 10
269.0148701227362
 20
136.8971362070052
 30
0.0
 11
255.0149230769702
 21
136.8971828734953
 31
0.0
  0
LINE
  5
355E
330
1A
100
AcDbEntity
  8
SEIHIN
  6
Continuous
 62
     3
 48
16.0
100
AcDbLine
 10
269.0148304401357
 20
124.9923362068818
 30
0.0
 11
255.0148230769703
 21
124.9923828734953
 31
0.0
  0
VIEWPORT
  5
22
102
{ACAD_XDICTIONARY
360
35A9
102
}
330
17
100
AcDbEntity
 67
     1
  8
0
100
AcDbViewport
 10
313.6808219178083
 20
148.5
 30
0.0
 40
627.3616438356165
 41
297.0
 68
     2
 69
     1
 12
313.6808219178083
 22
148.5
 13
0.0
 23
0.0
 14
1.0
 24
1.0
 15
10.0
 25
10.0
 16
0.0
 26
0.0
 36
1.0
 17
0.0
 27
0.0
 37
0.0
 42
50.0
 43
0.0
 44
0.0
 45
297.0
 50
0.0
 51
0.0
 72
   100
 90
    32768
  1

281
     0
 71
     1
 74
     0
110
0.0
120
0.0
130
0.0
111
1.0
121
0.0
131
0.0
112
0.0
122
1.0
132
0.0
 79
     0
146
0.0
  0
VIEWPORT
  5
64
102
{ACAD_XDICTIONARY
360
35AB
102
}
330
17
100
AcDbEntity
 67
     1
  8
VIEWPORT
100
AcDbViewport
 10
210.0
 20
148.5
 30
0.0
 40
420.0
 41
297.0
 68
     1
 69
     2
 12
420.0
 22
297.0
 13
0.0
 23
0.0
 14
10.0
 24
10.0
 15
0.0
 25
0.0
 16
0.0
 26
0.0
 36
1.0
 17
0.0
 27
0.0
 37
0.0
 42
50.0
 43
0.0
 44
0.0
 45
605.8799999999998
 50
0.0
 51
0.0
 72
   100
 90
    32768
  1

281
     0
 71
     1
 74
     0
110
0.0
120
0.0
130
0.0
111
1.0
121
0.0
131
0.0
112
0.0
122
1.0
132
0.0
 79
     0
146
0.0
  0
ENDSEC
  0
SECTION
  2
OBJECTS
  0
DICTIONARY
  5
C
330
0
100
AcDbDictionary
281
     1
  3
ACAD_COLOR
350
3428
  3
ACAD_GROUP
350
D
  3
ACAD_LAYOUT
350
884
  3
ACAD_MATERIAL
350
3427
  3
ACAD_MLINESTYLE
350
E
  3
ACAD_PLOTSETTINGS
350
885
  3
ACAD_PLOTSTYLENAME
350
882
  3
ACDBHEADERROUNDTRIPXREC
350
35A6
  3
AcDbVariableDictionary
350
35A2
  0
DICTIONARY
  5
8E1
330
1A
100
AcDbDictionary
280
     1
281
     1
  3
ACAD_LAYOUTSELFREF
360
326E
  0
DICTIONARY
  5
8DF
330
17
100
AcDbDictionary
280
     1
281
     1
  3
ACAD_LAYOUTSELFREF
360
326D
  0
DICTIONARY
  5
35A9
330
22
100
AcDbDictionary
280
     1
281
     1
  3
ACAD_XREC_ROUNDTRIP
360
35AA
  0
DICTIONARY
  5
35AB
330
64
100
AcDbDictionary
280
     1
281
     1
  3
ACAD_XREC_ROUNDTRIP
360
35AC
  0
DICTIONARY
  5
3428
102
{ACAD_REACTORS
330
C
102
}
330
C
100
AcDbDictionary
281
     1
  0
DICTIONARY
  5
D
102
{ACAD_REACTORS
330
C
102
}
330
C
100
AcDbDictionary
281
     1
  0
DICTIONARY
  5
884
102
{ACAD_REACTORS
330
C
102
}
330
C
100
AcDbDictionary
281
     1
  3
Model
350
886
  3
ﾚｲｱｳﾄ1
350
887
  0
DICTIONARY
  5
3427
102
{ACAD_REACTORS
330
C
102
}
330
C
100
AcDbDictionary
281
     1
  0
DICTIONARY
  5
E
102
{ACAD_REACTORS
330
C
102
}
330
C
100
AcDbDictionary
281
     1
  3
STANDARD
350
13
  0
DICTIONARY
  5
885
102
{ACAD_REACTORS
330
C
102
}
330
C
100
AcDbDictionary
281
     1
  0
ACDBDICTIONARYWDFLT
  5
882
102
{ACAD_REACTORS
330
C
102
}
330
C
100
AcDbDictionary
281
     1
  3
Normal
350
883
100
AcDbDictionaryWithDefault
340
883
1001
ACAD
1000
TREAT_AS_HARD
1070
     0
1000
TREAT_AS_HARD
1070
     0
1000
TREAT_AS_HARD
1070
     0
1000
TREAT_AS_HARD
1070
     0
1000
TREAT_AS_HARD
1070
     0
1000
TREAT_AS_HARD
1070
     0
1000
TREAT_AS_HARD
1070
     0
1000
TREAT_AS_HARD
1070
     0
  0
DICTIONARY
  5
35A6
102
{ACAD_REACTORS
330
C
102
}
330
C
100
AcDbDictionary
281
     1
  3
COLORDICT
350
35A8
  3
MATERIALDICT
350
35A7
  0
DICTIONARY
  5
35A2
102
{ACAD_REACTORS
330
C
102
}
330
C
100
AcDbDictionary
281
     1
  3
DIMASSOC
350
35A3
  3
PROJECTNAME
350
35A4
  0
XRECORD
  5
326E
102
{ACAD_REACTORS
330
8E1
102
}
330
8E1
100
AcDbXrecord
280
     1
340
1A
  0
XRECORD
  5
326D
102
{ACAD_REACTORS
330
8DF
102
}
330
8DF
100
AcDbXrecord
280
     1
340
17
  0
XRECORD
  5
35AA
102
{ACAD_REACTORS
330
35A9
102
}
330
35A9
100
AcDbXrecord
280
     1
102
SHADEPLOT
 70
     0
  0
XRECORD
  5
35AC
102
{ACAD_REACTORS
330
35AB
102
}
330
35AB
100
AcDbXrecord
280
     1
102
SHADEPLOT
 70
     0
  0
LAYOUT
  5
886
102
{ACAD_XDICTIONARY
360
35AD
102
}
102
{ACAD_REACTORS
330
884
102
}
330
884
100
AcDbPlotSettings
  1

  2
CubePDF
  4
A4
  6

 40
3.174999952316284
 41
3.174999952316284
 42
3.175003051757812
 43
3.17498779296875
 44
209.8886566162109
 45
297.0530090332031
 46
0.0
 47
0.15
 48
-17.88720738467782
 49
-22.42221679598242
140
821.2491244940157
141
565.712430949673
142
1.0
143
2.88954769675545
 70
 11956
 72
     1
 73
     1
 74
     4
  7
monochrome.ctb
 75
     0
147
0.3460749241560737
148
17.88720738467782
149
22.42221679598242
100
AcDbLayout
  1
Model
 70
     1
 71
     0
 10
0.0
 20
0.0
 11
12.0
 21
9.0
 12
0.0
 22
0.0
 32
0.0
 14
0.0
 24
0.0
 34
0.0
 15
0.0
 25
0.0
 35
0.0
146
0.0
 13
0.0
 23
0.0
 33
0.0
 16
1.0
 26
0.0
 36
0.0
 17
0.0
 27
1.0
 37
0.0
 76
     0
330
1A
  0
LAYOUT
  5
887
102
{ACAD_XDICTIONARY
360
35AF
102
}
102
{ACAD_REACTORS
330
884
102
}
330
884
100
AcDbPlotSettings
  1

  2
Canon LBP-A404 LIPS3
  4

  6

 40
0.0
 41
0.0
 42
0.0
 43
0.0
 44
0.0
 45
0.0
 46
0.0
 47
0.0
 48
0.0
 49
0.0
140
0.0
141
0.0
142
1.0
143
1.0
 70
   688
 72
     0
 73
     0
 74
     5
  7
print.ctb
 75
    16
147
1.0
148
0.0
149
0.0
100
AcDbLayout
  1
ﾚｲｱｳﾄ1
 70
     1
 71
     1
 10
0.0
 20
0.0
 11
420.0
 21
297.0
 12
0.0
 22
0.0
 32
0.0
 14
0.0
 24
0.0
 34
0.0
 15
420.0
 25
297.0
 35
0.0
146
0.0
 13
0.0
 23
0.0
 33
0.0
 16
1.0
 26
0.0
 36
0.0
 17
0.0
 27
1.0
 37
0.0
 76
     0
330
17
331
64
  0
MLINESTYLE
  5
13
102
{ACAD_REACTORS
330
E
102
}
330
E
100
AcDbMlineStyle
  2
STANDARD
 70
     0
  3

 62
     0
 51
90.0
 52
90.0
 71
     2
 49
0.5
 62
   256
  6
BYLAYER
 49
-0.5
 62
   256
  6
BYLAYER
  0
ACDBPLACEHOLDER
  5
883
102
{ACAD_REACTORS
330
882
102
}
330
882
  0
XRECORD
  5
35A8
102
{ACAD_REACTORS
330
35A6
102
}
330
35A6
100
AcDbXrecord
280
     1
340
3428
  0
XRECORD
  5
35A7
102
{ACAD_REACTORS
330
35A6
102
}
330
35A6
100
AcDbXrecord
280
     1
340
3427
  0
DICTIONARYVAR
  5
35A3
102
{ACAD_REACTORS
330
35A2
102
}
330
35A2
100
DictionaryVariables
280
     0
  1
1
  0
DICTIONARYVAR
  5
35A4
102
{ACAD_REACTORS
330
35A2
102
}
330
35A2
100
DictionaryVariables
280
     0
  1

  0
DICTIONARY
  5
35AD
330
886
100
AcDbDictionary
280
     1
281
     1
  3
ACAD_XREC_ROUNDTRIP
360
35AE
  0
DICTIONARY
  5
35AF
330
887
100
AcDbDictionary
280
     1
281
     1
  3
ACAD_XREC_ROUNDTRIP
360
35B0
  0
XRECORD
  5
35AE
102
{ACAD_REACTORS
330
35AD
102
}
330
35AD
100
AcDbXrecord
280
     1
102
SHADEPLOT
 70
     1
102
SHADEPLOTRESLEVEL
 70
     2
102
SHADEPLOTCUSTOMDPI
 70
   300
  0
XRECORD
  5
35B0
102
{ACAD_REACTORS
330
35AF
102
}
330
35AF
100
AcDbXrecord
280
     1
102
SHADEPLOT
 70
     0
102
SHADEPLOTRESLEVEL
 70
     2
102
SHADEPLOTCUSTOMDPI
 70
   300
  0
ENDSEC
  0
EOF
