  0
SECTION
  2
HEADER
  9
$ACADVER
  1
AC1014
  9
$ACADMAINTVER
 70
     9
  9
$DWGCODEPAGE
  3
ANSI_932
  9
$INSBASE
 10
0.0
 20
0.0
 30
0.0
  9
$EXTMIN
 10
-0.0256331091745779
 20
-0.0181260584133725
 30
-0.0015258207003583
  9
$EXTMAX
 10
797.6000995475608
 20
551.6452344880035
 30
0.0000000349246037
  9
$LIMMIN
 10
0.0
 20
0.0
  9
$LIMMAX
 10
840.0
 20
594.0
  9
$ORTHOMODE
 70
     0
  9
$REGENMODE
 70
     1
  9
$FILLMODE
 70
     1
  9
$QTEXTMODE
 70
     0
  9
$MIRRTEXT
 70
     1
  9
$DRAGMODE
 70
     2
  9
$LTSCALE
 40
2.0
  9
$OSMODE
 70
    37
  9
$ATTMODE
 70
     1
  9
$TEXTSIZE
 40
5.0
  9
$TRACEWID
 40
1.0
  9
$TEXTSTYLE
  7
STANDARD
  9
$CLAYER
  8
ZUWAKU
  9
$CELTYPE
  6
BYLAYER
  9
$CECOLOR
 62
   256
  9
$CELTSCALE
 40
1.0
  9
$DELOBJ
 70
     1
  9
$DISPSILH
 70
     0
  9
$DIMSCALE
 40
1.0
  9
$DIMASZ
 40
7.0
  9
$DIMEXO
 40
6.0
  9
$DIMDLI
 40
14.0
  9
$DIMRND
 40
0.0
  9
$DIMDLE
 40
0.0
  9
$DIMEXE
 40
3.0
  9
$DIMTP
 40
0.0
  9
$DIMTM
 40
0.0
  9
$DIMTXT
 40
6.0
  9
$DIMCEN
 40
150.0
  9
$DIMTSZ
 40
0.0
  9
$DIMTOL
 70
     0
  9
$DIMLIM
 70
     0
  9
$DIMTIH
 70
     0
  9
$DIMTOH
 70
     0
  9
$DIMSE1
 70
     0
  9
$DIMSE2
 70
     0
  9
$DIMTAD
 70
     3
  9
$DIMZIN
 70
     0
  9
$DIMBLK
  1

  9
$DIMASO
 70
     1
  9
$DIMSHO
 70
     1
  9
$DIMPOST
  1

  9
$DIMAPOST
  1

  9
$DIMALT
 70
     0
  9
$DIMALTD
 70
     2
  9
$DIMALTF
 40
25.4
  9
$DIMLFAC
 40
1.0
  9
$DIMTOFL
 70
     1
  9
$DIMTVP
 40
0.0
  9
$DIMTIX
 70
     0
  9
$DIMSOXD
 70
     0
  9
$DIMSAH
 70
     1
  9
$DIMBLK1
  1
OPEN
  9
$DIMBLK2
  1
OPEN
  9
$DIMSTYLE
  2
STANDARD
  9
$DIMCLRD
 70
   256
  9
$DIMCLRE
 70
   256
  9
$DIMCLRT
 70
   256
  9
$DIMTFAC
 40
1.0
  9
$DIMGAP
 40
2.0
  9
$DIMJUST
 70
     0
  9
$DIMSD1
 70
     0
  9
$DIMSD2
 70
     0
  9
$DIMTOLJ
 70
     1
  9
$DIMTZIN
 70
     0
  9
$DIMALTZ
 70
     0
  9
$DIMALTTZ
 70
     0
  9
$DIMFIT
 70
     3
  9
$DIMUPT
 70
     0
  9
$DIMUNIT
 70
     2
  9
$DIMDEC
 70
     0
  9
$DIMTDEC
 70
     0
  9
$DIMALTU
 70
     2
  9
$DIMALTTD
 70
     2
  9
$DIMTXSTY
  7
STANDARD
  9
$DIMAUNIT
 70
     0
  9
$LUNITS
 70
     2
  9
$LUPREC
 70
     4
  9
$SKETCHINC
 40
1.0
  9
$FILLETRAD
 40
2.0
  9
$AUNITS
 70
     0
  9
$AUPREC
 70
     0
  9
$MENU
  1
.
  9
$ELEVATION
 40
0.0
  9
$PELEVATION
 40
0.0
  9
$THICKNESS
 40
0.0
  9
$LIMCHECK
 70
     0
  9
$BLIPMODE
 70
     0
  9
$CHAMFERA
 40
20.0
  9
$CHAMFERB
 40
20.0
  9
$CHAMFERC
 40
40.0
  9
$CHAMFERD
 40
0.0
  9
$SKPOLY
 70
     0
  9
$TDCREATE
 40
2450994.354346065
  9
$TDUPDATE
 40
2454484.387832986
  9
$TDINDWG
 40
0.0391813079
  9
$TDUSRTIMER
 40
0.0391813079
  9
$USRTIMER
 70
     1
  9
$ANGBASE
 50
0.0
  9
$ANGDIR
 70
     0
  9
$PDMODE
 70
     1
  9
$PDSIZE
 40
0.0
  9
$PLINEWID
 40
0.0
  9
$COORDS
 70
     1
  9
$SPLFRAME
 70
     0
  9
$SPLINETYPE
 70
     6
  9
$SPLINESEGS
 70
     8
  9
$ATTDIA
 70
     0
  9
$ATTREQ
 70
     1
  9
$HANDLING
 70
 10241
  9
$HANDSEED
  5
88A
  9
$SURFTAB1
 70
     6
  9
$SURFTAB2
 70
     6
  9
$SURFTYPE
 70
     6
  9
$SURFU
 70
     6
  9
$SURFV
 70
     6
  9
$UCSNAME
  2

  9
$UCSORG
 10
0.0
 20
0.0
 30
0.0
  9
$UCSXDIR
 10
1.0
 20
0.0
 30
0.0
  9
$UCSYDIR
 10
0.0
 20
1.0
 30
0.0
  9
$PUCSNAME
  2

  9
$PUCSORG
 10
0.0
 20
0.0
 30
0.0
  9
$PUCSXDIR
 10
1.0
 20
0.0
 30
0.0
  9
$PUCSYDIR
 10
0.0
 20
1.0
 30
0.0
  9
$USERI1
 70
     0
  9
$USERI2
 70
     0
  9
$USERI3
 70
     0
  9
$USERI4
 70
     0
  9
$USERI5
 70
     0
  9
$USERR1
 40
0.0
  9
$USERR2
 40
0.0
  9
$USERR3
 40
0.0
  9
$USERR4
 40
0.0
  9
$USERR5
 40
0.0
  9
$WORLDVIEW
 70
     1
  9
$SHADEDGE
 70
     3
  9
$SHADEDIF
 70
    70
  9
$TILEMODE
 70
     1
  9
$MAXACTVP
 70
    16
  9
$PINSBASE
 10
0.0
 20
0.0
 30
0.0
  9
$PLIMCHECK
 70
     0
  9
$PEXTMIN
 10
0.0
 20
0.0
 30
0.0
  9
$PEXTMAX
 10
420.0
 20
297.0
 30
0.0
  9
$PLIMMIN
 10
0.0
 20
0.0
  9
$PLIMMAX
 10
420.0
 20
297.0
  9
$UNITMODE
 70
     0
  9
$VISRETAIN
 70
     0
  9
$PLINEGEN
 70
     0
  9
$PSLTSCALE
 70
     1
  9
$TREEDEPTH
 70
  3020
  9
$PICKSTYLE
 70
     1
  9
$CMLSTYLE
  2
STANDARD
  9
$CMLJUST
 70
     0
  9
$CMLSCALE
 40
1.0
  9
$PROXYGRAPHICS
 70
     1
  9
$MEASUREMENT
 70
     1
  0
ENDSEC
  0
SECTION
  2
CLASSES
  0
CLASS
  1
ACDBDICTIONARYWDFLT
  2
AcDbDictionaryWithDefault
  3
AutoCAD 2000
 90
        0
280
     0
281
     0
  0
CLASS
  1
ACDBPLACEHOLDER
  2
AcDbPlaceHolder
  3
AutoCAD 2000
 90
        0
280
     0
281
     0
  0
CLASS
  1
LAYOUT
  2
AcDbLayout
  3
AutoCAD 2000
 90
        0
280
     0
281
     0
  0
CLASS
  1
LONG_TRANSACTION
  2
AcDbLongTransaction
  3
AutoCAD 2000
 90
        0
280
     0
281
     0
  0
CLASS
  1
LWPOLYLINE
  2
AcDbPolyline
  3
AutoCAD 2000
 90
        0
280
     0
281
     1
  0
CLASS
  1
HATCH
  2
AcDbHatch
  3
AutoCAD 2000
 90
        0
280
     0
281
     1
  0
CLASS
  1
XRECORD
  2
AcDbXrecord
  3
AutoCAD 2000
 90
        0
280
     0
281
     0
  0
CLASS
  1
LONG_TRANSACTION
  2
AcDbLongTransaction
  3
AutoCAD 2000
 90
        0
280
     0
281
     0
  0
CLASS
  1
LWPOLYLINE
  2
AcDbPolyline
  3
AutoCAD 2000
 90
        0
280
     0
281
     1
  0
CLASS
  1
HATCH
  2
AcDbHatch
  3
AutoCAD 2000
 90
        0
280
     0
281
     1
  0
CLASS
  1
XRECORD
  2
AcDbXrecord
  3
AutoCAD 2000
 90
        0
280
     0
281
     0
  0
CLASS
  1
LONG_TRANSACTION
  2
AcDbLongTransaction
  3
AutoCAD 2000
 90
        0
280
     0
281
     0
  0
CLASS
  1
LWPOLYLINE
  2
AcDbPolyline
  3
AutoCAD 2000
 90
        0
280
     0
281
     1
  0
CLASS
  1
HATCH
  2
AcDbHatch
  3
AutoCAD 2000
 90
        0
280
     0
281
     1
  0
CLASS
  1
XRECORD
  2
AcDbXrecord
  3
AutoCAD 2000
 90
        0
280
     0
281
     0
  0
ENDSEC
  0
SECTION
  2
TABLES
  0
TABLE
  2
VPORT
  5
8
330
0
100
AcDbSymbolTable
 70
     2
  0
VPORT
  5
866
330
8
100
AcDbSymbolTableRecord
100
AcDbViewportTableRecord
  2
*ACTIVE
 70
     0
 10
0.0
 20
0.0
 11
1.0
 21
1.0
 12
410.5957868692277
 22
273.3656914072215
 13
0.0
 23
0.0
 14
5.0
 24
5.0
 15
0.0
 25
0.0
 16
0.0
 26
0.0
 36
1.0
 17
0.0
 27
0.0
 37
0.0
 40
695.1101681667253
 41
1.57015306122449
 42
50.0
 43
0.0
 44
0.0
 50
0.0
 51
0.0
 71
     0
 72
   100
 73
     1
 74
     0
 75
     0
 76
     0
 77
     0
 78
     0
  0
ENDTAB
  0
TABLE
  2
LTYPE
  5
5
330
0
100
AcDbSymbolTable
 70
     3
  0
LTYPE
  5
14
330
5
100
AcDbSymbolTableRecord
100
AcDbLinetypeTableRecord
  2
BYBLOCK
 70
     0
  3

 72
    65
 73
     0
 40
0.0
  0
LTYPE
  5
15
330
5
100
AcDbSymbolTableRecord
100
AcDbLinetypeTableRecord
  2
BYLAYER
 70
     0
  3

 72
    65
 73
     0
 40
0.0
  0
LTYPE
  5
16
330
5
100
AcDbSymbolTableRecord
100
AcDbLinetypeTableRecord
  2
CONTINUOUS
 70
     0
  3
Solid line
 72
    65
 73
     0
 40
0.0
  0
LTYPE
  5
115
330
5
100
AcDbSymbolTableRecord
100
AcDbLinetypeTableRecord
  2
PHANTOM
 70
     0
  3
______  __  __  ______  __  __  ______  __  __ 
 72
    65
 73
     6
 40
2.5
 49
1.25
 74
     0
 49
-0.25
 74
     0
 49
0.25
 74
     0
 49
-0.25
 74
     0
 49
0.25
 74
     0
 49
-0.25
 74
     0
  0
LTYPE
  5
135
330
5
100
AcDbSymbolTableRecord
100
AcDbLinetypeTableRecord
  2
CENTER
 70
     0
  3
____ _ ____ _ ____ _ ____ _ ____ _ ____ _ ____ 
 72
    65
 73
     4
 40
2.0
 49
1.25
 74
     0
 49
-0.25
 74
     0
 49
0.25
 74
     0
 49
-0.25
 74
     0
  0
ENDTAB
  0
TABLE
  2
LAYER
  5
2
330
0
100
AcDbSymbolTable
 70
     9
  0
LAYER
  5
F
330
2
100
AcDbSymbolTableRecord
100
AcDbLayerTableRecord
  2
0
 70
     0
 62
     7
  6
CONTINUOUS
  0
LAYER
  5
62
330
2
100
AcDbSymbolTableRecord
100
AcDbLayerTableRecord
  2
VIEWPORT
 70
     0
 62
     7
  6
CONTINUOUS
  0
LAYER
  5
65
330
2
100
AcDbSymbolTableRecord
100
AcDbLayerTableRecord
  2
ZUWAKU
 70
     0
 62
     7
  6
CONTINUOUS
  0
LAYER
  5
154
330
2
100
AcDbSymbolTableRecord
100
AcDbLayerTableRecord
  2
NOKITOI
 70
     0
 62
     8
  6
PHANTOM
  0
LAYER
  5
155
330
2
100
AcDbSymbolTableRecord
100
AcDbLayerTableRecord
  2
SUNPOU
 70
     0
 62
     4
  6
CONTINUOUS
  0
LAYER
  5
156
330
2
100
AcDbSymbolTableRecord
100
AcDbLayerTableRecord
  2
SEIHIN
 70
     0
 62
     3
  6
CONTINUOUS
  0
LAYER
  5
157
330
2
100
AcDbSymbolTableRecord
100
AcDbLayerTableRecord
  2
CENTER_L
 70
     0
 62
     1
  6
CENTER
  0
LAYER
  5
412
330
2
100
AcDbSymbolTableRecord
100
AcDbLayerTableRecord
  2
DEFPOINTS
 70
     0
 62
     7
  6
CONTINUOUS
  0
LAYER
  5
637
330
2
100
AcDbSymbolTableRecord
100
AcDbLayerTableRecord
  2
MOJI
 70
     0
 62
     2
  6
CONTINUOUS
  0
ENDTAB
  0
TABLE
  2
STYLE
  5
3
330
0
100
AcDbSymbolTable
 70
     2
  0
STYLE
  5
10
330
3
100
AcDbSymbolTableRecord
100
AcDbTextStyleTableRecord
  2
STANDARD
 70
     0
 40
0.0
 41
1.0
 50
0.0
 71
     0
 42
5.0
  3
TXT
  4
bigfont.shx
  0
STYLE
  5
638
330
3
100
AcDbSymbolTableRecord
100
AcDbTextStyleTableRecord
  2
ｽﾀｲﾙ1
 70
     0
 40
0.0
 41
1.0
 50
0.0
 71
     0
 42
2.5
  3
MS PGothic.ttf
  4

1001
ACAD
1000
MS PGothic
1071
    32818
  0
ENDTAB
  0
TABLE
  2
VIEW
  5
6
330
0
100
AcDbSymbolTable
 70
     0
  0
ENDTAB
  0
TABLE
  2
UCS
  5
7
330
0
100
AcDbSymbolTable
 70
     0
  0
ENDTAB
  0
TABLE
  2
APPID
  5
9
330
0
100
AcDbSymbolTable
 70
     1
  0
APPID
  5
11
330
9
100
AcDbSymbolTableRecord
100
AcDbRegAppTableRecord
  2
ACAD
 70
     0
  0
ENDTAB
  0
TABLE
  2
DIMSTYLE
  5
A
330
0
100
AcDbSymbolTable
 70
     1
  0
DIMSTYLE
105
1D
102
{ACAD_REACTORS
330
417
330
424
330
431
330
43E
330
44B
330
46E
330
554
102
}
330
A
100
AcDbSymbolTableRecord
100
AcDbDimStyleTableRecord
  2
STANDARD
 70
     0
  3

  4

  5

  6

  7

 40
1.0
 41
0.18
 42
0.0625
 43
0.38
 44
0.18
 45
0.0
 46
0.0
 47
0.0
 48
0.0
140
0.18
141
0.09
142
0.0
143
25.4
144
1.0
145
0.0
146
1.0
147
0.09
 71
     0
 72
     0
 73
     1
 74
     1
 75
     0
 76
     0
 77
     0
 78
     0
170
     0
171
     2
172
     0
173
     0
174
     0
175
     0
176
     0
177
     0
178
     0
270
     2
271
     4
272
     4
273
     2
274
     2
340
10
275
     0
280
     0
281
     0
282
     0
283
     1
284
     0
285
     0
286
     0
287
     3
288
     0
  0
ENDTAB
  0
TABLE
  2
BLOCK_RECORD
  5
1
330
0
100
AcDbSymbolTable
 70
     8
  0
BLOCK_RECORD
  5
1A
102
{ACAD_XDICTIONARY
360
5F5
102
}
330
1
100
AcDbSymbolTableRecord
100
AcDbBlockTableRecord
  2
*MODEL_SPACE
  0
BLOCK_RECORD
  5
17
102
{ACAD_XDICTIONARY
360
5F3
102
}
330
1
100
AcDbSymbolTableRecord
100
AcDbBlockTableRecord
  2
*PAPER_SPACE
  0
BLOCK_RECORD
  5
6D
330
1
100
AcDbSymbolTableRecord
100
AcDbBlockTableRecord
  2
_OPEN
  0
BLOCK_RECORD
  5
40A
330
1
100
AcDbSymbolTableRecord
100
AcDbBlockTableRecord
  2
*D1
  0
BLOCK_RECORD
  5
418
330
1
100
AcDbSymbolTableRecord
100
AcDbBlockTableRecord
  2
*D2
  0
BLOCK_RECORD
  5
425
330
1
100
AcDbSymbolTableRecord
100
AcDbBlockTableRecord
  2
*D3
  0
BLOCK_RECORD
  5
432
330
1
100
AcDbSymbolTableRecord
100
AcDbBlockTableRecord
  2
*D4
  0
BLOCK_RECORD
  5
43F
330
1
100
AcDbSymbolTableRecord
100
AcDbBlockTableRecord
  2
*D5
  0
BLOCK_RECORD
  5
462
330
1
100
AcDbSymbolTableRecord
100
AcDbBlockTableRecord
  2
*D6
  0
BLOCK_RECORD
  5
546
330
1
100
AcDbSymbolTableRecord
100
AcDbBlockTableRecord
  2
*D7
  0
ENDTAB
  0
ENDSEC
  0
SECTION
  2
BLOCKS
  0
BLOCK
  5
1B
330
1A
100
AcDbEntity
  8
0
100
AcDbBlockBegin
  2
*MODEL_SPACE
 70
     0
 10
0.0
 20
0.0
 30
0.0
  3
*MODEL_SPACE
  1

  0
ENDBLK
  5
1C
330
1A
100
AcDbEntity
  8
0
100
AcDbBlockEnd
  0
BLOCK
  5
18
330
17
100
AcDbEntity
 67
     1
  8
0
100
AcDbBlockBegin
  2
*PAPER_SPACE
 70
     0
 10
0.0
 20
0.0
 30
0.0
  3
*PAPER_SPACE
  1

  0
ENDBLK
  5
19
330
17
100
AcDbEntity
 67
     1
  8
0
100
AcDbBlockEnd
  0
BLOCK
  5
6E
330
6D
100
AcDbEntity
  8
0
100
AcDbBlockBegin
  2
_OPEN
 70
     0
 10
0.0
 20
0.0
 30
0.0
  3
_OPEN
  1

  0
LINE
  5
6F
330
6D
100
AcDbEntity
  8
0
  6
BYBLOCK
 62
     0
100
AcDbLine
 10
-1.0
 20
0.1666666666666666
 30
0.0
 11
0.0
 21
0.0
 31
0.0
  0
LINE
  5
70
330
6D
100
AcDbEntity
  8
0
  6
BYBLOCK
 62
     0
100
AcDbLine
 10
0.0
 20
0.0
 30
0.0
 11
-1.0
 21
-0.1666666666666666
 31
0.0
  0
LINE
  5
71
330
6D
100
AcDbEntity
  8
0
  6
BYBLOCK
 62
     0
100
AcDbLine
 10
0.0
 20
0.0
 30
0.0
 11
-1.0
 21
0.0
 31
0.0
  0
ENDBLK
  5
72
330
6D
100
AcDbEntity
  8
0
100
AcDbBlockEnd
  0
BLOCK
  5
44C
330
40A
100
AcDbEntity
  8
0
100
AcDbBlockBegin
  2
*D1
 70
     1
 10
0.0
 20
0.0
 30
0.0
  3
*D1
  1

  0
LINE
  5
44D
330
40A
100
AcDbEntity
  8
0
  6
BYBLOCK
 62
     4
100
AcDbLine
 10
582.2088337382766
 20
222.8544239759255
 30
0.0
 11
607.4901934247105
 21
222.8544239759255
 31
0.0
  0
LINE
  5
44E
330
40A
100
AcDbEntity
  8
0
  6
BYBLOCK
 62
     4
100
AcDbLine
 10
578.2088337382766
 20
178.9544239759254
 30
0.0
 11
607.4901934247105
 21
178.9544239759254
 31
0.0
  0
LINE
  5
44F
330
40A
100
AcDbEntity
  8
0
  6
BYBLOCK
 62
     4
100
AcDbLine
 10
604.4901934247104
 20
215.8544239759255
 30
0.0
 11
604.4901934247104
 21
185.9544239759254
 31
0.0
  0
INSERT
  5
450
330
40A
100
AcDbEntity
  8
0
  6
BYBLOCK
 62
     4
100
AcDbBlockReference
  2
_OPEN
 10
604.4901934247104
 20
222.8544239759255
 30
0.0
 41
7.0
 42
7.0
 43
7.0
 50
90.0
  0
INSERT
  5
451
330
40A
100
AcDbEntity
  8
0
  6
BYBLOCK
 62
     4
100
AcDbBlockReference
  2
_OPEN
 10
604.4901934247104
 20
178.9544239759254
 30
0.0
 41
7.0
 42
7.0
 43
7.0
 50
270.0
  0
MTEXT
  5
452
330
40A
100
AcDbEntity
  8
0
  6
BYBLOCK
 62
     4
100
AcDbMText
 10
599.4901934247105
 20
200.9044239759254
 30
0.0
 40
6.0
 41
0.0
 71
     5
 72
     5
  1
\A1;44
 11
0.0
 21
1.0
 31
0.0
1001
ACAD
1000
MTEXTBEGIN
1070
    73
1070
     1
1070
    44
1040
1.0
1070
    74
1070
     0
1000
MTEXTEND
1000
MTEXTBEGIN
1070
    73
1070
     1
1070
    44
1040
1.0
1070
    74
1070
     0
1000
MTEXTEND
1000
MTEXTBEGIN
1070
    73
1070
     1
1070
    44
1040
1.0
1070
    74
1070
     0
1000
MTEXTEND
  0
POINT
  5
453
330
40A
100
AcDbEntity
  8
DEFPOINTS
  6
BYBLOCK
 62
     0
100
AcDbPoint
 10
576.2088337382766
 20
222.8544239759255
 30
0.0
  0
POINT
  5
454
330
40A
100
AcDbEntity
  8
DEFPOINTS
  6
BYBLOCK
 62
     0
100
AcDbPoint
 10
572.2088337382766
 20
178.9544239759254
 30
0.0
  0
POINT
  5
455
330
40A
100
AcDbEntity
  8
DEFPOINTS
  6
BYBLOCK
 62
     0
100
AcDbPoint
 10
604.4901934247104
 20
178.9544239759254
 30
0.0
  0
ENDBLK
  5
456
330
40A
100
AcDbEntity
  8
0
100
AcDbBlockEnd
  0
BLOCK
  5
419
330
418
100
AcDbEntity
  8
0
100
AcDbBlockBegin
  2
*D2
 70
     1
 10
0.0
 20
0.0
 30
0.0
  3
*D2
  1

  0
LINE
  5
41A
330
418
100
AcDbEntity
  8
0
  6
BYBLOCK
 62
     4
100
AcDbLine
 10
532.3011334996729
 20
172.9544239759254
 30
0.0
 11
532.3011334996729
 21
151.7679135204787
 31
0.0
  0
LINE
  5
41B
330
418
100
AcDbEntity
  8
0
  6
BYBLOCK
 62
     4
100
AcDbLine
 10
480.5163400808742
 20
172.9544239759254
 30
0.0
 11
480.5163400808742
 21
151.7679135204787
 31
0.0
  0
LINE
  5
41C
330
418
100
AcDbEntity
  8
0
  6
BYBLOCK
 62
     4
100
AcDbLine
 10
525.3011334996728
 20
154.7679135204787
 30
0.0
 11
487.5163400808741
 21
154.7679135204787
 31
0.0
  0
INSERT
  5
41D
330
418
100
AcDbEntity
  8
0
  6
BYBLOCK
 62
     4
100
AcDbBlockReference
  2
_OPEN
 10
532.3011334996729
 20
154.7679135204787
 30
0.0
 41
7.0
 42
7.0
 43
7.0
  0
INSERT
  5
41E
330
418
100
AcDbEntity
  8
0
  6
BYBLOCK
 62
     4
100
AcDbBlockReference
  2
_OPEN
 10
480.5163400808742
 20
154.7679135204787
 30
0.0
 41
7.0
 42
7.0
 43
7.0
 50
180.0
  0
MTEXT
  5
41F
330
418
100
AcDbEntity
  8
0
  6
BYBLOCK
 62
     4
100
AcDbMText
 10
506.4087367902735
 20
159.7679135204787
 30
0.0
 40
6.0
 41
0.0
 71
     5
 72
     5
  1
\A1;52
1001
ACAD
1000
MTEXTBEGIN
1070
    73
1070
     1
1070
    44
1040
1.0
1070
    74
1070
     0
1000
MTEXTEND
1000
MTEXTBEGIN
1070
    73
1070
     1
1070
    44
1040
1.0
1070
    74
1070
     0
1000
MTEXTEND
1000
MTEXTBEGIN
1070
    73
1070
     1
1070
    44
1040
1.0
1070
    74
1070
     0
1000
MTEXTEND
  0
POINT
  5
420
330
418
100
AcDbEntity
  8
DEFPOINTS
  6
BYBLOCK
 62
     0
100
AcDbPoint
 10
532.3011334996729
 20
178.9544239759254
 30
0.0
  0
POINT
  5
421
330
418
100
AcDbEntity
  8
DEFPOINTS
  6
BYBLOCK
 62
     0
100
AcDbPoint
 10
480.5163400808742
 20
178.9544239759254
 30
0.0
  0
POINT
  5
422
330
418
100
AcDbEntity
  8
DEFPOINTS
  6
BYBLOCK
 62
     0
100
AcDbPoint
 10
480.5163400808742
 20
154.7679135204787
 30
0.0
  0
ENDBLK
  5
423
330
418
100
AcDbEntity
  8
0
100
AcDbBlockEnd
  0
BLOCK
  5
516
330
425
100
AcDbEntity
  8
0
100
AcDbBlockBegin
  2
*D3
 70
     1
 10
0.0
 20
0.0
 30
0.0
  3
*D3
  1

  0
LINE
  5
517
330
425
100
AcDbEntity
  8
0
  6
BYBLOCK
 62
     4
100
AcDbLine
 10
510.7032267016741
 20
224.3853955443788
 30
0.0
 11
510.7032267016741
 21
240.4170039806729
 31
0.0
  0
LINE
  5
518
330
425
100
AcDbEntity
  8
0
  6
BYBLOCK
 62
     4
100
AcDbLine
 10
421.103226701674
 20
224.3853955443788
 30
0.0
 11
421.103226701674
 21
240.4170039806729
 31
0.0
  0
LINE
  5
519
330
425
100
AcDbEntity
  8
0
  6
BYBLOCK
 62
     4
100
AcDbLine
 10
503.7032267016741
 20
237.4170039806729
 30
0.0
 11
428.103226701674
 21
237.4170039806729
 31
0.0
  0
INSERT
  5
51A
330
425
100
AcDbEntity
  8
0
  6
BYBLOCK
 62
     4
100
AcDbBlockReference
  2
_OPEN
 10
510.7032267016741
 20
237.4170039806729
 30
0.0
 41
7.0
 42
7.0
 43
7.0
  0
INSERT
  5
51B
330
425
100
AcDbEntity
  8
0
  6
BYBLOCK
 62
     4
100
AcDbBlockReference
  2
_OPEN
 10
421.103226701674
 20
237.4170039806729
 30
0.0
 41
7.0
 42
7.0
 43
7.0
 50
180.0
  0
MTEXT
  5
51C
330
425
100
AcDbEntity
  8
0
  6
BYBLOCK
 62
     4
100
AcDbMText
 10
465.9032267016741
 20
242.4170039806729
 30
0.0
 40
6.0
 41
0.0
 71
     5
 72
     5
  1
\A1;90
1001
ACAD
1000
MTEXTBEGIN
1070
    73
1070
     1
1070
    44
1040
1.0
1070
    74
1070
     0
1000
MTEXTEND
1000
MTEXTBEGIN
1070
    73
1070
     1
1070
    44
1040
1.0
1070
    74
1070
     0
1000
MTEXTEND
1000
MTEXTBEGIN
1070
    73
1070
     1
1070
    44
1040
1.0
1070
    74
1070
     0
1000
MTEXTEND
  0
POINT
  5
51D
330
425
100
AcDbEntity
  8
DEFPOINTS
  6
BYBLOCK
 62
     0
100
AcDbPoint
 10
510.7032267016741
 20
218.3853955443788
 30
0.0
  0
POINT
  5
51E
330
425
100
AcDbEntity
  8
DEFPOINTS
  6
BYBLOCK
 62
     0
100
AcDbPoint
 10
421.103226701674
 20
218.3853955443788
 30
0.0
  0
POINT
  5
51F
330
425
100
AcDbEntity
  8
DEFPOINTS
  6
BYBLOCK
 62
     0
100
AcDbPoint
 10
421.103226701674
 20
237.4170039806729
 30
0.0
  0
ENDBLK
  5
520
330
425
100
AcDbEntity
  8
0
100
AcDbBlockEnd
  0
BLOCK
  5
521
330
432
100
AcDbEntity
  8
0
100
AcDbBlockBegin
  2
*D4
 70
     1
 10
0.0
 20
0.0
 30
0.0
  3
*D4
  1

  0
LINE
  5
522
330
432
100
AcDbEntity
  8
0
  6
BYBLOCK
 62
     4
100
AcDbLine
 10
535.7032267016741
 20
226.0852955443789
 30
0.0
 11
535.7032267016741
 21
256.9437792728204
 31
0.0
  0
LINE
  5
523
330
432
100
AcDbEntity
  8
0
  6
BYBLOCK
 62
     4
100
AcDbLine
 10
421.103226701674
 20
224.3853955443788
 30
0.0
 11
421.103226701674
 21
256.9437792728204
 31
0.0
  0
LINE
  5
524
330
432
100
AcDbEntity
  8
0
  6
BYBLOCK
 62
     4
100
AcDbLine
 10
528.7032267016741
 20
253.9437792728203
 30
0.0
 11
428.103226701674
 21
253.9437792728203
 31
0.0
  0
INSERT
  5
525
330
432
100
AcDbEntity
  8
0
  6
BYBLOCK
 62
     4
100
AcDbBlockReference
  2
_OPEN
 10
535.7032267016741
 20
253.9437792728203
 30
0.0
 41
7.0
 42
7.0
 43
7.0
  0
INSERT
  5
526
330
432
100
AcDbEntity
  8
0
  6
BYBLOCK
 62
     4
100
AcDbBlockReference
  2
_OPEN
 10
421.103226701674
 20
253.9437792728203
 30
0.0
 41
7.0
 42
7.0
 43
7.0
 50
180.0
  0
MTEXT
  5
527
330
432
100
AcDbEntity
  8
0
  6
BYBLOCK
 62
     4
100
AcDbMText
 10
478.4032267016741
 20
258.9437792728204
 30
0.0
 40
6.0
 41
0.0
 71
     5
 72
     5
  1
\A1;115
1001
ACAD
1000
MTEXTBEGIN
1070
    73
1070
     1
1070
    44
1040
1.0
1070
    74
1070
     0
1000
MTEXTEND
1000
MTEXTBEGIN
1070
    73
1070
     1
1070
    44
1040
1.0
1070
    74
1070
     0
1000
MTEXTEND
1000
MTEXTBEGIN
1070
    73
1070
     1
1070
    44
1040
1.0
1070
    74
1070
     0
1000
MTEXTEND
  0
POINT
  5
528
330
432
100
AcDbEntity
  8
DEFPOINTS
  6
BYBLOCK
 62
     0
100
AcDbPoint
 10
535.7032267016741
 20
220.0852955443789
 30
0.0
  0
POINT
  5
529
330
432
100
AcDbEntity
  8
DEFPOINTS
  6
BYBLOCK
 62
     0
100
AcDbPoint
 10
421.103226701674
 20
218.3853955443788
 30
0.0
  0
POINT
  5
52A
330
432
100
AcDbEntity
  8
DEFPOINTS
  6
BYBLOCK
 62
     0
100
AcDbPoint
 10
421.103226701674
 20
253.9437792728203
 30
0.0
  0
ENDBLK
  5
52B
330
432
100
AcDbEntity
  8
0
100
AcDbBlockEnd
  0
BLOCK
  5
57A
330
43F
100
AcDbEntity
  8
0
100
AcDbBlockBegin
  2
*D5
 70
     1
 10
0.0
 20
0.0
 30
0.0
  3
*D5
  1

  0
LINE
  5
57B
330
43F
100
AcDbEntity
  8
0
  6
BYBLOCK
 62
     4
100
AcDbLine
 10
537.703426701674
 20
407.2159955443789
 30
0.0
 11
585.3949494266203
 21
407.2159955443789
 31
0.0
  0
LINE
  5
57C
330
43F
100
AcDbEntity
  8
0
  6
BYBLOCK
 62
     4
100
AcDbLine
 10
537.7033267016742
 20
317.6159955443787
 30
0.0
 11
585.3949494266203
 21
317.6159955443787
 31
0.0
  0
LINE
  5
57D
330
43F
100
AcDbEntity
  8
0
  6
BYBLOCK
 62
     4
100
AcDbLine
 10
582.3949494266202
 20
400.2159955443789
 30
0.0
 11
582.3949494266202
 21
324.6159955443788
 31
0.0
  0
INSERT
  5
57E
330
43F
100
AcDbEntity
  8
0
  6
BYBLOCK
 62
     4
100
AcDbBlockReference
  2
_OPEN
 10
582.3949494266202
 20
407.2159955443789
 30
0.0
 41
7.0
 42
7.0
 43
7.0
 50
90.0
  0
INSERT
  5
57F
330
43F
100
AcDbEntity
  8
0
  6
BYBLOCK
 62
     4
100
AcDbBlockReference
  2
_OPEN
 10
582.3949494266202
 20
317.6159955443787
 30
0.0
 41
7.0
 42
7.0
 43
7.0
 50
270.0
  0
MTEXT
  5
580
330
43F
100
AcDbEntity
  8
0
  6
BYBLOCK
 62
     4
100
AcDbMText
 10
577.3949494266203
 20
362.4159955443789
 30
0.0
 40
6.0
 41
0.0
 71
     5
 72
     5
  1
\A1;90
 11
0.0
 21
1.0
 31
0.0
1001
ACAD
1000
MTEXTBEGIN
1070
    73
1070
     1
1070
    44
1040
1.0
1070
    74
1070
     0
1000
MTEXTEND
1000
MTEXTBEGIN
1070
    73
1070
     1
1070
    44
1040
1.0
1070
    74
1070
     0
1000
MTEXTEND
1000
MTEXTBEGIN
1070
    73
1070
     1
1070
    44
1040
1.0
1070
    74
1070
     0
1000
MTEXTEND
  0
POINT
  5
581
330
43F
100
AcDbEntity
  8
DEFPOINTS
  6
BYBLOCK
 62
     0
100
AcDbPoint
 10
531.703426701674
 20
407.2159955443789
 30
0.0
  0
POINT
  5
582
330
43F
100
AcDbEntity
  8
DEFPOINTS
  6
BYBLOCK
 62
     0
100
AcDbPoint
 10
531.7033267016742
 20
317.6159955443787
 30
0.0
  0
POINT
  5
583
330
43F
100
AcDbEntity
  8
DEFPOINTS
  6
BYBLOCK
 62
     0
100
AcDbPoint
 10
582.3949494266202
 20
317.6159955443787
 30
0.0
  0
ENDBLK
  5
584
330
43F
100
AcDbEntity
  8
0
100
AcDbBlockEnd
  0
BLOCK
  5
585
330
462
100
AcDbEntity
  8
0
100
AcDbBlockBegin
  2
*D6
 70
     1
 10
0.0
 20
0.0
 30
0.0
  3
*D6
  1

  0
LINE
  5
586
330
462
100
AcDbEntity
  8
0
  6
BYBLOCK
 62
     4
100
AcDbLine
 10
537.703426701674
 20
407.2159955443789
 30
0.0
 11
605.8947337940135
 21
407.2159955443789
 31
0.0
  0
LINE
  5
587
330
462
100
AcDbEntity
  8
0
  6
BYBLOCK
 62
     4
100
AcDbLine
 10
515.7032267016741
 20
292.6159955443787
 30
0.0
 11
605.8947337940135
 21
292.6159955443787
 31
0.0
  0
LINE
  5
588
330
462
100
AcDbEntity
  8
0
  6
BYBLOCK
 62
     4
100
AcDbLine
 10
602.8947337940135
 20
400.2159955443789
 30
0.0
 11
602.8947337940135
 21
299.6159955443788
 31
0.0
  0
INSERT
  5
589
330
462
100
AcDbEntity
  8
0
  6
BYBLOCK
 62
     4
100
AcDbBlockReference
  2
_OPEN
 10
602.8947337940135
 20
407.2159955443789
 30
0.0
 41
7.0
 42
7.0
 43
7.0
 50
90.0
  0
INSERT
  5
58A
330
462
100
AcDbEntity
  8
0
  6
BYBLOCK
 62
     4
100
AcDbBlockReference
  2
_OPEN
 10
602.8947337940135
 20
292.6159955443787
 30
0.0
 41
7.0
 42
7.0
 43
7.0
 50
270.0
  0
MTEXT
  5
58B
330
462
100
AcDbEntity
  8
0
  6
BYBLOCK
 62
     4
100
AcDbMText
 10
597.8947337940135
 20
349.9159955443789
 30
0.0
 40
6.0
 41
0.0
 71
     5
 72
     5
  1
\A1;115
 11
0.0
 21
1.0
 31
0.0
1001
ACAD
1000
MTEXTBEGIN
1070
    73
1070
     1
1070
    44
1040
1.0
1070
    74
1070
     0
1000
MTEXTEND
1000
MTEXTBEGIN
1070
    73
1070
     1
1070
    44
1040
1.0
1070
    74
1070
     0
1000
MTEXTEND
1000
MTEXTBEGIN
1070
    73
1070
     1
1070
    44
1040
1.0
1070
    74
1070
     0
1000
MTEXTEND
  0
POINT
  5
58C
330
462
100
AcDbEntity
  8
DEFPOINTS
  6
BYBLOCK
 62
     0
100
AcDbPoint
 10
531.703426701674
 20
407.2159955443789
 30
0.0
  0
POINT
  5
58D
330
462
100
AcDbEntity
  8
DEFPOINTS
  6
BYBLOCK
 62
     0
100
AcDbPoint
 10
509.7032267016741
 20
292.6159955443787
 30
0.0
  0
POINT
  5
58E
330
462
100
AcDbEntity
  8
DEFPOINTS
  6
BYBLOCK
 62
     0
100
AcDbPoint
 10
602.8947337940135
 20
292.6159955443787
 30
0.0
  0
ENDBLK
  5
58F
330
462
100
AcDbEntity
  8
0
100
AcDbBlockEnd
  0
BLOCK
  5
56E
330
546
100
AcDbEntity
  8
0
100
AcDbBlockBegin
  2
*D7
 70
     1
 10
0.0
 20
0.0
 30
0.0
  3
*D7
  1

  0
LINE
  5
56F
330
546
100
AcDbEntity
  8
0
  6
BYBLOCK
 62
     4
100
AcDbLine
 10
515.7033267016742
 20
356.4159309147147
 30
0.0
 11
515.7033267016742
 21
345.1600177868204
 31
0.0
  0
LINE
  5
570
330
546
100
AcDbEntity
  8
0
  6
BYBLOCK
 62
     4
100
AcDbLine
 10
535.7033267014673
 20
356.4159049590263
 30
0.0
 11
535.7033267014673
 21
345.1600177868204
 31
0.0
  0
LINE
  5
571
330
546
100
AcDbEntity
  8
0
  6
BYBLOCK
 62
     4
100
AcDbLine
 10
522.7033267016742
 20
348.1600177868203
 30
0.0
 11
528.7033267014674
 21
348.1600177868203
 31
0.0
  0
LINE
  5
572
330
546
100
AcDbEntity
  8
0
  6
BYBLOCK
 62
     4
100
AcDbLine
 10
535.7033267014673
 20
348.1600177868203
 30
0.0
 11
562.9033267014674
 21
348.1600177868203
 31
0.0
  0
INSERT
  5
573
330
546
100
AcDbEntity
  8
0
  6
BYBLOCK
 62
     4
100
AcDbBlockReference
  2
_OPEN
 10
515.7033267016742
 20
348.1600177868203
 30
0.0
 41
7.0
 42
7.0
 43
7.0
 50
180.0
  0
INSERT
  5
574
330
546
100
AcDbEntity
  8
0
  6
BYBLOCK
 62
     4
100
AcDbBlockReference
  2
_OPEN
 10
535.7033267014673
 20
348.1600177868203
 30
0.0
 41
7.0
 42
7.0
 43
7.0
  0
MTEXT
  5
575
330
546
100
AcDbEntity
  8
0
  6
BYBLOCK
 62
     4
100
AcDbMText
 10
552.8033267014674
 20
353.1600177868203
 30
0.0
 40
6.0
 41
0.0
 71
     5
 72
     5
  1
\A1;※20
1001
ACAD
1000
MTEXTBEGIN
1070
    73
1070
     1
1070
    44
1040
1.0
1070
    74
1070
     0
1000
MTEXTEND
1000
MTEXTBEGIN
1070
    73
1070
     1
1070
    44
1040
1.0
1070
    74
1070
     0
1000
MTEXTEND
1000
MTEXTBEGIN
1070
    73
1070
     1
1070
    44
1040
1.0
1070
    74
1070
     0
1000
MTEXTEND
  0
POINT
  5
576
330
546
100
AcDbEntity
  8
DEFPOINTS
  6
BYBLOCK
 62
     0
100
AcDbPoint
 10
515.7033267016742
 20
362.4159309147147
 30
0.0
  0
POINT
  5
577
330
546
100
AcDbEntity
  8
DEFPOINTS
  6
BYBLOCK
 62
     0
100
AcDbPoint
 10
535.7033267014673
 20
362.4159049590263
 30
0.0
  0
POINT
  5
578
330
546
100
AcDbEntity
  8
DEFPOINTS
  6
BYBLOCK
 62
     0
100
AcDbPoint
 10
535.7033267014673
 20
348.1600177868203
 30
0.0
  0
ENDBLK
  5
579
330
546
100
AcDbEntity
  8
0
100
AcDbBlockEnd
  0
ENDSEC
  0
SECTION
  2
ENTITIES
  0
LINE
  5
274
330
1A
100
AcDbEntity
  8
SEIHIN
  6
CONTINUOUS
 62
     3
 48
16.0
100
AcDbLine
 10
504.2231267016741
 20
292.6158955443788
 30
0.0
 11
504.2231267016741
 21
307.6158955443788
 31
0.0
  0
LINE
  5
275
330
1A
100
AcDbEntity
  8
SEIHIN
  6
CONTINUOUS
 62
     3
 48
16.0
100
AcDbLine
 10
500.703226701674
 20
292.6158955443788
 30
0.0
 11
500.703226701674
 21
307.6158955443788
 31
0.0
  0
LINE
  5
276
330
1A
100
AcDbEntity
  8
SEIHIN
  6
CONTINUOUS
 62
     3
 48
16.0
100
AcDbLine
 10
431.1032267016741
 20
292.6159955443787
 30
0.0
 11
431.1032267016741
 21
307.6159955443789
 31
0.0
  0
LINE
  5
277
330
1A
100
AcDbEntity
  8
SEIHIN
  6
CONTINUOUS
 62
     3
 48
16.0
100
AcDbLine
 10
427.5833267016742
 20
292.6159955443787
 30
0.0
 11
427.5833267016742
 21
307.6159955443789
 31
0.0
  0
LINE
  5
278
330
1A
100
AcDbEntity
  8
SEIHIN
  6
CONTINUOUS
 62
     3
 48
16.0
100
AcDbLine
 10
441.4948267016741
 20
292.6159955443787
 30
0.0
 11
441.4949267017849
 21
384.8244977133775
 31
0.0
  0
LINE
  5
279
330
1A
100
AcDbEntity
  8
SEIHIN
  6
CONTINUOUS
 62
     3
 48
16.0
100
AcDbLine
 10
434.1262267016741
 20
292.6159955443787
 30
0.0
 11
434.1262267016741
 21
392.1929955443789
 31
0.0
  0
LINE
  5
27A
330
1A
100
AcDbEntity
  8
CENTER_L
  6
CENTER
 62
     1
 48
5.0
100
AcDbLine
 10
465.903226701674
 20
285.361495544379
 30
0.0
 11
465.903226701674
 21
369.4159955445146
 31
0.0
  0
LINE
  5
27B
330
1A
100
AcDbEntity
  8
SEIHIN
  6
CONTINUOUS
 62
     3
 48
16.0
100
AcDbLine
 10
421.103226701674
 20
296.6159955443787
 30
0.0
 11
421.1033267016741
 21
405.2160955443789
 31
0.0
  0
LINE
  5
27C
330
1A
100
AcDbEntity
  8
SEIHIN
  6
CONTINUOUS
 62
     3
 48
16.0
100
AcDbLine
 10
490.3116267016741
 20
292.6158955443788
 30
0.0
 11
490.3116267016742
 21
336.0075955443789
 31
0.0
  0
LINE
  5
27D
330
1A
100
AcDbEntity
  8
SEIHIN
  6
CONTINUOUS
 62
     3
 48
16.0
100
AcDbLine
 10
497.6802267016742
 20
292.6158955443788
 30
0.0
 11
497.6802267016742
 21
328.6389955443789
 31
0.0
  0
LINE
  5
27E
330
1A
100
AcDbEntity
  8
SEIHIN
  6
CONTINUOUS
 62
     3
 48
16.0
100
AcDbLine
 10
510.7032267016741
 20
296.6158955443789
 30
0.0
 11
510.7032267016741
 21
315.6159955443787
 31
0.0
  0
LINE
  5
27F
330
1A
100
AcDbEntity
  8
NOKITOI
  6
PHANTOM
 62
     8
 48
5.0
100
AcDbLine
 10
427.3196267016738
 20
211.0853955443789
 30
0.0
 11
424.6033267016739
 21
211.0853955443789
 31
0.0
  0
LINE
  5
280
330
1A
100
AcDbEntity
  8
NOKITOI
  6
PHANTOM
 62
     8
 48
5.0
100
AcDbLine
 10
428.258326701674
 20
206.4853955443789
 30
0.0
 11
424.6033267016739
 21
206.4853955443789
 31
0.0
  0
LINE
  5
281
330
1A
100
AcDbEntity
  8
NOKITOI
  6
PHANTOM
 62
     8
 48
5.0
100
AcDbLine
 10
423.403226701674
 20
205.2853955443789
 30
0.0
 11
428.503326701674
 21
205.2853955443789
 31
0.0
  0
LINE
  5
282
330
1A
100
AcDbEntity
  8
NOKITOI
  6
PHANTOM
 62
     8
 48
5.0
100
AcDbLine
 10
423.4033267016739
 20
212.2853955443789
 30
0.0
 11
428.3017267016739
 21
212.2853955443789
 31
0.0
  0
LINE
  5
283
330
1A
100
AcDbEntity
  8
SEIHIN
  6
CONTINUOUS
 62
     3
 48
16.0
100
AcDbLine
 10
465.903226701674
 20
292.6158955443788
 30
0.0
 11
422.1032267016742
 21
292.6159955443787
 31
0.0
  0
LINE
  5
284
330
1A
100
AcDbEntity
  8
SEIHIN
  6
CONTINUOUS
 62
     3
 48
16.0
100
AcDbLine
 10
422.1032267016742
 20
214.3853955443789
 30
0.0
 11
427.5833267016742
 21
214.3853955443789
 31
0.0
  0
LINE
  5
285
330
1A
100
AcDbEntity
  8
SEIHIN
  6
CONTINUOUS
 62
     3
 48
16.0
100
AcDbLine
 10
429.103226701674
 20
212.0853955443789
 30
0.0
 11
423.983626701674
 21
212.4982955443789
 31
0.0
  0
ARC
  5
287
330
1A
100
AcDbEntity
  8
SEIHIN
  6
CONTINUOUS
 62
     3
 48
16.0
100
AcDbCircle
 10
426.2652388213895
 20
202.6853857994738
 30
0.0
 40
1.000009744978517
100
AcDbArc
 50
12.39837649543954
 51
90.00069440177368
  0
LINE
  5
288
330
1A
100
AcDbEntity
  8
SEIHIN
  6
CONTINUOUS
 62
     3
 48
16.0
100
AcDbLine
 10
423.9032267016741
 20
205.4853955443789
 30
0.0
 11
465.903226701674
 21
205.4853955443789
 31
0.0
  0
LINE
  5
28A
330
1A
100
AcDbEntity
  8
NOKITOI
  6
PHANTOM
 62
     8
 48
5.0
100
AcDbLine
 10
423.403226701674
 20
205.2853955443789
 30
0.0
 11
423.4033267016739
 21
212.2853955443789
 31
0.0
  0
ARC
  5
28B
330
1A
100
AcDbEntity
  8
SEIHIN
  6
CONTINUOUS
 62
     3
 48
16.0
100
AcDbCircle
 10
423.9032267016741
 20
206.4853955443789
 30
0.0
 40
0.9999999999999715
100
AcDbArc
 50
180.0000000000016
 51
270.0000000000016
  0
LINE
  5
28D
330
1A
100
AcDbEntity
  8
SEIHIN
  6
CONTINUOUS
 62
     3
 48
16.0
100
AcDbLine
 10
421.103226701674
 20
213.3853955443788
 30
0.0
 11
421.103226701674
 21
204.6853955443789
 31
0.0
  0
LINE
  5
28E
330
1A
100
AcDbEntity
  8
SEIHIN
  6
CONTINUOUS
 62
     3
 48
16.0
100
AcDbLine
 10
422.1032267016741
 20
203.6853955443788
 30
0.0
 11
427.48636517422
 21
203.6853955443789
 31
0.0
  0
ARC
  5
290
330
1A
100
AcDbEntity
  8
SEIHIN
  6
CONTINUOUS
 62
     3
 48
16.0
100
AcDbCircle
 10
422.1032267016741
 20
204.6853955443789
 30
0.0
 40
1.000000000000028
100
AcDbArc
 50
180.0000000000016
 51
270.0000000000016
  0
LINE
  5
293
330
1A
100
AcDbEntity
  8
NOKITOI
  6
PHANTOM
 62
     8
 48
5.0
100
AcDbLine
 10
424.6033267016739
 20
211.0853955443789
 30
0.0
 11
424.6033267016739
 21
206.4853955443789
 31
0.0
  0
ARC
  5
294
330
1A
100
AcDbEntity
  8
SEIHIN
  6
CONTINUOUS
 62
     3
 48
16.0
100
AcDbCircle
 10
423.9032453013282
 20
211.5015127042242
 30
0.0
 40
1.000018599801266
100
AcDbArc
 50
85.38959696920766
 51
180.0009831684283
  0
LINE
  5
295
330
1A
100
AcDbEntity
  8
SEIHIN
  6
CONTINUOUS
 62
     3
 48
16.0
100
AcDbLine
 10
422.9032267016741
 20
206.4853955443788
 30
0.0
 11
422.9032267016741
 21
211.5014955443788
 31
0.0
  0
ARC
  5
296
330
1A
100
AcDbEntity
  8
SEIHIN
  6
CONTINUOUS
 62
     3
 48
16.0
100
AcDbCircle
 10
422.1032267016742
 20
213.3853955443788
 30
0.0
 40
1.000000000000071
100
AcDbArc
 50
90.00000000000081
 51
180.0000000000007
  0
LINE
  5
298
330
1A
100
AcDbEntity
  8
SEIHIN
  6
CONTINUOUS
 62
     3
 48
16.0
100
AcDbLine
 10
422.1032267016742
 20
292.6159955443787
 30
0.0
 11
421.103226701674
 21
296.6159955443787
 31
0.0
  0
LINE
  5
299
330
1A
100
AcDbEntity
  8
NOKITOI
  6
PHANTOM
 62
     8
 48
5.0
100
AcDbLine
 10
508.403226701674
 20
205.2852955443788
 30
0.0
 11
508.403226701674
 21
212.2852955443788
 31
0.0
  0
LINE
  5
29A
330
1A
100
AcDbEntity
  8
NOKITOI
  6
PHANTOM
 62
     8
 48
5.0
100
AcDbLine
 10
428.3017267016739
 20
212.2853955443789
 30
0.0
 11
434.5358267016739
 21
181.7379955443788
 31
0.0
  0
LINE
  5
29B
330
1A
100
AcDbEntity
  8
NOKITOI
  6
PHANTOM
 62
     8
 48
5.0
100
AcDbLine
 10
503.504826701674
 20
212.2852955443788
 30
0.0
 11
497.2706267016739
 21
181.7378955443789
 31
0.0
  0
ARC
  5
29D
330
1A
100
AcDbEntity
  8
SEIHIN
  6
CONTINUOUS
 62
     3
 48
16.0
100
AcDbCircle
 10
507.903226701674
 20
206.4853955443789
 30
0.0
 40
0.9999999999999715
100
AcDbArc
 50
269.9999999999983
 51
359.9999999999983
  0
LINE
  5
29E
330
1A
100
AcDbEntity
  8
SEIHIN
  6
CONTINUOUS
 62
     3
 48
16.0
100
AcDbLine
 10
510.7032267016741
 20
213.3853955443788
 30
0.0
 11
510.7032267016741
 21
204.6853955443789
 31
0.0
  0
LINE
  5
2A0
330
1A
100
AcDbEntity
  8
CENTER_L
  6
CENTER
 62
     1
 48
5.0
100
AcDbLine
 10
465.903226701674
 20
162.7718955443788
 30
0.0
 11
465.903226701674
 21
217.7530955443788
 31
0.0
  0
LINE
  5
2A1
330
1A
100
AcDbEntity
  8
SEIHIN
  6
CONTINUOUS
 62
     3
 48
16.0
100
AcDbLine
 10
531.7032267016741
 20
214.3853955443789
 30
0.0
 11
531.7032267016741
 21
170.4852955443788
 31
0.0
  0
LINE
  5
2A2
330
1A
100
AcDbEntity
  8
SEIHIN
  6
CONTINUOUS
 62
     3
 48
16.0
100
AcDbLine
 10
535.7032267016741
 20
215.0852955443789
 30
0.0
 11
535.7032267016741
 21
171.2853955443788
 31
0.0
  0
LINE
  5
2A3
330
1A
100
AcDbEntity
  8
NOKITOI
  6
PHANTOM
 62
     8
 48
5.0
100
AcDbLine
 10
492.825326701674
 20
179.1852955443789
 30
0.0
 11
485.403226701674
 21
179.1853955443789
 31
0.0
  0
ARC
  5
2A4
330
1A
100
AcDbEntity
  8
NOKITOI
  6
PHANTOM
 62
     8
 48
5.0
100
AcDbCircle
 10
500.9875308145439
 20
170.1178998603496
 30
0.0
 40
10.99994632941526
100
AcDbArc
 50
104.1244483036074
 51
168.6362598432798
  0
LINE
  5
2A5
330
1A
100
AcDbEntity
  8
SEIHIN
  6
CONTINUOUS
 62
     3
 48
16.0
100
AcDbLine
 10
507.903226701674
 20
205.4853955443789
 30
0.0
 11
465.903226701674
 21
205.4853955443789
 31
0.0
  0
ARC
  5
2A6
330
1A
100
AcDbEntity
  8
SEIHIN
  6
CONTINUOUS
 62
     3
 48
16.0
100
AcDbCircle
 10
500.9954140158311
 20
170.4289810143805
 30
0.0
 40
9.199960522476397
100
AcDbArc
 50
103.6973443962293
 51
174.0553745295157
  0
ARC
  5
2A8
330
1A
100
AcDbEntity
  8
SEIHIN
  6
CONTINUOUS
 62
     3
 48
16.0
100
AcDbCircle
 10
500.9953962441819
 20
170.4289620577881
 30
0.0
 40
10.99996025270622
100
AcDbArc
 50
109.1947575821475
 51
166.2290957910746
  0
LINE
  5
2A9
330
1A
100
AcDbEntity
  8
SEIHIN
  6
CONTINUOUS
 62
     3
 48
16.0
100
AcDbLine
 10
465.903226701674
 20
170.4853955443788
 30
0.0
 11
531.7033267016742
 21
170.4853955443788
 31
0.0
  0
LINE
  5
2AA
330
1A
100
AcDbEntity
  8
SEIHIN
  6
CONTINUOUS
 62
     3
 48
16.0
100
AcDbLine
 10
497.6802267016742
 20
180.9853955443788
 30
0.0
 11
465.903226701674
 21
180.9853955443788
 31
0.0
  0
LINE
  5
2B3
330
1A
100
AcDbEntity
  8
NOKITOI
  6
PHANTOM
 62
     8
 48
5.0
100
AcDbLine
 10
441.603226701674
 20
172.2853955443789
 30
0.0
 11
465.903226701674
 21
172.2853955443789
 31
0.0
  0
LINE
  5
2B4
330
1A
100
AcDbEntity
  8
NOKITOI
  6
PHANTOM
 62
     8
 48
5.0
100
AcDbLine
 10
465.903226701674
 20
173.4853955443789
 30
0.0
 11
446.403226701674
 21
173.4853955443789
 31
0.0
  0
LINE
  5
2B5
330
1A
100
AcDbEntity
  8
SEIHIN
  6
CONTINUOUS
 62
     3
 48
16.0
100
AcDbLine
 10
465.903226701674
 20
172.2853955443789
 30
0.0
 11
442.4660267016742
 21
172.2853955443789
 31
0.0
  0
LINE
  5
2B6
330
1A
100
AcDbEntity
  8
SEIHIN
  6
CONTINUOUS
 62
     3
 48
16.0
100
AcDbLine
 10
434.1262267016741
 20
180.9853955443788
 30
0.0
 11
465.903226701674
 21
180.9853955443788
 31
0.0
  0
LINE
  5
2B8
330
1A
100
AcDbEntity
  8
SEIHIN
  6
CONTINUOUS
 62
     3
 48
16.0
100
AcDbLine
 10
465.903226701674
 20
170.4853955443788
 30
0.0
 11
440.9561267016741
 21
170.4853955443788
 31
0.0
  0
LINE
  5
2B9
330
1A
100
AcDbEntity
  8
NOKITOI
  6
PHANTOM
 62
     8
 48
5.0
100
AcDbLine
 10
428.503326701674
 20
205.2853955443789
 30
0.0
 11
433.5032267016741
 21
180.7853955443789
 31
0.0
  0
LINE
  5
2BB
330
1A
100
AcDbEntity
  8
SEIHIN
  6
CONTINUOUS
 62
     3
 48
16.0
100
AcDbLine
 10
433.7797267016742
 20
181.5470955443788
 30
0.0
 11
428.6891267016741
 21
204.7000955443789
 31
0.0
  0
LINE
  5
2BC
330
1A
100
AcDbEntity
  8
SEIHIN
  6
CONTINUOUS
 62
     3
 48
16.0
100
AcDbLine
 10
427.2419267016742
 20
202.9000955443788
 30
0.0
 11
432.2495267016741
 21
180.1240955443788
 31
0.0
  0
LINE
  5
2BD
330
1A
100
AcDbEntity
  8
NOKITOI
  6
PHANTOM
 62
     8
 48
5.0
100
AcDbLine
 10
438.981126701674
 20
179.1853955443789
 30
0.0
 11
446.403226701674
 21
179.1853955443789
 31
0.0
  0
LINE
  5
2BE
330
1A
100
AcDbEntity
  8
NOKITOI
  6
PHANTOM
 62
     8
 48
5.0
100
AcDbLine
 10
440.1432267016739
 20
177.9853955443789
 30
0.0
 11
445.2032267016739
 21
177.9853955443789
 31
0.0
  0
LINE
  5
2BF
330
1A
100
AcDbEntity
  8
NOKITOI
  6
PHANTOM
 62
     8
 48
5.0
100
AcDbLine
 10
445.2032267016739
 20
173.4853955443789
 30
0.0
 11
442.5449267016739
 21
173.4853955443789
 31
0.0
  0
ARC
  5
2C0
330
1A
100
AcDbEntity
  8
SEIHIN
  6
CONTINUOUS
 62
     3
 48
16.0
100
AcDbCircle
 10
440.9561372094276
 20
171.4853860742891
 30
0.0
 40
0.9999905299654871
100
AcDbArc
 50
185.9460235461925
 51
269.9993979443703
  0
ARC
  5
2C1
330
1A
100
AcDbEntity
  8
NOKITOI
  6
PHANTOM
 62
     8
 48
5.0
100
AcDbCircle
 10
430.8188849146978
 20
170.1180195392679
 30
0.0
 40
12.19997945109428
100
AcDbArc
 50
48.00719042627341
 51
72.26181654227993
  0
ARC
  5
2C2
330
1A
100
AcDbEntity
  8
NOKITOI
  6
PHANTOM
 62
     8
 48
5.0
100
AcDbCircle
 10
430.8189225888039
 20
170.1179998603497
 30
0.0
 40
10.99994632941524
100
AcDbArc
 50
11.36374015671925
 51
75.87555169639184
  0
ARC
  5
2C3
330
1A
100
AcDbEntity
  8
SEIHIN
  6
CONTINUOUS
 62
     3
 48
16.0
100
AcDbCircle
 10
430.8110024324
 20
170.4289122810823
 30
0.0
 40
11.00002525528444
100
AcDbArc
 50
13.77108817334612
 51
70.80505845343211
  0
ARC
  5
2C5
330
1A
100
AcDbEntity
  8
SEIHIN
  6
CONTINUOUS
 62
     3
 48
16.0
100
AcDbCircle
 10
430.8109961580111
 20
170.4289159910042
 30
0.0
 40
9.200010254002405
100
AcDbArc
 50
5.945000362264226
 51
76.30309499361942
  0
ARC
  5
2C6
330
1A
100
AcDbEntity
  8
SEIHIN
  6
CONTINUOUS
 62
     3
 48
16.0
100
AcDbCircle
 10
434.7564137131222
 20
181.7618101732911
 30
0.0
 40
1.000009945050697
100
AcDbArc
 50
192.3986604877445
 51
250.8050298140335
  0
ARC
  5
2C8
330
1A
100
AcDbEntity
  8
SEIHIN
  6
CONTINUOUS
 62
     3
 48
16.0
100
AcDbCircle
 10
433.2262263284872
 20
180.33889592609
 30
0.0
 40
1.000040681672573
100
AcDbArc
 50
192.4033037857718
 51
256.302839696795
  0
ARC
  5
2C9
330
1A
100
AcDbEntity
  8
NOKITOI
  6
PHANTOM
 62
     8
 48
5.0
100
AcDbCircle
 10
430.8189223405484
 20
170.1180037156866
 30
0.0
 40
12.19993877054614
100
AcDbArc
 50
16.02263637925393
 51
40.15603560521631
  0
ARC
  5
2CA
330
1A
100
AcDbEntity
  8
SEIHIN
  6
CONTINUOUS
 62
     3
 48
16.0
100
AcDbCircle
 10
442.4660670327667
 20
173.2853639033777
 30
0.0
 40
0.999968359812135
100
AcDbArc
 50
193.7671064039546
 51
269.9976891254978
  0
LINE
  5
2CC
330
1A
100
AcDbEntity
  8
NOKITOI
  6
PHANTOM
 62
     8
 48
5.0
100
AcDbLine
 10
446.403226701674
 20
173.4853955443789
 30
0.0
 11
446.403226701674
 21
179.1853955443789
 31
0.0
  0
LINE
  5
2CD
330
1A
100
AcDbEntity
  8
NOKITOI
  6
PHANTOM
 62
     8
 48
5.0
100
AcDbLine
 10
445.2032267016739
 20
173.4853955443789
 30
0.0
 11
445.2032267016739
 21
177.9853955443789
 31
0.0
  0
ARC
  5
2CF
330
1A
100
AcDbEntity
  8
SEIHIN
  6
CONTINUOUS
 62
     3
 48
16.0
100
AcDbCircle
 10
427.7124780856734
 20
204.4854346334068
 30
0.0
 40
0.9999609121538647
100
AcDbArc
 50
12.39612670570895
 51
89.99721439945382
  0
LINE
  5
2D0
330
1A
100
AcDbEntity
  8
NOKITOI
  6
PHANTOM
 62
     8
 48
5.0
100
AcDbLine
 10
490.2032267016738
 20
172.2853955443789
 30
0.0
 11
465.903226701674
 21
172.2853955443789
 31
0.0
  0
LINE
  5
2D1
330
1A
100
AcDbEntity
  8
NOKITOI
  6
PHANTOM
 62
     8
 48
5.0
100
AcDbLine
 10
465.903226701674
 20
173.4853955443789
 30
0.0
 11
485.403226701674
 21
173.4853955443789
 31
0.0
  0
LINE
  5
2D3
330
1A
100
AcDbEntity
  8
SEIHIN
  6
CONTINUOUS
 62
     3
 48
16.0
100
AcDbLine
 10
465.903226701674
 20
172.2853955443789
 30
0.0
 11
489.3403267016743
 21
172.2853955443789
 31
0.0
  0
ARC
  5
2D4
330
1A
100
AcDbEntity
  8
SEIHIN
  6
CONTINUOUS
 62
     3
 48
16.0
100
AcDbCircle
 10
490.8503161939206
 20
171.4853860742892
 30
0.0
 40
0.9999905299655843
100
AcDbArc
 50
270.0006020556243
 51
354.053976453803
  0
LINE
  5
2D5
330
1A
100
AcDbEntity
  8
NOKITOI
  6
PHANTOM
 62
     8
 48
5.0
100
AcDbLine
 10
485.403226701674
 20
173.4852955443788
 30
0.0
 11
485.403226701674
 21
179.1853955443789
 31
0.0
  0
LINE
  5
2D6
330
1A
100
AcDbEntity
  8
NOKITOI
  6
PHANTOM
 62
     8
 48
5.0
100
AcDbLine
 10
486.603226701674
 20
173.4853955443789
 30
0.0
 11
486.603226701674
 21
177.9853955443789
 31
0.0
  0
LINE
  5
2D7
330
1A
100
AcDbEntity
  8
NOKITOI
  6
PHANTOM
 62
     8
 48
5.0
100
AcDbLine
 10
486.603226701674
 20
173.4853955443789
 30
0.0
 11
489.261526701674
 21
173.4853955443789
 31
0.0
  0
ARC
  5
2D8
330
1A
100
AcDbEntity
  8
NOKITOI
  6
PHANTOM
 62
     8
 48
5.0
100
AcDbCircle
 10
500.9876036853447
 20
170.1180397852442
 30
0.0
 40
12.19997101530972
100
AcDbArc
 50
139.8443138052131
 51
163.9780719705774
  0
LINE
  5
2D9
330
1A
100
AcDbEntity
  8
NOKITOI
  6
PHANTOM
 62
     8
 48
5.0
100
AcDbLine
 10
491.663226701674
 20
177.9853955443789
 30
0.0
 11
486.603226701674
 21
177.9853955443789
 31
0.0
  0
ARC
  5
2DB
330
1A
100
AcDbEntity
  8
SEIHIN
  6
CONTINUOUS
 62
     3
 48
16.0
100
AcDbCircle
 10
489.3403482709867
 20
173.2854124665925
 30
0.0
 40
1.000016922446203
100
AcDbArc
 50
269.9987641903383
 51
346.2307105915803
  0
LINE
  5
2DC
330
1A
100
AcDbEntity
  8
SEIHIN
  6
CONTINUOUS
 62
     3
 48
16.0
100
AcDbLine
 10
535.7032267016741
 20
203.6853955443789
 30
0.0
 11
504.3200891989173
 21
203.6853955443789
 31
0.0
  0
LINE
  5
2DD
330
1A
100
AcDbEntity
  8
SEIHIN
  6
CONTINUOUS
 62
     3
 48
16.0
100
AcDbLine
 10
499.2873267016741
 20
179.6317955443788
 30
0.0
 11
531.7033267016742
 21
179.6317955443788
 31
0.0
  0
LINE
  5
2DE
330
1A
100
AcDbEntity
  8
NOKITOI
  6
PHANTOM
 62
     8
 48
5.0
100
AcDbLine
 10
503.303226701674
 20
205.2852955443788
 30
0.0
 11
498.3032267016739
 21
180.7853955443789
 31
0.0
  0
LINE
  5
2DF
330
1A
100
AcDbEntity
  8
SEIHIN
  6
CONTINUOUS
 62
     3
 48
16.0
100
AcDbLine
 10
504.5645267016741
 20
202.9000955443788
 30
0.0
 11
499.5568267016742
 21
180.1240955443788
 31
0.0
  0
LINE
  5
2E1
330
1A
100
AcDbEntity
  8
SEIHIN
  6
CONTINUOUS
 62
     3
 48
16.0
100
AcDbLine
 10
498.0267267016741
 20
181.5470955443788
 30
0.0
 11
503.1172267016741
 21
204.7000955443789
 31
0.0
  0
ARC
  5
2E2
330
1A
100
AcDbEntity
  8
NOKITOI
  6
PHANTOM
 62
     8
 48
5.0
100
AcDbCircle
 10
500.9875684886502
 20
170.1179195392683
 30
0.0
 40
12.19997945109404
100
AcDbArc
 50
107.7381834577211
 51
131.9928095737274
  0
ARC
  5
2E4
330
1A
100
AcDbEntity
  8
SEIHIN
  6
CONTINUOUS
 62
     3
 48
16.0
100
AcDbCircle
 10
497.050039690226
 20
181.7618101732911
 30
0.0
 40
1.000009945050735
100
AcDbArc
 50
289.1949701859639
 51
347.601339512253
  0
ARC
  5
2E5
330
1A
100
AcDbEntity
  8
SEIHIN
  6
CONTINUOUS
 62
     3
 48
16.0
100
AcDbCircle
 10
498.580127074861
 20
180.3388959260901
 30
0.0
 40
1.000040681672629
100
AcDbArc
 50
283.6971603031975
 51
347.5966962142237
  0
LINE
  5
2E7
330
1A
100
AcDbEntity
  8
NOKITOI
  6
PHANTOM
 62
     8
 48
5.0
100
AcDbLine
 10
508.403226701674
 20
205.2852955443788
 30
0.0
 11
503.303226701674
 21
205.2852955443788
 31
0.0
  0
ARC
  5
2E8
330
1A
100
AcDbEntity
  8
SEIHIN
  6
CONTINUOUS
 62
     3
 48
16.0
100
AcDbCircle
 10
505.5411753176749
 20
202.6854346334069
 30
0.0
 40
0.9999609121538037
100
AcDbArc
 50
90.00278560055239
 51
167.6038732942989
  0
ARC
  5
2EA
330
1A
100
AcDbEntity
  8
SEIHIN
  6
CONTINUOUS
 62
     3
 48
16.0
100
AcDbCircle
 10
504.0939145819587
 20
204.4853857994739
 30
0.0
 40
1.000009744978493
100
AcDbArc
 50
89.99930559822436
 51
167.6016235045564
  0
ARC
  5
2EB
330
1A
100
AcDbEntity
  8
SEIHIN
  6
CONTINUOUS
 62
     3
 48
16.0
100
AcDbCircle
 10
509.7032267016741
 20
204.6853955443789
 30
0.0
 40
1.0
100
AcDbArc
 50
270.0
 51
0.0
  0
LINE
  5
2EE
330
1A
100
AcDbEntity
  8
SEIHIN
  6
CONTINUOUS
 62
     3
 48
16.0
100
AcDbLine
 10
531.7033267016742
 20
170.4853955443788
 30
0.0
 11
535.7033267016742
 21
171.2853955443788
 31
0.0
  0
LINE
  5
2EF
330
1A
100
AcDbEntity
  8
SEIHIN
  6
CONTINUOUS
 62
     3
 48
16.0
100
AcDbLine
 10
531.7033267016742
 20
179.6317955443788
 30
0.0
 11
535.7033267016742
 21
180.4317955443789
 31
0.0
  0
LINE
  5
2F4
330
1A
100
AcDbEntity
  8
SEIHIN
  6
CONTINUOUS
 62
     3
 48
16.0
100
AcDbLine
 10
465.903226701674
 20
292.6158955443788
 30
0.0
 11
509.7032267016741
 21
292.6159955443787
 31
0.0
  0
LINE
  5
2F5
330
1A
100
AcDbEntity
  8
SEIHIN
  6
CONTINUOUS
 62
     3
 48
16.0
100
AcDbLine
 10
501.1833267016741
 20
214.3853955443789
 30
0.0
 11
465.903226701674
 21
214.3853955443789
 31
0.0
  0
LINE
  5
2F6
330
1A
100
AcDbEntity
  8
SEIHIN
  6
CONTINUOUS
 62
     3
 48
16.0
100
AcDbLine
 10
430.623126701674
 20
214.3853955443789
 30
0.0
 11
465.903226701674
 21
214.3853955443789
 31
0.0
  0
LINE
  5
2F7
330
1A
100
AcDbEntity
  8
NOKITOI
  6
PHANTOM
 62
     8
 48
5.0
100
AcDbLine
 10
427.3196267016738
 20
211.0853955443789
 30
0.0
 11
428.258326701674
 21
206.4853955443789
 31
0.0
  0
LINE
  5
2F8
330
1A
100
AcDbEntity
  8
SEIHIN
  6
CONTINUOUS
 62
     3
 48
16.0
100
AcDbLine
 10
429.103226701674
 20
211.0853955443789
 30
0.0
 11
429.103226701674
 21
212.0853955443789
 31
0.0
  0
ARC
  5
2F9
330
1A
100
AcDbEntity
  8
SEIHIN
  6
CONTINUOUS
 62
     3
 48
16.0
100
AcDbCircle
 10
429.1032211742627
 20
213.0854075455569
 30
0.0
 40
2.000012001185595
100
AcDbArc
 50
270.0001583477224
 51
139.4591446088491
  0
LINE
  5
2FB
330
1A
100
AcDbEntity
  8
SEIHIN
  6
CONTINUOUS
 62
     3
 48
16.0
100
AcDbLine
 10
535.7033267016742
 20
214.3853955443789
 30
0.0
 11
504.2231267016741
 21
214.3853955443789
 31
0.0
  0
LINE
  5
2FC
330
1A
100
AcDbEntity
  8
SEIHIN
  6
CONTINUOUS
 62
     3
 48
16.0
100
AcDbLine
 10
520.7032267016741
 20
215.0853955443789
 30
0.0
 11
535.7033267016742
 21
215.0853955443789
 31
0.0
  0
ARC
  5
304
330
1A
100
AcDbEntity
  8
SEIHIN
  6
CONTINUOUS
 62
     3
 48
16.0
100
AcDbCircle
 10
507.90320810202
 20
211.5015127042241
 30
0.0
 40
1.00001859980131
100
AcDbArc
 50
359.9990168315739
 51
94.6104030307945
  0
LINE
  5
305
330
1A
100
AcDbEntity
  8
SEIHIN
  6
CONTINUOUS
 62
     3
 48
16.0
100
AcDbLine
 10
509.7032267016741
 20
214.3853955443789
 30
0.0
 11
504.2231267016741
 21
214.3853955443789
 31
0.0
  0
LINE
  5
306
330
1A
100
AcDbEntity
  8
NOKITOI
  6
PHANTOM
 62
     8
 48
5.0
100
AcDbLine
 10
507.2032267016738
 20
211.0852955443788
 30
0.0
 11
507.2032267016738
 21
206.4852955443789
 31
0.0
  0
LINE
  5
307
330
1A
100
AcDbEntity
  8
NOKITOI
  6
PHANTOM
 62
     8
 48
5.0
100
AcDbLine
 10
504.4869267016739
 20
211.0852955443788
 30
0.0
 11
507.2032267016738
 21
211.0852955443788
 31
0.0
  0
LINE
  5
308
330
1A
100
AcDbEntity
  8
NOKITOI
  6
PHANTOM
 62
     8
 48
5.0
100
AcDbLine
 10
504.4869267016739
 20
211.0852955443788
 30
0.0
 11
503.5481267016741
 21
206.4852955443789
 31
0.0
  0
LINE
  5
309
330
1A
100
AcDbEntity
  8
NOKITOI
  6
PHANTOM
 62
     8
 48
5.0
100
AcDbLine
 10
503.5481267016741
 20
206.4852955443789
 30
0.0
 11
507.2032267016738
 21
206.4852955443789
 31
0.0
  0
LINE
  5
30A
330
1A
100
AcDbEntity
  8
NOKITOI
  6
PHANTOM
 62
     8
 48
5.0
100
AcDbLine
 10
508.403226701674
 20
212.2852955443788
 30
0.0
 11
503.504826701674
 21
212.2852955443788
 31
0.0
  0
LINE
  5
30B
330
1A
100
AcDbEntity
  8
SEIHIN
  6
CONTINUOUS
 62
     3
 48
16.0
100
AcDbLine
 10
502.7032267016741
 20
212.0853955443789
 30
0.0
 11
507.8228267016741
 21
212.4982955443789
 31
0.0
  0
LINE
  5
30C
330
1A
100
AcDbEntity
  8
SEIHIN
  6
CONTINUOUS
 62
     3
 48
16.0
100
AcDbLine
 10
502.7032267016741
 20
211.0853955443789
 30
0.0
 11
502.7032267016741
 21
212.0853955443789
 31
0.0
  0
ARC
  5
30D
330
1A
100
AcDbEntity
  8
SEIHIN
  6
CONTINUOUS
 62
     3
 48
16.0
100
AcDbCircle
 10
502.7032322290856
 20
213.0854075455569
 30
0.0
 40
2.000012001185613
100
AcDbArc
 50
40.54085539114937
 51
269.9998416522764
  0
ARC
  5
30E
330
1A
100
AcDbEntity
  8
SEIHIN
  6
CONTINUOUS
 62
     3
 48
16.0
100
AcDbCircle
 10
509.7032267016739
 20
213.3853955443789
 30
0.0
 40
1.000000000000042
100
AcDbArc
 50
359.9999999999975
 51
89.99999999999756
  0
LINE
  5
30F
330
1A
100
AcDbEntity
  8
SEIHIN
  6
CONTINUOUS
 62
     3
 48
16.0
100
AcDbLine
 10
508.903226701674
 20
206.4853955443788
 30
0.0
 11
508.903226701674
 21
211.5014955443788
 31
0.0
  0
LINE
  5
317
330
1A
100
AcDbEntity
  8
SEIHIN
  6
CONTINUOUS
 62
     3
 48
16.0
100
AcDbLine
 10
509.7032267016741
 20
292.6158955443788
 30
0.0
 11
510.7032267016741
 21
296.6158955443789
 31
0.0
  0
LINE
  5
318
330
1A
100
AcDbEntity
  8
SEIHIN
  6
CONTINUOUS
 62
     3
 48
16.0
100
AcDbLine
 10
531.703426701674
 20
407.2159955443789
 30
0.0
 11
423.1033267016741
 21
407.2160955443788
 31
0.0
  0
LINE
  5
319
330
1A
100
AcDbEntity
  8
SEIHIN
  6
CONTINUOUS
 62
     3
 48
16.0
100
AcDbLine
 10
520.7034267016742
 20
406.2159955443787
 30
0.0
 11
424.1033267016751
 21
406.2159955443787
 31
0.0
  0
LINE
  5
31A
330
1A
100
AcDbEntity
  8
SEIHIN
  6
CONTINUOUS
 62
     3
 48
16.0
100
AcDbLine
 10
431.1032267016741
 20
307.6159955443789
 30
0.0
 11
422.1032267016742
 21
307.6159955443789
 31
0.0
  0
LINE
  5
31C
330
1A
100
AcDbEntity
  8
SEIHIN
  6
CONTINUOUS
 62
     3
 48
16.0
100
AcDbLine
 10
422.1032267016742
 20
307.6159955443789
 30
0.0
 11
422.1033267016762
 21
404.215997614772
 31
0.0
  0
ARC
  5
31F
330
1A
100
AcDbEntity
  8
SEIHIN
  6
CONTINUOUS
 62
     3
 48
16.0
100
AcDbCircle
 10
423.103326701674
 20
405.2160955443788
 30
0.0
 40
1.999999999999914
100
AcDbArc
 50
89.99999999999756
 51
179.9999999999975
  0
LINE
  5
320
330
1A
100
AcDbEntity
  8
SEIHIN
  6
CONTINUOUS
 62
     3
 48
16.0
100
AcDbLine
 10
535.7033267016742
 20
362.4159955443789
 30
0.0
 11
535.7033267016742
 21
406.2159955443787
 31
0.0
  0
LINE
  5
321
330
1A
100
AcDbEntity
  8
SEIHIN
  6
CONTINUOUS
 62
     3
 48
16.0
100
AcDbLine
 10
428.6892267016741
 20
307.6159955443789
 30
0.0
 11
428.6892267016742
 21
397.6300955443777
 31
0.0
  0
LINE
  5
323
330
1A
100
AcDbEntity
  8
CENTER_L
  6
CENTER
 62
     1
 48
5.0
100
AcDbLine
 10
542.9577267016741
 20
362.4158955443789
 30
0.0
 11
458.9032267016739
 21
362.4160046289996
 31
0.0
  0
LINE
  5
324
330
1A
100
AcDbEntity
  8
SEIHIN
  6
CONTINUOUS
 62
     3
 48
16.0
100
AcDbLine
 10
535.7033267016742
 20
394.1929955443789
 30
0.0
 11
436.1262267016741
 21
394.1929955443789
 31
0.0
  0
LINE
  5
325
330
1A
100
AcDbEntity
  8
SEIHIN
  6
CONTINUOUS
 62
     3
 48
16.0
100
AcDbLine
 10
535.7033267016742
 20
386.8243955443789
 30
0.0
 11
443.4949288707835
 21
386.8244955443765
 31
0.0
  0
LINE
  5
32B
330
1A
100
AcDbEntity
  8
SEIHIN
  6
CONTINUOUS
 62
     3
 48
16.0
100
AcDbLine
 10
535.7033267016742
 20
362.4159955443789
 30
0.0
 11
535.7032267016741
 21
318.6159955443788
 31
0.0
  0
LINE
  5
32C
330
1A
100
AcDbEntity
  8
SEIHIN
  6
CONTINUOUS
 62
     3
 48
16.0
100
AcDbLine
 10
535.7033267016742
 20
324.096095544379
 30
0.0
 11
520.7033267016742
 21
324.096095544379
 31
0.0
  0
LINE
  5
32D
330
1A
100
AcDbEntity
  8
SEIHIN
  6
CONTINUOUS
 62
     3
 48
16.0
100
AcDbLine
 10
535.7033267016742
 20
327.6159955443787
 30
0.0
 11
520.7033267016742
 21
327.6159955443787
 31
0.0
  0
LINE
  5
32E
330
1A
100
AcDbEntity
  8
SEIHIN
  6
CONTINUOUS
 62
     3
 48
16.0
100
AcDbLine
 10
531.7033267016742
 20
317.6159955443787
 30
0.0
 11
512.703226701674
 21
317.6159955443787
 31
0.0
  0
LINE
  5
32F
330
1A
100
AcDbEntity
  8
SEIHIN
  6
CONTINUOUS
 62
     3
 48
16.0
100
AcDbLine
 10
535.7033267016742
 20
330.6389955443789
 30
0.0
 11
499.6802267016741
 21
330.6389955443789
 31
0.0
  0
LINE
  5
330
330
1A
100
AcDbEntity
  8
SEIHIN
  6
CONTINUOUS
 62
     3
 48
16.0
100
AcDbLine
 10
535.7033267016742
 20
338.0075955443789
 30
0.0
 11
492.3116267016742
 21
338.0075955443789
 31
0.0
  0
LINE
  5
331
330
1A
100
AcDbEntity
  8
SEIHIN
  6
CONTINUOUS
 62
     3
 48
16.0
100
AcDbLine
 10
520.7033267016742
 20
327.6159955443787
 30
0.0
 11
520.7032267016741
 21
318.6159955443788
 31
0.0
  0
LINE
  5
332
330
1A
100
AcDbEntity
  8
SEIHIN
  6
CONTINUOUS
 62
     3
 48
16.0
100
AcDbLine
 10
520.7033267016742
 20
325.2018955443789
 30
0.0
 11
505.1173267016742
 21
325.2018955443789
 31
0.0
  0
LINE
  5
333
330
1A
100
AcDbEntity
  8
SEIHIN
  6
CONTINUOUS
 62
     3
 48
16.0
100
AcDbLine
 10
500.703226701674
 20
307.6159955443789
 30
0.0
 11
509.7032267016741
 21
307.6159955443789
 31
0.0
  0
LINE
  5
334
330
1A
100
AcDbEntity
  8
SEIHIN
  6
CONTINUOUS
 62
     3
 48
16.0
100
AcDbLine
 10
503.1173267016741
 20
307.6159955443789
 30
0.0
 11
503.1173267016741
 21
323.2018955443789
 31
0.0
  0
LINE
  5
337
330
1A
100
AcDbEntity
  8
SEIHIN
  6
CONTINUOUS
 62
     3
 48
16.0
100
AcDbLine
 10
509.7032267016741
 20
307.6158955443788
 30
0.0
 11
509.7032267016742
 21
316.6159955443788
 31
0.0
  0
LINE
  5
338
330
1A
100
AcDbEntity
  8
SEIHIN
  6
CONTINUOUS
 62
     3
 48
16.0
100
AcDbLine
 10
520.7033267016742
 20
318.6159955443788
 30
0.0
 11
511.7032267016742
 21
318.6159955443788
 31
0.0
  0
LINE
  5
33F
330
1A
100
AcDbEntity
  8
SEIHIN
  6
CONTINUOUS
 62
     3
 48
16.0
100
AcDbLine
 10
535.7033267016742
 20
318.6159955443788
 30
0.0
 11
531.7033267016742
 21
317.6159955443787
 31
0.0
  0
LINE
  5
340
330
1A
100
AcDbEntity
  8
SEIHIN
  6
CONTINUOUS
 62
     3
 48
16.0
100
AcDbLine
 10
520.7033267016742
 20
399.6299955443788
 30
0.0
 11
430.6892289235483
 21
399.6300955443765
 31
0.0
  0
LINE
  5
343
330
1A
100
AcDbEntity
  8
SEIHIN
  6
CONTINUOUS
 62
     3
 48
16.0
100
AcDbLine
 10
535.7033267016742
 20
400.7358955443789
 30
0.0
 11
520.7033267016742
 21
400.7357955443787
 31
0.0
  0
LINE
  5
344
330
1A
100
AcDbEntity
  8
SEIHIN
  6
CONTINUOUS
 62
     3
 48
16.0
100
AcDbLine
 10
535.7033267016742
 20
397.2159955443787
 30
0.0
 11
520.7033267016742
 21
397.2159955443787
 31
0.0
  0
LINE
  5
345
330
1A
100
AcDbEntity
  8
SEIHIN
  6
CONTINUOUS
 62
     3
 48
16.0
100
AcDbLine
 10
520.7033267016742
 20
397.2159955443787
 30
0.0
 11
520.7033267016742
 21
406.215895544379
 31
0.0
  0
LINE
  5
346
330
1A
100
AcDbEntity
  8
SEIHIN
  6
CONTINUOUS
 62
     3
 48
16.0
100
AcDbLine
 10
535.703426701674
 20
406.2159955443787
 30
0.0
 11
531.703426701674
 21
407.2159955443789
 31
0.0
  0
LINE
  5
3C3
330
1A
100
AcDbEntity
  8
SEIHIN
  6
CONTINUOUS
100
AcDbLine
 10
363.9177530523484
 20
215.0853955443789
 30
0.0
 11
363.9177530523485
 21
171.2853755443788
 31
0.0
  0
LINE
  5
3C9
330
1A
100
AcDbEntity
  8
SEIHIN
  6
CONTINUOUS
 62
     3
 48
16.0
100
AcDbLine
 10
255.4563530523485
 20
202.9000955443788
 30
0.0
 11
260.4639530523484
 21
180.1240955443788
 31
0.0
  0
ARC
  5
3CF
330
1A
100
AcDbEntity
  8
SEIHIN
  6
CONTINUOUS
 62
     3
 48
16.0
100
AcDbCircle
 10
259.0254225086855
 20
170.4289159910042
 30
0.0
 40
9.200010254002405
100
AcDbArc
 50
5.945000362264226
 51
76.30309499361942
  0
ARC
  5
3D1
330
1A
100
AcDbEntity
  8
SEIHIN
  6
CONTINUOUS
 62
     3
 48
16.0
100
AcDbCircle
 10
269.170563560102
 20
171.4853860742891
 30
0.0
 40
0.9999905299654871
100
AcDbArc
 50
185.9460235461925
 51
269.9993979443703
  0
ARC
  5
3D7
330
1A
100
AcDbEntity
  8
SEIHIN
  6
CONTINUOUS
 62
     3
 48
16.0
100
AcDbCircle
 10
261.4406526791615
 20
180.33889592609
 30
0.0
 40
1.000040681672573
100
AcDbArc
 50
192.4033037857718
 51
256.302839696795
  0
ARC
  5
3DC
330
1A
100
AcDbEntity
  8
SEIHIN
  6
CONTINUOUS
 62
     3
 48
16.0
100
AcDbCircle
 10
257.317647524937
 20
213.0854075455569
 30
0.0
 40
2.000012001185595
100
AcDbArc
 50
40.54085539115037
 51
139.4591446088491
  0
LINE
  5
3E0
330
1A
100
AcDbEntity
  8
SEIHIN
  6
CONTINUOUS
 62
     3
 48
16.0
100
AcDbLine
 10
249.3176530523484
 20
213.3853955443788
 30
0.0
 11
249.3176530523484
 21
204.6853955443789
 31
0.0
  0
ARC
  5
3E7
330
1A
100
AcDbEntity
  8
SEIHIN
  6
CONTINUOUS
 62
     3
 48
16.0
100
AcDbCircle
 10
254.4796651720639
 20
202.6853857994738
 30
0.0
 40
1.000009744978517
100
AcDbArc
 50
12.39837649543954
 51
90.00069440177368
  0
ARC
  5
3E9
330
1A
100
AcDbEntity
  8
SEIHIN
  6
CONTINUOUS
 62
     3
 48
16.0
100
AcDbCircle
 10
250.3176530523484
 20
204.6853955443789
 30
0.0
 40
1.000000000000028
100
AcDbArc
 50
180.0000000000016
 51
270.0000000000016
  0
LINE
  5
3EB
330
1A
100
AcDbEntity
  8
SEIHIN
  6
CONTINUOUS
 62
     3
 48
16.0
100
AcDbLine
 10
250.3176530523485
 20
203.6853955443789
 30
0.0
 11
254.4796530523484
 21
203.6853955443789
 31
0.0
  0
ARC
  5
3EF
330
1A
100
AcDbEntity
  8
SEIHIN
  6
CONTINUOUS
 62
     3
 48
16.0
100
AcDbCircle
 10
250.3176530523485
 20
213.3853955443788
 30
0.0
 40
1.000000000000071
100
AcDbArc
 50
90.00000000000081
 51
180.0000000000007
  0
LINE
  5
3F0
330
1A
100
AcDbEntity
  8
SEIHIN
  6
CONTINUOUS
 62
     3
 48
16.0
100
AcDbLine
 10
250.3176530523485
 20
214.3853955443789
 30
0.0
 11
363.9177530523484
 21
214.3853955443789
 31
0.0
  0
LINE
  5
3F6
330
1A
100
AcDbEntity
  8
SEIHIN
  6
CONTINUOUS
 62
     3
 48
16.0
100
AcDbLine
 10
359.9177530523484
 20
170.4853955443788
 30
0.0
 11
269.1705530523484
 21
170.4853955443788
 31
0.0
  0
LINE
  5
3F8
330
1A
100
AcDbEntity
  8
SEIHIN
  6
CONTINUOUS
100
AcDbLine
 10
520.7032267016741
 20
215.0853955443789
 30
0.0
 11
520.7032267016741
 21
214.3853955443789
 31
0.0
  0
LINE
  5
3FA
330
1A
100
AcDbEntity
  8
SEIHIN
  6
CONTINUOUS
 62
     3
 48
16.0
100
AcDbLine
 10
363.9177530523485
 20
214.3853955443789
 30
0.0
 11
332.4375530523484
 21
214.3853955443789
 31
0.0
  0
ARC
  5
3FB
330
1A
100
AcDbEntity
  8
SEIHIN
  6
CONTINUOUS
 62
     3
 48
16.0
100
AcDbCircle
 10
330.9176585797599
 20
213.0854075455569
 30
0.0
 40
2.000012001185613
100
AcDbArc
 50
40.54085539114937
 51
139.4591446088519
  0
LINE
  5
3FE
330
1A
100
AcDbEntity
  8
SEIHIN
  6
CONTINUOUS
 62
     3
 48
16.0
100
AcDbLine
 10
337.9176530523484
 20
214.3853955443789
 30
0.0
 11
332.4375530523484
 21
214.3853955443789
 31
0.0
  0
LINE
  5
402
330
1A
100
AcDbEntity
  8
SEIHIN
  6
CONTINUOUS
 62
     3
 48
16.0
100
AcDbLine
 10
348.9176530523484
 20
215.0853955443789
 30
0.0
 11
363.9177530523485
 21
215.0853955443789
 31
0.0
  0
LINE
  5
403
330
1A
100
AcDbEntity
  8
SEIHIN
  6
CONTINUOUS
100
AcDbLine
 10
348.9176530523484
 20
215.0853955443789
 30
0.0
 11
348.9176530523484
 21
214.3853955443789
 31
0.0
  0
LINE
  5
404
330
1A
100
AcDbEntity
  8
SEIHIN
  6
CONTINUOUS
100
AcDbLine
 10
363.9177530523484
 20
203.6853955443789
 30
0.0
 11
254.4796651720639
 21
203.6853955443789
 31
0.0
  0
LINE
  5
405
330
1A
100
AcDbEntity
  8
SEIHIN
  6
CONTINUOUS
 62
     3
 48
16.0
100
AcDbLine
 10
359.9178530523484
 20
170.4853955443788
 30
0.0
 11
363.9178530523484
 21
171.2853955443788
 31
0.0
  0
LINE
  5
406
330
1A
100
AcDbEntity
  8
SEIHIN
  6
CONTINUOUS
 62
     3
 48
16.0
100
AcDbLine
 10
359.9178530523484
 20
179.6317955443788
 30
0.0
 11
363.9178530523484
 21
180.4317955443789
 31
0.0
  0
LINE
  5
408
330
1A
100
AcDbEntity
  8
SEIHIN
  6
CONTINUOUS
 62
     3
 48
16.0
100
AcDbLine
 10
359.9177530523483
 20
214.3853955443789
 30
0.0
 11
359.9177530523484
 21
170.4852955443788
 31
0.0
  0
LINE
  5
409
330
1A
100
AcDbEntity
  8
SEIHIN
  6
CONTINUOUS
100
AcDbLine
 10
359.9178530523486
 20
179.6317955443789
 30
0.0
 11
260.7334819676751
 21
179.6317955443789
 31
0.0
  0
DIMENSION
  5
417
330
1A
100
AcDbEntity
  8
SUNPOU
  6
CONTINUOUS
100
AcDbDimension
  2
*D1
 10
563.9846863881079
 20
170.4853955443788
 30
0.0
 11
558.984686388108
 21
192.4353955443789
 31
0.0
 12
-40.50550703660246
 22
-8.469028431546576
 32
0.0
 70
    32
  3
STANDARD
100
AcDbAlignedDimension
 13
535.7033267016742
 23
214.3853955443789
 33
0.0
 14
531.7033267016742
 24
170.4853955443788
 34
0.0
 50
90.0
100
AcDbRotatedDimension
1001
ACAD
1000
DSTYLE
1002
{
1070
   140
1040
6.0
1070
    74
1070
     0
1070
   172
1070
     1
1070
    73
1070
     0
1070
   272
1070
     2
1070
    77
1070
     3
1070
   173
1070
     1
1070
   147
1040
2.0
1070
    42
1040
6.0
1070
    44
1040
3.0
1070
    43
1040
14.0
1070
   271
1070
     0
1070
   178
1070
     4
1070
   177
1070
     4
1070
   176
1070
     4
1070
   141
1040
150.0
1070
     7
1000
_OPEN
1070
     6
1000
_OPEN
1070
    41
1040
7.0
1002
}
  0
DIMENSION
  5
424
330
1A
100
AcDbEntity
  8
SUNPOU
  6
CONTINUOUS
100
AcDbDimension
  2
*D2
 10
440.0108330442717
 20
146.2988850889321
 30
0.0
 11
465.903229753671
 21
151.2988850889321
 31
0.0
 12
-40.50550703660246
 22
-8.469028431546576
 32
0.0
 70
    32
  3
STANDARD
100
AcDbAlignedDimension
 13
491.7956264630704
 23
170.4853955443788
 33
0.0
 14
440.0108330442717
 24
170.4853955443788
 34
0.0
100
AcDbRotatedDimension
1001
ACAD
1000
DSTYLE
1002
{
1070
   140
1040
6.0
1070
    74
1070
     0
1070
   172
1070
     1
1070
    73
1070
     0
1070
   272
1070
     2
1070
    77
1070
     3
1070
   173
1070
     1
1070
   147
1040
2.0
1070
    42
1040
6.0
1070
    44
1040
3.0
1070
    43
1040
14.0
1070
   271
1070
     0
1070
   178
1070
     4
1070
   177
1070
     4
1070
   176
1070
     4
1070
   141
1040
150.0
1070
     7
1000
_OPEN
1070
     6
1000
_OPEN
1070
    41
1040
7.0
1002
}
  0
DIMENSION
  5
431
330
1A
100
AcDbEntity
  8
SUNPOU
  6
CONTINUOUS
100
AcDbDimension
  2
*D3
 10
421.103226701674
 20
232.4170039806729
 30
0.0
 11
465.9032267016741
 21
237.4170039806729
 31
0.0
 12
0.0
 22
-5.0
 32
0.0
 70
    32
  3
STANDARD
100
AcDbAlignedDimension
 13
510.7032267016741
 23
213.3853955443788
 33
0.0
 14
421.103226701674
 24
213.3853955443788
 34
0.0
100
AcDbRotatedDimension
1001
ACAD
1000
DSTYLE
1002
{
1070
   140
1040
6.0
1070
    74
1070
     0
1070
   172
1070
     1
1070
    73
1070
     0
1070
   272
1070
     2
1070
    77
1070
     3
1070
   173
1070
     1
1070
   147
1040
2.0
1070
    42
1040
6.0
1070
    44
1040
3.0
1070
    43
1040
14.0
1070
   271
1070
     0
1070
   178
1070
     4
1070
   177
1070
     4
1070
   176
1070
     4
1070
   141
1040
150.0
1070
     7
1000
_OPEN
1070
     6
1000
_OPEN
1070
    41
1040
7.0
1002
}
  0
DIMENSION
  5
43E
330
1A
100
AcDbEntity
  8
SUNPOU
  6
CONTINUOUS
100
AcDbDimension
  2
*D4
 10
421.103226701674
 20
248.9437792728204
 30
0.0
 11
478.4032267016741
 21
253.9437792728203
 31
0.0
 12
0.0
 22
-5.0
 32
0.0
 70
    32
  3
STANDARD
100
AcDbAlignedDimension
 13
535.7032267016741
 23
215.0852955443789
 33
0.0
 14
421.103226701674
 24
213.3853955443788
 34
0.0
100
AcDbRotatedDimension
1001
ACAD
1000
DSTYLE
1002
{
1070
   140
1040
6.0
1070
    74
1070
     0
1070
   172
1070
     1
1070
    73
1070
     0
1070
   272
1070
     2
1070
    77
1070
     3
1070
   173
1070
     1
1070
   147
1040
2.0
1070
    42
1040
6.0
1070
    44
1040
3.0
1070
    43
1040
14.0
1070
   271
1070
     0
1070
   178
1070
     4
1070
   177
1070
     4
1070
   176
1070
     4
1070
   141
1040
150.0
1070
     7
1000
_OPEN
1070
     6
1000
_OPEN
1070
    41
1040
7.0
1002
}
  0
DIMENSION
  5
44B
330
1A
100
AcDbEntity
  8
SUNPOU
  6
CONTINUOUS
100
AcDbDimension
  2
*D5
 10
582.3949494266202
 20
317.6159955443787
 30
0.0
 11
577.3949494266203
 21
362.4159955443789
 31
0.0
 70
    32
  3
STANDARD
100
AcDbAlignedDimension
 13
531.703426701674
 23
407.2159955443789
 33
0.0
 14
531.7033267016742
 24
317.6159955443787
 34
0.0
 50
90.0
100
AcDbRotatedDimension
1001
ACAD
1000
DSTYLE
1002
{
1070
   140
1040
6.0
1070
    74
1070
     0
1070
   172
1070
     1
1070
    73
1070
     0
1070
   272
1070
     2
1070
    77
1070
     3
1070
   173
1070
     1
1070
   147
1040
2.0
1070
    42
1040
6.0
1070
    44
1040
3.0
1070
    43
1040
14.0
1070
   271
1070
     0
1070
   178
1070
     4
1070
   177
1070
     4
1070
   176
1070
     4
1070
   141
1040
150.0
1070
     7
1000
_OPEN
1070
     6
1000
_OPEN
1070
    41
1040
7.0
1002
}
  0
DIMENSION
  5
46E
330
1A
100
AcDbEntity
  8
SUNPOU
  6
CONTINUOUS
100
AcDbDimension
  2
*D6
 10
602.8947337940135
 20
292.6159955443787
 30
0.0
 11
597.8947337940135
 21
349.9159955443789
 31
0.0
 70
    32
  3
STANDARD
100
AcDbAlignedDimension
 13
531.703426701674
 23
407.2159955443789
 33
0.0
 14
509.7032267016741
 24
292.6159955443787
 34
0.0
 50
90.0
100
AcDbRotatedDimension
1001
ACAD
1000
DSTYLE
1002
{
1070
   140
1040
6.0
1070
    74
1070
     0
1070
   172
1070
     1
1070
    73
1070
     0
1070
   272
1070
     2
1070
    77
1070
     3
1070
   173
1070
     1
1070
   147
1040
2.0
1070
    42
1040
6.0
1070
    44
1040
3.0
1070
    43
1040
14.0
1070
   271
1070
     0
1070
   178
1070
     4
1070
   177
1070
     4
1070
   176
1070
     4
1070
   141
1040
150.0
1070
     7
1000
_OPEN
1070
     6
1000
_OPEN
1070
    41
1040
7.0
1002
}
  0
LINE
  5
479
330
1A
100
AcDbEntity
  8
SUNPOU
  6
PHANTOM
 62
     4
 48
5.0
100
AcDbLine
 10
515.7033267016742
 20
318.6159955443788
 30
0.0
 11
515.7033267016742
 21
406.2159955443788
 31
0.0
  0
LINE
  5
47A
330
1A
100
AcDbEntity
  8
SUNPOU
  6
PHANTOM
 62
     4
 48
5.0
100
AcDbLine
 10
422.1032318774507
 20
312.6157955444428
 30
0.0
 11
509.7032267016742
 21
312.6159955444309
 31
0.0
  0
DIMENSION
  5
554
330
1A
100
AcDbEntity
  8
SUNPOU
  6
CONTINUOUS
100
AcDbDimension
  2
*D7
 10
535.7033267014673
 20
348.1600177868203
 30
0.0
 11
552.8033267014674
 21
353.1600177868203
 31
0.0
 70
    32
  1
※<>
  3
STANDARD
100
AcDbAlignedDimension
 13
515.7033267016742
 23
362.4159309147147
 33
0.0
 14
535.7033267014673
 24
362.4159049590263
 34
0.0
100
AcDbRotatedDimension
1001
ACAD
1000
DSTYLE
1002
{
1070
   140
1040
6.0
1070
    74
1070
     0
1070
   172
1070
     1
1070
    73
1070
     0
1070
   272
1070
     2
1070
    77
1070
     3
1070
   173
1070
     1
1070
   147
1040
2.0
1070
    42
1040
6.0
1070
    44
1040
3.0
1070
    43
1040
14.0
1070
   271
1070
     0
1070
   178
1070
     4
1070
   177
1070
     4
1070
   176
1070
     4
1070
   141
1040
150.0
1070
     7
1000
_OPEN
1070
     6
1000
_OPEN
1070
    41
1040
7.0
1002
}
  0
LINE
  5
590
330
1A
100
AcDbEntity
  8
SEIHIN
  6
CONTINUOUS
 62
     3
 48
16.0
100
AcDbLine
 10
490.5834348285508
 20
171.2853955443788
 30
0.0
 11
441.2230170259995
 21
171.2853955443788
 31
0.0
  0
ARC
  5
591
330
1A
100
AcDbEntity
  8
SEIHIN
  6
CONTINUOUS
 62
     3
 48
16.0
100
AcDbCircle
 10
430.8109961580111
 20
170.4289159910042
 30
0.0
 40
10.0000102540024
100
AcDbArc
 50
7.422695743459407
 51
75.2776582094555
  0
LINE
  5
592
330
1A
100
AcDbEntity
  8
SEIHIN
  6
CONTINUOUS
 62
     3
 48
16.0
100
AcDbLine
 10
427.9747014409691
 20
203.2927626276847
 30
0.0
 11
432.9910810424204
 21
180.4768304840112
 31
0.0
  0
ARC
  5
593
330
1A
100
AcDbEntity
  8
SEIHIN
  6
CONTINUOUS
 62
     3
 48
16.0
100
AcDbCircle
 10
441.2230170259995
 20
171.7853955443789
 30
0.0
 40
0.5
100
AcDbArc
 50
187.4226957434602
 51
270.0000000000065
  0
ARC
  5
594
330
1A
100
AcDbEntity
  8
SEIHIN
  6
CONTINUOUS
 62
     3
 48
16.0
100
AcDbCircle
 10
433.4794173091695
 20
180.584197567317
 30
0.0
 40
0.5
100
AcDbArc
 50
192.3999319168529
 51
255.2776582094542
  0
LINE
  5
595
330
1A
100
AcDbEntity
  8
SEIHIN
  6
CONTINUOUS
 62
     3
 48
16.0
100
AcDbLine
 10
503.8317533818398
 20
203.2927646728992
 30
0.0
 11
498.8152724478736
 21
180.4768272661021
 31
0.0
  0
ARC
  5
596
330
1A
100
AcDbEntity
  8
SEIHIN
  6
CONTINUOUS
 62
     3
 48
16.0
100
AcDbCircle
 10
500.9954140158311
 20
170.4289810143805
 30
0.0
 40
9.999960522476397
100
AcDbArc
 50
104.7227303686652
 51
172.577626717421
  0
ARC
  5
597
330
1A
100
AcDbEntity
  8
SEIHIN
  6
CONTINUOUS
 62
     3
 48
16.0
100
AcDbCircle
 10
490.5834348285508
 20
171.7853955443788
 30
0.0
 40
0.5
100
AcDbArc
 50
270.0
 51
352.577626717422
  0
ARC
  5
598
330
1A
100
AcDbEntity
  8
SEIHIN
  6
CONTINUOUS
 62
     3
 48
16.0
100
AcDbCircle
 10
498.3269366307959
 20
180.5841963946225
 30
0.0
 40
0.5
100
AcDbArc
 50
284.7227303686629
 51
347.5998281210075
  0
LINE
  5
599
330
1A
100
AcDbEntity
  8
SEIHIN
  6
CONTINUOUS
 62
     3
 48
16.0
100
AcDbLine
 10
421.9032267016741
 20
214.365191441492
 30
0.0
 11
421.9032267016741
 21
204.1853955443789
 31
0.0
  0
ARC
  5
59A
330
1A
100
AcDbEntity
  8
SEIHIN
  6
CONTINUOUS
 62
     3
 48
16.0
100
AcDbCircle
 10
427.48636517422
 20
203.1853955443789
 30
0.0
 40
0.5
100
AcDbArc
 50
12.39993191685228
 51
90.0
  0
ARC
  5
59B
330
1A
100
AcDbEntity
  8
SEIHIN
  6
CONTINUOUS
 62
     3
 48
16.0
100
AcDbCircle
 10
422.4032267016741
 20
204.1853955443789
 30
0.0
 40
0.5
100
AcDbArc
 50
180.0
 51
270.0
  0
LINE
  5
59E
330
1A
100
AcDbEntity
  8
SEIHIN
  6
CONTINUOUS
 62
     3
 48
16.0
100
AcDbLine
 10
509.9032267016741
 20
214.3651914414921
 30
0.0
 11
509.9032267016741
 21
204.1853955443789
 31
0.0
  0
ARC
  5
59F
330
1A
100
AcDbEntity
  8
SEIHIN
  6
CONTINUOUS
 62
     3
 48
16.0
100
AcDbCircle
 10
504.3200891989173
 20
203.1853955443789
 30
0.0
 40
0.5
100
AcDbArc
 50
90.0
 51
167.5998281210073
  0
ARC
  5
5A0
330
1A
100
AcDbEntity
  8
SEIHIN
  6
CONTINUOUS
 62
     3
 48
16.0
100
AcDbCircle
 10
509.4032267016741
 20
204.1853955443789
 30
0.0
 40
0.5
100
AcDbArc
 50
270.0
 51
0.0
  0
LINE
  5
5A4
330
1A
100
AcDbEntity
  8
SEIHIN
  6
CONTINUOUS
 62
     3
100
AcDbLine
 10
429.9821616714226
 20
398.3372440740342
 30
0.0
 11
441.4949288707338
 21
386.8244507032903
 31
0.0
  0
ARC
  5
5A6
330
1A
100
AcDbEntity
  8
SEIHIN
  6
CONTINUOUS
 62
     3
 48
16.0
100
AcDbCircle
 10
424.1033267016751
 20
404.2159955443787
 30
0.0
 40
2.0
100
AcDbArc
 50
90.0
 51
179.9999406875988
  0
ARC
  5
5A7
330
1A
100
AcDbEntity
  8
SEIHIN
  6
CONTINUOUS
 62
     3
 48
16.0
100
AcDbCircle
 10
430.6892267016742
 20
397.6300955443777
 30
0.0
 40
2.0
100
AcDbArc
 50
89.99993634799485
 51
180.0
  0
ARC
  5
5A8
330
1A
100
AcDbEntity
  8
SEIHIN
  6
CONTINUOUS
 62
     3
 48
16.0
100
AcDbCircle
 10
443.4949267017837
 20
384.8244955443777
 30
0.0
 40
2.0
100
AcDbArc
 50
89.99993786273321
 51
179.9999378627332
  0
ARC
  5
5A9
330
1A
100
AcDbEntity
  8
SEIHIN
  6
CONTINUOUS
 62
     3
 48
16.0
100
AcDbCircle
 10
436.1262267016741
 20
392.1929955443789
 30
0.0
 40
2.0
100
AcDbArc
 50
90.0
 51
180.0
  0
LINE
  5
5AA
330
1A
100
AcDbEntity
  8
SEIHIN
  6
CONTINUOUS
 62
     3
100
AcDbLine
 10
491.6045416288924
 20
336.7147240333038
 30
0.0
 11
502.9960151183535
 21
325.3232246481413
 31
0.0
  0
ARC
  5
5AC
330
1A
100
AcDbEntity
  8
SEIHIN
  6
CONTINUOUS
 62
     3
 48
16.0
100
AcDbCircle
 10
511.7032267016742
 20
316.6159955443788
 30
0.0
 40
2.0
100
AcDbArc
 50
90.0
 51
180.0
  0
ARC
  5
5AD
330
1A
100
AcDbEntity
  8
SEIHIN
  6
CONTINUOUS
 62
     3
 48
16.0
100
AcDbCircle
 10
505.1173267016742
 20
323.2018955443789
 30
0.0
 40
2.0
100
AcDbArc
 50
90.0
 51
180.0
  0
ARC
  5
5AE
330
1A
100
AcDbEntity
  8
SEIHIN
  6
CONTINUOUS
 62
     3
 48
16.0
100
AcDbCircle
 10
499.6802267016741
 20
328.6389955443789
 30
0.0
 40
2.0
100
AcDbArc
 50
90.0
 51
180.0
  0
ARC
  5
5AF
330
1A
100
AcDbEntity
  8
SEIHIN
  6
CONTINUOUS
 62
     3
 48
16.0
100
AcDbCircle
 10
492.3116267016742
 20
336.0075955443789
 30
0.0
 40
2.0
100
AcDbArc
 50
90.0
 51
180.0
  0
ARC
  5
5B3
330
1A
100
AcDbEntity
  8
SEIHIN
  6
CONTINUOUS
 62
     3
 48
16.0
100
AcDbCircle
 10
512.703226701674
 20
315.6159955443787
 30
0.0
 40
2.0
100
AcDbArc
 50
90.0
 51
180.0
  0
LINE
  5
5B4
330
1A
100
AcDbEntity
  8
CENTER_L
  6
CENTER
 62
     1
 48
5.0
100
AcDbLine
 10
521.1377267016741
 20
307.1813955443789
 30
0.0
 11
416.5031267016741
 21
411.8161955443789
 31
0.0
  0
TEXT
  5
5C1
330
1A
100
AcDbEntity
  8
SUNPOU
 62
     4
100
AcDbText
 10
613.7455110747279
 20
51.37875010811768
 30
0.0
 40
8.0
  1
※　のきといの差込み寸法を示す
100
AcDbText
  0
LINE
  5
7AB
330
1A
100
AcDbEntity
  8
ZUWAKU
100
AcDbLine
 10
208.6466009907799
 20
15.20000012965225
 30
0.0
 11
447.4243636717033
 21
15.20000012965225
 31
0.0
  0
LINE
  5
7AC
330
1A
100
AcDbEntity
  8
ZUWAKU
100
AcDbLine
 10
208.6466009907799
 20
15.60000012965225
 30
0.0
 11
447.4243636717033
 21
15.60000012965226
 31
0.0
  0
LINE
  5
7AD
330
1A
100
AcDbEntity
  8
ZUWAKU
100
AcDbLine
 10
208.6466009907799
 20
15.40000012965225
 30
0.0
 11
447.4243636717033
 21
15.40000012965225
 31
0.0
  0
LINE
  5
7AE
330
1A
100
AcDbEntity
  8
ZUWAKU
100
AcDbLine
 10
-0.0000002992881036
 20
30.80000012965223
 30
0.0
 11
797.3999997007117
 21
30.80000012965223
 31
0.0
  0
LINE
  5
7AF
330
1A
100
AcDbEntity
  8
ZUWAKU
100
AcDbLine
 10
-0.0000002992881036
 20
30.60000012965223
 30
0.0
 11
797.3999997007117
 21
30.60000012965223
 31
0.0
  0
LINE
  5
7B0
330
1A
100
AcDbEntity
  8
ZUWAKU
100
AcDbLine
 10
-0.0000002992881036
 20
30.40000012965222
 30
0.0
 11
797.3999997007117
 21
30.40000012965222
 31
0.0
  0
LINE
  5
7B1
330
1A
100
AcDbEntity
  8
ZUWAKU
100
AcDbLine
 10
-0.0000002992881036
 20
30.20000012965222
 30
0.0
 11
797.3999997007117
 21
30.20000012965222
 31
0.0
  0
LINE
  5
7B2
330
1A
100
AcDbEntity
  8
ZUWAKU
100
AcDbLine
 10
-0.0000002992881036
 20
30.00000012965222
 30
0.0
 11
797.3999997007117
 21
30.00000012965222
 31
0.0
  0
LWPOLYLINE
  5
7B3
330
1A
100
AcDbEntity
  8
ZUWAKU
100
AcDbPolyline
 90
        4
 70
     1
 43
0.0
 10
0.1999997007118281
 20
551.4000001296523
 10
0.1999997007118281
 20
0.2000001296522669
 10
797.3999997007117
 20
0.20000012965229
 10
797.399999700712
 20
551.4000001296523
  0
LWPOLYLINE
  5
7B4
330
1A
100
AcDbEntity
  8
ZUWAKU
100
AcDbPolyline
 90
        4
 70
     1
 43
0.0
 10
0.5999997007118055
 20
551.0000001296523
 10
0.5999997007118055
 20
0.6000001296522442
 10
796.9999997007121
 20
0.6000001296522904
 10
796.9999997007119
 20
551.0000001296523
  0
LWPOLYLINE
  5
7B5
330
1A
100
AcDbEntity
  8
ZUWAKU
100
AcDbPolyline
 90
        4
 70
     1
 43
0.0
 10
-0.0000002992881036
 20
551.6000001296522
 10
-0.0000002992881036
 20
0.0000001296522214
 10
797.599999700712
 20
0.0000001296522889
 10
797.599999700712
 20
551.6000001296523
  0
LWPOLYLINE
  5
7B6
330
1A
100
AcDbEntity
  8
ZUWAKU
100
AcDbPolyline
 90
        4
 70
     1
 43
0.0
 10
0.3999997007118736
 20
551.2000001296522
 10
0.3999997007118736
 20
0.4000001296523124
 10
797.1999997007119
 20
0.4000001296522893
 10
797.1999997007119
 20
551.2000001296522
  0
LWPOLYLINE
  5
7B7
330
1A
100
AcDbEntity
  8
ZUWAKU
100
AcDbPolyline
 90
        4
 70
     1
 43
0.0
 10
0.7999997007118509
 20
550.8000001296522
 10
0.7999997007118509
 20
0.8000001296522896
 10
796.7999997007118
 20
0.8000001296522896
 10
796.7999997007118
 20
550.8000001296522
  0
TEXT
  5
7B8
330
1A
100
AcDbEntity
  8
MOJI
100
AcDbText
 10
92.95778928888102
 20
12.74117825992698
 30
0.0
 40
6.0
  1
ライナートップ
 41
0.9
  7
ｽﾀｲﾙ1
100
AcDbText
  0
HATCH
  5
7B9
330
1A
100
AcDbEntity
  8
ZUWAKU
100
AcDbHatch
 10
0.0
 20
0.0
 30
0.0
210
0.0
220
0.0
230
1.0
  2
ANSI37
 70
     0
 71
     0
 91
        8
 92
        7
 72
     1
 73
     1
 93
       24
 10
14.50226236183175
 20
17.6448486106358
 42
-0.1989123673796348
 10
14.09221185549301
 20
18.63479810429685
 42
0.0
 10
14.09221185549301
 20
19.92500012965223
 42
-0.4142135623730912
 10
14.61721185549299
 20
20.45000012965222
 42
0.0
 10
17.5922118554929
 20
20.45000012965222
 42
0.4142135623731546
 10
18.11721185549299
 20
20.97500012965221
 42
0.0
 10
18.11721185549299
 20
22.72500012965223
 42
0.4142135623731586
 10
17.5922118554929
 20
23.25000012965222
 42
0.0
 10
14.09221185549301
 20
23.25000012965222
 42
0.4142135623730928
 10
11.29221185549306
 20
20.45000012965225
 42
0.0
 10
11.29221185549306
 20
18.63479810429698
 42
0.1989123673796619
 10
12.52236337450949
 20
15.66494962331337
 42
0.0
 10
15.43216134915417
 20
12.75515164866871
 42
-0.1989123673796613
 10
15.84221185549302
 20
11.76520215500753
 42
0.0
 10
15.84221185549302
 20
10.47500012965221
 42
-0.4142135623730911
 10
15.31721185549304
 20
9.950000129652224
 42
0.0
 10
12.34221185549313
 20
9.950000129652224
 42
0.4142135623731526
 10
11.81721185549304
 20
9.425000129652236
 42
0.0
 10
11.81721185549304
 20
7.675000129652215
 42
0.4142135623731526
 10
12.34221185549313
 20
7.150000129652227
 42
0.0
 10
15.84221185549302
 20
7.150000129652227
 42
0.4142135623731044
 10
18.64221185549308
 20
9.950000129652202
 42
0.0
 10
18.64221185549308
 20
11.76520215500747
 42
0.1989123673796604
 10
17.41206033647654
 20
14.73505063599101
 42
0.0
 97
        0
 92
        7
 72
     1
 73
     1
 93
       16
 10
23.54221185549306
 20
19.05000012965223
 42
-0.4142135623730935
 10
24.94221185549304
 20
20.45000012965222
 42
0.0
 10
26.86721185549299
 20
20.45000012965222
 42
0.4142135623731546
 10
27.39221185549308
 20
20.97500012965221
 42
0.0
 10
27.39221185549308
 20
22.72500012965223
 42
0.4142135623730951
 10
26.86721185549311
 20
23.25000012965222
 42
0.0
 10
24.94221185549292
 20
23.25000012965218
 42
0.4142135623730892
 10
20.74221185549299
 20
19.05000012965216
 42
0.0
 10
20.74221185549299
 20
11.35000012965225
 42
0.4142135623730969
 10
24.94221185549304
 20
7.150000129652227
 42
0.0
 10
26.86721185549299
 20
7.150000129652227
 42
0.4142135623731526
 10
27.39221185549308
 20
7.675000129652215
 42
0.0
 10
27.39221185549308
 20
9.425000129652236
 42
0.4142135623730891
 10
26.86721185549311
 20
9.950000129652224
 42
0.0
 10
24.94221185549304
 20
9.950000129652224
 42
-0.4142135623730928
 10
23.54221185549306
 20
11.35000012965221
 42
0.0
 97
        0
 92
        7
 72
     1
 73
     1
 93
        2
 10
24.24221185549299
 20
15.20000012965222
 42
1.0
 10
27.74221185549299
 20
15.20000012965222
 42
1.0
 97
        0
 92
        7
 72
     1
 73
     1
 93
       26
 10
37.31485833767101
 20
19.20504732321565
 42
0.0
 10
38.37649797080882
 20
22.56690616148524
 42
0.5069206636600134
 10
37.87586707161347
 20
23.25000012965222
 42
0.0
 10
36.17697769200424
 20
23.25000012965222
 42
0.3272098845218764
 10
35.67634679280888
 20
22.88309409781919
 42
0.0
 10
33.80807691817711
 20
16.9669061614853
 42
-0.3272098845219541
 10
33.30744601898163
 20
16.60000012965222
 42
0.0
 10
33.16721185549317
 20
16.60000012965222
 42
-0.4142135623731526
 10
32.64221185549308
 20
17.12500012965221
 42
0.0
 10
32.64221185549308
 20
22.72500012965223
 42
0.4142135623730951
 10
32.11721185549311
 20
23.25000012965222
 42
0.0
 10
30.36721185549299
 20
23.25000012965222
 42
0.4142135623730871
 10
29.84221185549301
 20
22.72500012965224
 42
0.0
 10
29.84221185549301
 20
7.675000129652215
 42
0.4142135623730891
 10
30.36721185549299
 20
7.150000129652227
 42
0.0
 10
32.11721185549299
 20
7.150000129652227
 42
0.4142135623731526
 10
32.64221185549308
 20
7.675000129652215
 42
0.0
 10
32.64221185549308
 20
13.27500012965223
 42
-0.4142135623731526
 10
33.16721185549317
 20
13.80000012965222
 42
0.0
 10
33.30744601898175
 20
13.80000012965222
 42
-0.3272098845218915
 10
33.80807691817711
 20
13.43309409781915
 42
0.0
 10
35.67634679280888
 20
7.516906161485298
 42
0.3272098845218902
 10
36.17697769200424
 20
7.150000129652227
 42
0.0
 10
37.87586707161347
 20
7.150000129652227
 42
0.5069206636600335
 10
38.37649797080882
 20
7.833094097819234
 42
0.0
 10
36.05010659233517
 20
15.20000012965236
 42
0.0
 97
        0
 92
        7
 72
     1
 73
     1
 93
        8
 10
43.49221185549299
 20
22.72500012965223
 42
0.4142135623731546
 10
42.9672118554929
 20
23.25000012965222
 42
0.0
 10
41.21721185549313
 20
23.25000012965222
 42
0.4142135623731507
 10
40.69221185549304
 20
22.72500012965224
 42
0.0
 10
40.69221185549304
 20
7.675000129652215
 42
0.4142135623731526
 10
41.21721185549313
 20
7.150000129652227
 42
0.0
 10
42.9672118554929
 20
7.150000129652227
 42
0.4142135623731526
 10
43.49221185549299
 20
7.675000129652215
 42
0.0
 97
        0
 92
        7
 72
     1
 73
     1
 93
       24
 10
48.39221185549309
 20
19.92500012965223
 42
-0.4142135623731546
 10
48.91721185549318
 20
20.45000012965222
 42
0.0
 10
51.89221185549309
 20
20.45000012965222
 42
0.4142135623730911
 10
52.41721185549306
 20
20.97500012965221
 42
0.0
 10
52.41721185549306
 20
22.72500012965223
 42
0.4142135623730952
 10
51.89221185549309
 20
23.25000012965222
 42
0.0
 10
48.39221185549309
 20
23.25000012965222
 42
0.4142135623731048
 10
45.59221185549302
 20
20.45000012965225
 42
0.0
 10
45.59221185549302
 20
18.63479810429698
 42
0.1989123673796613
 10
46.82236337450956
 20
15.66494962331343
 42
0.0
 10
49.73216134915424
 20
12.75515164866876
 42
-0.1989123673796402
 10
50.14221185549309
 20
11.76520215500769
 42
0.0
 10
50.14221185549309
 20
10.47500012965221
 42
-0.4142135623730911
 10
49.61721185549311
 20
9.950000129652224
 42
0.0
 10
46.64221185549308
 20
9.950000129652224
 42
0.4142135623731526
 10
46.11721185549299
 20
9.425000129652236
 42
0.0
 10
46.11721185549299
 20
7.675000129652215
 42
0.4142135623730891
 10
46.64221185549297
 20
7.150000129652227
 42
0.0
 10
50.14221185549309
 20
7.150000129652227
 42
0.4142135623730925
 10
52.94221185549304
 20
9.950000129652202
 42
0.0
 10
52.94221185549304
 20
11.76520215500747
 42
0.1989123673796675
 10
51.71206033647649
 20
14.73505063599112
 42
0.0
 10
48.80226236183194
 20
17.64484861063564
 42
-0.1989123673796652
 10
48.39221185549309
 20
18.63479810429681
 42
0.0
 97
        0
 92
        7
 72
     1
 73
     1
 93
       16
 10
57.84221185549302
 20
22.72500012965221
 42
0.414213562373103
 10
57.31721185549304
 20
23.25000012965222
 42
0.0
 10
55.56721185549304
 20
23.25000012965222
 42
0.4142135623730871
 10
55.04221185549306
 20
22.72500012965224
 42
0.0
 10
55.04221185549306
 20
9.950000129652202
 42
0.4142135623730926
 10
57.84221185549302
 20
7.150000129652227
 42
0.0
 10
61.34221185549302
 20
7.150000129652227
 42
0.4142135623731044
 10
64.14221185549308
 20
9.950000129652202
 42
0.0
 10
64.14221185549308
 20
22.72500012965223
 42
0.4142135623730951
 10
63.61721185549311
 20
23.25000012965222
 42
0.0
 10
61.86721185549299
 20
23.25000012965222
 42
0.4142135623730871
 10
61.34221185549302
 20
22.72500012965224
 42
0.0
 10
61.34221185549302
 20
11.0000001296522
 42
-0.414213562373088
 10
60.29221185549307
 20
9.950000129652224
 42
0.0
 10
58.89221185549309
 20
9.950000129652224
 42
-0.4142135623731197
 10
57.84221185549302
 20
11.0000001296522
 42
0.0
 97
        0
 92
        7
 72
     1
 73
     1
 93
        8
 10
69.04221185549307
 20
22.72500012965224
 42
0.4142135623730871
 10
68.51721185549308
 20
23.25000012965222
 42
0.0
 10
66.76721185549308
 20
23.25000012965222
 42
0.4142135623731507
 10
66.24221185549299
 20
22.72500012965224
 42
0.0
 10
66.24221185549299
 20
7.675000129652215
 42
0.4142135623730891
 10
66.76721185549297
 20
7.150000129652227
 42
0.0
 10
68.51721185549308
 20
7.150000129652227
 42
0.4142135623730891
 10
69.04221185549307
 20
7.675000129652215
 42
0.0
 97
        0
 75
     0
 76
     1
 52
0.0
 41
0.2
 77
     0
 78
     2
 53
45.0
 43
-900.9423046339671
 44
-13.19999987034771
 45
-0.4490128060534576
 46
0.4490128060534577
 79
     0
 53
135.0
 43
-900.9423046339671
 44
-13.19999987034771
 45
-0.4490128060534577
 46
-0.4490128060534576
 79
     0
 47
0.057451373970553
 98
        8
 10
16.0798546637352
 20
15.16717377553777
 10
22.40451470715106
 20
18.84406231210323
 10
25.16436758637155
 20
15.51188177572294
 10
30.91405968234903
 20
16.20129777609372
 10
41.83847171966863
 20
16.66091004363534
 10
46.89820059584144
 20
19.41857644605943
 10
56.55768567311224
 20
18.72915804474723
 10
67.82707932033464
 20
19.18877031228885
  0
LINE
  5
7BA
330
1A
100
AcDbEntity
  8
ZUWAKU
100
AcDbLine
 10
24.94221185549304
 20
23.25000012965218
 30
0.0
 11
26.86721185549299
 21
23.25000012965222
 31
0.0
  0
LINE
  5
7BB
330
1A
100
AcDbEntity
  8
ZUWAKU
100
AcDbLine
 10
26.86721185549299
 20
20.45000012965222
 30
0.0
 11
24.94221185549304
 21
20.45000012965222
 31
0.0
  0
LINE
  5
7BC
330
1A
100
AcDbEntity
  8
ZUWAKU
100
AcDbLine
 10
24.94221185549304
 20
9.950000129652224
 30
0.0
 11
26.86721185549299
 21
9.950000129652224
 31
0.0
  0
LINE
  5
7BD
330
1A
100
AcDbEntity
  8
ZUWAKU
100
AcDbLine
 10
26.86721185549299
 20
7.150000129652227
 30
0.0
 11
24.94221185549304
 21
7.150000129652227
 31
0.0
  0
CIRCLE
  5
7BE
330
1A
100
AcDbEntity
  8
ZUWAKU
100
AcDbCircle
 10
25.99221185549299
 20
15.20000012965222
 30
0.0
 40
1.75
  0
ARC
  5
7BF
330
1A
100
AcDbEntity
  8
ZUWAKU
100
AcDbCircle
 10
15.49221185549299
 20
18.63479810429692
 30
0.0
 40
1.399999999999999
100
AcDbArc
 50
180.0000000000016
 51
224.9999999999988
  0
LINE
  5
7C0
330
1A
100
AcDbEntity
  8
ZUWAKU
100
AcDbLine
 10
23.54221185549306
 20
19.05000012965222
 30
0.0
 11
23.54221185549306
 21
11.35000012965223
 31
0.0
  0
LINE
  5
7C1
330
1A
100
AcDbEntity
  8
ZUWAKU
100
AcDbLine
 10
20.74221185549299
 20
11.35000012965223
 30
0.0
 11
20.74221185549299
 21
19.05000012965218
 31
0.0
  0
ARC
  5
7C2
330
1A
100
AcDbEntity
  8
ZUWAKU
100
AcDbCircle
 10
15.49221185549299
 20
18.63479810429692
 30
0.0
 40
4.199999999999999
100
AcDbArc
 50
180.0
 51
225.0
  0
ARC
  5
7C3
330
1A
100
AcDbEntity
  8
ZUWAKU
100
AcDbCircle
 10
15.84221185549302
 20
9.950000129652224
 30
0.0
 40
2.799999999999999
100
AcDbArc
 50
270.0
 51
0.0
  0
ARC
  5
7C4
330
1A
100
AcDbEntity
  8
ZUWAKU
100
AcDbCircle
 10
24.94221185549304
 20
11.35000012965223
 30
0.0
 40
4.199999999999999
100
AcDbArc
 50
180.0
 51
270.0
  0
ARC
  5
7C5
330
1A
100
AcDbEntity
  8
ZUWAKU
100
AcDbCircle
 10
14.44221185549304
 20
11.76520215500753
 30
0.0
 40
4.199999999999999
100
AcDbArc
 50
0.0
 51
45.0
  0
LINE
  5
7C6
330
1A
100
AcDbEntity
  8
ZUWAKU
100
AcDbLine
 10
17.41206033647654
 20
14.73505063599105
 30
0.0
 11
14.50226236183186
 21
17.64484861063572
 31
0.0
  0
LINE
  5
7C7
330
1A
100
AcDbEntity
  8
ZUWAKU
100
AcDbLine
 10
15.84221185549302
 20
10.47500012965222
 30
0.0
 11
15.84221185549302
 21
11.76520215500757
 31
0.0
  0
ARC
  5
7C8
330
1A
100
AcDbEntity
  8
ZUWAKU
100
AcDbCircle
 10
15.31721185549304
 20
10.47500012965222
 30
0.0
 40
0.525
100
AcDbArc
 50
270.0
 51
0.0
  0
ARC
  5
7C9
330
1A
100
AcDbEntity
  8
ZUWAKU
100
AcDbCircle
 10
14.44221185549304
 20
11.76520215500757
 30
0.0
 40
1.399999999999999
100
AcDbArc
 50
0.0
 51
45.0
  0
LINE
  5
7CA
330
1A
100
AcDbEntity
  8
ZUWAKU
100
AcDbLine
 10
11.81721185549304
 20
7.675000129652225
 30
0.0
 11
11.81721185549304
 21
9.425000129652225
 31
0.0
  0
ARC
  5
7CB
330
1A
100
AcDbEntity
  8
ZUWAKU
100
AcDbCircle
 10
12.34221185549301
 20
7.675000129652225
 30
0.0
 40
0.525
100
AcDbArc
 50
180.0
 51
270.0
  0
ARC
  5
7CC
330
1A
100
AcDbEntity
  8
ZUWAKU
100
AcDbCircle
 10
12.34221185549301
 20
9.425000129652225
 30
0.0
 40
0.525
100
AcDbArc
 50
90.0
 51
180.0
  0
LINE
  5
7CD
330
1A
100
AcDbEntity
  8
ZUWAKU
100
AcDbLine
 10
12.34221185549301
 20
7.150000129652227
 30
0.0
 11
15.84221185549302
 21
7.150000129652227
 31
0.0
  0
LINE
  5
7CE
330
1A
100
AcDbEntity
  8
ZUWAKU
100
AcDbLine
 10
12.34221185549301
 20
9.950000129652224
 30
0.0
 11
15.31721185549304
 21
9.950000129652224
 31
0.0
  0
LINE
  5
7CF
330
1A
100
AcDbEntity
  8
ZUWAKU
100
AcDbLine
 10
12.52236337450949
 20
15.6649496233134
 30
0.0
 11
15.43216134915417
 21
12.75515164866874
 31
0.0
  0
LINE
  5
7D0
330
1A
100
AcDbEntity
  8
ZUWAKU
100
AcDbLine
 10
18.64221185549308
 20
9.950000129652224
 30
0.0
 11
18.64221185549308
 21
11.76520215500757
 31
0.0
  0
ARC
  5
7D1
330
1A
100
AcDbEntity
  8
ZUWAKU
100
AcDbCircle
 10
24.94221185549304
 20
11.35000012965223
 30
0.0
 40
1.399999999999999
100
AcDbArc
 50
180.0
 51
270.0
  0
ARC
  5
7D2
330
1A
100
AcDbEntity
  8
ZUWAKU
100
AcDbCircle
 10
17.59221185549302
 20
22.72500012965222
 30
0.0
 40
0.525
100
AcDbArc
 50
0.0
 51
90.0
  0
ARC
  5
7D3
330
1A
100
AcDbEntity
  8
ZUWAKU
100
AcDbCircle
 10
17.59221185549302
 20
20.97500012965222
 30
0.0
 40
0.525
100
AcDbArc
 50
270.0
 51
0.0
  0
LINE
  5
7D4
330
1A
100
AcDbEntity
  8
ZUWAKU
100
AcDbLine
 10
14.09221185549301
 20
23.25000012965222
 30
0.0
 11
17.59221185549302
 21
23.25000012965222
 31
0.0
  0
ARC
  5
7D5
330
1A
100
AcDbEntity
  8
ZUWAKU
100
AcDbCircle
 10
14.61721185549299
 20
19.92500012965222
 30
0.0
 40
0.525
100
AcDbArc
 50
90.0
 51
180.0
  0
LINE
  5
7D6
330
1A
100
AcDbEntity
  8
ZUWAKU
100
AcDbLine
 10
14.09221185549301
 20
19.92500012965222
 30
0.0
 11
14.09221185549301
 21
18.63479810429688
 31
0.0
  0
LINE
  5
7D7
330
1A
100
AcDbEntity
  8
ZUWAKU
100
AcDbLine
 10
17.59221185549302
 20
20.45000012965222
 30
0.0
 11
14.61721185549299
 21
20.45000012965222
 31
0.0
  0
LINE
  5
7D8
330
1A
100
AcDbEntity
  8
ZUWAKU
100
AcDbLine
 10
11.29221185549306
 20
20.45000012965222
 30
0.0
 11
11.29221185549306
 21
18.63479810429688
 31
0.0
  0
ARC
  5
7D9
330
1A
100
AcDbEntity
  8
ZUWAKU
100
AcDbCircle
 10
14.09221185549301
 20
20.45000012965222
 30
0.0
 40
2.799999999999999
100
AcDbArc
 50
90.0
 51
180.0
  0
LINE
  5
7DA
330
1A
100
AcDbEntity
  8
ZUWAKU
100
AcDbLine
 10
18.11721185549299
 20
22.72500012965222
 30
0.0
 11
18.11721185549299
 21
20.97500012965222
 31
0.0
  0
ARC
  5
7DB
330
1A
100
AcDbEntity
  8
ZUWAKU
100
AcDbCircle
 10
24.94221185549304
 20
19.05000012965222
 30
0.0
 40
1.399999999999999
100
AcDbArc
 50
90.0
 51
180.0
  0
ARC
  5
7DC
330
1A
100
AcDbEntity
  8
ZUWAKU
100
AcDbCircle
 10
24.94221185549304
 20
19.05000012965218
 30
0.0
 40
4.199999999999999
100
AcDbArc
 50
90.0
 51
180.0
  0
LINE
  5
7DD
330
1A
100
AcDbEntity
  8
ZUWAKU
100
AcDbLine
 10
79.3266292487001
 20
30.00000012965222
 30
0.0
 11
79.32662924870033
 21
0.8000001296522896
 31
0.0
  0
LINE
  5
7DE
330
1A
100
AcDbEntity
  8
ZUWAKU
100
AcDbLine
 10
79.52662924870015
 20
30.00000012965222
 30
0.0
 11
79.52662924870037
 21
0.8000001296522896
 31
0.0
  0
LINE
  5
7DF
330
1A
100
AcDbEntity
  8
ZUWAKU
100
AcDbLine
 10
79.12662924870028
 20
30.00000012965222
 30
0.0
 11
79.12662924870028
 21
0.8000001296522896
 31
0.0
  0
LINE
  5
7E0
330
1A
100
AcDbEntity
  8
ZUWAKU
100
AcDbLine
 10
64.14221185549308
 20
9.950000129652224
 30
0.0
 11
64.14221185549308
 21
22.72500012965222
 31
0.0
  0
LINE
  5
7E1
330
1A
100
AcDbEntity
  8
ZUWAKU
100
AcDbLine
 10
61.34221185549302
 20
22.72500012965222
 30
0.0
 11
61.34221185549302
 21
11.00000012965222
 31
0.0
  0
LINE
  5
7E2
330
1A
100
AcDbEntity
  8
ZUWAKU
100
AcDbLine
 10
69.04221185549307
 20
7.675000129652225
 30
0.0
 11
69.04221185549307
 21
22.72500012965222
 31
0.0
  0
LINE
  5
7E3
330
1A
100
AcDbEntity
  8
ZUWAKU
100
AcDbLine
 10
66.24221185549299
 20
22.72500012965222
 30
0.0
 11
66.24221185549299
 21
7.675000129652225
 31
0.0
  0
ARC
  5
7E4
330
1A
100
AcDbEntity
  8
ZUWAKU
100
AcDbCircle
 10
49.79221185549306
 20
18.63479810429692
 30
0.0
 40
1.399999999999999
100
AcDbArc
 50
180.0000000000016
 51
224.9999999999988
  0
ARC
  5
7E5
330
1A
100
AcDbEntity
  8
ZUWAKU
100
AcDbCircle
 10
49.79221185549306
 20
18.63479810429692
 30
0.0
 40
4.199999999999999
100
AcDbArc
 50
180.0
 51
225.0
  0
LINE
  5
7E6
330
1A
100
AcDbEntity
  8
ZUWAKU
100
AcDbLine
 10
37.31485833767101
 20
19.20504732321565
 30
0.0
 11
36.05010659233517
 21
15.20000012965224
 31
0.0
  0
LINE
  5
7E7
330
1A
100
AcDbEntity
  8
ZUWAKU
100
AcDbLine
 10
40.69221185549304
 20
22.72500012965222
 30
0.0
 11
40.69221185549304
 21
7.675000129652225
 31
0.0
  0
LINE
  5
7E8
330
1A
100
AcDbEntity
  8
ZUWAKU
100
AcDbLine
 10
43.49221185549299
 20
7.675000129652225
 30
0.0
 11
43.49221185549299
 21
22.72500012965222
 31
0.0
  0
LINE
  5
7E9
330
1A
100
AcDbEntity
  8
ZUWAKU
100
AcDbLine
 10
55.04221185549306
 20
22.72500012965222
 30
0.0
 11
55.04221185549306
 21
9.950000129652224
 31
0.0
  0
LINE
  5
7EA
330
1A
100
AcDbEntity
  8
ZUWAKU
100
AcDbLine
 10
57.84221185549302
 20
11.00000012965222
 30
0.0
 11
57.84221185549302
 21
22.72500012965222
 31
0.0
  0
LINE
  5
7EB
330
1A
100
AcDbEntity
  8
ZUWAKU
100
AcDbLine
 10
32.64221185549308
 20
17.12500012965223
 30
0.0
 11
32.64221185549308
 21
22.72500012965222
 31
0.0
  0
LINE
  5
7EC
330
1A
100
AcDbEntity
  8
ZUWAKU
100
AcDbLine
 10
29.84221185549301
 20
22.72500012965222
 30
0.0
 11
29.84221185549301
 21
7.675000129652225
 31
0.0
  0
LINE
  5
7ED
330
1A
100
AcDbEntity
  8
ZUWAKU
100
AcDbLine
 10
35.67634679280888
 20
22.88309409781919
 30
0.0
 11
33.80807691817711
 21
16.96690616148525
 31
0.0
  0
LINE
  5
7EE
330
1A
100
AcDbEntity
  8
ZUWAKU
100
AcDbLine
 10
60.29221185549307
 20
9.950000129652224
 30
0.0
 11
58.89221185549309
 21
9.950000129652224
 31
0.0
  0
LINE
  5
7EF
330
1A
100
AcDbEntity
  8
ZUWAKU
100
AcDbLine
 10
57.84221185549302
 20
7.150000129652227
 30
0.0
 11
61.34221185549302
 21
7.150000129652227
 31
0.0
  0
LINE
  5
7F0
330
1A
100
AcDbEntity
  8
ZUWAKU
100
AcDbLine
 10
41.21721185549302
 20
7.150000129652227
 30
0.0
 11
42.96721185549301
 21
7.150000129652227
 31
0.0
  0
LINE
  5
7F1
330
1A
100
AcDbEntity
  8
ZUWAKU
100
AcDbLine
 10
35.67634679280888
 20
7.516906161485252
 30
0.0
 11
33.80807691817711
 21
13.43309409781919
 31
0.0
  0
ARC
  5
7F2
330
1A
100
AcDbEntity
  8
ZUWAKU
100
AcDbCircle
 10
33.30744601898175
 20
17.12500012965223
 30
0.0
 40
0.525
100
AcDbArc
 50
270.0
 51
342.4744316262769
  0
LINE
  5
7F3
330
1A
100
AcDbEntity
  8
ZUWAKU
100
AcDbLine
 10
33.30744601898175
 20
16.60000012965222
 30
0.0
 11
33.16721185549306
 21
16.60000012965222
 31
0.0
  0
LINE
  5
7F4
330
1A
100
AcDbEntity
  8
ZUWAKU
100
AcDbLine
 10
33.16721185549306
 20
13.80000012965222
 30
0.0
 11
33.30744601898175
 21
13.80000012965222
 31
0.0
  0
ARC
  5
7F5
330
1A
100
AcDbEntity
  8
ZUWAKU
100
AcDbCircle
 10
33.16721185549306
 20
17.12500012965223
 30
0.0
 40
0.525
100
AcDbArc
 50
180.0
 51
270.0
  0
LINE
  5
7F6
330
1A
100
AcDbEntity
  8
ZUWAKU
100
AcDbLine
 10
30.36721185549299
 20
7.150000129652227
 30
0.0
 11
32.11721185549299
 21
7.150000129652227
 31
0.0
  0
ARC
  5
7F7
330
1A
100
AcDbEntity
  8
ZUWAKU
100
AcDbCircle
 10
32.11721185549299
 20
7.675000129652225
 30
0.0
 40
0.525
100
AcDbArc
 50
270.0
 51
0.0
  0
LINE
  5
7F8
330
1A
100
AcDbEntity
  8
ZUWAKU
100
AcDbLine
 10
32.64221185549308
 20
7.675000129652225
 30
0.0
 11
32.64221185549308
 21
13.27500012965222
 31
0.0
  0
LINE
  5
7F9
330
1A
100
AcDbEntity
  8
ZUWAKU
100
AcDbLine
 10
27.39221185549308
 20
9.425000129652225
 30
0.0
 11
27.39221185549308
 21
7.675000129652225
 31
0.0
  0
ARC
  5
7FA
330
1A
100
AcDbEntity
  8
ZUWAKU
100
AcDbCircle
 10
26.86721185549299
 20
7.675000129652225
 30
0.0
 40
0.525
100
AcDbArc
 50
270.0
 51
0.0
  0
ARC
  5
7FB
330
1A
100
AcDbEntity
  8
ZUWAKU
100
AcDbCircle
 10
26.86721185549299
 20
9.425000129652225
 30
0.0
 40
0.525
100
AcDbArc
 50
0.0
 51
90.0
  0
ARC
  5
7FC
330
1A
100
AcDbEntity
  8
ZUWAKU
100
AcDbCircle
 10
30.36721185549299
 20
7.675000129652225
 30
0.0
 40
0.525
100
AcDbArc
 50
180.0
 51
270.0
  0
ARC
  5
7FD
330
1A
100
AcDbEntity
  8
ZUWAKU
100
AcDbCircle
 10
33.30744601898175
 20
13.27500012965222
 30
0.0
 40
0.525
100
AcDbArc
 50
17.52556837372303
 51
90.0
  0
ARC
  5
7FE
330
1A
100
AcDbEntity
  8
ZUWAKU
100
AcDbCircle
 10
33.16721185549306
 20
13.27500012965222
 30
0.0
 40
0.525
100
AcDbArc
 50
90.0
 51
180.0
  0
ARC
  5
7FF
330
1A
100
AcDbEntity
  8
ZUWAKU
100
AcDbCircle
 10
41.21721185549302
 20
7.675000129652225
 30
0.0
 40
0.525
100
AcDbArc
 50
180.0
 51
270.0
  0
LINE
  5
800
330
1A
100
AcDbEntity
  8
ZUWAKU
100
AcDbLine
 10
36.17697769200435
 20
7.150000129652227
 30
0.0
 11
37.87586707161335
 21
7.150000129652227
 31
0.0
  0
ARC
  5
801
330
1A
100
AcDbEntity
  8
ZUWAKU
100
AcDbCircle
 10
37.87586707161335
 20
7.675000129652225
 30
0.0
 40
0.525
100
AcDbArc
 50
270.0
 51
17.52556837372303
  0
LINE
  5
802
330
1A
100
AcDbEntity
  8
ZUWAKU
100
AcDbLine
 10
38.37649797080882
 20
7.833094097819198
 30
0.0
 11
36.05010659233517
 21
15.20000012965224
 31
0.0
  0
ARC
  5
803
330
1A
100
AcDbEntity
  8
ZUWAKU
100
AcDbCircle
 10
36.17697769200435
 20
7.675000129652225
 30
0.0
 40
0.525
100
AcDbArc
 50
197.525568373723
 51
270.0
  0
ARC
  5
804
330
1A
100
AcDbEntity
  8
ZUWAKU
100
AcDbCircle
 10
57.84221185549302
 20
9.950000129652224
 30
0.0
 40
2.799999999999999
100
AcDbArc
 50
180.0
 51
270.0
  0
ARC
  5
805
330
1A
100
AcDbEntity
  8
ZUWAKU
100
AcDbCircle
 10
50.14221185549309
 20
9.950000129652224
 30
0.0
 40
2.799999999999999
100
AcDbArc
 50
270.0
 51
0.0
  0
LINE
  5
806
330
1A
100
AcDbEntity
  8
ZUWAKU
100
AcDbLine
 10
51.71206033647661
 20
14.73505063599105
 30
0.0
 11
48.80226236183182
 21
17.64484861063572
 31
0.0
  0
LINE
  5
807
330
1A
100
AcDbEntity
  8
ZUWAKU
100
AcDbLine
 10
50.14221185549309
 20
10.47500012965222
 30
0.0
 11
50.14221185549309
 21
11.76520215500757
 31
0.0
  0
ARC
  5
808
330
1A
100
AcDbEntity
  8
ZUWAKU
100
AcDbCircle
 10
48.74221185549299
 20
11.76520215500757
 30
0.0
 40
1.399999999999999
100
AcDbArc
 50
0.0
 51
45.0
  0
ARC
  5
809
330
1A
100
AcDbEntity
  8
ZUWAKU
100
AcDbCircle
 10
49.617211855493
 20
10.47500012965222
 30
0.0
 40
0.525
100
AcDbArc
 50
270.0
 51
0.0
  0
LINE
  5
80A
330
1A
100
AcDbEntity
  8
ZUWAKU
100
AcDbLine
 10
46.11721185549299
 20
7.675000129652225
 30
0.0
 11
46.11721185549299
 21
9.425000129652225
 31
0.0
  0
ARC
  5
80B
330
1A
100
AcDbEntity
  8
ZUWAKU
100
AcDbCircle
 10
46.64221185549308
 20
7.675000129652225
 30
0.0
 40
0.525
100
AcDbArc
 50
180.0
 51
270.0
  0
ARC
  5
80C
330
1A
100
AcDbEntity
  8
ZUWAKU
100
AcDbCircle
 10
42.96721185549301
 20
7.675000129652225
 30
0.0
 40
0.525
100
AcDbArc
 50
270.0
 51
0.0
  0
ARC
  5
80D
330
1A
100
AcDbEntity
  8
ZUWAKU
100
AcDbCircle
 10
46.64221185549308
 20
9.425000129652225
 30
0.0
 40
0.525
100
AcDbArc
 50
90.0
 51
180.0
  0
LINE
  5
80E
330
1A
100
AcDbEntity
  8
ZUWAKU
100
AcDbLine
 10
46.64221185549308
 20
9.950000129652224
 30
0.0
 11
49.617211855493
 21
9.950000129652224
 31
0.0
  0
LINE
  5
80F
330
1A
100
AcDbEntity
  8
ZUWAKU
100
AcDbLine
 10
46.64221185549308
 20
7.150000129652227
 30
0.0
 11
50.14221185549309
 21
7.150000129652227
 31
0.0
  0
LINE
  5
810
330
1A
100
AcDbEntity
  8
ZUWAKU
100
AcDbLine
 10
46.82236337450956
 20
15.6649496233134
 30
0.0
 11
49.73216134915424
 21
12.75515164866874
 31
0.0
  0
LINE
  5
811
330
1A
100
AcDbEntity
  8
ZUWAKU
100
AcDbLine
 10
52.94221185549304
 20
9.950000129652224
 30
0.0
 11
52.94221185549304
 21
11.76520215500757
 31
0.0
  0
ARC
  5
812
330
1A
100
AcDbEntity
  8
ZUWAKU
100
AcDbCircle
 10
48.74221185549299
 20
11.76520215500753
 30
0.0
 40
4.199999999999999
100
AcDbArc
 50
0.0
 51
45.0
  0
ARC
  5
813
330
1A
100
AcDbEntity
  8
ZUWAKU
100
AcDbCircle
 10
58.89221185549309
 20
11.00000012965222
 30
0.0
 40
1.049999999999999
100
AcDbArc
 50
180.0
 51
270.0
  0
ARC
  5
814
330
1A
100
AcDbEntity
  8
ZUWAKU
100
AcDbCircle
 10
61.34221185549302
 20
9.950000129652224
 30
0.0
 40
2.799999999999999
100
AcDbArc
 50
270.0
 51
0.0
  0
LINE
  5
815
330
1A
100
AcDbEntity
  8
ZUWAKU
100
AcDbLine
 10
66.76721185549308
 20
7.150000129652227
 30
0.0
 11
68.51721185549308
 21
7.150000129652227
 31
0.0
  0
ARC
  5
816
330
1A
100
AcDbEntity
  8
ZUWAKU
100
AcDbCircle
 10
66.76721185549308
 20
7.675000129652225
 30
0.0
 40
0.525
100
AcDbArc
 50
180.0
 51
270.0
  0
ARC
  5
817
330
1A
100
AcDbEntity
  8
ZUWAKU
100
AcDbCircle
 10
60.29221185549307
 20
11.00000012965222
 30
0.0
 40
1.049999999999999
100
AcDbArc
 50
270.0
 51
0.0
  0
ARC
  5
818
330
1A
100
AcDbEntity
  8
ZUWAKU
100
AcDbCircle
 10
68.51721185549308
 20
7.675000129652225
 30
0.0
 40
0.525
100
AcDbArc
 50
270.0
 51
0.0
  0
LINE
  5
819
330
1A
100
AcDbEntity
  8
ZUWAKU
100
AcDbLine
 10
42.96721185549301
 20
23.25000012965222
 30
0.0
 11
41.21721185549302
 21
23.25000012965222
 31
0.0
  0
ARC
  5
81A
330
1A
100
AcDbEntity
  8
ZUWAKU
100
AcDbCircle
 10
32.11721185549299
 20
22.72500012965222
 30
0.0
 40
0.525
100
AcDbArc
 50
0.0
 51
90.0
  0
LINE
  5
81B
330
1A
100
AcDbEntity
  8
ZUWAKU
100
AcDbLine
 10
32.11721185549299
 20
23.25000012965222
 30
0.0
 11
30.36721185549299
 21
23.25000012965222
 31
0.0
  0
ARC
  5
81C
330
1A
100
AcDbEntity
  8
ZUWAKU
100
AcDbCircle
 10
26.86721185549299
 20
22.72500012965222
 30
0.0
 40
0.525
100
AcDbArc
 50
0.0
 51
90.0
  0
ARC
  5
81D
330
1A
100
AcDbEntity
  8
ZUWAKU
100
AcDbCircle
 10
30.36721185549299
 20
22.72500012965222
 30
0.0
 40
0.525
100
AcDbArc
 50
90.0
 51
180.0
  0
ARC
  5
81E
330
1A
100
AcDbEntity
  8
ZUWAKU
100
AcDbCircle
 10
26.86721185549299
 20
20.97500012965222
 30
0.0
 40
0.525
100
AcDbArc
 50
270.0
 51
0.0
  0
LINE
  5
81F
330
1A
100
AcDbEntity
  8
ZUWAKU
100
AcDbLine
 10
27.39221185549308
 20
22.72500012965222
 30
0.0
 11
27.39221185549308
 21
20.97500012965222
 31
0.0
  0
ARC
  5
820
330
1A
100
AcDbEntity
  8
ZUWAKU
100
AcDbCircle
 10
41.21721185549302
 20
22.72500012965222
 30
0.0
 40
0.525
100
AcDbArc
 50
90.0
 51
180.0
  0
LINE
  5
821
330
1A
100
AcDbEntity
  8
ZUWAKU
100
AcDbLine
 10
36.17697769200435
 20
23.25000012965222
 30
0.0
 11
37.87586707161335
 21
23.25000012965222
 31
0.0
  0
ARC
  5
822
330
1A
100
AcDbEntity
  8
ZUWAKU
100
AcDbCircle
 10
37.87586707161335
 20
22.72500012965222
 30
0.0
 40
0.525
100
AcDbArc
 50
342.4744316262769
 51
90.0
  0
LINE
  5
823
330
1A
100
AcDbEntity
  8
ZUWAKU
100
AcDbLine
 10
38.37649797080882
 20
22.56690616148525
 30
0.0
 11
37.31485833767101
 21
19.20504732321565
 31
0.0
  0
ARC
  5
824
330
1A
100
AcDbEntity
  8
ZUWAKU
100
AcDbCircle
 10
36.17697769200435
 20
22.72500012965222
 30
0.0
 40
0.525
100
AcDbArc
 50
90.0
 51
162.4744316262769
  0
LINE
  5
825
330
1A
100
AcDbEntity
  8
ZUWAKU
100
AcDbLine
 10
48.39221185549309
 20
23.25000012965222
 30
0.0
 11
51.89221185549309
 21
23.25000012965222
 31
0.0
  0
LINE
  5
826
330
1A
100
AcDbEntity
  8
ZUWAKU
100
AcDbLine
 10
51.89221185549309
 20
20.45000012965222
 30
0.0
 11
48.91721185549307
 21
20.45000012965222
 31
0.0
  0
ARC
  5
827
330
1A
100
AcDbEntity
  8
ZUWAKU
100
AcDbCircle
 10
48.91721185549307
 20
19.92500012965222
 30
0.0
 40
0.525
100
AcDbArc
 50
90.0
 51
180.0
  0
LINE
  5
828
330
1A
100
AcDbEntity
  8
ZUWAKU
100
AcDbLine
 10
48.39221185549309
 20
19.92500012965222
 30
0.0
 11
48.39221185549309
 21
18.63479810429688
 31
0.0
  0
ARC
  5
829
330
1A
100
AcDbEntity
  8
ZUWAKU
100
AcDbCircle
 10
42.96721185549301
 20
22.72500012965222
 30
0.0
 40
0.525
100
AcDbArc
 50
0.0
 51
90.0
  0
LINE
  5
82A
330
1A
100
AcDbEntity
  8
ZUWAKU
100
AcDbLine
 10
45.59221185549302
 20
20.45000012965222
 30
0.0
 11
45.59221185549302
 21
18.63479810429688
 31
0.0
  0
ARC
  5
82B
330
1A
100
AcDbEntity
  8
ZUWAKU
100
AcDbCircle
 10
48.39221185549309
 20
20.45000012965222
 30
0.0
 40
2.799999999999999
100
AcDbArc
 50
90.0
 51
180.0
  0
ARC
  5
82C
330
1A
100
AcDbEntity
  8
ZUWAKU
100
AcDbCircle
 10
57.31721185549304
 20
22.72500012965222
 30
0.0
 40
0.525
100
AcDbArc
 50
0.0
 51
90.0
  0
ARC
  5
82D
330
1A
100
AcDbEntity
  8
ZUWAKU
100
AcDbCircle
 10
55.56721185549304
 20
22.72500012965222
 30
0.0
 40
0.525
100
AcDbArc
 50
90.0
 51
180.0
  0
LINE
  5
82E
330
1A
100
AcDbEntity
  8
ZUWAKU
100
AcDbLine
 10
57.31721185549304
 20
23.25000012965222
 30
0.0
 11
55.56721185549304
 21
23.25000012965222
 31
0.0
  0
ARC
  5
82F
330
1A
100
AcDbEntity
  8
ZUWAKU
100
AcDbCircle
 10
51.89221185549309
 20
22.72500012965222
 30
0.0
 40
0.525
100
AcDbArc
 50
0.0
 51
90.0
  0
ARC
  5
830
330
1A
100
AcDbEntity
  8
ZUWAKU
100
AcDbCircle
 10
51.89221185549309
 20
20.97500012965222
 30
0.0
 40
0.525
100
AcDbArc
 50
270.0
 51
0.0
  0
LINE
  5
831
330
1A
100
AcDbEntity
  8
ZUWAKU
100
AcDbLine
 10
52.41721185549306
 20
22.72500012965222
 30
0.0
 11
52.41721185549306
 21
20.97500012965222
 31
0.0
  0
LINE
  5
832
330
1A
100
AcDbEntity
  8
ZUWAKU
100
AcDbLine
 10
68.51721185549308
 20
23.25000012965222
 30
0.0
 11
66.76721185549308
 21
23.25000012965222
 31
0.0
  0
ARC
  5
833
330
1A
100
AcDbEntity
  8
ZUWAKU
100
AcDbCircle
 10
66.76721185549308
 20
22.72500012965222
 30
0.0
 40
0.525
100
AcDbArc
 50
90.0
 51
180.0
  0
ARC
  5
834
330
1A
100
AcDbEntity
  8
ZUWAKU
100
AcDbCircle
 10
63.61721185549299
 20
22.72500012965222
 30
0.0
 40
0.525
100
AcDbArc
 50
0.0
 51
90.0
  0
LINE
  5
835
330
1A
100
AcDbEntity
  8
ZUWAKU
100
AcDbLine
 10
63.61721185549299
 20
23.25000012965222
 30
0.0
 11
61.86721185549299
 21
23.25000012965222
 31
0.0
  0
ARC
  5
836
330
1A
100
AcDbEntity
  8
ZUWAKU
100
AcDbCircle
 10
61.86721185549299
 20
22.72500012965222
 30
0.0
 40
0.525
100
AcDbArc
 50
90.0
 51
180.0
  0
ARC
  5
837
330
1A
100
AcDbEntity
  8
ZUWAKU
100
AcDbCircle
 10
68.51721185549308
 20
22.72500012965222
 30
0.0
 40
0.525
100
AcDbArc
 50
0.0
 51
90.0
  0
TEXT
  5
838
330
1A
100
AcDbEntity
  8
MOJI
100
AcDbText
 10
239.8272023815629
 20
3.204921187059643
 30
0.0
 40
5.599999999999999
  1
Ｘ４０
 41
0.9
  7
ｽﾀｲﾙ1
100
AcDbText
  0
LINE
  5
839
330
1A
100
AcDbEntity
  8
ZUWAKU
100
AcDbLine
 10
208.2466009907798
 20
30.00000012965222
 30
0.0
 11
208.2466009907798
 21
0.8000001296522896
 31
0.0
  0
LINE
  5
83A
330
1A
100
AcDbEntity
  8
ZUWAKU
100
AcDbLine
 10
208.6466009907796
 20
30.00000012965222
 30
0.0
 11
208.6466009907799
 21
0.8000001296522896
 31
0.0
  0
LINE
  5
83B
330
1A
100
AcDbEntity
  8
ZUWAKU
100
AcDbLine
 10
208.4466009907796
 20
30.00000012965222
 30
0.0
 11
208.4466009907798
 21
0.8000001296522896
 31
0.0
  0
TEXT
  5
83C
330
1A
100
AcDbEntity
  8
MOJI
100
AcDbText
 10
239.8272023815629
 20
18.0049211870596
 30
0.0
 40
5.599999999999999
  1
曲り
 41
0.9
  7
ｽﾀｲﾙ1
100
AcDbText
  0
TEXT
  5
83D
330
1A
100
AcDbEntity
  8
ZUWAKU
100
AcDbText
 10
209.7240460129894
 20
9.655356668037839
 30
0.0
 40
4.0
  1
サイズ
 41
0.9
  7
ｽﾀｲﾙ1
100
AcDbText
  0
TEXT
  5
83E
330
1A
100
AcDbEntity
  8
ZUWAKU
100
AcDbText
 10
209.7240460129892
 20
24.0553566680378
 30
0.0
 40
4.0
  1
品名
 41
0.9
  7
ｽﾀｲﾙ1
100
AcDbText
  0
LINE
  5
83F
330
1A
100
AcDbEntity
  8
ZUWAKU
100
AcDbLine
 10
648.8172022109161
 20
15.20000012965225
 30
0.0
 11
697.2490102492531
 21
15.20000012965225
 31
0.0
  0
LINE
  5
840
330
1A
100
AcDbEntity
  8
ZUWAKU
100
AcDbLine
 10
648.8172022109162
 20
15.40000012965226
 30
0.0
 11
697.2490102492531
 21
15.40000012965225
 31
0.0
  0
LINE
  5
841
330
1A
100
AcDbEntity
  8
ZUWAKU
100
AcDbLine
 10
648.8172022109161
 20
15.60000012965225
 30
0.0
 11
697.2490102492531
 21
15.60000012965225
 31
0.0
  0
TEXT
  5
842
330
1A
100
AcDbEntity
  8
ZUWAKU
100
AcDbText
 10
658.2039373880142
 20
18.0049211870596
 30
0.0
 40
5.599999999999999
  1
　　．　　．　　
 41
0.9
  7
ｽﾀｲﾙ1
100
AcDbText
  0
LINE
  5
843
330
1A
100
AcDbEntity
  8
ZUWAKU
100
AcDbLine
 10
505.1991791988528
 20
15.20000012965225
 30
0.0
 11
552.5269554668243
 21
15.20000012965225
 31
0.0
  0
LINE
  5
844
330
1A
100
AcDbEntity
  8
ZUWAKU
100
AcDbLine
 10
505.1991791988528
 20
15.40000012965225
 30
0.0
 11
552.5269554668243
 21
15.40000012965225
 31
0.0
  0
LINE
  5
845
330
1A
100
AcDbEntity
  8
ZUWAKU
100
AcDbLine
 10
505.1991791988528
 20
15.60000012965225
 30
0.0
 11
552.5269554668243
 21
15.60000012965225
 31
0.0
  0
TEXT
  5
846
330
1A
100
AcDbEntity
  8
MOJI
100
AcDbText
 10
464.5946257039509
 20
11.9426178513122
 30
0.0
 40
5.599999999999999
  1
ＧＪ３２□
 41
0.9
  7
ｽﾀｲﾙ1
100
AcDbText
  0
LINE
  5
847
330
1A
100
AcDbEntity
  8
ZUWAKU
100
AcDbLine
 10
447.6243636717031
 20
30.00000012965222
 30
0.0
 11
447.6243636717033
 21
0.8000001296522896
 31
0.0
  0
LINE
  5
848
330
1A
100
AcDbEntity
  8
ZUWAKU
100
AcDbLine
 10
447.8243636717031
 20
30.00000012965222
 30
0.0
 11
447.8243636717033
 21
0.8000001296522896
 31
0.0
  0
LINE
  5
849
330
1A
100
AcDbEntity
  8
ZUWAKU
100
AcDbLine
 10
447.4243636717033
 20
30.00000012965222
 30
0.0
 11
447.4243636717033
 21
0.8000001296522896
 31
0.0
  0
TEXT
  5
84A
330
1A
100
AcDbEntity
  8
MOJI
100
AcDbText
 10
528.0409076730247
 20
18.0049211870596
 30
0.0
 40
5.599999999999999
  1
Ａ３
 41
0.9
  7
ｽﾀｲﾙ1
100
AcDbText
  0
LINE
  5
84B
330
1A
100
AcDbEntity
  8
ZUWAKU
100
AcDbLine
 10
504.9991791988527
 20
30.00000012965222
 30
0.0
 11
504.999179198853
 21
0.8000001296522896
 31
0.0
  0
LINE
  5
84C
330
1A
100
AcDbEntity
  8
ZUWAKU
100
AcDbLine
 10
505.1991791988528
 20
30.00000012965222
 30
0.0
 11
505.1991791988529
 21
0.8000001296522896
 31
0.0
  0
LINE
  5
84D
330
1A
100
AcDbEntity
  8
ZUWAKU
100
AcDbLine
 10
504.7991791988529
 20
30.00000012965222
 30
0.0
 11
504.7991791988529
 21
0.8000001296522896
 31
0.0
  0
TEXT
  5
84E
330
1A
100
AcDbEntity
  8
ZUWAKU
100
AcDbText
 10
462.693761356219
 20
2.614071040791714
 30
0.0
 40
3.0
  1
□には色品番が入ります
 41
0.9
  7
ｽﾀｲﾙ1
100
AcDbText
  0
TEXT
  5
84F
330
1A
100
AcDbEntity
  8
ZUWAKU
100
AcDbText
 10
506.6766242210626
 20
9.655356668037839
 30
0.0
 40
4.0
  1
縮尺
 41
0.9
  7
ｽﾀｲﾙ1
100
AcDbText
  0
TEXT
  5
850
330
1A
100
AcDbEntity
  8
MOJI
100
AcDbText
 10
528.0409076730247
 20
3.204921187059643
 30
0.0
 40
5.599999999999999
  1
１/２
 41
0.9
  7
ｽﾀｲﾙ1
100
AcDbText
  0
TEXT
  5
851
330
1A
100
AcDbEntity
  8
ZUWAKU
100
AcDbText
 10
449.3018086939128
 20
24.0553566680378
 30
0.0
 40
4.0
  1
品番
 41
0.9
  7
ｽﾀｲﾙ1
100
AcDbText
  0
TEXT
  5
852
330
1A
100
AcDbEntity
  8
ZUWAKU
100
AcDbText
 10
506.6766242210624
 20
24.0553566680378
 30
0.0
 40
4.0
  1
用紙
 41
0.9
  7
ｽﾀｲﾙ1
100
AcDbText
  0
LINE
  5
853
330
1A
100
AcDbEntity
  8
ZUWAKU
100
AcDbLine
 10
648.6172022109163
 20
30.00000012965222
 30
0.0
 11
648.6172022109164
 21
0.8000001296522896
 31
0.0
  0
LINE
  5
854
330
1A
100
AcDbEntity
  8
ZUWAKU
100
AcDbLine
 10
648.8172022109162
 20
30.00000012965222
 30
0.0
 11
648.8172022109165
 21
0.8000001296522896
 31
0.0
  0
LINE
  5
855
330
1A
100
AcDbEntity
  8
ZUWAKU
100
AcDbLine
 10
648.4172022109164
 20
30.00000012965222
 30
0.0
 11
648.4172022109164
 21
0.8000001296522896
 31
0.0
  0
LINE
  5
856
330
1A
100
AcDbEntity
  8
ZUWAKU
100
AcDbLine
 10
552.7269554668241
 20
30.00000012965222
 30
0.0
 11
552.7269554668244
 21
0.8000001296522896
 31
0.0
  0
LINE
  5
857
330
1A
100
AcDbEntity
  8
ZUWAKU
100
AcDbLine
 10
552.9269554668242
 20
30.00000012965222
 30
0.0
 11
552.9269554668244
 21
0.8000001296522896
 31
0.0
  0
LINE
  5
858
330
1A
100
AcDbEntity
  8
ZUWAKU
100
AcDbLine
 10
552.5269554668243
 20
30.00000012965222
 30
0.0
 11
552.5269554668243
 21
0.8000001296522896
 31
0.0
  0
TEXT
  5
859
330
1A
100
AcDbEntity
  8
ZUWAKU
100
AcDbText
 10
650.2946472331259
 20
24.0553566680378
 30
0.0
 40
4.0
  1
DATE
 41
0.9
  7
ｽﾀｲﾙ1
100
AcDbText
  0
LINE
  5
85A
330
1A
100
AcDbEntity
  8
ZUWAKU
100
AcDbLine
 10
697.2490102492531
 20
30.00000012965222
 30
0.0
 11
697.2490102492531
 21
0.8000001296522896
 31
0.0
  0
LINE
  5
85B
330
1A
100
AcDbEntity
  8
ZUWAKU
100
AcDbLine
 10
697.4490102492532
 20
30.00000012965222
 30
0.0
 11
697.4490102492532
 21
0.8000001296522896
 31
0.0
  0
LINE
  5
85C
330
1A
100
AcDbEntity
  8
ZUWAKU
100
AcDbLine
 10
697.649010249253
 20
30.00000012965222
 30
0.0
 11
697.6490102492532
 21
0.8000001296522896
 31
0.0
  0
LINE
  5
85D
330
1A
100
AcDbEntity
  8
ZUWAKU
100
AcDbLine
 10
697.849010249253
 20
30.00000012965222
 30
0.0
 11
697.8490102492533
 21
0.8000001296522896
 31
0.0
  0
TEXT
  5
85E
330
1A
100
AcDbEntity
  8
ZUWAKU
100
AcDbText
 10
708.5280838929556
 20
17.55383946533902
 30
0.0
 40
6.0
  1
積水化学工業株式会社
 41
0.9
  7
ｽﾀｲﾙ1
100
AcDbText
  0
TEXT
  5
85F
330
1A
100
AcDbEntity
  8
ZUWAKU
100
AcDbText
 10
708.5280838929556
 20
6.648840443506287
 30
0.0
 40
6.0
  1
建材事業部
 41
0.9
  7
ｽﾀｲﾙ1
100
AcDbText
  0
VIEWPORT
  5
22
330
17
100
AcDbEntity
 67
     1
  8
0
100
AcDbViewport
 10
313.6808219178082
 20
148.5
 30
0.0
 40
627.3616438356165
 41
297.0
 68
     2
 69
     1
1001
ACAD
1000
MVIEW
1002
{
1070
    16
1010
0.0
1020
0.0
1030
0.0
1010
0.0
1020
0.0
1030
1.0
1040
0.0
1040
297.0
1040
313.6808219178082
1040
148.5
1040
50.0
1040
0.0
1040
0.0
1070
     0
1070
   100
1070
     1
1070
     0
1070
     0
1070
     0
1070
     0
1070
     0
1040
0.0
1040
0.0
1040
0.0
1040
1.0
1040
1.0
1040
10.0
1040
10.0
1070
     0
1002
{
1002
}
1002
}
  0
VIEWPORT
  5
64
330
17
100
AcDbEntity
 67
     1
  8
VIEWPORT
100
AcDbViewport
 10
210.0
 20
148.5
 30
0.0
 40
420.0
 41
297.0
 68
     1
 69
     2
1001
ACAD
1000
MVIEW
1002
{
1070
    16
1010
0.0
1020
0.0
1030
0.0
1010
0.0
1020
0.0
1030
1.0
1040
0.0
1040
605.8799999999998
1040
420.0
1040
297.0
1040
50.0
1040
0.0
1040
0.0
1070
     0
1070
   100
1070
     1
1070
     0
1070
     0
1070
     0
1070
     0
1070
     0
1040
0.0
1040
0.0
1040
0.0
1040
10.0
1040
10.0
1040
0.0
1040
0.0
1070
     0
1002
{
1002
}
1002
}
  0
ENDSEC
  0
SECTION
  2
OBJECTS
  0
DICTIONARY
  5
C
330
0
100
AcDbDictionary
  3
ACAD_GROUP
350
D
  3
ACAD_LAYOUT
350
5C6
  3
ACAD_MLINESTYLE
350
E
  3
ACAD_PLOTSETTINGS
350
5C7
  3
ACAD_PLOTSTYLENAME
350
5C4
  3
ACDBHEADERROUNDTRIPXREC
350
867
  0
DICTIONARY
  5
5F5
330
1A
100
AcDbDictionary
280
     1
  3
ACAD_LAYOUTSELFREF
360
889
  0
DICTIONARY
  5
5F3
330
17
100
AcDbDictionary
280
     1
  3
ACAD_LAYOUTSELFREF
360
888
  0
DICTIONARY
  5
D
102
{ACAD_REACTORS
330
C
102
}
330
C
100
AcDbDictionary
  0
DICTIONARY
  5
5C6
102
{ACAD_REACTORS
330
C
102
}
330
C
100
AcDbDictionary
  0
DICTIONARY
  5
E
102
{ACAD_REACTORS
330
C
102
}
330
C
100
AcDbDictionary
  3
STANDARD
350
13
  0
DICTIONARY
  5
5C7
102
{ACAD_REACTORS
330
C
102
}
330
C
100
AcDbDictionary
  0
ACDBDICTIONARYWDFLT
  5
5C4
102
{ACAD_REACTORS
330
C
102
}
330
C
100
AcDbDictionary
281
     1
  3
Normal
350
5C5
100
AcDbDictionaryWithDefault
340
5C5
1001
ACAD
1000
TREAT_AS_HARD
1070
     0
1000
TREAT_AS_HARD
1070
     0
  0
DICTIONARY
  5
867
102
{ACAD_REACTORS
330
C
102
}
330
C
100
AcDbDictionary
  3
TSTACKALIGN
350
868
  3
TSTACKSIZE
350
869
  3
HYPERLINKBASE
350
86A
  3
STYLESHEET
350
86B
  3
LAYOUTDICT
350
86C
  3
PLOTSETDICT
350
86D
  3
PLOTSTYLNAMDICT
350
86E
  3
LWETCUNION
350
86F
  3
INSUNITS
350
870
  3
CEPSNTYPE
350
871
  3
FINGERPRINTGUID
350
872
  3
VERSIONGUID
350
873
  3
PSVPSCALE
350
874
  3
DIMSTYLEDATA
350
875
  3
PUCSORTHOREF
350
876
  3
PUCSORTHOVIEW
350
877
  3
PUCSBASE
350
878
  3
PUCSORGTOP
350
879
  3
PUCSORGBOTTOM
350
87A
  3
PUCSORGLEFT
350
87B
  3
PUCSORGRIGHT
350
87C
  3
PUCSORGFRONT
350
87D
  3
PUCSORGBACK
350
87E
  3
UCSORTHOREF
350
87F
  3
UCSORTHOVIEW
350
880
  3
UCSBASE
350
881
  3
UCSORGTOP
350
882
  3
UCSORGBOTTOM
350
883
  3
UCSORGLEFT
350
884
  3
UCSORGRIGHT
350
885
  3
UCSORGFRONT
350
886
  3
UCSORGBACK
350
887
  0
XRECORD
  5
889
102
{ACAD_REACTORS
330
5F5
102
}
330
5F5
100
AcDbXrecord
340
1A
  0
XRECORD
  5
888
102
{ACAD_REACTORS
330
5F3
102
}
330
5F3
100
AcDbXrecord
340
17
  0
MLINESTYLE
  5
13
102
{ACAD_REACTORS
330
E
102
}
330
E
100
AcDbMlineStyle
  2
STANDARD
 70
     0
  3

 62
     0
 51
90.0
 52
90.0
 71
     2
 49
0.5
 62
   256
  6
BYLAYER
 49
-0.5
 62
   256
  6
BYLAYER
  0
ACDBPLACEHOLDER
  5
5C5
102
{ACAD_REACTORS
330
5C4
102
}
330
5C4
100
AcDbPlaceHolder
280
     0
  0
XRECORD
  5
868
102
{ACAD_REACTORS
330
867
102
}
330
867
100
AcDbXrecord
 90
        1
  0
XRECORD
  5
869
102
{ACAD_REACTORS
330
867
102
}
330
867
100
AcDbXrecord
 90
       70
  0
XRECORD
  5
86A
102
{ACAD_REACTORS
330
867
102
}
330
867
100
AcDbXrecord
  1

  0
XRECORD
  5
86B
102
{ACAD_REACTORS
330
867
102
}
330
867
100
AcDbXrecord
  1
systemprinter.ctb
  0
XRECORD
  5
86C
102
{ACAD_REACTORS
330
867
102
}
330
867
100
AcDbXrecord
340
5C6
  0
XRECORD
  5
86D
102
{ACAD_REACTORS
330
867
102
}
330
867
100
AcDbXrecord
340
5C7
  0
XRECORD
  5
86E
102
{ACAD_REACTORS
330
867
102
}
330
867
100
AcDbXrecord
340
5C4
  0
XRECORD
  5
86F
102
{ACAD_REACTORS
330
867
102
}
330
867
100
AcDbXrecord
 90
    10781
  0
XRECORD
  5
870
102
{ACAD_REACTORS
330
867
102
}
330
867
100
AcDbXrecord
 90
        0
  0
XRECORD
  5
871
102
{ACAD_REACTORS
330
867
102
}
330
867
100
AcDbXrecord
 90
        0
  0
XRECORD
  5
872
102
{ACAD_REACTORS
330
867
102
}
330
867
100
AcDbXrecord
  1
{88F56008-9B96-4768-8AA3-637E8E287D40}
  0
XRECORD
  5
873
102
{ACAD_REACTORS
330
867
102
}
330
867
100
AcDbXrecord
  1
{CC91CE15-BF31-41FD-A239-0D699EB77BB7}
  0
XRECORD
  5
874
102
{ACAD_REACTORS
330
867
102
}
330
867
100
AcDbXrecord
 40
0.0
  0
XRECORD
  5
875
102
{ACAD_REACTORS
330
867
102
}
330
867
100
AcDbXrecord
1000
DSTYLE
1002
{
1070
   341
340
6D
1070
   343
340
6D
1070
   344
340
6D
1070
   371
 70
    -1
1070
   372
 70
    -1
1002
}
  0
XRECORD
  5
876
102
{ACAD_REACTORS
330
867
102
}
330
867
100
AcDbXrecord
340
0
  0
XRECORD
  5
877
102
{ACAD_REACTORS
330
867
102
}
330
867
100
AcDbXrecord
 70
     0
  0
XRECORD
  5
878
102
{ACAD_REACTORS
330
867
102
}
330
867
100
AcDbXrecord
340
0
  0
XRECORD
  5
879
102
{ACAD_REACTORS
330
867
102
}
330
867
100
AcDbXrecord
 10
0.0
 20
0.0
 30
0.0
  0
XRECORD
  5
87A
102
{ACAD_REACTORS
330
867
102
}
330
867
100
AcDbXrecord
 10
0.0
 20
0.0
 30
0.0
  0
XRECORD
  5
87B
102
{ACAD_REACTORS
330
867
102
}
330
867
100
AcDbXrecord
 10
0.0
 20
0.0
 30
0.0
  0
XRECORD
  5
87C
102
{ACAD_REACTORS
330
867
102
}
330
867
100
AcDbXrecord
 10
0.0
 20
0.0
 30
0.0
  0
XRECORD
  5
87D
102
{ACAD_REACTORS
330
867
102
}
330
867
100
AcDbXrecord
 10
0.0
 20
0.0
 30
0.0
  0
XRECORD
  5
87E
102
{ACAD_REACTORS
330
867
102
}
330
867
100
AcDbXrecord
 10
0.0
 20
0.0
 30
0.0
  0
XRECORD
  5
87F
102
{ACAD_REACTORS
330
867
102
}
330
867
100
AcDbXrecord
340
0
  0
XRECORD
  5
880
102
{ACAD_REACTORS
330
867
102
}
330
867
100
AcDbXrecord
 70
     0
  0
XRECORD
  5
881
102
{ACAD_REACTORS
330
867
102
}
330
867
100
AcDbXrecord
340
0
  0
XRECORD
  5
882
102
{ACAD_REACTORS
330
867
102
}
330
867
100
AcDbXrecord
 10
0.0
 20
0.0
 30
0.0
  0
XRECORD
  5
883
102
{ACAD_REACTORS
330
867
102
}
330
867
100
AcDbXrecord
 10
0.0
 20
0.0
 30
0.0
  0
XRECORD
  5
884
102
{ACAD_REACTORS
330
867
102
}
330
867
100
AcDbXrecord
 10
0.0
 20
0.0
 30
0.0
  0
XRECORD
  5
885
102
{ACAD_REACTORS
330
867
102
}
330
867
100
AcDbXrecord
 10
0.0
 20
0.0
 30
0.0
  0
XRECORD
  5
886
102
{ACAD_REACTORS
330
867
102
}
330
867
100
AcDbXrecord
 10
0.0
 20
0.0
 30
0.0
  0
XRECORD
  5
887
102
{ACAD_REACTORS
330
867
102
}
330
867
100
AcDbXrecord
 10
0.0
 20
0.0
 30
0.0
  0
ENDSEC
  0
EOF
