  0
SECTION
  2
HEADER
  9
$ACADVER
  1
AC1014
  9
$ACADMAINTVER
 70
     9
  9
$DWGCODEPAGE
  3
ANSI_932
  9
$INSBASE
 10
0.0
 20
0.0
 30
0.0
  9
$EXTMIN
 10
-0.0256328098773793
 20
-0.0181261901288963
 30
-0.0000000100021362
  9
$EXTMAX
 10
797.6000995626677
 20
551.6452344786116
 30
0.0000000100021363
  9
$LIMMIN
 10
0.0
 20
0.0
  9
$LIMMAX
 10
840.0
 20
594.0
  9
$ORTHOMODE
 70
     0
  9
$REGENMODE
 70
     1
  9
$FILLMODE
 70
     1
  9
$QTEXTMODE
 70
     0
  9
$MIRRTEXT
 70
     1
  9
$DRAGMODE
 70
     2
  9
$LTSCALE
 40
2.0
  9
$OSMODE
 70
    37
  9
$ATTMODE
 70
     1
  9
$TEXTSIZE
 40
5.0
  9
$TRACEWID
 40
1.0
  9
$TEXTSTYLE
  7
STANDARD
  9
$CLAYER
  8
SUNPOU
  9
$CELTYPE
  6
BYLAYER
  9
$CECOLOR
 62
   256
  9
$CELTSCALE
 40
1.0
  9
$DELOBJ
 70
     1
  9
$DISPSILH
 70
     0
  9
$DIMSCALE
 40
1.0
  9
$DIMASZ
 40
7.0
  9
$DIMEXO
 40
6.0
  9
$DIMDLI
 40
14.0
  9
$DIMRND
 40
0.0
  9
$DIMDLE
 40
0.0
  9
$DIMEXE
 40
3.0
  9
$DIMTP
 40
0.0
  9
$DIMTM
 40
0.0
  9
$DIMTXT
 40
6.0
  9
$DIMCEN
 40
150.0
  9
$DIMTSZ
 40
0.0
  9
$DIMTOL
 70
     0
  9
$DIMLIM
 70
     0
  9
$DIMTIH
 70
     0
  9
$DIMTOH
 70
     0
  9
$DIMSE1
 70
     0
  9
$DIMSE2
 70
     0
  9
$DIMTAD
 70
     3
  9
$DIMZIN
 70
     0
  9
$DIMBLK
  1

  9
$DIMASO
 70
     1
  9
$DIMSHO
 70
     1
  9
$DIMPOST
  1

  9
$DIMAPOST
  1

  9
$DIMALT
 70
     0
  9
$DIMALTD
 70
     2
  9
$DIMALTF
 40
25.4
  9
$DIMLFAC
 40
1.0
  9
$DIMTOFL
 70
     1
  9
$DIMTVP
 40
0.0
  9
$DIMTIX
 70
     0
  9
$DIMSOXD
 70
     0
  9
$DIMSAH
 70
     1
  9
$DIMBLK1
  1
OPEN
  9
$DIMBLK2
  1
OPEN
  9
$DIMSTYLE
  2
STANDARD
  9
$DIMCLRD
 70
   256
  9
$DIMCLRE
 70
   256
  9
$DIMCLRT
 70
   256
  9
$DIMTFAC
 40
1.0
  9
$DIMGAP
 40
2.0
  9
$DIMJUST
 70
     0
  9
$DIMSD1
 70
     0
  9
$DIMSD2
 70
     0
  9
$DIMTOLJ
 70
     1
  9
$DIMTZIN
 70
     0
  9
$DIMALTZ
 70
     0
  9
$DIMALTTZ
 70
     0
  9
$DIMFIT
 70
     5
  9
$DIMUPT
 70
     0
  9
$DIMUNIT
 70
     2
  9
$DIMDEC
 70
     0
  9
$DIMTDEC
 70
     0
  9
$DIMALTU
 70
     2
  9
$DIMALTTD
 70
     2
  9
$DIMTXSTY
  7
STANDARD
  9
$DIMAUNIT
 70
     0
  9
$LUNITS
 70
     2
  9
$LUPREC
 70
     4
  9
$SKETCHINC
 40
1.0
  9
$FILLETRAD
 40
20.0
  9
$AUNITS
 70
     0
  9
$AUPREC
 70
     0
  9
$MENU
  1
.
  9
$ELEVATION
 40
0.0
  9
$PELEVATION
 40
0.0
  9
$THICKNESS
 40
0.0
  9
$LIMCHECK
 70
     0
  9
$BLIPMODE
 70
     0
  9
$CHAMFERA
 40
20.0
  9
$CHAMFERB
 40
20.0
  9
$CHAMFERC
 40
40.0
  9
$CHAMFERD
 40
0.0
  9
$SKPOLY
 70
     0
  9
$TDCREATE
 40
2451023.646678588
  9
$TDUPDATE
 40
2454515.389142002
  9
$TDINDWG
 40
0.0635050463
  9
$TDUSRTIMER
 40
0.0635050463
  9
$USRTIMER
 70
     1
  9
$ANGBASE
 50
0.0
  9
$ANGDIR
 70
     0
  9
$PDMODE
 70
     0
  9
$PDSIZE
 40
0.0
  9
$PLINEWID
 40
0.0
  9
$COORDS
 70
     2
  9
$SPLFRAME
 70
     0
  9
$SPLINETYPE
 70
     6
  9
$SPLINESEGS
 70
     8
  9
$ATTDIA
 70
     0
  9
$ATTREQ
 70
     1
  9
$HANDLING
 70
 10241
  9
$HANDSEED
  5
3A8A
  9
$SURFTAB1
 70
     6
  9
$SURFTAB2
 70
     6
  9
$SURFTYPE
 70
     6
  9
$SURFU
 70
     6
  9
$SURFV
 70
     6
  9
$UCSNAME
  2

  9
$UCSORG
 10
0.0
 20
0.0
 30
0.0
  9
$UCSXDIR
 10
1.0
 20
0.0
 30
0.0
  9
$UCSYDIR
 10
0.0
 20
1.0
 30
0.0
  9
$PUCSNAME
  2

  9
$PUCSORG
 10
0.0
 20
0.0
 30
0.0
  9
$PUCSXDIR
 10
1.0
 20
0.0
 30
0.0
  9
$PUCSYDIR
 10
0.0
 20
1.0
 30
0.0
  9
$USERI1
 70
     0
  9
$USERI2
 70
     0
  9
$USERI3
 70
     0
  9
$USERI4
 70
     0
  9
$USERI5
 70
     0
  9
$USERR1
 40
0.0
  9
$USERR2
 40
0.0
  9
$USERR3
 40
0.0
  9
$USERR4
 40
0.0
  9
$USERR5
 40
0.0
  9
$WORLDVIEW
 70
     1
  9
$SHADEDGE
 70
     3
  9
$SHADEDIF
 70
    70
  9
$TILEMODE
 70
     1
  9
$MAXACTVP
 70
    16
  9
$PINSBASE
 10
0.0
 20
0.0
 30
0.0
  9
$PLIMCHECK
 70
     0
  9
$PEXTMIN
 10
0.0
 20
0.0
 30
0.0
  9
$PEXTMAX
 10
420.0
 20
297.0
 30
0.0
  9
$PLIMMIN
 10
0.0
 20
0.0
  9
$PLIMMAX
 10
420.0
 20
297.0
  9
$UNITMODE
 70
     0
  9
$VISRETAIN
 70
     0
  9
$PLINEGEN
 70
     0
  9
$PSLTSCALE
 70
     1
  9
$TREEDEPTH
 70
  3020
  9
$PICKSTYLE
 70
     1
  9
$CMLSTYLE
  2
STANDARD
  9
$CMLJUST
 70
     0
  9
$CMLSCALE
 40
1.0
  9
$PROXYGRAPHICS
 70
     1
  9
$MEASUREMENT
 70
     1
  0
ENDSEC
  0
SECTION
  2
CLASSES
  0
CLASS
  1
ACDBDICTIONARYWDFLT
  2
AcDbDictionaryWithDefault
  3
AutoCAD 2000
 90
        0
280
     0
281
     0
  0
CLASS
  1
ACDBPLACEHOLDER
  2
AcDbPlaceHolder
  3
AutoCAD 2000
 90
        0
280
     0
281
     0
  0
CLASS
  1
LAYOUT
  2
AcDbLayout
  3
AutoCAD 2000
 90
        0
280
     0
281
     0
  0
CLASS
  1
LONG_TRANSACTION
  2
AcDbLongTransaction
  3
AutoCAD 2000
 90
        0
280
     0
281
     0
  0
CLASS
  1
LWPOLYLINE
  2
AcDbPolyline
  3
AutoCAD 2000
 90
        0
280
     0
281
     1
  0
CLASS
  1
HATCH
  2
AcDbHatch
  3
AutoCAD 2000
 90
        0
280
     0
281
     1
  0
CLASS
  1
XRECORD
  2
AcDbXrecord
  3
AutoCAD 2000
 90
        0
280
     0
281
     0
  0
CLASS
  1
LONG_TRANSACTION
  2
AcDbLongTransaction
  3
AutoCAD 2000
 90
        0
280
     0
281
     0
  0
CLASS
  1
LWPOLYLINE
  2
AcDbPolyline
  3
AutoCAD 2000
 90
        0
280
     0
281
     1
  0
CLASS
  1
HATCH
  2
AcDbHatch
  3
AutoCAD 2000
 90
        0
280
     0
281
     1
  0
CLASS
  1
XRECORD
  2
AcDbXrecord
  3
AutoCAD 2000
 90
        0
280
     0
281
     0
  0
CLASS
  1
LONG_TRANSACTION
  2
AcDbLongTransaction
  3
AutoCAD 2000
 90
        0
280
     0
281
     0
  0
CLASS
  1
LWPOLYLINE
  2
AcDbPolyline
  3
AutoCAD 2000
 90
        0
280
     0
281
     1
  0
CLASS
  1
HATCH
  2
AcDbHatch
  3
AutoCAD 2000
 90
        0
280
     0
281
     1
  0
CLASS
  1
XRECORD
  2
AcDbXrecord
  3
AutoCAD 2000
 90
        0
280
     0
281
     0
  0
CLASS
  1
LONG_TRANSACTION
  2
AcDbLongTransaction
  3
AutoCAD 2000
 90
        0
280
     0
281
     0
  0
CLASS
  1
LWPOLYLINE
  2
AcDbPolyline
  3
AutoCAD 2000
 90
        0
280
     0
281
     1
  0
CLASS
  1
HATCH
  2
AcDbHatch
  3
AutoCAD 2000
 90
        0
280
     0
281
     1
  0
CLASS
  1
XRECORD
  2
AcDbXrecord
  3
AutoCAD 2000
 90
        0
280
     0
281
     0
  0
CLASS
  1
LONG_TRANSACTION
  2
AcDbLongTransaction
  3
AutoCAD 2000
 90
        0
280
     0
281
     0
  0
CLASS
  1
LWPOLYLINE
  2
AcDbPolyline
  3
AutoCAD 2000
 90
        0
280
     0
281
     1
  0
CLASS
  1
HATCH
  2
AcDbHatch
  3
AutoCAD 2000
 90
        0
280
     0
281
     1
  0
CLASS
  1
XRECORD
  2
AcDbXrecord
  3
AutoCAD 2000
 90
        0
280
     0
281
     0
  0
CLASS
  1
LONG_TRANSACTION
  2
AcDbLongTransaction
  3
AutoCAD 2000
 90
        0
280
     0
281
     0
  0
CLASS
  1
LWPOLYLINE
  2
AcDbPolyline
  3
AutoCAD 2000
 90
        0
280
     0
281
     1
  0
CLASS
  1
HATCH
  2
AcDbHatch
  3
AutoCAD 2000
 90
        0
280
     0
281
     1
  0
CLASS
  1
XRECORD
  2
AcDbXrecord
  3
AutoCAD 2000
 90
        0
280
     0
281
     0
  0
CLASS
  1
LONG_TRANSACTION
  2
AcDbLongTransaction
  3
AutoCAD 2000
 90
        0
280
     0
281
     0
  0
CLASS
  1
LWPOLYLINE
  2
AcDbPolyline
  3
AutoCAD 2000
 90
        0
280
     0
281
     1
  0
CLASS
  1
HATCH
  2
AcDbHatch
  3
AutoCAD 2000
 90
        0
280
     0
281
     1
  0
CLASS
  1
XRECORD
  2
AcDbXrecord
  3
AutoCAD 2000
 90
        0
280
     0
281
     0
  0
CLASS
  1
LONG_TRANSACTION
  2
AcDbLongTransaction
  3
AutoCAD 2000
 90
        0
280
     0
281
     0
  0
CLASS
  1
LWPOLYLINE
  2
AcDbPolyline
  3
AutoCAD 2000
 90
        0
280
     0
281
     1
  0
CLASS
  1
HATCH
  2
AcDbHatch
  3
AutoCAD 2000
 90
        0
280
     0
281
     1
  0
CLASS
  1
XRECORD
  2
AcDbXrecord
  3
AutoCAD 2000
 90
        0
280
     0
281
     0
  0
ENDSEC
  0
SECTION
  2
TABLES
  0
TABLE
  2
VPORT
  5
8
330
0
100
AcDbSymbolTable
 70
     2
  0
VPORT
  5
3A66
330
8
100
AcDbSymbolTableRecord
100
AcDbViewportTableRecord
  2
*ACTIVE
 70
     0
 10
0.0
 20
0.0
 11
1.0
 21
1.0
 12
421.023543538912
 22
297.7649005053131
 13
0.0
 23
0.0
 14
5.0
 24
5.0
 15
0.0
 25
0.0
 16
0.0
 26
0.0
 36
1.0
 17
0.0
 27
0.0
 37
0.0
 40
757.1803102037062
 41
1.570153061224489
 42
50.0
 43
0.0
 44
0.0
 50
0.0
 51
0.0
 71
     0
 72
   100
 73
     1
 74
     0
 75
     0
 76
     0
 77
     0
 78
     0
  0
ENDTAB
  0
TABLE
  2
LTYPE
  5
5
330
0
100
AcDbSymbolTable
 70
     2
  0
LTYPE
  5
14
330
5
100
AcDbSymbolTableRecord
100
AcDbLinetypeTableRecord
  2
BYBLOCK
 70
     0
  3

 72
    65
 73
     0
 40
0.0
  0
LTYPE
  5
15
330
5
100
AcDbSymbolTableRecord
100
AcDbLinetypeTableRecord
  2
BYLAYER
 70
     0
  3

 72
    65
 73
     0
 40
0.0
  0
LTYPE
  5
16
330
5
100
AcDbSymbolTableRecord
100
AcDbLinetypeTableRecord
  2
CONTINUOUS
 70
     0
  3
Solid line
 72
    65
 73
     0
 40
0.0
  0
LTYPE
  5
135
330
5
100
AcDbSymbolTableRecord
100
AcDbLinetypeTableRecord
  2
CENTER
 70
     0
  3
____ _ ____ _ ____ _ ____ _ ____ _ ____ _ ____ 
 72
    65
 73
     4
 40
2.0
 49
1.25
 74
     0
 49
-0.25
 74
     0
 49
0.25
 74
     0
 49
-0.25
 74
     0
  0
ENDTAB
  0
TABLE
  2
LAYER
  5
2
330
0
100
AcDbSymbolTable
 70
     8
  0
LAYER
  5
F
330
2
100
AcDbSymbolTableRecord
100
AcDbLayerTableRecord
  2
0
 70
     0
 62
     7
  6
CONTINUOUS
  0
LAYER
  5
62
330
2
100
AcDbSymbolTableRecord
100
AcDbLayerTableRecord
  2
VIEWPORT
 70
     0
 62
     7
  6
CONTINUOUS
  0
LAYER
  5
65
330
2
100
AcDbSymbolTableRecord
100
AcDbLayerTableRecord
  2
ZUWAKU
 70
     0
 62
     7
  6
CONTINUOUS
  0
LAYER
  5
1D7
330
2
100
AcDbSymbolTableRecord
100
AcDbLayerTableRecord
  2
SEIHIN
 70
     0
 62
     3
  6
CONTINUOUS
  0
LAYER
  5
1D9
330
2
100
AcDbSymbolTableRecord
100
AcDbLayerTableRecord
  2
SUNPOU
 70
     0
 62
     4
  6
CONTINUOUS
  0
LAYER
  5
1DA
330
2
100
AcDbSymbolTableRecord
100
AcDbLayerTableRecord
  2
DEFPOINTS
 70
     0
 62
     7
  6
CONTINUOUS
  0
LAYER
  5
11D9
330
2
100
AcDbSymbolTableRecord
100
AcDbLayerTableRecord
  2
MOJI
 70
     0
 62
     2
  6
CONTINUOUS
  0
LAYER
  5
3127
330
2
100
AcDbSymbolTableRecord
100
AcDbLayerTableRecord
  2
CENTER_L
 70
     0
 62
     1
  6
CENTER
  0
ENDTAB
  0
TABLE
  2
STYLE
  5
3
330
0
100
AcDbSymbolTable
 70
     2
  0
STYLE
  5
10
330
3
100
AcDbSymbolTableRecord
100
AcDbTextStyleTableRecord
  2
STANDARD
 70
     0
 40
0.0
 41
1.0
 50
0.0
 71
     0
 42
5.0
  3
TXT
  4
bigfont.shx
  0
STYLE
  5
11DA
330
3
100
AcDbSymbolTableRecord
100
AcDbTextStyleTableRecord
  2
ｽﾀｲﾙ1
 70
     0
 40
0.0
 41
1.0
 50
0.0
 71
     0
 42
2.5
  3
MS PGothic.ttf
  4

1001
ACAD
1000
MS PGothic
1071
    32818
  0
ENDTAB
  0
TABLE
  2
VIEW
  5
6
330
0
100
AcDbSymbolTable
 70
     0
  0
ENDTAB
  0
TABLE
  2
UCS
  5
7
330
0
100
AcDbSymbolTable
 70
     0
  0
ENDTAB
  0
TABLE
  2
APPID
  5
9
330
0
100
AcDbSymbolTable
 70
     1
  0
APPID
  5
11
330
9
100
AcDbSymbolTableRecord
100
AcDbRegAppTableRecord
  2
ACAD
 70
     0
  0
ENDTAB
  0
TABLE
  2
DIMSTYLE
  5
A
330
0
100
AcDbSymbolTable
 70
     1
  0
DIMSTYLE
105
1D
102
{ACAD_REACTORS
330
37F6
330
37F7
330
37F8
330
380B
330
380C
330
380D
330
38ED
102
}
330
A
100
AcDbSymbolTableRecord
100
AcDbDimStyleTableRecord
  2
STANDARD
 70
     0
  3

  4

  5

  6

  7

 40
1.0
 41
0.18
 42
0.0625
 43
0.38
 44
0.18
 45
0.0
 46
0.0
 47
0.0
 48
0.0
140
0.18
141
0.09
142
0.0
143
25.4
144
1.0
145
0.0
146
1.0
147
0.09
 71
     0
 72
     0
 73
     1
 74
     1
 75
     0
 76
     0
 77
     0
 78
     0
170
     0
171
     2
172
     0
173
     0
174
     0
175
     0
176
     0
177
     0
178
     0
270
     2
271
     4
272
     4
273
     2
274
     2
340
10
275
     0
280
     0
281
     0
282
     0
283
     1
284
     0
285
     0
286
     0
287
     3
288
     0
  0
ENDTAB
  0
TABLE
  2
BLOCK_RECORD
  5
1
330
0
100
AcDbSymbolTable
 70
     8
  0
BLOCK_RECORD
  5
1A
102
{ACAD_XDICTIONARY
360
8E1
102
}
330
1
100
AcDbSymbolTableRecord
100
AcDbBlockTableRecord
  2
*MODEL_SPACE
  0
BLOCK_RECORD
  5
17
102
{ACAD_XDICTIONARY
360
8DF
102
}
330
1
100
AcDbSymbolTableRecord
100
AcDbBlockTableRecord
  2
*PAPER_SPACE
  0
BLOCK_RECORD
  5
6D
330
1
100
AcDbSymbolTableRecord
100
AcDbBlockTableRecord
  2
_OPEN
  0
BLOCK_RECORD
  5
39CD
330
1
100
AcDbSymbolTableRecord
100
AcDbBlockTableRecord
  2
*D1
  0
BLOCK_RECORD
  5
39D9
330
1
100
AcDbSymbolTableRecord
100
AcDbBlockTableRecord
  2
*D2
  0
BLOCK_RECORD
  5
39E5
330
1
100
AcDbSymbolTableRecord
100
AcDbBlockTableRecord
  2
*D3
  0
BLOCK_RECORD
  5
39F1
330
1
100
AcDbSymbolTableRecord
100
AcDbBlockTableRecord
  2
*D4
  0
BLOCK_RECORD
  5
39FD
330
1
100
AcDbSymbolTableRecord
100
AcDbBlockTableRecord
  2
*D5
  0
BLOCK_RECORD
  5
3A09
330
1
100
AcDbSymbolTableRecord
100
AcDbBlockTableRecord
  2
*D6
  0
BLOCK_RECORD
  5
3A15
330
1
100
AcDbSymbolTableRecord
100
AcDbBlockTableRecord
  2
*D7
  0
ENDTAB
  0
ENDSEC
  0
SECTION
  2
BLOCKS
  0
BLOCK
  5
1B
330
1A
100
AcDbEntity
  8
0
100
AcDbBlockBegin
  2
*MODEL_SPACE
 70
     0
 10
0.0
 20
0.0
 30
0.0
  3
*MODEL_SPACE
  1

  0
ENDBLK
  5
1C
330
1A
100
AcDbEntity
  8
0
100
AcDbBlockEnd
  0
BLOCK
  5
18
330
17
100
AcDbEntity
 67
     1
  8
0
100
AcDbBlockBegin
  2
*PAPER_SPACE
 70
     0
 10
0.0
 20
0.0
 30
0.0
  3
*PAPER_SPACE
  1

  0
ENDBLK
  5
19
330
17
100
AcDbEntity
 67
     1
  8
0
100
AcDbBlockEnd
  0
BLOCK
  5
6E
330
6D
100
AcDbEntity
  8
0
100
AcDbBlockBegin
  2
_OPEN
 70
     0
 10
0.0
 20
0.0
 30
0.0
  3
_OPEN
  1

  0
LINE
  5
6F
330
6D
100
AcDbEntity
  8
0
  6
BYBLOCK
 62
     0
100
AcDbLine
 10
-1.0
 20
0.1666666666666666
 30
0.0
 11
0.0
 21
0.0
 31
0.0
  0
LINE
  5
70
330
6D
100
AcDbEntity
  8
0
  6
BYBLOCK
 62
     0
100
AcDbLine
 10
0.0
 20
0.0
 30
0.0
 11
-1.0
 21
-0.1666666666666666
 31
0.0
  0
LINE
  5
71
330
6D
100
AcDbEntity
  8
0
  6
BYBLOCK
 62
     0
100
AcDbLine
 10
0.0
 20
0.0
 30
0.0
 11
-1.0
 21
0.0
 31
0.0
  0
ENDBLK
  5
72
330
6D
100
AcDbEntity
  8
0
100
AcDbBlockEnd
  0
BLOCK
  5
39D7
330
39CD
100
AcDbEntity
  8
0
100
AcDbBlockBegin
  2
*D1
 70
     1
 10
0.0
 20
0.0
 30
0.0
  3
*D1
  1

  0
LINE
  5
3A21
330
39CD
100
AcDbEntity
  8
SUNPOU
 62
     4
100
AcDbLine
 10
424.8550170488605
 20
294.5263827501494
 30
0.0
 11
376.7456469345761
 21
294.5263827501495
 31
0.0
  0
LINE
  5
3A22
330
39CD
100
AcDbEntity
  8
SUNPOU
 62
     4
100
AcDbLine
 10
435.3615170488605
 20
326.5263827501494
 30
0.0
 11
376.7456469345761
 21
326.5263827501494
 31
0.0
  0
LINE
  5
3A23
330
39CD
100
AcDbEntity
  8
SUNPOU
 62
     4
100
AcDbLine
 10
379.7456469345761
 20
301.5263827501494
 30
0.0
 11
379.7456469345761
 21
319.5263827501495
 31
0.0
  0
INSERT
  5
3A24
330
39CD
100
AcDbEntity
  8
SUNPOU
 62
     4
100
AcDbBlockReference
  2
_OPEN
 10
379.7456469345761
 20
294.5263827501495
 30
0.0
 41
7.0
 42
7.0
 43
7.0
 50
270.0
  0
INSERT
  5
3A25
330
39CD
100
AcDbEntity
  8
SUNPOU
 62
     4
100
AcDbBlockReference
  2
_OPEN
 10
379.7456469345761
 20
326.5263827501494
 30
0.0
 41
7.0
 42
7.0
 43
7.0
 50
90.0
  0
MTEXT
  5
3A26
330
39CD
100
AcDbEntity
  8
SUNPOU
 62
     4
100
AcDbMText
 10
374.7456469345761
 20
310.5263827501495
 30
0.0
 40
6.0
 41
0.0
 71
     5
 72
     1
  1
\A1;※32
 11
0.0000000000000001
 21
1.0
 31
0.0
1001
ACAD
1000
MTEXTBEGIN
1070
    73
1070
     1
1070
    44
1040
1.0
1070
    74
1070
     0
1000
MTEXTEND
  0
POINT
  5
3A27
330
39CD
100
AcDbEntity
  8
DEFPOINTS
 62
     0
100
AcDbPoint
 10
430.8550170488605
 20
294.5263827501494
 30
0.0
  0
POINT
  5
3A28
330
39CD
100
AcDbEntity
  8
DEFPOINTS
 62
     0
100
AcDbPoint
 10
441.3615170488604
 20
326.5263827501494
 30
0.0
  0
POINT
  5
3A29
330
39CD
100
AcDbEntity
  8
DEFPOINTS
 62
     0
100
AcDbPoint
 10
379.7456469345761
 20
326.5263827501494
 30
0.0
  0
ENDBLK
  5
39D8
330
39CD
100
AcDbEntity
  8
0
100
AcDbBlockEnd
  0
BLOCK
  5
39E3
330
39D9
100
AcDbEntity
  8
0
100
AcDbBlockBegin
  2
*D2
 70
     1
 10
0.0
 20
0.0
 30
0.0
  3
*D2
  1

  0
LINE
  5
3A2A
330
39D9
100
AcDbEntity
  8
SUNPOU
 62
     4
100
AcDbLine
 10
411.7275170488611
 20
492.5275827501493
 30
0.0
 11
355.1604323536276
 21
492.5275827501494
 31
0.0
  0
LINE
  5
3A2B
330
39D9
100
AcDbEntity
  8
SUNPOU
 62
     4
100
AcDbLine
 10
424.8548170488606
 20
294.5263827501494
 30
0.0
 11
355.1604323536275
 21
294.5263827501495
 31
0.0
  0
LINE
  5
3A2C
330
39D9
100
AcDbEntity
  8
SUNPOU
 62
     4
100
AcDbLine
 10
358.1604323536276
 20
485.5275827501493
 30
0.0
 11
358.1604323536276
 21
301.5263827501494
 31
0.0
  0
INSERT
  5
3A2D
330
39D9
100
AcDbEntity
  8
SUNPOU
 62
     4
100
AcDbBlockReference
  2
_OPEN
 10
358.1604323536276
 20
492.5275827501494
 30
0.0
 41
7.0
 42
7.0
 43
7.0
 50
90.0
  0
INSERT
  5
3A2E
330
39D9
100
AcDbEntity
  8
SUNPOU
 62
     4
100
AcDbBlockReference
  2
_OPEN
 10
358.1604323536276
 20
294.5263827501495
 30
0.0
 41
7.0
 42
7.0
 43
7.0
 50
270.0
  0
MTEXT
  5
3A2F
330
39D9
100
AcDbEntity
  8
SUNPOU
 62
     4
100
AcDbMText
 10
353.1604323536275
 20
393.5269827501495
 30
0.0
 40
6.0
 41
0.0
 71
     5
 72
     1
  1
\A1;198
 11
0.0000000000000001
 21
1.0
 31
0.0
1001
ACAD
1000
MTEXTBEGIN
1070
    73
1070
     1
1070
    44
1040
1.0
1070
    74
1070
     0
1000
MTEXTEND
  0
POINT
  5
3A30
330
39D9
100
AcDbEntity
  8
DEFPOINTS
 62
     0
100
AcDbPoint
 10
417.7275170488611
 20
492.5275827501493
 30
0.0
  0
POINT
  5
3A31
330
39D9
100
AcDbEntity
  8
DEFPOINTS
 62
     0
100
AcDbPoint
 10
430.8548170488607
 20
294.5263827501494
 30
0.0
  0
POINT
  5
3A32
330
39D9
100
AcDbEntity
  8
DEFPOINTS
 62
     0
100
AcDbPoint
 10
358.1604323536276
 20
294.5263827501495
 30
0.0
  0
ENDBLK
  5
39E4
330
39D9
100
AcDbEntity
  8
0
100
AcDbBlockEnd
  0
BLOCK
  5
39EF
330
39E5
100
AcDbEntity
  8
0
100
AcDbBlockBegin
  2
*D3
 70
     1
 10
0.0
 20
0.0
 30
0.0
  3
*D3
  1

  0
LINE
  5
3A33
330
39E5
100
AcDbEntity
  8
SUNPOU
 62
     4
100
AcDbLine
 10
411.7293170488606
 20
173.6045510464499
 30
0.0
 11
377.8331762678586
 21
173.6045510464499
 31
0.0
  0
LINE
  5
3A34
330
39E5
100
AcDbEntity
  8
SUNPOU
 62
     4
100
AcDbLine
 10
449.7012170488605
 20
104.6045510464498
 30
0.0
 11
377.8331762678585
 21
104.6045510464499
 31
0.0
  0
LINE
  5
3A35
330
39E5
100
AcDbEntity
  8
SUNPOU
 62
     4
100
AcDbLine
 10
380.8331762678586
 20
166.6045510464499
 30
0.0
 11
380.8331762678585
 21
111.6045510464499
 31
0.0
  0
INSERT
  5
3A36
330
39E5
100
AcDbEntity
  8
SUNPOU
 62
     4
100
AcDbBlockReference
  2
_OPEN
 10
380.8331762678586
 20
173.6045510464499
 30
0.0
 41
7.0
 42
7.0
 43
7.0
 50
90.0
  0
INSERT
  5
3A37
330
39E5
100
AcDbEntity
  8
SUNPOU
 62
     4
100
AcDbBlockReference
  2
_OPEN
 10
380.8331762678585
 20
104.6045510464499
 30
0.0
 41
7.0
 42
7.0
 43
7.0
 50
270.0
  0
MTEXT
  5
3A38
330
39E5
100
AcDbEntity
  8
SUNPOU
 62
     4
100
AcDbMText
 10
375.8331762678585
 20
139.1045510464499
 30
0.0
 40
6.0
 41
0.0
 71
     5
 72
     1
  1
\A1;69
 11
0.0000000000000001
 21
1.0
 31
0.0
1001
ACAD
1000
MTEXTBEGIN
1070
    73
1070
     1
1070
    44
1040
1.0
1070
    74
1070
     0
1000
MTEXTEND
  0
POINT
  5
3A39
330
39E5
100
AcDbEntity
  8
DEFPOINTS
 62
     0
100
AcDbPoint
 10
417.7293170488606
 20
173.6045510464499
 30
0.0
  0
POINT
  5
3A3A
330
39E5
100
AcDbEntity
  8
DEFPOINTS
 62
     0
100
AcDbPoint
 10
455.7012170488604
 20
104.6045510464498
 30
0.0
  0
POINT
  5
3A3B
330
39E5
100
AcDbEntity
  8
DEFPOINTS
 62
     0
100
AcDbPoint
 10
380.8331762678585
 20
104.6045510464499
 30
0.0
  0
ENDBLK
  5
39F0
330
39E5
100
AcDbEntity
  8
0
100
AcDbBlockEnd
  0
BLOCK
  5
39FB
330
39F1
100
AcDbEntity
  8
0
100
AcDbBlockBegin
  2
*D4
 70
     1
 10
0.0
 20
0.0
 30
0.0
  3
*D4
  1

  0
LINE
  5
3A3C
330
39F1
100
AcDbEntity
  8
SUNPOU
 62
     4
100
AcDbLine
 10
454.7470975507117
 20
98.60455104644991
 30
0.0
 11
454.7470975507117
 21
71.09971999553
 31
0.0
  0
LINE
  5
3A3D
330
39F1
100
AcDbEntity
  8
SUNPOU
 62
     4
100
AcDbLine
 10
525.9332410852322
 20
98.60455104644991
 30
0.0
 11
525.9332410852322
 21
71.09971999553
 31
0.0
  0
LINE
  5
3A3E
330
39F1
100
AcDbEntity
  8
SUNPOU
 62
     4
100
AcDbLine
 10
461.7470975507117
 20
74.09971999553
 30
0.0
 11
518.9332410852322
 21
74.09971999553
 31
0.0
  0
INSERT
  5
3A3F
330
39F1
100
AcDbEntity
  8
SUNPOU
 62
     4
100
AcDbBlockReference
  2
_OPEN
 10
454.7470975507117
 20
74.09971999553
 30
0.0
 41
7.0
 42
7.0
 43
7.0
 50
180.0
  0
INSERT
  5
3A40
330
39F1
100
AcDbEntity
  8
SUNPOU
 62
     4
100
AcDbBlockReference
  2
_OPEN
 10
525.9332410852322
 20
74.09971999553
 30
0.0
 41
7.0
 42
7.0
 43
7.0
  0
MTEXT
  5
3A41
330
39F1
100
AcDbEntity
  8
SUNPOU
 62
     4
100
AcDbMText
 10
490.340169317972
 20
79.09971999553
 30
0.0
 40
6.0
 41
0.0
 71
     5
 72
     1
  1
\A1;71
1001
ACAD
1000
MTEXTBEGIN
1070
    73
1070
     1
1070
    44
1040
1.0
1070
    74
1070
     0
1000
MTEXTEND
  0
POINT
  5
3A42
330
39F1
100
AcDbEntity
  8
DEFPOINTS
 62
     0
100
AcDbPoint
 10
454.7470975507117
 20
104.6045510464499
 30
0.0
  0
POINT
  5
3A43
330
39F1
100
AcDbEntity
  8
DEFPOINTS
 62
     0
100
AcDbPoint
 10
525.9332410852322
 20
104.6045510464499
 30
0.0
  0
POINT
  5
3A44
330
39F1
100
AcDbEntity
  8
DEFPOINTS
 62
     0
100
AcDbPoint
 10
525.9332410852322
 20
74.09971999553
 30
0.0
  0
ENDBLK
  5
39FC
330
39F1
100
AcDbEntity
  8
0
100
AcDbBlockEnd
  0
BLOCK
  5
3A07
330
39FD
100
AcDbEntity
  8
0
100
AcDbBlockBegin
  2
*D5
 70
     1
 10
0.0
 20
0.0
 30
0.0
  3
*D5
  1

  0
LINE
  5
3A45
330
39FD
100
AcDbEntity
  8
SUNPOU
 62
     4
100
AcDbLine
 10
417.7292170488605
 20
179.6045510464499
 30
0.0
 11
417.7292170488605
 21
228.2530864786679
 31
0.0
  0
LINE
  5
3A46
330
39FD
100
AcDbEntity
  8
SUNPOU
 62
     4
100
AcDbLine
 10
606.6722106392041
 20
164.1545446361934
 30
0.0
 11
606.6722106392041
 21
228.2530864786679
 31
0.0
  0
LINE
  5
3A47
330
39FD
100
AcDbEntity
  8
SUNPOU
 62
     4
100
AcDbLine
 10
424.7292170488606
 20
225.2530864786679
 30
0.0
 11
599.6722106392041
 21
225.2530864786679
 31
0.0
  0
INSERT
  5
3A48
330
39FD
100
AcDbEntity
  8
SUNPOU
 62
     4
100
AcDbBlockReference
  2
_OPEN
 10
417.7292170488605
 20
225.2530864786679
 30
0.0
 41
7.0
 42
7.0
 43
7.0
 50
180.0
  0
INSERT
  5
3A49
330
39FD
100
AcDbEntity
  8
SUNPOU
 62
     4
100
AcDbBlockReference
  2
_OPEN
 10
606.6722106392041
 20
225.2530864786679
 30
0.0
 41
7.0
 42
7.0
 43
7.0
  0
MTEXT
  5
3A4A
330
39FD
100
AcDbEntity
  8
SUNPOU
 62
     4
100
AcDbMText
 10
512.2007138440324
 20
230.2530864786679
 30
0.0
 40
6.0
 41
0.0
 71
     5
 72
     1
  1
\A1;189
1001
ACAD
1000
MTEXTBEGIN
1070
    73
1070
     1
1070
    44
1040
1.0
1070
    74
1070
     0
1000
MTEXTEND
  0
POINT
  5
3A4B
330
39FD
100
AcDbEntity
  8
DEFPOINTS
 62
     0
100
AcDbPoint
 10
417.7292170488605
 20
173.6045510464498
 30
0.0
  0
POINT
  5
3A4C
330
39FD
100
AcDbEntity
  8
DEFPOINTS
 62
     0
100
AcDbPoint
 10
606.6722106392041
 20
158.1545446361934
 30
0.0
  0
POINT
  5
3A4D
330
39FD
100
AcDbEntity
  8
DEFPOINTS
 62
     0
100
AcDbPoint
 10
606.6722106392041
 20
225.2530864786679
 30
0.0
  0
ENDBLK
  5
3A08
330
39FD
100
AcDbEntity
  8
0
100
AcDbBlockEnd
  0
BLOCK
  5
3A13
330
3A09
100
AcDbEntity
  8
0
100
AcDbBlockBegin
  2
*D6
 70
     1
 10
0.0
 20
0.0
 30
0.0
  3
*D6
  1

  0
LINE
  5
3A4E
330
3A09
100
AcDbEntity
  8
SUNPOU
 62
     4
100
AcDbLine
 10
430.8549170488604
 20
164.1545510464498
 30
0.0
 11
430.8549170488604
 21
213.0491468524362
 31
0.0
  0
LINE
  5
3A4F
330
3A09
100
AcDbEntity
  8
SUNPOU
 62
     4
100
AcDbLine
 10
549.8254170488604
 20
164.1545510464498
 30
0.0
 11
549.8254170488604
 21
213.0491468524362
 31
0.0
  0
LINE
  5
3A50
330
3A09
100
AcDbEntity
  8
SUNPOU
 62
     4
100
AcDbLine
 10
437.8549170488604
 20
210.0491468524362
 30
0.0
 11
542.8254170488604
 21
210.0491468524362
 31
0.0
  0
INSERT
  5
3A51
330
3A09
100
AcDbEntity
  8
SUNPOU
 62
     4
100
AcDbBlockReference
  2
_OPEN
 10
430.8549170488604
 20
210.0491468524362
 30
0.0
 41
7.0
 42
7.0
 43
7.0
 50
180.0
  0
INSERT
  5
3A52
330
3A09
100
AcDbEntity
  8
SUNPOU
 62
     4
100
AcDbBlockReference
  2
_OPEN
 10
549.8254170488604
 20
210.0491468524362
 30
0.0
 41
7.0
 42
7.0
 43
7.0
  0
MTEXT
  5
3A53
330
3A09
100
AcDbEntity
  8
SUNPOU
 62
     4
100
AcDbMText
 10
490.3401670488604
 20
215.0491468524362
 30
0.0
 40
6.0
 41
0.0
 71
     5
 72
     1
  1
\A1;119
1001
ACAD
1000
MTEXTBEGIN
1070
    73
1070
     1
1070
    44
1040
1.0
1070
    74
1070
     0
1000
MTEXTEND
  0
POINT
  5
3A54
330
3A09
100
AcDbEntity
  8
DEFPOINTS
 62
     0
100
AcDbPoint
 10
430.8549170488604
 20
158.1545510464498
 30
0.0
  0
POINT
  5
3A55
330
3A09
100
AcDbEntity
  8
DEFPOINTS
 62
     0
100
AcDbPoint
 10
549.8254170488604
 20
158.1545510464498
 30
0.0
  0
POINT
  5
3A56
330
3A09
100
AcDbEntity
  8
DEFPOINTS
 62
     0
100
AcDbPoint
 10
549.8254170488604
 20
210.0491468524362
 30
0.0
  0
ENDBLK
  5
3A14
330
3A09
100
AcDbEntity
  8
0
100
AcDbBlockEnd
  0
BLOCK
  5
3A1F
330
3A15
100
AcDbEntity
  8
0
100
AcDbBlockBegin
  2
*D7
 70
     1
 10
0.0
 20
0.0
 30
0.0
  3
*D7
  1

  0
LINE
  5
3A57
330
3A15
100
AcDbEntity
  8
SUNPOU
 62
     4
100
AcDbLine
 10
610.6656344239724
 20
159.1545510464498
 30
0.0
 11
646.2404802041955
 21
159.1545510464498
 31
0.0
  0
LINE
  5
3A58
330
3A15
100
AcDbEntity
  8
SUNPOU
 62
     4
100
AcDbLine
 10
602.9184170488606
 20
104.6043510464498
 30
0.0
 11
646.2404802041955
 21
104.6043510464498
 31
0.0
  0
LINE
  5
3A59
330
3A15
100
AcDbEntity
  8
SUNPOU
 62
     4
100
AcDbLine
 10
643.2404802041956
 20
152.1545510464498
 30
0.0
 11
643.2404802041956
 21
111.6043510464498
 31
0.0
  0
INSERT
  5
3A5A
330
3A15
100
AcDbEntity
  8
SUNPOU
 62
     4
100
AcDbBlockReference
  2
_OPEN
 10
643.2404802041956
 20
159.1545510464498
 30
0.0
 41
7.0
 42
7.0
 43
7.0
 50
90.0
  0
INSERT
  5
3A5B
330
3A15
100
AcDbEntity
  8
SUNPOU
 62
     4
100
AcDbBlockReference
  2
_OPEN
 10
643.2404802041956
 20
104.6043510464498
 30
0.0
 41
7.0
 42
7.0
 43
7.0
 50
270.0
  0
MTEXT
  5
3A5C
330
3A15
100
AcDbEntity
  8
SUNPOU
 62
     4
100
AcDbMText
 10
638.2404802041955
 20
131.8794510464499
 30
0.0
 40
6.0
 41
0.0
 71
     5
 72
     1
  1
\A1;55
 11
0.0000000000000001
 21
1.0
 31
0.0
1001
ACAD
1000
MTEXTBEGIN
1070
    73
1070
     1
1070
    44
1040
1.0
1070
    74
1070
     0
1000
MTEXTEND
  0
POINT
  5
3A5D
330
3A15
100
AcDbEntity
  8
DEFPOINTS
 62
     0
100
AcDbPoint
 10
604.6656344239725
 20
159.1545510464498
 30
0.0
  0
POINT
  5
3A5E
330
3A15
100
AcDbEntity
  8
DEFPOINTS
 62
     0
100
AcDbPoint
 10
596.9184170488606
 20
104.6043510464498
 30
0.0
  0
POINT
  5
3A5F
330
3A15
100
AcDbEntity
  8
DEFPOINTS
 62
     0
100
AcDbPoint
 10
643.2404802041956
 20
104.6043510464498
 30
0.0
  0
ENDBLK
  5
3A20
330
3A15
100
AcDbEntity
  8
0
100
AcDbBlockEnd
  0
ENDSEC
  0
SECTION
  2
ENTITIES
  0
LINE
  5
1390
330
1A
100
AcDbEntity
  8
ZUWAKU
100
AcDbLine
 10
208.646601303624
 20
15.19999986828872
 30
0.0
 11
447.4243639845474
 21
15.19999986828871
 31
0.0
  0
LINE
  5
1391
330
1A
100
AcDbEntity
  8
ZUWAKU
100
AcDbLine
 10
208.646601303624
 20
15.59999986828871
 30
0.0
 11
447.4243639845474
 21
15.59999986828872
 31
0.0
  0
LINE
  5
1392
330
1A
100
AcDbEntity
  8
ZUWAKU
100
AcDbLine
 10
208.646601303624
 20
15.39999986828871
 30
0.0
 11
447.4243639845474
 21
15.39999986828871
 31
0.0
  0
LINE
  5
1393
330
1A
100
AcDbEntity
  8
ZUWAKU
100
AcDbLine
 10
0.0000000135560185
 20
30.79999986828869
 30
0.0
 11
797.4000000135559
 21
30.79999986828869
 31
0.0
  0
LINE
  5
1394
330
1A
100
AcDbEntity
  8
ZUWAKU
100
AcDbLine
 10
0.0000000135560185
 20
30.59999986828869
 30
0.0
 11
797.4000000135559
 21
30.59999986828869
 31
0.0
  0
LINE
  5
1395
330
1A
100
AcDbEntity
  8
ZUWAKU
100
AcDbLine
 10
0.0000000135560185
 20
30.39999986828869
 30
0.0
 11
797.4000000135559
 21
30.39999986828869
 31
0.0
  0
LINE
  5
1396
330
1A
100
AcDbEntity
  8
ZUWAKU
100
AcDbLine
 10
0.0000000135560185
 20
30.19999986828868
 30
0.0
 11
797.4000000135559
 21
30.19999986828868
 31
0.0
  0
LINE
  5
1397
330
1A
100
AcDbEntity
  8
ZUWAKU
100
AcDbLine
 10
0.0000000135560185
 20
29.99999986828868
 30
0.0
 11
797.4000000135559
 21
29.99999986828868
 31
0.0
  0
LWPOLYLINE
  5
1398
330
1A
100
AcDbEntity
  8
ZUWAKU
100
AcDbPolyline
 90
        4
 70
     1
 43
0.0
 10
0.2000000135559503
 20
551.3999998682887
 10
0.2000000135559503
 20
0.1999998682887281
 10
797.4000000135559
 20
0.1999998682887511
 10
797.4000000135561
 20
551.3999998682887
  0
LWPOLYLINE
  5
1399
330
1A
100
AcDbEntity
  8
ZUWAKU
100
AcDbPolyline
 90
        4
 70
     1
 43
0.0
 10
0.6000000135559276
 20
550.9999998682888
 10
0.6000000135559276
 20
0.5999998682887054
 10
797.0000000135562
 20
0.5999998682887516
 10
797.000000013556
 20
550.9999998682888
  0
LWPOLYLINE
  5
139A
330
1A
100
AcDbEntity
  8
ZUWAKU
100
AcDbPolyline
 90
        4
 70
     1
 43
0.0
 10
0.0000000135560185
 20
551.5999998682887
 10
0.0000000135560185
 20
-0.0000001317113174
 10
797.6000000135561
 20
-0.0000001317112499
 10
797.6000000135561
 20
551.5999998682888
  0
LWPOLYLINE
  5
139B
330
1A
100
AcDbEntity
  8
ZUWAKU
100
AcDbPolyline
 90
        4
 70
     1
 43
0.0
 10
0.4000000135559958
 20
551.1999998682887
 10
0.4000000135559958
 20
0.3999998682887735
 10
797.200000013556
 20
0.3999998682887504
 10
797.200000013556
 20
551.1999998682887
  0
LWPOLYLINE
  5
139C
330
1A
100
AcDbEntity
  8
ZUWAKU
100
AcDbPolyline
 90
        4
 70
     1
 43
0.0
 10
0.800000013555973
 20
550.7999998682887
 10
0.800000013555973
 20
0.7999998682887508
 10
796.8000000135559
 20
0.7999998682887508
 10
796.8000000135559
 20
550.7999998682887
  0
TEXT
  5
139D
330
1A
100
AcDbEntity
  8
MOJI
100
AcDbText
 10
92.95778960172516
 20
12.74117799856344
 30
0.0
 40
6.0
  1
ライナートップＸ７０Ｕ
 41
0.9
  7
ｽﾀｲﾙ1
100
AcDbText
  0
HATCH
  5
139E
330
1A
100
AcDbEntity
  8
ZUWAKU
100
AcDbHatch
 10
0.0
 20
0.0
 30
0.0
210
0.0
220
0.0
230
1.0
  2
ANSI37
 70
     0
 71
     0
 91
        8
 92
        7
 72
     1
 73
     1
 93
       24
 10
14.50226267467587
 20
17.64484834927226
 42
-0.1989123673796348
 10
14.09221216833714
 20
18.63479784293331
 42
0.0
 10
14.09221216833714
 20
19.92499986828869
 42
-0.4142135623730912
 10
14.61721216833711
 20
20.44999986828868
 42
0.0
 10
17.59221216833702
 20
20.44999986828868
 42
0.4142135623731546
 10
18.11721216833712
 20
20.97499986828867
 42
0.0
 10
18.11721216833712
 20
22.72499986828869
 42
0.4142135623731586
 10
17.59221216833702
 20
23.24999986828868
 42
0.0
 10
14.09221216833714
 20
23.24999986828868
 42
0.4142135623730928
 10
11.29221216833718
 20
20.44999986828871
 42
0.0
 10
11.29221216833718
 20
18.63479784293344
 42
0.1989123673796619
 10
12.52236368735361
 20
15.66494936194983
 42
0.0
 10
15.43216166199829
 20
12.75515138730518
 42
-0.1989123673796613
 10
15.84221216833714
 20
11.76520189364399
 42
0.0
 10
15.84221216833714
 20
10.47499986828867
 42
-0.4142135623730911
 10
15.31721216833716
 20
9.949999868288685
 42
0.0
 10
12.34221216833725
 20
9.949999868288685
 42
0.4142135623731526
 10
11.81721216833716
 20
9.424999868288697
 42
0.0
 10
11.81721216833716
 20
7.674999868288676
 42
0.4142135623731526
 10
12.34221216833725
 20
7.149999868288688
 42
0.0
 10
15.84221216833714
 20
7.149999868288688
 42
0.4142135623731044
 10
18.64221216833721
 20
9.949999868288664
 42
0.0
 10
18.64221216833721
 20
11.76520189364393
 42
0.1989123673796604
 10
17.41206064932066
 20
14.73505037462747
 42
0.0
 97
        0
 92
        7
 72
     1
 73
     1
 93
       16
 10
23.54221216833718
 20
19.04999986828869
 42
-0.4142135623730935
 10
24.94221216833716
 20
20.44999986828868
 42
0.0
 10
26.86721216833712
 20
20.44999986828868
 42
0.4142135623731546
 10
27.39221216833721
 20
20.97499986828867
 42
0.0
 10
27.39221216833721
 20
22.72499986828869
 42
0.4142135623730951
 10
26.86721216833723
 20
23.24999986828868
 42
0.0
 10
24.94221216833705
 20
23.24999986828864
 42
0.4142135623730892
 10
20.74221216833711
 20
19.04999986828862
 42
0.0
 10
20.74221216833711
 20
11.34999986828871
 42
0.4142135623730969
 10
24.94221216833716
 20
7.149999868288688
 42
0.0
 10
26.86721216833712
 20
7.149999868288688
 42
0.4142135623731526
 10
27.39221216833721
 20
7.674999868288676
 42
0.0
 10
27.39221216833721
 20
9.424999868288697
 42
0.4142135623730891
 10
26.86721216833723
 20
9.949999868288685
 42
0.0
 10
24.94221216833716
 20
9.949999868288685
 42
-0.4142135623730928
 10
23.54221216833718
 20
11.34999986828867
 42
0.0
 97
        0
 92
        7
 72
     1
 73
     1
 93
        2
 10
24.24221216833712
 20
15.19999986828868
 42
1.0
 10
27.74221216833712
 20
15.19999986828868
 42
1.0
 97
        0
 92
        7
 72
     1
 73
     1
 93
       26
 10
37.31485865051513
 20
19.20504706185211
 42
0.0
 10
38.37649828365295
 20
22.5669059001217
 42
0.5069206636600134
 10
37.87586738445759
 20
23.24999986828868
 42
0.0
 10
36.17697800484836
 20
23.24999986828868
 42
0.3272098845218764
 10
35.676347105653
 20
22.88309383645565
 42
0.0
 10
33.80807723102122
 20
16.96690590012176
 42
-0.3272098845219541
 10
33.30744633182575
 20
16.59999986828868
 42
0.0
 10
33.1672121683373
 20
16.59999986828868
 42
-0.4142135623731526
 10
32.64221216833721
 20
17.12499986828867
 42
0.0
 10
32.64221216833721
 20
22.72499986828869
 42
0.4142135623730951
 10
32.11721216833723
 20
23.24999986828868
 42
0.0
 10
30.36721216833711
 20
23.24999986828868
 42
0.4142135623730871
 10
29.84221216833714
 20
22.7249998682887
 42
0.0
 10
29.84221216833714
 20
7.674999868288676
 42
0.4142135623730891
 10
30.36721216833711
 20
7.149999868288688
 42
0.0
 10
32.11721216833712
 20
7.149999868288688
 42
0.4142135623731526
 10
32.64221216833721
 20
7.674999868288676
 42
0.0
 10
32.64221216833721
 20
13.27499986828869
 42
-0.4142135623731526
 10
33.1672121683373
 20
13.79999986828868
 42
0.0
 10
33.30744633182587
 20
13.79999986828868
 42
-0.3272098845218915
 10
33.80807723102122
 20
13.43309383645561
 42
0.0
 10
35.676347105653
 20
7.516905900121759
 42
0.3272098845218902
 10
36.17697800484836
 20
7.149999868288688
 42
0.0
 10
37.87586738445759
 20
7.149999868288688
 42
0.5069206636600335
 10
38.37649828365295
 20
7.833093836455695
 42
0.0
 10
36.05010690517929
 20
15.19999986828882
 42
0.0
 97
        0
 92
        7
 72
     1
 73
     1
 93
        8
 10
43.49221216833711
 20
22.7249998682887
 42
0.4142135623731546
 10
42.96721216833702
 20
23.24999986828868
 42
0.0
 10
41.21721216833726
 20
23.24999986828868
 42
0.4142135623731507
 10
40.69221216833716
 20
22.7249998682887
 42
0.0
 10
40.69221216833716
 20
7.674999868288676
 42
0.4142135623731526
 10
41.21721216833726
 20
7.149999868288688
 42
0.0
 10
42.96721216833702
 20
7.149999868288688
 42
0.4142135623731526
 10
43.49221216833711
 20
7.674999868288676
 42
0.0
 97
        0
 92
        7
 72
     1
 73
     1
 93
       24
 10
48.3922121683372
 20
19.92499986828869
 42
-0.4142135623731546
 10
48.9172121683373
 20
20.44999986828868
 42
0.0
 10
51.89221216833721
 20
20.44999986828868
 42
0.4142135623730911
 10
52.41721216833719
 20
20.97499986828867
 42
0.0
 10
52.41721216833719
 20
22.72499986828869
 42
0.4142135623730952
 10
51.89221216833721
 20
23.24999986828868
 42
0.0
 10
48.3922121683372
 20
23.24999986828868
 42
0.4142135623731048
 10
45.59221216833714
 20
20.44999986828871
 42
0.0
 10
45.59221216833714
 20
18.63479784293344
 42
0.1989123673796613
 10
46.82236368735368
 20
15.66494936194989
 42
0.0
 10
49.73216166199836
 20
12.75515138730522
 42
-0.1989123673796402
 10
50.14221216833721
 20
11.76520189364415
 42
0.0
 10
50.14221216833721
 20
10.47499986828867
 42
-0.4142135623730911
 10
49.61721216833723
 20
9.949999868288685
 42
0.0
 10
46.64221216833721
 20
9.949999868288685
 42
0.4142135623731526
 10
46.11721216833712
 20
9.424999868288697
 42
0.0
 10
46.11721216833712
 20
7.674999868288676
 42
0.4142135623730891
 10
46.64221216833709
 20
7.149999868288688
 42
0.0
 10
50.14221216833721
 20
7.149999868288688
 42
0.4142135623730925
 10
52.94221216833716
 20
9.949999868288664
 42
0.0
 10
52.94221216833716
 20
11.76520189364393
 42
0.1989123673796675
 10
51.71206064932062
 20
14.73505037462759
 42
0.0
 10
48.80226267467605
 20
17.6448483492721
 42
-0.1989123673796652
 10
48.3922121683372
 20
18.63479784293327
 42
0.0
 97
        0
 92
        7
 72
     1
 73
     1
 93
       16
 10
57.84221216833714
 20
22.72499986828867
 42
0.414213562373103
 10
57.31721216833716
 20
23.24999986828868
 42
0.0
 10
55.56721216833716
 20
23.24999986828868
 42
0.4142135623730871
 10
55.04221216833719
 20
22.7249998682887
 42
0.0
 10
55.04221216833719
 20
9.949999868288664
 42
0.4142135623730926
 10
57.84221216833714
 20
7.149999868288688
 42
0.0
 10
61.34221216833714
 20
7.149999868288688
 42
0.4142135623731044
 10
64.14221216833721
 20
9.949999868288664
 42
0.0
 10
64.14221216833721
 20
22.72499986828869
 42
0.4142135623730951
 10
63.61721216833723
 20
23.24999986828868
 42
0.0
 10
61.86721216833712
 20
23.24999986828868
 42
0.4142135623730871
 10
61.34221216833714
 20
22.7249998682887
 42
0.0
 10
61.34221216833714
 20
10.99999986828866
 42
-0.414213562373088
 10
60.29221216833718
 20
9.949999868288685
 42
0.0
 10
58.89221216833721
 20
9.949999868288685
 42
-0.4142135623731197
 10
57.84221216833714
 20
10.99999986828866
 42
0.0
 97
        0
 92
        7
 72
     1
 73
     1
 93
        8
 10
69.04221216833718
 20
22.7249998682887
 42
0.4142135623730871
 10
68.51721216833721
 20
23.24999986828868
 42
0.0
 10
66.76721216833721
 20
23.24999986828868
 42
0.4142135623731507
 10
66.24221216833712
 20
22.7249998682887
 42
0.0
 10
66.24221216833712
 20
7.674999868288676
 42
0.4142135623730891
 10
66.76721216833709
 20
7.149999868288688
 42
0.0
 10
68.51721216833721
 20
7.149999868288688
 42
0.4142135623730891
 10
69.04221216833718
 20
7.674999868288676
 42
0.0
 97
        0
 75
     0
 76
     1
 52
0.0
 41
0.2
 77
     0
 78
     2
 53
45.0
 43
-900.942304321123
 44
-13.20000013171124
 45
-0.4490128060534576
 46
0.4490128060534577
 79
     0
 53
135.0
 43
-900.942304321123
 44
-13.20000013171124
 45
-0.4490128060534577
 46
-0.4490128060534576
 79
     0
 47
0.057451373970553
 98
        8
 10
16.07985497657932
 20
15.16717351417423
 10
22.40451501999519
 20
18.84406205073969
 10
25.16436789921567
 20
15.5118815143594
 10
30.91405999519315
 20
16.20129751473018
 10
41.83847203251275
 20
16.6609097822718
 10
46.89820090868557
 20
19.41857618469589
 10
56.55768598595637
 20
18.72915778338369
 10
67.82707963317875
 20
19.18877005092531
  0
LINE
  5
139F
330
1A
100
AcDbEntity
  8
ZUWAKU
100
AcDbLine
 10
24.94221216833716
 20
23.24999986828864
 30
0.0
 11
26.86721216833712
 21
23.24999986828868
 31
0.0
  0
LINE
  5
13A0
330
1A
100
AcDbEntity
  8
ZUWAKU
100
AcDbLine
 10
26.86721216833712
 20
20.44999986828868
 30
0.0
 11
24.94221216833716
 21
20.44999986828868
 31
0.0
  0
LINE
  5
13A1
330
1A
100
AcDbEntity
  8
ZUWAKU
100
AcDbLine
 10
24.94221216833716
 20
9.949999868288685
 30
0.0
 11
26.86721216833712
 21
9.949999868288685
 31
0.0
  0
LINE
  5
13A2
330
1A
100
AcDbEntity
  8
ZUWAKU
100
AcDbLine
 10
26.86721216833712
 20
7.149999868288688
 30
0.0
 11
24.94221216833716
 21
7.149999868288688
 31
0.0
  0
CIRCLE
  5
13A3
330
1A
100
AcDbEntity
  8
ZUWAKU
100
AcDbCircle
 10
25.99221216833711
 20
15.19999986828868
 30
0.0
 40
1.75
  0
ARC
  5
13A4
330
1A
100
AcDbEntity
  8
ZUWAKU
100
AcDbCircle
 10
15.49221216833712
 20
18.63479784293338
 30
0.0
 40
1.399999999999999
100
AcDbArc
 50
180.0000000000016
 51
224.9999999999988
  0
LINE
  5
13A5
330
1A
100
AcDbEntity
  8
ZUWAKU
100
AcDbLine
 10
23.54221216833718
 20
19.04999986828868
 30
0.0
 11
23.54221216833718
 21
11.34999986828869
 31
0.0
  0
LINE
  5
13A6
330
1A
100
AcDbEntity
  8
ZUWAKU
100
AcDbLine
 10
20.74221216833711
 20
11.34999986828869
 30
0.0
 11
20.74221216833711
 21
19.04999986828864
 31
0.0
  0
ARC
  5
13A7
330
1A
100
AcDbEntity
  8
ZUWAKU
100
AcDbCircle
 10
15.49221216833712
 20
18.63479784293338
 30
0.0
 40
4.199999999999999
100
AcDbArc
 50
180.0
 51
225.0
  0
ARC
  5
13A8
330
1A
100
AcDbEntity
  8
ZUWAKU
100
AcDbCircle
 10
15.84221216833714
 20
9.949999868288685
 30
0.0
 40
2.799999999999999
100
AcDbArc
 50
270.0
 51
0.0
  0
ARC
  5
13A9
330
1A
100
AcDbEntity
  8
ZUWAKU
100
AcDbCircle
 10
24.94221216833716
 20
11.34999986828869
 30
0.0
 40
4.199999999999999
100
AcDbArc
 50
180.0
 51
270.0
  0
ARC
  5
13AA
330
1A
100
AcDbEntity
  8
ZUWAKU
100
AcDbCircle
 10
14.44221216833716
 20
11.76520189364399
 30
0.0
 40
4.199999999999999
100
AcDbArc
 50
0.0
 51
45.0
  0
LINE
  5
13AB
330
1A
100
AcDbEntity
  8
ZUWAKU
100
AcDbLine
 10
17.41206064932066
 20
14.73505037462751
 30
0.0
 11
14.50226267467598
 21
17.64484834927218
 31
0.0
  0
LINE
  5
13AC
330
1A
100
AcDbEntity
  8
ZUWAKU
100
AcDbLine
 10
15.84221216833714
 20
10.47499986828869
 30
0.0
 11
15.84221216833714
 21
11.76520189364403
 31
0.0
  0
ARC
  5
13AD
330
1A
100
AcDbEntity
  8
ZUWAKU
100
AcDbCircle
 10
15.31721216833716
 20
10.47499986828869
 30
0.0
 40
0.525
100
AcDbArc
 50
270.0
 51
0.0
  0
ARC
  5
13AE
330
1A
100
AcDbEntity
  8
ZUWAKU
100
AcDbCircle
 10
14.44221216833716
 20
11.76520189364403
 30
0.0
 40
1.399999999999999
100
AcDbArc
 50
0.0
 51
45.0
  0
LINE
  5
13AF
330
1A
100
AcDbEntity
  8
ZUWAKU
100
AcDbLine
 10
11.81721216833716
 20
7.674999868288686
 30
0.0
 11
11.81721216833716
 21
9.424999868288686
 31
0.0
  0
ARC
  5
13B0
330
1A
100
AcDbEntity
  8
ZUWAKU
100
AcDbCircle
 10
12.34221216833714
 20
7.674999868288686
 30
0.0
 40
0.525
100
AcDbArc
 50
180.0
 51
270.0
  0
ARC
  5
13B1
330
1A
100
AcDbEntity
  8
ZUWAKU
100
AcDbCircle
 10
12.34221216833714
 20
9.424999868288686
 30
0.0
 40
0.525
100
AcDbArc
 50
90.0
 51
180.0
  0
LINE
  5
13B2
330
1A
100
AcDbEntity
  8
ZUWAKU
100
AcDbLine
 10
12.34221216833714
 20
7.149999868288688
 30
0.0
 11
15.84221216833714
 21
7.149999868288688
 31
0.0
  0
LINE
  5
13B3
330
1A
100
AcDbEntity
  8
ZUWAKU
100
AcDbLine
 10
12.34221216833714
 20
9.949999868288685
 30
0.0
 11
15.31721216833716
 21
9.949999868288685
 31
0.0
  0
LINE
  5
13B4
330
1A
100
AcDbEntity
  8
ZUWAKU
100
AcDbLine
 10
12.52236368735361
 20
15.66494936194986
 30
0.0
 11
15.43216166199829
 21
12.7551513873052
 31
0.0
  0
LINE
  5
13B5
330
1A
100
AcDbEntity
  8
ZUWAKU
100
AcDbLine
 10
18.64221216833721
 20
9.949999868288685
 30
0.0
 11
18.64221216833721
 21
11.76520189364403
 31
0.0
  0
ARC
  5
13B6
330
1A
100
AcDbEntity
  8
ZUWAKU
100
AcDbCircle
 10
24.94221216833716
 20
11.34999986828869
 30
0.0
 40
1.399999999999999
100
AcDbArc
 50
180.0
 51
270.0
  0
ARC
  5
13B7
330
1A
100
AcDbEntity
  8
ZUWAKU
100
AcDbCircle
 10
17.59221216833714
 20
22.72499986828868
 30
0.0
 40
0.525
100
AcDbArc
 50
0.0
 51
90.0
  0
ARC
  5
13B8
330
1A
100
AcDbEntity
  8
ZUWAKU
100
AcDbCircle
 10
17.59221216833714
 20
20.97499986828868
 30
0.0
 40
0.525
100
AcDbArc
 50
270.0
 51
0.0
  0
LINE
  5
13B9
330
1A
100
AcDbEntity
  8
ZUWAKU
100
AcDbLine
 10
14.09221216833714
 20
23.24999986828868
 30
0.0
 11
17.59221216833714
 21
23.24999986828868
 31
0.0
  0
ARC
  5
13BA
330
1A
100
AcDbEntity
  8
ZUWAKU
100
AcDbCircle
 10
14.61721216833711
 20
19.92499986828868
 30
0.0
 40
0.525
100
AcDbArc
 50
90.0
 51
180.0
  0
LINE
  5
13BB
330
1A
100
AcDbEntity
  8
ZUWAKU
100
AcDbLine
 10
14.09221216833714
 20
19.92499986828868
 30
0.0
 11
14.09221216833714
 21
18.63479784293334
 31
0.0
  0
LINE
  5
13BC
330
1A
100
AcDbEntity
  8
ZUWAKU
100
AcDbLine
 10
17.59221216833714
 20
20.44999986828868
 30
0.0
 11
14.61721216833711
 21
20.44999986828868
 31
0.0
  0
LINE
  5
13BD
330
1A
100
AcDbEntity
  8
ZUWAKU
100
AcDbLine
 10
11.29221216833718
 20
20.44999986828868
 30
0.0
 11
11.29221216833718
 21
18.63479784293334
 31
0.0
  0
ARC
  5
13BE
330
1A
100
AcDbEntity
  8
ZUWAKU
100
AcDbCircle
 10
14.09221216833714
 20
20.44999986828868
 30
0.0
 40
2.799999999999999
100
AcDbArc
 50
90.0
 51
180.0
  0
LINE
  5
13BF
330
1A
100
AcDbEntity
  8
ZUWAKU
100
AcDbLine
 10
18.11721216833712
 20
22.72499986828868
 30
0.0
 11
18.11721216833712
 21
20.97499986828868
 31
0.0
  0
ARC
  5
13C0
330
1A
100
AcDbEntity
  8
ZUWAKU
100
AcDbCircle
 10
24.94221216833716
 20
19.04999986828868
 30
0.0
 40
1.399999999999999
100
AcDbArc
 50
90.0
 51
180.0
  0
ARC
  5
13C1
330
1A
100
AcDbEntity
  8
ZUWAKU
100
AcDbCircle
 10
24.94221216833716
 20
19.04999986828864
 30
0.0
 40
4.199999999999999
100
AcDbArc
 50
90.0
 51
180.0
  0
LINE
  5
13C2
330
1A
100
AcDbEntity
  8
ZUWAKU
100
AcDbLine
 10
79.32662956154422
 20
29.99999986828868
 30
0.0
 11
79.32662956154445
 21
0.7999998682887508
 31
0.0
  0
LINE
  5
13C3
330
1A
100
AcDbEntity
  8
ZUWAKU
100
AcDbLine
 10
79.52662956154426
 20
29.99999986828868
 30
0.0
 11
79.52662956154449
 21
0.7999998682887508
 31
0.0
  0
LINE
  5
13C4
330
1A
100
AcDbEntity
  8
ZUWAKU
100
AcDbLine
 10
79.12662956154441
 20
29.99999986828868
 30
0.0
 11
79.12662956154441
 21
0.7999998682887508
 31
0.0
  0
LINE
  5
13C5
330
1A
100
AcDbEntity
  8
ZUWAKU
100
AcDbLine
 10
64.14221216833721
 20
9.949999868288685
 30
0.0
 11
64.14221216833721
 21
22.72499986828868
 31
0.0
  0
LINE
  5
13C6
330
1A
100
AcDbEntity
  8
ZUWAKU
100
AcDbLine
 10
61.34221216833714
 20
22.72499986828868
 30
0.0
 11
61.34221216833714
 21
10.99999986828868
 31
0.0
  0
LINE
  5
13C7
330
1A
100
AcDbEntity
  8
ZUWAKU
100
AcDbLine
 10
69.04221216833718
 20
7.674999868288686
 30
0.0
 11
69.04221216833718
 21
22.72499986828868
 31
0.0
  0
LINE
  5
13C8
330
1A
100
AcDbEntity
  8
ZUWAKU
100
AcDbLine
 10
66.24221216833712
 20
22.72499986828868
 30
0.0
 11
66.24221216833712
 21
7.674999868288686
 31
0.0
  0
ARC
  5
13C9
330
1A
100
AcDbEntity
  8
ZUWAKU
100
AcDbCircle
 10
49.79221216833718
 20
18.63479784293338
 30
0.0
 40
1.399999999999999
100
AcDbArc
 50
180.0000000000016
 51
224.9999999999988
  0
ARC
  5
13CA
330
1A
100
AcDbEntity
  8
ZUWAKU
100
AcDbCircle
 10
49.79221216833718
 20
18.63479784293338
 30
0.0
 40
4.199999999999999
100
AcDbArc
 50
180.0
 51
225.0
  0
LINE
  5
13CB
330
1A
100
AcDbEntity
  8
ZUWAKU
100
AcDbLine
 10
37.31485865051513
 20
19.20504706185211
 30
0.0
 11
36.05010690517929
 21
15.1999998682887
 31
0.0
  0
LINE
  5
13CC
330
1A
100
AcDbEntity
  8
ZUWAKU
100
AcDbLine
 10
40.69221216833716
 20
22.72499986828868
 30
0.0
 11
40.69221216833716
 21
7.674999868288686
 31
0.0
  0
LINE
  5
13CD
330
1A
100
AcDbEntity
  8
ZUWAKU
100
AcDbLine
 10
43.49221216833711
 20
7.674999868288686
 30
0.0
 11
43.49221216833711
 21
22.72499986828868
 31
0.0
  0
LINE
  5
13CE
330
1A
100
AcDbEntity
  8
ZUWAKU
100
AcDbLine
 10
55.04221216833719
 20
22.72499986828868
 30
0.0
 11
55.04221216833719
 21
9.949999868288685
 31
0.0
  0
LINE
  5
13CF
330
1A
100
AcDbEntity
  8
ZUWAKU
100
AcDbLine
 10
57.84221216833714
 20
10.99999986828868
 30
0.0
 11
57.84221216833714
 21
22.72499986828868
 31
0.0
  0
LINE
  5
13D0
330
1A
100
AcDbEntity
  8
ZUWAKU
100
AcDbLine
 10
32.64221216833721
 20
17.12499986828869
 30
0.0
 11
32.64221216833721
 21
22.72499986828868
 31
0.0
  0
LINE
  5
13D1
330
1A
100
AcDbEntity
  8
ZUWAKU
100
AcDbLine
 10
29.84221216833714
 20
22.72499986828868
 30
0.0
 11
29.84221216833714
 21
7.674999868288686
 31
0.0
  0
LINE
  5
13D2
330
1A
100
AcDbEntity
  8
ZUWAKU
100
AcDbLine
 10
35.676347105653
 20
22.88309383645565
 30
0.0
 11
33.80807723102122
 21
16.96690590012171
 31
0.0
  0
LINE
  5
13D3
330
1A
100
AcDbEntity
  8
ZUWAKU
100
AcDbLine
 10
60.29221216833718
 20
9.949999868288685
 30
0.0
 11
58.89221216833721
 21
9.949999868288685
 31
0.0
  0
LINE
  5
13D4
330
1A
100
AcDbEntity
  8
ZUWAKU
100
AcDbLine
 10
57.84221216833714
 20
7.149999868288688
 30
0.0
 11
61.34221216833714
 21
7.149999868288688
 31
0.0
  0
LINE
  5
13D5
330
1A
100
AcDbEntity
  8
ZUWAKU
100
AcDbLine
 10
41.21721216833714
 20
7.149999868288688
 30
0.0
 11
42.96721216833714
 21
7.149999868288688
 31
0.0
  0
LINE
  5
13D6
330
1A
100
AcDbEntity
  8
ZUWAKU
100
AcDbLine
 10
35.676347105653
 20
7.516905900121713
 30
0.0
 11
33.80807723102122
 21
13.43309383645565
 31
0.0
  0
ARC
  5
13D7
330
1A
100
AcDbEntity
  8
ZUWAKU
100
AcDbCircle
 10
33.30744633182587
 20
17.12499986828869
 30
0.0
 40
0.525
100
AcDbArc
 50
270.0
 51
342.4744316262769
  0
LINE
  5
13D8
330
1A
100
AcDbEntity
  8
ZUWAKU
100
AcDbLine
 10
33.30744633182587
 20
16.59999986828868
 30
0.0
 11
33.16721216833718
 21
16.59999986828868
 31
0.0
  0
LINE
  5
13D9
330
1A
100
AcDbEntity
  8
ZUWAKU
100
AcDbLine
 10
33.16721216833718
 20
13.79999986828868
 30
0.0
 11
33.30744633182587
 21
13.79999986828868
 31
0.0
  0
ARC
  5
13DA
330
1A
100
AcDbEntity
  8
ZUWAKU
100
AcDbCircle
 10
33.16721216833718
 20
17.12499986828869
 30
0.0
 40
0.525
100
AcDbArc
 50
180.0
 51
270.0
  0
LINE
  5
13DB
330
1A
100
AcDbEntity
  8
ZUWAKU
100
AcDbLine
 10
30.36721216833711
 20
7.149999868288688
 30
0.0
 11
32.11721216833712
 21
7.149999868288688
 31
0.0
  0
ARC
  5
13DC
330
1A
100
AcDbEntity
  8
ZUWAKU
100
AcDbCircle
 10
32.11721216833712
 20
7.674999868288686
 30
0.0
 40
0.525
100
AcDbArc
 50
270.0
 51
0.0
  0
LINE
  5
13DD
330
1A
100
AcDbEntity
  8
ZUWAKU
100
AcDbLine
 10
32.64221216833721
 20
7.674999868288686
 30
0.0
 11
32.64221216833721
 21
13.27499986828868
 31
0.0
  0
LINE
  5
13DE
330
1A
100
AcDbEntity
  8
ZUWAKU
100
AcDbLine
 10
27.39221216833721
 20
9.424999868288686
 30
0.0
 11
27.39221216833721
 21
7.674999868288686
 31
0.0
  0
ARC
  5
13DF
330
1A
100
AcDbEntity
  8
ZUWAKU
100
AcDbCircle
 10
26.86721216833712
 20
7.674999868288686
 30
0.0
 40
0.525
100
AcDbArc
 50
270.0
 51
0.0
  0
ARC
  5
13E0
330
1A
100
AcDbEntity
  8
ZUWAKU
100
AcDbCircle
 10
26.86721216833712
 20
9.424999868288686
 30
0.0
 40
0.525
100
AcDbArc
 50
0.0
 51
90.0
  0
ARC
  5
13E1
330
1A
100
AcDbEntity
  8
ZUWAKU
100
AcDbCircle
 10
30.36721216833711
 20
7.674999868288686
 30
0.0
 40
0.525
100
AcDbArc
 50
180.0
 51
270.0
  0
ARC
  5
13E2
330
1A
100
AcDbEntity
  8
ZUWAKU
100
AcDbCircle
 10
33.30744633182587
 20
13.27499986828868
 30
0.0
 40
0.525
100
AcDbArc
 50
17.52556837372303
 51
90.0
  0
ARC
  5
13E3
330
1A
100
AcDbEntity
  8
ZUWAKU
100
AcDbCircle
 10
33.16721216833718
 20
13.27499986828868
 30
0.0
 40
0.525
100
AcDbArc
 50
90.0
 51
180.0
  0
ARC
  5
13E4
330
1A
100
AcDbEntity
  8
ZUWAKU
100
AcDbCircle
 10
41.21721216833714
 20
7.674999868288686
 30
0.0
 40
0.525
100
AcDbArc
 50
180.0
 51
270.0
  0
LINE
  5
13E5
330
1A
100
AcDbEntity
  8
ZUWAKU
100
AcDbLine
 10
36.17697800484847
 20
7.149999868288688
 30
0.0
 11
37.87586738445748
 21
7.149999868288688
 31
0.0
  0
ARC
  5
13E6
330
1A
100
AcDbEntity
  8
ZUWAKU
100
AcDbCircle
 10
37.87586738445748
 20
7.674999868288686
 30
0.0
 40
0.525
100
AcDbArc
 50
270.0
 51
17.52556837372303
  0
LINE
  5
13E7
330
1A
100
AcDbEntity
  8
ZUWAKU
100
AcDbLine
 10
38.37649828365295
 20
7.83309383645566
 30
0.0
 11
36.05010690517929
 21
15.1999998682887
 31
0.0
  0
ARC
  5
13E8
330
1A
100
AcDbEntity
  8
ZUWAKU
100
AcDbCircle
 10
36.17697800484847
 20
7.674999868288686
 30
0.0
 40
0.525
100
AcDbArc
 50
197.525568373723
 51
270.0
  0
ARC
  5
13E9
330
1A
100
AcDbEntity
  8
ZUWAKU
100
AcDbCircle
 10
57.84221216833714
 20
9.949999868288685
 30
0.0
 40
2.799999999999999
100
AcDbArc
 50
180.0
 51
270.0
  0
ARC
  5
13EA
330
1A
100
AcDbEntity
  8
ZUWAKU
100
AcDbCircle
 10
50.14221216833721
 20
9.949999868288685
 30
0.0
 40
2.799999999999999
100
AcDbArc
 50
270.0
 51
0.0
  0
LINE
  5
13EB
330
1A
100
AcDbEntity
  8
ZUWAKU
100
AcDbLine
 10
51.71206064932073
 20
14.73505037462751
 30
0.0
 11
48.80226267467595
 21
17.64484834927218
 31
0.0
  0
LINE
  5
13EC
330
1A
100
AcDbEntity
  8
ZUWAKU
100
AcDbLine
 10
50.14221216833721
 20
10.47499986828869
 30
0.0
 11
50.14221216833721
 21
11.76520189364403
 31
0.0
  0
ARC
  5
13ED
330
1A
100
AcDbEntity
  8
ZUWAKU
100
AcDbCircle
 10
48.74221216833712
 20
11.76520189364403
 30
0.0
 40
1.399999999999999
100
AcDbArc
 50
0.0
 51
45.0
  0
ARC
  5
13EE
330
1A
100
AcDbEntity
  8
ZUWAKU
100
AcDbCircle
 10
49.61721216833712
 20
10.47499986828869
 30
0.0
 40
0.525
100
AcDbArc
 50
270.0
 51
0.0
  0
LINE
  5
13EF
330
1A
100
AcDbEntity
  8
ZUWAKU
100
AcDbLine
 10
46.11721216833712
 20
7.674999868288686
 30
0.0
 11
46.11721216833712
 21
9.424999868288686
 31
0.0
  0
ARC
  5
13F0
330
1A
100
AcDbEntity
  8
ZUWAKU
100
AcDbCircle
 10
46.64221216833721
 20
7.674999868288686
 30
0.0
 40
0.525
100
AcDbArc
 50
180.0
 51
270.0
  0
ARC
  5
13F1
330
1A
100
AcDbEntity
  8
ZUWAKU
100
AcDbCircle
 10
42.96721216833714
 20
7.674999868288686
 30
0.0
 40
0.525
100
AcDbArc
 50
270.0
 51
0.0
  0
ARC
  5
13F2
330
1A
100
AcDbEntity
  8
ZUWAKU
100
AcDbCircle
 10
46.64221216833721
 20
9.424999868288686
 30
0.0
 40
0.525
100
AcDbArc
 50
90.0
 51
180.0
  0
LINE
  5
13F3
330
1A
100
AcDbEntity
  8
ZUWAKU
100
AcDbLine
 10
46.64221216833721
 20
9.949999868288685
 30
0.0
 11
49.61721216833712
 21
9.949999868288685
 31
0.0
  0
LINE
  5
13F4
330
1A
100
AcDbEntity
  8
ZUWAKU
100
AcDbLine
 10
46.64221216833721
 20
7.149999868288688
 30
0.0
 11
50.14221216833721
 21
7.149999868288688
 31
0.0
  0
LINE
  5
13F5
330
1A
100
AcDbEntity
  8
ZUWAKU
100
AcDbLine
 10
46.82236368735368
 20
15.66494936194986
 30
0.0
 11
49.73216166199836
 21
12.7551513873052
 31
0.0
  0
LINE
  5
13F6
330
1A
100
AcDbEntity
  8
ZUWAKU
100
AcDbLine
 10
52.94221216833716
 20
9.949999868288685
 30
0.0
 11
52.94221216833716
 21
11.76520189364403
 31
0.0
  0
ARC
  5
13F7
330
1A
100
AcDbEntity
  8
ZUWAKU
100
AcDbCircle
 10
48.74221216833712
 20
11.76520189364399
 30
0.0
 40
4.199999999999999
100
AcDbArc
 50
0.0
 51
45.0
  0
ARC
  5
13F8
330
1A
100
AcDbEntity
  8
ZUWAKU
100
AcDbCircle
 10
58.89221216833721
 20
10.99999986828868
 30
0.0
 40
1.049999999999999
100
AcDbArc
 50
180.0
 51
270.0
  0
ARC
  5
13F9
330
1A
100
AcDbEntity
  8
ZUWAKU
100
AcDbCircle
 10
61.34221216833714
 20
9.949999868288685
 30
0.0
 40
2.799999999999999
100
AcDbArc
 50
270.0
 51
0.0
  0
LINE
  5
13FA
330
1A
100
AcDbEntity
  8
ZUWAKU
100
AcDbLine
 10
66.76721216833721
 20
7.149999868288688
 30
0.0
 11
68.51721216833721
 21
7.149999868288688
 31
0.0
  0
ARC
  5
13FB
330
1A
100
AcDbEntity
  8
ZUWAKU
100
AcDbCircle
 10
66.76721216833721
 20
7.674999868288686
 30
0.0
 40
0.525
100
AcDbArc
 50
180.0
 51
270.0
  0
ARC
  5
13FC
330
1A
100
AcDbEntity
  8
ZUWAKU
100
AcDbCircle
 10
60.29221216833718
 20
10.99999986828868
 30
0.0
 40
1.049999999999999
100
AcDbArc
 50
270.0
 51
0.0
  0
ARC
  5
13FD
330
1A
100
AcDbEntity
  8
ZUWAKU
100
AcDbCircle
 10
68.51721216833721
 20
7.674999868288686
 30
0.0
 40
0.525
100
AcDbArc
 50
270.0
 51
0.0
  0
LINE
  5
13FE
330
1A
100
AcDbEntity
  8
ZUWAKU
100
AcDbLine
 10
42.96721216833714
 20
23.24999986828868
 30
0.0
 11
41.21721216833714
 21
23.24999986828868
 31
0.0
  0
ARC
  5
13FF
330
1A
100
AcDbEntity
  8
ZUWAKU
100
AcDbCircle
 10
32.11721216833712
 20
22.72499986828868
 30
0.0
 40
0.525
100
AcDbArc
 50
0.0
 51
90.0
  0
LINE
  5
1400
330
1A
100
AcDbEntity
  8
ZUWAKU
100
AcDbLine
 10
32.11721216833712
 20
23.24999986828868
 30
0.0
 11
30.36721216833711
 21
23.24999986828868
 31
0.0
  0
ARC
  5
1401
330
1A
100
AcDbEntity
  8
ZUWAKU
100
AcDbCircle
 10
26.86721216833712
 20
22.72499986828868
 30
0.0
 40
0.525
100
AcDbArc
 50
0.0
 51
90.0
  0
ARC
  5
1402
330
1A
100
AcDbEntity
  8
ZUWAKU
100
AcDbCircle
 10
30.36721216833711
 20
22.72499986828868
 30
0.0
 40
0.525
100
AcDbArc
 50
90.0
 51
180.0
  0
ARC
  5
1403
330
1A
100
AcDbEntity
  8
ZUWAKU
100
AcDbCircle
 10
26.86721216833712
 20
20.97499986828868
 30
0.0
 40
0.525
100
AcDbArc
 50
270.0
 51
0.0
  0
LINE
  5
1404
330
1A
100
AcDbEntity
  8
ZUWAKU
100
AcDbLine
 10
27.39221216833721
 20
22.72499986828868
 30
0.0
 11
27.39221216833721
 21
20.97499986828868
 31
0.0
  0
ARC
  5
1405
330
1A
100
AcDbEntity
  8
ZUWAKU
100
AcDbCircle
 10
41.21721216833714
 20
22.72499986828868
 30
0.0
 40
0.525
100
AcDbArc
 50
90.0
 51
180.0
  0
LINE
  5
1406
330
1A
100
AcDbEntity
  8
ZUWAKU
100
AcDbLine
 10
36.17697800484847
 20
23.24999986828868
 30
0.0
 11
37.87586738445748
 21
23.24999986828868
 31
0.0
  0
ARC
  5
1407
330
1A
100
AcDbEntity
  8
ZUWAKU
100
AcDbCircle
 10
37.87586738445748
 20
22.72499986828868
 30
0.0
 40
0.525
100
AcDbArc
 50
342.4744316262769
 51
90.0
  0
LINE
  5
1408
330
1A
100
AcDbEntity
  8
ZUWAKU
100
AcDbLine
 10
38.37649828365295
 20
22.56690590012171
 30
0.0
 11
37.31485865051513
 21
19.20504706185211
 31
0.0
  0
ARC
  5
1409
330
1A
100
AcDbEntity
  8
ZUWAKU
100
AcDbCircle
 10
36.17697800484847
 20
22.72499986828868
 30
0.0
 40
0.525
100
AcDbArc
 50
90.0
 51
162.4744316262769
  0
LINE
  5
140A
330
1A
100
AcDbEntity
  8
ZUWAKU
100
AcDbLine
 10
48.3922121683372
 20
23.24999986828868
 30
0.0
 11
51.89221216833721
 21
23.24999986828868
 31
0.0
  0
LINE
  5
140B
330
1A
100
AcDbEntity
  8
ZUWAKU
100
AcDbLine
 10
51.89221216833721
 20
20.44999986828868
 30
0.0
 11
48.91721216833719
 21
20.44999986828868
 31
0.0
  0
ARC
  5
140C
330
1A
100
AcDbEntity
  8
ZUWAKU
100
AcDbCircle
 10
48.91721216833719
 20
19.92499986828868
 30
0.0
 40
0.525
100
AcDbArc
 50
90.0
 51
180.0
  0
LINE
  5
140D
330
1A
100
AcDbEntity
  8
ZUWAKU
100
AcDbLine
 10
48.3922121683372
 20
19.92499986828868
 30
0.0
 11
48.3922121683372
 21
18.63479784293334
 31
0.0
  0
ARC
  5
140E
330
1A
100
AcDbEntity
  8
ZUWAKU
100
AcDbCircle
 10
42.96721216833714
 20
22.72499986828868
 30
0.0
 40
0.525
100
AcDbArc
 50
0.0
 51
90.0
  0
LINE
  5
140F
330
1A
100
AcDbEntity
  8
ZUWAKU
100
AcDbLine
 10
45.59221216833714
 20
20.44999986828868
 30
0.0
 11
45.59221216833714
 21
18.63479784293334
 31
0.0
  0
ARC
  5
1410
330
1A
100
AcDbEntity
  8
ZUWAKU
100
AcDbCircle
 10
48.3922121683372
 20
20.44999986828868
 30
0.0
 40
2.799999999999999
100
AcDbArc
 50
90.0
 51
180.0
  0
ARC
  5
1411
330
1A
100
AcDbEntity
  8
ZUWAKU
100
AcDbCircle
 10
57.31721216833716
 20
22.72499986828868
 30
0.0
 40
0.525
100
AcDbArc
 50
0.0
 51
90.0
  0
ARC
  5
1412
330
1A
100
AcDbEntity
  8
ZUWAKU
100
AcDbCircle
 10
55.56721216833716
 20
22.72499986828868
 30
0.0
 40
0.525
100
AcDbArc
 50
90.0
 51
180.0
  0
LINE
  5
1413
330
1A
100
AcDbEntity
  8
ZUWAKU
100
AcDbLine
 10
57.31721216833716
 20
23.24999986828868
 30
0.0
 11
55.56721216833716
 21
23.24999986828868
 31
0.0
  0
ARC
  5
1414
330
1A
100
AcDbEntity
  8
ZUWAKU
100
AcDbCircle
 10
51.89221216833721
 20
22.72499986828868
 30
0.0
 40
0.525
100
AcDbArc
 50
0.0
 51
90.0
  0
ARC
  5
1415
330
1A
100
AcDbEntity
  8
ZUWAKU
100
AcDbCircle
 10
51.89221216833721
 20
20.97499986828868
 30
0.0
 40
0.525
100
AcDbArc
 50
270.0
 51
0.0
  0
LINE
  5
1416
330
1A
100
AcDbEntity
  8
ZUWAKU
100
AcDbLine
 10
52.41721216833719
 20
22.72499986828868
 30
0.0
 11
52.41721216833719
 21
20.97499986828868
 31
0.0
  0
LINE
  5
1417
330
1A
100
AcDbEntity
  8
ZUWAKU
100
AcDbLine
 10
68.51721216833721
 20
23.24999986828868
 30
0.0
 11
66.76721216833721
 21
23.24999986828868
 31
0.0
  0
ARC
  5
1418
330
1A
100
AcDbEntity
  8
ZUWAKU
100
AcDbCircle
 10
66.76721216833721
 20
22.72499986828868
 30
0.0
 40
0.525
100
AcDbArc
 50
90.0
 51
180.0
  0
ARC
  5
1419
330
1A
100
AcDbEntity
  8
ZUWAKU
100
AcDbCircle
 10
63.61721216833712
 20
22.72499986828868
 30
0.0
 40
0.525
100
AcDbArc
 50
0.0
 51
90.0
  0
LINE
  5
141A
330
1A
100
AcDbEntity
  8
ZUWAKU
100
AcDbLine
 10
63.61721216833712
 20
23.24999986828868
 30
0.0
 11
61.86721216833712
 21
23.24999986828868
 31
0.0
  0
ARC
  5
141B
330
1A
100
AcDbEntity
  8
ZUWAKU
100
AcDbCircle
 10
61.86721216833712
 20
22.72499986828868
 30
0.0
 40
0.525
100
AcDbArc
 50
90.0
 51
180.0
  0
ARC
  5
141C
330
1A
100
AcDbEntity
  8
ZUWAKU
100
AcDbCircle
 10
68.51721216833721
 20
22.72499986828868
 30
0.0
 40
0.525
100
AcDbArc
 50
0.0
 51
90.0
  0
TEXT
  5
141D
330
1A
100
AcDbEntity
  8
MOJI
100
AcDbText
 10
239.827202694407
 20
18.00492092569607
 30
0.0
 40
5.599999999999999
  1
テリ曲り
 41
0.9
  7
ｽﾀｲﾙ1
100
AcDbText
  0
TEXT
  5
141E
330
1A
100
AcDbEntity
  8
MOJI
100
AcDbText
 10
239.827202694407
 20
3.204920925696104
 30
0.0
 40
5.599999999999999
  1
Ｘ７０Ｕ－７６°
 41
0.9
  7
ｽﾀｲﾙ1
100
AcDbText
  0
LINE
  5
141F
330
1A
100
AcDbEntity
  8
ZUWAKU
100
AcDbLine
 10
208.2466013036239
 20
29.99999986828868
 30
0.0
 11
208.2466013036239
 21
0.7999998682887508
 31
0.0
  0
LINE
  5
1420
330
1A
100
AcDbEntity
  8
ZUWAKU
100
AcDbLine
 10
208.6466013036238
 20
29.99999986828868
 30
0.0
 11
208.646601303624
 21
0.7999998682887508
 31
0.0
  0
LINE
  5
1421
330
1A
100
AcDbEntity
  8
ZUWAKU
100
AcDbLine
 10
208.4466013036237
 20
29.99999986828868
 30
0.0
 11
208.446601303624
 21
0.7999998682887508
 31
0.0
  0
TEXT
  5
1422
330
1A
100
AcDbEntity
  8
ZUWAKU
100
AcDbText
 10
209.7240463258335
 20
9.6553564066743
 30
0.0
 40
4.0
  1
サイズ
 41
0.9
  7
ｽﾀｲﾙ1
100
AcDbText
  0
TEXT
  5
1423
330
1A
100
AcDbEntity
  8
ZUWAKU
100
AcDbText
 10
209.7240463258333
 20
24.05535640667426
 30
0.0
 40
4.0
  1
品名
 41
0.9
  7
ｽﾀｲﾙ1
100
AcDbText
  0
LINE
  5
1424
330
1A
100
AcDbEntity
  8
ZUWAKU
100
AcDbLine
 10
648.8172025237602
 20
15.19999986828871
 30
0.0
 11
697.2490105620972
 21
15.19999986828871
 31
0.0
  0
LINE
  5
1425
330
1A
100
AcDbEntity
  8
ZUWAKU
100
AcDbLine
 10
648.8172025237604
 20
15.39999986828872
 30
0.0
 11
697.2490105620972
 21
15.39999986828871
 31
0.0
  0
LINE
  5
1426
330
1A
100
AcDbEntity
  8
ZUWAKU
100
AcDbLine
 10
648.8172025237602
 20
15.59999986828871
 30
0.0
 11
697.2490105620972
 21
15.59999986828871
 31
0.0
  0
TEXT
  5
1427
330
1A
100
AcDbEntity
  8
ZUWAKU
100
AcDbText
 10
658.2039377008584
 20
18.00492092569607
 30
0.0
 40
5.599999999999999
  1
　　．　　．　　
 41
0.9
  7
ｽﾀｲﾙ1
100
AcDbText
  0
LINE
  5
1428
330
1A
100
AcDbEntity
  8
ZUWAKU
100
AcDbLine
 10
505.1991795116968
 20
15.19999986828872
 30
0.0
 11
552.5269557796685
 21
15.19999986828872
 31
0.0
  0
LINE
  5
1429
330
1A
100
AcDbEntity
  8
ZUWAKU
100
AcDbLine
 10
505.1991795116968
 20
15.39999986828871
 30
0.0
 11
552.5269557796685
 21
15.39999986828871
 31
0.0
  0
LINE
  5
142A
330
1A
100
AcDbEntity
  8
ZUWAKU
100
AcDbLine
 10
505.1991795116968
 20
15.59999986828871
 30
0.0
 11
552.5269557796685
 21
15.59999986828871
 31
0.0
  0
TEXT
  5
142B
330
1A
100
AcDbEntity
  8
MOJI
100
AcDbText
 10
463.246432004558
 20
11.94261758994866
 30
0.0
 40
5.599999999999999
  1
ＧＪ７８□
 41
0.9
  7
ｽﾀｲﾙ1
100
AcDbText
  0
LINE
  5
142C
330
1A
100
AcDbEntity
  8
ZUWAKU
100
AcDbLine
 10
447.6243639845472
 20
29.99999986828868
 30
0.0
 11
447.6243639845474
 21
0.7999998682887508
 31
0.0
  0
LINE
  5
142D
330
1A
100
AcDbEntity
  8
ZUWAKU
100
AcDbLine
 10
447.8243639845472
 20
29.99999986828868
 30
0.0
 11
447.8243639845475
 21
0.7999998682887508
 31
0.0
  0
LINE
  5
142E
330
1A
100
AcDbEntity
  8
ZUWAKU
100
AcDbLine
 10
447.4243639845474
 20
29.99999986828868
 30
0.0
 11
447.4243639845474
 21
0.7999998682887508
 31
0.0
  0
TEXT
  5
142F
330
1A
100
AcDbEntity
  8
MOJI
100
AcDbText
 10
528.0409079858689
 20
18.00492092569607
 30
0.0
 40
5.599999999999999
  1
Ａ３
 41
0.9
  7
ｽﾀｲﾙ1
100
AcDbText
  0
LINE
  5
1430
330
1A
100
AcDbEntity
  8
ZUWAKU
100
AcDbLine
 10
504.9991795116969
 20
29.99999986828868
 30
0.0
 11
504.999179511697
 21
0.7999998682887508
 31
0.0
  0
LINE
  5
1431
330
1A
100
AcDbEntity
  8
ZUWAKU
100
AcDbLine
 10
505.1991795116968
 20
29.99999986828868
 30
0.0
 11
505.1991795116971
 21
0.7999998682887508
 31
0.0
  0
LINE
  5
1432
330
1A
100
AcDbEntity
  8
ZUWAKU
100
AcDbLine
 10
504.799179511697
 20
29.99999986828868
 30
0.0
 11
504.799179511697
 21
0.7999998682887508
 31
0.0
  0
TEXT
  5
1433
330
1A
100
AcDbEntity
  8
ZUWAKU
100
AcDbText
 10
461.6981352414684
 20
2.908329108177895
 30
0.0
 40
3.0
  1
□には色品番が入ります
 41
0.9
  7
ｽﾀｲﾙ1
100
AcDbText
  0
TEXT
  5
1434
330
1A
100
AcDbEntity
  8
ZUWAKU
100
AcDbText
 10
506.6766245339067
 20
9.6553564066743
 30
0.0
 40
4.0
  1
縮尺
 41
0.9
  7
ｽﾀｲﾙ1
100
AcDbText
  0
TEXT
  5
1435
330
1A
100
AcDbEntity
  8
MOJI
100
AcDbText
 10
528.0409079858689
 20
3.204920925696104
 30
0.0
 40
5.599999999999999
  1
１/２
 41
0.9
  7
ｽﾀｲﾙ1
100
AcDbText
  0
TEXT
  5
1436
330
1A
100
AcDbEntity
  8
ZUWAKU
100
AcDbText
 10
449.3018090067569
 20
24.05535640667426
 30
0.0
 40
4.0
  1
品番
 41
0.9
  7
ｽﾀｲﾙ1
100
AcDbText
  0
TEXT
  5
1437
330
1A
100
AcDbEntity
  8
ZUWAKU
100
AcDbText
 10
506.6766245339065
 20
24.05535640667426
 30
0.0
 40
4.0
  1
用紙
 41
0.9
  7
ｽﾀｲﾙ1
100
AcDbText
  0
LINE
  5
1438
330
1A
100
AcDbEntity
  8
ZUWAKU
100
AcDbLine
 10
648.6172025237603
 20
29.99999986828868
 30
0.0
 11
648.6172025237606
 21
0.7999998682887508
 31
0.0
  0
LINE
  5
1439
330
1A
100
AcDbEntity
  8
ZUWAKU
100
AcDbLine
 10
648.8172025237604
 20
29.99999986828868
 30
0.0
 11
648.8172025237607
 21
0.7999998682887508
 31
0.0
  0
LINE
  5
143A
330
1A
100
AcDbEntity
  8
ZUWAKU
100
AcDbLine
 10
648.4172025237605
 20
29.99999986828868
 30
0.0
 11
648.4172025237605
 21
0.7999998682887508
 31
0.0
  0
LINE
  5
143B
330
1A
100
AcDbEntity
  8
ZUWAKU
100
AcDbLine
 10
552.7269557796683
 20
29.99999986828868
 30
0.0
 11
552.7269557796684
 21
0.7999998682887508
 31
0.0
  0
LINE
  5
143C
330
1A
100
AcDbEntity
  8
ZUWAKU
100
AcDbLine
 10
552.9269557796683
 20
29.99999986828868
 30
0.0
 11
552.9269557796685
 21
0.7999998682887508
 31
0.0
  0
LINE
  5
143D
330
1A
100
AcDbEntity
  8
ZUWAKU
100
AcDbLine
 10
552.5269557796685
 20
29.99999986828868
 30
0.0
 11
552.5269557796685
 21
0.7999998682887508
 31
0.0
  0
TEXT
  5
143E
330
1A
100
AcDbEntity
  8
ZUWAKU
100
AcDbText
 10
650.29464754597
 20
24.05535640667426
 30
0.0
 40
4.0
  1
DATE
 41
0.9
  7
ｽﾀｲﾙ1
100
AcDbText
  0
LINE
  5
143F
330
1A
100
AcDbEntity
  8
ZUWAKU
100
AcDbLine
 10
697.2490105620972
 20
29.99999986828868
 30
0.0
 11
697.2490105620972
 21
0.7999998682887508
 31
0.0
  0
LINE
  5
1440
330
1A
100
AcDbEntity
  8
ZUWAKU
100
AcDbLine
 10
697.4490105620973
 20
29.99999986828868
 30
0.0
 11
697.4490105620973
 21
0.7999998682887508
 31
0.0
  0
LINE
  5
1441
330
1A
100
AcDbEntity
  8
ZUWAKU
100
AcDbLine
 10
697.6490105620971
 20
29.99999986828868
 30
0.0
 11
697.6490105620974
 21
0.7999998682887508
 31
0.0
  0
LINE
  5
1442
330
1A
100
AcDbEntity
  8
ZUWAKU
100
AcDbLine
 10
697.8490105620972
 20
29.99999986828868
 30
0.0
 11
697.8490105620974
 21
0.7999998682887508
 31
0.0
  0
TEXT
  5
1443
330
1A
100
AcDbEntity
  8
ZUWAKU
100
AcDbText
 10
708.5280842057998
 20
17.55383920397548
 30
0.0
 40
6.0
  1
積水化学工業株式会社
 41
0.9
  7
ｽﾀｲﾙ1
100
AcDbText
  0
TEXT
  5
1444
330
1A
100
AcDbEntity
  8
ZUWAKU
100
AcDbText
 10
708.5280842057998
 20
6.648840182142748
 30
0.0
 40
6.0
  1
建材事業部
 41
0.9
  7
ｽﾀｲﾙ1
100
AcDbText
  0
TEXT
  5
2F74
330
1A
100
AcDbEntity
  8
SUNPOU
  6
CONTINUOUS
 62
     4
100
AcDbText
 10
670.7313264191348
 20
40.37625093035972
 30
0.0
 40
6.0
  1
※ のきといの差込み寸法を示す
100
AcDbText
  0
DIMENSION
  5
37F6
330
1A
100
AcDbEntity
  8
SUNPOU
100
AcDbDimension
  2
*D1
 10
379.7456469345761
 20
326.5263827501494
 30
0.0
 11
374.7456469345761
 21
310.5263827501495
 31
0.0
 70
    32
  1
※<>
  3
STANDARD
100
AcDbAlignedDimension
 13
430.8550170488605
 23
294.5263827501494
 33
0.0
 14
441.3615170488604
 24
326.5263827501494
 34
0.0
 50
90.0
100
AcDbRotatedDimension
1001
ACAD
1000
DSTYLE
1002
{
1070
   140
1040
6.0
1070
    74
1070
     0
1070
   172
1070
     1
1070
    73
1070
     0
1070
   272
1070
     2
1070
    77
1070
     3
1070
   173
1070
     1
1070
   147
1040
2.0
1070
    42
1040
6.0
1070
    44
1040
3.0
1070
    43
1040
14.0
1070
   271
1070
     0
1070
   178
1070
     4
1070
   177
1070
     4
1070
   176
1070
     4
1070
   141
1040
150.0
1070
     7
1000
_OPEN
1070
     6
1000
_OPEN
1070
    41
1040
7.0
1002
}
  0
DIMENSION
  5
37F7
330
1A
100
AcDbEntity
  8
SUNPOU
100
AcDbDimension
  2
*D2
 10
358.1604323536276
 20
294.5263827501495
 30
0.0
 11
353.1604323536275
 21
393.5269827501495
 31
0.0
 70
    32
  3
STANDARD
100
AcDbAlignedDimension
 13
417.7275170488611
 23
492.5275827501493
 33
0.0
 14
430.8548170488607
 24
294.5263827501494
 34
0.0
 50
90.0
100
AcDbRotatedDimension
1001
ACAD
1000
DSTYLE
1002
{
1070
   140
1040
6.0
1070
    74
1070
     0
1070
   172
1070
     1
1070
    73
1070
     0
1070
   272
1070
     2
1070
    77
1070
     3
1070
   173
1070
     1
1070
   147
1040
2.0
1070
    42
1040
6.0
1070
    44
1040
3.0
1070
    43
1040
14.0
1070
   271
1070
     0
1070
   178
1070
     4
1070
   177
1070
     4
1070
   176
1070
     4
1070
   141
1040
150.0
1070
     7
1000
_OPEN
1070
     6
1000
_OPEN
1070
    41
1040
7.0
1002
}
  0
DIMENSION
  5
37F8
330
1A
100
AcDbEntity
  8
SUNPOU
100
AcDbDimension
  2
*D3
 10
380.8331762678585
 20
104.6045510464499
 30
0.0
 11
375.8331762678585
 21
139.1045510464499
 31
0.0
 70
    32
  3
STANDARD
100
AcDbAlignedDimension
 13
417.7293170488606
 23
173.6045510464499
 33
0.0
 14
455.7012170488604
 24
104.6045510464498
 34
0.0
 50
90.0
100
AcDbRotatedDimension
1001
ACAD
1000
DSTYLE
1002
{
1070
   140
1040
6.0
1070
    74
1070
     0
1070
   172
1070
     1
1070
    73
1070
     0
1070
   272
1070
     2
1070
    77
1070
     3
1070
   173
1070
     1
1070
   147
1040
2.0
1070
    42
1040
6.0
1070
    44
1040
3.0
1070
    43
1040
14.0
1070
   271
1070
     0
1070
   178
1070
     4
1070
   177
1070
     4
1070
   176
1070
     4
1070
   141
1040
150.0
1070
     7
1000
_OPEN
1070
     6
1000
_OPEN
1070
    41
1040
7.0
1002
}
  0
ARC
  5
37F9
330
1A
100
AcDbEntity
  8
SEIHIN
  6
CONTINUOUS
 62
     3
 48
16.0
100
AcDbCircle
 10
335.9319440500864
 20
1143.156748056337
 30
0.0
 40
999.9999038005082
100
AcDbArc
 50
258.9773843844275
 51
268.3842322388901
  0
ARC
  5
37FA
330
1A
100
AcDbEntity
  8
SEIHIN
  6
CONTINUOUS
 62
     3
 48
16.0
100
AcDbCircle
 10
305.3837978801936
 20
1059.151690688479
 30
0.0
 40
900.0002129766443
100
AcDbArc
 50
259.7177448134535
 51
270.1497343257809
  0
ARC
  5
37FB
330
1A
100
AcDbEntity
  8
SEIHIN
  6
CONTINUOUS
 62
     3
 48
16.0
100
AcDbCircle
 10
329.8512633676547
 20
904.2987588392284
 30
0.0
 40
799.9998576710655
100
AcDbArc
 50
259.1481978585064
 51
268.4158742460219
  0
ARC
  5
37FC
330
1A
100
AcDbEntity
  8
SEIHIN
  6
CONTINUOUS
 62
     3
 48
16.0
100
AcDbCircle
 10
319.4191000514992
 20
916.3107317178043
 30
0.0
 40
800.0000044617548
100
AcDbArc
 50
258.7783953925309
 51
269.1631809357182
  0
LINE
  5
37FD
330
1A
100
AcDbEntity
  8
SEIHIN
  6
CONTINUOUS
 62
     3
 48
16.0
100
AcDbLine
 10
338.7370170488604
 20
104.6046510464499
 30
0.0
 11
227.2370170488606
 21
104.6047510464499
 31
0.0
  0
LINE
  5
37FE
330
1A
100
AcDbEntity
  8
SEIHIN
  6
CONTINUOUS
 62
     3
 48
16.0
100
AcDbLine
 10
179.2369170488605
 20
118.6046510464499
 30
0.0
 11
227.2370170488606
 21
104.6047510464499
 31
0.0
  0
LINE
  5
37FF
330
1A
100
AcDbEntity
  8
SEIHIN
  6
CONTINUOUS
 62
     3
 48
16.0
100
AcDbLine
 10
154.7369170488606
 20
159.7097510464498
 30
0.0
 11
163.7370170488606
 21
131.6048510464497
 31
0.0
  0
ARC
  5
3800
330
1A
100
AcDbEntity
  8
SEIHIN
  6
CONTINUOUS
 62
     3
 48
16.0
100
AcDbCircle
 10
140.0204703072285
 20
87.58752250417343
 30
0.0
 40
49.99999801346717
100
AcDbArc
 50
38.34115692940208
 51
61.68420257437434
  0
LINE
  5
3801
330
1A
100
AcDbEntity
  8
SEIHIN
  6
CONTINUOUS
 62
     3
 48
16.0
100
AcDbLine
 10
144.7369170488605
 20
161.6046510464498
 30
0.0
 11
144.7369170488605
 21
173.6046510464499
 31
0.0
  0
LINE
  5
3802
330
1A
100
AcDbEntity
  8
SEIHIN
  6
CONTINUOUS
 62
     3
 48
16.0
100
AcDbLine
 10
342.7370170488604
 20
160.1546510464498
 30
0.0
 11
322.7370170488605
 21
160.1546510464498
 31
0.0
  0
LINE
  5
3803
330
1A
100
AcDbEntity
  8
SEIHIN
  6
CONTINUOUS
 62
     3
 48
16.0
100
AcDbLine
 10
338.7370170488604
 20
116.3959510464497
 30
0.0
 11
307.7370170488604
 21
116.3959510464497
 31
0.0
  0
LINE
  5
3804
330
1A
100
AcDbEntity
  8
SEIHIN
  6
CONTINUOUS
 62
     3
 48
16.0
100
AcDbLine
 10
342.7370170488604
 20
143.5545510464498
 30
0.0
 11
307.7370170488604
 21
143.5546510464497
 31
0.0
  0
LINE
  5
3805
330
1A
100
AcDbEntity
  8
SEIHIN
  6
CONTINUOUS
 62
     3
 48
16.0
100
AcDbLine
 10
342.7370170488604
 20
159.1546510464498
 30
0.0
 11
307.7370170488604
 21
159.1546510464498
 31
0.0
  0
LINE
  5
3806
330
1A
100
AcDbEntity
  8
SEIHIN
  6
CONTINUOUS
 62
     3
 48
16.0
100
AcDbLine
 10
322.7369170488606
 20
159.1546510464498
 30
0.0
 11
322.7369170488606
 21
160.1546510464498
 31
0.0
  0
LINE
  5
3807
330
1A
100
AcDbEntity
  8
SEIHIN
  6
CONTINUOUS
 62
     3
 48
16.0
100
AcDbLine
 10
338.7369170488606
 20
104.6046510464499
 30
0.0
 11
338.7369170488606
 21
143.5545510464498
 31
0.0
  0
LINE
  5
3808
330
1A
100
AcDbEntity
  8
SEIHIN
  6
CONTINUOUS
 62
     3
 48
16.0
100
AcDbLine
 10
342.7370170488604
 20
105.3046510464498
 30
0.0
 11
342.7370170488604
 21
160.1546510464498
 31
0.0
  0
LINE
  5
3809
330
1A
100
AcDbEntity
  8
SEIHIN
  6
CONTINUOUS
 62
     3
 48
16.0
100
AcDbLine
 10
338.7370170488604
 20
104.6046510464499
 30
0.0
 11
342.7370170488604
 21
105.3046510464498
 31
0.0
  0
LINE
  5
380A
330
1A
100
AcDbEntity
  8
SEIHIN
  6
CONTINUOUS
 62
     3
 48
16.0
100
AcDbLine
 10
338.7370170488604
 20
116.3959510464497
 30
0.0
 11
342.7370170488604
 21
117.0959510464498
 31
0.0
  0
DIMENSION
  5
380B
330
1A
100
AcDbEntity
  8
SUNPOU
100
AcDbDimension
  2
*D4
 10
525.9332410852322
 20
74.09971999553
 30
0.0
 11
490.340169317972
 21
79.09971999553
 31
0.0
 70
    33
  3
STANDARD
100
AcDbAlignedDimension
 13
454.7470975507117
 23
104.6045510464499
 33
0.0
 14
525.9332410852322
 24
104.6045510464499
 34
0.0
1001
ACAD
1000
DSTYLE
1002
{
1070
   140
1040
6.0
1070
    74
1070
     0
1070
   172
1070
     1
1070
    73
1070
     0
1070
   272
1070
     2
1070
    77
1070
     3
1070
   173
1070
     1
1070
   147
1040
2.0
1070
    42
1040
6.0
1070
    44
1040
3.0
1070
    43
1040
14.0
1070
   271
1070
     0
1070
   178
1070
     4
1070
   177
1070
     4
1070
   176
1070
     4
1070
   141
1040
150.0
1070
     7
1000
_OPEN
1070
     6
1000
_OPEN
1070
    41
1040
7.0
1002
}
  0
DIMENSION
  5
380C
330
1A
100
AcDbEntity
  8
SUNPOU
100
AcDbDimension
  2
*D5
 10
606.6722106392041
 20
225.2530864786679
 30
0.0
 11
512.2007138440324
 21
230.2530864786679
 31
0.0
 70
    32
  3
STANDARD
100
AcDbAlignedDimension
 13
417.7292170488605
 23
173.6045510464498
 33
0.0
 14
606.6722106392041
 24
158.1545446361934
 34
0.0
100
AcDbRotatedDimension
1001
ACAD
1000
DSTYLE
1002
{
1070
   140
1040
6.0
1070
    74
1070
     0
1070
   172
1070
     1
1070
    73
1070
     0
1070
   272
1070
     2
1070
    77
1070
     3
1070
   173
1070
     1
1070
   147
1040
2.0
1070
    42
1040
6.0
1070
    44
1040
3.0
1070
    43
1040
14.0
1070
   271
1070
     0
1070
   178
1070
     4
1070
   177
1070
     4
1070
   176
1070
     4
1070
   141
1040
150.0
1070
     7
1000
_OPEN
1070
     6
1000
_OPEN
1070
    41
1040
7.0
1002
}
  0
DIMENSION
  5
380D
330
1A
100
AcDbEntity
  8
SUNPOU
100
AcDbDimension
  2
*D6
 10
549.8254170488604
 20
210.0491468524362
 30
0.0
 11
490.3401670488604
 21
215.0491468524362
 31
0.0
 70
    32
  3
STANDARD
100
AcDbAlignedDimension
 13
430.8549170488604
 23
158.1545510464498
 33
0.0
 14
549.8254170488604
 24
158.1545510464498
 34
0.0
100
AcDbRotatedDimension
1001
ACAD
1000
DSTYLE
1002
{
1070
   140
1040
6.0
1070
    74
1070
     0
1070
   172
1070
     1
1070
    73
1070
     0
1070
   272
1070
     2
1070
    77
1070
     3
1070
   173
1070
     1
1070
   147
1040
2.0
1070
    42
1040
6.0
1070
    44
1040
3.0
1070
    43
1040
14.0
1070
   271
1070
     0
1070
   178
1070
     4
1070
   177
1070
     4
1070
   176
1070
     4
1070
   141
1040
150.0
1070
     7
1000
_OPEN
1070
     6
1000
_OPEN
1070
    41
1040
7.0
1002
}
  0
ARC
  5
380E
330
1A
100
AcDbEntity
  8
SEIHIN
  6
CONTINUOUS
 62
     3
 48
16.0
100
AcDbCircle
 10
524.5274227468611
 20
106.1045561064243
 30
0.0
 40
1.000005059990717
100
AcDbArc
 50
269.9996735302607
 51
353.2115117195583
  0
ARC
  5
380F
330
1A
100
AcDbEntity
  8
SEIHIN
  6
CONTINUOUS
 62
     3
 48
16.0
100
AcDbCircle
 10
524.9790493501675
 20
105.6045807305688
 30
0.0
 40
1.000029684640585
100
AcDbArc
 50
269.9981493263672
 51
355.1626637339592
  0
ARC
  5
3810
330
1A
100
AcDbEntity
  8
SEIHIN
  6
CONTINUOUS
 62
     3
 48
16.0
100
AcDbCircle
 10
537.9328324091633
 20
104.5093680121892
 30
0.0
 40
12.49998135839305
100
AcDbArc
 50
102.472414932099
 51
173.2141453217686
  0
ARC
  5
3811
330
1A
100
AcDbEntity
  8
SEIHIN
  6
CONTINUOUS
 62
     3
 48
16.0
100
AcDbCircle
 10
537.9328432713627
 20
104.5093802787036
 30
0.0
 40
11.99997958750022
100
AcDbArc
 50
101.0458332262998
 51
175.1677126669357
  0
ARC
  5
3812
330
1A
100
AcDbEntity
  8
SEIHIN
  6
CONTINUOUS
 62
     3
 48
16.0
100
AcDbCircle
 10
537.9328243148755
 20
104.5093618255706
 30
0.0
 40
15.49996493093272
100
AcDbArc
 50
129.4742179802041
 51
162.559447060922
  0
ARC
  5
3813
330
1A
100
AcDbEntity
  8
SEIHIN
  6
CONTINUOUS
 62
     3
 48
16.0
100
AcDbCircle
 10
537.9328012885403
 20
104.5093340408571
 30
0.0
 40
13.99997191390941
100
AcDbArc
 50
106.2610236652427
 51
168.0917847032907
  0
ARC
  5
3814
330
1A
100
AcDbEntity
  8
SEIHIN
  6
CONTINUOUS
 62
     3
 48
16.0
100
AcDbCircle
 10
620.0912465178849
 20
1140.934747089521
 30
0.0
 40
997.9998751421003
100
AcDbArc
 50
260.1217657499755
 51
264.5830547674583
  0
ARC
  5
3815
330
1A
100
AcDbEntity
  8
SEIHIN
  6
CONTINUOUS
 62
     3
 48
16.0
100
AcDbCircle
 10
619.5367407113057
 20
911.5705630121942
 30
0.0
 40
798.0000580187935
100
AcDbArc
 50
257.4640720652042
 51
263.4500305674849
  0
ARC
  5
3816
330
1A
100
AcDbEntity
  8
SEIHIN
  6
CONTINUOUS
 62
     3
 48
16.0
100
AcDbCircle
 10
578.4571541422529
 20
1059.136699893743
 30
0.0
 40
899.9999408988514
100
AcDbArc
 50
261.5995675507442
 51
267.5194995514548
  0
LINE
  5
3817
330
1A
100
AcDbEntity
  8
SEIHIN
  6
CONTINUOUS
 62
     3
 48
16.0
100
AcDbLine
 10
596.9184170488606
 20
104.6045510464499
 30
0.0
 11
490.3401170488606
 21
104.6045510464499
 31
0.0
  0
LINE
  5
3818
330
1A
100
AcDbEntity
  8
SEIHIN
  6
CONTINUOUS
 62
     3
 48
16.0
100
AcDbLine
 10
458.9659170488605
 20
108.1045510464497
 30
0.0
 11
463.3395170488604
 21
108.1045510464497
 31
0.0
  0
ARC
  5
3819
330
1A
100
AcDbEntity
  8
SEIHIN
  6
CONTINUOUS
 62
     3
 48
16.0
100
AcDbCircle
 10
623.1547099490819
 20
898.4318150912477
 30
0.0
 40
797.9999525530616
100
AcDbArc
 50
257.6263526063204
 51
261.2569056910297
  0
LINE
  5
381A
330
1A
100
AcDbEntity
  8
SEIHIN
  6
CONTINUOUS
 62
     3
 48
16.0
100
AcDbLine
 10
456.1529170488604
 20
105.1045510464498
 30
0.0
 11
490.3401170488606
 21
105.1045510464498
 31
0.0
  0
LINE
  5
381B
330
1A
100
AcDbEntity
  8
SEIHIN
  6
CONTINUOUS
 62
     3
 48
16.0
100
AcDbLine
 10
455.7012170488604
 20
104.6045510464499
 30
0.0
 11
490.3401170488606
 21
104.6045510464499
 31
0.0
  0
LINE
  5
381C
330
1A
100
AcDbEntity
  8
SEIHIN
  6
CONTINUOUS
 62
     3
 48
16.0
100
AcDbLine
 10
457.4246170488606
 20
106.6045510464499
 30
0.0
 11
490.3401170488606
 21
106.6045510464499
 31
0.0
  0
ARC
  5
381D
330
1A
100
AcDbEntity
  8
SEIHIN
  6
CONTINUOUS
 62
     3
 48
16.0
100
AcDbCircle
 10
-449.4398694805255
 20
212.6784409845678
 30
0.0
 40
899.9999658606533
100
AcDbArc
 50
354.8855981368573
 51
356.4995850129652
  0
LINE
  5
381E
330
1A
100
AcDbEntity
  8
SEIHIN
  6
CONTINUOUS
 62
     3
 48
16.0
100
AcDbLine
 10
446.9774170488604
 20
168.7923510464498
 30
0.0
 11
446.9773170488606
 21
132.4509510464497
 31
0.0
  0
LINE
  5
381F
330
1A
100
AcDbEntity
  8
SEIHIN
  6
CONTINUOUS
 62
     3
 48
16.0
100
AcDbLine
 10
444.9679170488606
 20
159.1545510464498
 30
0.0
 11
444.9678170488606
 21
139.3525510464499
 31
0.0
  0
LINE
  5
3820
330
1A
100
AcDbEntity
  8
SEIHIN
  6
CONTINUOUS
 62
     3
 48
16.0
100
AcDbLine
 10
433.8172170488607
 20
143.5545510464498
 30
0.0
 11
436.2368170488606
 21
131.5545510464497
 31
0.0
  0
LINE
  5
3821
330
1A
100
AcDbEntity
  8
SEIHIN
  6
CONTINUOUS
 62
     3
 48
16.0
100
AcDbLine
 10
444.6828170488604
 20
117.4930510464498
 30
0.0
 11
439.5897170488606
 21
142.7521510464498
 31
0.0
  0
LINE
  5
3822
330
1A
100
AcDbEntity
  8
SEIHIN
  6
CONTINUOUS
 62
     3
 48
16.0
100
AcDbLine
 10
439.0796170488605
 20
142.7521510464498
 30
0.0
 11
444.2579170488604
 21
117.0708510464498
 31
0.0
  0
LINE
  5
3823
330
1A
100
AcDbEntity
  8
SEIHIN
  6
CONTINUOUS
 62
     3
 48
16.0
100
AcDbLine
 10
440.7167170488604
 20
144.7521510464498
 30
0.0
 11
445.9674170488606
 21
118.7116510464498
 31
0.0
  0
ARC
  5
3824
330
1A
100
AcDbEntity
  8
SEIHIN
  6
CONTINUOUS
 62
     3
 48
16.0
100
AcDbCircle
 10
449.2456191022184
 20
120.2184466546988
 30
0.0
 40
1.500016983237877
100
AcDbArc
 50
162.590467991235
 51
247.5260274199921
  0
ARC
  5
3825
330
1A
100
AcDbEntity
  8
SEIHIN
  6
CONTINUOUS
 62
     3
 48
16.0
100
AcDbCircle
 10
442.7474703912158
 20
104.5093251316503
 30
0.0
 40
17.10003891642827
100
AcDbArc
 50
55.58786173657932
 51
72.58968536595043
  0
LINE
  5
3826
330
1A
100
AcDbEntity
  8
SEIHIN
  6
CONTINUOUS
 62
     3
 48
16.0
100
AcDbLine
 10
446.6916170488604
 20
126.4822510464499
 30
0.0
 11
452.4114170488607
 21
118.6167510464498
 31
0.0
  0
ARC
  5
3827
330
1A
100
AcDbEntity
  8
SEIHIN
  6
CONTINUOUS
 62
     3
 48
16.0
100
AcDbCircle
 10
442.7474467341717
 20
104.5093182581845
 30
0.0
 40
12.50004180675591
100
AcDbArc
 50
6.786051372234455
 51
77.527388373898
  0
ARC
  5
3828
330
1A
100
AcDbEntity
  8
SEIHIN
  6
CONTINUOUS
 62
     3
 48
16.0
100
AcDbCircle
 10
442.7474460289659
 20
104.5093187400592
 30
0.0
 40
12.00002940977714
100
AcDbArc
 50
4.832562095275042
 51
78.95448175830664
  0
ARC
  5
3829
330
1A
100
AcDbEntity
  8
SEIHIN
  6
CONTINUOUS
 62
     3
 48
16.0
100
AcDbCircle
 10
442.7474142853442
 20
104.5093540283408
 30
0.0
 40
13.99998591481464
100
AcDbArc
 50
11.90811961416437
 51
73.73848776833118
  0
ARC
  5
382A
330
1A
100
AcDbEntity
  8
SEIHIN
  6
CONTINUOUS
 62
     3
 48
16.0
100
AcDbCircle
 10
456.15291135086
 20
106.1045561064241
 30
0.0
 40
1.000005059990518
100
AcDbArc
 50
186.7884882804316
 51
270.0003264697294
  0
ARC
  5
382B
330
1A
100
AcDbEntity
  8
SEIHIN
  6
CONTINUOUS
 62
     3
 48
16.0
100
AcDbCircle
 10
455.7012389624693
 20
105.6045309085443
 30
0.0
 40
0.9999798623345398
100
AcDbArc
 50
184.8347130040232
 51
269.9987444174133
  0
ARC
  5
382C
330
1A
100
AcDbEntity
  8
SEIHIN
  6
CONTINUOUS
 62
     3
 48
16.0
100
AcDbCircle
 10
457.4245975656372
 20
107.6045668487001
 30
0.0
 40
1.000015802440088
100
AcDbArc
 50
191.9122003293637
 51
270.0011162888368
  0
ARC
  5
382D
330
1A
100
AcDbEntity
  8
SEIHIN
  6
CONTINUOUS
 62
     3
 48
16.0
100
AcDbCircle
 10
451.0798639707249
 20
119.3272386770419
 30
0.0
 40
1.500037312956684
100
AcDbArc
 50
240.6493996854419
 51
325.5899982317948
  0
ARC
  5
382E
330
1A
100
AcDbEntity
  8
SEIHIN
  6
CONTINUOUS
 62
     3
 48
16.0
100
AcDbCircle
 10
445.2381730223772
 20
117.2684954209272
 30
0.0
 40
0.9999825360364877
100
AcDbArc
 50
191.3994439066868
 51
258.9503638869942
  0
ARC
  5
382F
330
1A
100
AcDbEntity
  8
SEIHIN
  6
CONTINUOUS
 62
     3
 48
16.0
100
AcDbCircle
 10
445.6630976549834
 20
117.6907708066397
 30
0.0
 40
1.000021584922231
100
AcDbArc
 50
191.403398949242
 51
257.5272098992541
  0
ARC
  5
3830
330
1A
100
AcDbEntity
  8
SEIHIN
  6
CONTINUOUS
 62
     3
 48
16.0
100
AcDbCircle
 10
446.9477242892233
 20
118.9092431630578
 30
0.0
 40
1.000022464774318
100
AcDbArc
 50
191.395928330156
 51
253.7337703118288
  0
ARC
  5
3831
330
1A
100
AcDbEntity
  8
SEIHIN
  6
CONTINUOUS
 62
     3
 48
16.0
100
AcDbCircle
 10
442.747003802894
 20
104.5095518108113
 30
0.0
 40
15.50002354690424
100
AcDbArc
 50
60.64796132060215
 51
67.52556027040444
  0
ARC
  5
3832
330
1A
100
AcDbEntity
  8
SEIHIN
  6
CONTINUOUS
 62
     3
 48
16.0
100
AcDbCircle
 10
458.9659394920615
 20
109.6045345729356
 30
0.0
 40
1.499983526653739
100
AcDbArc
 50
197.4411253358442
 51
269.9991427234518
  0
ARC
  5
3833
330
1A
100
AcDbEntity
  8
SEIHIN
  6
CONTINUOUS
 62
     3
 48
16.0
100
AcDbCircle
 10
453.554821914044
 20
117.6318166807864
 30
0.0
 40
1.499941450559355
100
AcDbArc
 50
145.5853260024916
 51
230.5284701497721
  0
LINE
  5
3834
330
1A
100
AcDbEntity
  8
SEIHIN
  6
CONTINUOUS
 62
     3
 48
16.0
100
AcDbLine
 10
452.3174170488606
 20
118.4795510464497
 30
0.0
 11
452.4114170488607
 21
118.6167510464498
 31
0.0
  0
ARC
  5
3835
330
1A
100
AcDbEntity
  8
SEIHIN
  6
CONTINUOUS
 62
     3
 48
16.0
100
AcDbCircle
 10
442.7474410251943
 20
104.5093154773341
 30
0.0
 40
15.50004441901806
100
AcDbArc
 50
17.44064021234951
 51
50.52569474652027
  0
ARC
  5
3836
330
1A
100
AcDbEntity
  8
SEIHIN
  6
CONTINUOUS
 62
     3
 48
16.0
100
AcDbCircle
 10
444.7223170488606
 20
140.0643510464497
 30
0.0
 40
1.499996136661755
100
AcDbArc
 50
101.4005748684421
 51
191.4005748684388
  0
LINE
  5
3837
330
1A
100
AcDbEntity
  8
SEIHIN
  6
CONTINUOUS
 62
     3
 48
16.0
100
AcDbLine
 10
441.3615170488604
 20
141.5545510464498
 30
0.0
 11
444.5238170488607
 21
141.5545510464498
 31
0.0
  0
LINE
  5
3838
330
1A
100
AcDbEntity
  8
SEIHIN
  6
CONTINUOUS
 62
     3
 48
16.0
100
AcDbLine
 10
436.2368170488606
 20
131.5545510464497
 30
0.0
 11
443.2944170488606
 21
121.8493510464498
 31
0.0
  0
LINE
  5
3839
330
1A
100
AcDbEntity
  8
SEIHIN
  6
CONTINUOUS
 62
     3
 48
16.0
100
AcDbLine
 10
443.2519170488604
 20
139.7678510464497
 30
0.0
 11
445.6238170488607
 21
128.0046510464498
 31
0.0
  0
LINE
  5
383A
330
1A
100
AcDbEntity
  8
SEIHIN
  6
CONTINUOUS
 62
     3
 48
16.0
100
AcDbLine
 10
444.5238170488607
 20
141.5545510464498
 30
0.0
 11
447.4887170488606
 21
126.8504510464498
 31
0.0
  0
ARC
  5
383B
330
1A
100
AcDbEntity
  8
SEIHIN
  6
CONTINUOUS
 62
     3
 48
16.0
100
AcDbCircle
 10
448.3127788756087
 20
122.2571934523414
 30
0.0
 40
1.499947332931663
100
AcDbArc
 50
191.3987064970514
 51
252.5913377193659
  0
ARC
  5
383C
330
1A
100
AcDbEntity
  8
SEIHIN
  6
CONTINUOUS
 62
     3
 48
16.0
100
AcDbCircle
 10
447.6872170488605
 20
125.3602510464497
 30
0.0
 40
1.499996136661816
100
AcDbArc
 50
101.4005748684421
 51
191.4005748684415
  0
LINE
  5
383D
330
1A
100
AcDbEntity
  8
SEIHIN
  6
CONTINUOUS
 62
     3
 48
16.0
100
AcDbLine
 10
447.8142170488605
 20
120.6672510464499
 30
0.0
 11
447.8640170488606
 21
120.8259510464497
 31
0.0
  0
LINE
  5
383E
330
1A
100
AcDbEntity
  8
SEIHIN
  6
CONTINUOUS
 62
     3
 48
16.0
100
AcDbLine
 10
446.2167170488607
 20
125.0637510464498
 30
0.0
 11
446.8424170488606
 21
121.9607510464498
 31
0.0
  0
LINE
  5
383F
330
1A
100
AcDbEntity
  8
SEIHIN
  6
CONTINUOUS
 62
     3
 48
16.0
100
AcDbLine
 10
447.3907170488606
 20
126.8306510464499
 30
0.0
 11
447.4887170488606
 21
126.8504510464498
 31
0.0
  0
ARC
  5
3840
330
1A
100
AcDbEntity
  8
SEIHIN
  6
CONTINUOUS
 62
     3
 48
16.0
100
AcDbCircle
 10
447.0942286883087
 20
128.3010433128391
 30
0.0
 40
1.499986254937
100
AcDbArc
 50
191.3964530228506
 51
281.4001974343292
  0
LINE
  5
3841
330
1A
100
AcDbEntity
  8
SEIHIN
  6
CONTINUOUS
 62
     3
 48
16.0
100
AcDbLine
 10
444.4258170488605
 20
141.5347510464497
 30
0.0
 11
444.5238170488607
 21
141.5544510464497
 31
0.0
  0
ARC
  5
3842
330
1A
100
AcDbEntity
  8
SEIHIN
  6
CONTINUOUS
 62
     3
 48
16.0
100
AcDbCircle
 10
-241.8635380227335
 20
-438.7165964858951
 30
0.0
 40
901.9999131399485
100
AcDbArc
 50
41.51591461709021
 51
42.70295471247751
  0
ARC
  5
3843
330
1A
100
AcDbEntity
  8
SEIHIN
  6
CONTINUOUS
 62
     3
 48
16.0
100
AcDbCircle
 10
-241.8660812401079
 20
-438.7137812671485
 30
0.0
 40
899.9999052951558
100
AcDbArc
 50
41.60204353818907
 51
42.87129439319824
  0
ARC
  5
3844
330
1A
100
AcDbEntity
  8
SEIHIN
  6
CONTINUOUS
 62
     3
 48
16.0
100
AcDbCircle
 10
-368.0566398433169
 20
-456.8940926490666
 30
0.0
 40
999.9999925724836
100
AcDbArc
 50
36.97369134685013
 51
38.20658051845482
  0
ARC
  5
3845
330
1A
100
AcDbEntity
  8
SEIHIN
  6
CONTINUOUS
 62
     3
 48
16.0
100
AcDbCircle
 10
578.4599591460181
 20
1059.136201003719
 30
0.0
 40
899.9999181605225
100
AcDbArc
 50
259.712289568436
 51
261.5953519095276
  0
LINE
  5
3846
330
1A
100
AcDbEntity
  8
SEIHIN
  6
CONTINUOUS
 62
     3
 48
16.0
100
AcDbLine
 10
417.7292170488605
 20
173.6045510464498
 30
0.0
 11
417.7291170488605
 21
161.6045510464499
 31
0.0
  0
LINE
  5
3847
330
1A
100
AcDbEntity
  8
SEIHIN
  6
CONTINUOUS
 62
     3
 48
16.0
100
AcDbLine
 10
447.3413170488607
 20
168.3070510464498
 30
0.0
 11
447.3412170488606
 21
154.7812510464498
 31
0.0
  0
LINE
  5
3848
330
1A
100
AcDbEntity
  8
SEIHIN
  6
CONTINUOUS
 62
     3
 48
16.0
100
AcDbLine
 10
437.2069170488606
 20
167.9652510464498
 30
0.0
 11
437.2069170488606
 21
159.1545510464498
 31
0.0
  0
LINE
  5
3849
330
1A
100
AcDbEntity
  8
SEIHIN
  6
CONTINUOUS
 62
     3
 48
16.0
100
AcDbLine
 10
434.7112170488607
 20
169.6950510464498
 30
0.0
 11
434.7112170488607
 21
159.1545510464498
 31
0.0
  0
LINE
  5
384A
330
1A
100
AcDbEntity
  8
SEIHIN
  6
CONTINUOUS
 62
     3
 48
16.0
100
AcDbLine
 10
435.6979170488606
 20
166.9652510464498
 30
0.0
 11
435.6979170488606
 21
159.1545510464498
 31
0.0
  0
LINE
  5
384B
330
1A
100
AcDbEntity
  8
SEIHIN
  6
CONTINUOUS
 62
     3
 48
16.0
100
AcDbLine
 10
438.6987170488606
 20
170.0542510464499
 30
0.0
 11
438.6986170488604
 21
159.6111510464498
 31
0.0
  0
ARC
  5
384C
330
1A
100
AcDbEntity
  8
SEIHIN
  6
CONTINUOUS
 62
     3
 48
16.0
100
AcDbCircle
 10
443.532063001356
 20
158.1545141478112
 30
0.0
 40
1.00003690009911
100
AcDbArc
 50
89.99690342035851
 51
158.6401991538614
  0
LINE
  5
384D
330
1A
100
AcDbEntity
  8
SEIHIN
  6
CONTINUOUS
 62
     3
 48
16.0
100
AcDbLine
 10
442.5321170488605
 20
145.1459510464498
 30
0.0
 11
443.4668170488605
 21
144.3844510464499
 31
0.0
  0
LINE
  5
384E
330
1A
100
AcDbEntity
  8
SEIHIN
  6
CONTINUOUS
 62
     3
 48
16.0
100
AcDbLine
 10
440.9649170488607
 20
144.3844510464499
 30
0.0
 11
443.4668170488605
 21
144.3844510464499
 31
0.0
  0
LINE
  5
384F
330
1A
100
AcDbEntity
  8
SEIHIN
  6
CONTINUOUS
 62
     3
 48
16.0
100
AcDbLine
 10
442.5321170488605
 20
156.6227510464499
 30
0.0
 11
442.5320170488605
 21
145.1459510464498
 31
0.0
  0
LINE
  5
3850
330
1A
100
AcDbEntity
  8
SEIHIN
  6
CONTINUOUS
 62
     3
 48
16.0
100
AcDbLine
 10
433.1830170488605
 20
156.8951510464498
 30
0.0
 11
433.1830170488605
 21
153.2303510464499
 31
0.0
  0
LINE
  5
3851
330
1A
100
AcDbEntity
  8
SEIHIN
  6
CONTINUOUS
 62
     3
 48
16.0
100
AcDbLine
 10
434.0203170488606
 20
155.1569510464499
 30
0.0
 11
434.0203170488606
 21
147.8446510464498
 31
0.0
  0
LINE
  5
3852
330
1A
100
AcDbEntity
  8
SEIHIN
  6
CONTINUOUS
 62
     3
 48
16.0
100
AcDbLine
 10
434.9603170488607
 20
154.3870510464498
 30
0.0
 11
434.9603170488607
 21
146.4707510464497
 31
0.0
  0
LINE
  5
3853
330
1A
100
AcDbEntity
  8
SEIHIN
  6
CONTINUOUS
 62
     3
 48
16.0
100
AcDbLine
 10
430.8549170488604
 20
144.5545510464498
 30
0.0
 11
430.8549170488604
 21
158.1545510464498
 31
0.0
  0
LINE
  5
3854
330
1A
100
AcDbEntity
  8
SEIHIN
  6
CONTINUOUS
 62
     3
 48
16.0
100
AcDbLine
 10
431.8549170488604
 20
145.5545510464498
 30
0.0
 11
431.8549170488604
 21
157.1545510464498
 31
0.0
  0
LINE
  5
3855
330
1A
100
AcDbEntity
  8
SEIHIN
  6
CONTINUOUS
 62
     3
 48
16.0
100
AcDbLine
 10
432.8549170488606
 20
146.5545510464498
 30
0.0
 11
432.8549170488606
 21
156.1545510464498
 31
0.0
  0
ARC
  5
3856
330
1A
100
AcDbEntity
  8
SEIHIN
  6
CONTINUOUS
 62
     3
 48
16.0
100
AcDbCircle
 10
437.9649170488606
 20
152.1568510464499
 30
0.0
 40
3.0
100
AcDbArc
 50
0.0
 51
90.0
  0
ARC
  5
3857
330
1A
100
AcDbEntity
  8
SEIHIN
  6
CONTINUOUS
 62
     3
 48
16.0
100
AcDbCircle
 10
437.9649170488606
 20
151.3870510464498
 30
0.0
 40
3.0
100
AcDbArc
 50
0.0
 51
90.0
  0
LINE
  5
3858
330
1A
100
AcDbEntity
  8
SEIHIN
  6
CONTINUOUS
 62
     3
 48
16.0
100
AcDbLine
 10
432.8549170488606
 20
144.5545510464498
 30
0.0
 11
439.9381170488607
 21
144.5545510464498
 31
0.0
  0
LINE
  5
3859
330
1A
100
AcDbEntity
  8
SEIHIN
  6
CONTINUOUS
 62
     3
 48
16.0
100
AcDbLine
 10
433.8549170488606
 20
145.5545510464498
 30
0.0
 11
439.7364170488606
 21
145.5545510464498
 31
0.0
  0
LINE
  5
385A
330
1A
100
AcDbEntity
  8
SEIHIN
  6
CONTINUOUS
 62
     3
 48
16.0
100
AcDbLine
 10
434.0203170488606
 20
147.8446510464498
 30
0.0
 11
434.9603170488607
 21
146.4706510464498
 31
0.0
  0
LINE
  5
385B
330
1A
100
AcDbEntity
  8
SEIHIN
  6
CONTINUOUS
 62
     3
 48
16.0
100
AcDbLine
 10
431.8549170488604
 20
143.5545510464498
 30
0.0
 11
438.6094170488607
 21
143.5545510464498
 31
0.0
  0
ARC
  5
385C
330
1A
100
AcDbEntity
  8
SEIHIN
  6
CONTINUOUS
 62
     3
 48
16.0
100
AcDbCircle
 10
-235.056017206944
 20
-452.6250422467066
 30
0.0
 40
901.9999637584286
100
AcDbArc
 50
42.11759599569531
 51
42.19684001213419
  0
ARC
  5
385D
330
1A
100
AcDbEntity
  8
SEIHIN
  6
CONTINUOUS
 62
     3
 48
16.0
100
AcDbCircle
 10
433.8549170488606
 20
146.5545510464498
 30
0.0
 40
1.0
100
AcDbArc
 50
180.0
 51
270.0
  0
ARC
  5
385E
330
1A
100
AcDbEntity
  8
SEIHIN
  6
CONTINUOUS
 62
     3
 48
16.0
100
AcDbCircle
 10
431.8549170488604
 20
144.5545510464498
 30
0.0
 40
0.9999999999999431
100
AcDbArc
 50
180.0000000000024
 51
270.0000000000032
  0
ARC
  5
385F
330
1A
100
AcDbEntity
  8
SEIHIN
  6
CONTINUOUS
 62
     3
 48
16.0
100
AcDbCircle
 10
432.8549170488606
 20
145.5545510464499
 30
0.0
 40
1.000000000000113
100
AcDbArc
 50
180.0000000000024
 51
270.0000000000032
  0
LINE
  5
3860
330
1A
100
AcDbEntity
  8
SEIHIN
  6
CONTINUOUS
 62
     3
 48
16.0
100
AcDbLine
 10
440.9649170488607
 20
145.1459510464498
 30
0.0
 11
442.5321170488605
 21
145.1459510464498
 31
0.0
  0
LINE
  5
3861
330
1A
100
AcDbEntity
  8
SEIHIN
  6
CONTINUOUS
 62
     3
 48
16.0
100
AcDbLine
 10
440.9649170488607
 20
151.3870510464498
 30
0.0
 11
440.9649170488607
 21
143.5216510464499
 31
0.0
  0
LINE
  5
3862
330
1A
100
AcDbEntity
  8
SEIHIN
  6
CONTINUOUS
 62
     3
 48
16.0
100
AcDbLine
 10
440.9649170488607
 20
152.1568510464499
 30
0.0
 11
440.9649170488607
 21
144.3844510464499
 31
0.0
  0
LINE
  5
3863
330
1A
100
AcDbEntity
  8
SEIHIN
  6
CONTINUOUS
 62
     3
 48
16.0
100
AcDbLine
 10
434.9603170488607
 20
146.4706510464498
 30
0.0
 11
439.2495170488605
 21
146.4706510464498
 31
0.0
  0
ARC
  5
3864
330
1A
100
AcDbEntity
  8
SEIHIN
  6
CONTINUOUS
 62
     3
 48
16.0
100
AcDbCircle
 10
438.6094273872749
 20
142.5545425840215
 30
0.0
 40
1.00000846248182
100
AcDbArc
 50
11.39704541169439
 51
90.00059234248977
  0
ARC
  5
3865
330
1A
100
AcDbEntity
  8
SEIHIN
  6
CONTINUOUS
 62
     3
 48
16.0
100
AcDbCircle
 10
-235.0545089249429
 20
-452.6270961282297
 30
0.0
 40
901.9998838554233
100
AcDbArc
 50
41.53519324849868
 51
41.62006519197102
  0
ARC
  5
3866
330
1A
100
AcDbEntity
  8
SEIHIN
  6
CONTINUOUS
 62
     3
 48
16.0
100
AcDbCircle
 10
438.0993273872746
 20
142.5545425840215
 30
0.0
 40
1.00000846248182
100
AcDbArc
 50
11.39704541169439
 51
90.00059234248977
  0
ARC
  5
3867
330
1A
100
AcDbEntity
  8
SEIHIN
  6
CONTINUOUS
 62
     3
 48
16.0
100
AcDbCircle
 10
439.7364273872747
 20
144.5545425840215
 30
0.0
 40
1.000008462481767
100
AcDbArc
 50
11.39704541168768
 51
90.00059234248162
  0
ARC
  5
3868
330
1A
100
AcDbEntity
  8
SEIHIN
  6
CONTINUOUS
 62
     3
 48
16.0
100
AcDbCircle
 10
439.9380675065627
 20
143.5545915980942
 30
0.0
 40
0.9999594495828214
100
AcDbArc
 50
11.39474662678096
 51
89.99716132030455
  0
LINE
  5
3869
330
1A
100
AcDbEntity
  8
SEIHIN
  6
CONTINUOUS
 62
     3
 48
16.0
100
AcDbLine
 10
434.0202170488606
 20
155.1569510464499
 30
0.0
 11
437.9649170488606
 21
155.1569510464499
 31
0.0
  0
LINE
  5
386A
330
1A
100
AcDbEntity
  8
SEIHIN
  6
CONTINUOUS
 62
     3
 48
16.0
100
AcDbLine
 10
432.8549170488606
 20
158.1545510464498
 30
0.0
 11
440.2549170488606
 21
158.1545510464498
 31
0.0
  0
LINE
  5
386B
330
1A
100
AcDbEntity
  8
SEIHIN
  6
CONTINUOUS
 62
     3
 48
16.0
100
AcDbLine
 10
433.8549170488606
 20
157.1545510464498
 30
0.0
 11
440.2549170488606
 21
157.1545510464498
 31
0.0
  0
LINE
  5
386C
330
1A
100
AcDbEntity
  8
SEIHIN
  6
CONTINUOUS
 62
     3
 48
16.0
100
AcDbLine
 10
434.0202170488606
 20
155.1569510464499
 30
0.0
 11
434.9603170488607
 21
154.3870510464498
 31
0.0
  0
LINE
  5
386D
330
1A
100
AcDbEntity
  8
SEIHIN
  6
CONTINUOUS
 62
     3
 48
16.0
100
AcDbLine
 10
431.8549170488604
 20
159.1545510464498
 30
0.0
 11
438.2549170488606
 21
159.1545510464498
 31
0.0
  0
LINE
  5
386E
330
1A
100
AcDbEntity
  8
SEIHIN
  6
CONTINUOUS
 62
     3
 48
16.0
100
AcDbLine
 10
430.1830170488606
 20
163.1160510464498
 30
0.0
 11
430.0006170488607
 21
163.1160510464498
 31
0.0
  0
ARC
  5
386F
330
1A
100
AcDbEntity
  8
SEIHIN
  6
CONTINUOUS
 62
     3
 48
16.0
100
AcDbCircle
 10
620.1060123454936
 20
1140.931941841339
 30
0.0
 40
997.9999133981388
100
AcDbArc
 50
259.2024512338911
 51
259.2940971609051
  0
ARC
  5
3870
330
1A
100
AcDbEntity
  8
SEIHIN
  6
CONTINUOUS
 62
     3
 48
16.0
100
AcDbCircle
 10
433.8549170488606
 20
156.1545510464498
 30
0.0
 40
1.0
100
AcDbArc
 50
90.0
 51
180.0
  0
LINE
  5
3871
330
1A
100
AcDbEntity
  8
SEIHIN
  6
CONTINUOUS
 62
     3
 48
16.0
100
AcDbLine
 10
434.7112170488607
 20
157.1545510464498
 30
0.0
 11
434.7112170488607
 21
155.1569510464499
 31
0.0
  0
LINE
  5
3872
330
1A
100
AcDbEntity
  8
SEIHIN
  6
CONTINUOUS
 62
     3
 48
16.0
100
AcDbLine
 10
433.1830170488605
 20
160.1160510464498
 30
0.0
 11
433.1830170488605
 21
159.5443510464498
 31
0.0
  0
ARC
  5
3873
330
1A
100
AcDbEntity
  8
SEIHIN
  6
CONTINUOUS
 62
     3
 48
16.0
100
AcDbCircle
 10
431.8549170488604
 20
158.1545510464498
 30
0.0
 40
1.0
100
AcDbArc
 50
90.0
 51
180.0
  0
ARC
  5
3874
330
1A
100
AcDbEntity
  8
SEIHIN
  6
CONTINUOUS
 62
     3
 48
16.0
100
AcDbCircle
 10
432.8549170488606
 20
157.1545510464497
 30
0.0
 40
1.000000000000085
100
AcDbArc
 50
89.99999999999511
 51
179.9999999999951
  0
ARC
  5
3875
330
1A
100
AcDbEntity
  8
SEIHIN
  6
CONTINUOUS
 62
     3
 48
16.0
100
AcDbCircle
 10
430.1830170488605
 20
160.1160510464499
 30
0.0
 40
2.999999999999914
100
AcDbArc
 50
359.9999999999983
 51
89.99999999999836
  0
ARC
  5
3876
330
1A
100
AcDbEntity
  8
SEIHIN
  6
CONTINUOUS
 62
     3
 48
16.0
100
AcDbCircle
 10
430.1830170488605
 20
159.9160510464499
 30
0.0
 40
2.999999999999914
100
AcDbArc
 50
359.9999999999983
 51
89.99999999999836
  0
LINE
  5
3877
330
1A
100
AcDbEntity
  8
SEIHIN
  6
CONTINUOUS
 62
     3
 48
16.0
100
AcDbLine
 10
434.9603170488607
 20
154.3870510464498
 30
0.0
 11
437.9649170488606
 21
154.3870510464498
 31
0.0
  0
LINE
  5
3878
330
1A
100
AcDbEntity
  8
SEIHIN
  6
CONTINUOUS
 62
     3
 48
16.0
100
AcDbLine
 10
435.6979170488606
 20
157.1545510464498
 30
0.0
 11
435.6979170488606
 21
155.1569510464499
 31
0.0
  0
ARC
  5
3879
330
1A
100
AcDbEntity
  8
SEIHIN
  6
CONTINUOUS
 62
     3
 48
16.0
100
AcDbCircle
 10
620.1730757305631
 20
1140.919556176756
 30
0.0
 40
997.9999851353921
100
AcDbArc
 50
259.4359643176679
 51
259.5229978984138
  0
LINE
  5
387A
330
1A
100
AcDbEntity
  8
SEIHIN
  6
CONTINUOUS
 62
     3
 48
16.0
100
AcDbLine
 10
437.2069170488606
 20
157.1545510464498
 30
0.0
 11
437.2069170488606
 21
155.1569510464499
 31
0.0
  0
LINE
  5
387B
330
1A
100
AcDbEntity
  8
SEIHIN
  6
CONTINUOUS
 62
     3
 48
16.0
100
AcDbLine
 10
438.6986170488604
 20
157.1545510464498
 30
0.0
 11
438.6986170488604
 21
155.0657510464498
 31
0.0
  0
LINE
  5
387C
330
1A
100
AcDbEntity
  8
SEIHIN
  6
CONTINUOUS
 62
     3
 48
16.0
100
AcDbLine
 10
440.2549170488606
 20
155.1545510464498
 30
0.0
 11
440.2549170488606
 21
158.1545510464498
 31
0.0
  0
ARC
  5
387D
330
1A
100
AcDbEntity
  8
SEIHIN
  6
CONTINUOUS
 62
     3
 48
16.0
100
AcDbCircle
 10
440.2549170488606
 20
157.6545510464498
 30
0.0
 40
2.5
100
AcDbArc
 50
270.0
 51
143.1301023541566
  0
LINE
  5
387E
330
1A
100
AcDbEntity
  8
SEIHIN
  6
CONTINUOUS
 62
     3
 48
16.0
100
AcDbLine
 10
443.4668170488605
 20
158.1545510464498
 30
0.0
 11
443.4667170488604
 21
144.3845510464498
 31
0.0
  0
ARC
  5
387F
330
1A
100
AcDbEntity
  8
SEIHIN
  6
CONTINUOUS
 62
     3
 48
16.0
100
AcDbCircle
 10
447.5340942498657
 20
163.9545525286287
 30
0.0
 40
0.9999567893673281
100
AcDbArc
 50
81.09309267259293
 51
101.1153894479949
  0
ARC
  5
3880
330
1A
100
AcDbEntity
  8
SEIHIN
  6
CONTINUOUS
 62
     3
 48
16.0
100
AcDbCircle
 10
448.9503270812598
 20
163.7337596425173
 30
0.0
 40
1.000010032436308
100
AcDbArc
 50
81.18245573623971
 51
180.0004925134435
  0
ARC
  5
3881
330
1A
100
AcDbEntity
  8
SEIHIN
  6
CONTINUOUS
 62
     3
 48
16.0
100
AcDbCircle
 10
587.8493915102261
 20
1059.023323259282
 30
0.0
 40
905.0002478968362
100
AcDbArc
 50
261.090449349146
 51
261.2008037059904
  0
LINE
  5
3882
330
1A
100
AcDbEntity
  8
SEIHIN
  6
CONTINUOUS
 62
     3
 48
16.0
100
AcDbLine
 10
443.5321170488606
 20
159.1545510464498
 30
0.0
 11
444.9679170488606
 21
159.1545510464498
 31
0.0
  0
ARC
  5
3883
330
1A
100
AcDbEntity
  8
SEIHIN
  6
CONTINUOUS
 62
     3
 48
16.0
100
AcDbCircle
 10
444.4668170488605
 20
158.1545510464498
 30
0.0
 40
1.0
100
AcDbArc
 50
90.0
 51
180.0
  0
LINE
  5
3884
330
1A
100
AcDbEntity
  8
SEIHIN
  6
CONTINUOUS
 62
     3
 48
16.0
100
AcDbLine
 10
447.9503170488604
 20
154.7812510464498
 30
0.0
 11
447.3412170488606
 21
154.7812510464498
 31
0.0
  0
LINE
  5
3885
330
1A
100
AcDbEntity
  8
SEIHIN
  6
CONTINUOUS
 62
     3
 48
16.0
100
AcDbLine
 10
449.4111170488605
 20
164.6742510464498
 30
0.0
 11
449.4111170488605
 21
157.6379510464499
 31
0.0
  0
LINE
  5
3886
330
1A
100
AcDbEntity
  8
SEIHIN
  6
CONTINUOUS
 62
     3
 48
16.0
100
AcDbLine
 10
447.9503170488604
 20
163.7337510464498
 30
0.0
 11
447.9503170488604
 21
154.7812510464498
 31
0.0
  0
ARC
  5
3887
330
1A
100
AcDbEntity
  8
SEIHIN
  6
CONTINUOUS
 62
     3
 48
16.0
100
AcDbCircle
 10
434.9111670488606
 20
169.6950010464498
 30
0.0
 40
0.199950006251564
100
AcDbArc
 50
89.98567247354237
 51
179.9856724735423
  0
LINE
  5
3888
330
1A
100
AcDbEntity
  8
SEIHIN
  6
CONTINUOUS
 62
     3
 48
16.0
100
AcDbLine
 10
435.6979170488606
 20
169.8949510464499
 30
0.0
 11
437.2069170488606
 21
167.9652510464498
 31
0.0
  0
LINE
  5
3889
330
1A
100
AcDbEntity
  8
SEIHIN
  6
CONTINUOUS
 62
     3
 48
16.0
100
AcDbLine
 10
436.6979170488606
 20
167.9652510464498
 30
0.0
 11
437.2069170488606
 21
167.9652510464498
 31
0.0
  0
ARC
  5
388A
330
1A
100
AcDbEntity
  8
SEIHIN
  6
CONTINUOUS
 62
     3
 48
16.0
100
AcDbCircle
 10
436.6979170488606
 20
166.9652510464498
 30
0.0
 40
1.0
100
AcDbArc
 50
90.0
 51
180.0
  0
LINE
  5
388B
330
1A
100
AcDbEntity
  8
SEIHIN
  6
CONTINUOUS
 62
     3
 48
16.0
100
AcDbLine
 10
434.9112170488606
 20
169.8949510464499
 30
0.0
 11
435.6979170488606
 21
169.8949510464499
 31
0.0
  0
ARC
  5
388C
330
1A
100
AcDbEntity
  8
SEIHIN
  6
CONTINUOUS
 62
     3
 48
16.0
100
AcDbCircle
 10
446.8413379697359
 20
168.3070268111359
 30
0.0
 40
0.4999790797121029
100
AcDbArc
 50
0.0027772786021703
 51
81.60687835186513
  0
LINE
  5
388D
330
1A
100
AcDbEntity
  8
CENTER_L
  6
CENTER
 62
     1
 48
5.0
100
AcDbLine
 10
490.3401170488606
 20
96.87155104644979
 30
0.0
 11
490.3401170488607
 21
158.1319449184961
 31
0.0
  0
LINE
  5
388E
330
1A
100
AcDbEntity
  8
SEIHIN
  6
CONTINUOUS
 62
     3
 48
16.0
100
AcDbLine
 10
494.3402170488607
 20
108.1045510464497
 30
0.0
 11
490.3401170488606
 21
108.1045510464497
 31
0.0
  0
LINE
  5
388F
330
1A
100
AcDbEntity
  8
SEIHIN
  6
CONTINUOUS
 62
     3
 48
16.0
100
AcDbLine
 10
524.5274170488604
 20
105.1045510464498
 30
0.0
 11
490.3401170488606
 21
105.1045510464498
 31
0.0
  0
LINE
  5
3890
330
1A
100
AcDbEntity
  8
SEIHIN
  6
CONTINUOUS
 62
     3
 48
16.0
100
AcDbLine
 10
523.2556170488606
 20
106.6045510464499
 30
0.0
 11
490.3401170488606
 21
106.6045510464499
 31
0.0
  0
LINE
  5
3891
330
1A
100
AcDbEntity
  8
SEIHIN
  6
CONTINUOUS
 62
     3
 48
16.0
100
AcDbLine
 10
466.3395170488606
 20
108.1045510464497
 30
0.0
 11
483.3400170488605
 21
108.1045510464497
 31
0.0
  0
LINE
  5
3892
330
1A
100
AcDbEntity
  8
SEIHIN
  6
CONTINUOUS
 62
     3
 48
16.0
100
AcDbLine
 10
464.8399170488606
 20
109.7045510464498
 30
0.0
 11
484.8400170488607
 21
109.7045510464498
 31
0.0
  0
ARC
  5
3893
330
1A
100
AcDbEntity
  8
SEIHIN
  6
CONTINUOUS
 62
     3
 48
16.0
100
AcDbCircle
 10
463.3395170488604
 20
109.6045510464499
 30
0.0
 40
1.500000000000142
100
AcDbArc
 50
269.9999999999983
 51
359.9999999999992
  0
LINE
  5
3894
330
1A
100
AcDbEntity
  8
SEIHIN
  6
CONTINUOUS
 62
     3
 48
16.0
100
AcDbLine
 10
464.8395170488607
 20
109.7045510464498
 30
0.0
 11
464.8395170488607
 21
109.6045510464499
 31
0.0
  0
ARC
  5
3895
330
1A
100
AcDbEntity
  8
SEIHIN
  6
CONTINUOUS
 62
     3
 48
16.0
100
AcDbCircle
 10
466.3395170488606
 20
109.6045510464498
 30
0.0
 40
1.500000000000056
100
AcDbArc
 50
179.9999999999975
 51
269.9999999999983
  0
ARC
  5
3896
330
1A
100
AcDbEntity
  8
SEIHIN
  6
CONTINUOUS
 62
     3
 48
16.0
100
AcDbCircle
 10
483.3400170488605
 20
109.6045510464499
 30
0.0
 40
1.500000000000113
100
AcDbArc
 50
270.0
 51
0.0
  0
ARC
  5
3897
330
1A
100
AcDbEntity
  8
SEIHIN
  6
CONTINUOUS
 62
     3
 48
16.0
100
AcDbCircle
 10
486.3400170488606
 20
109.6045510464498
 30
0.0
 40
1.500000000000056
100
AcDbArc
 50
179.9999999999975
 51
269.9999999999983
  0
LINE
  5
3898
330
1A
100
AcDbEntity
  8
SEIHIN
  6
CONTINUOUS
 62
     3
 48
16.0
100
AcDbLine
 10
484.8400170488607
 20
109.6045510464499
 30
0.0
 11
484.8400170488607
 21
109.7045510464498
 31
0.0
  0
LINE
  5
3899
330
1A
100
AcDbEntity
  8
SEIHIN
  6
CONTINUOUS
 62
     3
 48
16.0
100
AcDbLine
 10
486.3400170488606
 20
108.1045510464497
 30
0.0
 11
490.3401170488606
 21
108.1045510464497
 31
0.0
  0
LINE
  5
389A
330
1A
100
AcDbEntity
  8
SEIHIN
  6
CONTINUOUS
 62
     3
 48
16.0
100
AcDbLine
 10
515.8404170488604
 20
109.7045510464498
 30
0.0
 11
495.8402170488605
 21
109.7045510464498
 31
0.0
  0
LINE
  5
389B
330
1A
100
AcDbEntity
  8
SEIHIN
  6
CONTINUOUS
 62
     3
 48
16.0
100
AcDbLine
 10
514.3407170488605
 20
108.1045510464497
 30
0.0
 11
497.3402170488604
 21
108.1045510464497
 31
0.0
  0
ARC
  5
389C
330
1A
100
AcDbEntity
  8
SEIHIN
  6
CONTINUOUS
 62
     3
 48
16.0
100
AcDbCircle
 10
494.3402170488606
 20
109.6045510464498
 30
0.0
 40
1.500000000000056
100
AcDbArc
 50
270.0000000000016
 51
0.0000000000024427
  0
ARC
  5
389D
330
1A
100
AcDbEntity
  8
SEIHIN
  6
CONTINUOUS
 62
     3
 48
16.0
100
AcDbCircle
 10
497.3402170488606
 20
109.6045510464497
 30
0.0
 40
1.499999999999971
100
AcDbArc
 50
179.9999999999942
 51
269.9999999999951
  0
LINE
  5
389E
330
1A
100
AcDbEntity
  8
SEIHIN
  6
CONTINUOUS
 62
     3
 48
16.0
100
AcDbLine
 10
495.8402170488605
 20
109.6045510464499
 30
0.0
 11
495.8402170488605
 21
109.7045510464498
 31
0.0
  0
ARC
  5
389F
330
1A
100
AcDbEntity
  8
SEIHIN
  6
CONTINUOUS
 62
     3
 48
16.0
100
AcDbCircle
 10
523.2556365320841
 20
107.6045668487001
 30
0.0
 40
1.000015802440083
100
AcDbArc
 50
269.9988837111632
 51
348.0877996706362
  0
ARC
  5
38A0
330
1A
100
AcDbEntity
  8
SEIHIN
  6
CONTINUOUS
 62
     3
 48
16.0
100
AcDbCircle
 10
517.3407170488606
 20
109.6045510464497
 30
0.0
 40
1.5
100
AcDbArc
 50
179.9999999999959
 51
269.9999999999951
  0
LINE
  5
38A1
330
1A
100
AcDbEntity
  8
SEIHIN
  6
CONTINUOUS
 62
     3
 48
16.0
100
AcDbLine
 10
515.8407170488605
 20
109.7045510464498
 30
0.0
 11
515.8407170488605
 21
109.6045510464499
 31
0.0
  0
ARC
  5
38A2
330
1A
100
AcDbEntity
  8
SEIHIN
  6
CONTINUOUS
 62
     3
 48
16.0
100
AcDbCircle
 10
514.3407170488605
 20
109.6045510464499
 30
0.0
 40
1.500000000000113
100
AcDbArc
 50
270.0
 51
0.0
  0
LINE
  5
38A3
330
1A
100
AcDbEntity
  8
SEIHIN
  6
CONTINUOUS
 62
     3
 48
16.0
100
AcDbLine
 10
521.7143170488604
 20
108.1045510464497
 30
0.0
 11
517.3407170488604
 21
108.1045510464497
 31
0.0
  0
ARC
  5
38A4
330
1A
100
AcDbEntity
  8
SEIHIN
  6
CONTINUOUS
 62
     3
 48
16.0
100
AcDbCircle
 10
521.7143595919682
 20
109.604582274133
 30
0.0
 40
1.500031228286544
100
AcDbArc
 50
269.998375006819
 51
342.5575372689046
  0
ELLIPSE
  5
38A5
330
1A
100
AcDbEntity
  8
SEIHIN
100
AcDbEllipse
 10
561.7590170488606
 20
157.6545510464498
 30
0.0
 11
0.0
 21
2.500000000000028
 31
0.0
210
0.0
220
0.0
230
-1.0
 40
0.1935371944693066
 41
-0.9272952180014613
 42
0.0
  0
ELLIPSE
  5
38A6
330
1A
100
AcDbEntity
  8
SEIHIN
100
AcDbEllipse
 10
578.8905170488606
 20
157.6545510464498
 30
0.0
 11
0.0
 21
2.500000000000028
 31
0.0
210
0.0
220
0.0
230
-1.0
 40
0.1935371944693066
 41
-0.9272952180014794
 42
3.141592653589793
  0
ELLIPSE
  5
38A7
330
1A
100
AcDbEntity
  8
SEIHIN
100
AcDbEllipse
 10
584.3872170488605
 20
157.6545510464498
 30
0.0
 11
0.0
 21
2.500000000000028
 31
0.0
210
0.0
220
0.0
230
1.0
 40
0.1935371944693066
 41
0.0
 42
3.141592653589793
  0
ELLIPSE
  5
38A8
330
1A
100
AcDbEntity
  8
SEIHIN
100
AcDbEllipse
 10
604.2785600350339
 20
157.6545510464498
 30
0.0
 11
0.0
 21
2.500000000000028
 31
0.0
210
0.0
220
0.0
230
1.0
 40
0.1935371944693066
 41
-0.9272952180015249
 42
3.141592653589793
  0
LINE
  5
38A9
330
1A
100
AcDbEntity
  8
SEIHIN
  6
CONTINUOUS
 62
     3
100
AcDbLine
 10
581.5762451452632
 20
118.1044872685726
 30
0.0
 11
602.9868280443538
 21
118.1044872685726
 31
0.0
  0
LINE
  5
38AA
330
1A
100
AcDbEntity
  8
SEIHIN
  6
CONTINUOUS
 62
     3
 48
16.0
100
AcDbLine
 10
578.3744170488606
 20
144.5545510464498
 30
0.0
 11
592.2816170488606
 21
144.5545510464498
 31
0.0
  0
LINE
  5
38AB
330
1A
100
AcDbEntity
  8
SEIHIN
  6
CONTINUOUS
 62
     3
 48
16.0
100
AcDbLine
 10
584.3872170488605
 20
160.1545510464498
 30
0.0
 11
604.2785600350339
 21
160.1545510464498
 31
0.0
  0
LINE
  5
38AC
330
1A
100
AcDbEntity
  8
SEIHIN
  6
CONTINUOUS
 62
     3
 48
16.0
100
AcDbLine
 10
604.278560035034
 20
155.1545510464498
 30
0.0
 11
584.3872170488605
 21
155.1545510464498
 31
0.0
  0
LINE
  5
38AD
330
1A
100
AcDbEntity
  8
SEIHIN
  6
CONTINUOUS
 62
     3
 48
16.0
100
AcDbLine
 10
583.6137170488606
 20
105.3045510464498
 30
0.0
 11
592.2816170488606
 21
105.3045510464498
 31
0.0
  0
LINE
  5
38AE
330
1A
100
AcDbEntity
  8
SEIHIN
  6
CONTINUOUS
 62
     3
 48
16.0
100
AcDbLine
 10
584.1163170488606
 20
106.6045510464499
 30
0.0
 11
592.2816170488606
 21
106.6045510464499
 31
0.0
  0
LINE
  5
38AF
330
1A
100
AcDbEntity
  8
SEIHIN
  6
CONTINUOUS
 62
     3
 48
16.0
100
AcDbLine
 10
576.0934170488606
 20
143.2467510464499
 30
0.0
 11
577.4580170488604
 21
116.2903510464498
 31
0.0
  0
LINE
  5
38B0
330
1A
100
AcDbEntity
  8
SEIHIN
  6
CONTINUOUS
 62
     3
 48
16.0
100
AcDbLine
 10
581.0815170488606
 20
117.9868510464497
 30
0.0
 11
579.7871170488606
 21
143.5545510464498
 31
0.0
  0
LINE
  5
38B1
330
1A
100
AcDbEntity
  8
SEIHIN
  6
CONTINUOUS
 62
     3
 48
16.0
100
AcDbLine
 10
580.2372170488606
 20
144.5545510464498
 30
0.0
 11
581.5762170488604
 21
118.1045510464499
 31
0.0
  0
LINE
  5
38B2
330
1A
100
AcDbEntity
  8
SEIHIN
  6
CONTINUOUS
 62
     3
 48
16.0
100
AcDbLine
 10
535.9975170488605
 20
117.4930510464498
 30
0.0
 11
541.0906170488606
 21
142.7521510464498
 31
0.0
  0
LINE
  5
38B3
330
1A
100
AcDbEntity
  8
SEIHIN
  6
CONTINUOUS
 62
     3
 48
16.0
100
AcDbLine
 10
525.8793170488606
 20
160.6738510464499
 30
0.0
 11
525.8793170488606
 21
119.0856510464499
 31
0.0
  0
LINE
  5
38B4
330
1A
100
AcDbEntity
  8
SEIHIN
  6
CONTINUOUS
 62
     3
 48
16.0
100
AcDbLine
 10
541.6006170488604
 20
142.7521510464498
 30
0.0
 11
536.4224170488606
 21
117.0708510464498
 31
0.0
  0
LINE
  5
38B5
330
1A
100
AcDbEntity
  8
SEIHIN
  6
CONTINUOUS
 62
     3
 48
16.0
100
AcDbLine
 10
539.9635170488604
 20
144.7521510464498
 30
0.0
 11
534.7129170488606
 21
118.7116510464498
 31
0.0
  0
LINE
  5
38B6
330
1A
100
AcDbEntity
  8
SEIHIN
  6
CONTINUOUS
 62
     3
 48
16.0
100
AcDbLine
 10
535.9305170488604
 20
116.3958510464499
 30
0.0
 11
577.4527170488607
 21
116.3958510464499
 31
0.0
  0
ARC
  5
38B7
330
1A
100
AcDbEntity
  8
SEIHIN
  6
CONTINUOUS
 62
     3
 48
16.0
100
AcDbCircle
 10
531.4347149955024
 20
120.2184466546987
 30
0.0
 40
1.500016983237833
100
AcDbArc
 50
292.4739725800114
 51
17.40953200876886
  0
ARC
  5
38B8
330
1A
100
AcDbEntity
  8
SEIHIN
  6
CONTINUOUS
 62
     3
 48
16.0
100
AcDbCircle
 10
537.9328446114596
 20
104.5093644367434
 30
0.0
 40
17.09999569856331
100
AcDbArc
 50
107.4102929901228
 51
124.4121599073483
  0
ARC
  5
38B9
330
1A
100
AcDbEntity
  8
SEIHIN
  6
CONTINUOUS
 62
     3
 48
16.0
100
AcDbCircle
 10
527.1254141484376
 20
117.6318305580323
 30
0.0
 40
1.500014484942607
100
AcDbArc
 50
309.4740835246328
 51
34.41212032311046
  0
ARC
  5
38BA
330
1A
100
AcDbEntity
  8
SEIHIN
  6
CONTINUOUS
 62
     3
 48
16.0
100
AcDbCircle
 10
529.6004347783632
 20
119.327246914197
 30
0.0
 40
1.500012804955169
100
AcDbArc
 50
214.4110243622403
 51
299.3482936073813
  0
LINE
  5
38BB
330
1A
100
AcDbEntity
  8
SEIHIN
  6
CONTINUOUS
 62
     3
 48
16.0
100
AcDbLine
 10
528.3629170488604
 20
118.4795510464497
 30
0.0
 11
528.2689170488605
 21
118.6167510464498
 31
0.0
  0
ARC
  5
38BC
330
1A
100
AcDbEntity
  8
SEIHIN
  6
CONTINUOUS
 62
     3
 48
16.0
100
AcDbCircle
 10
537.933025171666
 20
104.5094521546579
 30
0.0
 40
15.49999899768318
100
AcDbArc
 50
112.4732566833544
 51
119.3503716250876
  0
ARC
  5
38BD
330
1A
100
AcDbEntity
  8
SEIHIN
  6
CONTINUOUS
 62
     3
 48
16.0
100
AcDbCircle
 10
535.0172503055728
 20
117.6907849280078
 30
0.0
 40
1.000010787897783
100
AcDbArc
 50
282.4662455381104
 51
348.5956508963485
  0
ARC
  5
38BE
330
1A
100
AcDbEntity
  8
SEIHIN
  6
CONTINUOUS
 62
     3
 48
16.0
100
AcDbCircle
 10
535.442123609668
 20
117.2685575665969
 30
0.0
 40
1.000031547018826
100
AcDbArc
 50
281.0454372767353
 51
348.5974900225259
  0
ARC
  5
38BF
330
1A
100
AcDbEntity
  8
SEIHIN
  6
CONTINUOUS
 62
     3
 48
16.0
100
AcDbCircle
 10
533.7326281085658
 20
118.9092630872267
 30
0.0
 40
1.000008462526264
100
AcDbArc
 50
286.259403219641
 51
348.6027454421249
  0
LINE
  5
38C0
330
1A
100
AcDbEntity
  8
SEIHIN
  6
CONTINUOUS
 62
     3
 48
16.0
100
AcDbLine
 10
537.4284170488605
 20
139.7678510464497
 30
0.0
 11
535.0565170488606
 21
128.0046510464498
 31
0.0
  0
LINE
  5
38C1
330
1A
100
AcDbEntity
  8
SEIHIN
  6
CONTINUOUS
 62
     3
 48
16.0
100
AcDbLine
 10
536.1564170488605
 20
141.5545510464498
 30
0.0
 11
533.1916170488605
 21
126.8504510464498
 31
0.0
  0
ARC
  5
38C2
330
1A
100
AcDbEntity
  8
SEIHIN
  6
CONTINUOUS
 62
     3
 48
16.0
100
AcDbCircle
 10
532.3674552221125
 20
122.2571934523414
 30
0.0
 40
1.499947332931682
100
AcDbArc
 50
287.4086622806322
 51
348.6012935029477
  0
LINE
  5
38C3
330
1A
100
AcDbEntity
  8
SEIHIN
  6
CONTINUOUS
 62
     3
 48
16.0
100
AcDbLine
 10
532.8660170488604
 20
120.6672510464499
 30
0.0
 11
532.8163170488604
 21
120.8259510464497
 31
0.0
  0
ARC
  5
38C4
330
1A
100
AcDbEntity
  8
SEIHIN
  6
CONTINUOUS
 62
     3
 48
16.0
100
AcDbCircle
 10
532.9931170488604
 20
125.3602510464498
 30
0.0
 40
1.499996136661694
100
AcDbArc
 50
348.5994251315537
 51
78.59942513155783
  0
LINE
  5
38C5
330
1A
100
AcDbEntity
  8
SEIHIN
  6
CONTINUOUS
 62
     3
 48
16.0
100
AcDbLine
 10
534.4635170488604
 20
125.0637510464498
 30
0.0
 11
533.8378170488606
 21
121.9607510464498
 31
0.0
  0
LINE
  5
38C6
330
1A
100
AcDbEntity
  8
SEIHIN
  6
CONTINUOUS
 62
     3
 48
16.0
100
AcDbLine
 10
533.2896170488604
 20
126.8306510464499
 30
0.0
 11
533.1916170488605
 21
126.8504510464498
 31
0.0
  0
ARC
  5
38C7
330
1A
100
AcDbEntity
  8
SEIHIN
  6
CONTINUOUS
 62
     3
 48
16.0
100
AcDbCircle
 10
533.5861170488605
 20
128.3010510464499
 30
0.0
 40
1.499996136661789
100
AcDbArc
 50
258.5994251315527
 51
348.5994251315553
  0
ARC
  5
38C8
330
1A
100
AcDbEntity
  8
SEIHIN
  6
CONTINUOUS
 62
     3
 48
16.0
100
AcDbCircle
 10
535.9580170488605
 20
140.0643510464498
 30
0.0
 40
1.499996136661627
100
AcDbArc
 50
348.5994251315553
 51
78.59942513155608
  0
LINE
  5
38C9
330
1A
100
AcDbEntity
  8
SEIHIN
  6
CONTINUOUS
 62
     3
 48
16.0
100
AcDbLine
 10
536.2544170488606
 20
141.5347510464497
 30
0.0
 11
536.1564170488605
 21
141.5544510464497
 31
0.0
  0
LINE
  5
38CA
330
1A
100
AcDbEntity
  8
SEIHIN
  6
CONTINUOUS
 62
     3
 48
16.0
100
AcDbLine
 10
539.3188170488605
 20
141.5545510464498
 30
0.0
 11
536.1564170488605
 21
141.5545510464498
 31
0.0
  0
ARC
  5
38CB
330
1A
100
AcDbEntity
  8
SEIHIN
  6
CONTINUOUS
 62
     3
 48
16.0
100
AcDbCircle
 10
554.1221680297127
 20
106.0097707280038
 30
0.0
 40
25.50000245141986
100
AcDbArc
 50
356.8407963526966
 51
23.7756273868357
  0
ARC
  5
38CC
330
1A
100
AcDbEntity
  8
SEIHIN
  6
CONTINUOUS
 62
     3
 48
16.0
100
AcDbCircle
 10
554.1221303012464
 20
106.0099846722662
 30
0.0
 40
29.50002485743376
100
AcDbArc
 50
358.6295620438269
 51
23.95328951063003
  0
ARC
  5
38CD
330
1A
100
AcDbEntity
  8
SEIHIN
  6
CONTINUOUS
 62
     3
 48
16.0
100
AcDbCircle
 10
554.1221244467423
 20
106.0100175529459
 30
0.0
 40
30.00008235040647
100
AcDbArc
 50
1.135355529909441
 51
23.7752490788253
  0
LINE
  5
38CE
330
1A
100
AcDbEntity
  8
SEIHIN
  6
CONTINUOUS
 62
     3
 48
16.0
100
AcDbLine
 10
579.5834170488604
 20
104.6044510464498
 30
0.0
 11
583.6137170488606
 21
105.3045510464498
 31
0.0
  0
LINE
  5
38CF
330
1A
100
AcDbEntity
  8
SEIHIN
  6
CONTINUOUS
 62
     3
 48
16.0
100
AcDbLine
 10
577.4580170488604
 20
116.2903510464498
 30
0.0
 11
581.0815170488606
 21
117.9868510464497
 31
0.0
  0
ARC
  5
38D0
330
1A
100
AcDbEntity
  8
SEIHIN
  6
CONTINUOUS
 62
     3
 48
16.0
100
AcDbCircle
 10
578.4630728069764
 20
1059.136555213025
 30
0.0
 40
899.9999528107551
100
AcDbArc
 50
267.6483820809453
 51
268.9133151903082
  0
LINE
  5
38D1
330
1A
100
AcDbEntity
  8
SEIHIN
  6
CONTINUOUS
 62
     3
 48
16.0
100
AcDbLine
 10
577.8905170488605
 20
143.5545510464498
 30
0.0
 11
542.5809170488606
 21
143.5545510464498
 31
0.0
  0
LINE
  5
38D2
330
1A
100
AcDbEntity
  8
SEIHIN
  6
CONTINUOUS
 62
     3
 48
16.0
100
AcDbLine
 10
578.503442659922
 20
159.1545510464498
 30
0.0
 11
542.4254170488604
 21
159.1545510464498
 31
0.0
  0
LINE
  5
38D3
330
1A
100
AcDbEntity
  8
SEIHIN
  6
CONTINUOUS
 62
     3
 48
16.0
100
AcDbLine
 10
546.8254170488604
 20
157.1545510464498
 30
0.0
 11
540.4254170488605
 21
157.1545510464498
 31
0.0
  0
LINE
  5
38D4
330
1A
100
AcDbEntity
  8
SEIHIN
  6
CONTINUOUS
 62
     3
 48
16.0
100
AcDbLine
 10
547.8254170488604
 20
158.1545510464498
 30
0.0
 11
540.4254170488605
 21
158.1545510464498
 31
0.0
  0
LINE
  5
38D5
330
1A
100
AcDbEntity
  8
SEIHIN
  6
CONTINUOUS
 62
     3
 48
16.0
100
AcDbLine
 10
546.8254170488604
 20
145.5545510464498
 30
0.0
 11
540.9438170488606
 21
145.5545510464498
 31
0.0
  0
ARC
  5
38D6
330
1A
100
AcDbEntity
  8
SEIHIN
  6
CONTINUOUS
 62
     3
 48
16.0
100
AcDbCircle
 10
542.0708665911584
 20
142.5545915980944
 30
0.0
 40
0.9999594495827523
100
AcDbArc
 50
90.00283867969871
 51
168.6052533732222
  0
LINE
  5
38D7
330
1A
100
AcDbEntity
  8
SEIHIN
  6
CONTINUOUS
 62
     3
 48
16.0
100
AcDbLine
 10
547.8254170488604
 20
144.5545510464498
 30
0.0
 11
540.7422170488606
 21
144.5545510464498
 31
0.0
  0
ARC
  5
38D8
330
1A
100
AcDbEntity
  8
SEIHIN
  6
CONTINUOUS
 62
     3
 48
16.0
100
AcDbCircle
 10
540.4254170488605
 20
157.6545510464498
 30
0.0
 40
2.5
100
AcDbArc
 50
36.86989764584337
 51
270.0
  0
ARC
  5
38D9
330
1A
100
AcDbEntity
  8
SEIHIN
  6
CONTINUOUS
 62
     3
 48
16.0
100
AcDbCircle
 10
540.9438067104463
 20
144.5545425840213
 30
0.0
 40
1.000008462481951
100
AcDbArc
 50
89.99940765750535
 51
168.6029545883024
  0
ARC
  5
38DA
330
1A
100
AcDbEntity
  8
SEIHIN
  6
CONTINUOUS
 62
     3
 48
16.0
100
AcDbCircle
 10
540.7422067104463
 20
143.5545425840213
 30
0.0
 40
1.000008462481852
100
AcDbArc
 50
89.9994076575086
 51
168.6029545883048
  0
LINE
  5
38DB
330
1A
100
AcDbEntity
  8
SEIHIN
  6
CONTINUOUS
 62
     3
 48
16.0
100
AcDbLine
 10
540.4254170488605
 20
155.1545510464498
 30
0.0
 11
540.4254170488605
 21
158.1545510464498
 31
0.0
  0
LINE
  5
38DC
330
1A
100
AcDbEntity
  8
SEIHIN
  6
CONTINUOUS
 62
     3
 48
16.0
100
AcDbLine
 10
549.8254170488604
 20
144.5545510464498
 30
0.0
 11
549.8254170488604
 21
158.1545510464498
 31
0.0
  0
LINE
  5
38DD
330
1A
100
AcDbEntity
  8
SEIHIN
  6
CONTINUOUS
 62
     3
 48
16.0
100
AcDbLine
 10
548.8254170488605
 20
145.5545510464498
 30
0.0
 11
548.8254170488605
 21
157.1545510464498
 31
0.0
  0
LINE
  5
38DE
330
1A
100
AcDbEntity
  8
SEIHIN
  6
CONTINUOUS
 62
     3
 48
16.0
100
AcDbLine
 10
547.8254170488604
 20
146.5545510464498
 30
0.0
 11
547.8254170488604
 21
156.1545510464498
 31
0.0
  0
ARC
  5
38DF
330
1A
100
AcDbEntity
  8
SEIHIN
  6
CONTINUOUS
 62
     3
 48
16.0
100
AcDbCircle
 10
548.8254170488605
 20
144.5545510464497
 30
0.0
 40
0.9999999999999005
100
AcDbArc
 50
270.0
 51
0.0000000000008142
  0
ARC
  5
38E0
330
1A
100
AcDbEntity
  8
SEIHIN
  6
CONTINUOUS
 62
     3
 48
16.0
100
AcDbCircle
 10
547.8254170488604
 20
145.5545510464498
 30
0.0
 40
1.000000000000099
100
AcDbArc
 50
270.0
 51
359.9999999999992
  0
ARC
  5
38E1
330
1A
100
AcDbEntity
  8
SEIHIN
  6
CONTINUOUS
 62
     3
 48
16.0
100
AcDbCircle
 10
542.5809067104463
 20
142.5545425840214
 30
0.0
 40
1.000008462481923
100
AcDbArc
 50
89.99940765750535
 51
168.6029545883008
  0
ARC
  5
38E2
330
1A
100
AcDbEntity
  8
SEIHIN
  6
CONTINUOUS
 62
     3
 48
16.0
100
AcDbCircle
 10
546.8254170488604
 20
146.5545510464498
 30
0.0
 40
1.0
100
AcDbArc
 50
270.0
 51
0.0
  0
ARC
  5
38E3
330
1A
100
AcDbEntity
  8
SEIHIN
  6
CONTINUOUS
 62
     3
 48
16.0
100
AcDbCircle
 10
548.8254170488604
 20
158.1545510464498
 30
0.0
 40
0.9999999999999431
100
AcDbArc
 50
359.9999999999967
 51
89.99999999999674
  0
ARC
  5
38E4
330
1A
100
AcDbEntity
  8
SEIHIN
  6
CONTINUOUS
 62
     3
 48
16.0
100
AcDbCircle
 10
547.8254170488604
 20
157.1545510464497
 30
0.0
 40
1.000000000000056
100
AcDbArc
 50
0.0000000000032569
 51
90.00000000000325
  0
ARC
  5
38E5
330
1A
100
AcDbEntity
  8
SEIHIN
  6
CONTINUOUS
 62
     3
 48
16.0
100
AcDbCircle
 10
546.8254170488604
 20
156.1545510464498
 30
0.0
 40
1.0
100
AcDbArc
 50
0.0
 51
90.0
  0
LINE
  5
38E6
330
1A
100
AcDbEntity
  8
SEIHIN
  6
CONTINUOUS
 62
     3
 48
16.0
100
AcDbLine
 10
561.7590170488606
 20
160.1545510464498
 30
0.0
 11
578.8905170488606
 21
160.1545510464498
 31
0.0
  0
LINE
  5
38E7
330
1A
100
AcDbEntity
  8
SEIHIN
  6
CONTINUOUS
 62
     3
 48
16.0
100
AcDbLine
 10
578.3744170488606
 20
157.1544510464498
 30
0.0
 11
578.3743170488604
 21
144.5545510464498
 31
0.0
  0
LINE
  5
38E8
330
1A
100
AcDbEntity
  8
SEIHIN
  6
CONTINUOUS
 62
     3
 48
16.0
100
AcDbLine
 10
577.8905170488605
 20
159.1545510464498
 30
0.0
 11
577.8905170488605
 21
143.5544510464497
 31
0.0
  0
LINE
  5
38E9
330
1A
100
AcDbEntity
  8
SEIHIN
  6
CONTINUOUS
 62
     3
 48
16.0
100
AcDbLine
 10
577.8905170488605
 20
143.5545510464498
 30
0.0
 11
579.7871170488606
 21
143.5545510464498
 31
0.0
  0
LINE
  5
38EA
330
1A
100
AcDbEntity
  8
SEIHIN
  6
CONTINUOUS
 62
     3
 48
16.0
100
AcDbLine
 10
579.2775914377991
 20
159.1545510464498
 30
0.0
 11
584.0001426599219
 21
159.1545510464498
 31
0.0
  0
LINE
  5
38EB
330
1A
100
AcDbEntity
  8
SEIHIN
  6
CONTINUOUS
 62
     3
 48
16.0
100
AcDbLine
 10
578.3744170488606
 20
157.1545510464498
 30
0.0
 11
578.8905170488606
 21
157.1545510464498
 31
0.0
  0
LINE
  5
38EC
330
1A
100
AcDbEntity
  8
SEIHIN
  6
CONTINUOUS
 62
     3
 48
16.0
100
AcDbLine
 10
578.8905170488606
 20
157.1545510464498
 30
0.0
 11
578.8905170488606
 21
155.1545510464498
 31
0.0
  0
DIMENSION
  5
38ED
330
1A
100
AcDbEntity
  8
SUNPOU
100
AcDbDimension
  2
*D7
 10
643.2404802041956
 20
104.6043510464498
 30
0.0
 11
638.2404802041955
 21
131.8794510464499
 31
0.0
 70
    32
  3
STANDARD
100
AcDbAlignedDimension
 13
604.6656344239725
 23
159.1545510464498
 33
0.0
 14
596.9184170488606
 24
104.6043510464498
 34
0.0
 50
90.0
100
AcDbRotatedDimension
1001
ACAD
1000
DSTYLE
1002
{
1070
   140
1040
6.0
1070
    74
1070
     0
1070
   172
1070
     1
1070
    73
1070
     0
1070
   272
1070
     2
1070
    77
1070
     3
1070
   173
1070
     1
1070
   147
1040
2.0
1070
    42
1040
6.0
1070
    44
1040
3.0
1070
    43
1040
14.0
1070
   271
1070
     0
1070
   178
1070
     4
1070
   177
1070
     4
1070
   176
1070
     4
1070
   141
1040
150.0
1070
     7
1000
_OPEN
1070
     6
1000
_OPEN
1070
    41
1040
7.0
1002
}
  0
LINE
  5
38EE
330
1A
100
AcDbEntity
  8
SEIHIN
  6
CONTINUOUS
 62
     3
 48
16.0
100
AcDbLine
 10
603.4857170488605
 20
118.0792510464498
 30
0.0
 11
604.7754170488604
 21
143.5544510464497
 31
0.0
  0
LINE
  5
38EF
330
1A
100
AcDbEntity
  8
SEIHIN
  6
CONTINUOUS
 62
     3
 48
16.0
100
AcDbLine
 10
604.3254170488604
 20
144.5545510464498
 30
0.0
 11
602.9864170488606
 21
118.1045510464499
 31
0.0
  0
ARC
  5
38F0
330
1A
100
AcDbEntity
  8
SEIHIN
  6
CONTINUOUS
 62
     3
 48
16.0
100
AcDbCircle
 10
630.4403389873556
 20
106.0099618173618
 30
0.0
 40
29.49995952025371
100
AcDbArc
 50
156.2247928174604
 51
181.3703965897907
  0
ARC
  5
38F1
330
1A
100
AcDbEntity
  8
SEIHIN
  6
CONTINUOUS
 62
     3
 48
16.0
100
AcDbCircle
 10
630.4403400148804
 20
106.0099550215464
 30
0.0
 40
29.99991200521349
100
AcDbArc
 50
156.2246857947662
 51
178.8647095964996
  0
LINE
  5
38F2
330
1A
100
AcDbEntity
  8
SEIHIN
  6
CONTINUOUS
 62
     3
 48
16.0
100
AcDbLine
 10
596.9184170488606
 20
104.6043510464498
 30
0.0
 11
600.9488170488605
 21
105.3044510464498
 31
0.0
  0
LINE
  5
38F3
330
1A
100
AcDbEntity
  8
SEIHIN
  6
CONTINUOUS
 62
     3
 48
16.0
100
AcDbLine
 10
600.9488170488605
 20
105.3044510464498
 30
0.0
 11
592.2809170488604
 21
105.3044510464498
 31
0.0
  0
LINE
  5
38F4
330
1A
100
AcDbEntity
  8
SEIHIN
  6
CONTINUOUS
 62
     3
 48
16.0
100
AcDbLine
 10
600.4463170488604
 20
106.6044510464498
 30
0.0
 11
592.2809170488604
 21
106.6045510464499
 31
0.0
  0
LINE
  5
38F5
330
1A
100
AcDbEntity
  8
SEIHIN
  6
CONTINUOUS
 62
     3
 48
16.0
100
AcDbLine
 10
606.6722106392041
 20
158.1545446361934
 30
0.0
 11
606.6721170488605
 21
143.5544510464497
 31
0.0
  0
LINE
  5
38F6
330
1A
100
AcDbEntity
  8
SEIHIN
  6
CONTINUOUS
 62
     3
 48
16.0
100
AcDbLine
 10
606.1883170488606
 20
157.1544510464498
 30
0.0
 11
606.1882170488604
 21
144.5545510464498
 31
0.0
  0
LINE
  5
38F7
330
1A
100
AcDbEntity
  8
SEIHIN
  6
CONTINUOUS
 62
     3
 48
16.0
100
AcDbLine
 10
602.1882170488604
 20
144.5545510464498
 30
0.0
 11
602.1882170488604
 21
155.1545510464498
 31
0.0
  0
LINE
  5
38F8
330
1A
100
AcDbEntity
  8
SEIHIN
  6
CONTINUOUS
 62
     3
 48
16.0
100
AcDbLine
 10
606.1882170488604
 20
144.5545510464498
 30
0.0
 11
592.2816170488606
 21
144.5545510464498
 31
0.0
  0
LINE
  5
38F9
330
1A
100
AcDbEntity
  8
SEIHIN
  6
CONTINUOUS
 62
     3
 48
16.0
100
AcDbLine
 10
606.6720170488606
 20
143.5544510464497
 30
0.0
 11
604.7754170488604
 21
143.5544510464497
 31
0.0
  0
LINE
  5
38FA
330
1A
100
AcDbEntity
  8
SEIHIN
100
AcDbLine
 10
604.2785600350339
 20
157.1544510464498
 30
0.0
 11
604.2785600350339
 21
155.1545510464498
 31
0.0
  0
LINE
  5
38FB
330
1A
100
AcDbEntity
  8
SEIHIN
100
AcDbLine
 10
604.6656344239725
 20
159.1545510464498
 30
0.0
 11
605.6722106392246
 21
159.1545510464498
 31
0.0
  0
ARC
  5
38FC
330
1A
100
AcDbEntity
  8
SEIHIN
100
AcDbCircle
 10
605.6722106392244
 20
158.1545510464497
 30
0.0
 40
1.0
100
AcDbArc
 50
359.9996327193681
 51
89.99999999998697
  0
LINE
  5
38FD
330
1A
100
AcDbEntity
  8
SEIHIN
  6
CONTINUOUS
 62
     3
 48
16.0
100
AcDbLine
 10
606.1883170488606
 20
157.1544510464498
 30
0.0
 11
604.2785600350339
 21
157.1544510464498
 31
0.0
  0
LINE
  5
38FE
330
1A
100
AcDbEntity
  8
CENTER_L
 48
5.0
100
AcDbLine
 10
413.4196941629388
 20
498.0426638392144
 30
0.0
 11
557.1350382097811
 21
314.0949003133352
 31
0.0
  0
LINE
  5
38FF
330
1A
100
AcDbEntity
  8
SEIHIN
  6
CONTINUOUS
 62
     3
 48
16.0
100
AcDbLine
 10
445.9272170488604
 20
467.1469827501494
 30
0.0
 11
447.9962170488606
 21
475.4447827501495
 31
0.0
  0
LINE
  5
3900
330
1A
100
AcDbEntity
  8
SEIHIN
  6
CONTINUOUS
 62
     3
 48
16.0
100
AcDbLine
 10
446.9777170488606
 20
465.1599827501494
 30
0.0
 11
449.4115170488607
 21
474.9210827501496
 31
0.0
  0
ARC
  5
3901
330
1A
100
AcDbEntity
  8
SEIHIN
  6
CONTINUOUS
 62
     3
 48
16.0
100
AcDbCircle
 10
438.2378971590251
 20
466.2765672107968
 30
0.0
 40
1.999997288675422
100
AcDbArc
 50
69.43251271206007
 51
186.5656963061923
  0
ARC
  5
3902
330
1A
100
AcDbEntity
  8
SEIHIN
  6
CONTINUOUS
 62
     3
 48
16.0
100
AcDbCircle
 10
-1059.447293658946
 20
294.5481110390239
 30
0.0
 40
1499.999584351924
100
AcDbArc
 50
6.295267482940401
 51
6.885674243786448
  0
ARC
  5
3903
330
1A
100
AcDbEntity
  8
SEIHIN
  6
CONTINUOUS
 62
     3
 48
16.0
100
AcDbCircle
 10
965.9288983446629
 20
1872.529566862436
 30
0.0
 40
1498.499968313505
100
AcDbArc
 50
249.4150889361755
 51
249.7528168274255
  0
ARC
  5
3904
330
1A
100
AcDbEntity
  8
SEIHIN
  6
CONTINUOUS
 62
     3
 48
16.0
100
AcDbCircle
 10
-1069.144783341148
 20
294.5263882399951
 30
0.0
 40
1501.999517500812
100
AcDbArc
 50
0.8005686791687026
 51
7.326602759653714
  0
ARC
  5
3905
330
1A
100
AcDbEntity
  8
SEIHIN
  6
CONTINUOUS
 62
     3
 48
16.0
100
AcDbCircle
 10
965.8772801590075
 20
1872.548881924429
 30
0.0
 40
1500.000020307572
100
AcDbArc
 50
249.433613257351
 51
254.6626182054729
  0
ARC
  5
3906
330
1A
100
AcDbEntity
  8
SEIHIN
  6
CONTINUOUS
 62
     3
 48
16.0
100
AcDbCircle
 10
967.2142379067482
 20
1877.920575711192
 30
0.0
 40
1500.000168149769
100
AcDbArc
 50
249.7612741318165
 51
252.9425053723775
  0
ARC
  5
3907
330
1A
100
AcDbEntity
  8
SEIHIN
  6
CONTINUOUS
 62
     3
 48
16.0
100
AcDbCircle
 10
969.560670610395
 20
1887.332597896195
 30
0.0
 40
1502.000152544684
100
AcDbArc
 50
248.6730958777762
 51
255.199124635722
  0
ARC
  5
3908
330
1A
100
AcDbEntity
  8
SEIHIN
  6
CONTINUOUS
 62
     3
 48
16.0
100
AcDbCircle
 10
969.5610429493546
 20
1887.332478159688
 30
0.0
 40
1500.000312188696
100
AcDbArc
 50
248.4145184305467
 51
255.9997162861804
  0
ARC
  5
3909
330
1A
100
AcDbEntity
  8
SEIHIN
  6
CONTINUOUS
 62
     3
 48
16.0
100
AcDbCircle
 10
-1069.144761026247
 20
294.5260520086659
 30
0.0
 40
1499.999578075144
100
AcDbArc
 50
0.0000126333976907
 51
7.585202585819179
  0
ARC
  5
390A
330
1A
100
AcDbEntity
  8
SEIHIN
  6
CONTINUOUS
 62
     3
 48
16.0
100
AcDbCircle
 10
524.8560036143495
 20
355.4102722542811
 30
0.0
 40
2.000027041043952
100
AcDbArc
 50
73.67694385372195
 51
182.3207815732296
  0
LINE
  5
390B
330
1A
100
AcDbEntity
  8
SEIHIN
  6
CONTINUOUS
 62
     3
 48
16.0
100
AcDbLine
 10
528.2689170488605
 20
326.5264827501495
 30
0.0
 11
515.8402170488606
 21
326.5264827501495
 31
0.0
  0
ARC
  5
390C
330
1A
100
AcDbEntity
  8
SEIHIN
  6
CONTINUOUS
 62
     3
 48
16.0
100
AcDbCircle
 10
963.3331013492828
 20
1862.362160530414
 30
0.0
 40
1499.999973923153
100
AcDbArc
 50
250.0338412715089
 51
254.6627515467693
  0
LINE
  5
390D
330
1A
100
AcDbEntity
  8
CENTER_L
  6
CENTER
 62
     1
 48
5.0
100
AcDbLine
 10
602.2522170488606
 20
371.6853827501494
 30
0.0
 11
483.7352170488607
 21
401.2353827501495
 31
0.0
  0
LINE
  5
390E
330
1A
100
AcDbEntity
  8
SEIHIN
  6
CONTINUOUS
 62
     3
 48
16.0
100
AcDbLine
 10
537.8188170488606
 20
328.0263827501494
 30
0.0
 11
490.3402170488607
 21
328.0263827501494
 31
0.0
  0
LINE
  5
390F
330
1A
100
AcDbEntity
  8
SEIHIN
  6
CONTINUOUS
 62
     3
 48
16.0
100
AcDbLine
 10
539.3189170488605
 20
329.5263827501495
 30
0.0
 11
490.3402170488607
 21
329.5263827501495
 31
0.0
  0
LINE
  5
3910
330
1A
100
AcDbEntity
  8
SEIHIN
  6
CONTINUOUS
 62
     3
 48
16.0
100
AcDbLine
 10
549.8253170488604
 20
294.5263827501494
 30
0.0
 11
490.3401170488606
 21
294.5263827501494
 31
0.0
  0
ARC
  5
3911
330
1A
100
AcDbEntity
  8
SEIHIN
  6
CONTINUOUS
 62
     3
 48
16.0
100
AcDbCircle
 10
-1059.444903700768
 20
294.5278680112666
 30
0.0
 40
1499.999594533193
100
AcDbArc
 50
3.057169441977977
 51
6.238405077493037
  0
ARC
  5
3912
330
1A
100
AcDbEntity
  8
SEIHIN
  6
CONTINUOUS
 62
     3
 48
16.0
100
AcDbCircle
 10
-1043.410002557932
 20
294.5298239643426
 30
0.0
 40
1499.999428376692
100
AcDbArc
 50
1.336891892202518
 51
5.96579232813724
  0
ARC
  5
3913
330
1A
100
AcDbEntity
  8
SEIHIN
  6
CONTINUOUS
 62
     3
 48
16.0
100
AcDbCircle
 10
-1053.909876462443
 20
294.5277364860821
 30
0.0
 40
1499.999351020038
100
AcDbArc
 50
1.336971718702094
 51
6.565951705091086
  0
LINE
  5
3914
330
1A
100
AcDbEntity
  8
CENTER_L
  6
CENTER
 62
     1
 48
5.0
100
AcDbLine
 10
490.3402170488607
 20
284.2504827501495
 30
0.0
 11
490.3402170488607
 21
405.9909827501495
 31
0.0
  0
LINE
  5
3915
330
1A
100
AcDbEntity
  8
SEIHIN
  6
CONTINUOUS
 62
     3
 48
16.0
100
AcDbLine
 10
452.4114170488607
 20
326.5263827501494
 30
0.0
 11
464.8401170488606
 21
326.5263827501494
 31
0.0
  0
LINE
  5
3916
330
1A
100
AcDbEntity
  8
SEIHIN
  6
CONTINUOUS
 62
     3
 48
16.0
100
AcDbLine
 10
442.8616170488607
 20
328.0263827501494
 30
0.0
 11
490.3401170488606
 21
328.0263827501494
 31
0.0
  0
LINE
  5
3917
330
1A
100
AcDbEntity
  8
SEIHIN
  6
CONTINUOUS
 62
     3
 48
16.0
100
AcDbLine
 10
441.3615170488604
 20
329.5263827501495
 30
0.0
 11
490.3401170488606
 21
329.5263827501495
 31
0.0
  0
LINE
  5
3918
330
1A
100
AcDbEntity
  8
SEIHIN
  6
CONTINUOUS
 62
     3
 48
16.0
100
AcDbLine
 10
430.8550170488605
 20
294.5263827501494
 30
0.0
 11
490.3401170488606
 21
294.5263827501494
 31
0.0
  0
LINE
  5
3919
330
1A
100
AcDbEntity
  8
SEIHIN
  6
CONTINUOUS
 62
     3
 48
16.0
100
AcDbLine
 10
452.4114170488607
 20
328.0263827501494
 30
0.0
 11
450.9114170488604
 21
329.5264827501493
 31
0.0
  0
LINE
  5
391A
330
1A
100
AcDbEntity
  8
SEIHIN
  6
CONTINUOUS
 62
     3
 48
16.0
100
AcDbLine
 10
442.8615170488606
 20
328.0263827501494
 30
0.0
 11
441.3615170488604
 21
329.5264827501493
 31
0.0
  0
LINE
  5
391B
330
1A
100
AcDbEntity
  8
SEIHIN
  6
CONTINUOUS
 62
     3
 48
16.0
100
AcDbLine
 10
441.3615170488604
 20
326.5263827501494
 30
0.0
 11
441.3615170488604
 21
329.5263827501495
 31
0.0
  0
LINE
  5
391C
330
1A
100
AcDbEntity
  8
SEIHIN
  6
CONTINUOUS
 62
     3
 48
16.0
100
AcDbLine
 10
447.8641170488606
 20
328.0263827501494
 30
0.0
 11
446.3641170488606
 21
329.5264827501493
 31
0.0
  0
LINE
  5
391D
330
1A
100
AcDbEntity
  8
SEIHIN
  6
CONTINUOUS
 62
     3
 48
16.0
100
AcDbLine
 10
447.3907170488606
 20
328.0263827501494
 30
0.0
 11
445.8906170488607
 21
329.5264827501493
 31
0.0
  0
ARC
  5
391E
330
1A
100
AcDbEntity
  8
SEIHIN
  6
CONTINUOUS
 62
     3
 48
16.0
100
AcDbCircle
 10
-1059.444797121054
 20
294.5269275184174
 30
0.0
 40
1499.999546205918
100
AcDbArc
 50
0.7639457846865551
 51
2.215969080165844
  0
ARC
  5
391F
330
1A
100
AcDbEntity
  8
SEIHIN
  6
CONTINUOUS
 62
     3
 48
16.0
100
AcDbCircle
 10
-1043.409769100364
 20
294.5250843879136
 30
0.0
 40
1499.999486149786
100
AcDbArc
 50
0.0000495938010762
 51
1.222452720322411
  0
ARC
  5
3920
330
1A
100
AcDbEntity
  8
SEIHIN
  6
CONTINUOUS
 62
     3
 48
16.0
100
AcDbCircle
 10
-1053.909703991742
 20
294.5156161422957
 30
0.0
 40
1499.999421079243
100
AcDbArc
 50
0.000411254285118
 51
0.8407798530265109
  0
LINE
  5
3921
330
1A
100
AcDbEntity
  8
SEIHIN
  6
CONTINUOUS
 62
     3
 48
16.0
100
AcDbLine
 10
438.2549170488606
 20
294.5253827501495
 30
0.0
 11
438.2549170488606
 21
314.5263827501495
 31
0.0
  0
LINE
  5
3922
330
1A
100
AcDbEntity
  8
SEIHIN
  6
CONTINUOUS
 62
     3
 48
16.0
100
AcDbLine
 10
442.7549170488606
 20
294.5253827501495
 30
0.0
 11
442.7549170488606
 21
314.5263827501495
 31
0.0
  0
LINE
  5
3923
330
1A
100
AcDbEntity
  8
SEIHIN
  6
CONTINUOUS
 62
     3
 48
16.0
100
AcDbLine
 10
441.3615170488604
 20
326.5263827501494
 30
0.0
 11
444.5238170488607
 21
326.5263827501494
 31
0.0
  0
LINE
  5
3924
330
1A
100
AcDbEntity
  8
SEIHIN
  6
CONTINUOUS
 62
     3
 48
16.0
100
AcDbLine
 10
442.7549170488606
 20
314.5263827501495
 30
0.0
 11
433.7081170488606
 21
314.5263827501495
 31
0.0
  0
ARC
  5
3925
330
1A
100
AcDbEntity
  8
SEIHIN
  6
CONTINUOUS
 62
     3
 48
16.0
100
AcDbCircle
 10
433.7081187675901
 20
315.5263810551467
 30
0.0
 40
0.9999983049986681
100
AcDbArc
 50
180.7963412072309
 51
269.9999015238878
  0
ARC
  5
3926
330
1A
100
AcDbEntity
  8
SEIHIN
  6
CONTINUOUS
 62
     3
 48
16.0
100
AcDbCircle
 10
451.4114170488607
 20
317.5263827501495
 30
0.0
 40
1.0
100
AcDbArc
 50
270.0
 51
0.0
  0
ARC
  5
3927
330
1A
100
AcDbEntity
  8
SEIHIN
  6
CONTINUOUS
 62
     3
 48
16.0
100
AcDbCircle
 10
445.5239170488605
 20
317.5263827501496
 30
0.0
 40
1.000000000000056
100
AcDbArc
 50
180.0000000000032
 51
270.0000000000032
  0
ARC
  5
3928
330
1A
100
AcDbEntity
  8
SEIHIN
  6
CONTINUOUS
 62
     3
 48
16.0
100
AcDbCircle
 10
444.2520170488605
 20
317.5263827501496
 30
0.0
 40
1.000000000000085
100
AcDbArc
 50
180.0000000000048
 51
270.0000000000049
  0
ARC
  5
3929
330
1A
100
AcDbEntity
  8
SEIHIN
  6
CONTINUOUS
 62
     3
 48
16.0
100
AcDbCircle
 10
448.8641170488604
 20
317.5263827501495
 30
0.0
 40
0.9999999999999147
100
AcDbArc
 50
179.9999999999951
 51
269.9999999999951
  0
ARC
  5
392A
330
1A
100
AcDbEntity
  8
SEIHIN
  6
CONTINUOUS
 62
     3
 48
16.0
100
AcDbCircle
 10
446.3907170488607
 20
317.5263827501495
 30
0.0
 40
1.0
100
AcDbArc
 50
270.0
 51
0.0
  0
LINE
  5
392B
330
1A
100
AcDbEntity
  8
SEIHIN
  6
CONTINUOUS
 62
     3
 48
16.0
100
AcDbLine
 10
448.8641170488604
 20
316.5263827501495
 30
0.0
 11
451.4114170488607
 21
316.5263827501495
 31
0.0
  0
LINE
  5
392C
330
1A
100
AcDbEntity
  8
SEIHIN
  6
CONTINUOUS
 62
     3
 48
16.0
100
AcDbLine
 10
444.2520170488607
 20
316.5263827501495
 30
0.0
 11
446.3907170488607
 21
316.5263827501495
 31
0.0
  0
LINE
  5
392D
330
1A
100
AcDbEntity
  8
SEIHIN
  6
CONTINUOUS
 62
     3
 48
16.0
100
AcDbLine
 10
447.3907170488606
 20
326.5263827501494
 30
0.0
 11
447.8641170488606
 21
326.5263827501494
 31
0.0
  0
LINE
  5
392E
330
1A
100
AcDbEntity
  8
SEIHIN
  6
CONTINUOUS
 62
     3
 48
16.0
100
AcDbLine
 10
444.5239170488605
 20
317.5263827501495
 30
0.0
 11
444.5239170488605
 21
328.0263827501494
 31
0.0
  0
LINE
  5
392F
330
1A
100
AcDbEntity
  8
SEIHIN
  6
CONTINUOUS
 62
     3
 48
16.0
100
AcDbLine
 10
443.2520170488604
 20
317.5263827501495
 30
0.0
 11
443.2520170488604
 21
326.5263827501494
 31
0.0
  0
LINE
  5
3930
330
1A
100
AcDbEntity
  8
SEIHIN
  6
CONTINUOUS
 62
     3
 48
16.0
100
AcDbLine
 10
447.8641170488606
 20
317.5263827501495
 30
0.0
 11
447.8641170488606
 21
328.0263827501494
 31
0.0
  0
LINE
  5
3931
330
1A
100
AcDbEntity
  8
SEIHIN
  6
CONTINUOUS
 62
     3
 48
16.0
100
AcDbLine
 10
447.3907170488606
 20
317.5263827501495
 30
0.0
 11
447.3907170488606
 21
328.0263827501494
 31
0.0
  0
LINE
  5
3932
330
1A
100
AcDbEntity
  8
SEIHIN
  6
CONTINUOUS
 62
     3
 48
16.0
100
AcDbLine
 10
452.4114170488607
 20
317.5263827501495
 30
0.0
 11
452.4114170488607
 21
328.0263827501494
 31
0.0
  0
ARC
  5
3933
330
1A
100
AcDbEntity
  8
SEIHIN
  6
CONTINUOUS
 62
     3
 48
16.0
100
AcDbCircle
 10
-1053.909834575552
 20
294.5275026775568
 30
0.0
 40
1498.499385199838
100
AcDbArc
 50
2.21816660694102
 51
3.060247000914202
  0
LINE
  5
3934
330
1A
100
AcDbEntity
  8
SEIHIN
  6
CONTINUOUS
 62
     3
 48
16.0
100
AcDbLine
 10
444.9681170488607
 20
352.5264827501493
 30
0.0
 11
434.9605170488606
 21
352.5264827501493
 31
0.0
  0
LINE
  5
3935
330
1A
100
AcDbEntity
  8
SEIHIN
  6
CONTINUOUS
 62
     3
 48
16.0
100
AcDbLine
 10
443.4081170488606
 20
354.0264827501494
 30
0.0
 11
434.9013170488604
 21
354.0264827501494
 31
0.0
  0
LINE
  5
3936
330
1A
100
AcDbEntity
  8
SEIHIN
  6
CONTINUOUS
 62
     3
 48
16.0
100
AcDbLine
 10
443.9550170488606
 20
374.5264827501494
 30
0.0
 11
433.9406170488605
 21
374.5264827501494
 31
0.0
  0
ARC
  5
3937
330
1A
100
AcDbEntity
  8
SEIHIN
  6
CONTINUOUS
 62
     3
 48
16.0
100
AcDbCircle
 10
-1059.444942742568
 20
294.5298527287651
 30
0.0
 40
1499.999470359456
100
AcDbArc
 50
2.273197168086358
 51
2.999717846982462
  0
ARC
  5
3938
330
1A
100
AcDbEntity
  8
SEIHIN
  6
CONTINUOUS
 62
     3
 48
16.0
100
AcDbCircle
 10
-1053.911839728808
 20
294.5787157640189
 30
0.0
 40
1495.999382047972
100
AcDbArc
 50
2.219912398545251
 51
2.277405673890389
  0
ARC
  5
3939
330
1A
100
AcDbEntity
  8
SEIHIN
  6
CONTINUOUS
 62
     3
 48
16.0
100
AcDbCircle
 10
-1053.905495192544
 20
294.4177225161986
 30
0.0
 40
1489.999436586677
100
AcDbArc
 50
2.235051531388527
 51
2.292776926839927
  0
LINE
  5
393A
330
1A
100
AcDbEntity
  8
SEIHIN
  6
CONTINUOUS
 62
     3
 48
16.0
100
AcDbLine
 10
442.5323170488606
 20
373.0264827501494
 30
0.0
 11
434.0205170488604
 21
373.0264827501494
 31
0.0
  0
ARC
  5
393B
330
1A
100
AcDbEntity
  8
SEIHIN
  6
CONTINUOUS
 62
     3
 48
16.0
100
AcDbCircle
 10
-1053.920056959896
 20
294.7192735542562
 30
0.0
 40
1489.999416901856
100
AcDbArc
 50
3.012574888623626
 51
3.07033659135806
  0
ARC
  5
393C
330
1A
100
AcDbEntity
  8
SEIHIN
  6
CONTINUOUS
 62
     3
 48
16.0
100
AcDbCircle
 10
-1053.908395678366
 20
294.5002320212273
 30
0.0
 40
1495.999482998595
100
AcDbArc
 50
3.008881844983068
 51
3.066411677400008
  0
LINE
  5
393D
330
1A
100
AcDbEntity
  8
SEIHIN
  6
CONTINUOUS
 62
     3
 48
16.0
100
AcDbLine
 10
515.8402170488606
 20
318.5263827501495
 30
0.0
 11
515.8402170488606
 21
329.5263827501495
 31
0.0
  0
LINE
  5
393E
330
1A
100
AcDbEntity
  8
SEIHIN
  6
CONTINUOUS
 62
     3
 48
16.0
100
AcDbLine
 10
484.8401170488606
 20
318.5263827501495
 30
0.0
 11
484.8401170488606
 21
329.5263827501495
 31
0.0
  0
LINE
  5
393F
330
1A
100
AcDbEntity
  8
SEIHIN
  6
CONTINUOUS
 62
     3
 48
16.0
100
AcDbLine
 10
495.8402170488605
 20
318.5263827501495
 30
0.0
 11
495.8402170488605
 21
329.5263827501495
 31
0.0
  0
LINE
  5
3940
330
1A
100
AcDbEntity
  8
SEIHIN
  6
CONTINUOUS
 62
     3
 48
16.0
100
AcDbLine
 10
464.8401170488606
 20
318.5263827501495
 30
0.0
 11
464.8401170488606
 21
329.5263827501495
 31
0.0
  0
LINE
  5
3941
330
1A
100
AcDbEntity
  8
SEIHIN
  6
CONTINUOUS
 62
     3
 48
16.0
100
AcDbLine
 10
495.8402170488605
 20
326.5264827501495
 30
0.0
 11
490.3402170488607
 21
326.5264827501495
 31
0.0
  0
LINE
  5
3942
330
1A
100
AcDbEntity
  8
SEIHIN
  6
CONTINUOUS
 62
     3
 48
16.0
100
AcDbLine
 10
466.8401170488605
 20
316.5263827501495
 30
0.0
 11
482.8401170488606
 21
316.5263827501495
 31
0.0
  0
ARC
  5
3943
330
1A
100
AcDbEntity
  8
SEIHIN
  6
CONTINUOUS
 62
     3
 48
16.0
100
AcDbCircle
 10
466.8401170488605
 20
318.5263827501494
 30
0.0
 40
1.999999999999914
100
AcDbArc
 50
179.9999999999975
 51
269.9999999999967
  0
ARC
  5
3944
330
1A
100
AcDbEntity
  8
SEIHIN
  6
CONTINUOUS
 62
     3
 48
16.0
100
AcDbCircle
 10
482.8401170488606
 20
318.5263827501495
 30
0.0
 40
2.0
100
AcDbArc
 50
270.0
 51
0.0
  0
LINE
  5
3945
330
1A
100
AcDbEntity
  8
SEIHIN
  6
CONTINUOUS
 62
     3
 48
16.0
100
AcDbLine
 10
484.8401170488606
 20
326.5263827501494
 30
0.0
 11
490.3401170488606
 21
326.5263827501494
 31
0.0
  0
ARC
  5
3946
330
1A
100
AcDbEntity
  8
SEIHIN
  6
CONTINUOUS
 62
     3
 48
16.0
100
AcDbCircle
 10
-975.9095201215149
 20
294.520493161869
 30
0.0
 40
1499.999937181938
100
AcDbArc
 50
0.000224965710516
 51
1.222631585131476
  0
LINE
  5
3947
330
1A
100
AcDbEntity
  8
SEIHIN
  6
CONTINUOUS
 62
     3
 48
16.0
100
AcDbLine
 10
513.8402170488604
 20
316.5263827501495
 30
0.0
 11
497.8402170488605
 21
316.5263827501495
 31
0.0
  0
ARC
  5
3948
330
1A
100
AcDbEntity
  8
SEIHIN
  6
CONTINUOUS
 62
     3
 48
16.0
100
AcDbCircle
 10
497.8402170488606
 20
318.5263827501494
 30
0.0
 40
1.999999999999914
100
AcDbArc
 50
179.9999999999975
 51
269.9999999999967
  0
ARC
  5
3949
330
1A
100
AcDbEntity
  8
SEIHIN
  6
CONTINUOUS
 62
     3
 48
16.0
100
AcDbCircle
 10
513.8402170488606
 20
318.5263827501496
 30
0.0
 40
2.000000000000085
100
AcDbArc
 50
269.9999999999967
 51
359.9999999999975
  0
ARC
  5
394A
330
1A
100
AcDbEntity
  8
SEIHIN
  6
CONTINUOUS
 62
     3
 48
16.0
100
AcDbCircle
 10
-975.9100365313166
 20
294.5405785358369
 30
0.0
 40
1499.999911273515
100
AcDbArc
 50
1.336480555524374
 51
2.322589821353508
  0
LINE
  5
394B
330
1A
100
AcDbEntity
  8
SEIHIN
  6
CONTINUOUS
 62
     3
 48
16.0
100
AcDbLine
 10
436.2215170488606
 20
466.3042827501494
 30
0.0
 11
434.7115170488605
 21
466.3042827501494
 31
0.0
  0
LINE
  5
394C
330
1A
100
AcDbEntity
  8
SEIHIN
  6
CONTINUOUS
 62
     3
 48
16.0
100
AcDbLine
 10
435.5333170488607
 20
459.0263827501495
 30
0.0
 11
426.9814170488605
 21
459.0263827501495
 31
0.0
  0
LINE
  5
394D
330
1A
100
AcDbEntity
  8
SEIHIN
  6
CONTINUOUS
 62
     3
 48
16.0
100
AcDbLine
 10
437.2072170488604
 20
457.5263827501495
 30
0.0
 11
427.1472170488605
 21
457.5263827501495
 31
0.0
  0
ARC
  5
394E
330
1A
100
AcDbEntity
  8
SEIHIN
  6
CONTINUOUS
 62
     3
 48
16.0
100
AcDbCircle
 10
-1053.909744505927
 20
294.526040736101
 30
0.0
 40
1498.499480381133
100
AcDbArc
 50
6.244745322092754
 51
6.582482570130967
  0
ARC
  5
394F
330
1A
100
AcDbEntity
  8
SEIHIN
  6
CONTINUOUS
 62
     3
 48
16.0
100
AcDbCircle
 10
-1053.90767090517
 20
294.5072033036211
 30
0.0
 40
1495.999519352639
100
AcDbArc
 50
6.255948306826882
 51
6.313744663900337
  0
ARC
  5
3950
330
1A
100
AcDbEntity
  8
SEIHIN
  6
CONTINUOUS
 62
     3
 48
16.0
100
AcDbCircle
 10
-1053.904788926959
 20
294.4812162193705
 30
0.0
 40
1489.999488095099
100
AcDbArc
 50
6.282246720022676
 51
6.340278768281383
  0
ARC
  5
3951
330
1A
100
AcDbEntity
  8
SEIHIN
  6
CONTINUOUS
 62
     3
 48
16.0
100
AcDbCircle
 10
450.4548009446748
 20
450.6396701678793
 30
0.0
 40
2.000017437378425
100
AcDbArc
 50
70.0344500810028
 51
185.9662603236386
  0
ARC
  5
3952
330
1A
100
AcDbEntity
  8
SEIHIN
  6
CONTINUOUS
 62
     3
 48
16.0
100
AcDbCircle
 10
567.1800170488604
 20
372.7003827501496
 30
0.0
 40
1.999997699998715
100
AcDbArc
 50
346.0012765006801
 51
76.00127650067754
  0
LINE
  5
3953
330
1A
100
AcDbEntity
  8
SEIHIN
  6
CONTINUOUS
 62
     3
 48
16.0
100
AcDbLine
 10
548.2904170488605
 20
336.2076827501496
 30
0.0
 11
559.7767170488605
 21
382.2758827501495
 31
0.0
  0
LINE
  5
3954
330
1A
100
AcDbEntity
  8
SEIHIN
  6
CONTINUOUS
 62
     3
 48
16.0
100
AcDbLine
 10
546.4721170488604
 20
335.1149827501494
 30
0.0
 11
558.3212170488605
 21
382.6388827501496
 31
0.0
  0
LINE
  5
3955
330
1A
100
AcDbEntity
  8
SEIHIN
  6
CONTINUOUS
 62
     3
 48
16.0
100
AcDbLine
 10
606.6725170488606
 20
431.8896827501494
 30
0.0
 11
592.2816170488606
 21
374.1714827501496
 31
0.0
  0
LINE
  5
3956
330
1A
100
AcDbEntity
  8
SEIHIN
  6
CONTINUOUS
 62
     3
 48
16.0
100
AcDbLine
 10
577.8907170488606
 20
316.4532827501496
 30
0.0
 11
592.2816170488606
 21
374.1714827501496
 31
0.0
  0
LINE
  5
3957
330
1A
100
AcDbEntity
  8
SEIHIN
  6
CONTINUOUS
 62
     3
 48
16.0
100
AcDbLine
 10
539.3188170488605
 20
326.5263827501494
 30
0.0
 11
539.3188170488605
 21
329.5263827501495
 31
0.0
  0
ARC
  5
3958
330
1A
100
AcDbEntity
  8
SEIHIN
  6
CONTINUOUS
 62
     3
 48
16.0
100
AcDbCircle
 10
-959.8749203175421
 20
294.5382702292678
 30
0.0
 40
1500.00001815788
100
AcDbArc
 50
0.7635122461808358
 51
1.504325009920447
  0
LINE
  5
3959
330
1A
100
AcDbEntity
  8
SEIHIN
  6
CONTINUOUS
 62
     3
 48
16.0
100
AcDbLine
 10
561.3636170488606
 20
332.8381827501496
 30
0.0
 11
559.2105170488606
 21
324.2025827501495
 31
0.0
  0
LINE
  5
395A
330
1A
100
AcDbEntity
  8
SEIHIN
  6
CONTINUOUS
 62
     3
 48
16.0
100
AcDbLine
 10
532.8163170488604
 20
328.0263827501494
 30
0.0
 11
534.3163170488605
 21
329.5264827501493
 31
0.0
  0
LINE
  5
395B
330
1A
100
AcDbEntity
  8
SEIHIN
  6
CONTINUOUS
 62
     3
 48
16.0
100
AcDbLine
 10
533.2897170488606
 20
328.0263827501494
 30
0.0
 11
534.7897170488606
 21
329.5264827501493
 31
0.0
  0
LINE
  5
395C
330
1A
100
AcDbEntity
  8
SEIHIN
  6
CONTINUOUS
 62
     3
 48
16.0
100
AcDbLine
 10
528.2689170488605
 20
328.0263827501494
 30
0.0
 11
529.7690170488605
 21
329.5264827501493
 31
0.0
  0
LINE
  5
395D
330
1A
100
AcDbEntity
  8
SEIHIN
  6
CONTINUOUS
 62
     3
 48
16.0
100
AcDbLine
 10
537.8188170488606
 20
328.0263827501494
 30
0.0
 11
539.3188170488605
 21
329.5263827501495
 31
0.0
  0
LINE
  5
395E
330
1A
100
AcDbEntity
  8
SEIHIN
  6
CONTINUOUS
 62
     3
 48
16.0
100
AcDbLine
 10
580.7705170488604
 20
327.9994827501496
 30
0.0
 11
561.3636170488606
 21
332.8381827501496
 31
0.0
  0
LINE
  5
395F
330
1A
100
AcDbEntity
  8
SEIHIN
  6
CONTINUOUS
 62
     3
 48
16.0
100
AcDbLine
 10
579.6820170488603
 20
323.6331827501495
 30
0.0
 11
560.2749170488605
 21
328.4718827501496
 31
0.0
  0
LINE
  5
3960
330
1A
100
AcDbEntity
  8
SEIHIN
  6
CONTINUOUS
 62
     3
 48
16.0
100
AcDbLine
 10
557.9983170488604
 20
323.4742827501495
 30
0.0
 11
550.3092170488605
 21
325.3913827501495
 31
0.0
  0
LINE
  5
3961
330
1A
100
AcDbEntity
  8
SEIHIN
  6
CONTINUOUS
 62
     3
 48
16.0
100
AcDbLine
 10
577.8907170488606
 20
316.4532827501496
 30
0.0
 11
553.5511170488606
 21
322.5218827501495
 31
0.0
  0
ARC
  5
3962
330
1A
100
AcDbEntity
  8
SEIHIN
  6
CONTINUOUS
 62
     3
 48
16.0
100
AcDbCircle
 10
-965.4095039648437
 20
294.5156124720231
 30
0.0
 40
1499.99992105237
100
AcDbArc
 50
0.0004113943418866
 51
0.8407797129709486
  0
LINE
  5
3963
330
1A
100
AcDbEntity
  8
SEIHIN
  6
CONTINUOUS
 62
     3
 48
16.0
100
AcDbLine
 10
549.8254170488604
 20
294.5263827501494
 30
0.0
 11
549.8254170488604
 21
319.6109827501495
 31
0.0
  0
LINE
  5
3964
330
1A
100
AcDbEntity
  8
SEIHIN
  6
CONTINUOUS
 62
     3
 48
16.0
100
AcDbLine
 10
537.9253170488604
 20
294.5253827501495
 30
0.0
 11
537.9254170488605
 21
314.5263827501495
 31
0.0
  0
LINE
  5
3965
330
1A
100
AcDbEntity
  8
SEIHIN
  6
CONTINUOUS
 62
     3
 48
16.0
100
AcDbLine
 10
542.4253170488604
 20
294.5251827501495
 30
0.0
 11
542.4254170488604
 21
314.5263827501495
 31
0.0
  0
LINE
  5
3966
330
1A
100
AcDbEntity
  8
SEIHIN
  6
CONTINUOUS
 62
     3
 48
16.0
100
AcDbLine
 10
537.9254170488605
 20
314.5263827501495
 30
0.0
 11
546.8254170488604
 21
314.5263827501495
 31
0.0
  0
ARC
  5
3967
330
1A
100
AcDbEntity
  8
SEIHIN
  6
CONTINUOUS
 62
     3
 48
16.0
100
AcDbCircle
 10
531.8163170488604
 20
317.5264827501493
 30
0.0
 40
1.0
100
AcDbArc
 50
270.0
 51
0.0
  0
ARC
  5
3968
330
1A
100
AcDbEntity
  8
SEIHIN
  6
CONTINUOUS
 62
     3
 48
16.0
100
AcDbCircle
 10
534.2896170488605
 20
317.5264827501493
 30
0.0
 40
1.0
100
AcDbArc
 50
180.0
 51
270.0
  0
ARC
  5
3969
330
1A
100
AcDbEntity
  8
SEIHIN
  6
CONTINUOUS
 62
     3
 48
16.0
100
AcDbCircle
 10
536.4284170488605
 20
317.5264827501493
 30
0.0
 40
0.9999999999999431
100
AcDbArc
 50
270.0000000000032
 51
0.0000000000032569
  0
ARC
  5
396A
330
1A
100
AcDbEntity
  8
SEIHIN
  6
CONTINUOUS
 62
     3
 48
16.0
100
AcDbCircle
 10
535.1564170488606
 20
317.5264827501495
 30
0.0
 40
1.000000000000056
100
AcDbArc
 50
269.9999999999967
 51
359.9999999999967
  0
ARC
  5
396B
330
1A
100
AcDbEntity
  8
SEIHIN
  6
CONTINUOUS
 62
     3
 48
16.0
100
AcDbCircle
 10
529.2689170488606
 20
317.5264827501494
 30
0.0
 40
1.000000000000056
100
AcDbArc
 50
180.0000000000016
 51
270.0
  0
LINE
  5
396C
330
1A
100
AcDbEntity
  8
SEIHIN
  6
CONTINUOUS
 62
     3
 48
16.0
100
AcDbLine
 10
531.8163170488604
 20
316.5263827501495
 30
0.0
 11
529.2689170488606
 21
316.5263827501495
 31
0.0
  0
LINE
  5
396D
330
1A
100
AcDbEntity
  8
SEIHIN
  6
CONTINUOUS
 62
     3
 48
16.0
100
AcDbLine
 10
536.4284170488606
 20
316.5263827501495
 30
0.0
 11
534.2896170488605
 21
316.5263827501495
 31
0.0
  0
LINE
  5
396E
330
1A
100
AcDbEntity
  8
SEIHIN
  6
CONTINUOUS
 62
     3
 48
16.0
100
AcDbLine
 10
533.2897170488606
 20
326.5264827501495
 30
0.0
 11
532.8163170488604
 21
326.5264827501495
 31
0.0
  0
LINE
  5
396F
330
1A
100
AcDbEntity
  8
SEIHIN
  6
CONTINUOUS
 62
     3
 48
16.0
100
AcDbLine
 10
528.2689170488605
 20
317.5264827501493
 30
0.0
 11
528.2689170488605
 21
328.0263827501494
 31
0.0
  0
LINE
  5
3970
330
1A
100
AcDbEntity
  8
SEIHIN
  6
CONTINUOUS
 62
     3
 48
16.0
100
AcDbLine
 10
532.8163170488604
 20
317.5264827501493
 30
0.0
 11
532.8163170488604
 21
328.0263827501494
 31
0.0
  0
LINE
  5
3971
330
1A
100
AcDbEntity
  8
SEIHIN
  6
CONTINUOUS
 62
     3
 48
16.0
100
AcDbLine
 10
533.2896170488604
 20
317.5264827501493
 30
0.0
 11
533.2896170488604
 21
328.0263827501494
 31
0.0
  0
LINE
  5
3972
330
1A
100
AcDbEntity
  8
SEIHIN
  6
CONTINUOUS
 62
     3
 48
16.0
100
AcDbLine
 10
537.4284170488605
 20
317.5264827501493
 30
0.0
 11
537.4284170488605
 21
326.5264827501495
 31
0.0
  0
LINE
  5
3973
330
1A
100
AcDbEntity
  8
SEIHIN
  6
CONTINUOUS
 62
     3
 48
16.0
100
AcDbLine
 10
536.1564170488605
 20
317.5264827501493
 30
0.0
 11
536.1564170488605
 21
328.0263827501494
 31
0.0
  0
LINE
  5
3974
330
1A
100
AcDbEntity
  8
SEIHIN
  6
CONTINUOUS
 62
     3
 48
16.0
100
AcDbLine
 10
539.3189170488605
 20
326.5263827501494
 30
0.0
 11
536.1565170488604
 21
326.5264827501495
 31
0.0
  0
LINE
  5
3975
330
1A
100
AcDbEntity
  8
SEIHIN
  6
CONTINUOUS
 62
     3
 48
16.0
100
AcDbLine
 10
547.8254170488604
 20
323.4507827501495
 30
0.0
 11
547.8254170488604
 21
315.5263827501494
 31
0.0
  0
ARC
  5
3976
330
1A
100
AcDbEntity
  8
SEIHIN
  6
CONTINUOUS
 62
     3
 48
16.0
100
AcDbCircle
 10
546.8254170488604
 20
315.5263827501495
 30
0.0
 40
0.9999999999999431
100
AcDbArc
 50
269.9999999999967
 51
359.9999999999967
  0
ARC
  5
3977
330
1A
100
AcDbEntity
  8
SEIHIN
  6
CONTINUOUS
 62
     3
 48
16.0
100
AcDbCircle
 10
552.8254153238594
 20
319.6109814024001
 30
0.0
 40
2.999998274999368
100
AcDbArc
 50
76.00125076054604
 51
179.9999742598664
  0
ARC
  5
3978
330
1A
100
AcDbEntity
  8
SEIHIN
  6
CONTINUOUS
 62
     3
 48
16.0
100
AcDbCircle
 10
549.8254158988599
 20
323.4507818516499
 30
0.0
 40
1.999998849999546
100
AcDbArc
 50
76.00125076054782
 51
179.999974259868
  0
ARC
  5
3979
330
1A
100
AcDbEntity
  8
SEIHIN
  6
CONTINUOUS
 62
     3
 48
16.0
100
AcDbCircle
 10
558.2402170488605
 20
324.4445827501496
 30
0.0
 40
0.9999988499994543
100
AcDbArc
 50
256.0012765006792
 51
346.0012765006792
  0
LINE
  5
397A
330
1A
100
AcDbEntity
  8
SEIHIN
  6
CONTINUOUS
 62
     3
 48
16.0
100
AcDbLine
 10
562.8254170488604
 20
355.2350827501495
 30
0.0
 11
552.1521170488606
 21
357.8961827501493
 31
0.0
  0
ARC
  5
397B
330
1A
100
AcDbEntity
  8
SEIHIN
  6
CONTINUOUS
 62
     3
 48
16.0
100
AcDbCircle
 10
943.1259532760972
 20
1781.307491810953
 30
0.0
 40
1499.999965180794
100
AcDbArc
 50
254.4949070837901
 51
255.235759304241
  0
LINE
  5
397C
330
1A
100
AcDbEntity
  8
SEIHIN
  6
CONTINUOUS
 62
     3
 48
16.0
100
AcDbLine
 10
560.7887170488604
 20
342.9336827501496
 30
0.0
 11
550.6007170488604
 21
345.4738827501495
 31
0.0
  0
LINE
  5
397D
330
1A
100
AcDbEntity
  8
SEIHIN
  6
CONTINUOUS
 62
     3
 48
16.0
100
AcDbLine
 10
559.6887170488606
 20
338.5213827501495
 30
0.0
 11
549.5006170488604
 21
341.0616827501494
 31
0.0
  0
LINE
  5
397E
330
1A
100
AcDbEntity
  8
SEIHIN
  6
CONTINUOUS
 62
     3
 48
16.0
100
AcDbLine
 10
559.5741170488606
 20
338.0620827501495
 30
0.0
 11
549.3861170488604
 21
340.6022827501494
 31
0.0
  0
LINE
  5
397F
330
1A
100
AcDbEntity
  8
SEIHIN
  6
CONTINUOUS
 62
     3
 48
16.0
100
AcDbLine
 10
558.5729170488606
 20
334.0462827501495
 30
0.0
 11
549.8402170488605
 21
336.2235827501496
 31
0.0
  0
LINE
  5
3980
330
1A
100
AcDbEntity
  8
SEIHIN
  6
CONTINUOUS
 62
     3
 48
16.0
100
AcDbLine
 10
558.8806170488604
 20
335.2804827501495
 30
0.0
 11
548.6925170488604
 21
337.8206827501495
 31
0.0
  0
ARC
  5
3981
330
1A
100
AcDbEntity
  8
SEIHIN
  6
CONTINUOUS
 62
     3
 48
16.0
100
AcDbCircle
 10
947.0087947152322
 20
1796.864545793815
 30
0.0
 40
1499.999417719082
100
AcDbArc
 50
254.7771416938098
 51
255.9995640097265
  0
ARC
  5
3982
330
1A
100
AcDbEntity
  8
SEIHIN
  6
CONTINUOUS
 62
     3
 48
16.0
100
AcDbCircle
 10
947.0009559178716
 20
1796.866677551574
 30
0.0
 40
1499.999483500749
100
AcDbArc
 50
253.676696760922
 51
254.6628511886805
  0
LINE
  5
3983
330
1A
100
AcDbEntity
  8
SEIHIN
  6
CONTINUOUS
 62
     3
 48
16.0
100
AcDbLine
 10
552.0561170488606
 20
345.1109827501495
 30
0.0
 11
555.0630170488606
 21
357.1704827501493
 31
0.0
  0
ARC
  5
3984
330
1A
100
AcDbEntity
  8
SEIHIN
  6
CONTINUOUS
 62
     3
 48
16.0
100
AcDbCircle
 10
944.472553274568
 20
1786.67534481349
 30
0.0
 40
1499.999669837401
100
AcDbArc
 50
254.2139349415685
 51
254.6624017162858
  0
ARC
  5
3985
330
1A
100
AcDbEntity
  8
SEIHIN
  6
CONTINUOUS
 62
     3
 48
16.0
100
AcDbCircle
 10
541.607422831037
 20
333.9693872674829
 30
0.0
 40
1.999995083740024
100
AcDbArc
 50
74.49349575919524
 51
181.5043201477831
  0
ARC
  5
3986
330
1A
100
AcDbEntity
  8
SEIHIN
  6
CONTINUOUS
 62
     3
 48
16.0
100
AcDbCircle
 10
-965.4101071406094
 20
294.5456152304959
 30
0.0
 40
1499.99986439684
100
AcDbArc
 50
1.336288157373419
 51
1.784711090791248
  0
ARC
  5
3987
330
1A
100
AcDbEntity
  8
SEIHIN
  6
CONTINUOUS
 62
     3
 48
16.0
100
AcDbCircle
 10
535.8612472875917
 20
341.3240063748326
 30
0.0
 40
2.000001532388245
100
AcDbArc
 50
74.21462235579944
 51
181.7857280480139
  0
LINE
  5
3988
330
1A
100
AcDbEntity
  8
SEIHIN
  6
CONTINUOUS
 62
     3
 48
16.0
100
AcDbLine
 10
549.3861170488604
 20
340.6021827501496
 30
0.0
 11
547.5677170488604
 21
339.5096827501494
 31
0.0
  0
LINE
  5
3989
330
1A
100
AcDbEntity
  8
SEIHIN
  6
CONTINUOUS
 62
     3
 48
16.0
100
AcDbLine
 10
549.3830170488606
 20
334.3891827501495
 30
0.0
 11
550.1479170488607
 21
337.4577827501496
 31
0.0
  0
LINE
  5
398A
330
1A
100
AcDbEntity
  8
SEIHIN
  6
CONTINUOUS
 62
     3
 48
16.0
100
AcDbLine
 10
549.3830170488606
 20
334.3892827501496
 30
0.0
 11
546.4721170488604
 21
335.1150827501495
 31
0.0
  0
LINE
  5
398B
330
1A
100
AcDbEntity
  8
SEIHIN
  6
CONTINUOUS
 62
     3
 48
16.0
100
AcDbLine
 10
550.6008170488606
 20
345.4738827501495
 30
0.0
 11
548.7824170488604
 21
344.3812827501496
 31
0.0
  0
LINE
  5
398C
330
1A
100
AcDbEntity
  8
SEIHIN
  6
CONTINUOUS
 62
     3
 48
16.0
100
AcDbLine
 10
549.5006170488604
 20
341.0615827501494
 30
0.0
 11
547.6822170488604
 21
339.9690827501494
 31
0.0
  0
LINE
  5
398D
330
1A
100
AcDbEntity
  8
SEIHIN
  6
CONTINUOUS
 62
     3
 48
16.0
100
AcDbLine
 10
550.8415170488604
 20
340.2393827501496
 30
0.0
 11
550.9560170488606
 21
340.6986827501496
 31
0.0
  0
ARC
  5
398E
330
1A
100
AcDbEntity
  8
SEIHIN
  6
CONTINUOUS
 62
     3
 48
16.0
100
AcDbCircle
 10
944.4593834130474
 20
1786.678902801145
 30
0.0
 40
1499.99957250448
100
AcDbArc
 50
255.1595385673023
 51
255.9998808616176
  0
LINE
  5
398F
330
1A
100
AcDbEntity
  8
SEIHIN
  6
CONTINUOUS
 62
     3
 48
16.0
100
AcDbLine
 10
560.9010170488605
 20
339.2497827501496
 30
0.0
 11
561.5172170488604
 21
341.7213827501496
 31
0.0
  0
ARC
  5
3990
330
1A
100
AcDbEntity
  8
SEIHIN
  6
CONTINUOUS
 62
     3
 48
16.0
100
AcDbCircle
 10
559.9306170488605
 20
339.4917827501494
 30
0.0
 40
0.9999988499992889
100
AcDbArc
 50
256.0012765006892
 51
346.0012765006907
  0
ARC
  5
3991
330
1A
100
AcDbEntity
  8
SEIHIN
  6
CONTINUOUS
 62
     3
 48
16.0
100
AcDbCircle
 10
559.3322258594544
 20
337.0918680859876
 30
0.0
 40
1.000010947440064
100
AcDbArc
 50
345.9964102661809
 51
76.00196955394682
  0
ARC
  5
3992
330
1A
100
AcDbEntity
  8
SEIHIN
  6
CONTINUOUS
 62
     3
 48
16.0
100
AcDbCircle
 10
558.8148435745737
 20
335.016538606177
 30
0.0
 40
0.999962434294021
100
AcDbArc
 50
255.9991899180917
 51
346.0033630832718
  0
ARC
  5
3993
330
1A
100
AcDbEntity
  8
SEIHIN
  6
CONTINUOUS
 62
     3
 48
16.0
100
AcDbCircle
 10
559.1225023846987
 20
336.2507739395557
 30
0.0
 40
1.000010947440084
100
AcDbArc
 50
255.9964102661758
 51
346.0019695539512
  0
LINE
  5
3994
330
1A
100
AcDbEntity
  8
SEIHIN
  6
CONTINUOUS
 62
     3
 48
16.0
100
AcDbLine
 10
559.7852170488606
 20
334.7746827501493
 30
0.0
 11
560.3025170488606
 21
336.8498827501496
 31
0.0
  0
ARC
  5
3995
330
1A
100
AcDbEntity
  8
SEIHIN
  6
CONTINUOUS
 62
     3
 48
16.0
100
AcDbCircle
 10
560.5468905274309
 20
341.9634268930538
 30
0.0
 40
0.9999624342943246
100
AcDbArc
 50
345.9922442547716
 51
75.99919017103876
  0
LINE
  5
3996
330
1A
100
AcDbEntity
  8
SEIHIN
  6
CONTINUOUS
 62
     3
 48
16.0
100
AcDbLine
 10
565.2498170488606
 20
356.6917827501494
 30
0.0
 11
569.1206170488604
 21
372.2165827501495
 31
0.0
  0
ARC
  5
3997
330
1A
100
AcDbEntity
  8
SEIHIN
  6
CONTINUOUS
 62
     3
 48
16.0
100
AcDbCircle
 10
563.3092170488606
 20
357.1756827501495
 30
0.0
 40
1.999997699998743
100
AcDbArc
 50
256.0012765006775
 51
346.0012765006816
  0
LINE
  5
3998
330
1A
100
AcDbEntity
  8
SEIHIN
  6
CONTINUOUS
 62
     3
 48
16.0
100
AcDbLine
 10
603.7947170488607
 20
420.3428827501495
 30
0.0
 11
584.3877170488606
 21
425.1815827501494
 31
0.0
  0
ARC
  5
3999
330
1A
100
AcDbEntity
  8
SEIHIN
  6
CONTINUOUS
 62
     3
 48
16.0
100
AcDbCircle
 10
965.8747957885347
 20
1872.549665358277
 30
0.0
 40
1500.000021203731
100
AcDbArc
 50
255.1593489944728
 51
255.9996956881549
  0
LINE
  5
399A
330
1A
100
AcDbEntity
  8
SEIHIN
  6
CONTINUOUS
 62
     3
 48
16.0
100
AcDbLine
 10
604.8833170488604
 20
424.7091827501495
 30
0.0
 11
585.4764170488603
 21
429.5479827501496
 31
0.0
  0
ARC
  5
399B
330
1A
100
AcDbEntity
  8
SEIHIN
  6
CONTINUOUS
 62
     3
 48
16.0
100
AcDbCircle
 10
963.3391348161147
 20
1862.360483201511
 30
0.0
 40
1499.999973056988
100
AcDbArc
 50
254.7771419201032
 51
255.9995637834329
  0
ARC
  5
399C
330
1A
100
AcDbEntity
  8
SEIHIN
  6
CONTINUOUS
 62
     3
 48
16.0
100
AcDbCircle
 10
579.9989170488608
 20
419.9796827501495
 30
0.0
 40
0.99999884999922
100
AcDbArc
 50
346.0012765006848
 51
76.00127650068586
  0
LINE
  5
399D
330
1A
100
AcDbEntity
  8
SEIHIN
  6
CONTINUOUS
 62
     3
 48
16.0
100
AcDbLine
 10
580.2409170488606
 20
420.9499827501494
 30
0.0
 11
570.0528170488606
 21
423.4902827501496
 31
0.0
  0
LINE
  5
399E
330
1A
100
AcDbEntity
  8
SEIHIN
  6
CONTINUOUS
 62
     3
 48
16.0
100
AcDbLine
 10
571.2629170488604
 20
428.3441827501494
 30
0.0
 11
559.7767170488605
 21
382.2758827501495
 31
0.0
  0
LINE
  5
399F
330
1A
100
AcDbEntity
  8
SEIHIN
  6
CONTINUOUS
 62
     3
 48
16.0
100
AcDbLine
 10
570.1704170488604
 20
430.1625827501494
 30
0.0
 11
558.3213170488604
 21
382.6388827501496
 31
0.0
  0
LINE
  5
39A0
330
1A
100
AcDbEntity
  8
SEIHIN
  6
CONTINUOUS
 62
     3
 48
16.0
100
AcDbLine
 10
567.6639170488606
 20
374.6409827501495
 30
0.0
 11
556.9906170488605
 21
377.3021827501495
 31
0.0
  0
LINE
  5
39A1
330
1A
100
AcDbEntity
  8
SEIHIN
  6
CONTINUOUS
 62
     3
 48
16.0
100
AcDbLine
 10
576.6203170488607
 20
402.2957827501495
 30
0.0
 11
572.7496170488605
 21
386.7710827501496
 31
0.0
  0
LINE
  5
39A2
330
1A
100
AcDbEntity
  8
SEIHIN
  6
CONTINUOUS
 62
     3
 48
16.0
100
AcDbLine
 10
570.3251170488606
 20
385.3142827501494
 30
0.0
 11
559.6518170488606
 21
387.9754827501494
 31
0.0
  0
LINE
  5
39A3
330
1A
100
AcDbEntity
  8
SEIHIN
  6
CONTINUOUS
 62
     3
 48
16.0
100
AcDbLine
 10
562.5627170488605
 20
387.2496827501495
 30
0.0
 11
561.2322170488607
 21
381.9130827501495
 31
0.0
  0
ARC
  5
39A4
330
1A
100
AcDbEntity
  8
SEIHIN
  6
CONTINUOUS
 62
     3
 48
16.0
100
AcDbCircle
 10
570.8089905234173
 20
387.254926898524
 30
0.0
 40
2.000058311649985
100
AcDbArc
 50
255.9995401184786
 51
345.9974535278579
  0
LINE
  5
39A5
330
1A
100
AcDbEntity
  8
SEIHIN
  6
CONTINUOUS
 62
     3
 48
16.0
100
AcDbLine
 10
559.9014170488605
 20
376.5763827501495
 30
0.0
 11
561.2320170488605
 21
381.9130827501495
 31
0.0
  0
LINE
  5
39A6
330
1A
100
AcDbEntity
  8
SEIHIN
  6
CONTINUOUS
 62
     3
 48
16.0
100
AcDbLine
 10
575.1636170488605
 20
404.7202827501494
 30
0.0
 11
564.4903170488606
 21
407.3813827501495
 31
0.0
  0
LINE
  5
39A7
330
1A
100
AcDbEntity
  8
SEIHIN
  6
CONTINUOUS
 62
     3
 48
16.0
100
AcDbLine
 10
579.1407170488606
 20
416.5377827501495
 30
0.0
 11
568.9526170488604
 21
419.0779827501494
 31
0.0
  0
LINE
  5
39A8
330
1A
100
AcDbEntity
  8
SEIHIN
  6
CONTINUOUS
 62
     3
 48
16.0
100
AcDbLine
 10
570.4081170488605
 20
418.7151827501494
 30
0.0
 11
567.4012170488603
 21
406.6555827501495
 31
0.0
  0
LINE
  5
39A9
330
1A
100
AcDbEntity
  8
SEIHIN
  6
CONTINUOUS
 62
     3
 48
16.0
100
AcDbLine
 10
568.9526170488604
 20
419.0779827501494
 30
0.0
 11
567.8600170488603
 21
420.8962827501494
 31
0.0
  0
ARC
  5
39AA
330
1A
100
AcDbEntity
  8
SEIHIN
  6
CONTINUOUS
 62
     3
 48
16.0
100
AcDbCircle
 10
574.679708238127
 20
402.7795974137383
 30
0.0
 40
2.000009796226014
100
AcDbArc
 50
346.0009299552292
 51
75.9981502777159
  0
ARC
  5
39AB
330
1A
100
AcDbEntity
  8
SEIHIN
  6
CONTINUOUS
 62
     3
 48
16.0
100
AcDbCircle
 10
579.3826170488605
 20
417.5080827501494
 30
0.0
 40
0.9999988499992614
100
AcDbArc
 50
256.0012765006892
 51
346.001276500686
  0
LINE
  5
39AC
330
1A
100
AcDbEntity
  8
SEIHIN
  6
CONTINUOUS
 62
     3
 48
16.0
100
AcDbLine
 10
580.9692170488606
 20
419.7377827501496
 30
0.0
 11
580.3529170488604
 21
417.2661827501496
 31
0.0
  0
ARC
  5
39AD
330
1A
100
AcDbEntity
  8
SEIHIN
  6
CONTINUOUS
 62
     3
 48
16.0
100
AcDbCircle
 10
967.2147071342974
 20
1877.920446927078
 30
0.0
 40
1500.000363498021
100
AcDbArc
 50
253.7837136266823
 51
255.2357098346401
  0
LINE
  5
39AE
330
1A
100
AcDbEntity
  8
SEIHIN
  6
CONTINUOUS
 62
     3
 48
16.0
100
AcDbLine
 10
525.8796170488604
 20
438.5327827501495
 30
0.0
 11
528.3024170488606
 21
448.2496827501495
 31
0.0
  0
LINE
  5
39AF
330
1A
100
AcDbEntity
  8
SEIHIN
  6
CONTINUOUS
 62
     3
 48
16.0
100
AcDbLine
 10
527.6793170488606
 20
439.5502827501495
 30
0.0
 11
529.7386170488606
 21
447.8092827501495
 31
0.0
  0
ARC
  5
39B0
330
1A
100
AcDbEntity
  8
SEIHIN
  6
CONTINUOUS
 62
     3
 48
16.0
100
AcDbCircle
 10
965.882803480739
 20
1872.547285549288
 30
0.0
 40
1498.500070425942
100
AcDbArc
 50
252.9391061468881
 51
253.7812139596198
  0
ARC
  5
39B1
330
1A
100
AcDbEntity
  8
SEIHIN
  6
CONTINUOUS
 62
     3
 48
16.0
100
AcDbCircle
 10
967.2139157324689
 20
1877.920672787851
 30
0.0
 40
1500.000191280165
100
AcDbArc
 50
252.9998527849672
 51
253.7263643403388
  0
ARC
  5
39B2
330
1A
100
AcDbEntity
  8
SEIHIN
  6
CONTINUOUS
 62
     3
 48
16.0
100
AcDbCircle
 10
966.0397349756133
 20
1872.499137921562
 30
0.0
 40
1496.000020556166
100
AcDbArc
 50
252.927711439266
 51
252.9852195643971
  0
LINE
  5
39B3
330
1A
100
AcDbEntity
  8
SEIHIN
  6
CONTINUOUS
 62
     3
 48
16.0
100
AcDbLine
 10
546.9811170488604
 20
432.2274827501495
 30
0.0
 11
549.4022170488604
 21
441.9376827501493
 31
0.0
  0
ARC
  5
39B4
330
1A
100
AcDbEntity
  8
SEIHIN
  6
CONTINUOUS
 62
     3
 48
16.0
100
AcDbCircle
 10
965.7547550955561
 20
1872.584687828937
 30
0.0
 40
1489.999964428444
100
AcDbArc
 50
253.7159627416834
 51
253.773701663874
  0
ARC
  5
39B5
330
1A
100
AcDbEntity
  8
SEIHIN
  6
CONTINUOUS
 62
     3
 48
16.0
100
AcDbCircle
 10
965.9809751238245
 20
1872.518726040941
 30
0.0
 40
1496.000057984464
100
AcDbArc
 50
253.7160785300955
 51
253.7735858754477
  0
LINE
  5
39B6
330
1A
100
AcDbEntity
  8
SEIHIN
  6
CONTINUOUS
 62
     3
 48
16.0
100
AcDbLine
 10
545.9031170488606
 20
434.1039827501496
 30
0.0
 11
547.9610170488606
 21
442.3579827501494
 31
0.0
  0
ARC
  5
39B7
330
1A
100
AcDbEntity
  8
SEIHIN
  6
CONTINUOUS
 62
     3
 48
16.0
100
AcDbCircle
 10
965.868070035616
 20
1872.55174385203
 30
0.0
 40
1490.00016702378
100
AcDbArc
 50
252.922234167172
 51
252.9799956268155
  0
LINE
  5
39B8
330
1A
100
AcDbEntity
  8
SEIHIN
  6
CONTINUOUS
 62
     3
 48
16.0
100
AcDbLine
 10
581.3566170488605
 20
425.4251827501493
 30
0.0
 11
572.6240170488607
 21
427.6024827501495
 31
0.0
  0
LINE
  5
39B9
330
1A
100
AcDbEntity
  8
SEIHIN
  6
CONTINUOUS
 62
     3
 48
16.0
100
AcDbLine
 10
580.3553170488604
 20
421.4093827501494
 30
0.0
 11
570.1672170488604
 21
423.9494827501493
 31
0.0
  0
LINE
  5
39BA
330
1A
100
AcDbEntity
  8
SEIHIN
  6
CONTINUOUS
 62
     3
 48
16.0
100
AcDbLine
 10
581.0489170488606
 20
424.1909827501496
 30
0.0
 11
570.8608170488607
 21
426.7312827501496
 31
0.0
  0
LINE
  5
39BB
330
1A
100
AcDbEntity
  8
SEIHIN
  6
CONTINUOUS
 62
     3
 48
16.0
100
AcDbLine
 10
573.0813170488605
 20
429.4367827501495
 30
0.0
 11
572.3163170488605
 21
426.3683827501495
 31
0.0
  0
LINE
  5
39BC
330
1A
100
AcDbEntity
  8
SEIHIN
  6
CONTINUOUS
 62
     3
 48
16.0
100
AcDbLine
 10
570.0528170488606
 20
423.4902827501496
 30
0.0
 11
568.9601170488606
 21
425.3085827501495
 31
0.0
  0
LINE
  5
39BD
330
1A
100
AcDbEntity
  8
SEIHIN
  6
CONTINUOUS
 62
     3
 48
16.0
100
AcDbLine
 10
570.1673170488605
 20
423.9495827501496
 30
0.0
 11
569.0747170488606
 21
425.7679827501496
 31
0.0
  0
LINE
  5
39BE
330
1A
100
AcDbEntity
  8
SEIHIN
  6
CONTINUOUS
 62
     3
 48
16.0
100
AcDbLine
 10
571.6227170488606
 20
423.5866827501494
 30
0.0
 11
571.5082170488606
 21
423.1273827501494
 31
0.0
  0
LINE
  5
39BF
330
1A
100
AcDbEntity
  8
SEIHIN
  6
CONTINUOUS
 62
     3
 48
16.0
100
AcDbLine
 10
571.2630170488607
 20
428.3441827501494
 30
0.0
 11
570.1704170488604
 21
430.1625827501494
 31
0.0
  0
LINE
  5
39C0
330
1A
100
AcDbEntity
  8
SEIHIN
  6
CONTINUOUS
 62
     3
 48
16.0
100
AcDbLine
 10
573.0813170488605
 20
429.4367827501495
 30
0.0
 11
570.1704170488604
 21
430.1624827501496
 31
0.0
  0
LINE
  5
39C1
330
1A
100
AcDbEntity
  8
SEIHIN
  6
CONTINUOUS
 62
     3
 48
16.0
100
AcDbLine
 10
584.3877170488606
 20
425.1815827501494
 30
0.0
 11
586.5764170488606
 21
433.9598827501494
 31
0.0
  0
ARC
  5
39C2
330
1A
100
AcDbEntity
  8
SEIHIN
  6
CONTINUOUS
 62
     3
 48
16.0
100
AcDbCircle
 10
580.5972435745736
 20
422.379538606177
 30
0.0
 40
0.9999624342942967
100
AcDbArc
 50
255.9991899180901
 51
346.003363083277
  0
ARC
  5
39C3
330
1A
100
AcDbEntity
  8
SEIHIN
  6
CONTINUOUS
 62
     3
 48
16.0
100
AcDbCircle
 10
581.1146817116984
 20
424.4548415597065
 30
0.0
 40
0.9999503362667997
100
AcDbArc
 50
345.9971106077227
 51
75.99849673031304
  0
ARC
  5
39C4
330
1A
100
AcDbEntity
  8
SEIHIN
  6
CONTINUOUS
 62
     3
 48
16.0
100
AcDbCircle
 10
580.8070170488605
 20
423.2206827501495
 30
0.0
 40
0.9999988499993854
100
AcDbArc
 50
346.0012765006741
 51
76.0012765006742
  0
LINE
  5
39C5
330
1A
100
AcDbEntity
  8
SEIHIN
  6
CONTINUOUS
 62
     3
 48
16.0
100
AcDbLine
 10
582.0849170488604
 20
424.2129827501495
 30
0.0
 11
581.5675170488606
 21
422.1376827501496
 31
0.0
  0
ARC
  5
39C6
330
1A
100
AcDbEntity
  8
SEIHIN
  6
CONTINUOUS
 62
     3
 48
16.0
100
AcDbCircle
 10
585.6061198056094
 20
434.2017780885495
 30
0.0
 40
0.9999950474880618
100
AcDbArc
 50
346.0014974513394
 51
75.19687387287561
  0
ARC
  5
39C7
330
1A
100
AcDbEntity
  8
SEIHIN
  6
CONTINUOUS
 62
     3
 48
16.0
100
AcDbCircle
 10
422.5753383284369
 20
486.3241993748276
 30
0.0
 40
1.999946714202866
100
AcDbArc
 50
68.67245805726615
 51
187.3258270848555
  0
ARC
  5
39C8
330
1A
100
AcDbEntity
  8
SEIHIN
  6
CONTINUOUS
 62
     3
 48
16.0
100
AcDbCircle
 10
967.2211998703929
 20
1877.91795924904
 30
0.0
 40
1500.000300661471
100
AcDbArc
 50
249.1129044615076
 51
249.7033354389367
  0
ARC
  5
39C9
330
1A
100
AcDbEntity
  8
SEIHIN
  6
CONTINUOUS
 62
     3
 48
16.0
100
AcDbCircle
 10
431.7189082543444
 20
474.6208758790059
 30
0.0
 40
2.000018294901802
100
AcDbArc
 50
69.11452637162887
 51
186.8860697635001
  0
LINE
  5
39CA
330
1A
100
AcDbEntity
  8
SEIHIN
  6
CONTINUOUS
 62
     3
 48
16.0
100
AcDbLine
 10
438.6990170488607
 20
468.2399827501495
 30
0.0
 11
439.0644170488605
 21
469.7050827501493
 31
0.0
  0
ARC
  5
39CB
330
1A
100
AcDbEntity
  8
SEIHIN
  6
CONTINUOUS
 62
     3
 48
16.0
100
AcDbCircle
 10
965.6434864623056
 20
1872.635193615914
 30
0.0
 40
1495.999994142696
100
AcDbArc
 50
249.6961884872487
 51
249.7540146757722
  0
ARC
  5
39CC
330
1A
100
AcDbEntity
  8
SEIHIN
  6
CONTINUOUS
 62
     3
 48
16.0
100
AcDbCircle
 10
965.9620062306233
 20
1872.517424544623
 30
0.0
 40
1489.99993387119
100
AcDbArc
 50
249.657612745053
 51
249.715632908928
  0
VIEWPORT
  5
22
330
17
100
AcDbEntity
 67
     1
  8
0
100
AcDbViewport
 10
313.6808219178082
 20
148.5
 30
0.0
 40
627.3616438356165
 41
297.0
 68
     2
 69
     1
1001
ACAD
1000
MVIEW
1002
{
1070
    16
1010
0.0
1020
0.0
1030
0.0
1010
0.0
1020
0.0
1030
1.0
1040
0.0
1040
297.0
1040
313.6808219178082
1040
148.5
1040
50.0
1040
0.0
1040
0.0
1070
     0
1070
   100
1070
     1
1070
     0
1070
     0
1070
     0
1070
     0
1070
     0
1040
0.0
1040
0.0
1040
0.0
1040
1.0
1040
1.0
1040
10.0
1040
10.0
1070
     0
1002
{
1002
}
1002
}
  0
VIEWPORT
  5
64
330
17
100
AcDbEntity
 67
     1
  8
VIEWPORT
100
AcDbViewport
 10
210.0
 20
148.5
 30
0.0
 40
420.0
 41
297.0
 68
     1
 69
     2
1001
ACAD
1000
MVIEW
1002
{
1070
    16
1010
0.0
1020
0.0
1030
0.0
1010
0.0
1020
0.0
1030
1.0
1040
0.0
1040
605.8799999999998
1040
420.0
1040
297.0
1040
50.0
1040
0.0
1040
0.0
1070
     0
1070
   100
1070
     1
1070
     0
1070
     0
1070
     0
1070
     0
1070
     0
1040
0.0
1040
0.0
1040
0.0
1040
10.0
1040
10.0
1040
0.0
1040
0.0
1070
     0
1002
{
1002
}
1002
}
  0
ENDSEC
  0
SECTION
  2
OBJECTS
  0
DICTIONARY
  5
C
330
0
100
AcDbDictionary
  3
ACAD_GROUP
350
D
  3
ACAD_LAYOUT
350
884
  3
ACAD_MLINESTYLE
350
E
  3
ACAD_PLOTSETTINGS
350
885
  3
ACAD_PLOTSTYLENAME
350
882
  3
ACDBHEADERROUNDTRIPXREC
350
3A67
  0
DICTIONARY
  5
8E1
330
1A
100
AcDbDictionary
280
     1
  3
ACAD_LAYOUTSELFREF
360
3A89
  0
DICTIONARY
  5
8DF
330
17
100
AcDbDictionary
280
     1
  3
ACAD_LAYOUTSELFREF
360
3A88
  0
DICTIONARY
  5
D
102
{ACAD_REACTORS
330
C
102
}
330
C
100
AcDbDictionary
  0
DICTIONARY
  5
884
102
{ACAD_REACTORS
330
C
102
}
330
C
100
AcDbDictionary
  0
DICTIONARY
  5
E
102
{ACAD_REACTORS
330
C
102
}
330
C
100
AcDbDictionary
  3
STANDARD
350
13
  0
DICTIONARY
  5
885
102
{ACAD_REACTORS
330
C
102
}
330
C
100
AcDbDictionary
  0
ACDBDICTIONARYWDFLT
  5
882
102
{ACAD_REACTORS
330
C
102
}
330
C
100
AcDbDictionary
281
     1
  3
Normal
350
883
100
AcDbDictionaryWithDefault
340
883
1001
ACAD
1000
TREAT_AS_HARD
1070
     0
1000
TREAT_AS_HARD
1070
     0
1000
TREAT_AS_HARD
1070
     0
1000
TREAT_AS_HARD
1070
     0
1000
TREAT_AS_HARD
1070
     0
1000
TREAT_AS_HARD
1070
     0
1000
TREAT_AS_HARD
1070
     0
  0
DICTIONARY
  5
3A67
102
{ACAD_REACTORS
330
C
102
}
330
C
100
AcDbDictionary
  3
TSTACKALIGN
350
3A68
  3
TSTACKSIZE
350
3A69
  3
HYPERLINKBASE
350
3A6A
  3
STYLESHEET
350
3A6B
  3
LAYOUTDICT
350
3A6C
  3
PLOTSETDICT
350
3A6D
  3
PLOTSTYLNAMDICT
350
3A6E
  3
LWETCUNION
350
3A6F
  3
INSUNITS
350
3A70
  3
CEPSNTYPE
350
3A71
  3
FINGERPRINTGUID
350
3A72
  3
VERSIONGUID
350
3A73
  3
PSVPSCALE
350
3A74
  3
DIMSTYLEDATA
350
3A75
  3
PUCSORTHOREF
350
3A76
  3
PUCSORTHOVIEW
350
3A77
  3
PUCSBASE
350
3A78
  3
PUCSORGTOP
350
3A79
  3
PUCSORGBOTTOM
350
3A7A
  3
PUCSORGLEFT
350
3A7B
  3
PUCSORGRIGHT
350
3A7C
  3
PUCSORGFRONT
350
3A7D
  3
PUCSORGBACK
350
3A7E
  3
UCSORTHOREF
350
3A7F
  3
UCSORTHOVIEW
350
3A80
  3
UCSBASE
350
3A81
  3
UCSORGTOP
350
3A82
  3
UCSORGBOTTOM
350
3A83
  3
UCSORGLEFT
350
3A84
  3
UCSORGRIGHT
350
3A85
  3
UCSORGFRONT
350
3A86
  3
UCSORGBACK
350
3A87
  0
XRECORD
  5
3A89
102
{ACAD_REACTORS
330
8E1
102
}
330
8E1
100
AcDbXrecord
340
1A
  0
XRECORD
  5
3A88
102
{ACAD_REACTORS
330
8DF
102
}
330
8DF
100
AcDbXrecord
340
17
  0
MLINESTYLE
  5
13
102
{ACAD_REACTORS
330
E
102
}
330
E
100
AcDbMlineStyle
  2
STANDARD
 70
     0
  3

 62
     0
 51
90.0
 52
90.0
 71
     2
 49
0.5
 62
   256
  6
BYLAYER
 49
-0.5
 62
   256
  6
BYLAYER
  0
ACDBPLACEHOLDER
  5
883
102
{ACAD_REACTORS
330
882
102
}
330
882
100
AcDbPlaceHolder
280
     0
  0
XRECORD
  5
3A68
102
{ACAD_REACTORS
330
3A67
102
}
330
3A67
100
AcDbXrecord
 90
        1
  0
XRECORD
  5
3A69
102
{ACAD_REACTORS
330
3A67
102
}
330
3A67
100
AcDbXrecord
 90
       70
  0
XRECORD
  5
3A6A
102
{ACAD_REACTORS
330
3A67
102
}
330
3A67
100
AcDbXrecord
  1

  0
XRECORD
  5
3A6B
102
{ACAD_REACTORS
330
3A67
102
}
330
3A67
100
AcDbXrecord
  1
systemprinter.ctb
  0
XRECORD
  5
3A6C
102
{ACAD_REACTORS
330
3A67
102
}
330
3A67
100
AcDbXrecord
340
884
  0
XRECORD
  5
3A6D
102
{ACAD_REACTORS
330
3A67
102
}
330
3A67
100
AcDbXrecord
340
885
  0
XRECORD
  5
3A6E
102
{ACAD_REACTORS
330
3A67
102
}
330
3A67
100
AcDbXrecord
340
882
  0
XRECORD
  5
3A6F
102
{ACAD_REACTORS
330
3A67
102
}
330
3A67
100
AcDbXrecord
 90
    10781
  0
XRECORD
  5
3A70
102
{ACAD_REACTORS
330
3A67
102
}
330
3A67
100
AcDbXrecord
 90
        0
  0
XRECORD
  5
3A71
102
{ACAD_REACTORS
330
3A67
102
}
330
3A67
100
AcDbXrecord
 90
        0
  0
XRECORD
  5
3A72
102
{ACAD_REACTORS
330
3A67
102
}
330
3A67
100
AcDbXrecord
  1
{8EA77232-D3C6-11D3-932C-444553540000}
  0
XRECORD
  5
3A73
102
{ACAD_REACTORS
330
3A67
102
}
330
3A67
100
AcDbXrecord
  1
{F347E5A2-5BD0-40E9-8DBD-CAAA20050B96}
  0
XRECORD
  5
3A74
102
{ACAD_REACTORS
330
3A67
102
}
330
3A67
100
AcDbXrecord
 40
0.0
  0
XRECORD
  5
3A75
102
{ACAD_REACTORS
330
3A67
102
}
330
3A67
100
AcDbXrecord
1000
DSTYLE
1002
{
1070
   279
 70
     2
1070
   341
340
6D
1070
   343
340
6D
1070
   344
340
6D
1070
   371
 70
    -1
1070
   372
 70
    -1
1002
}
  0
XRECORD
  5
3A76
102
{ACAD_REACTORS
330
3A67
102
}
330
3A67
100
AcDbXrecord
340
0
  0
XRECORD
  5
3A77
102
{ACAD_REACTORS
330
3A67
102
}
330
3A67
100
AcDbXrecord
 70
     0
  0
XRECORD
  5
3A78
102
{ACAD_REACTORS
330
3A67
102
}
330
3A67
100
AcDbXrecord
340
0
  0
XRECORD
  5
3A79
102
{ACAD_REACTORS
330
3A67
102
}
330
3A67
100
AcDbXrecord
 10
0.0
 20
0.0
 30
0.0
  0
XRECORD
  5
3A7A
102
{ACAD_REACTORS
330
3A67
102
}
330
3A67
100
AcDbXrecord
 10
0.0
 20
0.0
 30
0.0
  0
XRECORD
  5
3A7B
102
{ACAD_REACTORS
330
3A67
102
}
330
3A67
100
AcDbXrecord
 10
0.0
 20
0.0
 30
0.0
  0
XRECORD
  5
3A7C
102
{ACAD_REACTORS
330
3A67
102
}
330
3A67
100
AcDbXrecord
 10
0.0
 20
0.0
 30
0.0
  0
XRECORD
  5
3A7D
102
{ACAD_REACTORS
330
3A67
102
}
330
3A67
100
AcDbXrecord
 10
0.0
 20
0.0
 30
0.0
  0
XRECORD
  5
3A7E
102
{ACAD_REACTORS
330
3A67
102
}
330
3A67
100
AcDbXrecord
 10
0.0
 20
0.0
 30
0.0
  0
XRECORD
  5
3A7F
102
{ACAD_REACTORS
330
3A67
102
}
330
3A67
100
AcDbXrecord
340
0
  0
XRECORD
  5
3A80
102
{ACAD_REACTORS
330
3A67
102
}
330
3A67
100
AcDbXrecord
 70
     0
  0
XRECORD
  5
3A81
102
{ACAD_REACTORS
330
3A67
102
}
330
3A67
100
AcDbXrecord
340
0
  0
XRECORD
  5
3A82
102
{ACAD_REACTORS
330
3A67
102
}
330
3A67
100
AcDbXrecord
 10
0.0
 20
0.0
 30
0.0
  0
XRECORD
  5
3A83
102
{ACAD_REACTORS
330
3A67
102
}
330
3A67
100
AcDbXrecord
 10
0.0
 20
0.0
 30
0.0
  0
XRECORD
  5
3A84
102
{ACAD_REACTORS
330
3A67
102
}
330
3A67
100
AcDbXrecord
 10
0.0
 20
0.0
 30
0.0
  0
XRECORD
  5
3A85
102
{ACAD_REACTORS
330
3A67
102
}
330
3A67
100
AcDbXrecord
 10
0.0
 20
0.0
 30
0.0
  0
XRECORD
  5
3A86
102
{ACAD_REACTORS
330
3A67
102
}
330
3A67
100
AcDbXrecord
 10
0.0
 20
0.0
 30
0.0
  0
XRECORD
  5
3A87
102
{ACAD_REACTORS
330
3A67
102
}
330
3A67
100
AcDbXrecord
 10
0.0
 20
0.0
 30
0.0
  0
ENDSEC
  0
EOF
