  0
SECTION
  2
HEADER
  9
$ACADVER
  1
AC1014
  9
$ACADMAINTVER
 70
     9
  9
$DWGCODEPAGE
  3
ANSI_932
  9
$INSBASE
 10
0.0
 20
0.0
 30
0.0
  9
$EXTMIN
 10
-0.0128164049386896
 20
-0.0090630292066862
 30
-0.0000000000112498
  9
$EXTMAX
 10
398.8000497813338
 20
275.8226172440017
 30
0.0000000000002956
  9
$LIMMIN
 10
0.0
 20
0.0
  9
$LIMMAX
 10
420.0
 20
297.0
  9
$ORTHOMODE
 70
     1
  9
$REGENMODE
 70
     1
  9
$FILLMODE
 70
     1
  9
$QTEXTMODE
 70
     0
  9
$MIRRTEXT
 70
     1
  9
$DRAGMODE
 70
     2
  9
$LTSCALE
 40
1.0
  9
$OSMODE
 70
    37
  9
$ATTMODE
 70
     1
  9
$TEXTSIZE
 40
2.5
  9
$TRACEWID
 40
1.0
  9
$TEXTSTYLE
  7
STANDARD
  9
$CLAYER
  8
SUNPOU
  9
$CELTYPE
  6
BYLAYER
  9
$CECOLOR
 62
   256
  9
$CELTSCALE
 40
1.0
  9
$DELOBJ
 70
     1
  9
$DISPSILH
 70
     0
  9
$DIMSCALE
 40
1.0
  9
$DIMASZ
 40
3.0
  9
$DIMEXO
 40
3.0
  9
$DIMDLI
 40
7.0
  9
$DIMRND
 40
0.0
  9
$DIMDLE
 40
0.0
  9
$DIMEXE
 40
1.5
  9
$DIMTP
 40
0.0
  9
$DIMTM
 40
0.0
  9
$DIMTXT
 40
3.0
  9
$DIMCEN
 40
150.0
  9
$DIMTSZ
 40
0.0
  9
$DIMTOL
 70
     0
  9
$DIMLIM
 70
     0
  9
$DIMTIH
 70
     0
  9
$DIMTOH
 70
     0
  9
$DIMSE1
 70
     0
  9
$DIMSE2
 70
     0
  9
$DIMTAD
 70
     3
  9
$DIMZIN
 70
     0
  9
$DIMBLK
  1

  9
$DIMASO
 70
     1
  9
$DIMSHO
 70
     1
  9
$DIMPOST
  1

  9
$DIMAPOST
  1

  9
$DIMALT
 70
     0
  9
$DIMALTD
 70
     2
  9
$DIMALTF
 40
25.4
  9
$DIMLFAC
 40
1.0
  9
$DIMTOFL
 70
     1
  9
$DIMTVP
 40
0.0
  9
$DIMTIX
 70
     0
  9
$DIMSOXD
 70
     0
  9
$DIMSAH
 70
     1
  9
$DIMBLK1
  1
OPEN
  9
$DIMBLK2
  1
OPEN
  9
$DIMSTYLE
  2
STANDARD
  9
$DIMCLRD
 70
   256
  9
$DIMCLRE
 70
   256
  9
$DIMCLRT
 70
   256
  9
$DIMTFAC
 40
1.0
  9
$DIMGAP
 40
1.0
  9
$DIMJUST
 70
     0
  9
$DIMSD1
 70
     0
  9
$DIMSD2
 70
     0
  9
$DIMTOLJ
 70
     1
  9
$DIMTZIN
 70
     0
  9
$DIMALTZ
 70
     0
  9
$DIMALTTZ
 70
     0
  9
$DIMFIT
 70
     3
  9
$DIMUPT
 70
     0
  9
$DIMUNIT
 70
     2
  9
$DIMDEC
 70
     0
  9
$DIMTDEC
 70
     0
  9
$DIMALTU
 70
     2
  9
$DIMALTTD
 70
     2
  9
$DIMTXSTY
  7
STANDARD
  9
$DIMAUNIT
 70
     0
  9
$LUNITS
 70
     2
  9
$LUPREC
 70
     4
  9
$SKETCHINC
 40
1.0
  9
$FILLETRAD
 40
10.0
  9
$AUNITS
 70
     0
  9
$AUPREC
 70
     0
  9
$MENU
  1
.
  9
$ELEVATION
 40
0.0
  9
$PELEVATION
 40
0.0
  9
$THICKNESS
 40
0.0
  9
$LIMCHECK
 70
     0
  9
$BLIPMODE
 70
     0
  9
$CHAMFERA
 40
10.0
  9
$CHAMFERB
 40
10.0
  9
$CHAMFERC
 40
20.0
  9
$CHAMFERD
 40
0.0
  9
$SKPOLY
 70
     0
  9
$TDCREATE
 40
2451078.377355671
  9
$TDUPDATE
 40
2454579.496638483
  9
$TDINDWG
 40
0.0169238542
  9
$TDUSRTIMER
 40
0.0169238542
  9
$USRTIMER
 70
     1
  9
$ANGBASE
 50
0.0
  9
$ANGDIR
 70
     0
  9
$PDMODE
 70
     0
  9
$PDSIZE
 40
0.0
  9
$PLINEWID
 40
0.0
  9
$COORDS
 70
     0
  9
$SPLFRAME
 70
     0
  9
$SPLINETYPE
 70
     6
  9
$SPLINESEGS
 70
     8
  9
$ATTDIA
 70
     0
  9
$ATTREQ
 70
     1
  9
$HANDLING
 70
 10241
  9
$HANDSEED
  5
5EC
  9
$SURFTAB1
 70
     6
  9
$SURFTAB2
 70
     6
  9
$SURFTYPE
 70
     6
  9
$SURFU
 70
     6
  9
$SURFV
 70
     6
  9
$UCSNAME
  2

  9
$UCSORG
 10
0.0
 20
0.0
 30
0.0
  9
$UCSXDIR
 10
1.0
 20
0.0
 30
0.0
  9
$UCSYDIR
 10
0.0
 20
1.0
 30
0.0
  9
$PUCSNAME
  2

  9
$PUCSORG
 10
0.0
 20
0.0
 30
0.0
  9
$PUCSXDIR
 10
1.0
 20
0.0
 30
0.0
  9
$PUCSYDIR
 10
0.0
 20
1.0
 30
0.0
  9
$USERI1
 70
     0
  9
$USERI2
 70
     0
  9
$USERI3
 70
     0
  9
$USERI4
 70
     0
  9
$USERI5
 70
     0
  9
$USERR1
 40
0.0
  9
$USERR2
 40
0.0
  9
$USERR3
 40
0.0
  9
$USERR4
 40
0.0
  9
$USERR5
 40
0.0
  9
$WORLDVIEW
 70
     1
  9
$SHADEDGE
 70
     3
  9
$SHADEDIF
 70
    70
  9
$TILEMODE
 70
     1
  9
$MAXACTVP
 70
    16
  9
$PINSBASE
 10
0.0
 20
0.0
 30
0.0
  9
$PLIMCHECK
 70
     0
  9
$PEXTMIN
 10
0.0
 20
0.0
 30
0.0
  9
$PEXTMAX
 10
420.0
 20
297.0
 30
0.0
  9
$PLIMMIN
 10
0.0
 20
0.0
  9
$PLIMMAX
 10
420.0
 20
297.0
  9
$UNITMODE
 70
     0
  9
$VISRETAIN
 70
     0
  9
$PLINEGEN
 70
     0
  9
$PSLTSCALE
 70
     1
  9
$TREEDEPTH
 70
  3020
  9
$PICKSTYLE
 70
     1
  9
$CMLSTYLE
  2
STANDARD
  9
$CMLJUST
 70
     0
  9
$CMLSCALE
 40
1.0
  9
$PROXYGRAPHICS
 70
     1
  9
$MEASUREMENT
 70
     1
  0
ENDSEC
  0
SECTION
  2
CLASSES
  0
CLASS
  1
ACDBDICTIONARYWDFLT
  2
AcDbDictionaryWithDefault
  3
AutoCAD 2000
 90
        0
280
     0
281
     0
  0
CLASS
  1
ACDBPLACEHOLDER
  2
AcDbPlaceHolder
  3
AutoCAD 2000
 90
        0
280
     0
281
     0
  0
CLASS
  1
LAYOUT
  2
AcDbLayout
  3
AutoCAD 2000
 90
        0
280
     0
281
     0
  0
CLASS
  1
LONG_TRANSACTION
  2
AcDbLongTransaction
  3
AutoCAD 2000
 90
        0
280
     0
281
     0
  0
CLASS
  1
LWPOLYLINE
  2
AcDbPolyline
  3
AutoCAD 2000
 90
        0
280
     0
281
     1
  0
CLASS
  1
HATCH
  2
AcDbHatch
  3
AutoCAD 2000
 90
        0
280
     0
281
     1
  0
CLASS
  1
XRECORD
  2
AcDbXrecord
  3
AutoCAD 2000
 90
        0
280
     0
281
     0
  0
CLASS
  1
LONG_TRANSACTION
  2
AcDbLongTransaction
  3
AutoCAD 2000
 90
        0
280
     0
281
     0
  0
CLASS
  1
LWPOLYLINE
  2
AcDbPolyline
  3
AutoCAD 2000
 90
        0
280
     0
281
     1
  0
CLASS
  1
HATCH
  2
AcDbHatch
  3
AutoCAD 2000
 90
        0
280
     0
281
     1
  0
CLASS
  1
XRECORD
  2
AcDbXrecord
  3
AutoCAD 2000
 90
        0
280
     0
281
     0
  0
CLASS
  1
LONG_TRANSACTION
  2
AcDbLongTransaction
  3
AutoCAD 2000
 90
        0
280
     0
281
     0
  0
CLASS
  1
LWPOLYLINE
  2
AcDbPolyline
  3
AutoCAD 2000
 90
        0
280
     0
281
     1
  0
CLASS
  1
HATCH
  2
AcDbHatch
  3
AutoCAD 2000
 90
        0
280
     0
281
     1
  0
CLASS
  1
XRECORD
  2
AcDbXrecord
  3
AutoCAD 2000
 90
        0
280
     0
281
     0
  0
ENDSEC
  0
SECTION
  2
TABLES
  0
TABLE
  2
VPORT
  5
8
330
0
100
AcDbSymbolTable
 70
     3
  0
VPORT
  5
5C8
330
8
100
AcDbSymbolTableRecord
100
AcDbViewportTableRecord
  2
*ACTIVE
 70
     0
 10
0.0
 20
0.0
 11
1.0
 21
1.0
 12
176.2122909535488
 22
124.1535346923329
 13
0.0
 23
0.0
 14
5.0
 24
5.0
 15
0.0
 25
0.0
 16
0.0
 26
0.0
 36
1.0
 17
0.0
 27
0.0
 37
0.0
 40
397.5910299680386
 41
1.57015306122449
 42
50.0
 43
0.0
 44
0.0
 50
0.0
 51
0.0
 71
     0
 72
   100
 73
     1
 74
     0
 75
     0
 76
     0
 77
     0
 78
     0
  0
ENDTAB
  0
TABLE
  2
LTYPE
  5
5
330
0
100
AcDbSymbolTable
 70
     2
  0
LTYPE
  5
14
330
5
100
AcDbSymbolTableRecord
100
AcDbLinetypeTableRecord
  2
BYBLOCK
 70
     0
  3

 72
    65
 73
     0
 40
0.0
  0
LTYPE
  5
15
330
5
100
AcDbSymbolTableRecord
100
AcDbLinetypeTableRecord
  2
BYLAYER
 70
     0
  3

 72
    65
 73
     0
 40
0.0
  0
LTYPE
  5
16
330
5
100
AcDbSymbolTableRecord
100
AcDbLinetypeTableRecord
  2
CONTINUOUS
 70
     0
  3
Solid line
 72
    65
 73
     0
 40
0.0
  0
LTYPE
  5
120
330
5
100
AcDbSymbolTableRecord
100
AcDbLinetypeTableRecord
  2
CENTER
 70
     0
  3
____ _ ____ _ ____ _ ____ _ ____ _ ____ _ ____ 
 72
    65
 73
     4
 40
2.0
 49
1.25
 74
     0
 49
-0.25
 74
     0
 49
0.25
 74
     0
 49
-0.25
 74
     0
  0
ENDTAB
  0
TABLE
  2
LAYER
  5
2
330
0
100
AcDbSymbolTable
 70
     8
  0
LAYER
  5
F
330
2
100
AcDbSymbolTableRecord
100
AcDbLayerTableRecord
  2
0
 70
     0
 62
     7
  6
CONTINUOUS
  0
LAYER
  5
62
330
2
100
AcDbSymbolTableRecord
100
AcDbLayerTableRecord
  2
VIEWPORT
 70
     0
 62
     7
  6
CONTINUOUS
  0
LAYER
  5
6B
330
2
100
AcDbSymbolTableRecord
100
AcDbLayerTableRecord
  2
ZUWAKU
 70
     0
 62
     7
  6
CONTINUOUS
  0
LAYER
  5
134
330
2
100
AcDbSymbolTableRecord
100
AcDbLayerTableRecord
  2
SEIHIN
 70
     0
 62
     3
  6
CONTINUOUS
  0
LAYER
  5
135
330
2
100
AcDbSymbolTableRecord
100
AcDbLayerTableRecord
  2
CENTER_L
 70
     0
 62
     1
  6
CENTER
  0
LAYER
  5
331
330
2
100
AcDbSymbolTableRecord
100
AcDbLayerTableRecord
  2
SUNPOU
 70
     0
 62
     4
  6
CONTINUOUS
  0
LAYER
  5
33A
330
2
100
AcDbSymbolTableRecord
100
AcDbLayerTableRecord
  2
DEFPOINTS
 70
     0
 62
     7
  6
CONTINUOUS
  0
LAYER
  5
456
330
2
100
AcDbSymbolTableRecord
100
AcDbLayerTableRecord
  2
MOJI
 70
     0
 62
     2
  6
CONTINUOUS
  0
ENDTAB
  0
TABLE
  2
STYLE
  5
3
330
0
100
AcDbSymbolTable
 70
     2
  0
STYLE
  5
10
330
3
100
AcDbSymbolTableRecord
100
AcDbTextStyleTableRecord
  2
STANDARD
 70
     0
 40
0.0
 41
1.0
 50
0.0
 71
     0
 42
2.5
  3
TXT
  4
bigfont.shx
  0
STYLE
  5
457
330
3
100
AcDbSymbolTableRecord
100
AcDbTextStyleTableRecord
  2
ｽﾀｲﾙ1
 70
     0
 40
0.0
 41
1.0
 50
0.0
 71
     0
 42
2.5
  3
MS PGothic.ttf
  4

1001
ACAD
1000
MS PGothic
1071
    32818
  0
ENDTAB
  0
TABLE
  2
VIEW
  5
6
330
0
100
AcDbSymbolTable
 70
     0
  0
ENDTAB
  0
TABLE
  2
UCS
  5
7
330
0
100
AcDbSymbolTable
 70
     0
  0
ENDTAB
  0
TABLE
  2
APPID
  5
9
330
0
100
AcDbSymbolTable
 70
     1
  0
APPID
  5
11
330
9
100
AcDbSymbolTableRecord
100
AcDbRegAppTableRecord
  2
ACAD
 70
     0
  0
ENDTAB
  0
TABLE
  2
DIMSTYLE
  5
A
330
0
100
AcDbSymbolTable
 70
     1
  0
DIMSTYLE
105
1D
102
{ACAD_REACTORS
330
34C
330
359
330
366
330
373
330
38D
330
39A
330
3A7
330
3BD
330
3CA
102
}
330
A
100
AcDbSymbolTableRecord
100
AcDbDimStyleTableRecord
  2
STANDARD
 70
     0
  3

  4

  5

  6

  7

 40
1.0
 41
0.18
 42
0.0625
 43
0.38
 44
0.18
 45
0.0
 46
0.0
 47
0.0
 48
0.0
140
0.18
141
0.09
142
0.0
143
25.4
144
1.0
145
0.0
146
1.0
147
0.09
 71
     0
 72
     0
 73
     1
 74
     1
 75
     0
 76
     0
 77
     0
 78
     0
170
     0
171
     2
172
     0
173
     0
174
     0
175
     0
176
     0
177
     0
178
     0
270
     2
271
     4
272
     4
273
     2
274
     2
340
10
275
     0
280
     0
281
     0
282
     0
283
     1
284
     0
285
     0
286
     0
287
     3
288
     0
  0
ENDTAB
  0
TABLE
  2
BLOCK_RECORD
  5
1
330
0
100
AcDbSymbolTable
 70
    11
  0
BLOCK_RECORD
  5
1A
102
{ACAD_XDICTIONARY
360
40F
102
}
330
1
100
AcDbSymbolTableRecord
100
AcDbBlockTableRecord
  2
*MODEL_SPACE
  0
BLOCK_RECORD
  5
17
102
{ACAD_XDICTIONARY
360
40D
102
}
330
1
100
AcDbSymbolTableRecord
100
AcDbBlockTableRecord
  2
*PAPER_SPACE
  0
BLOCK_RECORD
  5
B2
330
1
100
AcDbSymbolTableRecord
100
AcDbBlockTableRecord
  2
_OPEN
  0
BLOCK_RECORD
  5
340
330
1
100
AcDbSymbolTableRecord
100
AcDbBlockTableRecord
  2
*D1
  0
BLOCK_RECORD
  5
34D
330
1
100
AcDbSymbolTableRecord
100
AcDbBlockTableRecord
  2
*D2
  0
BLOCK_RECORD
  5
35A
330
1
100
AcDbSymbolTableRecord
100
AcDbBlockTableRecord
  2
*D3
  0
BLOCK_RECORD
  5
367
330
1
100
AcDbSymbolTableRecord
100
AcDbBlockTableRecord
  2
*D4
  0
BLOCK_RECORD
  5
381
330
1
100
AcDbSymbolTableRecord
100
AcDbBlockTableRecord
  2
*D5
  0
BLOCK_RECORD
  5
38E
330
1
100
AcDbSymbolTableRecord
100
AcDbBlockTableRecord
  2
*D6
  0
BLOCK_RECORD
  5
39B
330
1
100
AcDbSymbolTableRecord
100
AcDbBlockTableRecord
  2
*D7
  0
BLOCK_RECORD
  5
3B1
330
1
100
AcDbSymbolTableRecord
100
AcDbBlockTableRecord
  2
*D8
  0
BLOCK_RECORD
  5
3BE
330
1
100
AcDbSymbolTableRecord
100
AcDbBlockTableRecord
  2
*D9
  0
ENDTAB
  0
ENDSEC
  0
SECTION
  2
BLOCKS
  0
BLOCK
  5
1B
330
1A
100
AcDbEntity
  8
0
100
AcDbBlockBegin
  2
*MODEL_SPACE
 70
     0
 10
0.0
 20
0.0
 30
0.0
  3
*MODEL_SPACE
  1

  0
ENDBLK
  5
1C
330
1A
100
AcDbEntity
  8
0
100
AcDbBlockEnd
  0
BLOCK
  5
18
330
17
100
AcDbEntity
 67
     1
  8
0
100
AcDbBlockBegin
  2
*PAPER_SPACE
 70
     0
 10
0.0
 20
0.0
 30
0.0
  3
*PAPER_SPACE
  1

  0
ENDBLK
  5
19
330
17
100
AcDbEntity
 67
     1
  8
0
100
AcDbBlockEnd
  0
BLOCK
  5
B3
330
B2
100
AcDbEntity
  8
0
100
AcDbBlockBegin
  2
_OPEN
 70
     0
 10
0.0
 20
0.0
 30
0.0
  3
_OPEN
  1

  0
LINE
  5
B4
330
B2
100
AcDbEntity
  8
0
  6
BYBLOCK
 62
     0
100
AcDbLine
 10
-1.0
 20
0.1666666666666666
 30
0.0
 11
0.0
 21
0.0
 31
0.0
  0
LINE
  5
B5
330
B2
100
AcDbEntity
  8
0
  6
BYBLOCK
 62
     0
100
AcDbLine
 10
0.0
 20
0.0
 30
0.0
 11
-1.0
 21
-0.1666666666666666
 31
0.0
  0
LINE
  5
B6
330
B2
100
AcDbEntity
  8
0
  6
BYBLOCK
 62
     0
100
AcDbLine
 10
0.0
 20
0.0
 30
0.0
 11
-1.0
 21
0.0
 31
0.0
  0
ENDBLK
  5
B7
330
B2
100
AcDbEntity
  8
0
100
AcDbBlockEnd
  0
BLOCK
  5
341
330
340
100
AcDbEntity
  8
0
100
AcDbBlockBegin
  2
*D1
 70
     1
 10
0.0
 20
0.0
 30
0.0
  3
*D1
  1

  0
LINE
  5
342
330
340
100
AcDbEntity
  8
0
  6
BYBLOCK
 62
     4
100
AcDbLine
 10
203.6476004385222
 20
132.6797970699659
 30
0.0
 11
203.6476004385222
 21
172.9282026571303
 31
0.0
  0
LINE
  5
343
330
340
100
AcDbEntity
  8
0
  6
BYBLOCK
 62
     4
100
AcDbLine
 10
291.3476004385222
 20
123.4294970699659
 30
0.0
 11
291.3476004385222
 21
172.9282026571303
 31
0.0
  0
LINE
  5
344
330
340
100
AcDbEntity
  8
0
  6
BYBLOCK
 62
     4
100
AcDbLine
 10
206.6476004385222
 20
171.4282026571303
 30
0.0
 11
288.3476004385221
 21
171.4282026571303
 31
0.0
  0
INSERT
  5
345
330
340
100
AcDbEntity
  8
0
  6
BYBLOCK
 62
     4
100
AcDbBlockReference
  2
_OPEN
 10
203.6476004385222
 20
171.4282026571303
 30
0.0
 41
3.0
 42
3.0
 43
3.0
 50
180.0
  0
INSERT
  5
346
330
340
100
AcDbEntity
  8
0
  6
BYBLOCK
 62
     4
100
AcDbBlockReference
  2
_OPEN
 10
291.3476004385222
 20
171.4282026571303
 30
0.0
 41
3.0
 42
3.0
 43
3.0
  0
MTEXT
  5
347
330
340
100
AcDbEntity
  8
0
  6
BYBLOCK
 62
     4
100
AcDbMText
 10
247.4976004385222
 20
173.9282026571303
 30
0.0
 40
3.0
 41
0.0
 71
     5
 72
     5
  1
\A1;88
1001
ACAD
1000
MTEXTBEGIN
1070
    73
1070
     1
1070
    44
1040
1.0
1070
    74
1070
     0
1000
MTEXTEND
1000
MTEXTBEGIN
1070
    73
1070
     1
1070
    44
1040
1.0
1070
    74
1070
     0
1000
MTEXTEND
1000
MTEXTBEGIN
1070
    73
1070
     1
1070
    44
1040
1.0
1070
    74
1070
     0
1000
MTEXTEND
  0
POINT
  5
348
330
340
100
AcDbEntity
  8
DEFPOINTS
  6
BYBLOCK
 62
     0
100
AcDbPoint
 10
203.6476004385222
 20
129.6797970699659
 30
0.0
  0
POINT
  5
349
330
340
100
AcDbEntity
  8
DEFPOINTS
  6
BYBLOCK
 62
     0
100
AcDbPoint
 10
291.3476004385222
 20
120.4294970699659
 30
0.0
  0
POINT
  5
34A
330
340
100
AcDbEntity
  8
DEFPOINTS
  6
BYBLOCK
 62
     0
100
AcDbPoint
 10
291.3476004385222
 20
171.4282026571303
 30
0.0
  0
ENDBLK
  5
34B
330
340
100
AcDbEntity
  8
0
100
AcDbBlockEnd
  0
BLOCK
  5
34E
330
34D
100
AcDbEntity
  8
0
100
AcDbBlockBegin
  2
*D2
 70
     1
 10
0.0
 20
0.0
 30
0.0
  3
*D2
  1

  0
LINE
  5
34F
330
34D
100
AcDbEntity
  8
0
  6
BYBLOCK
 62
     4
100
AcDbLine
 10
294.3476004385221
 20
120.4294970699659
 30
0.0
 11
317.7605512290713
 21
120.4294970699659
 31
0.0
  0
LINE
  5
350
330
34D
100
AcDbEntity
  8
0
  6
BYBLOCK
 62
     4
100
AcDbLine
 10
294.3476004385221
 20
96.42969706996595
 30
0.0
 11
317.7605512290713
 21
96.42969706996595
 31
0.0
  0
LINE
  5
351
330
34D
100
AcDbEntity
  8
0
  6
BYBLOCK
 62
     4
100
AcDbLine
 10
316.2605512290713
 20
117.4294970699659
 30
0.0
 11
316.2605512290713
 21
99.42969706996596
 31
0.0
  0
INSERT
  5
352
330
34D
100
AcDbEntity
  8
0
  6
BYBLOCK
 62
     4
100
AcDbBlockReference
  2
_OPEN
 10
316.2605512290713
 20
120.4294970699659
 30
0.0
 41
3.0
 42
3.0
 43
3.0
 50
90.0
  0
INSERT
  5
353
330
34D
100
AcDbEntity
  8
0
  6
BYBLOCK
 62
     4
100
AcDbBlockReference
  2
_OPEN
 10
316.2605512290713
 20
96.42969706996595
 30
0.0
 41
3.0
 42
3.0
 43
3.0
 50
270.0
  0
MTEXT
  5
354
330
34D
100
AcDbEntity
  8
0
  6
BYBLOCK
 62
     4
100
AcDbMText
 10
313.7605512290713
 20
108.4295970699659
 30
0.0
 40
3.0
 41
0.0
 71
     5
 72
     5
  1
\A1;24
 11
0.0
 21
1.0
 31
0.0
1001
ACAD
1000
MTEXTBEGIN
1070
    73
1070
     1
1070
    44
1040
1.0
1070
    74
1070
     0
1000
MTEXTEND
1000
MTEXTBEGIN
1070
    73
1070
     1
1070
    44
1040
1.0
1070
    74
1070
     0
1000
MTEXTEND
1000
MTEXTBEGIN
1070
    73
1070
     1
1070
    44
1040
1.0
1070
    74
1070
     0
1000
MTEXTEND
  0
POINT
  5
355
330
34D
100
AcDbEntity
  8
DEFPOINTS
  6
BYBLOCK
 62
     0
100
AcDbPoint
 10
291.3476004385222
 20
120.4294970699659
 30
0.0
  0
POINT
  5
356
330
34D
100
AcDbEntity
  8
DEFPOINTS
  6
BYBLOCK
 62
     0
100
AcDbPoint
 10
291.3476004385222
 20
96.42969706996595
 30
0.0
  0
POINT
  5
357
330
34D
100
AcDbEntity
  8
DEFPOINTS
  6
BYBLOCK
 62
     0
100
AcDbPoint
 10
316.2605512290713
 20
96.42969706996595
 30
0.0
  0
ENDBLK
  5
358
330
34D
100
AcDbEntity
  8
0
100
AcDbBlockEnd
  0
BLOCK
  5
35B
330
35A
100
AcDbEntity
  8
0
100
AcDbBlockBegin
  2
*D3
 70
     1
 10
0.0
 20
0.0
 30
0.0
  3
*D3
  1

  0
LINE
  5
35C
330
35A
100
AcDbEntity
  8
0
  6
BYBLOCK
 62
     4
100
AcDbLine
 10
212.7475004385222
 20
141.7795970699659
 30
0.0
 11
176.2600196087482
 21
141.7795970699659
 31
0.0
  0
LINE
  5
35D
330
35A
100
AcDbEntity
  8
0
  6
BYBLOCK
 62
     4
100
AcDbLine
 10
212.7475004385222
 20
75.07979706996597
 30
0.0
 11
176.2600196087482
 21
75.07979706996597
 31
0.0
  0
LINE
  5
35E
330
35A
100
AcDbEntity
  8
0
  6
BYBLOCK
 62
     4
100
AcDbLine
 10
177.7600196087482
 20
138.7795970699659
 30
0.0
 11
177.7600196087482
 21
78.07979706996596
 31
0.0
  0
INSERT
  5
35F
330
35A
100
AcDbEntity
  8
0
  6
BYBLOCK
 62
     4
100
AcDbBlockReference
  2
_OPEN
 10
177.7600196087482
 20
141.7795970699659
 30
0.0
 41
3.0
 42
3.0
 43
3.0
 50
90.0
  0
INSERT
  5
360
330
35A
100
AcDbEntity
  8
0
  6
BYBLOCK
 62
     4
100
AcDbBlockReference
  2
_OPEN
 10
177.7600196087482
 20
75.07979706996597
 30
0.0
 41
3.0
 42
3.0
 43
3.0
 50
270.0
  0
MTEXT
  5
361
330
35A
100
AcDbEntity
  8
0
  6
BYBLOCK
 62
     4
100
AcDbMText
 10
175.2600196087482
 20
108.4296970699659
 30
0.0
 40
3.0
 41
0.0
 71
     5
 72
     5
  1
\A1;67
 11
0.0
 21
1.0
 31
0.0
1001
ACAD
1000
MTEXTBEGIN
1070
    73
1070
     1
1070
    44
1040
1.0
1070
    74
1070
     0
1000
MTEXTEND
1000
MTEXTBEGIN
1070
    73
1070
     1
1070
    44
1040
1.0
1070
    74
1070
     0
1000
MTEXTEND
1000
MTEXTBEGIN
1070
    73
1070
     1
1070
    44
1040
1.0
1070
    74
1070
     0
1000
MTEXTEND
  0
POINT
  5
362
330
35A
100
AcDbEntity
  8
DEFPOINTS
  6
BYBLOCK
 62
     0
100
AcDbPoint
 10
215.7475004385222
 20
141.7795970699659
 30
0.0
  0
POINT
  5
363
330
35A
100
AcDbEntity
  8
DEFPOINTS
  6
BYBLOCK
 62
     0
100
AcDbPoint
 10
215.7475004385222
 20
75.07979706996597
 30
0.0
  0
POINT
  5
364
330
35A
100
AcDbEntity
  8
DEFPOINTS
  6
BYBLOCK
 62
     0
100
AcDbPoint
 10
177.7600196087482
 20
75.07979706996597
 30
0.0
  0
ENDBLK
  5
365
330
35A
100
AcDbEntity
  8
0
100
AcDbBlockEnd
  0
BLOCK
  5
368
330
367
100
AcDbEntity
  8
0
100
AcDbBlockBegin
  2
*D4
 70
     1
 10
0.0
 20
0.0
 30
0.0
  3
*D4
  1

  0
LINE
  5
369
330
367
100
AcDbEntity
  8
0
  6
BYBLOCK
 62
     4
100
AcDbLine
 10
134.0129950695993
 20
120.4296970699659
 30
0.0
 11
160.5788518979911
 21
120.4296970699659
 31
0.0
  0
LINE
  5
36A
330
367
100
AcDbEntity
  8
0
  6
BYBLOCK
 62
     4
100
AcDbLine
 10
134.0129950695993
 20
96.42969706996595
 30
0.0
 11
160.5788518979911
 21
96.42969706996595
 31
0.0
  0
LINE
  5
36B
330
367
100
AcDbEntity
  8
0
  6
BYBLOCK
 62
     4
100
AcDbLine
 10
159.0788518979911
 20
117.4296970699659
 30
0.0
 11
159.0788518979911
 21
99.42969706996596
 31
0.0
  0
INSERT
  5
36C
330
367
100
AcDbEntity
  8
0
  6
BYBLOCK
 62
     4
100
AcDbBlockReference
  2
_OPEN
 10
159.0788518979911
 20
120.4296970699659
 30
0.0
 41
3.0
 42
3.0
 43
3.0
 50
90.0
  0
INSERT
  5
36D
330
367
100
AcDbEntity
  8
0
  6
BYBLOCK
 62
     4
100
AcDbBlockReference
  2
_OPEN
 10
159.0788518979911
 20
96.42969706996595
 30
0.0
 41
3.0
 42
3.0
 43
3.0
 50
270.0
  0
MTEXT
  5
36E
330
367
100
AcDbEntity
  8
0
  6
BYBLOCK
 62
     4
100
AcDbMText
 10
156.5788518979911
 20
108.4296970699659
 30
0.0
 40
3.0
 41
0.0
 71
     5
 72
     5
  1
\A1;24
 11
0.0
 21
1.0
 31
0.0
1001
ACAD
1000
MTEXTBEGIN
1070
    73
1070
     1
1070
    44
1040
1.0
1070
    74
1070
     0
1000
MTEXTEND
1000
MTEXTBEGIN
1070
    73
1070
     1
1070
    44
1040
1.0
1070
    74
1070
     0
1000
MTEXTEND
1000
MTEXTBEGIN
1070
    73
1070
     1
1070
    44
1040
1.0
1070
    74
1070
     0
1000
MTEXTEND
  0
POINT
  5
36F
330
367
100
AcDbEntity
  8
DEFPOINTS
  6
BYBLOCK
 62
     0
100
AcDbPoint
 10
131.0129950695993
 20
120.4296970699659
 30
0.0
  0
POINT
  5
370
330
367
100
AcDbEntity
  8
DEFPOINTS
  6
BYBLOCK
 62
     0
100
AcDbPoint
 10
131.0129950695993
 20
96.42969706996595
 30
0.0
  0
POINT
  5
371
330
367
100
AcDbEntity
  8
DEFPOINTS
  6
BYBLOCK
 62
     0
100
AcDbPoint
 10
159.0788518979911
 20
96.42969706996595
 30
0.0
  0
ENDBLK
  5
372
330
367
100
AcDbEntity
  8
0
100
AcDbBlockEnd
  0
BLOCK
  5
382
330
381
100
AcDbEntity
  8
0
100
AcDbBlockBegin
  2
*D5
 70
     1
 10
0.0
 20
0.0
 30
0.0
  3
*D5
  1

  0
LINE
  5
383
330
381
100
AcDbEntity
  8
0
  6
BYBLOCK
 62
     4
100
AcDbLine
 10
136.0129950695993
 20
118.4296970699659
 30
0.0
 11
136.0129950695993
 21
183.1141641297304
 31
0.0
  0
LINE
  5
384
330
381
100
AcDbEntity
  8
0
  6
BYBLOCK
 62
     4
100
AcDbLine
 10
71.01289506959938
 20
118.4297970699659
 30
0.0
 11
71.01289506959938
 21
183.1141641297304
 31
0.0
  0
LINE
  5
385
330
381
100
AcDbEntity
  8
0
  6
BYBLOCK
 62
     4
100
AcDbLine
 10
133.0129950695993
 20
181.6141641297303
 30
0.0
 11
74.01289506959938
 21
181.6141641297303
 31
0.0
  0
INSERT
  5
386
330
381
100
AcDbEntity
  8
0
  6
BYBLOCK
 62
     4
100
AcDbBlockReference
  2
_OPEN
 10
136.0129950695993
 20
181.6141641297303
 30
0.0
 41
3.0
 42
3.0
 43
3.0
  0
INSERT
  5
387
330
381
100
AcDbEntity
  8
0
  6
BYBLOCK
 62
     4
100
AcDbBlockReference
  2
_OPEN
 10
71.01289506959938
 20
181.6141641297303
 30
0.0
 41
3.0
 42
3.0
 43
3.0
 50
180.0
  0
MTEXT
  5
388
330
381
100
AcDbEntity
  8
0
  6
BYBLOCK
 62
     4
100
AcDbMText
 10
103.5129450695993
 20
184.1141641297303
 30
0.0
 40
3.0
 41
0.0
 71
     5
 72
     5
  1
\A1;65
1001
ACAD
1000
MTEXTBEGIN
1070
    73
1070
     1
1070
    44
1040
1.0
1070
    74
1070
     0
1000
MTEXTEND
1000
MTEXTBEGIN
1070
    73
1070
     1
1070
    44
1040
1.0
1070
    74
1070
     0
1000
MTEXTEND
1000
MTEXTBEGIN
1070
    73
1070
     1
1070
    44
1040
1.0
1070
    74
1070
     0
1000
MTEXTEND
  0
POINT
  5
389
330
381
100
AcDbEntity
  8
DEFPOINTS
  6
BYBLOCK
 62
     0
100
AcDbPoint
 10
136.0129950695993
 20
115.4296970699659
 30
0.0
  0
POINT
  5
38A
330
381
100
AcDbEntity
  8
DEFPOINTS
  6
BYBLOCK
 62
     0
100
AcDbPoint
 10
71.01289506959938
 20
115.4297970699659
 30
0.0
  0
POINT
  5
38B
330
381
100
AcDbEntity
  8
DEFPOINTS
  6
BYBLOCK
 62
     0
100
AcDbPoint
 10
71.01289506959938
 20
181.6141641297303
 30
0.0
  0
ENDBLK
  5
38C
330
381
100
AcDbEntity
  8
0
100
AcDbBlockEnd
  0
BLOCK
  5
38F
330
38E
100
AcDbEntity
  8
0
100
AcDbBlockBegin
  2
*D6
 70
     1
 10
0.0
 20
0.0
 30
0.0
  3
*D6
  1

  0
LINE
  5
390
330
38E
100
AcDbEntity
  8
0
  6
BYBLOCK
 62
     4
100
AcDbLine
 10
127.5129950695993
 20
116.4296970699659
 30
0.0
 11
127.5129950695993
 21
172.9282026571303
 31
0.0
  0
LINE
  5
391
330
38E
100
AcDbEntity
  8
0
  6
BYBLOCK
 62
     4
100
AcDbLine
 10
79.51289506959938
 20
116.4297970699659
 30
0.0
 11
79.51289506959938
 21
172.9282026571303
 31
0.0
  0
LINE
  5
392
330
38E
100
AcDbEntity
  8
0
  6
BYBLOCK
 62
     4
100
AcDbLine
 10
124.5129950695993
 20
171.4282026571303
 30
0.0
 11
82.51289506959938
 21
171.4282026571303
 31
0.0
  0
INSERT
  5
393
330
38E
100
AcDbEntity
  8
0
  6
BYBLOCK
 62
     4
100
AcDbBlockReference
  2
_OPEN
 10
127.5129950695993
 20
171.4282026571303
 30
0.0
 41
3.0
 42
3.0
 43
3.0
  0
INSERT
  5
394
330
38E
100
AcDbEntity
  8
0
  6
BYBLOCK
 62
     4
100
AcDbBlockReference
  2
_OPEN
 10
79.51289506959938
 20
171.4282026571303
 30
0.0
 41
3.0
 42
3.0
 43
3.0
 50
180.0
  0
MTEXT
  5
395
330
38E
100
AcDbEntity
  8
0
  6
BYBLOCK
 62
     4
100
AcDbMText
 10
103.5129450695993
 20
173.9282026571303
 30
0.0
 40
3.0
 41
0.0
 71
     5
 72
     5
  1
\A1;48
1001
ACAD
1000
MTEXTBEGIN
1070
    73
1070
     1
1070
    44
1040
1.0
1070
    74
1070
     0
1000
MTEXTEND
1000
MTEXTBEGIN
1070
    73
1070
     1
1070
    44
1040
1.0
1070
    74
1070
     0
1000
MTEXTEND
1000
MTEXTBEGIN
1070
    73
1070
     1
1070
    44
1040
1.0
1070
    74
1070
     0
1000
MTEXTEND
  0
POINT
  5
396
330
38E
100
AcDbEntity
  8
DEFPOINTS
  6
BYBLOCK
 62
     0
100
AcDbPoint
 10
127.5129950695993
 20
113.4296970699659
 30
0.0
  0
POINT
  5
397
330
38E
100
AcDbEntity
  8
DEFPOINTS
  6
BYBLOCK
 62
     0
100
AcDbPoint
 10
79.51289506959938
 20
113.4297970699659
 30
0.0
  0
POINT
  5
398
330
38E
100
AcDbEntity
  8
DEFPOINTS
  6
BYBLOCK
 62
     0
100
AcDbPoint
 10
79.51289506959938
 20
171.4282026571303
 30
0.0
  0
ENDBLK
  5
399
330
38E
100
AcDbEntity
  8
0
100
AcDbBlockEnd
  0
BLOCK
  5
39C
330
39B
100
AcDbEntity
  8
0
100
AcDbBlockBegin
  2
*D7
 70
     1
 10
0.0
 20
0.0
 30
0.0
  3
*D7
  1

  0
LINE
  5
39D
330
39B
100
AcDbEntity
  8
0
  6
BYBLOCK
 62
     4
100
AcDbLine
 10
294.3476004385221
 20
264.0884100220743
 30
0.0
 11
317.7605512290713
 21
264.0884100220743
 31
0.0
  0
LINE
  5
39E
330
39B
100
AcDbEntity
  8
0
  6
BYBLOCK
 62
     4
100
AcDbLine
 10
294.3478004385222
 20
199.0884100220743
 30
0.0
 11
317.7605512290713
 21
199.0884100220743
 31
0.0
  0
LINE
  5
39F
330
39B
100
AcDbEntity
  8
0
  6
BYBLOCK
 62
     4
100
AcDbLine
 10
316.2605512290713
 20
261.0884100220743
 30
0.0
 11
316.2605512290713
 21
202.0884100220743
 31
0.0
  0
INSERT
  5
3A0
330
39B
100
AcDbEntity
  8
0
  6
BYBLOCK
 62
     4
100
AcDbBlockReference
  2
_OPEN
 10
316.2605512290713
 20
264.0884100220743
 30
0.0
 41
3.0
 42
3.0
 43
3.0
 50
90.0
  0
INSERT
  5
3A1
330
39B
100
AcDbEntity
  8
0
  6
BYBLOCK
 62
     4
100
AcDbBlockReference
  2
_OPEN
 10
316.2605512290713
 20
199.0884100220743
 30
0.0
 41
3.0
 42
3.0
 43
3.0
 50
270.0
  0
MTEXT
  5
3A2
330
39B
100
AcDbEntity
  8
0
  6
BYBLOCK
 62
     4
100
AcDbMText
 10
313.7605512290713
 20
231.5884100220743
 30
0.0
 40
3.0
 41
0.0
 71
     5
 72
     5
  1
\A1;65
 11
0.0
 21
1.0
 31
0.0
1001
ACAD
1000
MTEXTBEGIN
1070
    73
1070
     1
1070
    44
1040
1.0
1070
    74
1070
     0
1000
MTEXTEND
1000
MTEXTBEGIN
1070
    73
1070
     1
1070
    44
1040
1.0
1070
    74
1070
     0
1000
MTEXTEND
1000
MTEXTBEGIN
1070
    73
1070
     1
1070
    44
1040
1.0
1070
    74
1070
     0
1000
MTEXTEND
  0
POINT
  5
3A3
330
39B
100
AcDbEntity
  8
DEFPOINTS
  6
BYBLOCK
 62
     0
100
AcDbPoint
 10
291.3476004385222
 20
264.0884100220743
 30
0.0
  0
POINT
  5
3A4
330
39B
100
AcDbEntity
  8
DEFPOINTS
  6
BYBLOCK
 62
     0
100
AcDbPoint
 10
291.3478004385222
 20
199.0884100220743
 30
0.0
  0
POINT
  5
3A5
330
39B
100
AcDbEntity
  8
DEFPOINTS
  6
BYBLOCK
 62
     0
100
AcDbPoint
 10
316.2605512290713
 20
199.0884100220743
 30
0.0
  0
ENDBLK
  5
3A6
330
39B
100
AcDbEntity
  8
0
100
AcDbBlockEnd
  0
BLOCK
  5
3B2
330
3B1
100
AcDbEntity
  8
0
100
AcDbBlockBegin
  2
*D8
 70
     1
 10
0.0
 20
0.0
 30
0.0
  3
*D8
  1

  0
LINE
  5
3B3
330
3B1
100
AcDbEntity
  8
0
  6
BYBLOCK
 62
     4
100
AcDbLine
 10
264.4936411865308
 20
71.31340427198352
 30
0.0
 11
264.4936411865308
 21
48.12871253882565
 31
0.0
  0
LINE
  5
3B4
330
3B1
100
AcDbEntity
  8
0
  6
BYBLOCK
 62
     4
100
AcDbLine
 10
288.4936991865308
 20
79.74330427198353
 30
0.0
 11
288.4936991865308
 21
48.12871253882565
 31
0.0
  0
LINE
  5
3B5
330
3B1
100
AcDbEntity
  8
0
  6
BYBLOCK
 62
     4
100
AcDbLine
 10
267.4936411865308
 20
49.62871253882565
 30
0.0
 11
285.4936991865308
 21
49.62871253882565
 31
0.0
  0
INSERT
  5
3B6
330
3B1
100
AcDbEntity
  8
0
  6
BYBLOCK
 62
     4
100
AcDbBlockReference
  2
_OPEN
 10
264.4936411865308
 20
49.62871253882565
 30
0.0
 41
3.0
 42
3.0
 43
3.0
 50
180.0
  0
INSERT
  5
3B7
330
3B1
100
AcDbEntity
  8
0
  6
BYBLOCK
 62
     4
100
AcDbBlockReference
  2
_OPEN
 10
288.4936991865308
 20
49.62871253882565
 30
0.0
 41
3.0
 42
3.0
 43
3.0
  0
MTEXT
  5
3B8
330
3B1
100
AcDbEntity
  8
0
  6
BYBLOCK
 62
     4
100
AcDbMText
 10
276.4936701865308
 20
52.12871253882565
 30
0.0
 40
3.0
 41
0.0
 71
     5
 72
     5
  1
\A1;24
1001
ACAD
1000
MTEXTBEGIN
1070
    73
1070
     1
1070
    44
1040
1.0
1070
    74
1070
     0
1000
MTEXTEND
1000
MTEXTBEGIN
1070
    73
1070
     1
1070
    44
1040
1.0
1070
    74
1070
     0
1000
MTEXTEND
1000
MTEXTBEGIN
1070
    73
1070
     1
1070
    44
1040
1.0
1070
    74
1070
     0
1000
MTEXTEND
  0
POINT
  5
3B9
330
3B1
100
AcDbEntity
  8
DEFPOINTS
  6
BYBLOCK
 62
     0
100
AcDbPoint
 10
264.4936411865308
 20
74.31340427198353
 30
0.0
  0
POINT
  5
3BA
330
3B1
100
AcDbEntity
  8
DEFPOINTS
  6
BYBLOCK
 62
     0
100
AcDbPoint
 10
288.4936991865308
 20
82.74330427198353
 30
0.0
  0
POINT
  5
3BB
330
3B1
100
AcDbEntity
  8
DEFPOINTS
  6
BYBLOCK
 62
     0
100
AcDbPoint
 10
288.4936991865308
 20
49.62871253882565
 30
0.0
  0
ENDBLK
  5
3BC
330
3B1
100
AcDbEntity
  8
0
100
AcDbBlockEnd
  0
BLOCK
  5
3BF
330
3BE
100
AcDbEntity
  8
0
100
AcDbBlockBegin
  2
*D9
 70
     1
 10
0.0
 20
0.0
 30
0.0
  3
*D9
  1

  0
LINE
  5
3C0
330
3BE
100
AcDbEntity
  8
0
  6
BYBLOCK
 62
     4
100
AcDbLine
 10
200.7936991865308
 20
118.9934042719835
 30
0.0
 11
200.7936991865308
 21
149.191456339461
 31
0.0
  0
LINE
  5
3C1
330
3BE
100
AcDbEntity
  8
0
  6
BYBLOCK
 62
     4
100
AcDbLine
 10
268.4937991865309
 20
119.0301042719835
 30
0.0
 11
268.4937991865309
 21
149.191456339461
 31
0.0
  0
LINE
  5
3C2
330
3BE
100
AcDbEntity
  8
0
  6
BYBLOCK
 62
     4
100
AcDbLine
 10
203.7936991865308
 20
147.691456339461
 30
0.0
 11
265.4937991865309
 21
147.691456339461
 31
0.0
  0
INSERT
  5
3C3
330
3BE
100
AcDbEntity
  8
0
  6
BYBLOCK
 62
     4
100
AcDbBlockReference
  2
_OPEN
 10
200.7936991865308
 20
147.691456339461
 30
0.0
 41
3.0
 42
3.0
 43
3.0
 50
180.0
  0
INSERT
  5
3C4
330
3BE
100
AcDbEntity
  8
0
  6
BYBLOCK
 62
     4
100
AcDbBlockReference
  2
_OPEN
 10
268.4937991865309
 20
147.691456339461
 30
0.0
 41
3.0
 42
3.0
 43
3.0
  0
MTEXT
  5
3C5
330
3BE
100
AcDbEntity
  8
0
  6
BYBLOCK
 62
     4
100
AcDbMText
 10
234.6437491865308
 20
150.191456339461
 30
0.0
 40
3.0
 41
0.0
 71
     5
 72
     5
  1
\A1;68
1001
ACAD
1000
MTEXTBEGIN
1070
    73
1070
     1
1070
    44
1040
1.0
1070
    74
1070
     0
1000
MTEXTEND
1000
MTEXTBEGIN
1070
    73
1070
     1
1070
    44
1040
1.0
1070
    74
1070
     0
1000
MTEXTEND
1000
MTEXTBEGIN
1070
    73
1070
     1
1070
    44
1040
1.0
1070
    74
1070
     0
1000
MTEXTEND
  0
POINT
  5
3C6
330
3BE
100
AcDbEntity
  8
DEFPOINTS
  6
BYBLOCK
 62
     0
100
AcDbPoint
 10
200.7936991865308
 20
115.9934042719835
 30
0.0
  0
POINT
  5
3C7
330
3BE
100
AcDbEntity
  8
DEFPOINTS
  6
BYBLOCK
 62
     0
100
AcDbPoint
 10
268.4937991865309
 20
116.0301042719835
 30
0.0
  0
POINT
  5
3C8
330
3BE
100
AcDbEntity
  8
DEFPOINTS
  6
BYBLOCK
 62
     0
100
AcDbPoint
 10
268.4937991865309
 20
147.691456339461
 30
0.0
  0
ENDBLK
  5
3C9
330
3BE
100
AcDbEntity
  8
0
100
AcDbBlockEnd
  0
ENDSEC
  0
SECTION
  2
ENTITIES
  0
LINE
  5
233
330
1A
100
AcDbEntity
  8
CENTER_L
  6
CENTER
 62
     1
 48
5.0
100
AcDbLine
 10
307.2554998198221
 20
216.7347570868332
 30
0.0
 11
199.555399819822
 21
216.7345570868332
 31
0.0
  0
LINE
  5
234
330
1A
100
AcDbEntity
  8
CENTER_L
  6
CENTER
 62
     1
 48
5.0
100
AcDbLine
 10
307.255399819822
 20
93.57594413472481
 30
0.0
 11
199.555299819822
 21
93.57604413472481
 31
0.0
  0
LINE
  5
235
330
1A
100
AcDbEntity
  8
SEIHIN
  6
CONTINUOUS
 62
     3
 48
5.0
100
AcDbLine
 10
218.923499819822
 20
223.2347570868332
 30
0.0
 11
219.923499819822
 21
225.7347570868332
 31
0.0
  0
LINE
  5
236
330
1A
100
AcDbEntity
  8
SEIHIN
  6
CONTINUOUS
 62
     3
 48
5.0
100
AcDbLine
 10
218.923499819822
 20
210.2347570868332
 30
0.0
 11
219.923499819822
 21
207.7347570868332
 31
0.0
  0
LINE
  5
237
330
1A
100
AcDbEntity
  8
SEIHIN
  6
CONTINUOUS
 62
     3
 48
5.0
100
AcDbLine
 10
255.555499819822
 20
210.2346570868331
 30
0.0
 11
209.555399819822
 21
210.2345570868332
 31
0.0
  0
LINE
  5
238
330
1A
100
AcDbEntity
  8
SEIHIN
  6
CONTINUOUS
 62
     3
 48
5.0
100
AcDbLine
 10
255.555499819822
 20
223.2346570868331
 30
0.0
 11
209.555399819822
 21
223.2346570868331
 31
0.0
  0
LINE
  5
239
330
1A
100
AcDbEntity
  8
SEIHIN
  6
CONTINUOUS
 62
     3
 48
5.0
100
AcDbLine
 10
290.7554998198221
 20
225.7346570868331
 30
0.0
 11
210.555399819822
 21
225.7346570868331
 31
0.0
  0
LINE
  5
23A
330
1A
100
AcDbEntity
  8
SEIHIN
  6
CONTINUOUS
 62
     3
 48
5.0
100
AcDbLine
 10
290.7554998198221
 20
207.7347570868332
 30
0.0
 11
210.555399819822
 21
207.7345570868331
 31
0.0
  0
ARC
  5
23B
330
1A
100
AcDbEntity
  8
SEIHIN
  6
CONTINUOUS
 62
     3
 48
5.0
100
AcDbCircle
 10
221.655299819822
 20
123.9259441347247
 30
0.0
 40
2.000016999999999
100
AcDbArc
 50
90.0
 51
170.799062
  0
ARC
  5
23C
330
1A
100
AcDbEntity
  8
SEIHIN
  6
CONTINUOUS
 62
     3
 48
5.0
100
AcDbCircle
 10
221.655299819822
 20
123.9259441347247
 30
0.0
 40
2.999991999999999
100
AcDbArc
 50
90.0
 51
170.8007939999999
  0
ARC
  5
23D
330
1A
100
AcDbEntity
  8
SEIHIN
  6
CONTINUOUS
 62
     3
 48
5.0
100
AcDbCircle
 10
210.796899819822
 20
125.6847441347248
 30
0.0
 40
9.000052
100
AcDbArc
 50
279.199104
 51
350.800896
  0
ARC
  5
23E
330
1A
100
AcDbEntity
  8
SEIHIN
  6
CONTINUOUS
 62
     3
 48
5.0
100
AcDbCircle
 10
210.796899819822
 20
125.6847441347248
 30
0.0
 40
11.00008399999999
100
AcDbArc
 50
286.8050609999999
 51
343.1944399999999
  0
ARC
  5
23F
330
1A
100
AcDbEntity
  8
SEIHIN
  6
CONTINUOUS
 62
     3
 48
5.0
100
AcDbCircle
 10
221.655299819822
 20
63.22614413472482
 30
0.0
 40
2.000016999999999
100
AcDbArc
 50
189.2009379999999
 51
270.0
  0
ARC
  5
240
330
1A
100
AcDbEntity
  8
SEIHIN
  6
CONTINUOUS
 62
     3
 48
5.0
100
AcDbCircle
 10
221.655299819822
 20
63.22614413472482
 30
0.0
 40
2.999991999999999
100
AcDbArc
 50
189.1992059999999
 51
270.0
  0
ARC
  5
241
330
1A
100
AcDbEntity
  8
SEIHIN
  6
CONTINUOUS
 62
     3
 48
5.0
100
AcDbCircle
 10
210.796799819822
 20
61.46764413472482
 30
0.0
 40
8.999945
100
AcDbArc
 50
9.199206
 51
80.801423
  0
ARC
  5
242
330
1A
100
AcDbEntity
  8
SEIHIN
  6
CONTINUOUS
 62
     3
 48
5.0
100
AcDbCircle
 10
210.796799819822
 20
61.46764413472482
 30
0.0
 40
10.999959
100
AcDbArc
 50
16.805212
 51
73.19528699999999
  0
LINE
  5
244
330
1A
100
AcDbEntity
  8
CENTER_L
  6
CENTER
 62
     1
 48
5.0
100
AcDbLine
 10
90.4206944508992
 20
93.57614413472481
 30
0.0
 11
80.4206944508992
 21
93.57614413472481
 31
0.0
  0
LINE
  5
246
330
1A
100
AcDbEntity
  8
SEIHIN
  6
CONTINUOUS
 62
     3
 48
5.0
100
AcDbLine
 10
84.33689445089916
 20
84.57614413472482
 30
0.0
 11
100.4207944508991
 21
84.57614413472482
 31
0.0
  0
LINE
  5
247
330
1A
100
AcDbEntity
  8
SEIHIN
  6
CONTINUOUS
 62
     3
 48
5.0
100
AcDbLine
 10
81.92069445089918
 20
81.57614413472481
 30
0.0
 11
100.4206944508991
 21
81.57614413472481
 31
0.0
  0
LINE
  5
248
330
1A
100
AcDbEntity
  8
SEIHIN
  6
CONTINUOUS
 62
     3
 48
5.0
100
AcDbLine
 10
81.92069445089918
 20
105.5761441347248
 30
0.0
 11
100.4207944508991
 21
105.5761441347248
 31
0.0
  0
LINE
  5
249
330
1A
100
AcDbEntity
  8
SEIHIN
  6
CONTINUOUS
 62
     3
 48
5.0
100
AcDbLine
 10
84.33689445089916
 20
102.5761441347248
 30
0.0
 11
100.4207944508991
 21
102.5761441347248
 31
0.0
  0
LINE
  5
24C
330
1A
100
AcDbEntity
  8
SEIHIN
  6
CONTINUOUS
 62
     3
 48
5.0
100
AcDbLine
 10
76.92069445089919
 20
100.5761441347248
 30
0.0
 11
79.92069445089919
 21
98.15994413472481
 31
0.0
  0
LINE
  5
24D
330
1A
100
AcDbEntity
  8
SEIHIN
  6
CONTINUOUS
 62
     3
 48
5.0
100
AcDbLine
 10
76.92069445089919
 20
100.5761441347248
 30
0.0
 11
76.92069445089919
 21
93.57614413472481
 31
0.0
  0
ARC
  5
24E
330
1A
100
AcDbEntity
  8
SEIHIN
  6
CONTINUOUS
 62
     3
 48
5.0
100
AcDbCircle
 10
76.92069445089919
 20
105.5761441347248
 30
0.0
 40
8.000000999999999
100
AcDbArc
 50
292.0243089999999
 51
337.975691
  0
ARC
  5
24F
330
1A
100
AcDbEntity
  8
SEIHIN
  6
CONTINUOUS
 62
     3
 48
5.0
100
AcDbCircle
 10
76.92069445089919
 20
105.5761441347248
 30
0.0
 40
5.0
100
AcDbArc
 50
270.0
 51
0.0
  0
LINE
  5
250
330
1A
100
AcDbEntity
  8
CENTER_L
  6
CENTER
 62
     1
 48
5.0
100
AcDbLine
 10
85.4206944508992
 20
98.57614413472482
 30
0.0
 11
85.4206944508992
 21
88.57614413472481
 31
0.0
  0
LINE
  5
251
330
1A
100
AcDbEntity
  8
SEIHIN
  6
CONTINUOUS
 62
     3
 48
5.0
100
AcDbLine
 10
76.92069445089919
 20
86.5768441347248
 30
0.0
 11
79.92069445089919
 21
88.99304413472481
 31
0.0
  0
ARC
  5
252
330
1A
100
AcDbEntity
  8
SEIHIN
  6
CONTINUOUS
 62
     3
 48
5.0
100
AcDbCircle
 10
76.92069445089919
 20
81.57614413472481
 30
0.0
 40
7.999954999999999
100
AcDbArc
 50
22.02457699999999
 51
67.975691
  0
LINE
  5
253
330
1A
100
AcDbEntity
  8
SEIHIN
  6
CONTINUOUS
 62
     3
 48
5.0
100
AcDbLine
 10
76.92069445089919
 20
86.57614413472481
 30
0.0
 11
76.92069445089919
 21
93.57614413472481
 31
0.0
  0
ARC
  5
254
330
1A
100
AcDbEntity
  8
SEIHIN
  6
CONTINUOUS
 62
     3
 48
5.0
100
AcDbCircle
 10
76.92069445089919
 20
81.57614413472481
 30
0.0
 40
5.0
100
AcDbArc
 50
0.0
 51
90.0
  0
LINE
  5
255
330
1A
100
AcDbEntity
  8
SEIHIN
  6
CONTINUOUS
 62
     3
 48
5.0
100
AcDbLine
 10
81.92069445089918
 20
81.5768441347248
 30
0.0
 11
84.3367944508992
 21
84.5767441347248
 31
0.0
  0
LINE
  5
256
330
1A
100
AcDbEntity
  8
SEIHIN
  6
CONTINUOUS
 62
     3
 48
5.0
100
AcDbLine
 10
79.92069445089919
 20
98.15994413472481
 30
0.0
 11
79.92069445089919
 21
93.57614413472481
 31
0.0
  0
LINE
  5
257
330
1A
100
AcDbEntity
  8
SEIHIN
  6
CONTINUOUS
 62
     3
 48
5.0
100
AcDbLine
 10
79.92069445089919
 20
88.99234413472482
 30
0.0
 11
79.92069445089919
 21
93.57614413472481
 31
0.0
  0
CIRCLE
  5
258
330
1A
100
AcDbEntity
  8
SEIHIN
  6
CONTINUOUS
 62
     3
 48
5.0
100
AcDbCircle
 10
85.4206944508992
 20
93.57614413472481
 30
0.0
 40
2.1
  0
LINE
  5
259
330
1A
100
AcDbEntity
  8
SEIHIN
  6
CONTINUOUS
 62
     3
 48
5.0
100
AcDbLine
 10
81.92069445089918
 20
105.5761441347248
 30
0.0
 11
84.33689445089916
 21
102.5761441347248
 31
0.0
  0
LINE
  5
25A
330
1A
100
AcDbEntity
  8
CENTER_L
  6
CENTER
 62
     1
 48
5.0
100
AcDbLine
 10
109.4207944508992
 20
139.5509441347247
 30
0.0
 11
109.4206944508991
 21
47.0586441347248
 31
0.0
  0
LINE
  5
25B
330
1A
100
AcDbEntity
  8
SEIHIN
  6
CONTINUOUS
 62
     3
 48
5.0
100
AcDbLine
 10
115.9207944508992
 20
52.72614413472481
 30
0.0
 11
118.4206944508991
 21
54.22614413472482
 31
0.0
  0
LINE
  5
25C
330
1A
100
AcDbEntity
  8
SEIHIN
  6
CONTINUOUS
 62
     3
 48
5.0
100
AcDbLine
 10
100.4206944508991
 20
54.22614413472482
 30
0.0
 11
102.9206944508991
 21
52.72614413472481
 31
0.0
  0
LINE
  5
25D
330
1A
100
AcDbEntity
  8
SEIHIN
  6
CONTINUOUS
 62
     3
 48
5.0
100
AcDbLine
 10
102.9206944508991
 20
126.9260441347248
 30
0.0
 11
102.9206944508991
 21
52.72594413472481
 31
0.0
  0
LINE
  5
25E
330
1A
100
AcDbEntity
  8
SEIHIN
  6
CONTINUOUS
 62
     3
 48
5.0
100
AcDbLine
 10
115.9207944508992
 20
126.9260441347248
 30
0.0
 11
115.9206944508991
 21
52.72604413472482
 31
0.0
  0
LINE
  5
262
330
1A
100
AcDbEntity
  8
SEIHIN
  6
CONTINUOUS
 62
     3
 48
5.0
100
AcDbLine
 10
115.9206944508991
 20
52.72614413472481
 30
0.0
 11
102.9205944508991
 21
52.72614413472481
 31
0.0
  0
LINE
  5
263
330
1A
100
AcDbEntity
  8
SEIHIN
  6
CONTINUOUS
 62
     3
 48
5.0
100
AcDbLine
 10
141.9208944508991
 20
100.5760441347248
 30
0.0
 11
138.9208944508991
 21
98.15984413472481
 31
0.0
  0
LINE
  5
264
330
1A
100
AcDbEntity
  8
SEIHIN
  6
CONTINUOUS
 62
     3
 48
5.0
100
AcDbLine
 10
141.9207944508992
 20
100.5760441347248
 30
0.0
 11
141.9207944508992
 21
93.57604413472481
 31
0.0
  0
ARC
  5
265
330
1A
100
AcDbEntity
  8
SEIHIN
  6
CONTINUOUS
 62
     3
 48
5.0
100
AcDbCircle
 10
141.9207944508992
 20
105.5760441347248
 30
0.0
 40
8.000000999999999
100
AcDbArc
 50
202.024309
 51
247.975691
  0
ARC
  5
266
330
1A
100
AcDbEntity
  8
SEIHIN
  6
CONTINUOUS
 62
     3
 48
5.0
100
AcDbCircle
 10
141.9207944508992
 20
105.5760441347248
 30
0.0
 40
5.0
100
AcDbArc
 50
180.0
 51
270.0
  0
LINE
  5
267
330
1A
100
AcDbEntity
  8
SEIHIN
  6
CONTINUOUS
 62
     3
 48
5.0
100
AcDbLine
 10
100.4206944508991
 20
54.22614413472482
 30
0.0
 11
100.4206944508991
 21
134.4263441347247
 31
0.0
  0
LINE
  5
268
330
1A
100
AcDbEntity
  8
SEIHIN
  6
CONTINUOUS
 62
     3
 48
5.0
100
AcDbLine
 10
118.4206944508991
 20
54.22614413472482
 30
0.0
 11
118.4207944508991
 21
134.4263441347247
 31
0.0
  0
LINE
  5
269
330
1A
100
AcDbEntity
  8
SEIHIN
  6
CONTINUOUS
 62
     3
 48
5.0
100
AcDbLine
 10
134.5045944508991
 20
84.57604413472481
 30
0.0
 11
118.4206944508991
 21
84.57604413472481
 31
0.0
  0
LINE
  5
26A
330
1A
100
AcDbEntity
  8
SEIHIN
  6
CONTINUOUS
 62
     3
 48
5.0
100
AcDbLine
 10
136.9207944508991
 20
81.57604413472482
 30
0.0
 11
118.4206944508991
 21
81.57604413472482
 31
0.0
  0
LINE
  5
26B
330
1A
100
AcDbEntity
  8
SEIHIN
  6
CONTINUOUS
 62
     3
 48
5.0
100
AcDbLine
 10
115.9206944508991
 20
69.36474413472481
 30
0.0
 11
102.9205944508991
 21
69.36474413472481
 31
0.0
  0
LINE
  5
26C
330
1A
100
AcDbEntity
  8
SEIHIN
  6
CONTINUOUS
 62
     3
 48
5.0
100
AcDbLine
 10
115.9206944508991
 20
60.22614413472481
 30
0.0
 11
102.9205944508991
 21
60.22624413472482
 31
0.0
  0
LINE
  5
26D
330
1A
100
AcDbEntity
  8
SEIHIN
  6
CONTINUOUS
 62
     3
 48
5.0
100
AcDbLine
 10
100.4206944508991
 20
61.72624413472482
 30
0.0
 11
102.9206944508991
 21
60.22614413472481
 31
0.0
  0
LINE
  5
26E
330
1A
100
AcDbEntity
  8
SEIHIN
  6
CONTINUOUS
 62
     3
 48
5.0
100
AcDbLine
 10
100.4206944508991
 20
70.86484413472482
 30
0.0
 11
102.9206944508991
 21
69.36474413472481
 31
0.0
  0
LINE
  5
26F
330
1A
100
AcDbEntity
  8
SEIHIN
  6
CONTINUOUS
 62
     3
 48
5.0
100
AcDbLine
 10
112.9206944508991
 20
58.73894413472481
 30
0.0
 11
112.9206944508991
 21
60.22604413472482
 31
0.0
  0
LINE
  5
270
330
1A
100
AcDbEntity
  8
SEIHIN
  6
CONTINUOUS
 62
     3
 48
5.0
100
AcDbLine
 10
105.9206944508991
 20
58.73894413472481
 30
0.0
 11
105.9206944508991
 21
60.22604413472482
 31
0.0
  0
LINE
  5
271
330
1A
100
AcDbEntity
  8
SEIHIN
  6
CONTINUOUS
 62
     3
 48
5.0
100
AcDbLine
 10
112.9206944508991
 20
58.73914413472482
 30
0.0
 11
105.9206944508991
 21
58.73914413472482
 31
0.0
  0
LINE
  5
272
330
1A
100
AcDbEntity
  8
SEIHIN
  6
CONTINUOUS
 62
     3
 48
5.0
100
AcDbLine
 10
115.9207944508992
 20
60.22614413472481
 30
0.0
 11
118.4207944508991
 21
61.72614413472482
 31
0.0
  0
LINE
  5
273
330
1A
100
AcDbEntity
  8
SEIHIN
  6
CONTINUOUS
 62
     3
 48
5.0
100
AcDbLine
 10
115.9207944508992
 20
69.36474413472481
 30
0.0
 11
118.4206944508991
 21
70.86474413472481
 31
0.0
  0
LINE
  5
274
330
1A
100
AcDbEntity
  8
CENTER_L
  6
CENTER
 62
     1
 48
5.0
100
AcDbLine
 10
128.4207944508992
 20
93.57604413472481
 30
0.0
 11
138.4207944508991
 21
93.57604413472481
 31
0.0
  0
ARC
  5
275
330
1A
100
AcDbEntity
  8
SEIHIN
  6
CONTINUOUS
 62
     3
 48
5.0
100
AcDbCircle
 10
141.9207944508992
 20
81.57604413472482
 30
0.0
 40
8.000000999999999
100
AcDbArc
 50
112.0243089999999
 51
157.9756909999999
  0
ARC
  5
276
330
1A
100
AcDbEntity
  8
SEIHIN
  6
CONTINUOUS
 62
     3
 48
5.0
100
AcDbCircle
 10
141.9207944508992
 20
81.57604413472482
 30
0.0
 40
5.0
100
AcDbArc
 50
90.0
 51
180.0
  0
LINE
  5
277
330
1A
100
AcDbEntity
  8
CENTER_L
  6
CENTER
 62
     1
 48
5.0
100
AcDbLine
 10
133.4207944508992
 20
98.57604413472481
 30
0.0
 11
133.4207944508992
 21
88.57604413472481
 31
0.0
  0
LINE
  5
278
330
1A
100
AcDbEntity
  8
SEIHIN
  6
CONTINUOUS
 62
     3
 48
5.0
100
AcDbLine
 10
136.9208944508991
 20
81.57674413472481
 30
0.0
 11
134.5046944508991
 21
84.5766441347248
 31
0.0
  0
CIRCLE
  5
279
330
1A
100
AcDbEntity
  8
SEIHIN
  6
CONTINUOUS
 62
     3
 48
5.0
100
AcDbCircle
 10
133.4207944508992
 20
93.57604413472481
 30
0.0
 40
2.1
  0
LINE
  5
27A
330
1A
100
AcDbEntity
  8
SEIHIN
  6
CONTINUOUS
 62
     3
 48
5.0
100
AcDbLine
 10
141.9208944508991
 20
86.57674413472481
 30
0.0
 11
138.9208944508991
 21
88.9929441347248
 31
0.0
  0
LINE
  5
27B
330
1A
100
AcDbEntity
  8
SEIHIN
  6
CONTINUOUS
 62
     3
 48
5.0
100
AcDbLine
 10
141.9207944508992
 20
86.57604413472482
 30
0.0
 11
141.9207944508992
 21
93.57604413472481
 31
0.0
  0
LINE
  5
27C
330
1A
100
AcDbEntity
  8
SEIHIN
  6
CONTINUOUS
 62
     3
 48
5.0
100
AcDbLine
 10
138.9207944508991
 20
98.15984413472481
 30
0.0
 11
138.9207944508991
 21
93.57604413472481
 31
0.0
  0
LINE
  5
27D
330
1A
100
AcDbEntity
  8
SEIHIN
  6
CONTINUOUS
 62
     3
 48
5.0
100
AcDbLine
 10
138.9207944508991
 20
88.99224413472481
 30
0.0
 11
138.9207944508991
 21
93.57604413472481
 31
0.0
  0
LINE
  5
27E
330
1A
100
AcDbEntity
  8
SEIHIN
  6
CONTINUOUS
 62
     3
 48
5.0
100
AcDbLine
 10
134.5045944508991
 20
102.5760441347248
 30
0.0
 11
118.4206944508991
 21
102.5760441347248
 31
0.0
  0
LINE
  5
27F
330
1A
100
AcDbEntity
  8
SEIHIN
  6
CONTINUOUS
 62
     3
 48
5.0
100
AcDbLine
 10
136.9207944508991
 20
105.5760441347248
 30
0.0
 11
118.4206944508991
 21
105.5760441347248
 31
0.0
  0
LINE
  5
280
330
1A
100
AcDbEntity
  8
SEIHIN
  6
CONTINUOUS
 62
     3
 48
5.0
100
AcDbLine
 10
115.9207944508992
 20
117.7876441347248
 30
0.0
 11
102.9206944508991
 21
117.7876441347248
 31
0.0
  0
LINE
  5
281
330
1A
100
AcDbEntity
  8
SEIHIN
  6
CONTINUOUS
 62
     3
 48
5.0
100
AcDbLine
 10
102.9206944508991
 20
117.7876441347248
 30
0.0
 11
100.4206944508991
 21
116.2876441347248
 31
0.0
  0
LINE
  5
282
330
1A
100
AcDbEntity
  8
SEIHIN
  6
CONTINUOUS
 62
     3
 48
5.0
100
AcDbLine
 10
118.4206944508991
 20
116.2876441347248
 30
0.0
 11
115.9207944508992
 21
117.7876441347248
 31
0.0
  0
LINE
  5
283
330
1A
100
AcDbEntity
  8
SEIHIN
  6
CONTINUOUS
 62
     3
 48
5.0
100
AcDbLine
 10
115.9207944508992
 20
126.9261441347247
 30
0.0
 11
102.9206944508991
 21
126.9262441347248
 31
0.0
  0
LINE
  5
284
330
1A
100
AcDbEntity
  8
SEIHIN
  6
CONTINUOUS
 62
     3
 48
5.0
100
AcDbLine
 10
118.4207944508991
 20
132.4265441347247
 30
0.0
 11
100.4207944508991
 21
132.4266441347247
 31
0.0
  0
LINE
  5
285
330
1A
100
AcDbEntity
  8
SEIHIN
  6
CONTINUOUS
 62
     3
 48
5.0
100
AcDbLine
 10
118.4207944508991
 20
134.4263441347247
 30
0.0
 11
100.4207944508991
 21
134.4264441347247
 31
0.0
  0
LINE
  5
286
330
1A
100
AcDbEntity
  8
SEIHIN
  6
CONTINUOUS
 62
     3
 48
5.0
100
AcDbLine
 10
102.9206944508991
 20
126.9262441347248
 30
0.0
 11
100.4206944508991
 21
125.4262441347248
 31
0.0
  0
LINE
  5
287
330
1A
100
AcDbEntity
  8
SEIHIN
  6
CONTINUOUS
 62
     3
 48
5.0
100
AcDbLine
 10
105.9205944508991
 20
132.4262441347248
 30
0.0
 11
105.9205944508991
 21
134.4262441347248
 31
0.0
  0
LINE
  5
288
330
1A
100
AcDbEntity
  8
SEIHIN
  6
CONTINUOUS
 62
     3
 48
5.0
100
AcDbLine
 10
112.9205944508991
 20
132.4262441347248
 30
0.0
 11
112.9205944508991
 21
134.4262441347248
 31
0.0
  0
LINE
  5
289
330
1A
100
AcDbEntity
  8
SEIHIN
  6
CONTINUOUS
 62
     3
 48
5.0
100
AcDbLine
 10
118.4207944508991
 20
125.4262441347248
 30
0.0
 11
115.9207944508992
 21
126.9261441347247
 31
0.0
  0
LINE
  5
28A
330
1A
100
AcDbEntity
  8
SEIHIN
  6
CONTINUOUS
 62
     3
 48
5.0
100
AcDbLine
 10
136.9208944508991
 20
105.5760441347248
 30
0.0
 11
134.5046944508991
 21
102.5760441347248
 31
0.0
  0
LINE
  5
28B
330
1A
100
AcDbEntity
  8
SEIHIN
  6
CONTINUOUS
 62
     3
 48
5.0
100
AcDbLine
 10
210.555299819822
 20
93.57614413472481
 30
0.0
 11
210.555399819822
 21
114.8261441347248
 31
0.0
  0
LINE
  5
28C
330
1A
100
AcDbEntity
  8
SEIHIN
  6
CONTINUOUS
 62
     3
 48
5.0
100
AcDbLine
 10
209.555299819822
 20
93.57614413472481
 30
0.0
 11
209.555399819822
 21
114.8261441347248
 31
0.0
  0
LINE
  5
28D
330
1A
100
AcDbEntity
  8
SEIHIN
  6
CONTINUOUS
 62
     3
 48
5.0
100
AcDbLine
 10
212.555299819822
 20
93.57614413472481
 30
0.0
 11
212.555399819822
 21
113.2398441347248
 31
0.0
  0
LINE
  5
28E
330
1A
100
AcDbEntity
  8
SEIHIN
  6
CONTINUOUS
 62
     3
 48
5.0
100
AcDbLine
 10
210.555299819822
 20
93.57614413472481
 30
0.0
 11
210.555299819822
 21
72.32614413472481
 31
0.0
  0
LINE
  5
28F
330
1A
100
AcDbEntity
  8
SEIHIN
  6
CONTINUOUS
 62
     3
 48
5.0
100
AcDbLine
 10
209.555299819822
 20
93.57614413472481
 30
0.0
 11
209.555299819822
 21
72.32614413472481
 31
0.0
  0
LINE
  5
290
330
1A
100
AcDbEntity
  8
SEIHIN
  6
CONTINUOUS
 62
     3
 48
5.0
100
AcDbLine
 10
212.555299819822
 20
93.57614413472481
 30
0.0
 11
212.555299819822
 21
73.91244413472481
 31
0.0
  0
ARC
  5
291
330
1A
100
AcDbEntity
  8
SEIHIN
  6
CONTINUOUS
 62
     3
 48
5.0
100
AcDbCircle
 10
210.796799819822
 20
61.46764413472482
 30
0.0
 40
7.999985999999999
100
AcDbArc
 50
9.198932
 51
80.80106800000001
  0
ARC
  5
292
330
1A
100
AcDbEntity
  8
SEIHIN
  6
CONTINUOUS
 62
     3
 48
5.0
100
AcDbCircle
 10
212.555299819822
 20
72.32614413472481
 30
0.0
 40
2.000008999999999
100
AcDbArc
 50
180.0
 51
260.80189
  0
ARC
  5
293
330
1A
100
AcDbEntity
  8
SEIHIN
  6
CONTINUOUS
 62
     3
 48
5.0
100
AcDbCircle
 10
212.555299819822
 20
72.32614413472481
 30
0.0
 40
2.999991999999999
100
AcDbArc
 50
180.0
 51
260.8007939999999
  0
ARC
  5
294
330
1A
100
AcDbEntity
  8
SEIHIN
  6
CONTINUOUS
 62
     3
 48
5.0
100
AcDbCircle
 10
214.555299819822
 20
73.91244413472481
 30
0.0
 40
2.000016
100
AcDbArc
 50
180.0
 51
253.193194
  0
ARC
  5
295
330
1A
100
AcDbEntity
  8
SEIHIN
  6
CONTINUOUS
 62
     3
 48
5.0
100
AcDbCircle
 10
210.796899819822
 20
125.6847441347248
 30
0.0
 40
7.999994
100
AcDbArc
 50
279.1989319999999
 51
350.800361
  0
ARC
  5
296
330
1A
100
AcDbEntity
  8
SEIHIN
  6
CONTINUOUS
 62
     3
 48
5.0
100
AcDbCircle
 10
212.555399819822
 20
114.8261441347248
 30
0.0
 40
2.999991999999999
100
AcDbArc
 50
99.19920600000002
 51
180.0
  0
ARC
  5
297
330
1A
100
AcDbEntity
  8
SEIHIN
  6
CONTINUOUS
 62
     3
 48
5.0
100
AcDbCircle
 10
212.555399819822
 20
114.8261441347248
 30
0.0
 40
2.000008999999999
100
AcDbArc
 50
99.19811000000002
 51
180.0
  0
ARC
  5
298
330
1A
100
AcDbEntity
  8
SEIHIN
  6
CONTINUOUS
 62
     3
 48
5.0
100
AcDbCircle
 10
214.555399819822
 20
113.2398441347248
 30
0.0
 40
2.000000999999999
100
AcDbArc
 50
106.8040639999999
 51
180.0
  0
LINE
  5
299
330
1A
100
AcDbEntity
  8
SEIHIN
  6
CONTINUOUS
 62
     3
 48
5.0
100
AcDbLine
 10
209.555399819822
 20
223.2346570868331
 30
0.0
 11
210.555399819822
 21
225.7346570868331
 31
0.0
  0
LINE
  5
29A
330
1A
100
AcDbEntity
  8
SEIHIN
  6
CONTINUOUS
 62
     3
 48
5.0
100
AcDbLine
 10
209.555399819822
 20
216.7346570868331
 30
0.0
 11
209.555399819822
 21
210.2347570868332
 31
0.0
  0
LINE
  5
29B
330
1A
100
AcDbEntity
  8
SEIHIN
  6
CONTINUOUS
 62
     3
 48
5.0
100
AcDbLine
 10
218.923499819822
 20
210.2347570868332
 30
0.0
 11
218.923499819822
 21
216.7346570868331
 31
0.0
  0
LINE
  5
29C
330
1A
100
AcDbEntity
  8
SEIHIN
  6
CONTINUOUS
 62
     3
 48
5.0
100
AcDbLine
 10
209.555399819822
 20
210.2346570868331
 30
0.0
 11
210.555399819822
 21
207.7346570868331
 31
0.0
  0
LINE
  5
29D
330
1A
100
AcDbEntity
  8
SEIHIN
  6
CONTINUOUS
 62
     3
 48
5.0
100
AcDbLine
 10
209.555399819822
 20
216.7346570868331
 30
0.0
 11
209.555399819822
 21
223.2345570868332
 31
0.0
  0
LINE
  5
29E
330
1A
100
AcDbEntity
  8
SEIHIN
  6
CONTINUOUS
 62
     3
 48
5.0
100
AcDbLine
 10
218.923499819822
 20
223.2347570868332
 30
0.0
 11
218.923499819822
 21
216.7346570868331
 31
0.0
  0
ARC
  5
2A0
330
1A
100
AcDbEntity
  8
SEIHIN
  6
CONTINUOUS
 62
     3
 48
5.0
100
AcDbCircle
 10
256.555299819822
 20
56.22604413472481
 30
0.0
 40
3.499969
100
AcDbArc
 50
92.38751200000001
 51
270.0
  0
ARC
  5
2A1
330
1A
100
AcDbEntity
  8
SEIHIN
  6
CONTINUOUS
 62
     3
 48
5.0
100
AcDbCircle
 10
259.5552998198221
 20
58.72604413472481
 30
0.0
 40
5.000007
100
AcDbArc
 50
270.0
 51
343.1480819999999
  0
ARC
  5
2A2
330
1A
100
AcDbEntity
  8
SEIHIN
  6
CONTINUOUS
 62
     3
 48
5.0
100
AcDbCircle
 10
259.5552998198221
 20
58.72604413472481
 30
0.0
 40
6.000027999999999
100
AcDbArc
 50
270.0
 51
343.1481919999999
  0
LINE
  5
2A3
330
1A
100
AcDbEntity
  8
SEIHIN
  6
CONTINUOUS
 62
     3
 48
5.0
100
AcDbLine
 10
256.555299819822
 20
52.72604413472482
 30
0.0
 11
259.5552998198221
 21
52.72604413472482
 31
0.0
  0
LINE
  5
2A4
330
1A
100
AcDbEntity
  8
SEIHIN
  6
CONTINUOUS
 62
     3
 48
5.0
100
AcDbLine
 10
254.105799819822
 20
53.72604413472481
 30
0.0
 11
259.5552998198221
 21
53.72604413472481
 31
0.0
  0
LINE
  5
2A8
330
1A
100
AcDbEntity
  8
SEIHIN
  6
CONTINUOUS
 62
     3
 48
5.0
100
AcDbLine
 10
290.755399819822
 20
100.5759441347248
 30
0.0
 11
282.255399819822
 21
100.5759441347248
 31
0.0
  0
LINE
  5
2A9
330
1A
100
AcDbEntity
  8
SEIHIN
  6
CONTINUOUS
 62
     3
 48
5.0
100
AcDbLine
 10
290.755399819822
 20
99.57594413472481
 30
0.0
 11
282.255399819822
 21
99.57594413472481
 31
0.0
  0
LINE
  5
2AA
330
1A
100
AcDbEntity
  8
SEIHIN
  6
CONTINUOUS
 62
     3
 48
5.0
100
AcDbLine
 10
290.755399819822
 20
86.5759441347248
 30
0.0
 11
282.255399819822
 21
86.5759441347248
 31
0.0
  0
LINE
  5
2AB
330
1A
100
AcDbEntity
  8
SEIHIN
  6
CONTINUOUS
 62
     3
 48
5.0
100
AcDbLine
 10
290.755399819822
 20
87.5759441347248
 30
0.0
 11
282.255399819822
 21
87.5759441347248
 31
0.0
  0
LINE
  5
2AC
330
1A
100
AcDbEntity
  8
SEIHIN
  6
CONTINUOUS
 62
     3
 48
5.0
100
AcDbLine
 10
273.2553998198219
 20
94.0759441347248
 30
0.0
 11
273.2553998198219
 21
106.5760441347248
 31
0.0
  0
LINE
  5
2AD
330
1A
100
AcDbEntity
  8
SEIHIN
  6
CONTINUOUS
 62
     3
 48
5.0
100
AcDbLine
 10
274.255399819822
 20
107.5760441347248
 30
0.0
 11
274.255399819822
 21
93.57604413472481
 31
0.0
  0
ARC
  5
2AE
330
1A
100
AcDbEntity
  8
SEIHIN
  6
CONTINUOUS
 62
     3
 48
5.0
100
AcDbCircle
 10
282.255399819822
 20
105.5759441347248
 30
0.0
 40
5.0
100
AcDbArc
 50
180.0
 51
270.0
  0
ARC
  5
2AF
330
1A
100
AcDbEntity
  8
SEIHIN
  6
CONTINUOUS
 62
     3
 48
5.0
100
AcDbCircle
 10
282.255399819822
 20
105.5759441347248
 30
0.0
 40
6.0
100
AcDbArc
 50
180.0
 51
270.0
  0
LINE
  5
2B0
330
1A
100
AcDbEntity
  8
SEIHIN
  6
CONTINUOUS
 62
     3
 48
5.0
100
AcDbLine
 10
259.5552998198221
 20
63.22604413472482
 30
0.0
 11
247.9052998198219
 21
63.22604413472482
 31
0.0
  0
LINE
  5
2B1
330
1A
100
AcDbEntity
  8
SEIHIN
  6
CONTINUOUS
 62
     3
 48
5.0
100
AcDbLine
 10
221.655299819822
 20
61.22614413472482
 30
0.0
 11
254.263799819822
 21
61.22604413472481
 31
0.0
  0
LINE
  5
2B2
330
1A
100
AcDbEntity
  8
SEIHIN
  6
CONTINUOUS
 62
     3
 48
5.0
100
AcDbLine
 10
221.655299819822
 20
60.22614413472481
 30
0.0
 11
255.312699819822
 21
60.22604413472482
 31
0.0
  0
LINE
  5
2B3
330
1A
100
AcDbEntity
  8
SEIHIN
  6
CONTINUOUS
 62
     3
 48
5.0
100
AcDbLine
 10
223.241599819822
 20
63.22614413472482
 30
0.0
 11
237.905299819822
 21
63.22604413472482
 31
0.0
  0
ARC
  5
2B4
330
1A
100
AcDbEntity
  8
SEIHIN
  6
CONTINUOUS
 62
     3
 48
5.0
100
AcDbCircle
 10
223.241599819822
 20
65.22614413472481
 30
0.0
 40
2.000016
100
AcDbArc
 50
196.8068059999999
 51
270.0
  0
LINE
  5
2B5
330
1A
100
AcDbEntity
  8
SEIHIN
  6
CONTINUOUS
 62
     3
 48
5.0
100
AcDbLine
 10
238.905299819822
 20
64.22604413472481
 30
0.0
 11
246.905299819822
 21
64.22604413472481
 31
0.0
  0
ARC
  5
2B6
330
1A
100
AcDbEntity
  8
SEIHIN
  6
CONTINUOUS
 62
     3
 48
5.0
100
AcDbCircle
 10
238.905299819822
 20
63.22604413472482
 30
0.0
 40
1.0
100
AcDbArc
 50
90.0
 51
180.0
  0
ARC
  5
2B7
330
1A
100
AcDbEntity
  8
SEIHIN
  6
CONTINUOUS
 62
     3
 48
5.0
100
AcDbCircle
 10
246.905299819822
 20
63.22604413472482
 30
0.0
 40
1.0
100
AcDbArc
 50
0.0
 51
90.0
  0
LINE
  5
2B8
330
1A
100
AcDbEntity
  8
SEIHIN
  6
CONTINUOUS
 62
     3
 48
5.0
100
AcDbLine
 10
273.2553998198219
 20
78.5759441347248
 30
0.0
 11
273.255299819822
 21
73.1460441347248
 31
0.0
  0
LINE
  5
2B9
330
1A
100
AcDbEntity
  8
SEIHIN
  6
CONTINUOUS
 62
     3
 48
5.0
100
AcDbLine
 10
277.2553998198219
 20
81.5759441347248
 30
0.0
 11
277.255299819822
 21
72.44124413472483
 31
0.0
  0
LINE
  5
2BA
330
1A
100
AcDbEntity
  8
SEIHIN
  6
CONTINUOUS
 62
     3
 48
5.0
100
AcDbLine
 10
276.255399819822
 20
81.5759441347248
 30
0.0
 11
276.255399819822
 21
72.44124413472483
 31
0.0
  0
ARC
  5
2BB
330
1A
100
AcDbEntity
  8
SEIHIN
  6
CONTINUOUS
 62
     3
 48
5.0
100
AcDbCircle
 10
275.013899819822
 20
61.46744413472482
 30
0.0
 40
10.999996
100
AcDbArc
 50
103.290119
 51
166.7098809999999
  0
ARC
  5
2BC
330
1A
100
AcDbEntity
  8
SEIHIN
  6
CONTINUOUS
 62
     3
 48
5.0
100
AcDbCircle
 10
275.013899819822
 20
61.46744413472482
 30
0.0
 40
9.000038999999999
100
AcDbArc
 50
93.95399000000002
 51
163.1488019999999
  0
ARC
  5
2BD
330
1A
100
AcDbEntity
  8
SEIHIN
  6
CONTINUOUS
 62
     3
 48
5.0
100
AcDbCircle
 10
275.013899819822
 20
61.46744413472482
 30
0.0
 40
7.999994
100
AcDbArc
 50
93.954426
 51
163.148123
  0
ARC
  5
2BE
330
1A
100
AcDbEntity
  8
SEIHIN
  6
CONTINUOUS
 62
     3
 48
5.0
100
AcDbCircle
 10
259.5552998198221
 20
58.72604413472481
 30
0.0
 40
4.499976
100
AcDbArc
 50
33.74939499999999
 51
90.0
  0
ARC
  5
2BF
330
1A
100
AcDbEntity
  8
SEIHIN
  6
CONTINUOUS
 62
     3
 48
5.0
100
AcDbCircle
 10
259.5552998198221
 20
58.72604413472481
 30
0.0
 40
3.300016999999999
100
AcDbArc
 50
162.416658
 51
345.6786759999999
  0
ARC
  5
2C0
330
1A
100
AcDbEntity
  8
SEIHIN
  6
CONTINUOUS
 62
     3
 48
5.0
100
AcDbCircle
 10
259.5552998198221
 20
58.72604413472481
 30
0.0
 40
4.499986999999999
100
AcDbArc
 50
164.174232
 51
171.222377
  0
LINE
  5
2C1
330
1A
100
AcDbEntity
  8
SEIHIN
  6
CONTINUOUS
 62
     3
 48
5.0
100
AcDbLine
 10
253.555299819822
 20
58.72604413472481
 30
0.0
 11
253.555299819822
 21
60.22604413472482
 31
0.0
  0
LINE
  5
2C2
330
1A
100
AcDbEntity
  8
SEIHIN
  6
CONTINUOUS
 62
     3
 48
5.0
100
AcDbLine
 10
253.555299819822
 20
58.73894413472481
 30
0.0
 11
254.1190998198221
 21
58.73894413472481
 31
0.0
  0
ARC
  5
2C3
330
1A
100
AcDbEntity
  8
SEIHIN
  6
CONTINUOUS
 62
     3
 48
5.0
100
AcDbCircle
 10
254.263799819822
 20
60.22604413472482
 30
0.0
 40
1.000013999999999
100
AcDbArc
 50
344.169506
 51
90.0
  0
LINE
  5
2C4
330
1A
100
AcDbEntity
  8
SEIHIN
  6
CONTINUOUS
 62
     3
 48
5.0
100
AcDbLine
 10
267.357499819822
 20
63.78664413472481
 30
0.0
 11
265.297699819822
 21
56.98664413472482
 31
0.0
  0
LINE
  5
2C5
330
1A
100
AcDbEntity
  8
SEIHIN
  6
CONTINUOUS
 62
     3
 48
5.0
100
AcDbLine
 10
264.355799819822
 20
64.18844413472482
 30
0.0
 11
262.7527998198221
 21
57.9097441347248
 31
0.0
  0
LINE
  5
2C6
330
1A
100
AcDbEntity
  8
SEIHIN
  6
CONTINUOUS
 62
     3
 48
5.0
100
AcDbLine
 10
266.4003998198221
 20
64.07654413472482
 30
0.0
 11
264.340599819822
 21
57.27654413472482
 31
0.0
  0
ARC
  5
2C7
330
1A
100
AcDbEntity
  8
SEIHIN
  6
CONTINUOUS
 62
     3
 48
5.0
100
AcDbCircle
 10
274.255299819822
 20
72.44124413472483
 30
0.0
 40
2.999971999999999
100
AcDbArc
 50
273.9547129999999
 51
0.0
  0
ARC
  5
2C8
330
1A
100
AcDbEntity
  8
SEIHIN
  6
CONTINUOUS
 62
     3
 48
5.0
100
AcDbCircle
 10
274.255299819822
 20
72.44124413472483
 30
0.0
 40
1.999979999999999
100
AcDbArc
 50
273.9537599999999
 51
0.0
  0
ARC
  5
2C9
330
1A
100
AcDbEntity
  8
SEIHIN
  6
CONTINUOUS
 62
     3
 48
5.0
100
AcDbCircle
 10
272.255299819822
 20
73.1461441347248
 30
0.0
 40
1.000042
100
AcDbArc
 50
283.290055
 51
0.0
  0
ARC
  5
2CA
330
1A
100
AcDbEntity
  8
SEIHIN
  6
CONTINUOUS
 62
     3
 48
5.0
100
AcDbCircle
 10
282.255399819822
 20
81.5759441347248
 30
0.0
 40
6.0
100
AcDbArc
 50
90.0
 51
180.0
  0
LINE
  5
2CB
330
1A
100
AcDbEntity
  8
SEIHIN
  6
CONTINUOUS
 62
     3
 48
5.0
100
AcDbLine
 10
274.255399819822
 20
79.57594413472481
 30
0.0
 11
274.255399819822
 21
93.57594413472481
 31
0.0
  0
LINE
  5
2CC
330
1A
100
AcDbEntity
  8
SEIHIN
  6
CONTINUOUS
 62
     3
 48
5.0
100
AcDbLine
 10
273.2553998198219
 20
93.07594413472481
 30
0.0
 11
273.2553998198219
 21
80.57594413472481
 31
0.0
  0
ARC
  5
2CD
330
1A
100
AcDbEntity
  8
SEIHIN
  6
CONTINUOUS
 62
     3
 48
5.0
100
AcDbCircle
 10
282.255399819822
 20
81.5759441347248
 30
0.0
 40
5.0
100
AcDbArc
 50
90.0
 51
180.0
  0
ARC
  5
2CE
330
1A
100
AcDbEntity
  8
SEIHIN
  6
CONTINUOUS
 62
     3
 48
5.0
100
AcDbCircle
 10
273.2553998198219
 20
79.57594413472481
 30
0.0
 40
1.0
100
AcDbArc
 50
270.0
 51
90.0
  0
LINE
  5
2CF
330
1A
100
AcDbEntity
  8
SEIHIN
  6
CONTINUOUS
 62
     3
 48
5.0
100
AcDbLine
 10
273.755399819822
 20
93.07594413472481
 30
0.0
 11
273.2553998198219
 21
93.07594413472481
 31
0.0
  0
LINE
  5
2D0
330
1A
100
AcDbEntity
  8
SEIHIN
  6
CONTINUOUS
 62
     3
 48
5.0
100
AcDbLine
 10
273.755399819822
 20
94.0759441347248
 30
0.0
 11
273.2553998198219
 21
94.0759441347248
 31
0.0
  0
ARC
  5
2D1
330
1A
100
AcDbEntity
  8
SEIHIN
  6
CONTINUOUS
 62
     3
 48
5.0
100
AcDbCircle
 10
273.755399819822
 20
93.57594413472481
 30
0.0
 40
0.5
100
AcDbArc
 50
270.0
 51
90.0
  0
ARC
  5
2D2
330
1A
100
AcDbEntity
  8
SEIHIN
  6
CONTINUOUS
 62
     3
 48
5.0
100
AcDbCircle
 10
249.576299819822
 20
129.9259441347247
 30
0.0
 40
3.000016999999999
100
AcDbArc
 50
270.0
 51
355.219864
  0
ARC
  5
2D3
330
1A
100
AcDbEntity
  8
SEIHIN
  6
CONTINUOUS
 62
     3
 48
5.0
100
AcDbCircle
 10
249.555499819822
 20
128.9259441347247
 30
0.0
 40
3.0
100
AcDbArc
 50
270.0
 51
0.0
  0
ARC
  5
2D4
330
1A
100
AcDbEntity
  8
SEIHIN
  6
CONTINUOUS
 62
     3
 48
5.0
100
AcDbCircle
 10
255.555499819822
 20
129.4259441347247
 30
0.0
 40
3.0
100
AcDbArc
 50
90.0
 51
180.0
  0
LINE
  5
2D5
330
1A
100
AcDbEntity
  8
SEIHIN
  6
CONTINUOUS
 62
     3
 48
5.0
100
AcDbLine
 10
247.905399819822
 20
123.9259441347247
 30
0.0
 11
259.555499819822
 21
123.9259441347247
 31
0.0
  0
ARC
  5
2D6
330
1A
100
AcDbEntity
  8
SEIHIN
  6
CONTINUOUS
 62
     3
 48
5.0
100
AcDbCircle
 10
246.9053998198221
 20
123.9259441347247
 30
0.0
 40
1.0
100
AcDbArc
 50
270.0
 51
0.0
  0
ARC
  5
2D7
330
1A
100
AcDbEntity
  8
SEIHIN
  6
CONTINUOUS
 62
     3
 48
5.0
100
AcDbCircle
 10
238.905399819822
 20
123.9259441347247
 30
0.0
 40
1.0
100
AcDbArc
 50
180.0
 51
270.0
  0
ARC
  5
2D8
330
1A
100
AcDbEntity
  8
SEIHIN
  6
CONTINUOUS
 62
     3
 48
5.0
100
AcDbCircle
 10
223.241599819822
 20
121.9259441347247
 30
0.0
 40
2.000016
100
AcDbArc
 50
90.0
 51
163.193194
  0
LINE
  5
2D9
330
1A
100
AcDbEntity
  8
SEIHIN
  6
CONTINUOUS
 62
     3
 48
5.0
100
AcDbLine
 10
246.3985998198221
 20
122.9260441347248
 30
0.0
 11
241.398599819822
 21
122.9260441347248
 31
0.0
  0
LINE
  5
2DA
330
1A
100
AcDbEntity
  8
SEIHIN
  6
CONTINUOUS
 62
     3
 48
5.0
100
AcDbLine
 10
246.9053998198221
 20
122.9259441347247
 30
0.0
 11
238.905399819822
 21
122.9259441347247
 31
0.0
  0
LINE
  5
2DB
330
1A
100
AcDbEntity
  8
SEIHIN
  6
CONTINUOUS
 62
     3
 48
5.0
100
AcDbLine
 10
221.655299819822
 20
126.9259441347247
 30
0.0
 11
249.576299819822
 21
126.9259441347247
 31
0.0
  0
LINE
  5
2DC
330
1A
100
AcDbEntity
  8
SEIHIN
  6
CONTINUOUS
 62
     3
 48
5.0
100
AcDbLine
 10
221.655299819822
 20
125.9259441347247
 30
0.0
 11
249.555499819822
 21
125.9259441347247
 31
0.0
  0
LINE
  5
2DD
330
1A
100
AcDbEntity
  8
SEIHIN
  6
CONTINUOUS
 62
     3
 48
5.0
100
AcDbLine
 10
223.241599819822
 20
123.9259441347247
 30
0.0
 11
237.905399819822
 21
123.9259441347247
 31
0.0
  0
LINE
  5
2DE
330
1A
100
AcDbEntity
  8
SEIHIN
  6
CONTINUOUS
 62
     3
 48
5.0
100
AcDbLine
 10
252.555499819822
 20
128.9259441347247
 30
0.0
 11
252.555499819822
 21
129.4259441347247
 31
0.0
  0
ARC
  5
2DF
330
1A
100
AcDbEntity
  8
SEIHIN
  6
CONTINUOUS
 62
     3
 48
5.0
100
AcDbCircle
 10
262.040899819822
 20
120.9259441347247
 30
0.0
 40
3.000024
100
AcDbArc
 50
20.486975
 51
90.0
  0
ARC
  5
2E0
330
1A
100
AcDbEntity
  8
SEIHIN
  6
CONTINUOUS
 62
     3
 48
5.0
100
AcDbCircle
 10
262.040899819822
 20
120.9259441347247
 30
0.0
 40
6.000018999999999
100
AcDbArc
 50
20.487309
 51
63.811187
  0
ARC
  5
2E1
330
1A
100
AcDbEntity
  8
SEIHIN
  6
CONTINUOUS
 62
     3
 48
5.0
100
AcDbCircle
 10
262.040899819822
 20
120.9259441347247
 30
0.0
 40
5.000083999999999
100
AcDbArc
 50
20.487109
 51
63.859779
  0
ARC
  5
2E2
330
1A
100
AcDbEntity
  8
SEIHIN
  6
CONTINUOUS
 62
     3
 48
5.0
100
AcDbCircle
 10
275.155399819822
 20
125.8259441347248
 30
0.0
 40
7.99996
100
AcDbArc
 50
200.487309
 51
265.3071959999999
  0
ARC
  5
2E3
330
1A
100
AcDbEntity
  8
SEIHIN
  6
CONTINUOUS
 62
     3
 48
5.0
100
AcDbCircle
 10
275.155399819822
 20
125.8259441347248
 30
0.0
 40
8.999963000000001
100
AcDbArc
 50
200.4874209999999
 51
265.307308
  0
ARC
  5
2E4
330
1A
100
AcDbEntity
  8
SEIHIN
  6
CONTINUOUS
 62
     3
 48
5.0
100
AcDbCircle
 10
275.155399819822
 20
125.8259441347248
 30
0.0
 40
10.999949
100
AcDbArc
 50
200.4874
 51
256.015173
  0
LINE
  5
2E5
330
1A
100
AcDbEntity
  8
SEIHIN
  6
CONTINUOUS
 62
     3
 48
5.0
100
AcDbLine
 10
273.255499819822
 20
108.5760441347248
 30
0.0
 11
273.255499819822
 21
114.1816441347248
 31
0.0
  0
LINE
  5
2E6
330
1A
100
AcDbEntity
  8
SEIHIN
  6
CONTINUOUS
 62
     3
 48
5.0
100
AcDbLine
 10
277.2553998198219
 20
105.5760441347248
 30
0.0
 11
277.255499819822
 21
114.8628441347248
 31
0.0
  0
LINE
  5
2E7
330
1A
100
AcDbEntity
  8
SEIHIN
  6
CONTINUOUS
 62
     3
 48
5.0
100
AcDbLine
 10
276.255399819822
 20
105.5759441347248
 30
0.0
 11
276.2554998198221
 21
114.8628441347248
 31
0.0
  0
ARC
  5
2E8
330
1A
100
AcDbEntity
  8
SEIHIN
  6
CONTINUOUS
 62
     3
 48
5.0
100
AcDbCircle
 10
273.2553998198219
 20
107.5760441347248
 30
0.0
 40
1.0
100
AcDbArc
 50
270.0
 51
90.0
  0
ARC
  5
2E9
330
1A
100
AcDbEntity
  8
SEIHIN
  6
CONTINUOUS
 62
     3
 48
5.0
100
AcDbCircle
 10
274.2554998198221
 20
114.8628441347248
 30
0.0
 40
2.999976999999999
100
AcDbArc
 50
0.0
 51
85.30789
  0
ARC
  5
2EA
330
1A
100
AcDbEntity
  8
SEIHIN
  6
CONTINUOUS
 62
     3
 48
5.0
100
AcDbCircle
 10
272.2554998198221
 20
114.1816441347248
 30
0.0
 40
0.9999629999999999
100
AcDbArc
 50
0.0
 51
76.01795600000001
  0
ARC
  5
2EB
330
1A
100
AcDbEntity
  8
SEIHIN
  6
CONTINUOUS
 62
     3
 48
5.0
100
AcDbCircle
 10
274.2554998198221
 20
114.8628441347248
 30
0.0
 40
2.000000999999999
100
AcDbArc
 50
0.0
 51
85.307968
  0
CIRCLE
  5
2EC
330
1A
100
AcDbEntity
  8
SEIHIN
  6
CONTINUOUS
 62
     3
 48
5.0
100
AcDbCircle
 10
259.555499819822
 20
129.4259441347247
 30
0.0
 40
2.399999999999999
  0
CIRCLE
  5
2ED
330
1A
100
AcDbEntity
  8
SEIHIN
  6
CONTINUOUS
 62
     3
 48
5.0
100
AcDbCircle
 10
259.555499819822
 20
129.4259441347247
 30
0.0
 40
2.25
  0
LINE
  5
2EE
330
1A
100
AcDbEntity
  8
SEIHIN
  6
CONTINUOUS
 62
     3
 48
5.0
100
AcDbLine
 10
259.555499819822
 20
123.9259441347247
 30
0.0
 11
262.040899819822
 21
123.9259441347247
 31
0.0
  0
ARC
  5
2EF
330
1A
100
AcDbEntity
  8
SEIHIN
  6
CONTINUOUS
 62
     3
 48
5.0
100
AcDbCircle
 10
259.555499819822
 20
129.4259441347247
 30
0.0
 40
4.999976999999999
100
AcDbArc
 50
328.7385069999999
 51
269.998854
  0
LINE
  5
2F0
330
1A
100
AcDbEntity
  8
SEIHIN
  6
CONTINUOUS
 62
     3
 48
5.0
100
AcDbLine
 10
259.555499819822
 20
124.4259441347248
 30
0.0
 11
259.555499819822
 21
123.9259441347247
 31
0.0
  0
LINE
  5
2F1
330
1A
100
AcDbEntity
  8
SEIHIN
  6
CONTINUOUS
 62
     3
 48
5.0
100
AcDbLine
 10
259.555499819822
 20
124.4259441347248
 30
0.0
 11
259.555499819822
 21
123.9259441347247
 31
0.0
  0
ARC
  5
2F2
330
1A
100
AcDbEntity
  8
SEIHIN
  6
CONTINUOUS
 62
     3
 48
5.0
100
AcDbCircle
 10
265.130199819822
 20
127.2074441347247
 30
0.0
 40
0.999994
100
AcDbArc
 50
158.3017989999999
 51
243.8141649999999
  0
ARC
  5
2F3
330
1A
100
AcDbEntity
  8
SEIHIN
  6
CONTINUOUS
 62
     3
 48
5.0
100
AcDbCircle
 10
264.6842998198219
 20
126.3123441347248
 30
0.0
 40
1.000005999999999
100
AcDbArc
 50
148.7404659999999
 51
243.8654089999999
  0
LINE
  5
2F4
330
1A
100
AcDbEntity
  8
SEIHIN
  6
CONTINUOUS
 62
     3
 48
5.0
100
AcDbLine
 10
293.2553998198219
 20
98.07584413472481
 30
0.0
 11
295.255399819822
 21
100.5758441347248
 31
0.0
  0
LINE
  5
2F5
330
1A
100
AcDbEntity
  8
SEIHIN
  6
CONTINUOUS
 62
     3
 48
5.0
100
AcDbLine
 10
297.255399819822
 20
93.5758441347248
 30
0.0
 11
297.255399819822
 21
105.5758441347248
 31
0.0
  0
LINE
  5
2F6
330
1A
100
AcDbEntity
  8
SEIHIN
  6
CONTINUOUS
 62
     3
 48
5.0
100
AcDbLine
 10
295.255399819822
 20
93.5758441347248
 30
0.0
 11
295.255399819822
 21
105.5758441347248
 31
0.0
  0
LINE
  5
2F7
330
1A
100
AcDbEntity
  8
SEIHIN
  6
CONTINUOUS
 62
     3
 48
5.0
100
AcDbLine
 10
293.2553998198219
 20
93.57594413472481
 30
0.0
 11
293.2553998198219
 21
103.0758441347248
 31
0.0
  0
ARC
  5
2F8
330
1A
100
AcDbEntity
  8
SEIHIN
  6
CONTINUOUS
 62
     3
 48
5.0
100
AcDbCircle
 10
290.755399819822
 20
103.0759441347248
 30
0.0
 40
2.5
100
AcDbArc
 50
270.0
 51
0.0
  0
ARC
  5
2F9
330
1A
100
AcDbEntity
  8
SEIHIN
  6
CONTINUOUS
 62
     3
 48
5.0
100
AcDbCircle
 10
290.755399819822
 20
102.0759441347248
 30
0.0
 40
2.5
100
AcDbArc
 50
270.0
 51
0.0
  0
LINE
  5
2FA
330
1A
100
AcDbEntity
  8
SEIHIN
  6
CONTINUOUS
 62
     3
 48
5.0
100
AcDbLine
 10
293.2553998198219
 20
89.07604413472482
 30
0.0
 11
295.255399819822
 21
86.57604413472482
 31
0.0
  0
LINE
  5
2FB
330
1A
100
AcDbEntity
  8
SEIHIN
  6
CONTINUOUS
 62
     3
 48
5.0
100
AcDbLine
 10
297.255399819822
 20
93.57594413472481
 30
0.0
 11
297.255399819822
 21
81.57604413472482
 31
0.0
  0
LINE
  5
2FC
330
1A
100
AcDbEntity
  8
SEIHIN
  6
CONTINUOUS
 62
     3
 48
5.0
100
AcDbLine
 10
295.255399819822
 20
93.57594413472481
 30
0.0
 11
295.255399819822
 21
81.57604413472482
 31
0.0
  0
LINE
  5
2FD
330
1A
100
AcDbEntity
  8
SEIHIN
  6
CONTINUOUS
 62
     3
 48
5.0
100
AcDbLine
 10
293.2553998198219
 20
93.5758441347248
 30
0.0
 11
293.2553998198219
 21
84.07604413472482
 31
0.0
  0
ARC
  5
2FE
330
1A
100
AcDbEntity
  8
SEIHIN
  6
CONTINUOUS
 62
     3
 48
5.0
100
AcDbCircle
 10
290.755399819822
 20
84.0759441347248
 30
0.0
 40
2.5
100
AcDbArc
 50
359.9977079999999
 51
90.0
  0
ARC
  5
2FF
330
1A
100
AcDbEntity
  8
SEIHIN
  6
CONTINUOUS
 62
     3
 48
5.0
100
AcDbCircle
 10
290.755399819822
 20
85.0759441347248
 30
0.0
 40
2.5
100
AcDbArc
 50
359.9977079999999
 51
90.0
  0
LINE
  5
300
330
1A
100
AcDbEntity
  8
SEIHIN
  6
CONTINUOUS
 62
     3
 48
5.0
100
AcDbLine
 10
293.2553998198219
 20
84.07604413472482
 30
0.0
 11
295.255399819822
 21
81.57604413472482
 31
0.0
  0
LINE
  5
301
330
1A
100
AcDbEntity
  8
SEIHIN
  6
CONTINUOUS
 62
     3
 48
5.0
100
AcDbLine
 10
295.255399819822
 20
81.57604413472482
 30
0.0
 11
297.255399819822
 21
81.57604413472482
 31
0.0
  0
LINE
  5
302
330
1A
100
AcDbEntity
  8
SEIHIN
  6
CONTINUOUS
 62
     3
 48
5.0
100
AcDbLine
 10
295.255399819822
 20
86.57604413472482
 30
0.0
 11
297.255399819822
 21
86.57604413472482
 31
0.0
  0
LINE
  5
303
330
1A
100
AcDbEntity
  8
SEIHIN
  6
CONTINUOUS
 62
     3
 48
5.0
100
AcDbLine
 10
293.2553998198219
 20
103.0758441347248
 30
0.0
 11
295.255399819822
 21
105.5758441347248
 31
0.0
  0
LINE
  5
304
330
1A
100
AcDbEntity
  8
SEIHIN
  6
CONTINUOUS
 62
     3
 48
5.0
100
AcDbLine
 10
295.255399819822
 20
105.5758441347248
 30
0.0
 11
297.255399819822
 21
105.5758441347248
 31
0.0
  0
LINE
  5
305
330
1A
100
AcDbEntity
  8
SEIHIN
  6
CONTINUOUS
 62
     3
 48
5.0
100
AcDbLine
 10
295.255399819822
 20
100.5758441347248
 30
0.0
 11
297.255399819822
 21
100.5758441347248
 31
0.0
  0
LINE
  5
306
330
1A
100
AcDbEntity
  8
SEIHIN
  6
CONTINUOUS
 62
     3
 48
5.0
100
AcDbLine
 10
293.2553998198219
 20
246.2346570868331
 30
0.0
 11
295.255399819822
 21
249.2347570868332
 31
0.0
  0
LINE
  5
307
330
1A
100
AcDbEntity
  8
SEIHIN
  6
CONTINUOUS
 62
     3
 48
5.0
100
AcDbLine
 10
297.2554998198221
 20
216.7346570868331
 30
0.0
 11
297.255399819822
 21
249.2347570868332
 31
0.0
  0
LINE
  5
308
330
1A
100
AcDbEntity
  8
SEIHIN
  6
CONTINUOUS
 62
     3
 48
5.0
100
AcDbLine
 10
295.2554998198221
 20
216.7347570868332
 30
0.0
 11
295.255399819822
 21
249.2347570868332
 31
0.0
  0
LINE
  5
309
330
1A
100
AcDbEntity
  8
SEIHIN
  6
CONTINUOUS
 62
     3
 48
5.0
100
AcDbLine
 10
293.255499819822
 20
210.2347570868332
 30
0.0
 11
264.555399819822
 21
210.2346570868331
 31
0.0
  0
LINE
  5
30A
330
1A
100
AcDbEntity
  8
SEIHIN
  6
CONTINUOUS
 62
     3
 48
5.0
100
AcDbLine
 10
293.255499819822
 20
223.2346570868331
 30
0.0
 11
264.555399819822
 21
223.2346570868331
 31
0.0
  0
LINE
  5
30B
330
1A
100
AcDbEntity
  8
SEIHIN
  6
CONTINUOUS
 62
     3
 48
5.0
100
AcDbLine
 10
277.267899819822
 20
223.2347570868332
 30
0.0
 11
276.267899819822
 21
225.7347570868332
 31
0.0
  0
LINE
  5
30C
330
1A
100
AcDbEntity
  8
SEIHIN
  6
CONTINUOUS
 62
     3
 48
5.0
100
AcDbLine
 10
264.555399819822
 20
207.7348570868331
 30
0.0
 11
264.555399819822
 21
225.7347570868332
 31
0.0
  0
LINE
  5
30D
330
1A
100
AcDbEntity
  8
SEIHIN
  6
CONTINUOUS
 62
     3
 48
5.0
100
AcDbLine
 10
255.555499819822
 20
207.7348570868331
 30
0.0
 11
255.555499819822
 21
225.7347570868332
 31
0.0
  0
LINE
  5
30E
330
1A
100
AcDbEntity
  8
SEIHIN
  6
CONTINUOUS
 62
     3
 48
5.0
100
AcDbLine
 10
259.555499819822
 20
213.2346570868331
 30
0.0
 11
259.555499819822
 21
209.7347570868332
 31
0.0
  0
LINE
  5
30F
330
1A
100
AcDbEntity
  8
SEIHIN
  6
CONTINUOUS
 62
     3
 48
5.0
100
AcDbLine
 10
261.805399819822
 20
214.2346570868332
 30
0.0
 11
261.805399819822
 21
209.7346570868331
 31
0.0
  0
LINE
  5
310
330
1A
100
AcDbEntity
  8
SEIHIN
  6
CONTINUOUS
 62
     3
 48
5.0
100
AcDbLine
 10
259.555399819822
 20
209.7346570868331
 30
0.0
 11
259.555399819822
 21
214.2346570868332
 31
0.0
  0
LINE
  5
311
330
1A
100
AcDbEntity
  8
SEIHIN
  6
CONTINUOUS
 62
     3
 48
5.0
100
AcDbLine
 10
259.5556998198221
 20
209.7346570868331
 30
0.0
 11
262.152799819822
 21
209.7346570868331
 31
0.0
  0
LINE
  5
312
330
1A
100
AcDbEntity
  8
SEIHIN
  6
CONTINUOUS
 62
     3
 48
5.0
100
AcDbLine
 10
261.805499819822
 20
210.2346570868331
 30
0.0
 11
259.555399819822
 21
210.2346570868331
 31
0.0
  0
LINE
  5
313
330
1A
100
AcDbEntity
  8
SEIHIN
  6
CONTINUOUS
 62
     3
 48
5.0
100
AcDbLine
 10
264.554999819822
 20
209.7346570868331
 30
0.0
 11
262.305499819822
 21
209.7346570868331
 31
0.0
  0
LINE
  5
314
330
1A
100
AcDbEntity
  8
SEIHIN
  6
CONTINUOUS
 62
     3
 48
5.0
100
AcDbLine
 10
259.5556998198221
 20
223.7346570868331
 30
0.0
 11
262.152799819822
 21
223.7346570868331
 31
0.0
  0
LINE
  5
315
330
1A
100
AcDbEntity
  8
SEIHIN
  6
CONTINUOUS
 62
     3
 48
5.0
100
AcDbLine
 10
259.555399819822
 20
219.7346570868331
 30
0.0
 11
261.805399819822
 21
219.7346570868331
 31
0.0
  0
LINE
  5
316
330
1A
100
AcDbEntity
  8
SEIHIN
  6
CONTINUOUS
 62
     3
 48
5.0
100
AcDbLine
 10
264.554999819822
 20
214.2346570868332
 30
0.0
 11
255.555399819822
 21
214.2346570868332
 31
0.0
  0
LINE
  5
317
330
1A
100
AcDbEntity
  8
SEIHIN
  6
CONTINUOUS
 62
     3
 48
5.0
100
AcDbLine
 10
264.554999819822
 20
219.2346570868331
 30
0.0
 11
255.555399819822
 21
219.2346570868331
 31
0.0
  0
LINE
  5
318
330
1A
100
AcDbEntity
  8
SEIHIN
  6
CONTINUOUS
 62
     3
 48
5.0
100
AcDbLine
 10
259.555399819822
 20
219.2346570868331
 30
0.0
 11
259.555399819822
 21
223.7346570868331
 31
0.0
  0
LINE
  5
319
330
1A
100
AcDbEntity
  8
SEIHIN
  6
CONTINUOUS
 62
     3
 48
5.0
100
AcDbLine
 10
264.554899819822
 20
223.7346570868331
 30
0.0
 11
262.305399819822
 21
223.7346570868331
 31
0.0
  0
LINE
  5
31A
330
1A
100
AcDbEntity
  8
SEIHIN
  6
CONTINUOUS
 62
     3
 48
5.0
100
AcDbLine
 10
261.805399819822
 20
219.2346570868331
 30
0.0
 11
261.805399819822
 21
223.7346570868331
 31
0.0
  0
LINE
  5
31B
330
1A
100
AcDbEntity
  8
SEIHIN
  6
CONTINUOUS
 62
     3
 48
5.0
100
AcDbLine
 10
277.267899819822
 20
210.2347570868332
 30
0.0
 11
277.267899819822
 21
216.7346570868331
 31
0.0
  0
LINE
  5
31C
330
1A
100
AcDbEntity
  8
SEIHIN
  6
CONTINUOUS
 62
     3
 48
5.0
100
AcDbLine
 10
277.267899819822
 20
210.2347570868332
 30
0.0
 11
276.267999819822
 21
207.7347570868332
 31
0.0
  0
LINE
  5
31D
330
1A
100
AcDbEntity
  8
SEIHIN
  6
CONTINUOUS
 62
     3
 48
5.0
100
AcDbLine
 10
277.267899819822
 20
223.2347570868332
 30
0.0
 11
277.267899819822
 21
216.7346570868331
 31
0.0
  0
LINE
  5
31E
330
1A
100
AcDbEntity
  8
SEIHIN
  6
CONTINUOUS
 62
     3
 48
5.0
100
AcDbLine
 10
297.2554998198221
 20
216.7347570868332
 30
0.0
 11
297.2554998198221
 21
184.2347570868332
 31
0.0
  0
LINE
  5
31F
330
1A
100
AcDbEntity
  8
SEIHIN
  6
CONTINUOUS
 62
     3
 48
5.0
100
AcDbLine
 10
295.2554998198221
 20
216.7347570868332
 30
0.0
 11
295.255599819822
 21
184.2347570868332
 31
0.0
  0
LINE
  5
320
330
1A
100
AcDbEntity
  8
SEIHIN
  6
CONTINUOUS
 62
     3
 48
5.0
100
AcDbLine
 10
293.255499819822
 20
216.7347570868332
 30
0.0
 11
293.255499819822
 21
187.2348570868331
 31
0.0
  0
LINE
  5
321
330
1A
100
AcDbEntity
  8
SEIHIN
  6
CONTINUOUS
 62
     3
 48
5.0
100
AcDbLine
 10
293.255499819822
 20
187.2348570868331
 30
0.0
 11
295.255599819822
 21
184.2347570868332
 31
0.0
  0
LINE
  5
322
330
1A
100
AcDbEntity
  8
SEIHIN
  6
CONTINUOUS
 62
     3
 48
5.0
100
AcDbLine
 10
295.255599819822
 20
184.2347570868332
 30
0.0
 11
297.255599819822
 21
184.2347570868332
 31
0.0
  0
LINE
  5
323
330
1A
100
AcDbEntity
  8
SEIHIN
  6
CONTINUOUS
 62
     3
 48
5.0
100
AcDbLine
 10
293.255499819822
 20
191.7347570868331
 30
0.0
 11
295.2554998198221
 21
189.2347570868332
 31
0.0
  0
LINE
  5
324
330
1A
100
AcDbEntity
  8
SEIHIN
  6
CONTINUOUS
 62
     3
 48
5.0
100
AcDbLine
 10
295.2554998198221
 20
189.2347570868332
 30
0.0
 11
297.2554998198221
 21
189.2347570868332
 31
0.0
  0
LINE
  5
325
330
1A
100
AcDbEntity
  8
SEIHIN
  6
CONTINUOUS
 62
     3
 48
5.0
100
AcDbLine
 10
293.255499819822
 20
216.7347570868332
 30
0.0
 11
293.2553998198219
 21
246.2346570868331
 31
0.0
  0
ARC
  5
326
330
1A
100
AcDbEntity
  8
SEIHIN
  6
CONTINUOUS
 62
     3
 48
5.0
100
AcDbCircle
 10
290.7554998198221
 20
205.2347570868332
 30
0.0
 40
2.5
100
AcDbArc
 50
0.0
 51
90.0
  0
ARC
  5
327
330
1A
100
AcDbEntity
  8
SEIHIN
  6
CONTINUOUS
 62
     3
 48
5.0
100
AcDbCircle
 10
290.7554998198221
 20
228.2347570868332
 30
0.0
 40
2.5
100
AcDbArc
 50
270.0
 51
0.0
  0
LINE
  5
328
330
1A
100
AcDbEntity
  8
SEIHIN
  6
CONTINUOUS
 62
     3
 48
5.0
100
AcDbLine
 10
293.2553998198219
 20
241.7347570868332
 30
0.0
 11
295.2554998198221
 21
244.2347570868331
 31
0.0
  0
LINE
  5
329
330
1A
100
AcDbEntity
  8
SEIHIN
  6
CONTINUOUS
 62
     3
 48
5.0
100
AcDbLine
 10
295.2554998198221
 20
244.2347570868331
 30
0.0
 11
297.255399819822
 21
244.2346570868331
 31
0.0
  0
LINE
  5
32A
330
1A
100
AcDbEntity
  8
SEIHIN
  6
CONTINUOUS
 62
     3
 48
5.0
100
AcDbLine
 10
295.255399819822
 20
249.2347570868332
 30
0.0
 11
297.255399819822
 21
249.2347570868332
 31
0.0
  0
LINE
  5
32B
330
1A
100
AcDbEntity
  8
CENTER_L
  6
CENTER
 62
     1
 48
5.0
100
AcDbLine
 10
242.9054185592066
 20
133.9259441347247
 30
0.0
 11
242.9052810805002
 21
53.22608099855964
 31
0.0
  0
LINE
  5
32E
330
1A
100
AcDbEntity
  8
CENTER_L
  6
CENTER
 62
     1
 48
5.0
100
AcDbLine
 10
251.734715170219
 20
129.4259441347247
 30
0.0
 11
267.3762844694247
 21
129.4259441347247
 31
0.0
  0
LINE
  5
32F
330
1A
100
AcDbEntity
  8
CENTER_L
  6
CENTER
 62
     1
 48
5.0
100
AcDbLine
 10
259.555499819822
 20
121.6051594851217
 30
0.0
 11
259.555499819822
 21
137.2467287843274
 31
0.0
  0
DIMENSION
  5
34C
330
1A
100
AcDbEntity
  8
SUNPOU
 62
     4
100
AcDbDimension
  2
*D1
 10
297.255399819822
 20
156.5745497218891
 30
0.0
 11
253.405399819822
 21
159.0745497218891
 31
0.0
 12
5.90779938129981
 22
-14.85365293524114
 32
0.0
 70
    32
  3
STANDARD
100
AcDbAlignedDimension
 13
209.555399819822
 23
114.8261441347248
 33
0.0
 14
297.255399819822
 24
105.5758441347248
 34
0.0
100
AcDbRotatedDimension
1001
ACAD
1000
DSTYLE
1002
{
1070
   140
1040
3.0
1070
    74
1070
     0
1070
   172
1070
     1
1070
    73
1070
     0
1070
   272
1070
     2
1070
    77
1070
     3
1070
   173
1070
     1
1070
   147
1040
1.0
1070
    42
1040
3.0
1070
    44
1040
1.5
1070
    43
1040
7.0
1070
   271
1070
     0
1070
   178
1070
     4
1070
   177
1070
     4
1070
   176
1070
     4
1070
   141
1040
150.0
1070
     7
1000
_OPEN
1070
     6
1000
_OPEN
1070
    41
1040
3.0
1002
}
  0
DIMENSION
  5
359
330
1A
100
AcDbEntity
  8
SUNPOU
 62
     4
100
AcDbDimension
  2
*D2
 10
322.1683506103711
 20
81.57604413472482
 30
0.0
 11
319.6683506103711
 21
93.57594413472481
 31
0.0
 12
5.90779938129981
 22
-14.85365293524114
 32
0.0
 70
    32
  3
STANDARD
100
AcDbAlignedDimension
 13
297.255399819822
 23
105.5758441347248
 33
0.0
 14
297.255399819822
 24
81.57604413472482
 34
0.0
 50
90.0
100
AcDbRotatedDimension
1001
ACAD
1000
DSTYLE
1002
{
1070
   140
1040
3.0
1070
    74
1070
     0
1070
   172
1070
     1
1070
    73
1070
     0
1070
   272
1070
     2
1070
    77
1070
     3
1070
   173
1070
     1
1070
   147
1040
1.0
1070
    42
1040
3.0
1070
    44
1040
1.5
1070
    43
1040
7.0
1070
   271
1070
     0
1070
   178
1070
     4
1070
   177
1070
     4
1070
   176
1070
     4
1070
   141
1040
150.0
1070
     7
1000
_OPEN
1070
     6
1000
_OPEN
1070
    41
1040
3.0
1002
}
  0
DIMENSION
  5
366
330
1A
100
AcDbEntity
  8
SUNPOU
 62
     4
100
AcDbDimension
  2
*D3
 10
183.667818990048
 20
60.22614413472481
 30
0.0
 11
181.167818990048
 21
93.57604413472479
 31
0.0
 12
5.90779938129981
 22
-14.85365293524114
 32
0.0
 70
    32
  3
STANDARD
100
AcDbAlignedDimension
 13
221.655299819822
 23
126.9259441347247
 33
0.0
 14
221.655299819822
 24
60.22614413472481
 34
0.0
 50
90.0
100
AcDbRotatedDimension
1001
ACAD
1000
DSTYLE
1002
{
1070
   140
1040
3.0
1070
    74
1070
     0
1070
   172
1070
     1
1070
    73
1070
     0
1070
   272
1070
     2
1070
    77
1070
     3
1070
   173
1070
     1
1070
   147
1040
1.0
1070
    42
1040
3.0
1070
    44
1040
1.5
1070
    43
1040
7.0
1070
   271
1070
     0
1070
   178
1070
     4
1070
   177
1070
     4
1070
   176
1070
     4
1070
   141
1040
150.0
1070
     7
1000
_OPEN
1070
     6
1000
_OPEN
1070
    41
1040
3.0
1002
}
  0
DIMENSION
  5
373
330
1A
100
AcDbEntity
  8
SUNPOU
 62
     4
100
AcDbDimension
  2
*D4
 10
164.9866512792909
 20
81.57604413472482
 30
0.0
 11
162.4866512792909
 21
93.57604413472481
 31
0.0
 12
5.90779938129981
 22
-14.85365293524114
 32
0.0
 70
    32
  3
STANDARD
100
AcDbAlignedDimension
 13
136.9207944508991
 23
105.5760441347248
 33
0.0
 14
136.9207944508991
 24
81.57604413472482
 34
0.0
 50
90.0
100
AcDbRotatedDimension
1001
ACAD
1000
DSTYLE
1002
{
1070
   140
1040
3.0
1070
    74
1070
     0
1070
   172
1070
     1
1070
    73
1070
     0
1070
   272
1070
     2
1070
    77
1070
     3
1070
   173
1070
     1
1070
   147
1040
1.0
1070
    42
1040
3.0
1070
    44
1040
1.5
1070
    43
1040
7.0
1070
   271
1070
     0
1070
   178
1070
     4
1070
   177
1070
     4
1070
   176
1070
     4
1070
   141
1040
150.0
1070
     7
1000
_OPEN
1070
     6
1000
_OPEN
1070
    41
1040
3.0
1002
}
  0
DIMENSION
  5
38D
330
1A
100
AcDbEntity
  8
SUNPOU
 62
     4
100
AcDbDimension
  2
*D5
 10
76.92069445089919
 20
166.7605111944892
 30
0.0
 11
109.4207444508991
 21
169.2605111944892
 31
0.0
 12
5.90779938129981
 22
-14.85365293524114
 32
0.0
 70
    32
  3
STANDARD
100
AcDbAlignedDimension
 13
141.9207944508992
 23
100.5760441347248
 33
0.0
 14
76.92069445089919
 24
100.5761441347248
 34
0.0
100
AcDbRotatedDimension
1001
ACAD
1000
DSTYLE
1002
{
1070
   140
1040
3.0
1070
    74
1070
     0
1070
   172
1070
     1
1070
    73
1070
     0
1070
   272
1070
     2
1070
    77
1070
     3
1070
   173
1070
     1
1070
   147
1040
1.0
1070
    42
1040
3.0
1070
    44
1040
1.5
1070
    43
1040
7.0
1070
   271
1070
     0
1070
   178
1070
     4
1070
   177
1070
     4
1070
   176
1070
     4
1070
   141
1040
150.0
1070
     7
1000
_OPEN
1070
     6
1000
_OPEN
1070
    41
1040
3.0
1002
}
  0
DIMENSION
  5
39A
330
1A
100
AcDbEntity
  8
SUNPOU
 62
     4
100
AcDbDimension
  2
*D6
 10
85.4206944508992
 20
156.5745497218891
 30
0.0
 11
109.4207444508991
 21
159.0745497218891
 31
0.0
 12
5.90779938129981
 22
-14.85365293524114
 32
0.0
 70
    32
  3
STANDARD
100
AcDbAlignedDimension
 13
133.4207944508992
 23
98.57604413472481
 33
0.0
 14
85.4206944508992
 24
98.57614413472482
 34
0.0
100
AcDbRotatedDimension
1001
ACAD
1000
DSTYLE
1002
{
1070
   140
1040
3.0
1070
    74
1070
     0
1070
   172
1070
     1
1070
    73
1070
     0
1070
   272
1070
     2
1070
    77
1070
     3
1070
   173
1070
     1
1070
   147
1040
1.0
1070
    42
1040
3.0
1070
    44
1040
1.5
1070
    43
1040
7.0
1070
   271
1070
     0
1070
   178
1070
     4
1070
   177
1070
     4
1070
   176
1070
     4
1070
   141
1040
150.0
1070
     7
1000
_OPEN
1070
     6
1000
_OPEN
1070
    41
1040
3.0
1002
}
  0
DIMENSION
  5
3A7
330
1A
100
AcDbEntity
  8
SUNPOU
 62
     4
100
AcDbDimension
  2
*D7
 10
322.1683506103711
 20
184.2347570868332
 30
0.0
 11
319.6683506103711
 21
216.7347570868332
 31
0.0
 12
5.90779938129981
 22
-14.85365293524114
 32
0.0
 70
    32
  3
STANDARD
100
AcDbAlignedDimension
 13
297.255399819822
 23
249.2347570868332
 33
0.0
 14
297.255599819822
 24
184.2347570868332
 34
0.0
 50
90.0
100
AcDbRotatedDimension
1001
ACAD
1000
DSTYLE
1002
{
1070
   140
1040
3.0
1070
    74
1070
     0
1070
   172
1070
     1
1070
    73
1070
     0
1070
   272
1070
     2
1070
    77
1070
     3
1070
   173
1070
     1
1070
   147
1040
1.0
1070
    42
1040
3.0
1070
    44
1040
1.5
1070
    43
1040
7.0
1070
   271
1070
     0
1070
   178
1070
     4
1070
   177
1070
     4
1070
   176
1070
     4
1070
   141
1040
150.0
1070
     7
1000
_OPEN
1070
     6
1000
_OPEN
1070
    41
1040
3.0
1002
}
  0
DIMENSION
  5
3BD
330
1A
100
AcDbEntity
  8
SUNPOU
 62
     4
100
AcDbDimension
  2
*D8
 10
297.255399819822
 20
48.46145240156693
 30
0.0
 11
285.255370819822
 21
50.96145240156693
 31
0.0
 12
8.761700633291184
 22
-1.167260137258722
 32
0.0
 70
    32
  3
STANDARD
100
AcDbAlignedDimension
 13
273.255341819822
 23
73.1461441347248
 33
0.0
 14
297.255399819822
 24
81.57604413472482
 34
0.0
100
AcDbRotatedDimension
1001
ACAD
1000
DSTYLE
1002
{
1070
   140
1040
3.0
1070
    74
1070
     0
1070
   172
1070
     1
1070
    73
1070
     0
1070
   272
1070
     2
1070
    77
1070
     3
1070
   173
1070
     1
1070
   147
1040
1.0
1070
    42
1040
3.0
1070
    44
1040
1.5
1070
    43
1040
7.0
1070
   271
1070
     0
1070
   178
1070
     4
1070
   177
1070
     4
1070
   176
1070
     4
1070
   141
1040
150.0
1070
     7
1000
_OPEN
1070
     6
1000
_OPEN
1070
    41
1040
3.0
1002
}
  0
DIMENSION
  5
3CA
330
1A
100
AcDbEntity
  8
SUNPOU
 62
     4
100
AcDbDimension
  2
*D9
 10
277.255499819822
 20
146.5241962022023
 30
0.0
 11
243.4054498198221
 21
149.0241962022023
 31
0.0
 12
8.761700633291184
 22
-1.167260137258722
 32
0.0
 70
    32
  3
STANDARD
100
AcDbAlignedDimension
 13
209.555399819822
 23
114.8261441347248
 33
0.0
 14
277.255499819822
 24
114.8628441347248
 34
0.0
100
AcDbRotatedDimension
1001
ACAD
1000
DSTYLE
1002
{
1070
   140
1040
3.0
1070
    74
1070
     0
1070
   172
1070
     1
1070
    73
1070
     0
1070
   272
1070
     2
1070
    77
1070
     3
1070
   173
1070
     1
1070
   147
1040
1.0
1070
    42
1040
3.0
1070
    44
1040
1.5
1070
    43
1040
7.0
1070
   271
1070
     0
1070
   178
1070
     4
1070
   177
1070
     4
1070
   176
1070
     4
1070
   141
1040
150.0
1070
     7
1000
_OPEN
1070
     6
1000
_OPEN
1070
    41
1040
3.0
1002
}
  0
LEADER
  5
3D9
330
1A
100
AcDbEntity
  8
SUNPOU
  6
CONTINUOUS
 62
     4
100
AcDbLeader
  3
STANDARD
 73
     0
 74
     0
 40
3.0
 41
15.59999999999999
 76
     3
 10
135.0927195971013
 20
94.84673934030986
 30
0.0
 10
150.4950152965475
 20
132.599770972125
 30
0.0
 10
151.7698923997438
 20
132.599770972125
 30
0.0
1001
ACAD
1000
DSTYLE
1002
{
1070
     6
1000
OPEN
1070
    41
1040
3.0
1070
    42
1040
3.0
1070
    43
1040
7.0
1070
    44
1040
1.5
1070
    73
1070
     0
1070
    74
1070
     0
1070
    77
1070
     3
1070
   140
1040
3.0
1070
   141
1040
150.0
1070
   147
1040
1.0
1070
   172
1070
     1
1070
   173
1070
     1
1070
   176
1070
     4
1070
   177
1070
     4
1070
   178
1070
     4
1070
   271
1070
     0
1070
   272
1070
     2
1070
   341
1005
B2
1070
   343
1005
B2
1070
   344
1005
B2
1002
}
  0
MTEXT
  5
3DA
330
1A
100
AcDbEntity
  8
SUNPOU
  6
CONTINUOUS
 62
     4
100
AcDbMText
 10
152.7698923997438
 20
133.599770972125
 30
0.0
 40
3.0
 41
0.0
 71
     7
 72
     5
  1
2-φ4.2
1001
ACAD
1000
MTEXTBEGIN
1070
    73
1070
     1
1070
    44
1040
1.0
1070
    74
1070
     0
1000
MTEXTEND
1000
MTEXTBEGIN
1070
    73
1070
     1
1070
    44
1040
1.0
1070
    74
1070
     0
1000
MTEXTEND
1000
MTEXTBEGIN
1070
    73
1070
     1
1070
    44
1040
1.0
1070
    74
1070
     0
1000
MTEXTEND
  0
LINE
  5
41E
330
1A
100
AcDbEntity
  8
CENTER_L
  6
CENTER
 62
     1
 48
5.0
100
AcDbLine
 10
242.9054185592066
 20
234.6993761259592
 30
0.0
 11
242.9052810805002
 21
196.869978548582
 31
0.0
  0
LINE
  5
41F
330
1A
100
AcDbEntity
  8
CENTER_L
  6
CENTER
 62
     1
 48
5.0
100
AcDbLine
 10
307.2554543231141
 20
241.2347570867909
 30
0.0
 11
285.2554167691402
 21
241.2346116290471
 31
0.0
  0
LINE
  5
420
330
1A
100
AcDbEntity
  8
CENTER_L
  6
CENTER
 62
     1
 48
5.0
100
AcDbLine
 10
307.25554531653
 20
192.2347570868754
 30
0.0
 11
285.2555828713567
 21
192.234623896579
 31
0.0
  0
LINE
  5
512
330
1A
100
AcDbEntity
  8
ZUWAKU
100
AcDbLine
 10
104.3233004349364
 20
7.600000103753696
 30
0.0
 11
223.7121817753981
 21
7.600000103753693
 31
0.0
  0
LINE
  5
513
330
1A
100
AcDbEntity
  8
ZUWAKU
100
AcDbLine
 10
104.3233004349364
 20
7.800000103753694
 30
0.0
 11
223.7121817753981
 21
7.800000103753697
 31
0.0
  0
LINE
  5
514
330
1A
100
AcDbEntity
  8
ZUWAKU
100
AcDbLine
 10
104.3233004349364
 20
7.700000103753694
 30
0.0
 11
223.7121817753981
 21
7.700000103753694
 31
0.0
  0
LINE
  5
515
330
1A
100
AcDbEntity
  8
ZUWAKU
100
AcDbLine
 10
-0.0000002100975962
 20
15.40000010375368
 30
0.0
 11
398.6999997899023
 21
15.40000010375368
 31
0.0
  0
LINE
  5
516
330
1A
100
AcDbEntity
  8
ZUWAKU
100
AcDbLine
 10
-0.0000002100975962
 20
15.30000010375368
 30
0.0
 11
398.6999997899023
 21
15.30000010375368
 31
0.0
  0
LINE
  5
517
330
1A
100
AcDbEntity
  8
ZUWAKU
100
AcDbLine
 10
-0.0000002100975962
 20
15.20000010375368
 30
0.0
 11
398.6999997899023
 21
15.20000010375368
 31
0.0
  0
LINE
  5
518
330
1A
100
AcDbEntity
  8
ZUWAKU
100
AcDbLine
 10
-0.0000002100975962
 20
15.10000010375367
 30
0.0
 11
398.6999997899023
 21
15.10000010375367
 31
0.0
  0
LINE
  5
519
330
1A
100
AcDbEntity
  8
ZUWAKU
100
AcDbLine
 10
-0.0000002100975962
 20
15.00000010375367
 30
0.0
 11
398.6999997899023
 21
15.00000010375367
 31
0.0
  0
LWPOLYLINE
  5
51A
330
1A
100
AcDbEntity
  8
ZUWAKU
100
AcDbPolyline
 90
        4
 70
     1
 43
0.0
 10
0.0999997899023697
 20
275.7000001037537
 10
0.0999997899023697
 20
0.1000001037537004
 10
398.6999997899023
 20
0.1000001037537119
 10
398.6999997899024
 20
275.7000001037537
  0
LWPOLYLINE
  5
51B
330
1A
100
AcDbEntity
  8
ZUWAKU
100
AcDbPolyline
 90
        4
 70
     1
 43
0.0
 10
0.2999997899023583
 20
275.5000001037537
 10
0.2999997899023583
 20
0.300000103753689
 10
398.4999997899025
 20
0.3000001037537121
 10
398.4999997899024
 20
275.5000001037537
  0
LWPOLYLINE
  5
51C
330
1A
100
AcDbEntity
  8
ZUWAKU
100
AcDbPolyline
 90
        4
 70
     1
 43
0.0
 10
-0.0000002100975962
 20
275.8000001037536
 10
-0.0000002100975962
 20
0.0000001037536776
 10
398.7999997899024
 20
0.0000001037537114
 10
398.7999997899024
 20
275.8000001037537
  0
LWPOLYLINE
  5
51D
330
1A
100
AcDbEntity
  8
ZUWAKU
100
AcDbPolyline
 90
        4
 70
     1
 43
0.0
 10
0.1999997899023924
 20
275.6000001037536
 10
0.1999997899023924
 20
0.2000001037537231
 10
398.5999997899024
 20
0.2000001037537116
 10
398.5999997899024
 20
275.6000001037536
  0
LWPOLYLINE
  5
51E
330
1A
100
AcDbEntity
  8
ZUWAKU
100
AcDbPolyline
 90
        4
 70
     1
 43
0.0
 10
0.399999789902381
 20
275.4000001037537
 10
0.399999789902381
 20
0.4000001037537118
 10
398.3999997899023
 20
0.4000001037537118
 10
398.3999997899023
 20
275.4000001037537
  0
TEXT
  5
51F
330
1A
100
AcDbEntity
  8
MOJI
100
AcDbText
 10
44.2713484321847
 20
6.370589168891058
 30
0.0
 40
3.0
  1
たてとい デンデン（ライナートップ）
 41
0.9
  7
ｽﾀｲﾙ1
100
AcDbText
  0
HATCH
  5
520
330
1A
100
AcDbEntity
  8
ZUWAKU
100
AcDbHatch
 10
0.0
 20
0.0
 30
0.0
210
0.0
220
0.0
230
1.0
  2
ANSI37
 70
     0
 71
     0
 91
        8
 92
        7
 72
     1
 73
     1
 93
       24
 10
7.251131120462332
 20
8.822424344245469
 42
-0.1989123673796348
 10
7.046105867292965
 20
9.317399091075994
 42
0.0
 10
7.046105867292965
 20
9.962500103753683
 42
-0.4142135623730912
 10
7.308605867292953
 20
10.22500010375367
 42
0.0
 10
8.796105867292908
 20
10.22500010375367
 42
0.4142135623731546
 10
9.058605867292953
 20
10.48750010375367
 42
0.0
 10
9.058605867292953
 20
11.36250010375368
 42
0.4142135623731586
 10
8.796105867292908
 20
11.62500010375368
 42
0.0
 10
7.046105867292965
 20
11.62500010375368
 42
0.4142135623730928
 10
5.646105867292988
 20
10.22500010375369
 42
0.0
 10
5.646105867292988
 20
9.317399091076058
 42
0.1989123673796619
 10
6.261181626801203
 20
7.832474850584254
 42
0.0
 10
7.716080614123541
 20
6.377575863261926
 42
-0.1989123673796613
 10
7.921105867292965
 20
5.882601116431333
 42
0.0
 10
7.921105867292965
 20
5.237500103753674
 42
-0.4142135623730911
 10
7.658605867292976
 20
4.975000103753679
 42
0.0
 10
6.171105867293022
 20
4.975000103753679
 42
0.4142135623731526
 10
5.908605867292976
 20
4.712500103753685
 42
0.0
 10
5.908605867292976
 20
3.837500103753674
 42
0.4142135623731526
 10
6.171105867293022
 20
3.57500010375368
 42
0.0
 10
7.921105867292965
 20
3.57500010375368
 42
0.4142135623731044
 10
9.321105867292999
 20
4.975000103753668
 42
0.0
 10
9.321105867292999
 20
5.882601116431304
 42
0.1989123673796604
 10
8.706030107784727
 20
7.367525356923074
 42
0.0
 97
        0
 92
        7
 72
     1
 73
     1
 93
       16
 10
11.77110586729298
 20
9.525000103753683
 42
-0.4142135623730935
 10
12.47110586729297
 20
10.22500010375367
 42
0.0
 10
13.43360586729295
 20
10.22500010375367
 42
0.4142135623731546
 10
13.696105867293
 20
10.48750010375367
 42
0.0
 10
13.696105867293
 20
11.36250010375368
 42
0.4142135623730951
 10
13.43360586729301
 20
11.62500010375368
 42
0.0
 10
12.47110586729291
 20
11.62500010375365
 42
0.4142135623730892
 10
10.37110586729295
 20
9.525000103753647
 42
0.0
 10
10.37110586729295
 20
5.675000103753692
 42
0.4142135623730969
 10
12.47110586729297
 20
3.57500010375368
 42
0.0
 10
13.43360586729295
 20
3.57500010375368
 42
0.4142135623731526
 10
13.696105867293
 20
3.837500103753674
 42
0.0
 10
13.696105867293
 20
4.712500103753685
 42
0.4142135623730891
 10
13.43360586729301
 20
4.975000103753679
 42
0.0
 10
12.47110586729297
 20
4.975000103753679
 42
-0.4142135623730928
 10
11.77110586729298
 20
5.675000103753673
 42
0.0
 97
        0
 92
        7
 72
     1
 73
     1
 93
        2
 10
12.12110586729295
 20
7.600000103753679
 42
1.0
 10
13.87110586729295
 20
7.600000103753679
 42
1.0
 97
        0
 92
        7
 72
     1
 73
     1
 93
       26
 10
18.65742910838196
 20
9.602523700535392
 42
0.0
 10
19.18824892495086
 20
11.28345311967018
 42
0.5069206636600134
 10
18.93793347535319
 20
11.62500010375368
 42
0.0
 10
18.08848878554857
 20
11.62500010375368
 42
0.3272098845218764
 10
17.8381733359509
 20
11.44154708783716
 42
0.0
 10
16.90403839863501
 20
8.483453119670219
 42
-0.3272098845219541
 10
16.65372294903727
 20
8.300000103753678
 42
0.0
 10
16.58360586729304
 20
8.300000103753678
 42
-0.4142135623731526
 10
16.32110586729299
 20
8.562500103753672
 42
0.0
 10
16.32110586729299
 20
11.36250010375368
 42
0.4142135623730951
 10
16.05860586729301
 20
11.62500010375368
 42
0.0
 10
15.18360586729295
 20
11.62500010375368
 42
0.4142135623730871
 10
14.92110586729296
 20
11.36250010375368
 42
0.0
 10
14.92110586729296
 20
3.837500103753674
 42
0.4142135623730891
 10
15.18360586729295
 20
3.57500010375368
 42
0.0
 10
16.05860586729295
 20
3.57500010375368
 42
0.4142135623731526
 10
16.32110586729299
 20
3.837500103753674
 42
0.0
 10
16.32110586729299
 20
6.637500103753685
 42
-0.4142135623731526
 10
16.58360586729304
 20
6.900000103753679
 42
0.0
 10
16.65372294903733
 20
6.900000103753679
 42
-0.3272098845218915
 10
16.90403839863501
 20
6.716547087837142
 42
0.0
 10
17.8381733359509
 20
3.758453119670216
 42
0.3272098845218902
 10
18.08848878554857
 20
3.57500010375368
 42
0.0
 10
18.93793347535319
 20
3.57500010375368
 42
0.5069206636600335
 10
19.18824892495086
 20
3.916547087837184
 42
0.0
 10
18.02505323571404
 20
7.600000103753748
 42
0.0
 97
        0
 92
        7
 72
     1
 73
     1
 93
        8
 10
21.74610586729295
 20
11.36250010375368
 42
0.4142135623731546
 10
21.4836058672929
 20
11.62500010375368
 42
0.0
 10
20.60860586729302
 20
11.62500010375368
 42
0.4142135623731507
 10
20.34610586729297
 20
11.36250010375368
 42
0.0
 10
20.34610586729297
 20
3.837500103753674
 42
0.4142135623731526
 10
20.60860586729302
 20
3.57500010375368
 42
0.0
 10
21.4836058672929
 20
3.57500010375368
 42
0.4142135623731526
 10
21.74610586729295
 20
3.837500103753674
 42
0.0
 97
        0
 92
        7
 72
     1
 73
     1
 93
       24
 10
24.196105867293
 20
9.962500103753683
 42
-0.4142135623731546
 10
24.45860586729304
 20
10.22500010375367
 42
0.0
 10
25.946105867293
 20
10.22500010375367
 42
0.4142135623730911
 10
26.20860586729298
 20
10.48750010375367
 42
0.0
 10
26.20860586729298
 20
11.36250010375368
 42
0.4142135623730952
 10
25.946105867293
 20
11.62500010375368
 42
0.0
 10
24.196105867293
 20
11.62500010375368
 42
0.4142135623731048
 10
22.79610586729296
 20
10.22500010375369
 42
0.0
 10
22.79610586729296
 20
9.317399091076058
 42
0.1989123673796613
 10
23.41118162680123
 20
7.832474850584283
 42
0.0
 10
24.86608061412357
 20
6.377575863261949
 42
-0.1989123673796402
 10
25.071105867293
 20
5.882601116431413
 42
0.0
 10
25.071105867293
 20
5.237500103753674
 42
-0.4142135623730911
 10
24.80860586729301
 20
4.975000103753679
 42
0.0
 10
23.32110586729299
 20
4.975000103753679
 42
0.4142135623731526
 10
23.05860586729295
 20
4.712500103753685
 42
0.0
 10
23.05860586729295
 20
3.837500103753674
 42
0.4142135623730891
 10
23.32110586729294
 20
3.57500010375368
 42
0.0
 10
25.071105867293
 20
3.57500010375368
 42
0.4142135623730925
 10
26.47110586729297
 20
4.975000103753668
 42
0.0
 10
26.47110586729297
 20
5.882601116431304
 42
0.1989123673796675
 10
25.8560301077847
 20
7.367525356923131
 42
0.0
 10
24.40113112046242
 20
8.822424344245389
 42
-0.1989123673796652
 10
24.196105867293
 20
9.317399091075973
 42
0.0
 97
        0
 92
        7
 72
     1
 73
     1
 93
       16
 10
28.92110586729296
 20
11.36250010375367
 42
0.414213562373103
 10
28.65860586729297
 20
11.62500010375368
 42
0.0
 10
27.78360586729297
 20
11.62500010375368
 42
0.4142135623730871
 10
27.52110586729298
 20
11.36250010375368
 42
0.0
 10
27.52110586729298
 20
4.975000103753668
 42
0.4142135623730926
 10
28.92110586729296
 20
3.57500010375368
 42
0.0
 10
30.67110586729296
 20
3.57500010375368
 42
0.4142135623731044
 10
32.07110586729299
 20
4.975000103753668
 42
0.0
 10
32.07110586729299
 20
11.36250010375368
 42
0.4142135623730951
 10
31.80860586729301
 20
11.62500010375368
 42
0.0
 10
30.93360586729295
 20
11.62500010375368
 42
0.4142135623730871
 10
30.67110586729296
 20
11.36250010375368
 42
0.0
 10
30.67110586729296
 20
5.500000103753666
 42
-0.414213562373088
 10
30.14610586729299
 20
4.975000103753679
 42
0.0
 10
29.446105867293
 20
4.975000103753679
 42
-0.4142135623731197
 10
28.92110586729296
 20
5.500000103753666
 42
0.0
 97
        0
 92
        7
 72
     1
 73
     1
 93
        8
 10
34.52110586729299
 20
11.36250010375368
 42
0.4142135623730871
 10
34.25860586729299
 20
11.62500010375368
 42
0.0
 10
33.383605867293
 20
11.62500010375368
 42
0.4142135623731507
 10
33.12110586729295
 20
11.36250010375368
 42
0.0
 10
33.12110586729295
 20
3.837500103753674
 42
0.4142135623730891
 10
33.38360586729294
 20
3.57500010375368
 42
0.0
 10
34.25860586729299
 20
3.57500010375368
 42
0.4142135623730891
 10
34.52110586729299
 20
3.837500103753674
 42
0.0
 97
        0
 75
     0
 76
     1
 52
0.0
 41
0.1
 77
     0
 78
     2
 53
45.0
 43
-450.471152377437
 44
-6.599999896246288
 45
-0.2245064030267288
 46
0.2245064030267288
 79
     0
 53
135.0
 43
-450.471152377437
 44
-6.599999896246288
 45
-0.2245064030267288
 46
-0.2245064030267288
 79
     0
 47
0.057451373970553
 98
        8
 10
8.039927271414057
 20
7.583586926696455
 10
11.20225729312198
 20
9.422031194979183
 10
12.58218373273223
 20
7.755940926789037
 10
15.45702978072097
 20
8.100648926974429
 10
20.91923579938077
 20
8.330455060745237
 10
23.44910023746717
 20
9.709288261957283
 10
28.27884277610257
 20
9.364579061301185
 10
33.91353959971377
 20
9.594385195071993
  0
LINE
  5
521
330
1A
100
AcDbEntity
  8
ZUWAKU
100
AcDbLine
 10
12.47110586729297
 20
11.62500010375365
 30
0.0
 11
13.43360586729295
 21
11.62500010375368
 31
0.0
  0
LINE
  5
522
330
1A
100
AcDbEntity
  8
ZUWAKU
100
AcDbLine
 10
13.43360586729295
 20
10.22500010375367
 30
0.0
 11
12.47110586729297
 21
10.22500010375367
 31
0.0
  0
LINE
  5
523
330
1A
100
AcDbEntity
  8
ZUWAKU
100
AcDbLine
 10
12.47110586729297
 20
4.975000103753679
 30
0.0
 11
13.43360586729295
 21
4.975000103753679
 31
0.0
  0
LINE
  5
524
330
1A
100
AcDbEntity
  8
ZUWAKU
100
AcDbLine
 10
13.43360586729295
 20
3.57500010375368
 30
0.0
 11
12.47110586729297
 21
3.57500010375368
 31
0.0
  0
CIRCLE
  5
525
330
1A
100
AcDbEntity
  8
ZUWAKU
100
AcDbCircle
 10
12.99610586729295
 20
7.600000103753679
 30
0.0
 40
0.875
  0
ARC
  5
526
330
1A
100
AcDbEntity
  8
ZUWAKU
100
AcDbCircle
 10
7.746105867292953
 20
9.31739909107603
 30
0.0
 40
0.7
100
AcDbArc
 50
180.0000000000016
 51
224.9999999999988
  0
LINE
  5
527
330
1A
100
AcDbEntity
  8
ZUWAKU
100
AcDbLine
 10
11.77110586729298
 20
9.525000103753679
 30
0.0
 11
11.77110586729298
 21
5.675000103753681
 31
0.0
  0
LINE
  5
528
330
1A
100
AcDbEntity
  8
ZUWAKU
100
AcDbLine
 10
10.37110586729295
 20
5.675000103753681
 30
0.0
 11
10.37110586729295
 21
9.525000103753658
 31
0.0
  0
ARC
  5
529
330
1A
100
AcDbEntity
  8
ZUWAKU
100
AcDbCircle
 10
7.746105867292953
 20
9.31739909107603
 30
0.0
 40
2.099999999999999
100
AcDbArc
 50
180.0
 51
225.0
  0
ARC
  5
52A
330
1A
100
AcDbEntity
  8
ZUWAKU
100
AcDbCircle
 10
7.921105867292965
 20
4.975000103753679
 30
0.0
 40
1.399999999999999
100
AcDbArc
 50
270.0
 51
0.0
  0
ARC
  5
52B
330
1A
100
AcDbEntity
  8
ZUWAKU
100
AcDbCircle
 10
12.47110586729297
 20
5.675000103753681
 30
0.0
 40
2.099999999999999
100
AcDbArc
 50
180.0
 51
270.0
  0
ARC
  5
52C
330
1A
100
AcDbEntity
  8
ZUWAKU
100
AcDbCircle
 10
7.221105867292976
 20
5.882601116431331
 30
0.0
 40
2.099999999999999
100
AcDbArc
 50
0.0
 51
45.0
  0
LINE
  5
52D
330
1A
100
AcDbEntity
  8
ZUWAKU
100
AcDbLine
 10
8.706030107784727
 20
7.367525356923092
 30
0.0
 11
7.251131120462389
 21
8.82242434424543
 31
0.0
  0
LINE
  5
52E
330
1A
100
AcDbEntity
  8
ZUWAKU
100
AcDbLine
 10
7.921105867292965
 20
5.237500103753681
 30
0.0
 11
7.921105867292965
 21
5.882601116431352
 31
0.0
  0
ARC
  5
52F
330
1A
100
AcDbEntity
  8
ZUWAKU
100
AcDbCircle
 10
7.658605867292976
 20
5.237500103753681
 30
0.0
 40
0.2625
100
AcDbArc
 50
270.0
 51
0.0
  0
ARC
  5
530
330
1A
100
AcDbEntity
  8
ZUWAKU
100
AcDbCircle
 10
7.221105867292976
 20
5.882601116431352
 30
0.0
 40
0.7
100
AcDbArc
 50
0.0
 51
45.0
  0
LINE
  5
531
330
1A
100
AcDbEntity
  8
ZUWAKU
100
AcDbLine
 10
5.908605867292976
 20
3.837500103753679
 30
0.0
 11
5.908605867292976
 21
4.712500103753679
 31
0.0
  0
ARC
  5
532
330
1A
100
AcDbEntity
  8
ZUWAKU
100
AcDbCircle
 10
6.171105867292965
 20
3.837500103753679
 30
0.0
 40
0.2625
100
AcDbArc
 50
180.0
 51
270.0
  0
ARC
  5
533
330
1A
100
AcDbEntity
  8
ZUWAKU
100
AcDbCircle
 10
6.171105867292965
 20
4.712500103753679
 30
0.0
 40
0.2625
100
AcDbArc
 50
90.0
 51
180.0
  0
LINE
  5
534
330
1A
100
AcDbEntity
  8
ZUWAKU
100
AcDbLine
 10
6.171105867292965
 20
3.57500010375368
 30
0.0
 11
7.921105867292965
 21
3.57500010375368
 31
0.0
  0
LINE
  5
535
330
1A
100
AcDbEntity
  8
ZUWAKU
100
AcDbLine
 10
6.171105867292965
 20
4.975000103753679
 30
0.0
 11
7.658605867292976
 21
4.975000103753679
 31
0.0
  0
LINE
  5
536
330
1A
100
AcDbEntity
  8
ZUWAKU
100
AcDbLine
 10
6.261181626801203
 20
7.832474850584269
 30
0.0
 11
7.716080614123541
 21
6.377575863261938
 31
0.0
  0
LINE
  5
537
330
1A
100
AcDbEntity
  8
ZUWAKU
100
AcDbLine
 10
9.321105867292999
 20
4.975000103753679
 30
0.0
 11
9.321105867292999
 21
5.882601116431352
 31
0.0
  0
ARC
  5
538
330
1A
100
AcDbEntity
  8
ZUWAKU
100
AcDbCircle
 10
12.47110586729297
 20
5.675000103753681
 30
0.0
 40
0.7
100
AcDbArc
 50
180.0
 51
270.0
  0
ARC
  5
539
330
1A
100
AcDbEntity
  8
ZUWAKU
100
AcDbCircle
 10
8.796105867292965
 20
11.36250010375367
 30
0.0
 40
0.2625
100
AcDbArc
 50
0.0
 51
90.0
  0
ARC
  5
53A
330
1A
100
AcDbEntity
  8
ZUWAKU
100
AcDbCircle
 10
8.796105867292965
 20
10.48750010375367
 30
0.0
 40
0.2625
100
AcDbArc
 50
270.0
 51
0.0
  0
LINE
  5
53B
330
1A
100
AcDbEntity
  8
ZUWAKU
100
AcDbLine
 10
7.046105867292965
 20
11.62500010375368
 30
0.0
 11
8.796105867292965
 21
11.62500010375368
 31
0.0
  0
ARC
  5
53C
330
1A
100
AcDbEntity
  8
ZUWAKU
100
AcDbCircle
 10
7.308605867292953
 20
9.962500103753679
 30
0.0
 40
0.2625
100
AcDbArc
 50
90.0
 51
180.0
  0
LINE
  5
53D
330
1A
100
AcDbEntity
  8
ZUWAKU
100
AcDbLine
 10
7.046105867292965
 20
9.962500103753679
 30
0.0
 11
7.046105867292965
 21
9.317399091076008
 31
0.0
  0
LINE
  5
53E
330
1A
100
AcDbEntity
  8
ZUWAKU
100
AcDbLine
 10
8.796105867292965
 20
10.22500010375367
 30
0.0
 11
7.308605867292953
 21
10.22500010375367
 31
0.0
  0
LINE
  5
53F
330
1A
100
AcDbEntity
  8
ZUWAKU
100
AcDbLine
 10
5.646105867292988
 20
10.22500010375367
 30
0.0
 11
5.646105867292988
 21
9.317399091076008
 31
0.0
  0
ARC
  5
540
330
1A
100
AcDbEntity
  8
ZUWAKU
100
AcDbCircle
 10
7.046105867292965
 20
10.22500010375367
 30
0.0
 40
1.399999999999999
100
AcDbArc
 50
90.0
 51
180.0
  0
LINE
  5
541
330
1A
100
AcDbEntity
  8
ZUWAKU
100
AcDbLine
 10
9.058605867292953
 20
11.36250010375367
 30
0.0
 11
9.058605867292953
 21
10.48750010375367
 31
0.0
  0
ARC
  5
542
330
1A
100
AcDbEntity
  8
ZUWAKU
100
AcDbCircle
 10
12.47110586729297
 20
9.525000103753679
 30
0.0
 40
0.7
100
AcDbArc
 50
90.0
 51
180.0
  0
ARC
  5
543
330
1A
100
AcDbEntity
  8
ZUWAKU
100
AcDbCircle
 10
12.47110586729297
 20
9.525000103753658
 30
0.0
 40
2.099999999999999
100
AcDbArc
 50
90.0
 51
180.0
  0
LINE
  5
544
330
1A
100
AcDbEntity
  8
ZUWAKU
100
AcDbLine
 10
39.6633145638965
 20
15.00000010375367
 30
0.0
 11
39.66331456389662
 21
0.4000001037537118
 31
0.0
  0
LINE
  5
545
330
1A
100
AcDbEntity
  8
ZUWAKU
100
AcDbLine
 10
39.76331456389653
 20
15.00000010375367
 30
0.0
 11
39.76331456389664
 21
0.4000001037537118
 31
0.0
  0
LINE
  5
546
330
1A
100
AcDbEntity
  8
ZUWAKU
100
AcDbLine
 10
39.56331456389659
 20
15.00000010375367
 30
0.0
 11
39.56331456389659
 21
0.4000001037537118
 31
0.0
  0
LINE
  5
547
330
1A
100
AcDbEntity
  8
ZUWAKU
100
AcDbLine
 10
32.07110586729299
 20
4.975000103753679
 30
0.0
 11
32.07110586729299
 21
11.36250010375367
 31
0.0
  0
LINE
  5
548
330
1A
100
AcDbEntity
  8
ZUWAKU
100
AcDbLine
 10
30.67110586729296
 20
11.36250010375367
 30
0.0
 11
30.67110586729296
 21
5.500000103753677
 31
0.0
  0
LINE
  5
549
330
1A
100
AcDbEntity
  8
ZUWAKU
100
AcDbLine
 10
34.52110586729299
 20
3.837500103753679
 30
0.0
 11
34.52110586729299
 21
11.36250010375367
 31
0.0
  0
LINE
  5
54A
330
1A
100
AcDbEntity
  8
ZUWAKU
100
AcDbLine
 10
33.12110586729295
 20
11.36250010375367
 30
0.0
 11
33.12110586729295
 21
3.837500103753679
 31
0.0
  0
ARC
  5
54B
330
1A
100
AcDbEntity
  8
ZUWAKU
100
AcDbCircle
 10
24.89610586729298
 20
9.31739909107603
 30
0.0
 40
0.7
100
AcDbArc
 50
180.0000000000016
 51
224.9999999999988
  0
ARC
  5
54C
330
1A
100
AcDbEntity
  8
ZUWAKU
100
AcDbCircle
 10
24.89610586729298
 20
9.31739909107603
 30
0.0
 40
2.099999999999999
100
AcDbArc
 50
180.0
 51
225.0
  0
LINE
  5
54D
330
1A
100
AcDbEntity
  8
ZUWAKU
100
AcDbLine
 10
18.65742910838196
 20
9.602523700535392
 30
0.0
 11
18.02505323571404
 21
7.600000103753689
 31
0.0
  0
LINE
  5
54E
330
1A
100
AcDbEntity
  8
ZUWAKU
100
AcDbLine
 10
20.34610586729297
 20
11.36250010375367
 30
0.0
 11
20.34610586729297
 21
3.837500103753679
 31
0.0
  0
LINE
  5
54F
330
1A
100
AcDbEntity
  8
ZUWAKU
100
AcDbLine
 10
21.74610586729295
 20
3.837500103753679
 30
0.0
 11
21.74610586729295
 21
11.36250010375367
 31
0.0
  0
LINE
  5
550
330
1A
100
AcDbEntity
  8
ZUWAKU
100
AcDbLine
 10
27.52110586729298
 20
11.36250010375367
 30
0.0
 11
27.52110586729298
 21
4.975000103753679
 31
0.0
  0
LINE
  5
551
330
1A
100
AcDbEntity
  8
ZUWAKU
100
AcDbLine
 10
28.92110586729296
 20
5.500000103753677
 30
0.0
 11
28.92110586729296
 21
11.36250010375367
 31
0.0
  0
LINE
  5
552
330
1A
100
AcDbEntity
  8
ZUWAKU
100
AcDbLine
 10
16.32110586729299
 20
8.562500103753681
 30
0.0
 11
16.32110586729299
 21
11.36250010375367
 31
0.0
  0
LINE
  5
553
330
1A
100
AcDbEntity
  8
ZUWAKU
100
AcDbLine
 10
14.92110586729296
 20
11.36250010375367
 30
0.0
 11
14.92110586729296
 21
3.837500103753679
 31
0.0
  0
LINE
  5
554
330
1A
100
AcDbEntity
  8
ZUWAKU
100
AcDbLine
 10
17.8381733359509
 20
11.44154708783716
 30
0.0
 11
16.90403839863501
 21
8.483453119670194
 31
0.0
  0
LINE
  5
555
330
1A
100
AcDbEntity
  8
ZUWAKU
100
AcDbLine
 10
30.14610586729299
 20
4.975000103753679
 30
0.0
 11
29.446105867293
 21
4.975000103753679
 31
0.0
  0
LINE
  5
556
330
1A
100
AcDbEntity
  8
ZUWAKU
100
AcDbLine
 10
28.92110586729296
 20
3.57500010375368
 30
0.0
 11
30.67110586729296
 21
3.57500010375368
 31
0.0
  0
LINE
  5
557
330
1A
100
AcDbEntity
  8
ZUWAKU
100
AcDbLine
 10
20.60860586729296
 20
3.57500010375368
 30
0.0
 11
21.48360586729296
 21
3.57500010375368
 31
0.0
  0
LINE
  5
558
330
1A
100
AcDbEntity
  8
ZUWAKU
100
AcDbLine
 10
17.8381733359509
 20
3.758453119670193
 30
0.0
 11
16.90403839863501
 21
6.716547087837163
 31
0.0
  0
ARC
  5
559
330
1A
100
AcDbEntity
  8
ZUWAKU
100
AcDbCircle
 10
16.65372294903733
 20
8.562500103753681
 30
0.0
 40
0.2625
100
AcDbArc
 50
270.0
 51
342.4744316262769
  0
LINE
  5
55A
330
1A
100
AcDbEntity
  8
ZUWAKU
100
AcDbLine
 10
16.65372294903733
 20
8.300000103753678
 30
0.0
 11
16.58360586729298
 21
8.300000103753678
 31
0.0
  0
LINE
  5
55B
330
1A
100
AcDbEntity
  8
ZUWAKU
100
AcDbLine
 10
16.58360586729298
 20
6.900000103753679
 30
0.0
 11
16.65372294903733
 21
6.900000103753679
 31
0.0
  0
ARC
  5
55C
330
1A
100
AcDbEntity
  8
ZUWAKU
100
AcDbCircle
 10
16.58360586729298
 20
8.562500103753681
 30
0.0
 40
0.2625
100
AcDbArc
 50
180.0
 51
270.0
  0
LINE
  5
55D
330
1A
100
AcDbEntity
  8
ZUWAKU
100
AcDbLine
 10
15.18360586729295
 20
3.57500010375368
 30
0.0
 11
16.05860586729295
 21
3.57500010375368
 31
0.0
  0
ARC
  5
55E
330
1A
100
AcDbEntity
  8
ZUWAKU
100
AcDbCircle
 10
16.05860586729295
 20
3.837500103753679
 30
0.0
 40
0.2625
100
AcDbArc
 50
270.0
 51
0.0
  0
LINE
  5
55F
330
1A
100
AcDbEntity
  8
ZUWAKU
100
AcDbLine
 10
16.32110586729299
 20
3.837500103753679
 30
0.0
 11
16.32110586729299
 21
6.63750010375368
 31
0.0
  0
LINE
  5
560
330
1A
100
AcDbEntity
  8
ZUWAKU
100
AcDbLine
 10
13.696105867293
 20
4.712500103753679
 30
0.0
 11
13.696105867293
 21
3.837500103753679
 31
0.0
  0
ARC
  5
561
330
1A
100
AcDbEntity
  8
ZUWAKU
100
AcDbCircle
 10
13.43360586729295
 20
3.837500103753679
 30
0.0
 40
0.2625
100
AcDbArc
 50
270.0
 51
0.0
  0
ARC
  5
562
330
1A
100
AcDbEntity
  8
ZUWAKU
100
AcDbCircle
 10
13.43360586729295
 20
4.712500103753679
 30
0.0
 40
0.2625
100
AcDbArc
 50
0.0
 51
90.0
  0
ARC
  5
563
330
1A
100
AcDbEntity
  8
ZUWAKU
100
AcDbCircle
 10
15.18360586729295
 20
3.837500103753679
 30
0.0
 40
0.2625
100
AcDbArc
 50
180.0
 51
270.0
  0
ARC
  5
564
330
1A
100
AcDbEntity
  8
ZUWAKU
100
AcDbCircle
 10
16.65372294903733
 20
6.63750010375368
 30
0.0
 40
0.2625
100
AcDbArc
 50
17.52556837372303
 51
90.0
  0
ARC
  5
565
330
1A
100
AcDbEntity
  8
ZUWAKU
100
AcDbCircle
 10
16.58360586729298
 20
6.63750010375368
 30
0.0
 40
0.2625
100
AcDbArc
 50
90.0
 51
180.0
  0
ARC
  5
566
330
1A
100
AcDbEntity
  8
ZUWAKU
100
AcDbCircle
 10
20.60860586729296
 20
3.837500103753679
 30
0.0
 40
0.2625
100
AcDbArc
 50
180.0
 51
270.0
  0
LINE
  5
567
330
1A
100
AcDbEntity
  8
ZUWAKU
100
AcDbLine
 10
18.08848878554863
 20
3.57500010375368
 30
0.0
 11
18.93793347535313
 21
3.57500010375368
 31
0.0
  0
ARC
  5
568
330
1A
100
AcDbEntity
  8
ZUWAKU
100
AcDbCircle
 10
18.93793347535313
 20
3.837500103753679
 30
0.0
 40
0.2625
100
AcDbArc
 50
270.0
 51
17.52556837372303
  0
LINE
  5
569
330
1A
100
AcDbEntity
  8
ZUWAKU
100
AcDbLine
 10
19.18824892495086
 20
3.916547087837166
 30
0.0
 11
18.02505323571404
 21
7.600000103753689
 31
0.0
  0
ARC
  5
56A
330
1A
100
AcDbEntity
  8
ZUWAKU
100
AcDbCircle
 10
18.08848878554863
 20
3.837500103753679
 30
0.0
 40
0.2625
100
AcDbArc
 50
197.525568373723
 51
270.0
  0
ARC
  5
56B
330
1A
100
AcDbEntity
  8
ZUWAKU
100
AcDbCircle
 10
28.92110586729296
 20
4.975000103753679
 30
0.0
 40
1.399999999999999
100
AcDbArc
 50
180.0
 51
270.0
  0
ARC
  5
56C
330
1A
100
AcDbEntity
  8
ZUWAKU
100
AcDbCircle
 10
25.071105867293
 20
4.975000103753679
 30
0.0
 40
1.399999999999999
100
AcDbArc
 50
270.0
 51
0.0
  0
LINE
  5
56D
330
1A
100
AcDbEntity
  8
ZUWAKU
100
AcDbLine
 10
25.85603010778476
 20
7.367525356923092
 30
0.0
 11
24.40113112046236
 21
8.82242434424543
 31
0.0
  0
LINE
  5
56E
330
1A
100
AcDbEntity
  8
ZUWAKU
100
AcDbLine
 10
25.071105867293
 20
5.237500103753681
 30
0.0
 11
25.071105867293
 21
5.882601116431352
 31
0.0
  0
ARC
  5
56F
330
1A
100
AcDbEntity
  8
ZUWAKU
100
AcDbCircle
 10
24.37110586729295
 20
5.882601116431352
 30
0.0
 40
0.7
100
AcDbArc
 50
0.0
 51
45.0
  0
ARC
  5
570
330
1A
100
AcDbEntity
  8
ZUWAKU
100
AcDbCircle
 10
24.80860586729295
 20
5.237500103753681
 30
0.0
 40
0.2625
100
AcDbArc
 50
270.0
 51
0.0
  0
LINE
  5
571
330
1A
100
AcDbEntity
  8
ZUWAKU
100
AcDbLine
 10
23.05860586729295
 20
3.837500103753679
 30
0.0
 11
23.05860586729295
 21
4.712500103753679
 31
0.0
  0
ARC
  5
572
330
1A
100
AcDbEntity
  8
ZUWAKU
100
AcDbCircle
 10
23.32110586729299
 20
3.837500103753679
 30
0.0
 40
0.2625
100
AcDbArc
 50
180.0
 51
270.0
  0
ARC
  5
573
330
1A
100
AcDbEntity
  8
ZUWAKU
100
AcDbCircle
 10
21.48360586729296
 20
3.837500103753679
 30
0.0
 40
0.2625
100
AcDbArc
 50
270.0
 51
0.0
  0
ARC
  5
574
330
1A
100
AcDbEntity
  8
ZUWAKU
100
AcDbCircle
 10
23.32110586729299
 20
4.712500103753679
 30
0.0
 40
0.2625
100
AcDbArc
 50
90.0
 51
180.0
  0
LINE
  5
575
330
1A
100
AcDbEntity
  8
ZUWAKU
100
AcDbLine
 10
23.32110586729299
 20
4.975000103753679
 30
0.0
 11
24.80860586729295
 21
4.975000103753679
 31
0.0
  0
LINE
  5
576
330
1A
100
AcDbEntity
  8
ZUWAKU
100
AcDbLine
 10
23.32110586729299
 20
3.57500010375368
 30
0.0
 11
25.071105867293
 21
3.57500010375368
 31
0.0
  0
LINE
  5
577
330
1A
100
AcDbEntity
  8
ZUWAKU
100
AcDbLine
 10
23.41118162680123
 20
7.832474850584269
 30
0.0
 11
24.86608061412357
 21
6.377575863261938
 31
0.0
  0
LINE
  5
578
330
1A
100
AcDbEntity
  8
ZUWAKU
100
AcDbLine
 10
26.47110586729297
 20
4.975000103753679
 30
0.0
 11
26.47110586729297
 21
5.882601116431352
 31
0.0
  0
ARC
  5
579
330
1A
100
AcDbEntity
  8
ZUWAKU
100
AcDbCircle
 10
24.37110586729295
 20
5.882601116431331
 30
0.0
 40
2.099999999999999
100
AcDbArc
 50
0.0
 51
45.0
  0
ARC
  5
57A
330
1A
100
AcDbEntity
  8
ZUWAKU
100
AcDbCircle
 10
29.446105867293
 20
5.500000103753677
 30
0.0
 40
0.525
100
AcDbArc
 50
180.0
 51
270.0
  0
ARC
  5
57B
330
1A
100
AcDbEntity
  8
ZUWAKU
100
AcDbCircle
 10
30.67110586729296
 20
4.975000103753679
 30
0.0
 40
1.399999999999999
100
AcDbArc
 50
270.0
 51
0.0
  0
LINE
  5
57C
330
1A
100
AcDbEntity
  8
ZUWAKU
100
AcDbLine
 10
33.383605867293
 20
3.57500010375368
 30
0.0
 11
34.25860586729299
 21
3.57500010375368
 31
0.0
  0
ARC
  5
57D
330
1A
100
AcDbEntity
  8
ZUWAKU
100
AcDbCircle
 10
33.383605867293
 20
3.837500103753679
 30
0.0
 40
0.2625
100
AcDbArc
 50
180.0
 51
270.0
  0
ARC
  5
57E
330
1A
100
AcDbEntity
  8
ZUWAKU
100
AcDbCircle
 10
30.14610586729299
 20
5.500000103753677
 30
0.0
 40
0.525
100
AcDbArc
 50
270.0
 51
0.0
  0
ARC
  5
57F
330
1A
100
AcDbEntity
  8
ZUWAKU
100
AcDbCircle
 10
34.25860586729299
 20
3.837500103753679
 30
0.0
 40
0.2625
100
AcDbArc
 50
270.0
 51
0.0
  0
LINE
  5
580
330
1A
100
AcDbEntity
  8
ZUWAKU
100
AcDbLine
 10
21.48360586729296
 20
11.62500010375368
 30
0.0
 11
20.60860586729296
 21
11.62500010375368
 31
0.0
  0
ARC
  5
581
330
1A
100
AcDbEntity
  8
ZUWAKU
100
AcDbCircle
 10
16.05860586729295
 20
11.36250010375367
 30
0.0
 40
0.2625
100
AcDbArc
 50
0.0
 51
90.0
  0
LINE
  5
582
330
1A
100
AcDbEntity
  8
ZUWAKU
100
AcDbLine
 10
16.05860586729295
 20
11.62500010375368
 30
0.0
 11
15.18360586729295
 21
11.62500010375368
 31
0.0
  0
ARC
  5
583
330
1A
100
AcDbEntity
  8
ZUWAKU
100
AcDbCircle
 10
13.43360586729295
 20
11.36250010375367
 30
0.0
 40
0.2625
100
AcDbArc
 50
0.0
 51
90.0
  0
ARC
  5
584
330
1A
100
AcDbEntity
  8
ZUWAKU
100
AcDbCircle
 10
15.18360586729295
 20
11.36250010375367
 30
0.0
 40
0.2625
100
AcDbArc
 50
90.0
 51
180.0
  0
ARC
  5
585
330
1A
100
AcDbEntity
  8
ZUWAKU
100
AcDbCircle
 10
13.43360586729295
 20
10.48750010375367
 30
0.0
 40
0.2625
100
AcDbArc
 50
270.0
 51
0.0
  0
LINE
  5
586
330
1A
100
AcDbEntity
  8
ZUWAKU
100
AcDbLine
 10
13.696105867293
 20
11.36250010375367
 30
0.0
 11
13.696105867293
 21
10.48750010375367
 31
0.0
  0
ARC
  5
587
330
1A
100
AcDbEntity
  8
ZUWAKU
100
AcDbCircle
 10
20.60860586729296
 20
11.36250010375367
 30
0.0
 40
0.2625
100
AcDbArc
 50
90.0
 51
180.0
  0
LINE
  5
588
330
1A
100
AcDbEntity
  8
ZUWAKU
100
AcDbLine
 10
18.08848878554863
 20
11.62500010375368
 30
0.0
 11
18.93793347535313
 21
11.62500010375368
 31
0.0
  0
ARC
  5
589
330
1A
100
AcDbEntity
  8
ZUWAKU
100
AcDbCircle
 10
18.93793347535313
 20
11.36250010375367
 30
0.0
 40
0.2625
100
AcDbArc
 50
342.4744316262769
 51
90.0
  0
LINE
  5
58A
330
1A
100
AcDbEntity
  8
ZUWAKU
100
AcDbLine
 10
19.18824892495086
 20
11.28345311967019
 30
0.0
 11
18.65742910838196
 21
9.602523700535392
 31
0.0
  0
ARC
  5
58B
330
1A
100
AcDbEntity
  8
ZUWAKU
100
AcDbCircle
 10
18.08848878554863
 20
11.36250010375367
 30
0.0
 40
0.2625
100
AcDbArc
 50
90.0
 51
162.4744316262769
  0
LINE
  5
58C
330
1A
100
AcDbEntity
  8
ZUWAKU
100
AcDbLine
 10
24.196105867293
 20
11.62500010375368
 30
0.0
 11
25.946105867293
 21
11.62500010375368
 31
0.0
  0
LINE
  5
58D
330
1A
100
AcDbEntity
  8
ZUWAKU
100
AcDbLine
 10
25.946105867293
 20
10.22500010375367
 30
0.0
 11
24.45860586729299
 21
10.22500010375367
 31
0.0
  0
ARC
  5
58E
330
1A
100
AcDbEntity
  8
ZUWAKU
100
AcDbCircle
 10
24.45860586729299
 20
9.962500103753679
 30
0.0
 40
0.2625
100
AcDbArc
 50
90.0
 51
180.0
  0
LINE
  5
58F
330
1A
100
AcDbEntity
  8
ZUWAKU
100
AcDbLine
 10
24.196105867293
 20
9.962500103753679
 30
0.0
 11
24.196105867293
 21
9.317399091076008
 31
0.0
  0
ARC
  5
590
330
1A
100
AcDbEntity
  8
ZUWAKU
100
AcDbCircle
 10
21.48360586729296
 20
11.36250010375367
 30
0.0
 40
0.2625
100
AcDbArc
 50
0.0
 51
90.0
  0
LINE
  5
591
330
1A
100
AcDbEntity
  8
ZUWAKU
100
AcDbLine
 10
22.79610586729296
 20
10.22500010375367
 30
0.0
 11
22.79610586729296
 21
9.317399091076008
 31
0.0
  0
ARC
  5
592
330
1A
100
AcDbEntity
  8
ZUWAKU
100
AcDbCircle
 10
24.196105867293
 20
10.22500010375367
 30
0.0
 40
1.399999999999999
100
AcDbArc
 50
90.0
 51
180.0
  0
ARC
  5
593
330
1A
100
AcDbEntity
  8
ZUWAKU
100
AcDbCircle
 10
28.65860586729297
 20
11.36250010375367
 30
0.0
 40
0.2625
100
AcDbArc
 50
0.0
 51
90.0
  0
ARC
  5
594
330
1A
100
AcDbEntity
  8
ZUWAKU
100
AcDbCircle
 10
27.78360586729297
 20
11.36250010375367
 30
0.0
 40
0.2625
100
AcDbArc
 50
90.0
 51
180.0
  0
LINE
  5
595
330
1A
100
AcDbEntity
  8
ZUWAKU
100
AcDbLine
 10
28.65860586729297
 20
11.62500010375368
 30
0.0
 11
27.78360586729297
 21
11.62500010375368
 31
0.0
  0
ARC
  5
596
330
1A
100
AcDbEntity
  8
ZUWAKU
100
AcDbCircle
 10
25.946105867293
 20
11.36250010375367
 30
0.0
 40
0.2625
100
AcDbArc
 50
0.0
 51
90.0
  0
ARC
  5
597
330
1A
100
AcDbEntity
  8
ZUWAKU
100
AcDbCircle
 10
25.946105867293
 20
10.48750010375367
 30
0.0
 40
0.2625
100
AcDbArc
 50
270.0
 51
0.0
  0
LINE
  5
598
330
1A
100
AcDbEntity
  8
ZUWAKU
100
AcDbLine
 10
26.20860586729298
 20
11.36250010375367
 30
0.0
 11
26.20860586729298
 21
10.48750010375367
 31
0.0
  0
LINE
  5
599
330
1A
100
AcDbEntity
  8
ZUWAKU
100
AcDbLine
 10
34.25860586729299
 20
11.62500010375368
 30
0.0
 11
33.383605867293
 21
11.62500010375368
 31
0.0
  0
ARC
  5
59A
330
1A
100
AcDbEntity
  8
ZUWAKU
100
AcDbCircle
 10
33.383605867293
 20
11.36250010375367
 30
0.0
 40
0.2625
100
AcDbArc
 50
90.0
 51
180.0
  0
ARC
  5
59B
330
1A
100
AcDbEntity
  8
ZUWAKU
100
AcDbCircle
 10
31.80860586729295
 20
11.36250010375367
 30
0.0
 40
0.2625
100
AcDbArc
 50
0.0
 51
90.0
  0
LINE
  5
59C
330
1A
100
AcDbEntity
  8
ZUWAKU
100
AcDbLine
 10
31.80860586729295
 20
11.62500010375368
 30
0.0
 11
30.93360586729295
 21
11.62500010375368
 31
0.0
  0
ARC
  5
59D
330
1A
100
AcDbEntity
  8
ZUWAKU
100
AcDbCircle
 10
30.93360586729295
 20
11.36250010375367
 30
0.0
 40
0.2625
100
AcDbArc
 50
90.0
 51
180.0
  0
ARC
  5
59E
330
1A
100
AcDbEntity
  8
ZUWAKU
100
AcDbCircle
 10
34.25860586729299
 20
11.36250010375367
 30
0.0
 40
0.2625
100
AcDbArc
 50
0.0
 51
90.0
  0
TEXT
  5
59F
330
1A
100
AcDbEntity
  8
MOJI
100
AcDbText
 10
119.9136011303279
 20
9.002460632457371
 30
0.0
 40
2.799999999999999
  1
ブラケットデンデン
 41
0.9
  7
ｽﾀｲﾙ1
100
AcDbText
  0
LINE
  5
5A0
330
1A
100
AcDbEntity
  8
ZUWAKU
100
AcDbLine
 10
104.1233004349363
 20
15.00000010375367
 30
0.0
 11
104.1233004349363
 21
0.4000001037537118
 31
0.0
  0
LINE
  5
5A1
330
1A
100
AcDbEntity
  8
ZUWAKU
100
AcDbLine
 10
104.3233004349362
 20
15.00000010375367
 30
0.0
 11
104.3233004349364
 21
0.4000001037537118
 31
0.0
  0
LINE
  5
5A2
330
1A
100
AcDbEntity
  8
ZUWAKU
100
AcDbLine
 10
104.2233004349362
 20
15.00000010375367
 30
0.0
 11
104.2233004349363
 21
0.4000001037537118
 31
0.0
  0
TEXT
  5
5A3
330
1A
100
AcDbEntity
  8
ZUWAKU
100
AcDbText
 10
104.8620229460411
 20
4.827678372946486
 30
0.0
 40
2.0
  1
サイズ
 41
0.9
  7
ｽﾀｲﾙ1
100
AcDbText
  0
TEXT
  5
5A4
330
1A
100
AcDbEntity
  8
MOJI
100
AcDbText
 10
119.9136011303279
 20
1.602460632457388
 30
0.0
 40
2.799999999999999
  1
Ｙ６０－Ｌ２４（中）
 41
0.9
  7
ｽﾀｲﾙ1
100
AcDbText
  0
TEXT
  5
5A5
330
1A
100
AcDbEntity
  8
ZUWAKU
100
AcDbText
 10
104.862022946041
 20
12.02767837294646
 30
0.0
 40
2.0
  1
品名
 41
0.9
  7
ｽﾀｲﾙ1
100
AcDbText
  0
LINE
  5
5A6
330
1A
100
AcDbEntity
  8
ZUWAKU
100
AcDbLine
 10
324.4086010450045
 20
7.600000103753693
 30
0.0
 11
348.624505064173
 21
7.600000103753695
 31
0.0
  0
LINE
  5
5A7
330
1A
100
AcDbEntity
  8
ZUWAKU
100
AcDbLine
 10
324.4086010450046
 20
7.700000103753696
 30
0.0
 11
348.624505064173
 21
7.700000103753694
 31
0.0
  0
LINE
  5
5A8
330
1A
100
AcDbEntity
  8
ZUWAKU
100
AcDbLine
 10
324.4086010450045
 20
7.800000103753694
 30
0.0
 11
348.624505064173
 21
7.800000103753694
 31
0.0
  0
TEXT
  5
5A9
330
1A
100
AcDbEntity
  8
ZUWAKU
100
AcDbText
 10
329.1019686335536
 20
9.002460632457371
 30
0.0
 40
2.799999999999999
  1
　　．　　．　　
 41
0.9
  7
ｽﾀｲﾙ1
100
AcDbText
  0
LINE
  5
5AA
330
1A
100
AcDbEntity
  8
ZUWAKU
100
AcDbLine
 10
252.5995895389728
 20
7.600000103753696
 30
0.0
 11
276.2634776729586
 21
7.600000103753696
 31
0.0
  0
LINE
  5
5AB
330
1A
100
AcDbEntity
  8
ZUWAKU
100
AcDbLine
 10
252.5995895389728
 20
7.700000103753694
 30
0.0
 11
276.2634776729586
 21
7.700000103753694
 31
0.0
  0
LINE
  5
5AC
330
1A
100
AcDbEntity
  8
ZUWAKU
100
AcDbLine
 10
252.5995895389728
 20
7.800000103753694
 30
0.0
 11
276.2634776729586
 21
7.800000103753694
 31
0.0
  0
TEXT
  5
5AD
330
1A
100
AcDbEntity
  8
MOJI
100
AcDbText
 10
231.7841524711826
 20
5.97130896458367
 30
0.0
 40
2.799999999999999
  1
ＧＫ７０□
 41
0.9
  7
ｽﾀｲﾙ1
100
AcDbText
  0
LINE
  5
5AE
330
1A
100
AcDbEntity
  8
ZUWAKU
100
AcDbLine
 10
223.812181775398
 20
15.00000010375367
 30
0.0
 11
223.8121817753981
 21
0.4000001037537118
 31
0.0
  0
LINE
  5
5AF
330
1A
100
AcDbEntity
  8
ZUWAKU
100
AcDbLine
 10
223.912181775398
 20
15.00000010375367
 30
0.0
 11
223.9121817753981
 21
0.4000001037537118
 31
0.0
  0
LINE
  5
5B0
330
1A
100
AcDbEntity
  8
ZUWAKU
100
AcDbLine
 10
223.7121817753981
 20
15.00000010375367
 30
0.0
 11
223.7121817753981
 21
0.4000001037537118
 31
0.0
  0
TEXT
  5
5B1
330
1A
100
AcDbEntity
  8
MOJI
100
AcDbText
 10
264.0204537760588
 20
9.002460632457371
 30
0.0
 40
2.799999999999999
  1
Ａ３
 41
0.9
  7
ｽﾀｲﾙ1
100
AcDbText
  0
LINE
  5
5B2
330
1A
100
AcDbEntity
  8
ZUWAKU
100
AcDbLine
 10
252.4995895389728
 20
15.00000010375367
 30
0.0
 11
252.4995895389729
 21
0.4000001037537118
 31
0.0
  0
LINE
  5
5B3
330
1A
100
AcDbEntity
  8
ZUWAKU
100
AcDbLine
 10
252.5995895389728
 20
15.00000010375367
 30
0.0
 11
252.5995895389729
 21
0.4000001037537118
 31
0.0
  0
LINE
  5
5B4
330
1A
100
AcDbEntity
  8
ZUWAKU
100
AcDbLine
 10
252.3995895389729
 20
15.00000010375367
 30
0.0
 11
252.3995895389729
 21
0.4000001037537118
 31
0.0
  0
TEXT
  5
5B5
330
1A
100
AcDbEntity
  8
ZUWAKU
100
AcDbText
 10
231.346880617656
 20
1.307035559323423
 30
0.0
 40
1.5
  1
□には色品番が入ります
 41
0.9
  7
ｽﾀｲﾙ1
100
AcDbText
  0
TEXT
  5
5B6
330
1A
100
AcDbEntity
  8
ZUWAKU
100
AcDbText
 10
253.3383120500777
 20
4.827678372946486
 30
0.0
 40
2.0
  1
縮尺
 41
0.9
  7
ｽﾀｲﾙ1
100
AcDbText
  0
TEXT
  5
5B7
330
1A
100
AcDbEntity
  8
MOJI
100
AcDbText
 10
264.0204537760588
 20
1.602460632457388
 30
0.0
 40
2.799999999999999
  1
１/１
 41
0.9
  7
ｽﾀｲﾙ1
100
AcDbText
  0
TEXT
  5
5B8
330
1A
100
AcDbEntity
  8
ZUWAKU
100
AcDbText
 10
224.6509042865028
 20
12.02767837294646
 30
0.0
 40
2.0
  1
品番
 41
0.9
  7
ｽﾀｲﾙ1
100
AcDbText
  0
TEXT
  5
5B9
330
1A
100
AcDbEntity
  8
ZUWAKU
100
AcDbText
 10
253.3383120500776
 20
12.02767837294646
 30
0.0
 40
2.0
  1
用紙
 41
0.9
  7
ｽﾀｲﾙ1
100
AcDbText
  0
LINE
  5
5BA
330
1A
100
AcDbEntity
  8
ZUWAKU
100
AcDbLine
 10
324.3086010450046
 20
15.00000010375367
 30
0.0
 11
324.3086010450046
 21
0.4000001037537118
 31
0.0
  0
LINE
  5
5BB
330
1A
100
AcDbEntity
  8
ZUWAKU
100
AcDbLine
 10
324.4086010450046
 20
15.00000010375367
 30
0.0
 11
324.4086010450047
 21
0.4000001037537118
 31
0.0
  0
LINE
  5
5BC
330
1A
100
AcDbEntity
  8
ZUWAKU
100
AcDbLine
 10
324.2086010450047
 20
15.00000010375367
 30
0.0
 11
324.2086010450047
 21
0.4000001037537118
 31
0.0
  0
LINE
  5
5BD
330
1A
100
AcDbEntity
  8
ZUWAKU
100
AcDbLine
 10
276.3634776729585
 20
15.00000010375367
 30
0.0
 11
276.3634776729586
 21
0.4000001037537118
 31
0.0
  0
LINE
  5
5BE
330
1A
100
AcDbEntity
  8
ZUWAKU
100
AcDbLine
 10
276.4634776729585
 20
15.00000010375367
 30
0.0
 11
276.4634776729586
 21
0.4000001037537118
 31
0.0
  0
LINE
  5
5BF
330
1A
100
AcDbEntity
  8
ZUWAKU
100
AcDbLine
 10
276.2634776729586
 20
15.00000010375367
 30
0.0
 11
276.2634776729586
 21
0.4000001037537118
 31
0.0
  0
TEXT
  5
5C0
330
1A
100
AcDbEntity
  8
ZUWAKU
100
AcDbText
 10
325.1473235561094
 20
12.02767837294646
 30
0.0
 40
2.0
  1
DATE
 41
0.9
  7
ｽﾀｲﾙ1
100
AcDbText
  0
LINE
  5
5C1
330
1A
100
AcDbEntity
  8
ZUWAKU
100
AcDbLine
 10
348.624505064173
 20
15.00000010375367
 30
0.0
 11
348.624505064173
 21
0.4000001037537118
 31
0.0
  0
LINE
  5
5C2
330
1A
100
AcDbEntity
  8
ZUWAKU
100
AcDbLine
 10
348.724505064173
 20
15.00000010375367
 30
0.0
 11
348.724505064173
 21
0.4000001037537118
 31
0.0
  0
LINE
  5
5C3
330
1A
100
AcDbEntity
  8
ZUWAKU
100
AcDbLine
 10
348.8245050641729
 20
15.00000010375367
 30
0.0
 11
348.824505064173
 21
0.4000001037537118
 31
0.0
  0
LINE
  5
5C4
330
1A
100
AcDbEntity
  8
ZUWAKU
100
AcDbLine
 10
348.9245050641729
 20
15.00000010375367
 30
0.0
 11
348.9245050641731
 21
0.4000001037537118
 31
0.0
  0
TEXT
  5
5C5
330
1A
100
AcDbEntity
  8
ZUWAKU
100
AcDbText
 10
354.2640418860242
 20
8.776919771597079
 30
0.0
 40
3.0
  1
積水化学工業株式会社
 41
0.9
  7
ｽﾀｲﾙ1
100
AcDbText
  0
TEXT
  5
5C6
330
1A
100
AcDbEntity
  8
ZUWAKU
100
AcDbText
 10
354.2640418860242
 20
3.32442026068071
 30
0.0
 40
3.0
  1
建材事業部
 41
0.9
  7
ｽﾀｲﾙ1
100
AcDbText
  0
VIEWPORT
  5
22
330
17
100
AcDbEntity
 67
     1
  8
0
100
AcDbViewport
 10
313.6808219178082
 20
148.5
 30
0.0
 40
627.3616438356165
 41
297.0
 68
     2
 69
     1
1001
ACAD
1000
MVIEW
1002
{
1070
    16
1010
0.0
1020
0.0
1030
0.0
1010
0.0
1020
0.0
1030
1.0
1040
0.0
1040
297.0
1040
313.6808219178082
1040
148.5
1040
50.0
1040
0.0
1040
0.0
1070
     0
1070
   100
1070
     1
1070
     0
1070
     0
1070
     0
1070
     0
1070
     0
1040
0.0
1040
0.0
1040
0.0
1040
1.0
1040
1.0
1040
10.0
1040
10.0
1070
     0
1002
{
1002
}
1002
}
  0
VIEWPORT
  5
64
330
17
100
AcDbEntity
 67
     1
  8
VIEWPORT
100
AcDbViewport
 10
210.0
 20
148.5
 30
0.0
 40
420.0
 41
297.0
 68
     1
 69
     2
1001
ACAD
1000
MVIEW
1002
{
1070
    16
1010
0.0
1020
0.0
1030
0.0
1010
0.0
1020
0.0
1030
1.0
1040
0.0
1040
302.9399999999998
1040
210.0
1040
148.5
1040
50.0
1040
0.0
1040
0.0
1070
     0
1070
   100
1070
     1
1070
     0
1070
     0
1070
     0
1070
     0
1070
     0
1040
0.0
1040
0.0
1040
0.0
1040
5.0
1040
5.0
1040
0.0
1040
0.0
1070
     0
1002
{
1002
}
1002
}
  0
ENDSEC
  0
SECTION
  2
OBJECTS
  0
DICTIONARY
  5
C
330
0
100
AcDbDictionary
  3
ACAD_GROUP
350
D
  3
ACAD_LAYOUT
350
3E0
  3
ACAD_MLINESTYLE
350
E
  3
ACAD_PLOTSETTINGS
350
3E1
  3
ACAD_PLOTSTYLENAME
350
3DE
  3
ACDBHEADERROUNDTRIPXREC
350
5C9
  0
DICTIONARY
  5
40F
330
1A
100
AcDbDictionary
280
     1
  3
ACAD_LAYOUTSELFREF
360
5EB
  0
DICTIONARY
  5
40D
330
17
100
AcDbDictionary
280
     1
  3
ACAD_LAYOUTSELFREF
360
5EA
  0
DICTIONARY
  5
D
102
{ACAD_REACTORS
330
C
102
}
330
C
100
AcDbDictionary
  0
DICTIONARY
  5
3E0
102
{ACAD_REACTORS
330
C
102
}
330
C
100
AcDbDictionary
  0
DICTIONARY
  5
E
102
{ACAD_REACTORS
330
C
102
}
330
C
100
AcDbDictionary
  3
STANDARD
350
13
  0
DICTIONARY
  5
3E1
102
{ACAD_REACTORS
330
C
102
}
330
C
100
AcDbDictionary
  0
ACDBDICTIONARYWDFLT
  5
3DE
102
{ACAD_REACTORS
330
C
102
}
330
C
100
AcDbDictionary
281
     1
  3
Normal
350
3DF
100
AcDbDictionaryWithDefault
340
3DF
1001
ACAD
1000
TREAT_AS_HARD
1070
     0
1000
TREAT_AS_HARD
1070
     0
  0
DICTIONARY
  5
5C9
102
{ACAD_REACTORS
330
C
102
}
330
C
100
AcDbDictionary
  3
TSTACKALIGN
350
5CA
  3
TSTACKSIZE
350
5CB
  3
HYPERLINKBASE
350
5CC
  3
STYLESHEET
350
5CD
  3
LAYOUTDICT
350
5CE
  3
PLOTSETDICT
350
5CF
  3
PLOTSTYLNAMDICT
350
5D0
  3
LWETCUNION
350
5D1
  3
INSUNITS
350
5D2
  3
CEPSNTYPE
350
5D3
  3
FINGERPRINTGUID
350
5D4
  3
VERSIONGUID
350
5D5
  3
PSVPSCALE
350
5D6
  3
DIMSTYLEDATA
350
5D7
  3
PUCSORTHOREF
350
5D8
  3
PUCSORTHOVIEW
350
5D9
  3
PUCSBASE
350
5DA
  3
PUCSORGTOP
350
5DB
  3
PUCSORGBOTTOM
350
5DC
  3
PUCSORGLEFT
350
5DD
  3
PUCSORGRIGHT
350
5DE
  3
PUCSORGFRONT
350
5DF
  3
PUCSORGBACK
350
5E0
  3
UCSORTHOREF
350
5E1
  3
UCSORTHOVIEW
350
5E2
  3
UCSBASE
350
5E3
  3
UCSORGTOP
350
5E4
  3
UCSORGBOTTOM
350
5E5
  3
UCSORGLEFT
350
5E6
  3
UCSORGRIGHT
350
5E7
  3
UCSORGFRONT
350
5E8
  3
UCSORGBACK
350
5E9
  0
XRECORD
  5
5EB
102
{ACAD_REACTORS
330
40F
102
}
330
40F
100
AcDbXrecord
340
1A
  0
XRECORD
  5
5EA
102
{ACAD_REACTORS
330
40D
102
}
330
40D
100
AcDbXrecord
340
17
  0
MLINESTYLE
  5
13
102
{ACAD_REACTORS
330
E
102
}
330
E
100
AcDbMlineStyle
  2
STANDARD
 70
     0
  3

 62
     0
 51
90.0
 52
90.0
 71
     2
 49
0.5
 62
   256
  6
BYLAYER
 49
-0.5
 62
   256
  6
BYLAYER
  0
ACDBPLACEHOLDER
  5
3DF
102
{ACAD_REACTORS
330
3DE
102
}
330
3DE
100
AcDbPlaceHolder
280
     0
  0
XRECORD
  5
5CA
102
{ACAD_REACTORS
330
5C9
102
}
330
5C9
100
AcDbXrecord
 90
        1
  0
XRECORD
  5
5CB
102
{ACAD_REACTORS
330
5C9
102
}
330
5C9
100
AcDbXrecord
 90
       70
  0
XRECORD
  5
5CC
102
{ACAD_REACTORS
330
5C9
102
}
330
5C9
100
AcDbXrecord
  1

  0
XRECORD
  5
5CD
102
{ACAD_REACTORS
330
5C9
102
}
330
5C9
100
AcDbXrecord
  1
systemprinter.ctb
  0
XRECORD
  5
5CE
102
{ACAD_REACTORS
330
5C9
102
}
330
5C9
100
AcDbXrecord
340
3E0
  0
XRECORD
  5
5CF
102
{ACAD_REACTORS
330
5C9
102
}
330
5C9
100
AcDbXrecord
340
3E1
  0
XRECORD
  5
5D0
102
{ACAD_REACTORS
330
5C9
102
}
330
5C9
100
AcDbXrecord
340
3DE
  0
XRECORD
  5
5D1
102
{ACAD_REACTORS
330
5C9
102
}
330
5C9
100
AcDbXrecord
 90
    10781
  0
XRECORD
  5
5D2
102
{ACAD_REACTORS
330
5C9
102
}
330
5C9
100
AcDbXrecord
 90
        0
  0
XRECORD
  5
5D3
102
{ACAD_REACTORS
330
5C9
102
}
330
5C9
100
AcDbXrecord
 90
        0
  0
XRECORD
  5
5D4
102
{ACAD_REACTORS
330
5C9
102
}
330
5C9
100
AcDbXrecord
  1
{E09C429C-C6E8-460D-A414-F8B0D8B6DDCC}
  0
XRECORD
  5
5D5
102
{ACAD_REACTORS
330
5C9
102
}
330
5C9
100
AcDbXrecord
  1
{922B6BCD-F4ED-485E-8392-EEED5EA68FF5}
  0
XRECORD
  5
5D6
102
{ACAD_REACTORS
330
5C9
102
}
330
5C9
100
AcDbXrecord
 40
0.0
  0
XRECORD
  5
5D7
102
{ACAD_REACTORS
330
5C9
102
}
330
5C9
100
AcDbXrecord
1000
DSTYLE
1002
{
1070
   341
340
B2
1070
   343
340
B2
1070
   344
340
B2
1070
   371
 70
    -1
1070
   372
 70
    -1
1002
}
  0
XRECORD
  5
5D8
102
{ACAD_REACTORS
330
5C9
102
}
330
5C9
100
AcDbXrecord
340
0
  0
XRECORD
  5
5D9
102
{ACAD_REACTORS
330
5C9
102
}
330
5C9
100
AcDbXrecord
 70
     0
  0
XRECORD
  5
5DA
102
{ACAD_REACTORS
330
5C9
102
}
330
5C9
100
AcDbXrecord
340
0
  0
XRECORD
  5
5DB
102
{ACAD_REACTORS
330
5C9
102
}
330
5C9
100
AcDbXrecord
 10
0.0
 20
0.0
 30
0.0
  0
XRECORD
  5
5DC
102
{ACAD_REACTORS
330
5C9
102
}
330
5C9
100
AcDbXrecord
 10
0.0
 20
0.0
 30
0.0
  0
XRECORD
  5
5DD
102
{ACAD_REACTORS
330
5C9
102
}
330
5C9
100
AcDbXrecord
 10
0.0
 20
0.0
 30
0.0
  0
XRECORD
  5
5DE
102
{ACAD_REACTORS
330
5C9
102
}
330
5C9
100
AcDbXrecord
 10
0.0
 20
0.0
 30
0.0
  0
XRECORD
  5
5DF
102
{ACAD_REACTORS
330
5C9
102
}
330
5C9
100
AcDbXrecord
 10
0.0
 20
0.0
 30
0.0
  0
XRECORD
  5
5E0
102
{ACAD_REACTORS
330
5C9
102
}
330
5C9
100
AcDbXrecord
 10
0.0
 20
0.0
 30
0.0
  0
XRECORD
  5
5E1
102
{ACAD_REACTORS
330
5C9
102
}
330
5C9
100
AcDbXrecord
340
0
  0
XRECORD
  5
5E2
102
{ACAD_REACTORS
330
5C9
102
}
330
5C9
100
AcDbXrecord
 70
     0
  0
XRECORD
  5
5E3
102
{ACAD_REACTORS
330
5C9
102
}
330
5C9
100
AcDbXrecord
340
0
  0
XRECORD
  5
5E4
102
{ACAD_REACTORS
330
5C9
102
}
330
5C9
100
AcDbXrecord
 10
0.0
 20
0.0
 30
0.0
  0
XRECORD
  5
5E5
102
{ACAD_REACTORS
330
5C9
102
}
330
5C9
100
AcDbXrecord
 10
0.0
 20
0.0
 30
0.0
  0
XRECORD
  5
5E6
102
{ACAD_REACTORS
330
5C9
102
}
330
5C9
100
AcDbXrecord
 10
0.0
 20
0.0
 30
0.0
  0
XRECORD
  5
5E7
102
{ACAD_REACTORS
330
5C9
102
}
330
5C9
100
AcDbXrecord
 10
0.0
 20
0.0
 30
0.0
  0
XRECORD
  5
5E8
102
{ACAD_REACTORS
330
5C9
102
}
330
5C9
100
AcDbXrecord
 10
0.0
 20
0.0
 30
0.0
  0
XRECORD
  5
5E9
102
{ACAD_REACTORS
330
5C9
102
}
330
5C9
100
AcDbXrecord
 10
0.0
 20
0.0
 30
0.0
  0
ENDSEC
  0
EOF
