  0
SECTION
  2
HEADER
  9
$ACADVER
  1
AC1015
  9
$ACADMAINTVER
 70
    20
  9
$DWGCODEPAGE
  3
ANSI_932
  9
$INSBASE
 10
0.0
 20
0.0
 30
0.0
  9
$EXTMIN
 10
6.999999743487022
 20
7.000000339449683
 30
0.0
  9
$EXTMAX
 10
405.7999997434871
 20
282.8000003394497
 30
0.0
  9
$LIMMIN
 10
0.0
 20
0.0
  9
$LIMMAX
 10
420.0
 20
297.0
  9
$ORTHOMODE
 70
     0
  9
$REGENMODE
 70
     1
  9
$FILLMODE
 70
     1
  9
$QTEXTMODE
 70
     0
  9
$MIRRTEXT
 70
     1
  9
$LTSCALE
 40
1.0
  9
$ATTMODE
 70
     1
  9
$TEXTSIZE
 40
2.5
  9
$TRACEWID
 40
1.0
  9
$TEXTSTYLE
  7
STANDARD
  9
$CLAYER
  8
SUNPOU
  9
$CELTYPE
  6
BYLAYER
  9
$CECOLOR
 62
   256
  9
$CELTSCALE
 40
1.0
  9
$DISPSILH
 70
     0
  9
$DIMSCALE
 40
1.0
  9
$DIMASZ
 40
3.0
  9
$DIMEXO
 40
3.0
  9
$DIMDLI
 40
7.0
  9
$DIMRND
 40
0.0
  9
$DIMDLE
 40
0.0
  9
$DIMEXE
 40
1.5
  9
$DIMTP
 40
0.0
  9
$DIMTM
 40
0.0
  9
$DIMTXT
 40
3.0
  9
$DIMCEN
 40
150.0
  9
$DIMTSZ
 40
0.0
  9
$DIMTOL
 70
     0
  9
$DIMLIM
 70
     0
  9
$DIMTIH
 70
     0
  9
$DIMTOH
 70
     0
  9
$DIMSE1
 70
     0
  9
$DIMSE2
 70
     0
  9
$DIMTAD
 70
     3
  9
$DIMZIN
 70
     0
  9
$DIMBLK
  1

  9
$DIMASO
 70
     1
  9
$DIMSHO
 70
     1
  9
$DIMPOST
  1

  9
$DIMAPOST
  1

  9
$DIMALT
 70
     0
  9
$DIMALTD
 70
     2
  9
$DIMALTF
 40
25.4
  9
$DIMLFAC
 40
1.0
  9
$DIMTOFL
 70
     1
  9
$DIMTVP
 40
0.0
  9
$DIMTIX
 70
     0
  9
$DIMSOXD
 70
     0
  9
$DIMSAH
 70
     1
  9
$DIMBLK1
  1
OPEN
  9
$DIMBLK2
  1
OPEN
  9
$DIMSTYLE
  2
STANDARD
  9
$DIMCLRD
 70
   256
  9
$DIMCLRE
 70
   256
  9
$DIMCLRT
 70
   256
  9
$DIMTFAC
 40
1.0
  9
$DIMGAP
 40
1.0
  9
$DIMJUST
 70
     0
  9
$DIMSD1
 70
     0
  9
$DIMSD2
 70
     0
  9
$DIMTOLJ
 70
     1
  9
$DIMTZIN
 70
     0
  9
$DIMALTZ
 70
     0
  9
$DIMALTTZ
 70
     0
  9
$DIMUPT
 70
     0
  9
$DIMDEC
 70
     0
  9
$DIMTDEC
 70
     0
  9
$DIMALTU
 70
     2
  9
$DIMALTTD
 70
     2
  9
$DIMTXSTY
  7
STANDARD
  9
$DIMAUNIT
 70
     0
  9
$DIMADEC
 70
     0
  9
$DIMALTRND
 40
0.0
  9
$DIMAZIN
 70
     0
  9
$DIMDSEP
 70
    46
  9
$DIMATFIT
 70
     3
  9
$DIMFRAC
 70
     0
  9
$DIMLDRBLK
  1
OPEN
  9
$DIMLUNIT
 70
     2
  9
$DIMLWD
 70
    -1
  9
$DIMLWE
 70
    -1
  9
$DIMTMOVE
 70
     0
  9
$LUNITS
 70
     2
  9
$LUPREC
 70
     4
  9
$SKETCHINC
 40
1.0
  9
$FILLETRAD
 40
10.0
  9
$AUNITS
 70
     0
  9
$AUPREC
 70
     0
  9
$MENU
  1
.
  9
$ELEVATION
 40
0.0
  9
$PELEVATION
 40
0.0
  9
$THICKNESS
 40
0.0
  9
$LIMCHECK
 70
     0
  9
$CHAMFERA
 40
10.0
  9
$CHAMFERB
 40
10.0
  9
$CHAMFERC
 40
20.0
  9
$CHAMFERD
 40
0.0
  9
$SKPOLY
 70
     0
  9
$TDCREATE
 40
2451204.541313195
  9
$TDUCREATE
 40
2451204.166313195
  9
$TDUPDATE
 40
2459188.467491030
  9
$TDUUPDATE
 40
2459188.092491030
  9
$TDINDWG
 40
0.0944448843
  9
$TDUSRTIMER
 40
0.0944446991
  9
$USRTIMER
 70
     1
  9
$ANGBASE
 50
0.0
  9
$ANGDIR
 70
     0
  9
$PDMODE
 70
     0
  9
$PDSIZE
 40
0.0
  9
$PLINEWID
 40
0.0
  9
$SPLFRAME
 70
     0
  9
$SPLINETYPE
 70
     6
  9
$SPLINESEGS
 70
     8
  9
$HANDSEED
  5
5123
  9
$SURFTAB1
 70
     6
  9
$SURFTAB2
 70
     6
  9
$SURFTYPE
 70
     6
  9
$SURFU
 70
     6
  9
$SURFV
 70
     6
  9
$UCSBASE
  2

  9
$UCSNAME
  2

  9
$UCSORG
 10
0.0
 20
0.0
 30
0.0
  9
$UCSXDIR
 10
1.0
 20
0.0
 30
0.0
  9
$UCSYDIR
 10
0.0
 20
1.0
 30
0.0
  9
$UCSORTHOREF
  2

  9
$UCSORTHOVIEW
 70
     0
  9
$UCSORGTOP
 10
0.0
 20
0.0
 30
0.0
  9
$UCSORGBOTTOM
 10
0.0
 20
0.0
 30
0.0
  9
$UCSORGLEFT
 10
0.0
 20
0.0
 30
0.0
  9
$UCSORGRIGHT
 10
0.0
 20
0.0
 30
0.0
  9
$UCSORGFRONT
 10
0.0
 20
0.0
 30
0.0
  9
$UCSORGBACK
 10
0.0
 20
0.0
 30
0.0
  9
$PUCSBASE
  2

  9
$PUCSNAME
  2

  9
$PUCSORG
 10
0.0
 20
0.0
 30
0.0
  9
$PUCSXDIR
 10
1.0
 20
0.0
 30
0.0
  9
$PUCSYDIR
 10
0.0
 20
1.0
 30
0.0
  9
$PUCSORTHOREF
  2

  9
$PUCSORTHOVIEW
 70
     0
  9
$PUCSORGTOP
 10
0.0
 20
0.0
 30
0.0
  9
$PUCSORGBOTTOM
 10
0.0
 20
0.0
 30
0.0
  9
$PUCSORGLEFT
 10
0.0
 20
0.0
 30
0.0
  9
$PUCSORGRIGHT
 10
0.0
 20
0.0
 30
0.0
  9
$PUCSORGFRONT
 10
0.0
 20
0.0
 30
0.0
  9
$PUCSORGBACK
 10
0.0
 20
0.0
 30
0.0
  9
$USERI1
 70
     0
  9
$USERI2
 70
     0
  9
$USERI3
 70
     0
  9
$USERI4
 70
     0
  9
$USERI5
 70
     0
  9
$USERR1
 40
0.0
  9
$USERR2
 40
0.0
  9
$USERR3
 40
0.0
  9
$USERR4
 40
0.0
  9
$USERR5
 40
0.0
  9
$WORLDVIEW
 70
     1
  9
$SHADEDGE
 70
     3
  9
$SHADEDIF
 70
    70
  9
$TILEMODE
 70
     0
  9
$MAXACTVP
 70
    16
  9
$PINSBASE
 10
0.0
 20
0.0
 30
0.0
  9
$PLIMCHECK
 70
     0
  9
$PEXTMIN
 10
-0.0128164049386896
 20
-0.0090630292066862
 30
-0.0015258207003583
  9
$PEXTMAX
 10
420.0128183607161
 20
297.0090644122207
 30
0.0000000349246037
  9
$PLIMMIN
 10
-10.01343682308299
 20
-10.00967368473416
  9
$PLIMMAX
 10
430.0134290162437
 20
330.0110840973768
  9
$UNITMODE
 70
     0
  9
$VISRETAIN
 70
     0
  9
$PLINEGEN
 70
     0
  9
$PSLTSCALE
 70
     1
  9
$TREEDEPTH
 70
  3020
  9
$CMLSTYLE
  2
STANDARD
  9
$CMLJUST
 70
     0
  9
$CMLSCALE
 40
1.0
  9
$PROXYGRAPHICS
 70
     1
  9
$MEASUREMENT
 70
     1
  9
$CELWEIGHT
370
    -1
  9
$ENDCAPS
280
     0
  9
$JOINSTYLE
280
     0
  9
$LWDISPLAY
290
     0
  9
$INSUNITS
 70
     0
  9
$HYPERLINKBASE
  1

  9
$STYLESHEET
  1
PRINT.CTB
  9
$XEDIT
290
     1
  9
$CEPSNTYPE
380
     0
  9
$PSTYLEMODE
290
     1
  9
$FINGERPRINTGUID
  2
{9394C761-BB80-44D4-BF2A-30FF33226E18}
  9
$VERSIONGUID
  2
{17D83D96-F9BE-474E-991A-7F306210FFF1}
  9
$EXTNAMES
290
     1
  9
$PSVPSCALE
 40
0.0
  9
$OLESTARTUP
290
     0
  0
ENDSEC
  0
SECTION
  2
CLASSES
  0
CLASS
  1
ACDBDICTIONARYWDFLT
  2
AcDbDictionaryWithDefault
  3
ObjectDBX Classes
 90
        0
280
     0
281
     0
  0
CLASS
  1
ACDBPLACEHOLDER
  2
AcDbPlaceHolder
  3
ObjectDBX Classes
 90
        0
280
     0
281
     0
  0
CLASS
  1
LAYOUT
  2
AcDbLayout
  3
ObjectDBX Classes
 90
        0
280
     0
281
     0
  0
CLASS
  1
DICTIONARYVAR
  2
AcDbDictionaryVar
  3
ObjectDBX Classes
 90
        0
280
     0
281
     0
  0
ENDSEC
  0
SECTION
  2
TABLES
  0
TABLE
  2
VPORT
  5
8
330
0
100
AcDbSymbolTable
 70
     2
  0
VPORT
  5
5117
330
8
100
AcDbSymbolTableRecord
100
AcDbViewportTableRecord
  2
*Active
 70
     0
 10
0.0
 20
0.0
 11
1.0
 21
1.0
 12
219.1733434129367
 22
54.10536615951262
 13
0.0
 23
0.0
 14
5.0
 24
5.0
 15
0.0
 25
0.0
 16
0.0
 26
0.0
 36
1.0
 17
0.0
 27
0.0
 37
0.0
 40
135.3964071090369
 41
1.922916666666666
 42
50.0
 43
0.0
 44
0.0
 50
0.0
 51
0.0
 71
     0
 72
   100
 73
     1
 74
     0
 75
     0
 76
     0
 77
     0
 78
     0
281
     0
 65
     1
110
0.0
120
0.0
130
0.0
111
1.0
121
0.0
131
0.0
112
0.0
122
1.0
132
0.0
 79
     0
146
0.0
  0
ENDTAB
  0
TABLE
  2
LTYPE
  5
5
330
0
100
AcDbSymbolTable
 70
     2
  0
LTYPE
  5
14
330
5
100
AcDbSymbolTableRecord
100
AcDbLinetypeTableRecord
  2
BYBLOCK
 70
     0
  3

 72
    65
 73
     0
 40
0.0
  0
LTYPE
  5
15
330
5
100
AcDbSymbolTableRecord
100
AcDbLinetypeTableRecord
  2
BYLAYER
 70
     0
  3

 72
    65
 73
     0
 40
0.0
  0
LTYPE
  5
16
330
5
100
AcDbSymbolTableRecord
100
AcDbLinetypeTableRecord
  2
CONTINUOUS
 70
     0
  3
Solid line
 72
    65
 73
     0
 40
0.0
  0
LTYPE
  5
120
330
5
100
AcDbSymbolTableRecord
100
AcDbLinetypeTableRecord
  2
CENTER
 70
     0
  3
____ _ ____ _ ____ _ ____ _ ____ _ ____ _ ____ 
 72
    65
 73
     4
 40
2.0
 49
1.25
 74
     0
 49
-0.25
 74
     0
 49
0.25
 74
     0
 49
-0.25
 74
     0
  0
ENDTAB
  0
TABLE
  2
LAYER
  5
2
330
0
100
AcDbSymbolTable
 70
     8
  0
LAYER
  5
F
330
2
100
AcDbSymbolTableRecord
100
AcDbLayerTableRecord
  2
0
 70
     0
 62
     7
  6
CONTINUOUS
370
    -3
390
414
  0
LAYER
  5
62
330
2
100
AcDbSymbolTableRecord
100
AcDbLayerTableRecord
  2
VIEWPORT
 70
     0
 62
     7
  6
CONTINUOUS
370
    -3
390
414
  0
LAYER
  5
6B
330
2
100
AcDbSymbolTableRecord
100
AcDbLayerTableRecord
  2
ZUWAKU
 70
     0
 62
     7
  6
CONTINUOUS
370
    -3
390
414
  0
LAYER
  5
13D
330
2
100
AcDbSymbolTableRecord
100
AcDbLayerTableRecord
  2
SEIHIN
 70
     0
 62
     3
  6
CONTINUOUS
370
    -3
390
414
  0
LAYER
  5
13E
330
2
100
AcDbSymbolTableRecord
100
AcDbLayerTableRecord
  2
SUNPOU
 70
     0
 62
     4
  6
CONTINUOUS
370
    -3
390
414
  0
LAYER
  5
140
330
2
100
AcDbSymbolTableRecord
100
AcDbLayerTableRecord
  2
DEFPOINTS
 70
     0
 62
     7
  6
CONTINUOUS
290
     0
370
    -3
390
414
  0
LAYER
  5
4BA
330
2
100
AcDbSymbolTableRecord
100
AcDbLayerTableRecord
  2
moji
 70
     0
 62
     2
  6
CONTINUOUS
370
    -3
390
414
  0
LAYER
  5
4C3C
330
2
100
AcDbSymbolTableRecord
100
AcDbLayerTableRecord
  2
CENTER L
 70
     0
 62
     1
  6
CENTER
370
    -3
390
414
  0
ENDTAB
  0
TABLE
  2
STYLE
  5
3
330
0
100
AcDbSymbolTable
 70
     2
  0
STYLE
  5
10
330
3
100
AcDbSymbolTableRecord
100
AcDbTextStyleTableRecord
  2
STANDARD
 70
     0
 40
0.0
 41
1.0
 50
0.0
 71
     0
 42
2.5
  3
TXT
  4
bigfont.shx
  0
STYLE
  5
4BB
330
3
100
AcDbSymbolTableRecord
100
AcDbTextStyleTableRecord
  2
ｽﾀｲﾙ1
 70
     0
 40
0.0
 41
1.0
 50
0.0
 71
     0
 42
2.5
  3

  4

1001
ACAD
1000
MS PGothic
1071
    32818
  0
ENDTAB
  0
TABLE
  2
VIEW
  5
6
330
0
100
AcDbSymbolTable
 70
     0
  0
ENDTAB
  0
TABLE
  2
UCS
  5
7
330
0
100
AcDbSymbolTable
 70
     0
  0
ENDTAB
  0
TABLE
  2
APPID
  5
9
330
0
100
AcDbSymbolTable
 70
     1
  0
APPID
  5
11
330
9
100
AcDbSymbolTableRecord
100
AcDbRegAppTableRecord
  2
ACAD
 70
     0
  0
ENDTAB
  0
TABLE
  2
DIMSTYLE
  5
A
330
0
100
AcDbSymbolTable
 70
     1
100
AcDbDimStyleTable
 71
     0
  0
DIMSTYLE
105
1D
102
{ACAD_REACTORS
330
4D51
330
4D52
330
4D53
330
4D65
330
4D66
330
4D8A
330
4DC1
330
4DCC
330
4E21
330
4E39
330
502F
102
}
330
A
100
AcDbSymbolTableRecord
100
AcDbDimStyleTableRecord
  2
STANDARD
 70
     0
340
10
  0
ENDTAB
  0
TABLE
  2
BLOCK_RECORD
  5
1
330
0
100
AcDbSymbolTable
 70
    13
  0
BLOCK_RECORD
  5
1A
102
{ACAD_XDICTIONARY
360
444
102
}
330
1
100
AcDbSymbolTableRecord
100
AcDbBlockTableRecord
  2
*MODEL_SPACE
340
417
  0
BLOCK_RECORD
  5
17
102
{ACAD_XDICTIONARY
360
442
102
}
330
1
100
AcDbSymbolTableRecord
100
AcDbBlockTableRecord
  2
*PAPER_SPACE
340
418
  0
BLOCK_RECORD
  5
B2
330
1
100
AcDbSymbolTableRecord
100
AcDbBlockTableRecord
  2
_OPEN
340
0
102
{BLKREFS
331
4F90
331
4F91
331
4FC6
331
4FC7
331
4FBD
331
4FBE
331
4F99
331
4F9A
331
4FA2
331
4FA3
331
4FAB
331
4FAC
331
4FD8
331
4FD9
331
4FB4
331
4FB5
331
4F87
331
4F88
331
4FCF
331
4FD0
331
5092
331
5093
102
}
  0
BLOCK_RECORD
  5
9E0
330
1
100
AcDbSymbolTableRecord
100
AcDbBlockTableRecord
  2
*X1
340
0
102
{BLKREFS
331
585
102
}
  0
BLOCK_RECORD
  5
4E61
330
1
100
AcDbSymbolTableRecord
100
AcDbBlockTableRecord
  2
*D2
340
0
  0
BLOCK_RECORD
  5
4E6D
330
1
100
AcDbSymbolTableRecord
100
AcDbBlockTableRecord
  2
*D3
340
0
  0
BLOCK_RECORD
  5
4E79
330
1
100
AcDbSymbolTableRecord
100
AcDbBlockTableRecord
  2
*D4
340
0
  0
BLOCK_RECORD
  5
4E85
330
1
100
AcDbSymbolTableRecord
100
AcDbBlockTableRecord
  2
*D5
340
0
  0
BLOCK_RECORD
  5
4E91
330
1
100
AcDbSymbolTableRecord
100
AcDbBlockTableRecord
  2
*D6
340
0
  0
BLOCK_RECORD
  5
4E9D
330
1
100
AcDbSymbolTableRecord
100
AcDbBlockTableRecord
  2
*D7
340
0
  0
BLOCK_RECORD
  5
4EA9
330
1
100
AcDbSymbolTableRecord
100
AcDbBlockTableRecord
  2
*D8
340
0
  0
BLOCK_RECORD
  5
4EB5
330
1
100
AcDbSymbolTableRecord
100
AcDbBlockTableRecord
  2
*D9
340
0
  0
BLOCK_RECORD
  5
4EC1
330
1
100
AcDbSymbolTableRecord
100
AcDbBlockTableRecord
  2
*D10
340
0
  0
BLOCK_RECORD
  5
4ECD
330
1
100
AcDbSymbolTableRecord
100
AcDbBlockTableRecord
  2
*D11
340
0
  0
BLOCK_RECORD
  5
5030
330
1
100
AcDbSymbolTableRecord
100
AcDbBlockTableRecord
  2
*D12
340
0
  0
ENDTAB
  0
ENDSEC
  0
SECTION
  2
BLOCKS
  0
BLOCK
  5
1B
330
1A
100
AcDbEntity
  8
0
100
AcDbBlockBegin
  2
*MODEL_SPACE
 70
     0
 10
0.0
 20
0.0
 30
0.0
  3
*MODEL_SPACE
  1

  0
ENDBLK
  5
1C
330
1A
100
AcDbEntity
  8
0
100
AcDbBlockEnd
  0
BLOCK
  5
18
330
17
100
AcDbEntity
 67
     1
  8
0
100
AcDbBlockBegin
  2
*PAPER_SPACE
 70
     0
 10
0.0
 20
0.0
 30
0.0
  3
*PAPER_SPACE
  1

  0
ENDBLK
  5
19
330
17
100
AcDbEntity
 67
     1
  8
0
100
AcDbBlockEnd
  0
BLOCK
  5
B3
330
B2
100
AcDbEntity
  8
0
100
AcDbBlockBegin
  2
_OPEN
 70
     0
 10
0.0
 20
0.0
 30
0.0
  3
_OPEN
  1

  0
LINE
  5
B4
330
B2
100
AcDbEntity
  8
0
  6
ByBlock
 62
     0
100
AcDbLine
 10
-1.0
 20
0.1666666666666666
 30
0.0
 11
0.0
 21
0.0
 31
0.0
  0
LINE
  5
B5
330
B2
100
AcDbEntity
  8
0
  6
ByBlock
 62
     0
100
AcDbLine
 10
0.0
 20
0.0
 30
0.0
 11
-1.0
 21
-0.1666666666666666
 31
0.0
  0
LINE
  5
B6
330
B2
100
AcDbEntity
  8
0
  6
ByBlock
 62
     0
100
AcDbLine
 10
0.0
 20
0.0
 30
0.0
 11
-1.0
 21
0.0
 31
0.0
  0
ENDBLK
  5
B7
330
B2
100
AcDbEntity
  8
0
100
AcDbBlockEnd
  0
BLOCK
  5
B74
330
9E0
100
AcDbEntity
  8
0
100
AcDbBlockBegin
  2
*X1
 70
     1
 10
0.0
 20
0.0
 30
0.0
  3
*X1
  1

  0
LINE
  5
9E1
330
9E0
100
AcDbEntity
  8
0
 62
     0
100
AcDbLine
 10
34.52110582087761
 20
11.30208487459222
 30
0.0
 11
34.19819035602015
 21
11.62500033944971
 31
0.0
  0
LINE
  5
9E2
330
9E0
100
AcDbEntity
  8
0
 62
     0
100
AcDbLine
 10
34.52110582087761
 20
10.85307206853878
 30
0.0
 11
33.74917754996668
 21
11.62500033944971
 31
0.0
  0
LINE
  5
9E3
330
9E0
100
AcDbEntity
  8
0
 62
     0
100
AcDbLine
 10
34.52110582087757
 20
10.4040592624853
 30
0.0
 11
33.31053884787011
 21
11.61462623549278
 31
0.0
  0
LINE
  5
9E4
330
9E0
100
AcDbEntity
  8
0
 62
     0
100
AcDbLine
 10
34.52110582087761
 20
9.955046456431887
 30
0.0
 11
33.12110582087758
 21
11.35504645643189
 31
0.0
  0
LINE
  5
9E5
330
9E0
100
AcDbEntity
  8
0
 62
     0
100
AcDbLine
 10
34.52110582087761
 20
9.506033650378412
 30
0.0
 11
33.12110582087758
 21
10.90603365037845
 31
0.0
  0
LINE
  5
9E6
330
9E0
100
AcDbEntity
  8
0
 62
     0
100
AcDbLine
 10
34.52110582087757
 20
9.057020844324938
 30
0.0
 11
33.12110582087754
 21
10.45702084432497
 31
0.0
  0
LINE
  5
9E7
330
9E0
100
AcDbEntity
  8
0
 62
     0
100
AcDbLine
 10
32.07110582087756
 20
11.05800803827154
 30
0.0
 11
31.50411351969942
 21
11.62500033944971
 31
0.0
  0
LINE
  5
9E8
330
9E0
100
AcDbEntity
  8
0
 62
     0
100
AcDbLine
 10
34.52110582087761
 20
8.608008038271519
 30
0.0
 11
33.12110582087758
 21
10.00800803827155
 31
0.0
  0
LINE
  5
9E9
330
9E0
100
AcDbEntity
  8
0
 62
     0
100
AcDbLine
 10
32.07110582087756
 20
10.60899523221809
 30
0.0
 11
31.05510071364594
 21
11.62500033944968
 31
0.0
  0
LINE
  5
9EA
330
9E0
100
AcDbEntity
  8
0
 62
     0
100
AcDbLine
 10
34.52110582087757
 20
8.158995232218046
 30
0.0
 11
33.12110582087758
 21
9.558995232218078
 31
0.0
  0
LINE
  5
9EB
330
9E0
100
AcDbEntity
  8
0
 62
     0
100
AcDbLine
 10
32.07110582087756
 20
10.15998242616461
 30
0.0
 11
30.71835033830903
 21
11.51273790873315
 31
0.0
  0
LINE
  5
9EC
330
9E0
100
AcDbEntity
  8
0
 62
     0
100
AcDbLine
 10
34.52110582087757
 20
7.709982426164599
 30
0.0
 11
33.12110582087754
 21
9.109982426164606
 31
0.0
  0
LINE
  5
9ED
330
9E0
100
AcDbEntity
  8
0
 62
     0
100
AcDbLine
 10
32.07110582087762
 20
9.710969620111113
 30
0.0
 11
30.67110582087754
 21
11.11096962011117
 31
0.0
  0
LINE
  5
9EE
330
9E0
100
AcDbEntity
  8
0
 62
     0
100
AcDbLine
 10
34.52110582087761
 20
7.260969620111125
 30
0.0
 11
33.12110582087758
 21
8.66096962011116
 31
0.0
  0
LINE
  5
9EF
330
9E0
100
AcDbEntity
  8
0
 62
     0
100
AcDbLine
 10
32.07110582087759
 20
9.261956814057668
 30
0.0
 11
30.67110582087754
 21
10.66195681405776
 31
0.0
  0
LINE
  5
9F0
330
9E0
100
AcDbEntity
  8
0
 62
     0
100
AcDbLine
 10
34.52110582087757
 20
6.811956814057679
 30
0.0
 11
33.12110582087754
 21
8.211956814057714
 31
0.0
  0
LINE
  5
9F1
330
9E0
100
AcDbEntity
  8
0
 62
     0
100
AcDbLine
 10
32.07110582087759
 20
8.812944008004222
 30
0.0
 11
30.67110582087754
 21
10.21294400800428
 31
0.0
  0
LINE
  5
9F2
330
9E0
100
AcDbEntity
  8
0
 62
     0
100
AcDbLine
 10
34.52110582087757
 20
6.362944008004233
 30
0.0
 11
33.12110582087754
 21
7.762944008004267
 31
0.0
  0
LINE
  5
9F3
330
9E0
100
AcDbEntity
  8
0
 62
     0
100
AcDbLine
 10
32.07110582087756
 20
8.363931201950746
 30
0.0
 11
30.6711058208775
 21
9.763931201950812
 31
0.0
  0
LINE
  5
9F4
330
9E0
100
AcDbEntity
  8
0
 62
     0
100
AcDbLine
 10
34.52110582087755
 20
5.913931201950759
 30
0.0
 11
33.12110582087754
 21
7.313931201950794
 31
0.0
  0
LINE
  5
9F5
330
9E0
100
AcDbEntity
  8
0
 62
     0
100
AcDbLine
 10
32.07110582087759
 20
7.914918395897331
 30
0.0
 11
30.67110582087754
 21
9.314918395897391
 31
0.0
  0
LINE
  5
9F6
330
9E0
100
AcDbEntity
  8
0
 62
     0
100
AcDbLine
 10
28.92110582087756
 20
11.06491839589736
 30
0.0
 11
28.36102387732524
 21
11.62500033944968
 31
0.0
  0
LINE
  5
9F7
330
9E0
100
AcDbEntity
  8
0
 62
     0
100
AcDbLine
 10
34.52110582087757
 20
5.464918395897342
 30
0.0
 11
33.12110582087754
 21
6.864918395897348
 31
0.0
  0
LINE
  5
9F8
330
9E0
100
AcDbEntity
  8
0
 62
     0
100
AcDbLine
 10
32.07110582087759
 20
7.465905589843855
 30
0.0
 11
30.6711058208775
 21
8.865905589843917
 31
0.0
  0
LINE
  5
9F9
330
9E0
100
AcDbEntity
  8
0
 62
     0
100
AcDbLine
 10
28.92110582087753
 20
10.61590558984389
 30
0.0
 11
27.91201107127176
 21
11.62500033944968
 31
0.0
  0
LINE
  5
9FA
330
9E0
100
AcDbEntity
  8
0
 62
     0
100
AcDbLine
 10
34.52110582087757
 20
5.015905589843868
 30
0.0
 11
33.12110582087754
 21
6.415905589843903
 31
0.0
  0
LINE
  5
9FB
330
9E0
100
AcDbEntity
  8
0
 62
     0
100
AcDbLine
 10
32.07110582087756
 20
7.016892783790409
 30
0.0
 11
30.67110582087754
 21
8.416892783790416
 31
0.0
  0
LINE
  5
9FC
330
9E0
100
AcDbEntity
  8
0
 62
     0
100
AcDbLine
 10
28.92110582087753
 20
10.16689278379044
 30
0.0
 11
27.57122445921553
 21
11.51677414545244
 31
0.0
  0
LINE
  5
9FD
330
9E0
100
AcDbEntity
  8
0
 62
     0
100
AcDbLine
 10
34.52110582087755
 20
4.566892783790422
 30
0.0
 11
33.12110582087752
 21
5.966892783790427
 31
0.0
  0
LINE
  5
9FE
330
9E0
100
AcDbEntity
  8
0
 62
     0
100
AcDbLine
 10
32.07110582087759
 20
6.567879977736937
 30
0.0
 11
30.67110582087756
 21
7.96787997773697
 31
0.0
  0
LINE
  5
9FF
330
9E0
100
AcDbEntity
  8
0
 62
     0
100
AcDbLine
 10
28.92110582087756
 20
9.71787997773697
 30
0.0
 11
27.52110582087755
 21
11.11787997773697
 31
0.0
  0
LINE
  5
A00
330
9E0
100
AcDbEntity
  8
0
 62
     0
100
AcDbLine
 10
34.52110582087757
 20
4.117879977736946
 30
0.0
 11
33.12110582087754
 21
5.51787997773698
 31
0.0
  0
LINE
  5
A01
330
9E0
100
AcDbEntity
  8
0
 62
     0
100
AcDbLine
 10
32.07110582087756
 20
6.11886717168349
 30
0.0
 11
30.67110582087756
 21
7.518867171683523
 31
0.0
  0
LINE
  5
A02
330
9E0
100
AcDbEntity
  8
0
 62
     0
100
AcDbLine
 10
28.92110582087759
 20
9.268867171683496
 30
0.0
 11
27.52110582087755
 21
10.66886717168353
 31
0.0
  0
LINE
  5
A03
330
9E0
100
AcDbEntity
  8
0
 62
     0
100
AcDbLine
 10
34.48512314343267
 20
3.704849849128406
 30
0.0
 11
33.12110582087754
 21
5.068867171683534
 31
0.0
  0
LINE
  5
A04
330
9E0
100
AcDbEntity
  8
0
 62
     0
100
AcDbLine
 10
32.07110582087759
 20
5.669854365629987
 30
0.0
 11
30.67110582087754
 21
7.06985436563005
 31
0.0
  0
LINE
  5
A05
330
9E0
100
AcDbEntity
  8
0
 62
     0
100
AcDbLine
 10
28.92110582087756
 20
8.81985436563005
 30
0.0
 11
27.52110582087752
 21
10.21985436563005
 31
0.0
  0
LINE
  5
A06
330
9E0
100
AcDbEntity
  8
0
 62
     0
100
AcDbLine
 10
34.16595984705793
 20
3.575000339449672
 30
0.0
 11
33.12110582087752
 21
4.619854365630088
 31
0.0
  0
LINE
  5
A07
330
9E0
100
AcDbEntity
  8
0
 62
     0
100
AcDbLine
 10
28.92110582087756
 20
8.370841559576575
 30
0.0
 11
27.52110582087752
 21
9.770841559576608
 31
0.0
  0
LINE
  5
A08
330
9E0
100
AcDbEntity
  8
0
 62
     0
100
AcDbLine
 10
32.07110582087759
 20
5.220841559576541
 30
0.0
 11
30.67110582087754
 21
6.620841559576603
 31
0.0
  0
LINE
  5
A09
330
9E0
100
AcDbEntity
  8
0
 62
     0
100
AcDbLine
 10
26.20860582087755
 20
11.08334155957658
 30
0.0
 11
25.66694704100448
 21
11.62500033944962
 31
0.0
  0
LINE
  5
A0A
330
9E0
100
AcDbEntity
  8
0
 62
     0
100
AcDbLine
 10
33.71694704100449
 20
3.575000339449616
 30
0.0
 11
33.12110582087752
 21
4.170841559576615
 31
0.0
  0
LINE
  5
A0B
330
9E0
100
AcDbEntity
  8
0
 62
     0
100
AcDbLine
 10
28.92110582087756
 20
7.921828753523128
 30
0.0
 11
27.52110582087758
 21
9.321828753523137
 31
0.0
  0
LINE
  5
A0C
330
9E0
100
AcDbEntity
  8
0
 62
     0
100
AcDbLine
 10
26.20860582087755
 20
10.63432875352313
 30
0.0
 11
25.21793423495106
 21
11.62500033944965
 31
0.0
  0
LINE
  5
A0D
330
9E0
100
AcDbEntity
  8
0
 62
     0
100
AcDbLine
 10
32.0581266705548
 20
4.784807903845916
 30
0.0
 11
30.67110582087754
 21
6.171828753523156
 31
0.0
  0
LINE
  5
A0E
330
9E0
100
AcDbEntity
  8
0
 62
     0
100
AcDbLine
 10
28.92110582087756
 20
7.472815947469682
 30
0.0
 11
27.52110582087758
 21
8.872815947469662
 31
0.0
  0
LINE
  5
A0F
330
9E0
100
AcDbEntity
  8
0
 62
     0
100
AcDbLine
 10
26.11081554782064
 20
10.2831062205266
 30
0.0
 11
24.76892142889756
 21
11.62500033944968
 31
0.0
  0
LINE
  5
A10
330
9E0
100
AcDbEntity
  8
0
 62
     0
100
AcDbLine
 10
31.96163402292618
 20
4.432287745421035
 30
0.0
 11
30.67110582087754
 21
5.722815947469712
 31
0.0
  0
LINE
  5
A11
330
9E0
100
AcDbEntity
  8
0
 62
     0
100
AcDbLine
 10
28.92110582087756
 20
7.023803141416208
 30
0.0
 11
27.52110582087755
 21
8.423803141416215
 31
0.0
  0
LINE
  5
A12
330
9E0
100
AcDbEntity
  8
0
 62
     0
100
AcDbLine
 10
25.71990862284406
 20
10.22500033944968
 30
0.0
 11
24.31990862284411
 21
11.62500033944962
 31
0.0
  0
LINE
  5
A13
330
9E0
100
AcDbEntity
  8
0
 62
     0
100
AcDbLine
 10
31.79911808496439
 20
4.145790877329345
 30
0.0
 11
30.63534795129778
 21
5.309561010995992
 31
0.0
  0
LINE
  5
A14
330
9E0
100
AcDbEntity
  8
0
 62
     0
100
AcDbLine
 10
28.92110582087756
 20
6.574790335362791
 30
0.0
 11
27.52110582087758
 21
7.974790335362768
 31
0.0
  0
LINE
  5
A15
330
9E0
100
AcDbEntity
  8
0
 62
     0
100
AcDbLine
 10
25.27089581679064
 20
10.22500033944971
 30
0.0
 11
23.90211245220195
 21
11.5937837040384
 31
0.0
  0
LINE
  5
A16
330
9E0
100
AcDbEntity
  8
0
 62
     0
100
AcDbLine
 10
31.58309718630187
 20
3.912798969938448
 30
0.0
 11
30.43455513206402
 21
5.061341024176299
 31
0.0
  0
LINE
  5
A17
330
9E0
100
AcDbEntity
  8
0
 62
     0
100
AcDbLine
 10
28.92110582087756
 20
6.125777529309316
 30
0.0
 11
27.52110582087755
 21
7.525777529309293
 31
0.0
  0
LINE
  5
A18
330
9E0
100
AcDbEntity
  8
0
 62
     0
100
AcDbLine
 10
24.82188301073717
 20
10.22500033944971
 30
0.0
 11
23.56979223993525
 21
11.47709111025159
 31
0.0
  0
LINE
  5
A19
330
9E0
100
AcDbEntity
  8
0
 62
     0
100
AcDbLine
 10
31.31501601383886
 20
3.731867336348016
 30
0.0
 11
30.07188301073717
 21
4.975000339449677
 31
0.0
  0
LINE
  5
A1A
330
9E0
100
AcDbEntity
  8
0
 62
     0
100
AcDbLine
 10
28.92110582087753
 20
5.676764723255843
 30
0.0
 11
27.52110582087755
 21
7.076764723255847
 31
0.0
  0
LINE
  5
A1B
330
9E0
100
AcDbEntity
  8
0
 62
     0
100
AcDbLine
 10
24.38376511869277
 20
10.2141054254406
 30
0.0
 11
23.29849177133016
 21
11.29937877280321
 31
0.0
  0
LINE
  5
A1C
330
9E0
100
AcDbEntity
  8
0
 62
     0
100
AcDbLine
 10
30.98680973388321
 20
3.611060810250194
 30
0.0
 11
29.62287020468372
 21
4.975000339449677
 31
0.0
  0
LINE
  5
A1D
330
9E0
100
AcDbEntity
  8
0
 62
     0
100
AcDbLine
 10
24.19610582087759
 20
9.952751917202306
 30
0.0
 11
23.07943574180788
 21
11.06942199627201
 31
0.0
  0
LINE
  5
A1E
330
9E0
100
AcDbEntity
  8
0
 62
     0
100
AcDbLine
 10
30.57385739863028
 20
3.575000339449643
 30
0.0
 11
27.52110582087755
 21
6.627751917202373
 31
0.0
  0
LINE
  5
A1F
330
9E0
100
AcDbEntity
  8
0
 62
     0
100
AcDbLine
 10
24.19610582087762
 20
9.503739111148886
 30
0.0
 11
22.91355028563137
 21
10.78629464639513
 31
0.0
  0
LINE
  5
A20
330
9E0
100
AcDbEntity
  8
0
 62
     0
100
AcDbLine
 10
30.12484459257684
 20
3.575000339449643
 30
0.0
 11
27.52110582087755
 21
6.178739111148956
 31
0.0
  0
LINE
  5
A21
330
9E0
100
AcDbEntity
  8
0
 62
     0
100
AcDbLine
 10
24.29937796142949
 20
8.951454164543546
 30
0.0
 11
22.81246102594932
 21
10.43837110002368
 31
0.0
  0
LINE
  5
A22
330
9E0
100
AcDbEntity
  8
0
 62
     0
100
AcDbLine
 10
29.67583178652339
 20
3.575000339449643
 30
0.0
 11
27.52110582087755
 21
5.729726305095481
 31
0.0
  0
LINE
  5
A23
330
9E0
100
AcDbEntity
  8
0
 62
     0
100
AcDbLine
 10
26.40790767222325
 20
6.393911647696312
 30
0.0
 11
22.79610582087756
 21
10.00571349904197
 31
0.0
  0
LINE
  5
A24
330
9E0
100
AcDbEntity
  8
0
 62
     0
100
AcDbLine
 10
21.74610582087752
 20
11.05571349904201
 30
0.0
 11
21.17681898046988
 21
11.62500033944968
 31
0.0
  0
LINE
  5
A25
330
9E0
100
AcDbEntity
  8
0
 62
     0
100
AcDbLine
 10
29.22681898046992
 20
3.575000339449643
 30
0.0
 11
27.52110582087752
 21
5.280713499042008
 31
0.0
  0
LINE
  5
A26
330
9E0
100
AcDbEntity
  8
0
 62
     0
100
AcDbLine
 10
26.4711058208776
 20
5.881700692988545
 30
0.0
 11
22.79610582087759
 21
9.556700692988556
 31
0.0
  0
LINE
  5
A27
330
9E0
100
AcDbEntity
  8
0
 62
     0
100
AcDbLine
 10
21.74610582087757
 20
10.60670069298854
 30
0.0
 11
20.7278061744164
 21
11.62500033944974
 31
0.0
  0
LINE
  5
A28
330
9E0
100
AcDbEntity
  8
0
 62
     0
100
AcDbLine
 10
28.76958223504403
 20
3.583224278822115
 30
0.0
 11
27.52932976025002
 21
4.82347675361612
 31
0.0
  0
LINE
  5
A29
330
9E0
100
AcDbEntity
  8
0
 62
     0
100
AcDbLine
 10
21.74610582087757
 20
10.15768788693509
 30
0.0
 11
20.39241087698991
 21
11.51138283082272
 31
0.0
  0
LINE
  5
A2A
330
9E0
100
AcDbEntity
  8
0
 62
     0
100
AcDbLine
 10
26.47110582087757
 20
5.43268788693507
 30
0.0
 11
22.80781115481875
 21
9.095982552993916
 31
0.0
  0
LINE
  5
A2B
330
9E0
100
AcDbEntity
  8
0
 62
     0
100
AcDbLine
 10
21.74610582087757
 20
9.708675080881619
 30
0.0
 11
20.34610582087757
 21
11.10867508088159
 31
0.0
  0
LINE
  5
A2C
330
9E0
100
AcDbEntity
  8
0
 62
     0
100
AcDbLine
 10
26.47110582087752
 20
4.983675080881653
 30
0.0
 11
22.96687086373876
 21
8.487910038020428
 31
0.0
  0
LINE
  5
A2D
330
9E0
100
AcDbEntity
  8
0
 62
     0
100
AcDbLine
 10
21.74610582087757
 20
9.259662274828171
 30
0.0
 11
20.3461058208776
 21
10.65966227482815
 31
0.0
  0
LINE
  5
A2E
330
9E0
100
AcDbEntity
  8
0
 62
     0
100
AcDbLine
 10
26.41682491208303
 20
4.588943183622716
 30
0.0
 11
25.06900751756388
 21
5.93676057814187
 31
0.0
  0
LINE
  5
A2F
330
9E0
100
AcDbEntity
  8
0
 62
     0
100
AcDbLine
 10
21.74610582087757
 20
8.810649468774727
 30
0.0
 11
20.34610582087757
 21
10.2106494687747
 31
0.0
  0
LINE
  5
A30
330
9E0
100
AcDbEntity
  8
0
 62
     0
100
AcDbLine
 10
19.20036237058906
 20
11.35639291906321
 30
0.0
 11
18.93175495020262
 21
11.62500033944968
 31
0.0
  0
LINE
  5
A31
330
9E0
100
AcDbEntity
  8
0
 62
     0
100
AcDbLine
 10
26.28288705820225
 20
4.273868231450051
 30
0.0
 11
25.07110582087759
 21
5.485649468774709
 31
0.0
  0
LINE
  5
A32
330
9E0
100
AcDbEntity
  8
0
 62
     0
100
AcDbLine
 10
21.74610582087755
 20
8.361636662721252
 30
0.0
 11
20.34610582087757
 21
9.761636662721258
 31
0.0
  0
LINE
  5
A33
330
9E0
100
AcDbEntity
  8
0
 62
     0
100
AcDbLine
 10
19.10089853846276
 20
11.00684394513604
 30
0.0
 11
18.48274214414914
 21
11.62500033944968
 31
0.0
  0
LINE
  5
A34
330
9E0
100
AcDbEntity
  8
0
 62
     0
100
AcDbLine
 10
26.0913936591146
 20
4.016348824484224
 30
0.0
 11
25.02246322943435
 21
5.085279254164476
 31
0.0
  0
LINE
  5
A35
330
9E0
100
AcDbEntity
  8
0
 62
     0
100
AcDbLine
 10
21.74610582087755
 20
7.912623856667806
 30
0.0
 11
20.34610582087757
 21
9.312623856667784
 31
0.0
  0
LINE
  5
A36
330
9E0
100
AcDbEntity
  8
0
 62
     0
100
AcDbLine
 10
18.99313546500991
 20
10.66559421253541
 30
0.0
 11
18.03852768327462
 21
11.62020199427073
 31
0.0
  0
LINE
  5
A37
330
9E0
100
AcDbEntity
  8
0
 62
     0
100
AcDbLine
 10
25.84823417655679
 20
3.810495500988537
 30
0.0
 11
24.68372933809567
 21
4.975000339449677
 31
0.0
  0
LINE
  5
A38
330
9E0
100
AcDbEntity
  8
0
 62
     0
100
AcDbLine
 10
21.74610582087757
 20
7.46361105061436
 30
0.0
 11
20.34610582087757
 21
8.863611050614338
 31
0.0
  0
LINE
  5
A39
330
9E0
100
AcDbEntity
  8
0
 62
     0
100
AcDbLine
 10
18.88537239155715
 20
10.32434447993478
 30
0.0
 11
17.82137239155713
 21
11.3883444799348
 31
0.0
  0
LINE
  5
A3A
330
9E0
100
AcDbEntity
  8
0
 62
     0
100
AcDbLine
 10
25.5501922023266
 20
3.659524669165306
 30
0.0
 11
24.23471653204223
 21
4.975000339449707
 31
0.0
  0
LINE
  5
A3B
330
9E0
100
AcDbEntity
  8
0
 62
     0
100
AcDbLine
 10
21.74610582087755
 20
7.014598244560914
 30
0.0
 11
20.34610582087757
 21
8.414598244560892
 31
0.0
  0
LINE
  5
A3C
330
9E0
100
AcDbEntity
  8
0
 62
     0
100
AcDbLine
 10
18.77760931810422
 20
9.983094747334234
 30
0.0
 11
17.71360931810423
 21
11.04709474733422
 31
0.0
  0
LINE
  5
A3D
330
9E0
100
AcDbEntity
  8
0
 62
     0
100
AcDbLine
 10
25.18135587650287
 20
3.579348188935596
 30
0.0
 11
23.78570372598878
 21
4.975000339449677
 31
0.0
  0
LINE
  5
A3E
330
9E0
100
AcDbEntity
  8
0
 62
     0
100
AcDbLine
 10
21.74610582087755
 20
6.565585438507439
 30
0.0
 11
20.34610582087754
 21
7.965585438507417
 31
0.0
  0
LINE
  5
A3F
330
9E0
100
AcDbEntity
  8
0
 62
     0
100
AcDbLine
 10
18.66984624465144
 20
9.641845014733547
 30
0.0
 11
17.60584624465139
 21
10.70584501473357
 31
0.0
  0
LINE
  5
A40
330
9E0
100
AcDbEntity
  8
0
 62
     0
100
AcDbLine
 10
24.73669091993534
 20
3.575000339449643
 30
0.0
 11
23.33669091993531
 21
4.975000339449677
 31
0.0
  0
LINE
  5
A41
330
9E0
100
AcDbEntity
  8
0
 62
     0
100
AcDbLine
 10
21.74610582087755
 20
6.116572632453993
 30
0.0
 11
20.34610582087757
 21
7.516572632453999
 31
0.0
  0
LINE
  5
A42
330
9E0
100
AcDbEntity
  8
0
 62
     0
100
AcDbLine
 10
18.56208317119862
 20
9.300595282132944
 30
0.0
 11
17.49808317119857
 21
10.36459528213296
 31
0.0
  0
LINE
  5
A43
330
9E0
100
AcDbEntity
  8
0
 62
     0
100
AcDbLine
 10
24.2876781138819
 20
3.575000339449672
 30
0.0
 11
23.0708722652337
 21
4.791806188097864
 31
0.0
  0
LINE
  5
A44
330
9E0
100
AcDbEntity
  8
0
 62
     0
100
AcDbLine
 10
18.45432009774581
 20
8.959345549532256
 30
0.0
 11
17.39032009774575
 21
10.02334554953233
 31
0.0
  0
LINE
  5
A45
330
9E0
100
AcDbEntity
  8
0
 62
     0
100
AcDbLine
 10
21.74610582087755
 20
5.667559826400547
 30
0.0
 11
20.34610582087757
 21
7.067559826400525
 31
0.0
  0
LINE
  5
A46
330
9E0
100
AcDbEntity
  8
0
 62
     0
100
AcDbLine
 10
16.32110582087756
 20
11.09255982640053
 30
0.0
 11
15.78866530782841
 21
11.62500033944965
 31
0.0
  0
LINE
  5
A47
330
9E0
100
AcDbEntity
  8
0
 62
     0
100
AcDbLine
 10
23.83866530782845
 20
3.575000339449643
 30
0.0
 11
23.05860582087758
 21
4.35505982640052
 31
0.0
  0
LINE
  5
A48
330
9E0
100
AcDbEntity
  8
0
 62
     0
100
AcDbLine
 10
18.3465570242929
 20
8.618095816931711
 30
0.0
 11
17.28255702429294
 21
9.682095816931678
 31
0.0
  0
LINE
  5
A49
330
9E0
100
AcDbEntity
  8
0
 62
     0
100
AcDbLine
 10
21.74610582087755
 20
5.218547020347074
 30
0.0
 11
20.34610582087754
 21
6.618547020347079
 31
0.0
  0
LINE
  5
A4A
330
9E0
100
AcDbEntity
  8
0
 62
     0
100
AcDbLine
 10
16.32110582087756
 20
10.64354702034705
 30
0.0
 11
15.33965250177496
 21
11.62500033944965
 31
0.0
  0
LINE
  5
A4B
330
9E0
100
AcDbEntity
  8
0
 62
     0
100
AcDbLine
 10
23.38965250177495
 20
3.575000339449672
 30
0.0
 11
23.05860582087754
 21
3.906047020347044
 31
0.0
  0
LINE
  5
A4C
330
9E0
100
AcDbEntity
  8
0
 62
     0
100
AcDbLine
 10
18.23879395084009
 20
8.276846084331053
 30
0.0
 11
17.17479395084007
 21
9.340846084331076
 31
0.0
  0
LINE
  5
A4D
330
9E0
100
AcDbEntity
  8
0
 62
     0
100
AcDbLine
 10
16.32110582087753
 20
10.19453421429358
 30
0.0
 11
14.98338335642873
 21
11.53225667874241
 31
0.0
  0
LINE
  5
A4E
330
9E0
100
AcDbEntity
  8
0
 62
     0
100
AcDbLine
 10
21.74610582087752
 20
4.769534214293627
 30
0.0
 11
20.34610582087754
 21
6.169534214293604
 31
0.0
  0
LINE
  5
A4F
330
9E0
100
AcDbEntity
  8
0
 62
     0
100
AcDbLine
 10
18.13103087738727
 20
7.935596351730451
 30
0.0
 11
17.06703087738728
 21
8.999596351730446
 31
0.0
  0
LINE
  5
A50
330
9E0
100
AcDbEntity
  8
0
 62
     0
100
AcDbLine
 10
16.32110582087756
 20
9.745521408240165
 30
0.0
 11
14.92110582087753
 21
11.14552140824017
 31
0.0
  0
LINE
  5
A51
330
9E0
100
AcDbEntity
  8
0
 62
     0
100
AcDbLine
 10
21.74610582087755
 20
4.320521408240181
 30
0.0
 11
20.34610582087754
 21
5.720521408240159
 31
0.0
  0
LINE
  5
A52
330
9E0
100
AcDbEntity
  8
0
 62
     0
100
AcDbLine
 10
18.02848662269125
 20
7.589127800373005
 30
0.0
 11
16.95926780393441
 21
8.658346619129844
 31
0.0
  0
LINE
  5
A53
330
9E0
100
AcDbEntity
  8
0
 62
     0
100
AcDbLine
 10
16.32110582087756
 20
9.296508602186689
 30
0.0
 11
14.92110582087753
 21
10.69650860218672
 31
0.0
  0
LINE
  5
A54
330
9E0
100
AcDbEntity
  8
0
 62
     0
100
AcDbLine
 10
21.74610582087752
 20
3.871508602186708
 30
0.0
 11
20.34610582087754
 21
5.271508602186712
 31
0.0
  0
LINE
  5
A55
330
9E0
100
AcDbEntity
  8
0
 62
     0
100
AcDbLine
 10
18.23572330240824
 20
6.932878314602532
 30
0.0
 11
16.8139940560921
 21
8.35460756091868
 31
0.0
  0
LINE
  5
A56
330
9E0
100
AcDbEntity
  8
0
 62
     0
100
AcDbLine
 10
16.32110582087759
 20
8.847495796133188
 30
0.0
 11
14.9211058208775
 21
10.24749579613325
 31
0.0
  0
LINE
  5
A57
330
9E0
100
AcDbEntity
  8
0
 62
     0
100
AcDbLine
 10
21.57658332221135
 20
3.592018294799401
 30
0.0
 11
20.34610582087757
 21
4.822495796133209
 31
0.0
  0
LINE
  5
A58
330
9E0
100
AcDbEntity
  8
0
 62
     0
100
AcDbLine
 10
18.44295998212524
 20
6.276628828832116
 30
0.0
 11
14.92110582087753
 21
9.798482990079831
 31
0.0
  0
LINE
  5
A59
330
9E0
100
AcDbEntity
  8
0
 62
     0
100
AcDbLine
 10
13.69610582087759
 20
11.02348299007977
 30
0.0
 11
13.0945884715077
 21
11.62500033944965
 31
0.0
  0
LINE
  5
A5A
330
9E0
100
AcDbEntity
  8
0
 62
     0
100
AcDbLine
 10
21.14458847150772
 20
3.575000339449643
 30
0.0
 11
20.3461058208776
 21
4.373482990079763
 31
0.0
  0
LINE
  5
A5B
330
9E0
100
AcDbEntity
  8
0
 62
     0
100
AcDbLine
 10
18.65019666184227
 20
5.620379343061612
 30
0.0
 11
14.92110582087753
 21
9.349470184026356
 31
0.0
  0
LINE
  5
A5C
330
9E0
100
AcDbEntity
  8
0
 62
     0
100
AcDbLine
 10
13.69610582087759
 20
10.57447018402629
 30
0.0
 11
12.6455756654542
 21
11.62500033944968
 31
0.0
  0
LINE
  5
A5D
330
9E0
100
AcDbEntity
  8
0
 62
     0
100
AcDbLine
 10
20.69557566545424
 20
3.575000339449616
 30
0.0
 11
20.34610582087757
 21
3.924470184026318
 31
0.0
  0
LINE
  5
A5E
330
9E0
100
AcDbEntity
  8
0
 62
     0
100
AcDbLine
 10
13.56265247318254
 20
10.25891072566787
 30
0.0
 11
12.21254161407683
 21
11.60902158477356
 31
0.0
  0
LINE
  5
A5F
330
9E0
100
AcDbEntity
  8
0
 62
     0
100
AcDbLine
 10
18.85743334155924
 20
4.964129857291169
 30
0.0
 11
14.92110582087756
 21
8.900457377972855
 31
0.0
  0
LINE
  5
A60
330
9E0
100
AcDbEntity
  8
0
 62
     0
100
AcDbLine
 10
16.48986028204837
 20
6.882690110748597
 30
0.0
 11
14.92110582087756
 21
8.45144457191941
 31
0.0
  0
LINE
  5
A61
330
9E0
100
AcDbEntity
  8
0
 62
     0
100
AcDbLine
 10
13.14755005334731
 20
10.22500033944962
 30
0.0
 11
11.84352007928319
 21
11.52903031351377
 31
0.0
  0
LINE
  5
A62
330
9E0
100
AcDbEntity
  8
0
 62
     0
100
AcDbLine
 10
19.06467002127627
 20
4.307880371520695
 30
0.0
 11
17.01851617512221
 21
6.354034217674751
 31
0.0
  0
LINE
  5
A63
330
9E0
100
AcDbEntity
  8
0
 62
     0
100
AcDbLine
 10
16.32110582087759
 20
6.602431765865929
 30
0.0
 11
14.92110582087756
 21
8.002431765865964
 31
0.0
  0
LINE
  5
A64
330
9E0
100
AcDbEntity
  8
0
 62
     0
100
AcDbLine
 10
12.69853724729381
 20
10.22500033944968
 30
0.0
 11
11.52415937136783
 21
11.39937821537566
 31
0.0
  0
LINE
  5
A65
330
9E0
100
AcDbEntity
  8
0
 62
     0
100
AcDbLine
 10
19.18218945013157
 20
3.741348136611918
 30
0.0
 11
17.22575285483927
 21
5.697784731904249
 31
0.0
  0
LINE
  5
A66
330
9E0
100
AcDbEntity
  8
0
 62
     0
100
AcDbLine
 10
16.32110582087756
 20
6.153418959812482
 30
0.0
 11
14.92110582087753
 21
7.553418959812488
 31
0.0
  0
LINE
  5
A67
330
9E0
100
AcDbEntity
  8
0
 62
     0
100
AcDbLine
 10
12.27698049602205
 20
10.197544284668
 30
0.0
 11
11.24478488370056
 21
11.22973989698948
 31
0.0
  0
LINE
  5
A68
330
9E0
100
AcDbEntity
  8
0
 62
     0
100
AcDbLine
 10
18.8995244412404
 20
3.575000339449643
 30
0.0
 11
17.43298953455627
 21
5.041535246133776
 31
0.0
  0
LINE
  5
A69
330
9E0
100
AcDbEntity
  8
0
 62
     0
100
AcDbLine
 10
16.32110582087756
 20
5.704406153759008
 30
0.0
 11
14.92110582087753
 21
7.104406153759042
 31
0.0
  0
LINE
  5
A6A
330
9E0
100
AcDbEntity
  8
0
 62
     0
100
AcDbLine
 10
11.99105239960255
 20
10.03445957503402
 30
0.0
 11
11.00095727939467
 21
11.0245546952419
 31
0.0
  0
LINE
  5
A6B
330
9E0
100
AcDbEntity
  8
0
 62
     0
100
AcDbLine
 10
18.45051163518693
 20
3.575000339449643
 30
0.0
 11
17.64022621427327
 21
4.385285760363301
 31
0.0
  0
LINE
  5
A6C
330
9E0
100
AcDbEntity
  8
0
 62
     0
100
AcDbLine
 10
13.86382038727643
 20
7.712678781306721
 30
0.0
 11
13.10878426273456
 21
8.467714905848595
 31
0.0
  0
LINE
  5
A6D
330
9E0
100
AcDbEntity
  8
0
 62
     0
100
AcDbLine
 10
16.32110582087762
 20
5.255393347705535
 30
0.0
 11
14.92110582087756
 21
6.655393347705597
 31
0.0
  0
LINE
  5
A6E
330
9E0
100
AcDbEntity
  8
0
 62
     0
100
AcDbLine
 10
11.81299161453807
 20
9.763507554045077
 30
0.0
 11
10.79127426638905
 21
10.7852249021941
 31
0.0
  0
LINE
  5
A6F
330
9E0
100
AcDbEntity
  8
0
 62
     0
100
AcDbLine
 10
17.97633232703117
 20
3.600166841551981
 30
0.0
 11
17.85115524123552
 21
3.725343927347636
 31
0.0
  0
LINE
  5
A70
330
9E0
100
AcDbEntity
  8
0
 62
     0
100
AcDbLine
 10
13.82056355720547
 20
7.306922805324204
 30
0.0
 11
12.70302828675204
 21
8.424458075777636
 31
0.0
  0
LINE
  5
A71
330
9E0
100
AcDbEntity
  8
0
 62
     0
100
AcDbLine
 10
11.7711058208776
 20
9.356380541652072
 30
0.0
 11
10.61680475590822
 21
10.51068160662146
 31
0.0
  0
LINE
  5
A72
330
9E0
100
AcDbEntity
  8
0
 62
     0
100
AcDbLine
 10
16.32110582087759
 20
4.806380541652059
 30
0.0
 11
14.92110582087753
 21
6.20638054165215
 31
0.0
  0
LINE
  5
A73
330
9E0
100
AcDbEntity
  8
0
 62
     0
100
AcDbLine
 10
13.65463577755645
 20
7.023837778919728
 30
0.0
 11
12.41994326034756
 21
8.258530296128611
 31
0.0
  0
LINE
  5
A74
330
9E0
100
AcDbEntity
  8
0
 62
     0
100
AcDbLine
 10
11.7711058208776
 20
8.907367735598597
 30
0.0
 11
10.48151490230313
 21
10.19695865417307
 31
0.0
  0
LINE
  5
A75
330
9E0
100
AcDbEntity
  8
0
 62
     0
100
AcDbLine
 10
16.32110582087759
 20
4.357367735598614
 30
0.0
 11
14.92110582087756
 21
5.757367735598649
 31
0.0
  0
LINE
  5
A76
330
9E0
100
AcDbEntity
  8
0
 62
     0
100
AcDbLine
 10
11.7711058208776
 20
8.45835492954515
 30
0.0
 11
10.3941579658402
 21
9.83530278458258
 31
0.0
  0
LINE
  5
A77
330
9E0
100
AcDbEntity
  8
0
 62
     0
100
AcDbLine
 10
13.40371905648823
 20
6.825741693934559
 30
0.0
 11
12.2218471753624
 21
8.007613575060389
 31
0.0
  0
LINE
  5
A78
330
9E0
100
AcDbEntity
  8
0
 62
     0
100
AcDbLine
 10
9.058605820877572
 20
11.17085492954521
 30
0.0
 11
8.604460410973075
 21
11.62500033944971
 31
0.0
  0
LINE
  5
A79
330
9E0
100
AcDbEntity
  8
0
 62
     0
100
AcDbLine
 10
16.32110582087762
 20
3.908354929545167
 30
0.0
 11
14.92110582087758
 21
5.308354929545203
 31
0.0
  0
LINE
  5
A7A
330
9E0
100
AcDbEntity
  8
0
 62
     0
100
AcDbLine
 10
11.7711058208776
 20
8.009342123491705
 30
0.0
 11
10.37110582087757
 21
9.40934212349174
 31
0.0
  0
LINE
  5
A7B
330
9E0
100
AcDbEntity
  8
0
 62
     0
100
AcDbLine
 10
13.05355933527451
 20
6.7268886090948
 30
0.0
 11
12.12299409052264
 21
7.657453853846675
 31
0.0
  0
LINE
  5
A7C
330
9E0
100
AcDbEntity
  8
0
 62
     0
100
AcDbLine
 10
9.058605820877541
 20
10.72184212349174
 30
0.0
 11
8.155447604919601
 21
11.62500033944968
 31
0.0
  0
LINE
  5
A7D
330
9E0
100
AcDbEntity
  8
0
 62
     0
100
AcDbLine
 10
16.17715392024226
 20
3.603294024127051
 30
0.0
 11
14.92110582087756
 21
4.859342123491728
 31
0.0
  0
LINE
  5
A7E
330
9E0
100
AcDbEntity
  8
0
 62
     0
100
AcDbLine
 10
11.7711058208776
 20
7.560329317438231
 30
0.0
 11
10.37110582087757
 21
8.960329317438265
 31
0.0
  0
LINE
  5
A7F
330
9E0
100
AcDbEntity
  8
0
 62
     0
100
AcDbLine
 10
9.004088835742379
 20
10.32734630257346
 30
0.0
 11
7.706434798866097
 21
11.62500033944971
 31
0.0
  0
LINE
  5
A80
330
9E0
100
AcDbEntity
  8
0
 62
     0
100
AcDbLine
 10
15.75643479886617
 20
3.575000339449672
 30
0.0
 11
14.92110582087756
 21
4.410329317438282
 31
0.0
  0
LINE
  5
A81
330
9E0
100
AcDbEntity
  8
0
 62
     0
100
AcDbLine
 10
11.77110582087758
 20
7.111316511384785
 30
0.0
 11
10.37110582087754
 21
8.511316511384791
 31
0.0
  0
LINE
  5
A82
330
9E0
100
AcDbEntity
  8
0
 62
     0
100
AcDbLine
 10
8.657421992812713
 20
10.22500033944965
 30
0.0
 11
7.257421992812652
 21
11.62500033944971
 31
0.0
  0
LINE
  5
A83
330
9E0
100
AcDbEntity
  8
0
 62
     0
100
AcDbLine
 10
15.30742199281269
 20
3.575000339449643
 30
0.0
 11
14.92110582087756
 21
3.961316511384807
 31
0.0
  0
LINE
  5
A84
330
9E0
100
AcDbEntity
  8
0
 62
     0
100
AcDbLine
 10
11.7711058208776
 20
6.662303705331338
 30
0.0
 11
10.37110582087757
 21
8.062303705331371
 31
0.0
  0
LINE
  5
A85
330
9E0
100
AcDbEntity
  8
0
 62
     0
100
AcDbLine
 10
8.208409186759267
 20
10.22500033944965
 30
0.0
 11
6.825844550706817
 21
11.60756497550213
 31
0.0
  0
LINE
  5
A86
330
9E0
100
AcDbEntity
  8
0
 62
     0
100
AcDbLine
 10
13.69480459645911
 20
4.73860492974981
 30
0.0
 11
13.45971041117775
 21
4.973699115031195
 31
0.0
  0
LINE
  5
A87
330
9E0
100
AcDbEntity
  8
0
 62
     0
100
AcDbLine
 10
11.77110582087758
 20
6.213290899277864
 30
0.0
 11
10.37110582087757
 21
7.613290899277898
 31
0.0
  0
LINE
  5
A88
330
9E0
100
AcDbEntity
  8
0
 62
     0
100
AcDbLine
 10
7.759396380705823
 20
10.22500033944965
 30
0.0
 11
6.47927714646758
 21
11.50511957368789
 31
0.0
  0
LINE
  5
A89
330
9E0
100
AcDbEntity
  8
0
 62
     0
100
AcDbLine
 10
13.69610582087762
 20
4.288290899277853
 30
0.0
 11
13.00939638070579
 21
4.975000339449677
 31
0.0
  0
LINE
  5
A8A
330
9E0
100
AcDbEntity
  8
0
 62
     0
100
AcDbLine
 10
11.77110582087758
 20
5.764278093224419
 30
0.0
 11
10.3711058208776
 21
7.164278093224396
 31
0.0
  0
LINE
  5
A8B
330
9E0
100
AcDbEntity
  8
0
 62
     0
100
AcDbLine
 10
7.310383574652347
 20
10.22500033944962
 30
0.0
 11
6.197153816543959
 21
11.33823009755801
 31
0.0
  0
LINE
  5
A8C
330
9E0
100
AcDbEntity
  8
0
 62
     0
100
AcDbLine
 10
13.69610582087759
 20
3.839278093224378
 30
0.0
 11
12.56038357465235
 21
4.97500033944962
 31
0.0
  0
LINE
  5
A8D
330
9E0
100
AcDbEntity
  8
0
 62
     0
100
AcDbLine
 10
7.055237160845052
 20
10.03113394720353
 30
0.0
 11
5.968107410423583
 21
11.11826369762499
 31
0.0
  0
LINE
  5
A8E
330
9E0
100
AcDbEntity
  8
0
 62
     0
100
AcDbLine
 10
13.50223942863141
 20
3.584131679417168
 30
0.0
 11
10.3711058208776
 21
6.715265287170979
 31
0.0
  0
LINE
  5
A8F
330
9E0
100
AcDbEntity
  8
0
 62
     0
100
AcDbLine
 10
7.046105820877585
 20
9.591252481117519
 30
0.0
 11
5.791366809189042
 21
10.84599149280606
 31
0.0
  0
LINE
  5
A90
330
9E0
100
AcDbEntity
  8
0
 62
     0
100
AcDbLine
 10
13.06235796254546
 20
3.575000339449643
 30
0.0
 11
10.3711058208776
 21
6.266252481117503
 31
0.0
  0
LINE
  5
A91
330
9E0
100
AcDbEntity
  8
0
 62
     0
100
AcDbLine
 10
7.077173674945298
 20
9.111171820996304
 30
0.0
 11
5.675926758042179
 21
10.51241873789945
 31
0.0
  0
LINE
  5
A92
330
9E0
100
AcDbEntity
  8
0
 62
     0
100
AcDbLine
 10
12.61334515649196
 20
3.575000339449672
 30
0.0
 11
10.37110582087757
 21
5.817239675064029
 31
0.0
  0
LINE
  5
A93
330
9E0
100
AcDbEntity
  8
0
 62
     0
100
AcDbLine
 10
9.223293866488916
 20
6.516038823399269
 30
0.0
 11
5.646105820877607
 21
10.09322686901058
 31
0.0
  0
LINE
  5
A94
330
9E0
100
AcDbEntity
  8
0
 62
     0
100
AcDbLine
 10
12.13769630691018
 20
3.601636382978
 30
0.0
 11
10.3977418644059
 21
5.341590825482285
 31
0.0
  0
LINE
  5
A95
330
9E0
100
AcDbEntity
  8
0
 62
     0
100
AcDbLine
 10
9.319241123531524
 20
5.971078760303213
 30
0.0
 11
5.646105820877551
 21
9.644214062957187
 31
0.0
  0
LINE
  5
A96
330
9E0
100
AcDbEntity
  8
0
 62
     0
100
AcDbLine
 10
11.45079235060939
 20
3.839527533225321
 30
0.0
 11
10.63563301465319
 21
4.654686869181546
 31
0.0
  0
LINE
  5
A97
330
9E0
100
AcDbEntity
  8
0
 62
     0
100
AcDbLine
 10
9.321105820877619
 20
5.520201256903646
 30
0.0
 11
5.649888044588749
 21
9.191419033192488
 31
0.0
  0
LINE
  5
A98
330
9E0
100
AcDbEntity
  8
0
 62
     0
100
AcDbLine
 10
9.321105820877562
 20
5.071188450850228
 30
0.0
 11
5.761533423750678
 21
8.630760847977086
 31
0.0
  0
LINE
  5
A99
330
9E0
100
AcDbEntity
  8
0
 62
     0
100
AcDbLine
 10
9.284845822811604
 20
4.658435642862769
 30
0.0
 11
7.903150001002074
 21
6.040131464672298
 31
0.0
  0
LINE
  5
A9A
330
9E0
100
AcDbEntity
  8
0
 62
     0
100
AcDbLine
 10
9.16387685329718
 20
4.330391806323716
 30
0.0
 11
7.921105820877556
 21
5.573162838743343
 31
0.0
  0
LINE
  5
A9B
330
9E0
100
AcDbEntity
  8
0
 62
     0
100
AcDbLine
 10
8.982817229606297
 20
4.062438623961128
 30
0.0
 11
7.903156304727217
 21
5.142099548840207
 31
0.0
  0
LINE
  5
A9C
330
9E0
100
AcDbEntity
  8
0
 62
     0
100
AcDbLine
 10
8.74970404347286
 20
3.846539004041118
 30
0.0
 11
7.621242708064301
 21
4.975000339449707
 31
0.0
  0
LINE
  5
A9D
330
9E0
100
AcDbEntity
  8
0
 62
     0
100
AcDbLine
 10
8.463071819606454
 20
3.684158421854078
 30
0.0
 11
7.172229902010825
 21
4.975000339449677
 31
0.0
  0
LINE
  5
A9E
330
9E0
100
AcDbEntity
  8
0
 62
     0
100
AcDbLine
 10
8.110365525063484
 20
3.587851910343573
 30
0.0
 11
6.723217095957378
 21
4.975000339449677
 31
0.0
  0
LINE
  5
A9F
330
9E0
100
AcDbEntity
  8
0
 62
     0
100
AcDbLine
 10
7.674204289903912
 20
3.575000339449672
 30
0.0
 11
6.274204289903906
 21
4.975000339449677
 31
0.0
  0
LINE
  5
AA0
330
9E0
100
AcDbEntity
  8
0
 62
     0
100
AcDbLine
 10
7.225191483850494
 20
3.575000339449643
 30
0.0
 11
5.948529536441554
 21
4.851662286858612
 31
0.0
  0
LINE
  5
AA1
330
9E0
100
AcDbEntity
  8
0
 62
     0
100
AcDbLine
 10
6.77617867779699
 20
3.575000339449672
 30
0.0
 11
5.908605820877595
 21
4.442573196369068
 31
0.0
  0
LINE
  5
AA2
330
9E0
100
AcDbEntity
  8
0
 62
     0
100
AcDbLine
 10
6.327165871743574
 20
3.575000339449643
 30
0.0
 11
5.908605820877595
 21
3.993560390315622
 31
0.0
  0
LINE
  5
AA3
330
9E0
100
AcDbEntity
  8
0
 62
     0
100
AcDbLine
 10
34.31694946321105
 20
3.581566228008426
 30
0.0
 11
34.51453993231894
 21
3.779156697116319
 31
0.0
  0
LINE
  5
AA4
330
9E0
100
AcDbEntity
  8
0
 62
     0
100
AcDbLine
 10
33.86137076859887
 20
3.575000339449643
 30
0.0
 11
34.52110582087767
 21
4.234735391728463
 31
0.0
  0
LINE
  5
AA5
330
9E0
100
AcDbEntity
  8
0
 62
     0
100
AcDbLine
 10
33.4123579625454
 20
3.575000339449672
 30
0.0
 11
34.52110582087767
 21
4.683748197781909
 31
0.0
  0
LINE
  5
AA6
330
9E0
100
AcDbEntity
  8
0
 62
     0
100
AcDbLine
 10
33.1367046025035
 20
3.748359785461218
 30
0.0
 11
34.52110582087764
 21
5.132761003835383
 31
0.0
  0
LINE
  5
AA7
330
9E0
100
AcDbEntity
  8
0
 62
     0
100
AcDbLine
 10
33.1211058208776
 20
4.181773809888794
 30
0.0
 11
34.52110582087764
 21
5.5817738098888
 31
0.0
  0
LINE
  5
AA8
330
9E0
100
AcDbEntity
  8
0
 62
     0
100
AcDbLine
 10
33.12110582087763
 20
4.63078661594224
 30
0.0
 11
34.52110582087764
 21
6.030786615942275
 31
0.0
  0
LINE
  5
AA9
330
9E0
100
AcDbEntity
  8
0
 62
     0
100
AcDbLine
 10
33.1211058208776
 20
5.079799421995716
 30
0.0
 11
34.52110582087764
 21
6.479799421995749
 31
0.0
  0
LINE
  5
AAA
330
9E0
100
AcDbEntity
  8
0
 62
     0
100
AcDbLine
 10
33.1211058208776
 20
5.528812228049162
 30
0.0
 11
34.52110582087764
 21
6.928812228049196
 31
0.0
  0
LINE
  5
AAB
330
9E0
100
AcDbEntity
  8
0
 62
     0
100
AcDbLine
 10
31.33438825191024
 20
3.7420946590818
 30
0.0
 11
31.90401150124552
 21
4.311717908417108
 31
0.0
  0
LINE
  5
AAC
330
9E0
100
AcDbEntity
  8
0
 62
     0
100
AcDbLine
 10
33.1211058208776
 20
5.977825034102608
 30
0.0
 11
34.52110582087764
 21
7.377825034102642
 31
0.0
  0
LINE
  5
AAD
330
9E0
100
AcDbEntity
  8
0
 62
     0
100
AcDbLine
 10
30.71910416864884
 20
3.575823381873846
 30
0.0
 11
32.0702827784535
 21
4.92700199167848
 31
0.0
  0
LINE
  5
AAE
330
9E0
100
AcDbEntity
  8
0
 62
     0
100
AcDbLine
 10
33.1211058208776
 20
6.426837840156081
 30
0.0
 11
34.52110582087764
 21
7.826837840156088
 31
0.0
  0
LINE
  5
AAF
330
9E0
100
AcDbEntity
  8
0
 62
     0
100
AcDbLine
 10
30.26926832017122
 20
3.575000339449701
 30
0.0
 11
32.07110582087765
 21
5.376837840156098
 31
0.0
  0
LINE
  5
AB0
330
9E0
100
AcDbEntity
  8
0
 62
     0
100
AcDbLine
 10
33.1211058208776
 20
6.875850646209527
 30
0.0
 11
34.52110582087761
 21
8.275850646209562
 31
0.0
  0
LINE
  5
AB1
330
9E0
100
AcDbEntity
  8
0
 62
     0
100
AcDbLine
 10
29.82025551411775
 20
3.575000339449701
 30
0.0
 11
32.07110582087762
 21
5.825850646209572
 31
0.0
  0
LINE
  5
AB2
330
9E0
100
AcDbEntity
  8
0
 62
     0
100
AcDbLine
 10
33.1211058208776
 20
7.324863452262973
 30
0.0
 11
34.52110582087764
 21
8.724863452263008
 31
0.0
  0
LINE
  5
AB3
330
9E0
100
AcDbEntity
  8
0
 62
     0
100
AcDbLine
 10
29.37124270806427
 20
3.575000339449643
 30
0.0
 11
32.07110582087765
 21
6.274863452263018
 31
0.0
  0
LINE
  5
AB4
330
9E0
100
AcDbEntity
  8
0
 62
     0
100
AcDbLine
 10
30.61881021983709
 20
5.271580657275933
 30
0.0
 11
32.07110582087765
 21
6.723876258316464
 31
0.0
  0
LINE
  5
AB5
330
9E0
100
AcDbEntity
  8
0
 62
     0
100
AcDbLine
 10
33.1211058208776
 20
7.77387625831642
 30
0.0
 11
34.52110582087764
 21
9.173876258316454
 31
0.0
  0
LINE
  5
AB6
330
9E0
100
AcDbEntity
  8
0
 62
     0
100
AcDbLine
 10
28.92222990201086
 20
3.575000339449701
 30
0.0
 11
30.37452550305133
 21
5.027295940490148
 31
0.0
  0
LINE
  5
AB7
330
9E0
100
AcDbEntity
  8
0
 62
     0
100
AcDbLine
 10
30.67110582087756
 20
5.772889064369877
 30
0.0
 11
32.07110582087762
 21
7.172889064369941
 31
0.0
  0
LINE
  5
AB8
330
9E0
100
AcDbEntity
  8
0
 62
     0
100
AcDbLine
 10
33.12110582087758
 20
8.222889064369892
 30
0.0
 11
34.52110582087761
 21
9.622889064369926
 31
0.0
  0
LINE
  5
AB9
330
9E0
100
AcDbEntity
  8
0
 62
     0
100
AcDbLine
 10
28.52919197164593
 20
3.630975215138221
 30
0.0
 11
29.87321709595739
 21
4.975000339449707
 31
0.0
  0
LINE
  5
ABA
330
9E0
100
AcDbEntity
  8
0
 62
     0
100
AcDbLine
 10
30.67110582087756
 20
6.221901870423321
 30
0.0
 11
32.07110582087762
 21
7.621901870423386
 31
0.0
  0
LINE
  5
ABB
330
9E0
100
AcDbEntity
  8
0
 62
     0
100
AcDbLine
 10
33.12110582087758
 20
8.671901870423369
 30
0.0
 11
34.52110582087761
 21
10.07190187042337
 31
0.0
  0
LINE
  5
ABC
330
9E0
100
AcDbEntity
  8
0
 62
     0
100
AcDbLine
 10
28.21519853804085
 20
3.765994587586646
 30
0.0
 11
29.42464318272607
 21
4.975439232271867
 31
0.0
  0
LINE
  5
ABD
330
9E0
100
AcDbEntity
  8
0
 62
     0
100
AcDbLine
 10
30.67110582087756
 20
6.670914676476768
 30
0.0
 11
32.07110582087762
 21
8.070914676476832
 31
0.0
  0
LINE
  5
ABE
330
9E0
100
AcDbEntity
  8
0
 62
     0
100
AcDbLine
 10
33.1211058208776
 20
9.120914676476786
 30
0.0
 11
34.52110582087761
 21
10.52091467647682
 31
0.0
  0
LINE
  5
ABF
330
9E0
100
AcDbEntity
  8
0
 62
     0
100
AcDbLine
 10
27.95856859735832
 20
3.958377452957506
 30
0.0
 11
29.10290388836973
 21
5.102712743968936
 31
0.0
  0
LINE
  5
AC0
330
9E0
100
AcDbEntity
  8
0
 62
     0
100
AcDbLine
 10
30.67110582087756
 20
7.119927482530214
 30
0.0
 11
32.07110582087762
 21
8.519927482530306
 31
0.0
  0
LINE
  5
AC1
330
9E0
100
AcDbEntity
  8
0
 62
     0
100
AcDbLine
 10
33.12110582087758
 20
9.56992748253026
 30
0.0
 11
34.52110582087761
 21
10.96992748253029
 31
0.0
  0
LINE
  5
AC2
330
9E0
100
AcDbEntity
  8
0
 62
     0
100
AcDbLine
 10
27.75358650974576
 20
4.202408171398416
 30
0.0
 11
28.93428474916502
 21
5.383106410817703
 31
0.0
  0
LINE
  5
AC3
330
9E0
100
AcDbEntity
  8
0
 62
     0
100
AcDbLine
 10
30.67110582087754
 20
7.568940288583688
 30
0.0
 11
32.07110582087762
 21
8.968940288583752
 31
0.0
  0
LINE
  5
AC4
330
9E0
100
AcDbEntity
  8
0
 62
     0
100
AcDbLine
 10
33.12110582087758
 20
10.0189402885837
 30
0.0
 11
34.51603124410238
 21
11.41386571180854
 31
0.0
  0
LINE
  5
AC5
330
9E0
100
AcDbEntity
  8
0
 62
     0
100
AcDbLine
 10
27.60362407052876
 20
4.501458538234913
 30
0.0
 11
28.92110582087756
 21
5.818940288583717
 31
0.0
  0
LINE
  5
AC6
330
9E0
100
AcDbEntity
  8
0
 62
     0
100
AcDbLine
 10
30.67110582087759
 20
8.017953094637164
 30
0.0
 11
32.07110582087762
 21
9.417953094637196
 31
0.0
  0
LINE
  5
AC7
330
9E0
100
AcDbEntity
  8
0
 62
     0
100
AcDbLine
 10
33.12110582087758
 20
10.46795309463715
 30
0.0
 11
34.27747407156264
 21
11.62432134532221
 31
0.0
  0
LINE
  5
AC8
330
9E0
100
AcDbEntity
  8
0
 62
     0
100
AcDbLine
 10
27.52491730305053
 20
4.871764576810106
 30
0.0
 11
28.92110582087759
 21
6.267953094637164
 31
0.0
  0
LINE
  5
AC9
330
9E0
100
AcDbEntity
  8
0
 62
     0
100
AcDbLine
 10
30.67110582087759
 20
8.466965900690638
 30
0.0
 11
32.07110582087762
 21
9.866965900690644
 31
0.0
  0
LINE
  5
ACA
330
9E0
100
AcDbEntity
  8
0
 62
     0
100
AcDbLine
 10
33.1211058208776
 20
10.91696590069065
 30
0.0
 11
33.8291402596366
 21
11.62500033944965
 31
0.0
  0
LINE
  5
ACB
330
9E0
100
AcDbEntity
  8
0
 62
     0
100
AcDbLine
 10
27.52110582087758
 20
5.316965900690632
 30
0.0
 11
28.92110582087762
 21
6.716965900690667
 31
0.0
  0
LINE
  5
ACC
330
9E0
100
AcDbEntity
  8
0
 62
     0
100
AcDbLine
 10
30.67110582087759
 20
8.915978706744084
 30
0.0
 11
32.07110582087759
 21
10.31597870674412
 31
0.0
  0
LINE
  5
ACD
330
9E0
100
AcDbEntity
  8
0
 62
     0
100
AcDbLine
 10
27.52110582087758
 20
5.765978706744077
 30
0.0
 11
28.92110582087759
 21
7.165978706744112
 31
0.0
  0
LINE
  5
ACE
330
9E0
100
AcDbEntity
  8
0
 62
     0
100
AcDbLine
 10
33.12112917825132
 20
11.36600206411785
 30
0.0
 11
33.38010409620947
 21
11.62497698207596
 31
0.0
  0
LINE
  5
ACF
330
9E0
100
AcDbEntity
  8
0
 62
     0
100
AcDbLine
 10
25.36032800552161
 20
3.605200891388108
 30
0.0
 11
26.44090526893919
 21
4.685778154805716
 31
0.0
  0
LINE
  5
AD0
330
9E0
100
AcDbEntity
  8
0
 62
     0
100
AcDbLine
 10
27.52110582087755
 20
6.214991512797552
 30
0.0
 11
28.92110582087759
 21
7.614991512797588
 31
0.0
  0
LINE
  5
AD1
330
9E0
100
AcDbEntity
  8
0
 62
     0
100
AcDbLine
 10
30.67110582087756
 20
9.364991512797557
 30
0.0
 11
32.07110582087759
 21
10.76499151279759
 31
0.0
  0
LINE
  5
AD2
330
9E0
100
AcDbEntity
  8
0
 62
     0
100
AcDbLine
 10
24.8811146475297
 20
3.575000339449701
 30
0.0
 11
26.47110582087757
 21
5.16499151279754
 31
0.0
  0
LINE
  5
AD3
330
9E0
100
AcDbEntity
  8
0
 62
     0
100
AcDbLine
 10
27.52110582087758
 20
6.664004318850999
 30
0.0
 11
28.92110582087762
 21
8.064004318851003
 31
0.0
  0
LINE
  5
AD4
330
9E0
100
AcDbEntity
  8
0
 62
     0
100
AcDbLine
 10
30.67110582087759
 20
9.814004318850976
 30
0.0
 11
32.07110582087762
 21
11.21400431885101
 31
0.0
  0
LINE
  5
AD5
330
9E0
100
AcDbEntity
  8
0
 62
     0
100
AcDbLine
 10
24.43210184147623
 20
3.575000339449643
 30
0.0
 11
26.47110582087762
 21
5.614004318851017
 31
0.0
  0
LINE
  5
AD6
330
9E0
100
AcDbEntity
  8
0
 62
     0
100
AcDbLine
 10
27.52110582087758
 20
7.113017124904445
 30
0.0
 11
28.92110582087759
 21
8.513017124904479
 31
0.0
  0
LINE
  5
AD7
330
9E0
100
AcDbEntity
  8
0
 62
     0
100
AcDbLine
 10
30.67110582087756
 20
10.26301712490445
 30
0.0
 11
31.97423709346058
 21
11.56614839748747
 31
0.0
  0
LINE
  5
AD8
330
9E0
100
AcDbEntity
  8
0
 62
     0
100
AcDbLine
 10
23.98308903542278
 20
3.575000339449672
 30
0.0
 11
26.46394652067113
 21
6.055857824698022
 31
0.0
  0
LINE
  5
AD9
330
9E0
100
AcDbEntity
  8
0
 62
     0
100
AcDbLine
 10
27.52110582087755
 20
7.562029930957919
 30
0.0
 11
28.92110582087759
 21
8.962029930957951
 31
0.0
  0
LINE
  5
ADA
330
9E0
100
AcDbEntity
  8
0
 62
     0
100
AcDbLine
 10
30.67110582087756
 20
10.71202993095792
 30
0.0
 11
31.58407622936932
 21
11.62500033944968
 31
0.0
  0
LINE
  5
ADB
330
9E0
100
AcDbEntity
  8
0
 62
     0
100
AcDbLine
 10
23.53407622936931
 20
3.575000339449672
 30
0.0
 11
26.39649033535676
 21
6.437414445437099
 31
0.0
  0
LINE
  5
ADC
330
9E0
100
AcDbEntity
  8
0
 62
     0
100
AcDbLine
 10
27.52110582087758
 20
8.011042737011338
 30
0.0
 11
28.92110582087759
 21
9.411042737011372
 31
0.0
  0
LINE
  5
ADD
330
9E0
100
AcDbEntity
  8
0
 62
     0
100
AcDbLine
 10
25.07110582087762
 20
5.561042737011405
 30
0.0
 11
26.27619660689749
 21
6.766133523031242
 31
0.0
  0
LINE
  5
ADE
330
9E0
100
AcDbEntity
  8
0
 62
     0
100
AcDbLine
 10
30.67110582087759
 20
11.16104273701134
 30
0.0
 11
31.13506342331593
 21
11.62500033944971
 31
0.0
  0
LINE
  5
ADF
330
9E0
100
AcDbEntity
  8
0
 62
     0
100
AcDbLine
 10
23.14919109988142
 20
3.639128016015205
 30
0.0
 11
24.48506342331587
 21
4.97500033944965
 31
0.0
  0
LINE
  5
AE0
330
9E0
100
AcDbEntity
  8
0
 62
     0
100
AcDbLine
 10
25.06117053331397
 20
6.000120255501201
 30
0.0
 11
26.11444695446721
 21
7.053396676654442
 31
0.0
  0
LINE
  5
AE1
330
9E0
100
AcDbEntity
  8
0
 62
     0
100
AcDbLine
 10
27.52110582087761
 20
8.460055543064838
 30
0.0
 11
28.92110582087762
 21
9.860055543064873
 31
0.0
  0
LINE
  5
AE2
330
9E0
100
AcDbEntity
  8
0
 62
     0
100
AcDbLine
 10
23.05860582087758
 20
3.997555543064833
 30
0.0
 11
24.03605061726239
 21
4.97500033944965
 31
0.0
  0
LINE
  5
AE3
330
9E0
100
AcDbEntity
  8
0
 62
     0
100
AcDbLine
 10
24.92397811474453
 20
6.311940642985263
 30
0.0
 11
25.91651139550331
 21
7.304473923744041
 31
0.0
  0
LINE
  5
AE4
330
9E0
100
AcDbEntity
  8
0
 62
     0
100
AcDbLine
 10
27.52110582087758
 20
8.909068349118314
 30
0.0
 11
28.92110582087762
 21
10.30906834911835
 31
0.0
  0
LINE
  5
AE5
330
9E0
100
AcDbEntity
  8
0
 62
     0
100
AcDbLine
 10
23.05860582087758
 20
4.44656834911828
 30
0.0
 11
23.58703781120894
 21
4.975000339449677
 31
0.0
  0
LINE
  5
AE6
330
9E0
100
AcDbEntity
  8
0
 62
     0
100
AcDbLine
 10
27.52110582087761
 20
9.35808115517176
 30
0.0
 11
28.92110582087764
 21
10.75808115517176
 31
0.0
  0
LINE
  5
AE7
330
9E0
100
AcDbEntity
  8
0
 62
     0
100
AcDbLine
 10
24.703340666186
 20
6.540316000480116
 30
0.0
 11
25.69329015984718
 21
7.530265494141332
 31
0.0
  0
LINE
  5
AE8
330
9E0
100
AcDbEntity
  8
0
 62
     0
100
AcDbLine
 10
24.47883426315926
 20
6.764822403506856
 30
0.0
 11
25.46878375682041
 21
7.754771897168012
 31
0.0
  0
LINE
  5
AE9
330
9E0
100
AcDbEntity
  8
0
 62
     0
100
AcDbLine
 10
27.52110582087758
 20
9.807093961225206
 30
0.0
 11
28.92110582087762
 21
11.20709396122524
 31
0.0
  0
LINE
  5
AEA
330
9E0
100
AcDbEntity
  8
0
 62
     0
100
AcDbLine
 10
21.28901219910205
 20
3.575000339449672
 30
0.0
 11
21.7461058208776
 21
4.0320939612252
 31
0.0
  0
LINE
  5
AEB
330
9E0
100
AcDbEntity
  8
0
 62
     0
100
AcDbLine
 10
24.25432786013255
 20
6.989328806533649
 30
0.0
 11
25.24427735379368
 21
7.979278300194748
 31
0.0
  0
LINE
  5
AEC
330
9E0
100
AcDbEntity
  8
0
 62
     0
100
AcDbLine
 10
27.52110582087758
 20
10.25610676727868
 30
0.0
 11
28.82801536682828
 21
11.56301631322935
 31
0.0
  0
LINE
  5
AED
330
9E0
100
AcDbEntity
  8
0
 62
     0
100
AcDbLine
 10
20.8399993930486
 20
3.575000339449672
 30
0.0
 11
21.74610582087757
 21
4.481106767278673
 31
0.0
  0
LINE
  5
AEE
330
9E0
100
AcDbEntity
  8
0
 62
     0
100
AcDbLine
 10
24.02982145710578
 20
7.213835209560328
 30
0.0
 11
25.01977095076694
 21
8.203784703221487
 31
0.0
  0
LINE
  5
AEF
330
9E0
100
AcDbEntity
  8
0
 62
     0
100
AcDbLine
 10
27.52110582087758
 20
10.70511957333212
 30
0.0
 11
28.44098658699514
 21
11.62500033944971
 31
0.0
  0
LINE
  5
AF0
330
9E0
100
AcDbEntity
  8
0
 62
     0
100
AcDbLine
 10
20.44679215592609
 20
3.630805908380636
 30
0.0
 11
21.7461058208776
 21
4.930119573332176
 31
0.0
  0
LINE
  5
AF1
330
9E0
100
AcDbEntity
  8
0
 62
     0
100
AcDbLine
 10
23.80531505407907
 20
7.438341612587037
 30
0.0
 11
24.79526454774023
 21
8.428291106248195
 31
0.0
  0
LINE
  5
AF2
330
9E0
100
AcDbEntity
  8
0
 62
     0
100
AcDbLine
 10
27.52110582087758
 20
11.15413237938557
 30
0.0
 11
27.99197378094172
 21
11.62500033944968
 31
0.0
  0
LINE
  5
AF3
330
9E0
100
AcDbEntity
  8
0
 62
     0
100
AcDbLine
 10
20.34610582087757
 20
3.979132379385531
 30
0.0
 11
21.74610582087763
 21
5.379132379385595
 31
0.0
  0
LINE
  5
AF4
330
9E0
100
AcDbEntity
  8
0
 62
     0
100
AcDbLine
 10
23.58080865105234
 20
7.662848015613775
 30
0.0
 11
24.5707581447135
 21
8.652797509274932
 31
0.0
  0
LINE
  5
AF5
330
9E0
100
AcDbEntity
  8
0
 62
     0
100
AcDbLine
 10
20.3461058208776
 20
4.428145185439035
 30
0.0
 11
21.7461058208776
 21
5.828145185439067
 31
0.0
  0
LINE
  5
AF6
330
9E0
100
AcDbEntity
  8
0
 62
     0
100
AcDbLine
 10
23.35731670053167
 20
7.888368871146609
 30
0.0
 11
24.34930346722268
 21
8.880355637837595
 31
0.0
  0
LINE
  5
AF7
330
9E0
100
AcDbEntity
  8
0
 62
     0
100
AcDbLine
 10
20.34610582087757
 20
4.877157991492508
 30
0.0
 11
21.7461058208776
 21
6.277157991492543
 31
0.0
  0
LINE
  5
AF8
330
9E0
100
AcDbEntity
  8
0
 62
     0
100
AcDbLine
 10
25.69394816883477
 20
10.22500033944968
 30
0.0
 11
26.20860582087758
 21
10.73965799149252
 31
0.0
  0
LINE
  5
AF9
330
9E0
100
AcDbEntity
  8
0
 62
     0
100
AcDbLine
 10
19.09977770852251
 20
3.630829879137421
 30
0.0
 11
19.14460388925002
 21
3.675656059864961
 31
0.0
  0
LINE
  5
AFA
330
9E0
100
AcDbEntity
  8
0
 62
     0
100
AcDbLine
 10
23.15831561112069
 20
8.138380587789043
 30
0.0
 11
24.20813274982999
 21
9.188197726498344
 31
0.0
  0
LINE
  5
AFB
330
9E0
100
AcDbEntity
  8
0
 62
     0
100
AcDbLine
 10
20.3461058208776
 20
5.326170797545926
 30
0.0
 11
21.74610582087763
 21
6.726170797545961
 31
0.0
  0
LINE
  5
AFC
330
9E0
100
AcDbEntity
  8
0
 62
     0
100
AcDbLine
 10
25.24493536278132
 20
10.22500033944968
 30
0.0
 11
26.20860582087761
 21
11.18867079754594
 31
0.0
  0
LINE
  5
AFD
330
9E0
100
AcDbEntity
  8
0
 62
     0
100
AcDbLine
 10
18.59493536278128
 20
3.575000339449643
 30
0.0
 11
19.12782491093452
 21
4.10788988760285
 31
0.0
  0
LINE
  5
AFE
330
9E0
100
AcDbEntity
  8
0
 62
     0
100
AcDbLine
 10
22.99539847892234
 20
8.424476261644173
 30
0.0
 11
24.19610582087765
 21
9.625183603599452
 31
0.0
  0
LINE
  5
AFF
330
9E0
100
AcDbEntity
  8
0
 62
     0
100
AcDbLine
 10
20.34610582087757
 20
5.775183603599401
 30
0.0
 11
21.7461058208776
 21
7.175183603599434
 31
0.0
  0
LINE
  5
B00
330
9E0
100
AcDbEntity
  8
0
 62
     0
100
AcDbLine
 10
24.79592255672788
 20
10.22500033944968
 30
0.0
 11
26.12527135497868
 21
11.55434913770051
 31
0.0
  0
LINE
  5
B01
330
9E0
100
AcDbEntity
  8
0
 62
     0
100
AcDbLine
 10
18.14592255672784
 20
3.575000339449643
 30
0.0
 11
19.0200618374817
 21
4.449139620203538
 31
0.0
  0
LINE
  5
B02
330
9E0
100
AcDbEntity
  8
0
 62
     0
100
AcDbLine
 10
20.34610582087757
 20
6.224196409652875
 30
0.0
 11
21.7461058208776
 21
7.62419640965288
 31
0.0
  0
LINE
  5
B03
330
9E0
100
AcDbEntity
  8
0
 62
     0
100
AcDbLine
 10
22.87370744758729
 20
8.751798036362599
 30
0.0
 11
25.74690975067444
 21
11.62500033944971
 31
0.0
  0
LINE
  5
B04
330
9E0
100
AcDbEntity
  8
0
 62
     0
100
AcDbLine
 10
17.84991540140029
 20
3.728005990175602
 30
0.0
 11
18.91229876402886
 21
4.790389352804169
 31
0.0
  0
LINE
  5
B05
330
9E0
100
AcDbEntity
  8
0
 62
     0
100
AcDbLine
 10
20.34610582087757
 20
6.673209215706322
 30
0.0
 11
21.74610582087757
 21
8.073209215706356
 31
0.0
  0
LINE
  5
B06
330
9E0
100
AcDbEntity
  8
0
 62
     0
100
AcDbLine
 10
22.80435401804445
 20
9.131457412873231
 30
0.0
 11
25.29789694462096
 21
11.62500033944974
 31
0.0
  0
LINE
  5
B07
330
9E0
100
AcDbEntity
  8
0
 62
     0
100
AcDbLine
 10
17.74053569057599
 20
4.067639085404778
 30
0.0
 11
18.80453569057599
 21
5.131639085404771
 31
0.0
  0
LINE
  5
B08
330
9E0
100
AcDbEntity
  8
0
 62
     0
100
AcDbLine
 10
20.34610582087757
 20
7.122222021759767
 30
0.0
 11
21.7461058208776
 21
8.522222021759803
 31
0.0
  0
LINE
  5
B09
330
9E0
100
AcDbEntity
  8
0
 62
     0
100
AcDbLine
 10
22.79610582087761
 20
9.572222021759783
 30
0.0
 11
24.84888413856749
 21
11.62500033944968
 31
0.0
  0
LINE
  5
B0A
330
9E0
100
AcDbEntity
  8
0
 62
     0
100
AcDbLine
 10
17.63277261712318
 20
4.40888881800538
 30
0.0
 11
18.69677261712323
 21
5.4728888180054
 31
0.0
  0
LINE
  5
B0B
330
9E0
100
AcDbEntity
  8
0
 62
     0
100
AcDbLine
 10
20.3461058208776
 20
7.571234827813269
 30
0.0
 11
21.7461058208776
 21
8.971234827813248
 31
0.0
  0
LINE
  5
B0C
330
9E0
100
AcDbEntity
  8
0
 62
     0
100
AcDbLine
 10
22.79610582087759
 20
10.02123482781326
 30
0.0
 11
24.39987133251404
 21
11.62500033944968
 31
0.0
  0
LINE
  5
B0D
330
9E0
100
AcDbEntity
  8
0
 62
     0
100
AcDbLine
 10
17.52500954367031
 20
4.750138550605981
 30
0.0
 11
18.58900954367038
 21
5.814138550606031
 31
0.0
  0
LINE
  5
B0E
330
9E0
100
AcDbEntity
  8
0
 62
     0
100
AcDbLine
 10
20.3461058208776
 20
8.020247633866715
 30
0.0
 11
21.74610582087757
 21
9.420247633866722
 31
0.0
  0
LINE
  5
B0F
330
9E0
100
AcDbEntity
  8
0
 62
     0
100
AcDbLine
 10
17.41724647021749
 20
5.091388283206639
 30
0.0
 11
18.48124647021754
 21
6.155388283206661
 31
0.0
  0
LINE
  5
B10
330
9E0
100
AcDbEntity
  8
0
 62
     0
100
AcDbLine
 10
22.82276415593821
 20
10.49690596892736
 30
0.0
 11
23.92420019139988
 21
11.59834200438902
 31
0.0
  0
LINE
  5
B11
330
9E0
100
AcDbEntity
  8
0
 62
     0
100
AcDbLine
 10
15.90085852646055
 20
3.575000339449672
 30
0.0
 11
16.32110582087759
 21
3.995247633866738
 31
0.0
  0
LINE
  5
B12
330
9E0
100
AcDbEntity
  8
0
 62
     0
100
AcDbLine
 10
17.30948339676469
 20
5.432638015807242
 30
0.0
 11
18.37348339676467
 21
6.496638015807235
 31
0.0
  0
LINE
  5
B13
330
9E0
100
AcDbEntity
  8
0
 62
     0
100
AcDbLine
 10
20.3461058208776
 20
8.469260439920162
 30
0.0
 11
21.7461058208776
 21
9.86926043992014
 31
0.0
  0
LINE
  5
B14
330
9E0
100
AcDbEntity
  8
0
 62
     0
100
AcDbLine
 10
15.4518457204071
 20
3.575000339449672
 30
0.0
 11
16.32110582087762
 21
4.444260439920184
 31
0.0
  0
LINE
  5
B15
330
9E0
100
AcDbEntity
  8
0
 62
     0
100
AcDbLine
 10
17.20172032331186
 20
5.773887748407871
 30
0.0
 11
18.26572032331188
 21
6.837887748407922
 31
0.0
  0
LINE
  5
B16
330
9E0
100
AcDbEntity
  8
0
 62
     0
100
AcDbLine
 10
20.3461058208776
 20
8.918273245973637
 30
0.0
 11
21.74610582087757
 21
10.31827324597361
 31
0.0
  0
LINE
  5
B17
330
9E0
100
AcDbEntity
  8
0
 62
     0
100
AcDbLine
 10
15.04340778817925
 20
3.615575213275291
 30
0.0
 11
16.32110582087762
 21
4.893273245973631
 31
0.0
  0
LINE
  5
B18
330
9E0
100
AcDbEntity
  8
0
 62
     0
100
AcDbLine
 10
17.09395724985896
 20
6.115137481008473
 30
0.0
 11
18.15795724985903
 21
7.179137481008551
 31
0.0
  0
LINE
  5
B19
330
9E0
100
AcDbEntity
  8
0
 62
     0
100
AcDbLine
 10
20.3461058208776
 20
9.367286052027083
 30
0.0
 11
21.74610582087757
 21
10.76728605202709
 31
0.0
  0
LINE
  5
B1A
330
9E0
100
AcDbEntity
  8
0
 62
     0
100
AcDbLine
 10
14.92110582087756
 20
3.942286052027071
 30
0.0
 11
16.32110582087759
 21
5.342286052027105
 31
0.0
  0
LINE
  5
B1B
330
9E0
100
AcDbEntity
  8
0
 62
     0
100
AcDbLine
 10
16.9861941764062
 20
6.456387213609103
 30
0.0
 11
18.05019417640622
 21
7.520387213609152
 31
0.0
  0
LINE
  5
B1C
330
9E0
100
AcDbEntity
  8
0
 62
     0
100
AcDbLine
 10
20.3461058208776
 20
9.816298858080527
 30
0.0
 11
21.74610582087757
 21
11.2162988580805
 31
0.0
  0
LINE
  5
B1D
330
9E0
100
AcDbEntity
  8
0
 62
     0
100
AcDbLine
 10
14.92110582087758
 20
4.391298858080516
 30
0.0
 11
16.32110582087762
 21
5.791298858080523
 31
0.0
  0
LINE
  5
B1E
330
9E0
100
AcDbEntity
  8
0
 62
     0
100
AcDbLine
 10
16.86879478292033
 20
6.788000626176739
 30
0.0
 11
18.18394181688578
 21
8.103147660142182
 31
0.0
  0
LINE
  5
B1F
330
9E0
100
AcDbEntity
  8
0
 62
     0
100
AcDbLine
 10
20.3461058208776
 20
10.26531166413397
 30
0.0
 11
21.64796810962841
 21
11.56717395288478
 31
0.0
  0
LINE
  5
B20
330
9E0
100
AcDbEntity
  8
0
 62
     0
100
AcDbLine
 10
14.92110582087758
 20
4.840311664133962
 30
0.0
 11
16.32110582087759
 21
6.240311664133996
 31
0.0
  0
LINE
  5
B21
330
9E0
100
AcDbEntity
  8
0
 62
     0
100
AcDbLine
 10
16.52520209798663
 20
6.893420747296516
 30
0.0
 11
18.39117849660275
 21
8.759397145912629
 31
0.0
  0
LINE
  5
B22
330
9E0
100
AcDbEntity
  8
0
 62
     0
100
AcDbLine
 10
14.92110582087756
 20
5.289324470187438
 30
0.0
 11
16.32768541303076
 21
6.695904062340615
 31
0.0
  0
LINE
  5
B23
330
9E0
100
AcDbEntity
  8
0
 62
     0
100
AcDbLine
 10
20.34610582087757
 20
10.71432447018745
 30
0.0
 11
21.2567816901398
 21
11.62500033944968
 31
0.0
  0
LINE
  5
B24
330
9E0
100
AcDbEntity
  8
0
 62
     0
100
AcDbLine
 10
13.20678169013979
 20
3.575000339449643
 30
0.0
 11
13.69610582087762
 21
4.0643244701875
 31
0.0
  0
LINE
  5
B25
330
9E0
100
AcDbEntity
  8
0
 62
     0
100
AcDbLine
 10
14.92110582087756
 20
5.738337276240883
 30
0.0
 11
18.59841517631972
 21
9.415646631683046
 31
0.0
  0
LINE
  5
B26
330
9E0
100
AcDbEntity
  8
0
 62
     0
100
AcDbLine
 10
20.3461058208776
 20
11.16333727624095
 30
0.0
 11
20.80776888408633
 21
11.62500033944968
 31
0.0
  0
LINE
  5
B27
330
9E0
100
AcDbEntity
  8
0
 62
     0
100
AcDbLine
 10
12.75776888408632
 20
3.575000339449672
 30
0.0
 11
13.69610582087762
 21
4.513337276240973
 31
0.0
  0
LINE
  5
B28
330
9E0
100
AcDbEntity
  8
0
 62
     0
100
AcDbLine
 10
14.92110582087756
 20
6.187350082294329
 30
0.0
 11
18.80565185603675
 21
10.07189611745349
 31
0.0
  0
LINE
  5
B29
330
9E0
100
AcDbEntity
  8
0
 62
     0
100
AcDbLine
 10
12.31459639020792
 20
3.580840651624696
 30
0.0
 11
13.62543867907453
 21
4.891682940491278
 31
0.0
  0
LINE
  5
B2A
330
9E0
100
AcDbEntity
  8
0
 62
     0
100
AcDbLine
 10
14.92110582087756
 20
6.636362888347803
 30
0.0
 11
16.58474327197942
 21
8.300000339449667
 31
0.0
  0
LINE
  5
B2B
330
9E0
100
AcDbEntity
  8
0
 62
     0
100
AcDbLine
 10
16.96673468959977
 20
8.681991757070022
 30
0.0
 11
19.01288853575374
 21
10.72814560322396
 31
0.0
  0
LINE
  5
B2C
330
9E0
100
AcDbEntity
  8
0
 62
     0
100
AcDbLine
 10
11.93051613148444
 20
3.645773198954656
 30
0.0
 11
13.25974327197946
 21
4.975000339449677
 31
0.0
  0
LINE
  5
B2D
330
9E0
100
AcDbEntity
  8
0
 62
     0
100
AcDbLine
 10
14.92110582087758
 20
7.085375694401307
 30
0.0
 11
16.33010110623175
 21
8.494370979755442
 31
0.0
  0
LINE
  5
B2E
330
9E0
100
AcDbEntity
  8
0
 62
     0
100
AcDbLine
 10
17.17397136931674
 20
9.338241242840439
 30
0.0
 11
19.20042426165443
 21
11.36469413517815
 31
0.0
  0
LINE
  5
B2F
330
9E0
100
AcDbEntity
  8
0
 62
     0
100
AcDbLine
 10
11.59994900307123
 20
3.764218876594951
 30
0.0
 11
12.81073046592598
 21
4.975000339449707
 31
0.0
  0
LINE
  5
B30
330
9E0
100
AcDbEntity
  8
0
 62
     0
100
AcDbLine
 10
14.92110582087761
 20
7.534388500454723
 30
0.0
 11
16.32110582087762
 21
8.934388500454758
 31
0.0
  0
LINE
  5
B31
330
9E0
100
AcDbEntity
  8
0
 62
     0
100
AcDbLine
 10
17.38120804903372
 20
9.994490728610855
 30
0.0
 11
19.00341832536983
 21
11.61670100494697
 31
0.0
  0
LINE
  5
B32
330
9E0
100
AcDbEntity
  8
0
 62
     0
100
AcDbLine
 10
11.31114736098908
 20
3.924430040566193
 30
0.0
 11
12.36917829023551
 21
4.982460969812648
 31
0.0
  0
LINE
  5
B33
330
9E0
100
AcDbEntity
  8
0
 62
     0
100
AcDbLine
 10
14.92110582087758
 20
7.983401306508199
 30
0.0
 11
16.32110582087762
 21
9.383401306508233
 31
0.0
  0
LINE
  5
B34
330
9E0
100
AcDbEntity
  8
0
 62
     0
100
AcDbLine
 10
17.58844472875071
 20
10.65074021438133
 30
0.0
 11
18.56270485381907
 21
11.62500033944968
 31
0.0
  0
LINE
  5
B35
330
9E0
100
AcDbEntity
  8
0
 62
     0
100
AcDbLine
 10
11.05866987779805
 20
4.120965363428638
 30
0.0
 11
12.05202021972636
 21
5.114315705356943
 31
0.0
  0
LINE
  5
B36
330
9E0
100
AcDbEntity
  8
0
 62
     0
100
AcDbLine
 10
14.92110582087758
 20
8.432414112561643
 30
0.0
 11
16.32110582087762
 21
9.83241411256168
 31
0.0
  0
LINE
  5
B37
330
9E0
100
AcDbEntity
  8
0
 62
     0
100
AcDbLine
 10
13.25192288676584
 20
6.763231178449927
 30
0.0
 11
13.83287498187738
 21
7.344183273561469
 31
0.0
  0
LINE
  5
B38
330
9E0
100
AcDbEntity
  8
0
 62
     0
100
AcDbLine
 10
17.79568140846768
 20
11.30698970015177
 30
0.0
 11
18.11369204776562
 21
11.62500033944971
 31
0.0
  0
LINE
  5
B39
330
9E0
100
AcDbEntity
  8
0
 62
     0
100
AcDbLine
 10
10.84045134113313
 20
4.35175963281722
 30
0.0
 11
11.84689474409026
 21
5.358203035774351
 31
0.0
  0
LINE
  5
B3A
330
9E0
100
AcDbEntity
  8
0
 62
     0
100
AcDbLine
 10
12.78943646595093
 20
6.74975756368849
 30
0.0
 11
13.84634859663882
 21
7.806669694376353
 31
0.0
  0
LINE
  5
B3B
330
9E0
100
AcDbEntity
  8
0
 62
     0
100
AcDbLine
 10
14.92110582087756
 20
8.881426918615119
 30
0.0
 11
16.32110582087759
 21
10.28142691861515
 31
0.0
  0
LINE
  5
B3C
330
9E0
100
AcDbEntity
  8
0
 62
     0
100
AcDbLine
 10
10.65694172866165
 20
4.617262826399183
 30
0.0
 11
11.7711058208776
 21
5.731426918615169
 31
0.0
  0
LINE
  5
B3D
330
9E0
100
AcDbEntity
  8
0
 62
     0
100
AcDbLine
 10
12.48236318124083
 20
6.891697085031778
 30
0.0
 11
13.7044090752955
 21
8.113742979086481
 31
0.0
  0
LINE
  5
B3E
330
9E0
100
AcDbEntity
  8
0
 62
     0
100
AcDbLine
 10
14.92110582087758
 20
9.330439724668565
 30
0.0
 11
16.32110582087762
 21
10.73043972466857
 31
0.0
  0
LINE
  5
B3F
330
9E0
100
AcDbEntity
  8
0
 62
     0
100
AcDbLine
 10
10.51128297369928
 20
4.920616877490259
 30
0.0
 11
11.7711058208776
 21
6.180439724668587
 31
0.0
  0
LINE
  5
B40
330
9E0
100
AcDbEntity
  8
0
 62
     0
100
AcDbLine
 10
12.26338321774597
 20
7.121729927590422
 30
0.0
 11
13.47437623273689
 21
8.332722942581312
 31
0.0
  0
LINE
  5
B41
330
9E0
100
AcDbEntity
  8
0
 62
     0
100
AcDbLine
 10
14.92110582087758
 20
9.779452530722011
 30
0.0
 11
16.32110582087759
 21
11.17945253072204
 31
0.0
  0
LINE
  5
B42
330
9E0
100
AcDbEntity
  8
0
 62
     0
100
AcDbLine
 10
10.41071429161195
 20
5.269061001456407
 30
0.0
 11
11.7711058208776
 21
6.629452530722062
 31
0.0
  0
LINE
  5
B43
330
9E0
100
AcDbEntity
  8
0
 62
     0
100
AcDbLine
 10
12.13535785154178
 20
7.442717367439684
 30
0.0
 11
13.15338879288759
 21
8.460748308785525
 31
0.0
  0
LINE
  5
B44
330
9E0
100
AcDbEntity
  8
0
 62
     0
100
AcDbLine
 10
10.37110582087751
 20
5.678465336775444
 30
0.0
 11
11.7711058208776
 21
7.078465336775507
 31
0.0
  0
LINE
  5
B45
330
9E0
100
AcDbEntity
  8
0
 62
     0
100
AcDbLine
 10
14.92110582087756
 20
10.22846533677548
 30
0.0
 11
16.24248076670005
 21
11.54984028259798
 31
0.0
  0
LINE
  5
B46
330
9E0
100
AcDbEntity
  8
0
 62
     0
100
AcDbLine
 10
8.328107441939776
 20
3.635466957837707
 30
0.0
 11
9.260639202489642
 21
4.56799871838757
 31
0.0
  0
LINE
  5
B47
330
9E0
100
AcDbEntity
  8
0
 62
     0
100
AcDbLine
 10
12.19456439328218
 20
7.950936715233523
 30
0.0
 11
12.64516944509378
 21
8.401541767045131
 31
0.0
  0
LINE
  5
B48
330
9E0
100
AcDbEntity
  8
0
 62
     0
100
AcDbLine
 10
10.37110582087754
 20
6.12747814282889
 30
0.0
 11
11.7711058208776
 21
7.527478142828954
 31
0.0
  0
LINE
  5
B49
330
9E0
100
AcDbEntity
  8
0
 62
     0
100
AcDbLine
 10
14.92110582087758
 20
10.6774781428289
 30
0.0
 11
15.86862801749837
 21
11.62500033944971
 31
0.0
  0
LINE
  5
B4A
330
9E0
100
AcDbEntity
  8
0
 62
     0
100
AcDbLine
 10
7.818628017498297
 20
3.575000339449643
 30
0.0
 11
9.321105820877619
 21
5.077478142828964
 31
0.0
  0
LINE
  5
B4B
330
9E0
100
AcDbEntity
  8
0
 62
     0
100
AcDbLine
 10
10.37110582087754
 20
6.576490948882337
 30
0.0
 11
11.7711058208776
 21
7.976490948882426
 31
0.0
  0
LINE
  5
B4C
330
9E0
100
AcDbEntity
  8
0
 62
     0
100
AcDbLine
 10
14.92110582087756
 20
11.12649094888237
 30
0.0
 11
15.41961521144486
 21
11.62500033944968
 31
0.0
  0
LINE
  5
B4D
330
9E0
100
AcDbEntity
  8
0
 62
     0
100
AcDbLine
 10
7.369615211444852
 20
3.575000339449643
 30
0.0
 11
9.321105820877619
 21
5.52649094888244
 31
0.0
  0
LINE
  5
B4E
330
9E0
100
AcDbEntity
  8
0
 62
     0
100
AcDbLine
 10
10.37110582087751
 20
7.025503754935813
 30
0.0
 11
11.77110582087758
 21
8.425503754935872
 31
0.0
  0
LINE
  5
B4F
330
9E0
100
AcDbEntity
  8
0
 62
     0
100
AcDbLine
 10
6.920602405391378
 20
3.575000339449672
 30
0.0
 11
9.319136144597024
 21
5.973534078655317
 31
0.0
  0
LINE
  5
B50
330
9E0
100
AcDbEntity
  8
0
 62
     0
100
AcDbLine
 10
10.37110582087757
 20
7.474516560989313
 30
0.0
 11
11.7711058208776
 21
8.87451656098935
 31
0.0
  0
LINE
  5
B51
330
9E0
100
AcDbEntity
  8
0
 62
     0
100
AcDbLine
 10
13.12158959933796
 20
10.22500033944971
 30
0.0
 11
13.69610582087765
 21
10.79951656098936
 31
0.0
  0
LINE
  5
B52
330
9E0
100
AcDbEntity
  8
0
 62
     0
100
AcDbLine
 10
6.471589599337931
 20
3.575000339449672
 30
0.0
 11
9.264305226436363
 21
6.367715966548103
 31
0.0
  0
LINE
  5
B53
330
9E0
100
AcDbEntity
  8
0
 62
     0
100
AcDbLine
 10
10.37110582087757
 20
7.92352936704276
 30
0.0
 11
11.7711058208776
 21
9.323529367042764
 31
0.0
  0
LINE
  5
B54
330
9E0
100
AcDbEntity
  8
0
 62
     0
100
AcDbLine
 10
7.921105820877585
 20
5.473529367042771
 30
0.0
 11
9.153135854414301
 21
6.705559400579486
 31
0.0
  0
LINE
  5
B55
330
9E0
100
AcDbEntity
  8
0
 62
     0
100
AcDbLine
 10
12.67257679328452
 20
10.22500033944968
 30
0.0
 11
13.69610582087762
 21
11.2485293670428
 31
0.0
  0
LINE
  5
B56
330
9E0
100
AcDbEntity
  8
0
 62
     0
100
AcDbLine
 10
6.051439730914437
 20
3.603863277079625
 30
0.0
 11
7.42257679328452
 21
4.975000339449677
 31
0.0
  0
LINE
  5
B57
330
9E0
100
AcDbEntity
  8
0
 62
     0
100
AcDbLine
 10
10.37110582087754
 20
8.372542173096206
 30
0.0
 11
11.85401317376744
 21
9.855449525986101
 31
0.0
  0
LINE
  5
B58
330
9E0
100
AcDbEntity
  8
0
 62
     0
100
AcDbLine
 10
7.920026275072983
 20
5.921462627291617
 30
0.0
 11
8.998920087078289
 21
7.000356439296949
 31
0.0
  0
LINE
  5
B59
330
9E0
100
AcDbEntity
  8
0
 62
     0
100
AcDbLine
 10
12.14065663434121
 20
10.14209298655987
 30
0.0
 11
13.57937211341772
 21
11.58080846563635
 31
0.0
  0
LINE
  5
B5A
330
9E0
100
AcDbEntity
  8
0
 62
     0
100
AcDbLine
 10
5.908605820877567
 20
3.910042173096228
 30
0.0
 11
6.973563987231044
 21
4.975000339449707
 31
0.0
  0
LINE
  5
B5B
330
9E0
100
AcDbEntity
  8
0
 62
     0
100
AcDbLine
 10
7.810224765322629
 20
6.260673923594764
 30
0.0
 11
8.807799104658839
 21
7.258248262930976
 31
0.0
  0
LINE
  5
B5C
330
9E0
100
AcDbEntity
  8
0
 62
     0
100
AcDbLine
 10
10.37110582087754
 20
8.821554979149681
 30
0.0
 11
13.17455118117758
 21
11.62500033944971
 31
0.0
  0
LINE
  5
B5D
330
9E0
100
AcDbEntity
  8
0
 62
     0
100
AcDbLine
 10
5.908605820877567
 20
4.359054979149703
 30
0.0
 11
6.524551181177542
 21
4.975000339449677
 31
0.0
  0
LINE
  5
B5E
330
9E0
100
AcDbEntity
  8
0
 62
     0
100
AcDbLine
 10
7.597097351170218
 20
6.496559315495772
 30
0.0
 11
8.587046844831462
 21
7.486508809157014
 31
0.0
  0
LINE
  5
B5F
330
9E0
100
AcDbEntity
  8
0
 62
     0
100
AcDbLine
 10
10.37110582087757
 20
9.270567785203098
 30
0.0
 11
12.72553837512413
 21
11.62500033944968
 31
0.0
  0
LINE
  5
B60
330
9E0
100
AcDbEntity
  8
0
 62
     0
100
AcDbLine
 10
5.943081781887484
 20
4.842543746213038
 30
0.0
 11
6.041062414114293
 21
4.940524378439846
 31
0.0
  0
LINE
  5
B61
330
9E0
100
AcDbEntity
  8
0
 62
     0
100
AcDbLine
 10
10.38109337795586
 20
9.729568148334863
 30
0.0
 11
12.26653801199236
 21
11.61501278237139
 31
0.0
  0
LINE
  5
B62
330
9E0
100
AcDbEntity
  8
0
 62
     0
100
AcDbLine
 10
7.372590948143539
 20
6.721065718522567
 30
0.0
 11
8.362540441804725
 21
7.711015212183752
 31
0.0
  0
LINE
  5
B63
330
9E0
100
AcDbEntity
  8
0
 62
     0
100
AcDbLine
 10
10.53082509408875
 20
10.32831267052126
 30
0.0
 11
11.667793489806
 21
11.4652810662385
 31
0.0
  0
LINE
  5
B64
330
9E0
100
AcDbEntity
  8
0
 62
     0
100
AcDbLine
 10
7.148084545116802
 20
6.945572121549303
 30
0.0
 11
8.138034038777986
 21
7.93552161521049
 31
0.0
  0
LINE
  5
B65
330
9E0
100
AcDbEntity
  8
0
 62
     0
100
AcDbLine
 10
6.923578142090092
 20
7.170078524576013
 30
0.0
 11
7.913527635751278
 21
8.160028018237197
 31
0.0
  0
LINE
  5
B66
330
9E0
100
AcDbEntity
  8
0
 62
     0
100
AcDbLine
 10
6.699071739063356
 20
7.39458492760275
 30
0.0
 11
7.689021232724542
 21
8.384534421263936
 31
0.0
  0
LINE
  5
B67
330
9E0
100
AcDbEntity
  8
0
 62
     0
100
AcDbLine
 10
6.474565336036563
 20
7.619091330629429
 30
0.0
 11
7.464514829697803
 21
8.609040824290673
 31
0.0
  0
LINE
  5
B68
330
9E0
100
AcDbEntity
  8
0
 62
     0
100
AcDbLine
 10
8.631461538803362
 20
10.22500033944971
 30
0.0
 11
9.058605820877541
 21
10.65214462152389
 31
0.0
  0
LINE
  5
B69
330
9E0
100
AcDbEntity
  8
0
 62
     0
100
AcDbLine
 10
6.250100590023946
 20
7.84363939067029
 30
0.0
 11
7.240133411740174
 21
8.833672212386517
 31
0.0
  0
LINE
  5
B6A
330
9E0
100
AcDbEntity
  8
0
 62
     0
100
AcDbLine
 10
8.18244873274989
 20
10.22500033944965
 30
0.0
 11
9.058605820877602
 21
11.10115742757736
 31
0.0
  0
LINE
  5
B6B
330
9E0
100
AcDbEntity
  8
0
 62
     0
100
AcDbLine
 10
6.044366627748161
 20
8.086918234447892
 30
0.0
 11
7.075184971096205
 21
9.117736577795966
 31
0.0
  0
LINE
  5
B6C
330
9E0
100
AcDbEntity
  8
0
 62
     0
100
AcDbLine
 10
7.733435926696472
 20
10.22500033944968
 30
0.0
 11
9.01532637099703
 21
11.50689078375026
 31
0.0
  0
LINE
  5
B6D
330
9E0
100
AcDbEntity
  8
0
 62
     0
100
AcDbLine
 10
5.874136324616928
 20
8.365700737370133
 30
0.0
 11
7.046105820877585
 21
9.537670233630819
 31
0.0
  0
LINE
  5
B6E
330
9E0
100
AcDbEntity
  8
0
 62
     0
100
AcDbLine
 10
7.283189796057911
 20
10.22376701486459
 30
0.0
 11
8.684423120643003
 21
11.62500033944968
 31
0.0
  0
LINE
  5
B6F
330
9E0
100
AcDbEntity
  8
0
 62
     0
100
AcDbLine
 10
5.743789676750878
 20
8.684366895557557
 30
0.0
 11
7.047339145462673
 21
9.987916364269381
 31
0.0
  0
LINE
  5
B70
330
9E0
100
AcDbEntity
  8
0
 62
     0
100
AcDbLine
 10
5.662883695626844
 20
9.052473720486972
 30
0.0
 11
8.235410314589557
 21
11.62500033944968
 31
0.0
  0
LINE
  5
B71
330
9E0
100
AcDbEntity
  8
0
 62
     0
100
AcDbLine
 10
5.646105820877607
 20
9.484708651791178
 30
0.0
 11
7.786397508536082
 21
11.62500033944968
 31
0.0
  0
LINE
  5
B72
330
9E0
100
AcDbEntity
  8
0
 62
     0
100
AcDbLine
 10
5.646105820877579
 20
9.933721457844654
 30
0.0
 11
7.337384702482637
 21
11.62500033944968
 31
0.0
  0
LINE
  5
B73
330
9E0
100
AcDbEntity
  8
0
 62
     0
100
AcDbLine
 10
5.656201826096746
 20
10.39283026911727
 30
0.0
 11
6.878275891210051
 21
11.61490433423057
 31
0.0
  0
ENDBLK
  5
B75
330
9E0
100
AcDbEntity
  8
0
100
AcDbBlockEnd
  0
BLOCK
  5
4E6B
330
4E61
100
AcDbEntity
  8
0
100
AcDbBlockBegin
  2
*D2
 70
     1
 10
0.0
 20
0.0
 30
0.0
  3
*D2
  1

  0
LINE
  5
4F8D
330
4E61
100
AcDbEntity
  8
SUNPOU
  6
Continuous
 62
     4
370
    -2
100
AcDbLine
 10
221.3553995633089
 20
136.3260944740259
 30
0.0
 11
183.0763616175182
 21
136.326094474026
 31
0.0
  0
LINE
  5
4F8E
330
4E61
100
AcDbEntity
  8
SUNPOU
  6
Continuous
 62
     4
370
    -2
100
AcDbLine
 10
221.3553995633089
 20
69.62599447402595
 30
0.0
 11
183.0763616175182
 21
69.62599447402595
 31
0.0
  0
LINE
  5
4F8F
330
4E61
100
AcDbEntity
  8
SUNPOU
  6
Continuous
 62
     4
370
    -2
100
AcDbLine
 10
184.5763616175181
 20
133.326094474026
 30
0.0
 11
184.5763616175181
 21
72.62599447402596
 31
0.0
  0
INSERT
  5
4F90
330
4E61
100
AcDbEntity
  8
SUNPOU
  6
Continuous
 62
     4
370
    -2
100
AcDbBlockReference
  2
_OPEN
 10
184.5763616175181
 20
136.326094474026
 30
0.0
 41
3.0
 42
3.0
 43
3.0
 50
90.0
  0
INSERT
  5
4F91
330
4E61
100
AcDbEntity
  8
SUNPOU
  6
Continuous
 62
     4
370
    -2
100
AcDbBlockReference
  2
_OPEN
 10
184.5763616175181
 20
69.62599447402595
 30
0.0
 41
3.0
 42
3.0
 43
3.0
 50
270.0
  0
MTEXT
  5
4F92
330
4E61
100
AcDbEntity
  8
SUNPOU
  6
Continuous
 62
     4
100
AcDbMText
 10
182.0763616175182
 20
102.976044474026
 30
0.0
 40
3.0
 41
0.0
 71
     5
 72
     5
  1
\A1;67
 11
0.0000000000000001
 21
1.0
 31
0.0
 73
     1
 44
1.0
1001
ACAD
1000
MTEXTBEGIN
1070
    73
1070
     1
1070
    44
1040
1.0
1070
    74
1070
     0
1000
MTEXTEND
  0
POINT
  5
4F93
330
4E61
100
AcDbEntity
  8
DEFPOINTS
  6
Continuous
 62
     0
100
AcDbPoint
 10
224.3553995633089
 20
136.3260944740259
 30
0.0
  0
POINT
  5
4F94
330
4E61
100
AcDbEntity
  8
DEFPOINTS
  6
Continuous
 62
     0
100
AcDbPoint
 10
224.3553995633089
 20
69.62599447402595
 30
0.0
  0
POINT
  5
4F95
330
4E61
100
AcDbEntity
  8
DEFPOINTS
  6
Continuous
 62
     0
100
AcDbPoint
 10
184.5763616175181
 20
69.62599447402595
 30
0.0
  0
ENDBLK
  5
4E6C
330
4E61
100
AcDbEntity
  8
0
100
AcDbBlockEnd
  0
BLOCK
  5
4E77
330
4E6D
100
AcDbEntity
  8
0
100
AcDbBlockBegin
  2
*D3
 70
     1
 10
0.0
 20
0.0
 30
0.0
  3
*D3
  1

  0
LINE
  5
4FC3
330
4E6D
100
AcDbEntity
  8
SUNPOU
  6
Continuous
 62
     4
370
    -2
100
AcDbLine
 10
212.255499563309
 20
127.2260944740259
 30
0.0
 11
212.255499563309
 21
168.2263276184684
 31
0.0
  0
LINE
  5
4FC4
330
4E6D
100
AcDbEntity
  8
SUNPOU
  6
Continuous
 62
     4
370
    -2
100
AcDbLine
 10
324.955499563309
 20
117.9757944740259
 30
0.0
 11
324.955499563309
 21
168.2263276184684
 31
0.0
  0
LINE
  5
4FC5
330
4E6D
100
AcDbEntity
  8
SUNPOU
  6
Continuous
 62
     4
370
    -2
100
AcDbLine
 10
215.255499563309
 20
166.7263276184685
 30
0.0
 11
321.9554995633089
 21
166.7263276184685
 31
0.0
  0
INSERT
  5
4FC6
330
4E6D
100
AcDbEntity
  8
SUNPOU
  6
Continuous
 62
     4
370
    -2
100
AcDbBlockReference
  2
_OPEN
 10
212.255499563309
 20
166.7263276184685
 30
0.0
 41
3.0
 42
3.0
 43
3.0
 50
180.0
  0
INSERT
  5
4FC7
330
4E6D
100
AcDbEntity
  8
SUNPOU
  6
Continuous
 62
     4
370
    -2
100
AcDbBlockReference
  2
_OPEN
 10
324.955499563309
 20
166.7263276184685
 30
0.0
 41
3.0
 42
3.0
 43
3.0
  0
MTEXT
  5
4FC8
330
4E6D
100
AcDbEntity
  8
SUNPOU
  6
Continuous
 62
     4
100
AcDbMText
 10
268.605499563309
 20
169.2263276184684
 30
0.0
 40
3.0
 41
0.0
 71
     5
 72
     5
  1
\A1;113
 73
     1
 44
1.0
1001
ACAD
1000
MTEXTBEGIN
1070
    73
1070
     1
1070
    44
1040
1.0
1070
    74
1070
     0
1000
MTEXTEND
  0
POINT
  5
4FC9
330
4E6D
100
AcDbEntity
  8
DEFPOINTS
  6
Continuous
 62
     0
100
AcDbPoint
 10
212.255499563309
 20
124.2260944740259
 30
0.0
  0
POINT
  5
4FCA
330
4E6D
100
AcDbEntity
  8
DEFPOINTS
  6
Continuous
 62
     0
100
AcDbPoint
 10
324.955499563309
 20
114.9757944740259
 30
0.0
  0
POINT
  5
4FCB
330
4E6D
100
AcDbEntity
  8
DEFPOINTS
  6
Continuous
 62
     0
100
AcDbPoint
 10
324.955499563309
 20
166.7263276184685
 30
0.0
  0
ENDBLK
  5
4E78
330
4E6D
100
AcDbEntity
  8
0
100
AcDbBlockEnd
  0
BLOCK
  5
4E83
330
4E79
100
AcDbEntity
  8
0
100
AcDbBlockBegin
  2
*D4
 70
     1
 10
0.0
 20
0.0
 30
0.0
  3
*D4
  1

  0
LINE
  5
4FBA
330
4E79
100
AcDbEntity
  8
SUNPOU
  6
Continuous
 62
     4
370
    -2
100
AcDbLine
 10
279.9554995633089
 20
127.1105944740259
 30
0.0
 11
279.9554995633089
 21
159.1608847483471
 31
0.0
  0
LINE
  5
4FBB
330
4E79
100
AcDbEntity
  8
SUNPOU
  6
Continuous
 62
     4
370
    -2
100
AcDbLine
 10
212.255499563309
 20
127.2260944740259
 30
0.0
 11
212.255499563309
 21
159.1608847483471
 31
0.0
  0
LINE
  5
4FBC
330
4E79
100
AcDbEntity
  8
SUNPOU
  6
Continuous
 62
     4
370
    -2
100
AcDbLine
 10
276.955499563309
 20
157.6608847483471
 30
0.0
 11
215.255499563309
 21
157.6608847483471
 31
0.0
  0
INSERT
  5
4FBD
330
4E79
100
AcDbEntity
  8
SUNPOU
  6
Continuous
 62
     4
370
    -2
100
AcDbBlockReference
  2
_OPEN
 10
279.9554995633089
 20
157.6608847483471
 30
0.0
 41
3.0
 42
3.0
 43
3.0
  0
INSERT
  5
4FBE
330
4E79
100
AcDbEntity
  8
SUNPOU
  6
Continuous
 62
     4
370
    -2
100
AcDbBlockReference
  2
_OPEN
 10
212.255499563309
 20
157.6608847483471
 30
0.0
 41
3.0
 42
3.0
 43
3.0
 50
180.0
  0
MTEXT
  5
4FBF
330
4E79
100
AcDbEntity
  8
SUNPOU
  6
Continuous
 62
     4
100
AcDbMText
 10
246.105499563309
 20
160.1608847483471
 30
0.0
 40
3.0
 41
0.0
 71
     5
 72
     5
  1
\A1;68
 73
     1
 44
1.0
1001
ACAD
1000
MTEXTBEGIN
1070
    73
1070
     1
1070
    44
1040
1.0
1070
    74
1070
     0
1000
MTEXTEND
  0
POINT
  5
4FC0
330
4E79
100
AcDbEntity
  8
DEFPOINTS
  6
Continuous
 62
     0
100
AcDbPoint
 10
279.9554995633089
 20
124.1105944740259
 30
0.0
  0
POINT
  5
4FC1
330
4E79
100
AcDbEntity
  8
DEFPOINTS
  6
Continuous
 62
     0
100
AcDbPoint
 10
212.255499563309
 20
124.2260944740259
 30
0.0
  0
POINT
  5
4FC2
330
4E79
100
AcDbEntity
  8
DEFPOINTS
  6
Continuous
 62
     0
100
AcDbPoint
 10
212.255499563309
 20
157.6608847483471
 30
0.0
  0
ENDBLK
  5
4E84
330
4E79
100
AcDbEntity
  8
0
100
AcDbBlockEnd
  0
BLOCK
  5
4E8F
330
4E85
100
AcDbEntity
  8
0
100
AcDbBlockBegin
  2
*D5
 70
     1
 10
0.0
 20
0.0
 30
0.0
  3
*D5
  1

  0
LINE
  5
4F96
330
4E85
100
AcDbEntity
  8
SUNPOU
  6
Continuous
 62
     4
370
    -2
100
AcDbLine
 10
139.4880400828661
 20
109.4759944740259
 30
0.0
 11
139.4880400828661
 21
168.2263276184684
 31
0.0
  0
LINE
  5
4F97
330
4E85
100
AcDbEntity
  8
SUNPOU
  6
Continuous
 62
     4
370
    -2
100
AcDbLine
 10
74.48794008286616
 20
112.9760944740259
 30
0.0
 11
74.48794008286616
 21
168.2263276184684
 31
0.0
  0
LINE
  5
4F98
330
4E85
100
AcDbEntity
  8
SUNPOU
  6
Continuous
 62
     4
370
    -2
100
AcDbLine
 10
136.4880400828661
 20
166.7263276184685
 30
0.0
 11
77.48794008286616
 21
166.7263276184685
 31
0.0
  0
INSERT
  5
4F99
330
4E85
100
AcDbEntity
  8
SUNPOU
  6
Continuous
 62
     4
370
    -2
100
AcDbBlockReference
  2
_OPEN
 10
139.4880400828661
 20
166.7263276184685
 30
0.0
 41
3.0
 42
3.0
 43
3.0
  0
INSERT
  5
4F9A
330
4E85
100
AcDbEntity
  8
SUNPOU
  6
Continuous
 62
     4
370
    -2
100
AcDbBlockReference
  2
_OPEN
 10
74.48794008286616
 20
166.7263276184685
 30
0.0
 41
3.0
 42
3.0
 43
3.0
 50
180.0
  0
MTEXT
  5
4F9B
330
4E85
100
AcDbEntity
  8
SUNPOU
  6
Continuous
 62
     4
100
AcDbMText
 10
106.9879900828661
 20
169.2263276184684
 30
0.0
 40
3.0
 41
0.0
 71
     5
 72
     5
  1
\A1;65
 73
     1
 44
1.0
1001
ACAD
1000
MTEXTBEGIN
1070
    73
1070
     1
1070
    44
1040
1.0
1070
    74
1070
     0
1000
MTEXTEND
  0
POINT
  5
4F9C
330
4E85
100
AcDbEntity
  8
DEFPOINTS
  6
Continuous
 62
     0
100
AcDbPoint
 10
139.4880400828661
 20
106.4759944740259
 30
0.0
  0
POINT
  5
4F9D
330
4E85
100
AcDbEntity
  8
DEFPOINTS
  6
Continuous
 62
     0
100
AcDbPoint
 10
74.48794008286616
 20
109.9760944740259
 30
0.0
  0
POINT
  5
4F9E
330
4E85
100
AcDbEntity
  8
DEFPOINTS
  6
Continuous
 62
     0
100
AcDbPoint
 10
74.48794008286616
 20
166.7263276184685
 30
0.0
  0
ENDBLK
  5
4E90
330
4E85
100
AcDbEntity
  8
0
100
AcDbBlockEnd
  0
BLOCK
  5
4E9B
330
4E91
100
AcDbEntity
  8
0
100
AcDbBlockBegin
  2
*D6
 70
     1
 10
0.0
 20
0.0
 30
0.0
  3
*D6
  1

  0
LINE
  5
4F9F
330
4E91
100
AcDbEntity
  8
SUNPOU
  6
Continuous
 62
     4
370
    -2
100
AcDbLine
 10
130.9880400828661
 20
110.9759944740259
 30
0.0
 11
130.9880400828661
 21
158.9108847483471
 31
0.0
  0
LINE
  5
4FA0
330
4E91
100
AcDbEntity
  8
SUNPOU
  6
Continuous
 62
     4
370
    -2
100
AcDbLine
 10
82.98794008286614
 20
110.9759944740259
 30
0.0
 11
82.98794008286614
 21
158.9108847483471
 31
0.0
  0
LINE
  5
4FA1
330
4E91
100
AcDbEntity
  8
SUNPOU
  6
Continuous
 62
     4
370
    -2
100
AcDbLine
 10
127.9880400828661
 20
157.410884748347
 30
0.0
 11
85.98794008286615
 21
157.410884748347
 31
0.0
  0
INSERT
  5
4FA2
330
4E91
100
AcDbEntity
  8
SUNPOU
  6
Continuous
 62
     4
370
    -2
100
AcDbBlockReference
  2
_OPEN
 10
130.9880400828661
 20
157.410884748347
 30
0.0
 41
3.0
 42
3.0
 43
3.0
  0
INSERT
  5
4FA3
330
4E91
100
AcDbEntity
  8
SUNPOU
  6
Continuous
 62
     4
370
    -2
100
AcDbBlockReference
  2
_OPEN
 10
82.98794008286614
 20
157.410884748347
 30
0.0
 41
3.0
 42
3.0
 43
3.0
 50
180.0
  0
MTEXT
  5
4FA4
330
4E91
100
AcDbEntity
  8
SUNPOU
  6
Continuous
 62
     4
100
AcDbMText
 10
106.9879900828661
 20
159.9108847483471
 30
0.0
 40
3.0
 41
0.0
 71
     5
 72
     5
  1
\A1;48
 73
     1
 44
1.0
1001
ACAD
1000
MTEXTBEGIN
1070
    73
1070
     1
1070
    44
1040
1.0
1070
    74
1070
     0
1000
MTEXTEND
  0
POINT
  5
4FA5
330
4E91
100
AcDbEntity
  8
DEFPOINTS
  6
Continuous
 62
     0
100
AcDbPoint
 10
130.9880400828661
 20
107.9759944740259
 30
0.0
  0
POINT
  5
4FA6
330
4E91
100
AcDbEntity
  8
DEFPOINTS
  6
Continuous
 62
     0
100
AcDbPoint
 10
82.98794008286614
 20
107.9759944740259
 30
0.0
  0
POINT
  5
4FA7
330
4E91
100
AcDbEntity
  8
DEFPOINTS
  6
Continuous
 62
     0
100
AcDbPoint
 10
82.98794008286614
 20
157.410884748347
 30
0.0
  0
ENDBLK
  5
4E9C
330
4E91
100
AcDbEntity
  8
0
100
AcDbBlockEnd
  0
BLOCK
  5
4EA7
330
4E9D
100
AcDbEntity
  8
0
100
AcDbBlockBegin
  2
*D7
 70
     1
 10
0.0
 20
0.0
 30
0.0
  3
*D7
  1

  0
LINE
  5
4FA8
330
4E9D
100
AcDbEntity
  8
SUNPOU
  6
Continuous
 62
     4
370
    -2
100
AcDbLine
 10
137.4880400828661
 20
114.9759944740259
 30
0.0
 11
158.522001952917
 21
114.9759944740259
 31
0.0
  0
LINE
  5
4FA9
330
4E9D
100
AcDbEntity
  8
SUNPOU
  6
Continuous
 62
     4
370
    -2
100
AcDbLine
 10
137.4880400828661
 20
90.97599447402595
 30
0.0
 11
158.522001952917
 21
90.97599447402595
 31
0.0
  0
LINE
  5
4FAA
330
4E9D
100
AcDbEntity
  8
SUNPOU
  6
Continuous
 62
     4
370
    -2
100
AcDbLine
 10
157.022001952917
 20
111.9759944740259
 30
0.0
 11
157.022001952917
 21
93.97599447402596
 31
0.0
  0
INSERT
  5
4FAB
330
4E9D
100
AcDbEntity
  8
SUNPOU
  6
Continuous
 62
     4
370
    -2
100
AcDbBlockReference
  2
_OPEN
 10
157.022001952917
 20
114.9759944740259
 30
0.0
 41
3.0
 42
3.0
 43
3.0
 50
90.0
  0
INSERT
  5
4FAC
330
4E9D
100
AcDbEntity
  8
SUNPOU
  6
Continuous
 62
     4
370
    -2
100
AcDbBlockReference
  2
_OPEN
 10
157.022001952917
 20
90.97599447402595
 30
0.0
 41
3.0
 42
3.0
 43
3.0
 50
270.0
  0
MTEXT
  5
4FAD
330
4E9D
100
AcDbEntity
  8
SUNPOU
  6
Continuous
 62
     4
100
AcDbMText
 10
154.522001952917
 20
102.9759944740259
 30
0.0
 40
3.0
 41
0.0
 71
     5
 72
     5
  1
\A1;24
 11
0.0000000000000001
 21
1.0
 31
0.0
 73
     1
 44
1.0
1001
ACAD
1000
MTEXTBEGIN
1070
    73
1070
     1
1070
    44
1040
1.0
1070
    74
1070
     0
1000
MTEXTEND
  0
POINT
  5
4FAE
330
4E9D
100
AcDbEntity
  8
DEFPOINTS
  6
Continuous
 62
     0
100
AcDbPoint
 10
134.4880400828661
 20
114.9759944740259
 30
0.0
  0
POINT
  5
4FAF
330
4E9D
100
AcDbEntity
  8
DEFPOINTS
  6
Continuous
 62
     0
100
AcDbPoint
 10
134.4880400828661
 20
90.97599447402595
 30
0.0
  0
POINT
  5
4FB0
330
4E9D
100
AcDbEntity
  8
DEFPOINTS
  6
Continuous
 62
     0
100
AcDbPoint
 10
157.022001952917
 20
90.97599447402595
 30
0.0
  0
ENDBLK
  5
4EA8
330
4E9D
100
AcDbEntity
  8
0
100
AcDbBlockEnd
  0
BLOCK
  5
4EB3
330
4EA9
100
AcDbEntity
  8
0
100
AcDbBlockBegin
  2
*D8
 70
     1
 10
0.0
 20
0.0
 30
0.0
  3
*D8
  1

  0
LINE
  5
4FD5
330
4EA9
100
AcDbEntity
  8
SUNPOU
  6
Continuous
 62
     4
370
    -2
100
AcDbLine
 10
210.255499563309
 20
231.4609416210487
 30
0.0
 11
183.0763616175182
 21
231.4609416210488
 31
0.0
  0
LINE
  5
4FD6
330
4EA9
100
AcDbEntity
  8
SUNPOU
  6
Continuous
 62
     4
370
    -2
100
AcDbLine
 10
210.2555508946289
 20
213.4607416211951
 30
0.0
 11
183.0763616175182
 21
213.4607416211951
 31
0.0
  0
LINE
  5
4FD7
330
4EA9
100
AcDbEntity
  8
SUNPOU
  6
Continuous
 62
     4
370
    -2
100
AcDbLine
 10
184.5763616175181
 20
228.4609416210487
 30
0.0
 11
184.5763616175181
 21
216.4607416211951
 31
0.0
  0
INSERT
  5
4FD8
330
4EA9
100
AcDbEntity
  8
SUNPOU
  6
Continuous
 62
     4
370
    -2
100
AcDbBlockReference
  2
_OPEN
 10
184.5763616175181
 20
231.4609416210488
 30
0.0
 41
3.0
 42
3.0
 43
3.0
 50
90.0
  0
INSERT
  5
4FD9
330
4EA9
100
AcDbEntity
  8
SUNPOU
  6
Continuous
 62
     4
370
    -2
100
AcDbBlockReference
  2
_OPEN
 10
184.5763616175181
 20
213.4607416211951
 30
0.0
 41
3.0
 42
3.0
 43
3.0
 50
270.0
  0
MTEXT
  5
4FDA
330
4EA9
100
AcDbEntity
  8
SUNPOU
  6
Continuous
 62
     4
100
AcDbMText
 10
182.0763616175181
 20
222.460841621122
 30
0.0
 40
3.0
 41
0.0
 71
     5
 72
     5
  1
\A1;18
 11
0.0000000000000001
 21
1.0
 31
0.0
 73
     1
 44
1.0
1001
ACAD
1000
MTEXTBEGIN
1070
    73
1070
     1
1070
    44
1040
1.0
1070
    74
1070
     0
1000
MTEXTEND
  0
POINT
  5
4FDB
330
4EA9
100
AcDbEntity
  8
DEFPOINTS
  6
Continuous
 62
     0
100
AcDbPoint
 10
213.255499563309
 20
231.4609416210487
 30
0.0
  0
POINT
  5
4FDC
330
4EA9
100
AcDbEntity
  8
DEFPOINTS
  6
Continuous
 62
     0
100
AcDbPoint
 10
213.2555508946289
 20
213.4607416211951
 30
0.0
  0
POINT
  5
4FDD
330
4EA9
100
AcDbEntity
  8
DEFPOINTS
  6
Continuous
 62
     0
100
AcDbPoint
 10
184.5763616175181
 20
213.4607416211951
 30
0.0
  0
ENDBLK
  5
4EB4
330
4EA9
100
AcDbEntity
  8
0
100
AcDbBlockEnd
  0
BLOCK
  5
4EBF
330
4EB5
100
AcDbEntity
  8
0
100
AcDbBlockBegin
  2
*D9
 70
     1
 10
0.0
 20
0.0
 30
0.0
  3
*D9
  1

  0
LINE
  5
4FB1
330
4EB5
100
AcDbEntity
  8
SUNPOU
  6
Continuous
 62
     4
370
    -2
100
AcDbLine
 10
275.955392563309
 20
79.54599447402596
 30
0.0
 11
275.955392563309
 21
57.20653594636683
 31
0.0
  0
LINE
  5
4FB2
330
4EB5
100
AcDbEntity
  8
SUNPOU
  6
Continuous
 62
     4
370
    -2
100
AcDbLine
 10
324.955499563309
 20
87.97589447402595
 30
0.0
 11
324.955499563309
 21
57.20653594636683
 31
0.0
  0
LINE
  5
4FB3
330
4EB5
100
AcDbEntity
  8
SUNPOU
  6
Continuous
 62
     4
370
    -2
100
AcDbLine
 10
278.955392563309
 20
58.70653594636682
 30
0.0
 11
321.9554995633089
 21
58.70653594636682
 31
0.0
  0
INSERT
  5
4FB4
330
4EB5
100
AcDbEntity
  8
SUNPOU
  6
Continuous
 62
     4
370
    -2
100
AcDbBlockReference
  2
_OPEN
 10
275.955392563309
 20
58.70653594636682
 30
0.0
 41
3.0
 42
3.0
 43
3.0
 50
180.0
  0
INSERT
  5
4FB5
330
4EB5
100
AcDbEntity
  8
SUNPOU
  6
Continuous
 62
     4
370
    -2
100
AcDbBlockReference
  2
_OPEN
 10
324.955499563309
 20
58.70653594636682
 30
0.0
 41
3.0
 42
3.0
 43
3.0
  0
MTEXT
  5
4FB6
330
4EB5
100
AcDbEntity
  8
SUNPOU
  6
Continuous
 62
     4
100
AcDbMText
 10
300.455446063309
 20
61.20653594636682
 30
0.0
 40
3.0
 41
0.0
 71
     5
 72
     5
  1
\A1;49
 73
     1
 44
1.0
1001
ACAD
1000
MTEXTBEGIN
1070
    73
1070
     1
1070
    44
1040
1.0
1070
    74
1070
     0
1000
MTEXTEND
  0
POINT
  5
4FB7
330
4EB5
100
AcDbEntity
  8
DEFPOINTS
  6
Continuous
 62
     0
100
AcDbPoint
 10
275.955392563309
 20
82.54599447402595
 30
0.0
  0
POINT
  5
4FB8
330
4EB5
100
AcDbEntity
  8
DEFPOINTS
  6
Continuous
 62
     0
100
AcDbPoint
 10
324.955499563309
 20
90.97589447402596
 30
0.0
  0
POINT
  5
4FB9
330
4EB5
100
AcDbEntity
  8
DEFPOINTS
  6
Continuous
 62
     0
100
AcDbPoint
 10
324.955499563309
 20
58.70653594636682
 30
0.0
  0
ENDBLK
  5
4EC0
330
4EB5
100
AcDbEntity
  8
0
100
AcDbBlockEnd
  0
BLOCK
  5
4ECB
330
4EC1
100
AcDbEntity
  8
0
100
AcDbBlockBegin
  2
*D10
 70
     1
 10
0.0
 20
0.0
 30
0.0
  3
*D10
  1

  0
LINE
  5
4F84
330
4EC1
100
AcDbEntity
  8
SUNPOU
  6
Continuous
 62
     4
370
    -2
100
AcDbLine
 10
327.9554995633089
 20
114.9757944740259
 30
0.0
 11
350.660638182865
 21
114.9757944740259
 31
0.0
  0
LINE
  5
4F85
330
4EC1
100
AcDbEntity
  8
SUNPOU
  6
Continuous
 62
     4
370
    -2
100
AcDbLine
 10
327.9554995633089
 20
90.97589447402596
 30
0.0
 11
350.660638182865
 21
90.97589447402596
 31
0.0
  0
LINE
  5
4F86
330
4EC1
100
AcDbEntity
  8
SUNPOU
  6
Continuous
 62
     4
370
    -2
100
AcDbLine
 10
349.160638182865
 20
111.9757944740259
 30
0.0
 11
349.160638182865
 21
93.97589447402593
 31
0.0
  0
INSERT
  5
4F87
330
4EC1
100
AcDbEntity
  8
SUNPOU
  6
Continuous
 62
     4
370
    -2
100
AcDbBlockReference
  2
_OPEN
 10
349.160638182865
 20
114.9757944740259
 30
0.0
 41
3.0
 42
3.0
 43
3.0
 50
90.0
  0
INSERT
  5
4F88
330
4EC1
100
AcDbEntity
  8
SUNPOU
  6
Continuous
 62
     4
370
    -2
100
AcDbBlockReference
  2
_OPEN
 10
349.160638182865
 20
90.97589447402596
 30
0.0
 41
3.0
 42
3.0
 43
3.0
 50
270.0
  0
MTEXT
  5
4F89
330
4EC1
100
AcDbEntity
  8
SUNPOU
  6
Continuous
 62
     4
100
AcDbMText
 10
346.660638182865
 20
102.975844474026
 30
0.0
 40
3.0
 41
0.0
 71
     5
 72
     5
  1
\A1;24
 11
0.0000000000000001
 21
1.0
 31
0.0
 73
     1
 44
1.0
1001
ACAD
1000
MTEXTBEGIN
1070
    73
1070
     1
1070
    44
1040
1.0
1070
    74
1070
     0
1000
MTEXTEND
  0
POINT
  5
4F8A
330
4EC1
100
AcDbEntity
  8
DEFPOINTS
  6
Continuous
 62
     0
100
AcDbPoint
 10
324.955499563309
 20
114.9757944740259
 30
0.0
  0
POINT
  5
4F8B
330
4EC1
100
AcDbEntity
  8
DEFPOINTS
  6
Continuous
 62
     0
100
AcDbPoint
 10
324.955499563309
 20
90.97589447402596
 30
0.0
  0
POINT
  5
4F8C
330
4EC1
100
AcDbEntity
  8
DEFPOINTS
  6
Continuous
 62
     0
100
AcDbPoint
 10
349.160638182865
 20
90.97589447402596
 30
0.0
  0
ENDBLK
  5
4ECC
330
4EC1
100
AcDbEntity
  8
0
100
AcDbBlockEnd
  0
BLOCK
  5
4ED7
330
4ECD
100
AcDbEntity
  8
0
100
AcDbBlockBegin
  2
*D11
 70
     1
 10
0.0
 20
0.0
 30
0.0
  3
*D11
  1

  0
LINE
  5
4FCC
330
4ECD
100
AcDbEntity
  8
SUNPOU
  6
Continuous
 62
     4
370
    -2
100
AcDbLine
 10
327.9554995633089
 20
254.9609416210487
 30
0.0
 11
350.660638182865
 21
254.9609416210487
 31
0.0
  0
LINE
  5
4FCD
330
4ECD
100
AcDbEntity
  8
SUNPOU
  6
Continuous
 62
     4
370
    -2
100
AcDbLine
 10
327.9556995633089
 20
189.9609416210487
 30
0.0
 11
350.660638182865
 21
189.9609416210487
 31
0.0
  0
LINE
  5
4FCE
330
4ECD
100
AcDbEntity
  8
SUNPOU
  6
Continuous
 62
     4
370
    -2
100
AcDbLine
 10
349.160638182865
 20
251.9609416210487
 30
0.0
 11
349.160638182865
 21
192.9609416210487
 31
0.0
  0
INSERT
  5
4FCF
330
4ECD
100
AcDbEntity
  8
SUNPOU
  6
Continuous
 62
     4
370
    -2
100
AcDbBlockReference
  2
_OPEN
 10
349.160638182865
 20
254.9609416210487
 30
0.0
 41
3.0
 42
3.0
 43
3.0
 50
90.0
  0
INSERT
  5
4FD0
330
4ECD
100
AcDbEntity
  8
SUNPOU
  6
Continuous
 62
     4
370
    -2
100
AcDbBlockReference
  2
_OPEN
 10
349.160638182865
 20
189.9609416210487
 30
0.0
 41
3.0
 42
3.0
 43
3.0
 50
270.0
  0
MTEXT
  5
4FD1
330
4ECD
100
AcDbEntity
  8
SUNPOU
  6
Continuous
 62
     4
100
AcDbMText
 10
346.6606381828648
 20
222.4609416210488
 30
0.0
 40
3.0
 41
0.0
 71
     5
 72
     5
  1
\A1;65
 11
0.0000000000000001
 21
1.0
 31
0.0
 73
     1
 44
1.0
1001
ACAD
1000
MTEXTBEGIN
1070
    73
1070
     1
1070
    44
1040
1.0
1070
    74
1070
     0
1000
MTEXTEND
  0
POINT
  5
4FD2
330
4ECD
100
AcDbEntity
  8
DEFPOINTS
  6
Continuous
 62
     0
100
AcDbPoint
 10
324.955499563309
 20
254.9609416210487
 30
0.0
  0
POINT
  5
4FD3
330
4ECD
100
AcDbEntity
  8
DEFPOINTS
  6
Continuous
 62
     0
100
AcDbPoint
 10
324.9556995633089
 20
189.9609416210487
 30
0.0
  0
POINT
  5
4FD4
330
4ECD
100
AcDbEntity
  8
DEFPOINTS
  6
Continuous
 62
     0
100
AcDbPoint
 10
349.160638182865
 20
189.9609416210487
 30
0.0
  0
ENDBLK
  5
4ED8
330
4ECD
100
AcDbEntity
  8
0
100
AcDbBlockEnd
  0
BLOCK
  5
503C
330
5030
100
AcDbEntity
  8
0
100
AcDbBlockBegin
  2
*D12
 70
     1
 10
0.0
 20
0.0
 30
0.0
  3
*D12
  1

  0
LINE
  5
508D
330
5030
100
AcDbEntity
  8
SUNPOU
100
AcDbLine
 10
324.9556995633089
 20
186.9609416210487
 30
0.0
 11
324.9556995633089
 21
175.094806444571
 31
0.0
  0
LINE
  5
508E
330
5030
100
AcDbEntity
  8
SUNPOU
100
AcDbLine
 10
320.9555995633089
 20
189.9610416210487
 30
0.0
 11
320.9555995633089
 21
175.094806444571
 31
0.0
  0
LINE
  5
508F
330
5030
100
AcDbEntity
  8
SUNPOU
100
AcDbLine
 10
327.9556995633089
 20
176.5948064445711
 30
0.0
 11
330.9556995633089
 21
176.5948064445711
 31
0.0
  0
LINE
  5
5090
330
5030
100
AcDbEntity
  8
SUNPOU
100
AcDbLine
 10
317.9555995633088
 20
176.5948064445711
 30
0.0
 11
314.9555995633089
 21
176.5948064445711
 31
0.0
  0
LINE
  5
5091
330
5030
100
AcDbEntity
  8
SUNPOU
100
AcDbLine
 10
324.9556995633089
 20
176.5948064445711
 30
0.0
 11
320.9555995633089
 21
176.5948064445711
 31
0.0
  0
INSERT
  5
5092
330
5030
100
AcDbEntity
  8
SUNPOU
100
AcDbBlockReference
  2
_OPEN
 10
324.9556995633089
 20
176.5948064445711
 30
0.0
 41
3.0
 42
3.0
 43
3.0
 50
180.0
  0
INSERT
  5
5093
330
5030
100
AcDbEntity
  8
SUNPOU
100
AcDbBlockReference
  2
_OPEN
 10
320.9555995633089
 20
176.5948064445711
 30
0.0
 41
3.0
 42
3.0
 43
3.0
  0
MTEXT
  5
5094
330
5030
100
AcDbEntity
  8
SUNPOU
100
AcDbMText
 10
322.9556495633089
 20
179.0948064445711
 30
0.0
 40
3.0
 41
0.0
 71
     5
 72
     5
  1
\A1;4
 73
     1
 44
1.0
1001
ACAD
1000
MTEXTBEGIN
1070
    73
1070
     1
1070
    44
1040
1.0
1070
    74
1070
     0
1000
MTEXTEND
  0
POINT
  5
5095
330
5030
100
AcDbEntity
  8
DEFPOINTS
 62
     0
100
AcDbPoint
 10
324.9556995633089
 20
189.9609416210487
 30
0.0
  0
POINT
  5
5096
330
5030
100
AcDbEntity
  8
DEFPOINTS
 62
     0
100
AcDbPoint
 10
320.9555995633089
 20
192.9610416210487
 30
0.0
  0
POINT
  5
5097
330
5030
100
AcDbEntity
  8
DEFPOINTS
 62
     0
100
AcDbPoint
 10
320.9555995633089
 20
176.5948064445711
 30
0.0
  0
ENDBLK
  5
503D
330
5030
100
AcDbEntity
  8
0
100
AcDbBlockEnd
  0
ENDSEC
  0
SECTION
  2
ENTITIES
  0
LINE
  5
577
330
1A
100
AcDbEntity
  8
ZUWAKU
100
AcDbLine
 10
111.323300388521
 20
14.6000003394497
 30
0.0
 11
230.7121817289827
 21
14.6000003394497
 31
0.0
  0
LINE
  5
578
330
1A
100
AcDbEntity
  8
ZUWAKU
100
AcDbLine
 10
111.323300388521
 20
14.8000003394497
 30
0.0
 11
230.7121817289827
 21
14.8000003394497
 31
0.0
  0
LINE
  5
579
330
1A
100
AcDbEntity
  8
ZUWAKU
100
AcDbLine
 10
111.323300388521
 20
14.7000003394497
 30
0.0
 11
230.7121817289827
 21
14.7000003394497
 31
0.0
  0
LINE
  5
57A
330
1A
100
AcDbEntity
  8
ZUWAKU
100
AcDbLine
 10
6.999999743487022
 20
22.40000033944969
 30
0.0
 11
405.699999743487
 21
22.40000033944969
 31
0.0
  0
LINE
  5
57B
330
1A
100
AcDbEntity
  8
ZUWAKU
100
AcDbLine
 10
6.999999743487022
 20
22.30000033944969
 30
0.0
 11
405.699999743487
 21
22.30000033944969
 31
0.0
  0
LINE
  5
57C
330
1A
100
AcDbEntity
  8
ZUWAKU
100
AcDbLine
 10
6.999999743487022
 20
22.20000033944969
 30
0.0
 11
405.699999743487
 21
22.20000033944969
 31
0.0
  0
LINE
  5
57D
330
1A
100
AcDbEntity
  8
ZUWAKU
100
AcDbLine
 10
6.999999743487022
 20
22.10000033944969
 30
0.0
 11
405.699999743487
 21
22.10000033944969
 31
0.0
  0
LINE
  5
57E
330
1A
100
AcDbEntity
  8
ZUWAKU
100
AcDbLine
 10
6.999999743487022
 20
22.00000033944968
 30
0.0
 11
405.699999743487
 21
22.00000033944968
 31
0.0
  0
LWPOLYLINE
  5
57F
330
1A
100
AcDbEntity
  8
ZUWAKU
100
AcDbPolyline
 90
        4
 70
     1
 43
0.0
 10
7.099999743486988
 20
282.7000003394497
 10
7.099999743486988
 20
7.100000339449707
 10
405.699999743487
 20
7.100000339449717
 10
405.699999743487
 20
282.7000003394497
  0
LWPOLYLINE
  5
580
330
1A
100
AcDbEntity
  8
ZUWAKU
100
AcDbPolyline
 90
        4
 70
     1
 43
0.0
 10
7.299999743486977
 20
282.5000003394497
 10
7.299999743486977
 20
7.300000339449695
 10
405.4999997434871
 20
7.300000339449717
 10
405.499999743487
 20
282.5000003394497
  0
LWPOLYLINE
  5
581
330
1A
100
AcDbEntity
  8
ZUWAKU
100
AcDbPolyline
 90
        4
 70
     1
 43
0.0
 10
6.999999743487022
 20
282.8000003394497
 10
6.999999743487022
 20
7.000000339449683
 10
405.7999997434871
 20
7.000000339449718
 10
405.7999997434871
 20
282.8000003394497
  0
LWPOLYLINE
  5
582
330
1A
100
AcDbEntity
  8
ZUWAKU
100
AcDbPolyline
 90
        4
 70
     1
 43
0.0
 10
7.199999743487012
 20
282.6000003394497
 10
7.199999743487012
 20
7.200000339449728
 10
405.5999997434869
 20
7.200000339449718
 10
405.5999997434869
 20
282.6000003394497
  0
LWPOLYLINE
  5
583
330
1A
100
AcDbEntity
  8
ZUWAKU
100
AcDbPolyline
 90
        4
 70
     1
 43
0.0
 10
7.399999743487
 20
282.4000003394497
 10
7.399999743487
 20
7.400000339449717
 10
405.3999997434869
 20
7.400000339449717
 10
405.3999997434869
 20
282.4000003394497
  0
TEXT
  5
584
330
1A
100
AcDbEntity
  8
moji
100
AcDbText
 10
53.47889453757159
 20
13.37058940458706
 30
0.0
 40
3.0
  1
たてといアートフェイスＹ６０Ｈ
 41
0.9
  7
ｽﾀｲﾙ1
100
AcDbText
  0
INSERT
  5
585
330
1A
100
AcDbEntity
  8
ZUWAKU
  6
Continuous
100
AcDbBlockReference
  2
*X1
 10
7.0
 20
7.0
 30
0.0
1001
ACAD
1000
HATCH
1002
{
1070
    19
1000
ANSI37
1040
0.1
1040
0.0
1000
R14_HATCH_DATA
1000
585
1011
8.0
1021
7.0
1031
0.0
1011
7.0
1021
8.0
1031
0.0
1011
7.0
1021
7.0
1031
1.0
1040
0.0
1010
0.0
1020
0.0
1030
1.0
1000
ANSI37
1070
     0
1070
     0
1071
        8
1071
        7
1070
     1
1070
     1
1071
       24
1040
7.251131074046952
1040
8.822424579941474
1040
-0.1989123673796348
1040
7.046105820877585
1040
9.317399326771999
1040
0.0
1040
7.046105820877585
1040
9.96250033944969
1040
-0.4142135623730912
1040
7.308605820877572
1040
10.22500033944968
1040
0.0
1040
8.796105820877526
1040
10.22500033944968
1040
0.4142135623731546
1040
9.058605820877572
1040
10.48750033944968
1040
0.0
1040
9.058605820877572
1040
11.36250033944969
1040
0.4142135623731586
1040
8.796105820877526
1040
11.62500033944969
1040
0.0
1040
7.046105820877585
1040
11.62500033944969
1040
0.4142135623730928
1040
5.646105820877607
1040
10.2250003394497
1040
0.0
1040
5.646105820877607
1040
9.317399326772063
1040
0.1989123673796619
1040
6.261181580385821
1040
7.832475086280261
1040
0.0
1040
7.716080567708161
1040
6.377576098957932
1040
-0.1989123673796613
1040
7.921105820877585
1040
5.882601352127339
1040
0.0
1040
7.921105820877585
1040
5.237500339449681
1040
-0.4142135623730911
1040
7.658605820877595
1040
4.975000339449684
1040
0.0
1040
6.171105820877643
1040
4.975000339449684
1040
0.4142135623731526
1040
5.908605820877595
1040
4.71250033944969
1040
0.0
1040
5.908605820877595
1040
3.837500339449681
1040
0.4142135623731526
1040
6.171105820877643
1040
3.575000339449687
1040
0.0
1040
7.921105820877585
1040
3.575000339449687
1040
0.4142135623731045
1040
9.321105820877619
1040
4.975000339449675
1040
0.0
1040
9.321105820877619
1040
5.882601352127311
1040
0.1989123673796604
1040
8.706030061369347
1040
7.36752559261908
1040
0.0
1071
        0
1071
        7
1070
     1
1070
     1
1071
       16
1040
11.7711058208776
1040
9.52500033944969
1040
-0.4142135623730935
1040
12.47110582087759
1040
10.22500033944968
1040
0.0
1040
13.43360582087757
1040
10.22500033944968
1040
0.4142135623731546
1040
13.69610582087762
1040
10.48750033944968
1040
0.0
1040
13.69610582087762
1040
11.36250033944969
1040
0.4142135623730951
1040
13.43360582087763
1040
11.62500033944969
1040
0.0
1040
12.47110582087754
1040
11.62500033944966
1040
0.4142135623730893
1040
10.37110582087757
1040
9.525000339449654
1040
0.0
1040
10.37110582087757
1040
5.675000339449699
1040
0.4142135623730969
1040
12.47110582087759
1040
3.575000339449687
1040
0.0
1040
13.43360582087757
1040
3.575000339449687
1040
0.4142135623731526
1040
13.69610582087762
1040
3.837500339449681
1040
0.0
1040
13.69610582087762
1040
4.71250033944969
1040
0.4142135623730891
1040
13.43360582087763
1040
4.975000339449684
1040
0.0
1040
12.47110582087759
1040
4.975000339449684
1040
-0.4142135623730928
1040
11.7711058208776
1040
5.675000339449678
1040
0.0
1071
        0
1071
        7
1070
     1
1070
     1
1071
        2
1040
12.12110582087757
1040
7.600000339449684
1040
1.0
1040
13.87110582087757
1040
7.600000339449684
1040
1.0
1071
        0
1071
        7
1070
     1
1070
     1
1071
       26
1040
18.65742906196658
1040
9.602523936231401
1040
0.0
1040
19.18824887853548
1040
11.28345335536619
1040
0.5069206636600134
1040
18.93793342893781
1040
11.62500033944969
1040
0.0
1040
18.08848873913319
1040
11.62500033944969
1040
0.3272098845218764
1040
17.83817328953552
1040
11.44154732353317
1040
0.0
1040
16.90403835221963
1040
8.483453355366226
1040
-0.3272098845219541
1040
16.65372290262189
1040
8.300000339449685
1040
0.0
1040
16.58360582087766
1040
8.300000339449685
1040
-0.4142135623731526
1040
16.32110582087762
1040
8.562500339449679
1040
0.0
1040
16.32110582087762
1040
11.36250033944969
1040
0.4142135623730951
1040
16.05860582087763
1040
11.62500033944969
1040
0.0
1040
15.18360582087757
1040
11.62500033944969
1040
0.4142135623730871
1040
14.92110582087758
1040
11.36250033944969
1040
0.0
1040
14.92110582087758
1040
3.837500339449681
1040
0.4142135623730891
1040
15.18360582087757
1040
3.575000339449687
1040
0.0
1040
16.05860582087757
1040
3.575000339449687
1040
0.4142135623731526
1040
16.32110582087762
1040
3.837500339449681
1040
0.0
1040
16.32110582087762
1040
6.637500339449692
1040
-0.4142135623731526
1040
16.58360582087766
1040
6.900000339449687
1040
0.0
1040
16.65372290262195
1040
6.900000339449687
1040
-0.3272098845218915
1040
16.90403835221963
1040
6.716547323533147
1040
0.0
1040
17.83817328953552
1040
3.758453355366221
1040
0.3272098845218902
1040
18.08848873913319
1040
3.575000339449687
1040
0.0
1040
18.93793342893781
1040
3.575000339449687
1040
0.5069206636600336
1040
19.18824887853548
1040
3.91654732353319
1040
0.0
1040
18.02505318929866
1040
7.600000339449755
1040
0.0
1071
        0
1071
        7
1070
     1
1070
     1
1071
        8
1040
21.74610582087757
1040
11.36250033944969
1040
0.4142135623731546
1040
21.48360582087753
1040
11.62500033944969
1040
0.0
1040
20.60860582087764
1040
11.62500033944969
1040
0.4142135623731507
1040
20.3461058208776
1040
11.36250033944969
1040
0.0
1040
20.3461058208776
1040
3.837500339449681
1040
0.4142135623731526
1040
20.60860582087764
1040
3.575000339449687
1040
0.0
1040
21.48360582087753
1040
3.575000339449687
1040
0.4142135623731526
1040
21.74610582087757
1040
3.837500339449681
1040
0.0
1071
        0
1071
        7
1070
     1
1070
     1
1071
       24
1040
24.19610582087762
1040
9.96250033944969
1040
-0.4142135623731546
1040
24.45860582087767
1040
10.22500033944968
1040
0.0
1040
25.94610582087762
1040
10.22500033944968
1040
0.4142135623730911
1040
26.20860582087761
1040
10.48750033944968
1040
0.0
1040
26.20860582087761
1040
11.36250033944969
1040
0.4142135623730952
1040
25.94610582087762
1040
11.62500033944969
1040
0.0
1040
24.19610582087762
1040
11.62500033944969
1040
0.4142135623731048
1040
22.79610582087759
1040
10.2250003394497
1040
0.0
1040
22.79610582087759
1040
9.317399326772063
1040
0.1989123673796613
1040
23.41118158038586
1040
7.83247508628029
1040
0.0
1040
24.86608056770819
1040
6.377576098957955
1040
-0.1989123673796402
1040
25.07110582087762
1040
5.882601352127418
1040
0.0
1040
25.07110582087762
1040
5.237500339449681
1040
-0.4142135623730911
1040
24.80860582087763
1040
4.975000339449684
1040
0.0
1040
23.32110582087762
1040
4.975000339449684
1040
0.4142135623731526
1040
23.05860582087758
1040
4.71250033944969
1040
0.0
1040
23.05860582087758
1040
3.837500339449681
1040
0.4142135623730891
1040
23.32110582087755
1040
3.575000339449687
1040
0.0
1040
25.07110582087762
1040
3.575000339449687
1040
0.4142135623730925
1040
26.4711058208776
1040
4.975000339449675
1040
0.0
1040
26.4711058208776
1040
5.882601352127311
1040
0.1989123673796675
1040
25.85603006136933
1040
7.367525592619137
1040
0.0
1040
24.40113107404704
1040
8.822424579941396
1040
-0.1989123673796652
1040
24.19610582087762
1040
9.31739932677198
1040
0.0
1071
        0
1071
        7
1070
     1
1070
     1
1071
       16
1040
28.92110582087759
1040
11.36250033944968
1040
0.414213562373103
1040
28.6586058208776
1040
11.62500033944969
1040
0.0
1040
27.7836058208776
1040
11.62500033944969
1040
0.4142135623730871
1040
27.52110582087761
1040
11.36250033944969
1040
0.0
1040
27.52110582087761
1040
4.975000339449675
1040
0.4142135623730927
1040
28.92110582087759
1040
3.575000339449687
1040
0.0
1040
30.67110582087759
1040
3.575000339449687
1040
0.4142135623731045
1040
32.07110582087762
1040
4.975000339449675
1040
0.0
1040
32.07110582087762
1040
11.36250033944969
1040
0.4142135623730951
1040
31.80860582087763
1040
11.62500033944969
1040
0.0
1040
30.93360582087758
1040
11.62500033944969
1040
0.4142135623730871
1040
30.67110582087759
1040
11.36250033944969
1040
0.0
1040
30.67110582087759
1040
5.500000339449672
1040
-0.4142135623730879
1040
30.14610582087761
1040
4.975000339449684
1040
0.0
1040
29.44610582087762
1040
4.975000339449684
1040
-0.4142135623731197
1040
28.92110582087759
1040
5.500000339449672
1040
0.0
1071
        0
1071
        7
1070
     1
1070
     1
1071
        8
1040
34.52110582087761
1040
11.36250033944969
1040
0.4142135623730871
1040
34.25860582087762
1040
11.62500033944969
1040
0.0
1040
33.38360582087762
1040
11.62500033944969
1040
0.4142135623731507
1040
33.12110582087758
1040
11.36250033944969
1040
0.0
1040
33.12110582087758
1040
3.837500339449681
1040
0.4142135623730891
1040
33.38360582087755
1040
3.575000339449687
1040
0.0
1040
34.25860582087762
1040
3.575000339449687
1040
0.4142135623730891
1040
34.52110582087761
1040
3.837500339449681
1040
0.0
1071
        0
1070
     0
1070
     1
1040
0.0
1040
0.1
1070
     0
1070
     2
1040
0.7853981633974483
1040
-450.4711524238524
1040
-6.59999966055028
1040
-0.2245064030267288
1040
0.2245064030267288
1070
     0
1040
2.356194490192344
1040
-450.4711524238524
1040
-6.59999966055028
1040
-0.2245064030267288
1040
-0.2245064030267288
1070
     0
1040
0.057451373970553
1071
        8
1040
8.039927224998677
1040
7.58358716239246
1040
0.0
1040
11.20225724670661
1040
9.42203143067519
1040
0.0
1040
12.58218368631685
1040
7.755941162485044
1040
0.0
1040
15.45702973430559
1040
8.100649162670434
1040
0.0
1040
20.91923575296539
1040
8.330455296441241
1040
0.0
1040
23.4491001910518
1040
9.709288497653288
1040
0.0
1040
28.2788427296872
1040
9.364579296997193
1040
0.0
1040
33.91353955329839
1040
9.594385430767999
1040
0.0
1002
}
  0
LINE
  5
586
330
1A
100
AcDbEntity
  8
ZUWAKU
100
AcDbLine
 10
19.47110582087759
 20
18.62500033944966
 30
0.0
 11
20.43360582087757
 21
18.62500033944969
 31
0.0
  0
LINE
  5
587
330
1A
100
AcDbEntity
  8
ZUWAKU
100
AcDbLine
 10
20.43360582087757
 20
17.22500033944968
 30
0.0
 11
19.47110582087759
 21
17.22500033944968
 31
0.0
  0
LINE
  5
588
330
1A
100
AcDbEntity
  8
ZUWAKU
100
AcDbLine
 10
19.47110582087759
 20
11.97500033944968
 30
0.0
 11
20.43360582087757
 21
11.97500033944968
 31
0.0
  0
LINE
  5
589
330
1A
100
AcDbEntity
  8
ZUWAKU
100
AcDbLine
 10
20.43360582087757
 20
10.57500033944968
 30
0.0
 11
19.47110582087759
 21
10.57500033944968
 31
0.0
  0
CIRCLE
  5
58A
330
1A
100
AcDbEntity
  8
ZUWAKU
100
AcDbCircle
 10
19.99610582087757
 20
14.60000033944968
 30
0.0
 40
0.875
  0
ARC
  5
58B
330
1A
100
AcDbEntity
  8
ZUWAKU
100
AcDbCircle
 10
14.74610582087757
 20
16.31739932677203
 30
0.0
 40
0.7
100
AcDbArc
 50
180.0000000000016
 51
224.9999999999988
  0
LINE
  5
58C
330
1A
100
AcDbEntity
  8
ZUWAKU
100
AcDbLine
 10
18.77110582087761
 20
16.52500033944968
 30
0.0
 11
18.77110582087761
 21
12.67500033944969
 31
0.0
  0
LINE
  5
58D
330
1A
100
AcDbEntity
  8
ZUWAKU
100
AcDbLine
 10
17.37110582087757
 20
12.67500033944969
 30
0.0
 11
17.37110582087757
 21
16.52500033944966
 31
0.0
  0
ARC
  5
58E
330
1A
100
AcDbEntity
  8
ZUWAKU
100
AcDbCircle
 10
14.74610582087757
 20
16.31739932677203
 30
0.0
 40
2.099999999999999
100
AcDbArc
 50
180.0
 51
225.0
  0
ARC
  5
58F
330
1A
100
AcDbEntity
  8
ZUWAKU
100
AcDbCircle
 10
14.92110582087758
 20
11.97500033944968
 30
0.0
 40
1.399999999999999
100
AcDbArc
 50
270.0
 51
0.0
  0
ARC
  5
590
330
1A
100
AcDbEntity
  8
ZUWAKU
100
AcDbCircle
 10
19.47110582087759
 20
12.67500033944969
 30
0.0
 40
2.099999999999999
100
AcDbArc
 50
180.0
 51
270.0
  0
ARC
  5
591
330
1A
100
AcDbEntity
  8
ZUWAKU
100
AcDbCircle
 10
14.2211058208776
 20
12.88260135212734
 30
0.0
 40
2.099999999999999
100
AcDbArc
 50
0.0
 51
45.0
  0
LINE
  5
592
330
1A
100
AcDbEntity
  8
ZUWAKU
100
AcDbLine
 10
15.70603006136934
 20
14.3675255926191
 30
0.0
 11
14.25113107404701
 21
15.82242457994144
 31
0.0
  0
LINE
  5
593
330
1A
100
AcDbEntity
  8
ZUWAKU
100
AcDbLine
 10
14.92110582087758
 20
12.23750033944969
 30
0.0
 11
14.92110582087758
 21
12.88260135212736
 31
0.0
  0
ARC
  5
594
330
1A
100
AcDbEntity
  8
ZUWAKU
100
AcDbCircle
 10
14.65860582087759
 20
12.23750033944969
 30
0.0
 40
0.2625
100
AcDbArc
 50
270.0
 51
0.0
  0
ARC
  5
595
330
1A
100
AcDbEntity
  8
ZUWAKU
100
AcDbCircle
 10
14.2211058208776
 20
12.88260135212736
 30
0.0
 40
0.7
100
AcDbArc
 50
0.0
 51
45.0
  0
LINE
  5
596
330
1A
100
AcDbEntity
  8
ZUWAKU
100
AcDbLine
 10
12.90860582087759
 20
10.83750033944968
 30
0.0
 11
12.90860582087759
 21
11.71250033944968
 31
0.0
  0
ARC
  5
597
330
1A
100
AcDbEntity
  8
ZUWAKU
100
AcDbCircle
 10
13.17110582087758
 20
10.83750033944968
 30
0.0
 40
0.2625
100
AcDbArc
 50
180.0
 51
270.0
  0
ARC
  5
598
330
1A
100
AcDbEntity
  8
ZUWAKU
100
AcDbCircle
 10
13.17110582087758
 20
11.71250033944968
 30
0.0
 40
0.2625
100
AcDbArc
 50
90.0
 51
180.0
  0
LINE
  5
599
330
1A
100
AcDbEntity
  8
ZUWAKU
100
AcDbLine
 10
13.17110582087758
 20
10.57500033944968
 30
0.0
 11
14.92110582087758
 21
10.57500033944968
 31
0.0
  0
LINE
  5
59A
330
1A
100
AcDbEntity
  8
ZUWAKU
100
AcDbLine
 10
13.17110582087758
 20
11.97500033944968
 30
0.0
 11
14.65860582087759
 21
11.97500033944968
 31
0.0
  0
LINE
  5
59B
330
1A
100
AcDbEntity
  8
ZUWAKU
100
AcDbLine
 10
13.26118158038582
 20
14.83247508628027
 30
0.0
 11
14.71608056770816
 21
13.37757609895794
 31
0.0
  0
LINE
  5
59C
330
1A
100
AcDbEntity
  8
ZUWAKU
100
AcDbLine
 10
16.32110582087762
 20
11.97500033944968
 30
0.0
 11
16.32110582087762
 21
12.88260135212736
 31
0.0
  0
ARC
  5
59D
330
1A
100
AcDbEntity
  8
ZUWAKU
100
AcDbCircle
 10
19.47110582087759
 20
12.67500033944969
 30
0.0
 40
0.7
100
AcDbArc
 50
180.0
 51
270.0
  0
ARC
  5
59E
330
1A
100
AcDbEntity
  8
ZUWAKU
100
AcDbCircle
 10
15.79610582087758
 20
18.36250033944968
 30
0.0
 40
0.2625
100
AcDbArc
 50
0.0
 51
90.0
  0
ARC
  5
59F
330
1A
100
AcDbEntity
  8
ZUWAKU
100
AcDbCircle
 10
15.79610582087758
 20
17.48750033944968
 30
0.0
 40
0.2625
100
AcDbArc
 50
270.0
 51
0.0
  0
LINE
  5
5A0
330
1A
100
AcDbEntity
  8
ZUWAKU
100
AcDbLine
 10
14.04610582087758
 20
18.62500033944969
 30
0.0
 11
15.79610582087758
 21
18.62500033944969
 31
0.0
  0
ARC
  5
5A1
330
1A
100
AcDbEntity
  8
ZUWAKU
100
AcDbCircle
 10
14.30860582087757
 20
16.96250033944968
 30
0.0
 40
0.2625
100
AcDbArc
 50
90.0
 51
180.0
  0
LINE
  5
5A2
330
1A
100
AcDbEntity
  8
ZUWAKU
100
AcDbLine
 10
14.04610582087758
 20
16.96250033944968
 30
0.0
 11
14.04610582087758
 21
16.31739932677201
 31
0.0
  0
LINE
  5
5A3
330
1A
100
AcDbEntity
  8
ZUWAKU
100
AcDbLine
 10
15.79610582087758
 20
17.22500033944968
 30
0.0
 11
14.30860582087757
 21
17.22500033944968
 31
0.0
  0
LINE
  5
5A4
330
1A
100
AcDbEntity
  8
ZUWAKU
100
AcDbLine
 10
12.64610582087761
 20
17.22500033944968
 30
0.0
 11
12.64610582087761
 21
16.31739932677201
 31
0.0
  0
ARC
  5
5A5
330
1A
100
AcDbEntity
  8
ZUWAKU
100
AcDbCircle
 10
14.04610582087758
 20
17.22500033944968
 30
0.0
 40
1.399999999999999
100
AcDbArc
 50
90.0
 51
180.0
  0
LINE
  5
5A6
330
1A
100
AcDbEntity
  8
ZUWAKU
100
AcDbLine
 10
16.05860582087757
 20
18.36250033944968
 30
0.0
 11
16.05860582087757
 21
17.48750033944968
 31
0.0
  0
ARC
  5
5A7
330
1A
100
AcDbEntity
  8
ZUWAKU
100
AcDbCircle
 10
19.47110582087759
 20
16.52500033944968
 30
0.0
 40
0.7
100
AcDbArc
 50
90.0
 51
180.0
  0
ARC
  5
5A8
330
1A
100
AcDbEntity
  8
ZUWAKU
100
AcDbCircle
 10
19.47110582087759
 20
16.52500033944966
 30
0.0
 40
2.099999999999999
100
AcDbArc
 50
90.0
 51
180.0
  0
LINE
  5
5A9
330
1A
100
AcDbEntity
  8
ZUWAKU
100
AcDbLine
 10
46.66331451748113
 20
22.00000033944968
 30
0.0
 11
46.66331451748122
 21
7.400000339449717
 31
0.0
  0
LINE
  5
5AA
330
1A
100
AcDbEntity
  8
ZUWAKU
100
AcDbLine
 10
46.76331451748113
 20
22.00000033944968
 30
0.0
 11
46.76331451748126
 21
7.400000339449717
 31
0.0
  0
LINE
  5
5AB
330
1A
100
AcDbEntity
  8
ZUWAKU
100
AcDbLine
 10
46.56331451748122
 20
22.00000033944968
 30
0.0
 11
46.56331451748122
 21
7.400000339449717
 31
0.0
  0
LINE
  5
5AC
330
1A
100
AcDbEntity
  8
ZUWAKU
100
AcDbLine
 10
39.07110582087762
 20
11.97500033944968
 30
0.0
 11
39.07110582087762
 21
18.36250033944968
 31
0.0
  0
LINE
  5
5AD
330
1A
100
AcDbEntity
  8
ZUWAKU
100
AcDbLine
 10
37.67110582087759
 20
18.36250033944968
 30
0.0
 11
37.67110582087759
 21
12.50000033944968
 31
0.0
  0
LINE
  5
5AE
330
1A
100
AcDbEntity
  8
ZUWAKU
100
AcDbLine
 10
41.5211058208776
 20
10.83750033944968
 30
0.0
 11
41.5211058208776
 21
18.36250033944968
 31
0.0
  0
LINE
  5
5AF
330
1A
100
AcDbEntity
  8
ZUWAKU
100
AcDbLine
 10
40.12110582087757
 20
18.36250033944968
 30
0.0
 11
40.12110582087757
 21
10.83750033944968
 31
0.0
  0
ARC
  5
5B0
330
1A
100
AcDbEntity
  8
ZUWAKU
100
AcDbCircle
 10
31.89610582087761
 20
16.31739932677203
 30
0.0
 40
0.7
100
AcDbArc
 50
180.0000000000016
 51
224.9999999999988
  0
ARC
  5
5B1
330
1A
100
AcDbEntity
  8
ZUWAKU
100
AcDbCircle
 10
31.89610582087761
 20
16.31739932677203
 30
0.0
 40
2.099999999999999
100
AcDbArc
 50
180.0
 51
225.0
  0
LINE
  5
5B2
330
1A
100
AcDbEntity
  8
ZUWAKU
100
AcDbLine
 10
25.65742906196658
 20
16.6025239362314
 30
0.0
 11
25.02505318929866
 21
14.60000033944969
 31
0.0
  0
LINE
  5
5B3
330
1A
100
AcDbEntity
  8
ZUWAKU
100
AcDbLine
 10
27.3461058208776
 20
18.36250033944968
 30
0.0
 11
27.3461058208776
 21
10.83750033944968
 31
0.0
  0
LINE
  5
5B4
330
1A
100
AcDbEntity
  8
ZUWAKU
100
AcDbLine
 10
28.74610582087758
 20
10.83750033944968
 30
0.0
 11
28.74610582087758
 21
18.36250033944968
 31
0.0
  0
LINE
  5
5B5
330
1A
100
AcDbEntity
  8
ZUWAKU
100
AcDbLine
 10
34.52110582087761
 20
18.36250033944968
 30
0.0
 11
34.52110582087761
 21
11.97500033944968
 31
0.0
  0
LINE
  5
5B6
330
1A
100
AcDbEntity
  8
ZUWAKU
100
AcDbLine
 10
35.92110582087759
 20
12.50000033944968
 30
0.0
 11
35.92110582087759
 21
18.36250033944968
 31
0.0
  0
LINE
  5
5B7
330
1A
100
AcDbEntity
  8
ZUWAKU
100
AcDbLine
 10
23.32110582087762
 20
15.56250033944969
 30
0.0
 11
23.32110582087762
 21
18.36250033944968
 31
0.0
  0
LINE
  5
5B8
330
1A
100
AcDbEntity
  8
ZUWAKU
100
AcDbLine
 10
21.92110582087757
 20
18.36250033944968
 30
0.0
 11
21.92110582087757
 21
10.83750033944968
 31
0.0
  0
LINE
  5
5B9
330
1A
100
AcDbEntity
  8
ZUWAKU
100
AcDbLine
 10
24.83817328953552
 20
18.44154732353317
 30
0.0
 11
23.90403835221963
 21
15.4834533553662
 31
0.0
  0
LINE
  5
5BA
330
1A
100
AcDbEntity
  8
ZUWAKU
100
AcDbLine
 10
37.14610582087761
 20
11.97500033944968
 30
0.0
 11
36.44610582087762
 21
11.97500033944968
 31
0.0
  0
LINE
  5
5BB
330
1A
100
AcDbEntity
  8
ZUWAKU
100
AcDbLine
 10
35.92110582087759
 20
10.57500033944968
 30
0.0
 11
37.67110582087759
 21
10.57500033944968
 31
0.0
  0
LINE
  5
5BC
330
1A
100
AcDbEntity
  8
ZUWAKU
100
AcDbLine
 10
27.60860582087758
 20
10.57500033944968
 30
0.0
 11
28.48360582087759
 21
10.57500033944968
 31
0.0
  0
LINE
  5
5BD
330
1A
100
AcDbEntity
  8
ZUWAKU
100
AcDbLine
 10
24.83817328953552
 20
10.7584533553662
 30
0.0
 11
23.90403835221963
 21
13.71654732353317
 31
0.0
  0
ARC
  5
5BE
330
1A
100
AcDbEntity
  8
ZUWAKU
100
AcDbCircle
 10
23.65372290262195
 20
15.56250033944969
 30
0.0
 40
0.2625
100
AcDbArc
 50
270.0
 51
342.474431626277
  0
LINE
  5
5BF
330
1A
100
AcDbEntity
  8
ZUWAKU
100
AcDbLine
 10
23.65372290262195
 20
15.30000033944968
 30
0.0
 11
23.58360582087761
 21
15.30000033944968
 31
0.0
  0
LINE
  5
5C0
330
1A
100
AcDbEntity
  8
ZUWAKU
100
AcDbLine
 10
23.58360582087761
 20
13.90000033944968
 30
0.0
 11
23.65372290262195
 21
13.90000033944968
 31
0.0
  0
ARC
  5
5C1
330
1A
100
AcDbEntity
  8
ZUWAKU
100
AcDbCircle
 10
23.58360582087761
 20
15.56250033944969
 30
0.0
 40
0.2625
100
AcDbArc
 50
180.0
 51
270.0
  0
LINE
  5
5C2
330
1A
100
AcDbEntity
  8
ZUWAKU
100
AcDbLine
 10
22.18360582087758
 20
10.57500033944968
 30
0.0
 11
23.05860582087758
 21
10.57500033944968
 31
0.0
  0
ARC
  5
5C3
330
1A
100
AcDbEntity
  8
ZUWAKU
100
AcDbCircle
 10
23.05860582087758
 20
10.83750033944968
 30
0.0
 40
0.2625
100
AcDbArc
 50
270.0
 51
0.0
  0
LINE
  5
5C4
330
1A
100
AcDbEntity
  8
ZUWAKU
100
AcDbLine
 10
23.32110582087762
 20
10.83750033944968
 30
0.0
 11
23.32110582087762
 21
13.63750033944969
 31
0.0
  0
LINE
  5
5C5
330
1A
100
AcDbEntity
  8
ZUWAKU
100
AcDbLine
 10
20.69610582087762
 20
11.71250033944968
 30
0.0
 11
20.69610582087762
 21
10.83750033944968
 31
0.0
  0
ARC
  5
5C6
330
1A
100
AcDbEntity
  8
ZUWAKU
100
AcDbCircle
 10
20.43360582087757
 20
10.83750033944968
 30
0.0
 40
0.2625
100
AcDbArc
 50
270.0
 51
0.0
  0
ARC
  5
5C7
330
1A
100
AcDbEntity
  8
ZUWAKU
100
AcDbCircle
 10
20.43360582087757
 20
11.71250033944968
 30
0.0
 40
0.2625
100
AcDbArc
 50
0.0
 51
90.0
  0
ARC
  5
5C8
330
1A
100
AcDbEntity
  8
ZUWAKU
100
AcDbCircle
 10
22.18360582087758
 20
10.83750033944968
 30
0.0
 40
0.2625
100
AcDbArc
 50
180.0
 51
270.0
  0
ARC
  5
5C9
330
1A
100
AcDbEntity
  8
ZUWAKU
100
AcDbCircle
 10
23.65372290262195
 20
13.63750033944969
 30
0.0
 40
0.2625
100
AcDbArc
 50
17.52556837372303
 51
90.0
  0
ARC
  5
5CA
330
1A
100
AcDbEntity
  8
ZUWAKU
100
AcDbCircle
 10
23.58360582087761
 20
13.63750033944969
 30
0.0
 40
0.2625
100
AcDbArc
 50
90.0
 51
180.0
  0
ARC
  5
5CB
330
1A
100
AcDbEntity
  8
ZUWAKU
100
AcDbCircle
 10
27.60860582087758
 20
10.83750033944968
 30
0.0
 40
0.2625
100
AcDbArc
 50
180.0
 51
270.0
  0
LINE
  5
5CC
330
1A
100
AcDbEntity
  8
ZUWAKU
100
AcDbLine
 10
25.08848873913326
 20
10.57500033944968
 30
0.0
 11
25.93793342893775
 21
10.57500033944968
 31
0.0
  0
ARC
  5
5CD
330
1A
100
AcDbEntity
  8
ZUWAKU
100
AcDbCircle
 10
25.93793342893775
 20
10.83750033944968
 30
0.0
 40
0.2625
100
AcDbArc
 50
270.0
 51
17.52556837372303
  0
LINE
  5
5CE
330
1A
100
AcDbEntity
  8
ZUWAKU
100
AcDbLine
 10
26.18824887853549
 20
10.91654732353317
 30
0.0
 11
25.02505318929866
 21
14.60000033944969
 31
0.0
  0
ARC
  5
5CF
330
1A
100
AcDbEntity
  8
ZUWAKU
100
AcDbCircle
 10
25.08848873913326
 20
10.83750033944968
 30
0.0
 40
0.2625
100
AcDbArc
 50
197.525568373723
 51
270.0
  0
ARC
  5
5D0
330
1A
100
AcDbEntity
  8
ZUWAKU
100
AcDbCircle
 10
35.92110582087759
 20
11.97500033944968
 30
0.0
 40
1.399999999999999
100
AcDbArc
 50
180.0
 51
270.0
  0
ARC
  5
5D1
330
1A
100
AcDbEntity
  8
ZUWAKU
100
AcDbCircle
 10
32.07110582087762
 20
11.97500033944968
 30
0.0
 40
1.399999999999999
100
AcDbArc
 50
270.0
 51
0.0
  0
LINE
  5
5D2
330
1A
100
AcDbEntity
  8
ZUWAKU
100
AcDbLine
 10
32.85603006136938
 20
14.3675255926191
 30
0.0
 11
31.40113107404699
 21
15.82242457994144
 31
0.0
  0
LINE
  5
5D3
330
1A
100
AcDbEntity
  8
ZUWAKU
100
AcDbLine
 10
32.07110582087762
 20
12.23750033944969
 30
0.0
 11
32.07110582087762
 21
12.88260135212736
 31
0.0
  0
ARC
  5
5D4
330
1A
100
AcDbEntity
  8
ZUWAKU
100
AcDbCircle
 10
31.37110582087757
 20
12.88260135212736
 30
0.0
 40
0.7
100
AcDbArc
 50
0.0
 51
45.0
  0
ARC
  5
5D5
330
1A
100
AcDbEntity
  8
ZUWAKU
100
AcDbCircle
 10
31.80860582087758
 20
12.23750033944969
 30
0.0
 40
0.2625
100
AcDbArc
 50
270.0
 51
0.0
  0
LINE
  5
5D6
330
1A
100
AcDbEntity
  8
ZUWAKU
100
AcDbLine
 10
30.05860582087758
 20
10.83750033944968
 30
0.0
 11
30.05860582087758
 21
11.71250033944968
 31
0.0
  0
ARC
  5
5D7
330
1A
100
AcDbEntity
  8
ZUWAKU
100
AcDbCircle
 10
30.32110582087762
 20
10.83750033944968
 30
0.0
 40
0.2625
100
AcDbArc
 50
180.0
 51
270.0
  0
ARC
  5
5D8
330
1A
100
AcDbEntity
  8
ZUWAKU
100
AcDbCircle
 10
28.48360582087759
 20
10.83750033944968
 30
0.0
 40
0.2625
100
AcDbArc
 50
270.0
 51
0.0
  0
ARC
  5
5D9
330
1A
100
AcDbEntity
  8
ZUWAKU
100
AcDbCircle
 10
30.32110582087762
 20
11.71250033944968
 30
0.0
 40
0.2625
100
AcDbArc
 50
90.0
 51
180.0
  0
LINE
  5
5DA
330
1A
100
AcDbEntity
  8
ZUWAKU
100
AcDbLine
 10
30.32110582087762
 20
11.97500033944968
 30
0.0
 11
31.80860582087758
 21
11.97500033944968
 31
0.0
  0
LINE
  5
5DB
330
1A
100
AcDbEntity
  8
ZUWAKU
100
AcDbLine
 10
30.32110582087762
 20
10.57500033944968
 30
0.0
 11
32.07110582087762
 21
10.57500033944968
 31
0.0
  0
LINE
  5
5DC
330
1A
100
AcDbEntity
  8
ZUWAKU
100
AcDbLine
 10
30.41118158038586
 20
14.83247508628027
 30
0.0
 11
31.86608056770821
 21
13.37757609895794
 31
0.0
  0
LINE
  5
5DD
330
1A
100
AcDbEntity
  8
ZUWAKU
100
AcDbLine
 10
33.4711058208776
 20
11.97500033944968
 30
0.0
 11
33.4711058208776
 21
12.88260135212736
 31
0.0
  0
ARC
  5
5DE
330
1A
100
AcDbEntity
  8
ZUWAKU
100
AcDbCircle
 10
31.37110582087757
 20
12.88260135212734
 30
0.0
 40
2.099999999999999
100
AcDbArc
 50
0.0
 51
45.0
  0
ARC
  5
5DF
330
1A
100
AcDbEntity
  8
ZUWAKU
100
AcDbCircle
 10
36.44610582087762
 20
12.50000033944968
 30
0.0
 40
0.525
100
AcDbArc
 50
180.0
 51
270.0
  0
ARC
  5
5E0
330
1A
100
AcDbEntity
  8
ZUWAKU
100
AcDbCircle
 10
37.67110582087759
 20
11.97500033944968
 30
0.0
 40
1.399999999999999
100
AcDbArc
 50
270.0
 51
0.0
  0
LINE
  5
5E1
330
1A
100
AcDbEntity
  8
ZUWAKU
100
AcDbLine
 10
40.38360582087761
 20
10.57500033944968
 30
0.0
 11
41.25860582087762
 21
10.57500033944968
 31
0.0
  0
ARC
  5
5E2
330
1A
100
AcDbEntity
  8
ZUWAKU
100
AcDbCircle
 10
40.38360582087761
 20
10.83750033944968
 30
0.0
 40
0.2625
100
AcDbArc
 50
180.0
 51
270.0
  0
ARC
  5
5E3
330
1A
100
AcDbEntity
  8
ZUWAKU
100
AcDbCircle
 10
37.14610582087761
 20
12.50000033944968
 30
0.0
 40
0.525
100
AcDbArc
 50
270.0
 51
0.0
  0
ARC
  5
5E4
330
1A
100
AcDbEntity
  8
ZUWAKU
100
AcDbCircle
 10
41.25860582087762
 20
10.83750033944968
 30
0.0
 40
0.2625
100
AcDbArc
 50
270.0
 51
0.0
  0
LINE
  5
5E5
330
1A
100
AcDbEntity
  8
ZUWAKU
100
AcDbLine
 10
28.48360582087759
 20
18.62500033944969
 30
0.0
 11
27.60860582087758
 21
18.62500033944969
 31
0.0
  0
ARC
  5
5E6
330
1A
100
AcDbEntity
  8
ZUWAKU
100
AcDbCircle
 10
23.05860582087758
 20
18.36250033944968
 30
0.0
 40
0.2625
100
AcDbArc
 50
0.0
 51
90.0
  0
LINE
  5
5E7
330
1A
100
AcDbEntity
  8
ZUWAKU
100
AcDbLine
 10
23.05860582087758
 20
18.62500033944969
 30
0.0
 11
22.18360582087758
 21
18.62500033944969
 31
0.0
  0
ARC
  5
5E8
330
1A
100
AcDbEntity
  8
ZUWAKU
100
AcDbCircle
 10
20.43360582087757
 20
18.36250033944968
 30
0.0
 40
0.2625
100
AcDbArc
 50
0.0
 51
90.0
  0
ARC
  5
5E9
330
1A
100
AcDbEntity
  8
ZUWAKU
100
AcDbCircle
 10
22.18360582087758
 20
18.36250033944968
 30
0.0
 40
0.2625
100
AcDbArc
 50
90.0
 51
180.0
  0
ARC
  5
5EA
330
1A
100
AcDbEntity
  8
ZUWAKU
100
AcDbCircle
 10
20.43360582087757
 20
17.48750033944968
 30
0.0
 40
0.2625
100
AcDbArc
 50
270.0
 51
0.0
  0
LINE
  5
5EB
330
1A
100
AcDbEntity
  8
ZUWAKU
100
AcDbLine
 10
20.69610582087762
 20
18.36250033944968
 30
0.0
 11
20.69610582087762
 21
17.48750033944968
 31
0.0
  0
ARC
  5
5EC
330
1A
100
AcDbEntity
  8
ZUWAKU
100
AcDbCircle
 10
27.60860582087758
 20
18.36250033944968
 30
0.0
 40
0.2625
100
AcDbArc
 50
90.0
 51
180.0
  0
LINE
  5
5ED
330
1A
100
AcDbEntity
  8
ZUWAKU
100
AcDbLine
 10
25.08848873913326
 20
18.62500033944969
 30
0.0
 11
25.93793342893775
 21
18.62500033944969
 31
0.0
  0
ARC
  5
5EE
330
1A
100
AcDbEntity
  8
ZUWAKU
100
AcDbCircle
 10
25.93793342893775
 20
18.36250033944968
 30
0.0
 40
0.2625
100
AcDbArc
 50
342.474431626277
 51
90.0
  0
LINE
  5
5EF
330
1A
100
AcDbEntity
  8
ZUWAKU
100
AcDbLine
 10
26.18824887853549
 20
18.2834533553662
 30
0.0
 11
25.65742906196658
 21
16.6025239362314
 31
0.0
  0
ARC
  5
5F0
330
1A
100
AcDbEntity
  8
ZUWAKU
100
AcDbCircle
 10
25.08848873913326
 20
18.36250033944968
 30
0.0
 40
0.2625
100
AcDbArc
 50
90.0
 51
162.474431626277
  0
LINE
  5
5F1
330
1A
100
AcDbEntity
  8
ZUWAKU
100
AcDbLine
 10
31.19610582087762
 20
18.62500033944969
 30
0.0
 11
32.94610582087762
 21
18.62500033944969
 31
0.0
  0
LINE
  5
5F2
330
1A
100
AcDbEntity
  8
ZUWAKU
100
AcDbLine
 10
32.94610582087762
 20
17.22500033944968
 30
0.0
 11
31.45860582087761
 21
17.22500033944968
 31
0.0
  0
ARC
  5
5F3
330
1A
100
AcDbEntity
  8
ZUWAKU
100
AcDbCircle
 10
31.45860582087761
 20
16.96250033944968
 30
0.0
 40
0.2625
100
AcDbArc
 50
90.0
 51
180.0
  0
LINE
  5
5F4
330
1A
100
AcDbEntity
  8
ZUWAKU
100
AcDbLine
 10
31.19610582087762
 20
16.96250033944968
 30
0.0
 11
31.19610582087762
 21
16.31739932677201
 31
0.0
  0
ARC
  5
5F5
330
1A
100
AcDbEntity
  8
ZUWAKU
100
AcDbCircle
 10
28.48360582087759
 20
18.36250033944968
 30
0.0
 40
0.2625
100
AcDbArc
 50
0.0
 51
90.0
  0
LINE
  5
5F6
330
1A
100
AcDbEntity
  8
ZUWAKU
100
AcDbLine
 10
29.79610582087758
 20
17.22500033944968
 30
0.0
 11
29.79610582087758
 21
16.31739932677201
 31
0.0
  0
ARC
  5
5F7
330
1A
100
AcDbEntity
  8
ZUWAKU
100
AcDbCircle
 10
31.19610582087762
 20
17.22500033944968
 30
0.0
 40
1.399999999999999
100
AcDbArc
 50
90.0
 51
180.0
  0
ARC
  5
5F8
330
1A
100
AcDbEntity
  8
ZUWAKU
100
AcDbCircle
 10
35.6586058208776
 20
18.36250033944968
 30
0.0
 40
0.2625
100
AcDbArc
 50
0.0
 51
90.0
  0
ARC
  5
5F9
330
1A
100
AcDbEntity
  8
ZUWAKU
100
AcDbCircle
 10
34.7836058208776
 20
18.36250033944968
 30
0.0
 40
0.2625
100
AcDbArc
 50
90.0
 51
180.0
  0
LINE
  5
5FA
330
1A
100
AcDbEntity
  8
ZUWAKU
100
AcDbLine
 10
35.6586058208776
 20
18.62500033944969
 30
0.0
 11
34.7836058208776
 21
18.62500033944969
 31
0.0
  0
ARC
  5
5FB
330
1A
100
AcDbEntity
  8
ZUWAKU
100
AcDbCircle
 10
32.94610582087762
 20
18.36250033944968
 30
0.0
 40
0.2625
100
AcDbArc
 50
0.0
 51
90.0
  0
ARC
  5
5FC
330
1A
100
AcDbEntity
  8
ZUWAKU
100
AcDbCircle
 10
32.94610582087762
 20
17.48750033944968
 30
0.0
 40
0.2625
100
AcDbArc
 50
270.0
 51
0.0
  0
LINE
  5
5FD
330
1A
100
AcDbEntity
  8
ZUWAKU
100
AcDbLine
 10
33.20860582087761
 20
18.36250033944968
 30
0.0
 11
33.20860582087761
 21
17.48750033944968
 31
0.0
  0
LINE
  5
5FE
330
1A
100
AcDbEntity
  8
ZUWAKU
100
AcDbLine
 10
41.25860582087762
 20
18.62500033944969
 30
0.0
 11
40.38360582087761
 21
18.62500033944969
 31
0.0
  0
ARC
  5
5FF
330
1A
100
AcDbEntity
  8
ZUWAKU
100
AcDbCircle
 10
40.38360582087761
 20
18.36250033944968
 30
0.0
 40
0.2625
100
AcDbArc
 50
90.0
 51
180.0
  0
ARC
  5
600
330
1A
100
AcDbEntity
  8
ZUWAKU
100
AcDbCircle
 10
38.80860582087758
 20
18.36250033944968
 30
0.0
 40
0.2625
100
AcDbArc
 50
0.0
 51
90.0
  0
LINE
  5
601
330
1A
100
AcDbEntity
  8
ZUWAKU
100
AcDbLine
 10
38.80860582087758
 20
18.62500033944969
 30
0.0
 11
37.93360582087757
 21
18.62500033944969
 31
0.0
  0
ARC
  5
602
330
1A
100
AcDbEntity
  8
ZUWAKU
100
AcDbCircle
 10
37.93360582087757
 20
18.36250033944968
 30
0.0
 40
0.2625
100
AcDbArc
 50
90.0
 51
180.0
  0
ARC
  5
603
330
1A
100
AcDbEntity
  8
ZUWAKU
100
AcDbCircle
 10
41.25860582087762
 20
18.36250033944968
 30
0.0
 40
0.2625
100
AcDbArc
 50
0.0
 51
90.0
  0
LINE
  5
606
330
1A
100
AcDbEntity
  8
ZUWAKU
100
AcDbLine
 10
111.123300388521
 20
22.00000033944968
 30
0.0
 11
111.123300388521
 21
7.400000339449717
 31
0.0
  0
LINE
  5
607
330
1A
100
AcDbEntity
  8
ZUWAKU
100
AcDbLine
 10
111.3233003885209
 20
22.00000033944968
 30
0.0
 11
111.323300388521
 21
7.400000339449717
 31
0.0
  0
LINE
  5
608
330
1A
100
AcDbEntity
  8
ZUWAKU
100
AcDbLine
 10
111.2233003885209
 20
22.00000033944968
 30
0.0
 11
111.223300388521
 21
7.400000339449717
 31
0.0
  0
TEXT
  5
609
330
1A
100
AcDbEntity
  8
ZUWAKU
100
AcDbText
 10
111.8620228996258
 20
11.82767860864249
 30
0.0
 40
2.0
  1
サイズ
 41
0.9
  7
ｽﾀｲﾙ1
100
AcDbText
  0
TEXT
  5
60A
330
1A
100
AcDbEntity
  8
ZUWAKU
100
AcDbText
 10
111.8620228996257
 20
19.02767860864247
 30
0.0
 40
2.0
  1
品名
 41
0.9
  7
ｽﾀｲﾙ1
100
AcDbText
  0
LINE
  5
60C
330
1A
100
AcDbEntity
  8
ZUWAKU
100
AcDbLine
 10
331.4086009985891
 20
14.6000003394497
 30
0.0
 11
355.6245050177576
 21
14.6000003394497
 31
0.0
  0
LINE
  5
60D
330
1A
100
AcDbEntity
  8
ZUWAKU
100
AcDbLine
 10
331.4086009985893
 20
14.7000003394497
 30
0.0
 11
355.6245050177576
 21
14.7000003394497
 31
0.0
  0
LINE
  5
60E
330
1A
100
AcDbEntity
  8
ZUWAKU
100
AcDbLine
 10
331.4086009985891
 20
14.8000003394497
 30
0.0
 11
355.6245050177576
 21
14.8000003394497
 31
0.0
  0
LINE
  5
610
330
1A
100
AcDbEntity
  8
ZUWAKU
100
AcDbLine
 10
259.5995894925575
 20
14.6000003394497
 30
0.0
 11
283.2634776265432
 21
14.6000003394497
 31
0.0
  0
LINE
  5
611
330
1A
100
AcDbEntity
  8
ZUWAKU
100
AcDbLine
 10
259.5995894925575
 20
14.7000003394497
 30
0.0
 11
283.2634776265432
 21
14.7000003394497
 31
0.0
  0
LINE
  5
612
330
1A
100
AcDbEntity
  8
ZUWAKU
100
AcDbLine
 10
259.5995894925575
 20
14.8000003394497
 30
0.0
 11
283.2634776265432
 21
14.8000003394497
 31
0.0
  0
TEXT
  5
613
330
1A
100
AcDbEntity
  8
moji
100
AcDbText
 10
238.7841524247673
 20
12.97130920027967
 30
0.0
 40
2.799999999999998
  1
GＫ７１□
 41
0.9
  7
ｽﾀｲﾙ1
100
AcDbText
  0
LINE
  5
614
330
1A
100
AcDbEntity
  8
ZUWAKU
100
AcDbLine
 10
230.8121817289826
 20
22.00000033944968
 30
0.0
 11
230.8121817289828
 21
7.400000339449717
 31
0.0
  0
LINE
  5
615
330
1A
100
AcDbEntity
  8
ZUWAKU
100
AcDbLine
 10
230.9121817289827
 20
22.00000033944968
 30
0.0
 11
230.9121817289828
 21
7.400000339449717
 31
0.0
  0
LINE
  5
616
330
1A
100
AcDbEntity
  8
ZUWAKU
100
AcDbLine
 10
230.7121817289827
 20
22.00000033944968
 30
0.0
 11
230.7121817289827
 21
7.400000339449717
 31
0.0
  0
TEXT
  5
617
330
1A
100
AcDbEntity
  8
moji
100
AcDbText
 10
271.0204537296434
 20
16.00246086815338
 30
0.0
 40
2.799999999999998
  1
Ａ３
 41
0.9
  7
ｽﾀｲﾙ1
100
AcDbText
  0
LINE
  5
618
330
1A
100
AcDbEntity
  8
ZUWAKU
100
AcDbLine
 10
259.4995894925574
 20
22.00000033944968
 30
0.0
 11
259.4995894925576
 21
7.400000339449717
 31
0.0
  0
LINE
  5
619
330
1A
100
AcDbEntity
  8
ZUWAKU
100
AcDbLine
 10
259.5995894925575
 20
22.00000033944968
 30
0.0
 11
259.5995894925576
 21
7.400000339449717
 31
0.0
  0
LINE
  5
61A
330
1A
100
AcDbEntity
  8
ZUWAKU
100
AcDbLine
 10
259.3995894925575
 20
22.00000033944968
 30
0.0
 11
259.3995894925575
 21
7.400000339449717
 31
0.0
  0
TEXT
  5
61B
330
1A
100
AcDbEntity
  8
ZUWAKU
100
AcDbText
 10
238.3468805712406
 20
8.30703579501943
 30
0.0
 40
1.5
  1
□には色品番が入ります
 41
0.9
  7
ｽﾀｲﾙ1
100
AcDbText
  0
TEXT
  5
61C
330
1A
100
AcDbEntity
  8
ZUWAKU
100
AcDbText
 10
260.3383120036624
 20
11.82767860864249
 30
0.0
 40
2.0
  1
縮尺
 41
0.9
  7
ｽﾀｲﾙ1
100
AcDbText
  0
TEXT
  5
61D
330
1A
100
AcDbEntity
  8
moji
100
AcDbText
 10
271.0204537296434
 20
8.602460868153395
 30
0.0
 40
2.799999999999998
  1
１/１
 41
0.9
  7
ｽﾀｲﾙ1
100
AcDbText
  0
TEXT
  5
61E
330
1A
100
AcDbEntity
  8
ZUWAKU
100
AcDbText
 10
231.6509042400875
 20
19.02767860864247
 30
0.0
 40
2.0
  1
品番
 41
0.9
  7
ｽﾀｲﾙ1
100
AcDbText
  0
TEXT
  5
61F
330
1A
100
AcDbEntity
  8
ZUWAKU
100
AcDbText
 10
260.3383120036623
 20
19.02767860864247
 30
0.0
 40
2.0
  1
用紙
 41
0.9
  7
ｽﾀｲﾙ1
100
AcDbText
  0
LINE
  5
620
330
1A
100
AcDbEntity
  8
ZUWAKU
100
AcDbLine
 10
331.3086009985891
 20
22.00000033944968
 30
0.0
 11
331.3086009985893
 21
7.400000339449717
 31
0.0
  0
LINE
  5
621
330
1A
100
AcDbEntity
  8
ZUWAKU
100
AcDbLine
 10
331.4086009985893
 20
22.00000033944968
 30
0.0
 11
331.4086009985893
 21
7.400000339449717
 31
0.0
  0
LINE
  5
622
330
1A
100
AcDbEntity
  8
ZUWAKU
100
AcDbLine
 10
331.2086009985893
 20
22.00000033944968
 30
0.0
 11
331.2086009985893
 21
7.400000339449717
 31
0.0
  0
LINE
  5
623
330
1A
100
AcDbEntity
  8
ZUWAKU
100
AcDbLine
 10
283.3634776265432
 20
22.00000033944968
 30
0.0
 11
283.3634776265433
 21
7.400000339449717
 31
0.0
  0
LINE
  5
624
330
1A
100
AcDbEntity
  8
ZUWAKU
100
AcDbLine
 10
283.4634776265432
 20
22.00000033944968
 30
0.0
 11
283.4634776265433
 21
7.400000339449717
 31
0.0
  0
LINE
  5
625
330
1A
100
AcDbEntity
  8
ZUWAKU
100
AcDbLine
 10
283.2634776265432
 20
22.00000033944968
 30
0.0
 11
283.2634776265432
 21
7.400000339449717
 31
0.0
  0
TEXT
  5
626
330
1A
100
AcDbEntity
  8
ZUWAKU
100
AcDbText
 10
332.1473235096942
 20
19.02767860864247
 30
0.0
 40
2.0
  1
DATE
 41
0.9
  7
ｽﾀｲﾙ1
100
AcDbText
  0
LINE
  5
627
330
1A
100
AcDbEntity
  8
ZUWAKU
100
AcDbLine
 10
355.6245050177576
 20
22.00000033944968
 30
0.0
 11
355.6245050177576
 21
7.400000339449717
 31
0.0
  0
LINE
  5
628
330
1A
100
AcDbEntity
  8
ZUWAKU
100
AcDbLine
 10
355.7245050177578
 20
22.00000033944968
 30
0.0
 11
355.7245050177578
 21
7.400000339449717
 31
0.0
  0
LINE
  5
629
330
1A
100
AcDbEntity
  8
ZUWAKU
100
AcDbLine
 10
355.8245050177577
 20
22.00000033944968
 30
0.0
 11
355.8245050177577
 21
7.400000339449717
 31
0.0
  0
LINE
  5
62A
330
1A
100
AcDbEntity
  8
ZUWAKU
100
AcDbLine
 10
355.9245050177576
 20
22.00000033944968
 30
0.0
 11
355.9245050177577
 21
7.400000339449717
 31
0.0
  0
TEXT
  5
62B
330
1A
100
AcDbEntity
  8
ZUWAKU
100
AcDbText
 10
360.5557833854728
 20
13.20000710774178
 30
0.0
 40
3.0
  1
積水化学工業株式会社
 41
0.9
  7
ｽﾀｲﾙ1
100
AcDbText
  0
TEXT
  5
34AE
330
1A
100
AcDbEntity
  8
moji
100
AcDbText
 10
126.5574179838449
 20
16.47157826518742
 30
0.0
 40
2.799999999999998
  1
ブラケットデンデン（中）
 41
0.9
  7
ｽﾀｲﾙ1
100
AcDbText
  0
TEXT
  5
3686
330
1A
100
AcDbEntity
  8
moji
100
AcDbText
 10
126.8177265531722
 20
9.16149518625923
 30
0.0
 40
2.799999999999998
  1
Ｙ６０－Ｌ４９
 41
0.9
  7
ｽﾀｲﾙ1
100
AcDbText
  0
DIMENSION
  5
4D51
330
1A
100
AcDbEntity
  8
SUNPOU
  6
Continuous
 62
     4
 48
5.0
100
AcDbDimension
  2
*D2
 10
184.5763616175181
 20
69.62599447402595
 30
0.0
 11
182.0763616175182
 21
102.976044474026
 31
0.0
 70
    32
 71
     5
 42
-1.0
  3
STANDARD
100
AcDbAlignedDimension
 13
224.3553995633089
 23
136.3260944740259
 33
0.0
 14
224.3553995633089
 24
69.62599447402595
 34
0.0
 50
90.0
100
AcDbRotatedDimension
1001
ACAD
1000
DSTYLE
1002
{
1070
   140
1040
3.0
1070
    74
1070
     0
1070
   172
1070
     1
1070
    73
1070
     0
1070
   272
1070
     2
1070
    77
1070
     3
1070
   173
1070
     1
1070
   147
1040
1.0
1070
    42
1040
3.0
1070
    44
1040
1.5
1070
    43
1040
7.0
1070
   271
1070
     0
1070
   178
1070
     4
1070
   177
1070
     4
1070
   176
1070
     4
1070
   141
1040
150.0
1070
     7
1000
_OPEN
1070
     6
1000
_OPEN
1070
    41
1040
3.0
1002
}
  0
DIMENSION
  5
4D52
330
1A
100
AcDbEntity
  8
SUNPOU
  6
Continuous
 62
     4
 48
5.0
100
AcDbDimension
  2
*D3
 10
324.955499563309
 20
166.7263276184685
 30
0.0
 11
268.605499563309
 21
169.2263276184684
 31
0.0
 70
    32
 71
     5
 42
-1.0
  3
STANDARD
100
AcDbAlignedDimension
 13
212.255499563309
 23
124.2260944740259
 33
0.0
 14
324.955499563309
 24
114.9757944740259
 34
0.0
100
AcDbRotatedDimension
1001
ACAD
1000
DSTYLE
1002
{
1070
   140
1040
3.0
1070
    74
1070
     0
1070
   172
1070
     1
1070
    73
1070
     0
1070
   272
1070
     2
1070
    77
1070
     3
1070
   173
1070
     1
1070
   147
1040
1.0
1070
    42
1040
3.0
1070
    44
1040
1.5
1070
    43
1040
7.0
1070
   271
1070
     0
1070
   178
1070
     4
1070
   177
1070
     4
1070
   176
1070
     4
1070
   141
1040
150.0
1070
     7
1000
_OPEN
1070
     6
1000
_OPEN
1070
    41
1040
3.0
1002
}
  0
DIMENSION
  5
4D53
330
1A
100
AcDbEntity
  8
SUNPOU
  6
Continuous
 62
     4
 48
5.0
100
AcDbDimension
  2
*D4
 10
212.255499563309
 20
157.6608847483471
 30
0.0
 11
246.105499563309
 21
160.1608847483471
 31
0.0
 70
    32
 71
     5
 42
-1.0
  3
STANDARD
100
AcDbAlignedDimension
 13
279.9554995633089
 23
124.1105944740259
 33
0.0
 14
212.255499563309
 24
124.2260944740259
 34
0.0
100
AcDbRotatedDimension
1001
ACAD
1000
DSTYLE
1002
{
1070
   140
1040
3.0
1070
    74
1070
     0
1070
   172
1070
     1
1070
    73
1070
     0
1070
   272
1070
     2
1070
    77
1070
     3
1070
   173
1070
     1
1070
   147
1040
1.0
1070
    42
1040
3.0
1070
    44
1040
1.5
1070
    43
1040
7.0
1070
   271
1070
     0
1070
   178
1070
     4
1070
   177
1070
     4
1070
   176
1070
     4
1070
   141
1040
150.0
1070
     7
1000
_OPEN
1070
     6
1000
_OPEN
1070
    41
1040
3.0
1002
}
  0
ARC
  5
4D54
330
1A
100
AcDbEntity
  8
SEIHIN
  6
Continuous
 62
     3
 48
5.0
100
AcDbCircle
 10
225.941699563309
 20
131.3260944740259
 30
0.0
 40
2.000000999999999
100
AcDbArc
 50
90.0
 51
163.1959360000003
  0
ARC
  5
4D55
330
1A
100
AcDbEntity
  8
SEIHIN
  6
Continuous
 62
     3
 48
5.0
100
AcDbCircle
 10
224.3553995633089
 20
133.3260944740259
 30
0.0
 40
2.000008999999999
100
AcDbArc
 50
90.0
 51
170.8018900000002
  0
ARC
  5
4D56
330
1A
100
AcDbEntity
  8
SEIHIN
  6
Continuous
 62
     3
 48
5.0
100
AcDbCircle
 10
224.3553995633089
 20
133.3260944740259
 30
0.0
 40
3.000033999999998
100
AcDbArc
 50
90.0
 51
170.8029849999999
  0
ARC
  5
4D57
330
1A
100
AcDbEntity
  8
SEIHIN
  6
Continuous
 62
     3
 48
5.0
100
AcDbCircle
 10
213.4970995633089
 20
135.0845944740259
 30
0.0
 40
10.999959
100
AcDbArc
 50
286.8047130000008
 51
343.1947879999996
  0
ARC
  5
4D58
330
1A
100
AcDbEntity
  8
SEIHIN
  6
Continuous
 62
     3
 48
5.0
100
AcDbCircle
 10
225.941699563309
 20
74.62599447402595
 30
0.0
 40
2.000000999999999
100
AcDbArc
 50
196.8040639999997
 51
270.0
  0
ARC
  5
4D59
330
1A
100
AcDbEntity
  8
SEIHIN
  6
Continuous
 62
     3
 48
5.0
100
AcDbCircle
 10
224.3553995633089
 20
72.62599447402596
 30
0.0
 40
2.999991999999998
100
AcDbArc
 50
189.199206
 51
270.0
  0
ARC
  5
4D5A
330
1A
100
AcDbEntity
  8
SEIHIN
  6
Continuous
 62
     3
 48
5.0
100
AcDbCircle
 10
224.3553995633089
 20
72.62599447402596
 30
0.0
 40
2.000008999999999
100
AcDbArc
 50
189.1981099999997
 51
270.0
  0
ARC
  5
4D5B
330
1A
100
AcDbEntity
  8
SEIHIN
  6
Continuous
 62
     3
 48
5.0
100
AcDbCircle
 10
213.496899563309
 20
70.86749447402596
 30
0.0
 40
10.999959
100
AcDbArc
 50
16.8052120000004
 51
73.19528699999911
  0
LINE
  5
4D5D
330
1A
100
AcDbEntity
  8
CENTER L
  6
CENTER
 62
     1
 48
5.0
100
AcDbLine
 10
334.9555995633088
 20
102.975794474026
 30
0.0
 11
202.255499563309
 21
102.9759944740259
 31
0.0
  0
LINE
  5
4D5E
330
1A
100
AcDbEntity
  8
SEIHIN
  6
Continuous
 62
     3
 48
5.0
100
AcDbLine
 10
318.4555995633088
 20
231.4609416210487
 30
0.0
 11
213.255499563309
 21
231.4609416210487
 31
0.0
  0
LINE
  5
4D5F
330
1A
100
AcDbEntity
  8
CENTER L
  6
CENTER
 62
     1
 48
5.0
100
AcDbLine
 10
334.9555995633088
 20
222.4609416210487
 30
0.0
 11
202.255499563309
 21
222.4607416210487
 31
0.0
  0
LINE
  5
4D60
330
1A
100
AcDbEntity
  8
SEIHIN
  6
Continuous
 62
     3
 48
5.0
100
AcDbLine
 10
318.4555995633088
 20
213.4610416210487
 30
0.0
 11
213.255499563309
 21
213.4607416210487
 31
0.0
  0
LINE
  5
4D61
330
1A
100
AcDbEntity
  8
SEIHIN
  6
Continuous
 62
     3
 48
5.0
100
AcDbLine
 10
258.2557995633089
 20
215.9608416210487
 30
0.0
 11
212.255499563309
 21
215.9607416210487
 31
0.0
  0
LINE
  5
4D62
330
1A
100
AcDbEntity
  8
SEIHIN
  6
Continuous
 62
     3
 48
5.0
100
AcDbLine
 10
258.2557995633089
 20
228.9609416210487
 30
0.0
 11
212.255499563309
 21
228.9609416210487
 31
0.0
  0
DIMENSION
  5
4D65
330
1A
100
AcDbEntity
  8
SUNPOU
  6
Continuous
 62
     4
 48
5.0
100
AcDbDimension
  2
*D5
 10
74.48794008286616
 20
166.7263276184685
 30
0.0
 11
106.9879900828661
 21
169.2263276184684
 31
0.0
 70
    32
 71
     5
 42
-1.0
  3
STANDARD
100
AcDbAlignedDimension
 13
139.4880400828661
 23
106.4759944740259
 33
0.0
 14
74.48794008286616
 24
109.9760944740259
 34
0.0
100
AcDbRotatedDimension
1001
ACAD
1000
DSTYLE
1002
{
1070
   140
1040
3.0
1070
    74
1070
     0
1070
   172
1070
     1
1070
    73
1070
     0
1070
   272
1070
     2
1070
    77
1070
     3
1070
   173
1070
     1
1070
   147
1040
1.0
1070
    42
1040
3.0
1070
    44
1040
1.5
1070
    43
1040
7.0
1070
   271
1070
     0
1070
   178
1070
     4
1070
   177
1070
     4
1070
   176
1070
     4
1070
   141
1040
150.0
1070
     7
1000
_OPEN
1070
     6
1000
_OPEN
1070
    41
1040
3.0
1002
}
  0
DIMENSION
  5
4D66
330
1A
100
AcDbEntity
  8
SUNPOU
  6
Continuous
 62
     4
 48
5.0
100
AcDbDimension
  2
*D6
 10
82.98794008286614
 20
157.410884748347
 30
0.0
 11
106.9879900828661
 21
159.9108847483471
 31
0.0
 70
    32
 71
     5
 42
-1.0
  3
STANDARD
100
AcDbAlignedDimension
 13
130.9880400828661
 23
107.9759944740259
 33
0.0
 14
82.98794008286614
 24
107.9759944740259
 34
0.0
100
AcDbRotatedDimension
1001
ACAD
1000
DSTYLE
1002
{
1070
   140
1040
3.0
1070
    74
1070
     0
1070
   172
1070
     1
1070
    73
1070
     0
1070
   272
1070
     2
1070
    77
1070
     3
1070
   173
1070
     1
1070
   147
1040
1.0
1070
    42
1040
3.0
1070
    44
1040
1.5
1070
    43
1040
7.0
1070
   271
1070
     0
1070
   178
1070
     4
1070
   177
1070
     4
1070
   176
1070
     4
1070
   141
1040
150.0
1070
     7
1000
_OPEN
1070
     6
1000
_OPEN
1070
    41
1040
3.0
1002
}
  0
LINE
  5
4D67
330
1A
100
AcDbEntity
  8
SEIHIN
  6
Continuous
 62
     3
 48
5.0
100
AcDbLine
 10
79.48794008286616
 20
114.9760944740259
 30
0.0
 11
97.98804008286619
 21
114.9759944740259
 31
0.0
  0
LINE
  5
4D68
330
1A
100
AcDbEntity
  8
SEIHIN
  6
Continuous
 62
     3
 48
5.0
100
AcDbLine
 10
81.90414008286614
 20
111.9760944740259
 30
0.0
 11
97.98804008286619
 21
111.9759944740259
 31
0.0
  0
LINE
  5
4D69
330
1A
100
AcDbEntity
  8
SEIHIN
  6
Continuous
 62
     3
 48
5.0
100
AcDbLine
 10
81.90414008286614
 20
93.97609447402595
 30
0.0
 11
97.98804008286619
 21
93.97599447402596
 31
0.0
  0
LINE
  5
4D6A
330
1A
100
AcDbEntity
  8
SEIHIN
  6
Continuous
 62
     3
 48
5.0
100
AcDbLine
 10
79.48784008286617
 20
90.97609447402595
 30
0.0
 11
97.98794008286613
 21
90.97599447402595
 31
0.0
  0
ARC
  5
4D6E
330
1A
100
AcDbEntity
  8
SEIHIN
  6
Continuous
 62
     3
 48
5.0
100
AcDbCircle
 10
74.48794008286616
 20
114.9760944740259
 30
0.0
 40
8.000000999999999
100
AcDbArc
 50
292.0243090000003
 51
337.9756909999998
  0
ARC
  5
4D6F
330
1A
100
AcDbEntity
  8
SEIHIN
  6
Continuous
 62
     3
 48
5.0
100
AcDbCircle
 10
74.48794008286616
 20
114.9760944740259
 30
0.0
 40
5.0
100
AcDbArc
 50
270.0
 51
0.0
  0
LINE
  5
4D70
330
1A
100
AcDbEntity
  8
SEIHIN
  6
Continuous
 62
     3
 48
5.0
100
AcDbLine
 10
74.48794008286616
 20
109.9760944740259
 30
0.0
 11
77.48794008286616
 21
107.5598944740259
 31
0.0
  0
LINE
  5
4D71
330
1A
100
AcDbEntity
  8
SEIHIN
  6
Continuous
 62
     3
 48
5.0
100
AcDbLine
 10
74.48794008286616
 20
95.97669447402592
 30
0.0
 11
77.48784008286617
 21
98.39289447402595
 31
0.0
  0
ARC
  5
4D72
330
1A
100
AcDbEntity
  8
SEIHIN
  6
Continuous
 62
     3
 48
5.0
100
AcDbCircle
 10
74.48784008286617
 20
90.97609447402595
 30
0.0
 40
5.0
100
AcDbArc
 50
0.0
 51
90.0
  0
LINE
  5
4D73
330
1A
100
AcDbEntity
  8
SEIHIN
  6
Continuous
 62
     3
 48
5.0
100
AcDbLine
 10
74.48794008286616
 20
95.97609447402595
 30
0.0
 11
74.48794008286616
 21
102.9760944740259
 31
0.0
  0
LINE
  5
4D74
330
1A
100
AcDbEntity
  8
SEIHIN
  6
Continuous
 62
     3
 48
5.0
100
AcDbLine
 10
74.48794008286616
 20
109.9760944740259
 30
0.0
 11
74.48794008286616
 21
102.9760944740259
 31
0.0
  0
LINE
  5
4D75
330
1A
100
AcDbEntity
  8
SEIHIN
  6
Continuous
 62
     3
 48
5.0
100
AcDbLine
 10
77.48794008286616
 20
98.39229447402596
 30
0.0
 11
77.48794008286616
 21
102.9760944740259
 31
0.0
  0
LINE
  5
4D76
330
1A
100
AcDbEntity
  8
CENTER L
  6
CENTER
 62
     1
 48
5.0
100
AcDbLine
 10
82.98794008286614
 20
107.9760944740259
 30
0.0
 11
82.98794008286614
 21
97.97609447402596
 31
0.0
  0
LINE
  5
4D77
330
1A
100
AcDbEntity
  8
SEIHIN
  6
Continuous
 62
     3
 48
5.0
100
AcDbLine
 10
79.48784008286617
 20
90.97669447402592
 30
0.0
 11
81.90404008286618
 21
93.97669447402597
 31
0.0
  0
ARC
  5
4D78
330
1A
100
AcDbEntity
  8
SEIHIN
  6
Continuous
 62
     3
 48
5.0
100
AcDbCircle
 10
74.48784008286617
 20
90.97609447402595
 30
0.0
 40
8.000000999999999
100
AcDbArc
 50
22.02430900000023
 51
67.97569099999972
  0
LINE
  5
4D79
330
1A
100
AcDbEntity
  8
CENTER L
  6
CENTER
 62
     1
 48
5.0
100
AcDbLine
 10
87.98794008286613
 20
102.9759944740259
 30
0.0
 11
77.98794008286614
 21
102.9760944740259
 31
0.0
  0
CIRCLE
  5
4D7A
330
1A
100
AcDbEntity
  8
SEIHIN
  6
Continuous
 62
     3
 48
5.0
100
AcDbCircle
 10
82.98794008286614
 20
102.9760944740259
 30
0.0
 40
2.1
  0
LINE
  5
4D7B
330
1A
100
AcDbEntity
  8
SEIHIN
  6
Continuous
 62
     3
 48
5.0
100
AcDbLine
 10
77.48794008286616
 20
107.5598944740259
 30
0.0
 11
77.48794008286616
 21
102.9760944740259
 31
0.0
  0
LINE
  5
4D7C
330
1A
100
AcDbEntity
  8
SEIHIN
  6
Continuous
 62
     3
 48
5.0
100
AcDbLine
 10
79.48794008286616
 20
114.9760944740259
 30
0.0
 11
81.90414008286614
 21
111.9760944740259
 31
0.0
  0
LINE
  5
4D7D
330
1A
100
AcDbEntity
  8
CENTER L
  6
CENTER
 62
     1
 48
5.0
100
AcDbLine
 10
106.9880400828661
 20
148.950894474026
 30
0.0
 11
106.9879400828661
 21
56.45859447402596
 31
0.0
  0
LINE
  5
4D7E
330
1A
100
AcDbEntity
  8
SEIHIN
  6
Continuous
 62
     3
 48
5.0
100
AcDbLine
 10
113.4879400828661
 20
139.0759920797617
 30
0.0
 11
113.4879400828661
 21
69.62609447402596
 31
0.0
  0
LINE
  5
4D7F
330
1A
100
AcDbEntity
  8
SEIHIN
  6
Continuous
 62
     3
 48
5.0
100
AcDbLine
 10
115.9879400828661
 20
63.62599447402597
 30
0.0
 11
115.9879400828661
 21
143.8261944740259
 31
0.0
  0
LINE
  5
4D80
330
1A
100
AcDbEntity
  8
SEIHIN
  6
Continuous
 62
     3
 48
5.0
100
AcDbLine
 10
100.4879437890574
 20
139.0759920797617
 30
0.0
 11
100.4878501909388
 21
69.62609447402598
 31
0.0
  0
LINE
  5
4D81
330
1A
100
AcDbEntity
  8
SEIHIN
  6
Continuous
 62
     3
 48
5.0
100
AcDbLine
 10
97.98794008286613
 20
63.62609447402596
 30
0.0
 11
97.98794008286613
 21
143.8261944740259
 31
0.0
  0
LINE
  5
4D85
330
1A
100
AcDbEntity
  8
SEIHIN
  6
Continuous
 62
     3
 48
5.0
100
AcDbLine
 10
113.4878400828661
 20
62.12599447402595
 30
0.0
 11
100.4878400828661
 21
62.12609447402596
 31
0.0
  0
LINE
  5
4D86
330
1A
100
AcDbEntity
  8
SEIHIN
  6
Continuous
 62
     3
 48
5.0
100
AcDbLine
 10
97.98794008286613
 20
63.62609447402596
 30
0.0
 11
100.4878400828661
 21
62.12609447402596
 31
0.0
  0
LINE
  5
4D87
330
1A
100
AcDbEntity
  8
SEIHIN
  6
Continuous
 62
     3
 48
5.0
100
AcDbLine
 10
113.4879400828661
 20
62.12599447402595
 30
0.0
 11
115.9879400828661
 21
63.62599447402597
 31
0.0
  0
MTEXT
  5
4D88
330
1A
100
AcDbEntity
  8
SUNPOU
  6
Continuous
 62
     4
100
AcDbMText
 10
149.0883588122663
 20
135.7147317309165
 30
0.0
 40
3.0
 41
0.0
 71
     7
 72
     5
  1
2-φ4.2
 73
     1
 44
1.0
1001
ACAD
1000
MTEXTBEGIN
1070
    73
1070
     1
1070
    44
1040
1.0
1070
    74
1070
     0
1000
MTEXTEND
  0
LEADER
  5
4D89
330
1A
100
AcDbEntity
  8
SUNPOU
  6
Continuous
 62
     4
100
AcDbLeader
  3
STANDARD
 73
     0
 74
     0
 40
3.0
 41
15.6
 76
     3
 10
132.505803524835
 20
104.4847704456704
 30
0.0
 10
147.2475994433319
 20
134.7147317309165
 30
0.0
 10
148.0883588122663
 20
134.7147317309165
 30
0.0
1001
ACAD
1000
DSTYLE
1002
{
1070
     6
1000
OPEN
1070
    41
1040
3.0
1070
    42
1040
3.0
1070
    43
1040
7.0
1070
    44
1040
1.5
1070
    73
1070
     0
1070
    74
1070
     0
1070
    77
1070
     3
1070
   140
1040
3.0
1070
   141
1040
150.0
1070
   147
1040
1.0
1070
   172
1070
     1
1070
   173
1070
     1
1070
   176
1070
     4
1070
   177
1070
     4
1070
   178
1070
     4
1070
   271
1070
     0
1070
   272
1070
     2
1070
   341
1005
B2
1070
   343
1005
B2
1070
   344
1005
B2
1002
}
  0
DIMENSION
  5
4D8A
330
1A
100
AcDbEntity
  8
SUNPOU
  6
Continuous
 62
     4
 48
5.0
100
AcDbDimension
  2
*D7
 10
157.022001952917
 20
90.97599447402595
 30
0.0
 11
154.522001952917
 21
102.9759944740259
 31
0.0
 70
    32
 71
     5
 42
-1.0
  3
STANDARD
100
AcDbAlignedDimension
 13
134.4880400828661
 23
114.9759944740259
 33
0.0
 14
134.4880400828661
 24
90.97599447402595
 34
0.0
 50
90.0
100
AcDbRotatedDimension
1001
ACAD
1000
DSTYLE
1002
{
1070
   140
1040
3.0
1070
    74
1070
     0
1070
   172
1070
     1
1070
    73
1070
     0
1070
   272
1070
     2
1070
    77
1070
     3
1070
   173
1070
     1
1070
   147
1040
1.0
1070
    42
1040
3.0
1070
    44
1040
1.5
1070
    43
1040
7.0
1070
   271
1070
     0
1070
   178
1070
     4
1070
   177
1070
     4
1070
   176
1070
     4
1070
   141
1040
150.0
1070
     7
1000
_OPEN
1070
     6
1000
_OPEN
1070
    41
1040
3.0
1002
}
  0
ARC
  5
4D8B
330
1A
100
AcDbEntity
  8
SEIHIN
  6
Continuous
 62
     3
 48
5.0
100
AcDbCircle
 10
139.4880400828661
 20
114.9759944740259
 30
0.0
 40
8.000000999999999
100
AcDbArc
 50
202.0243090000002
 51
247.9756909999997
  0
ARC
  5
4D8C
330
1A
100
AcDbEntity
  8
SEIHIN
  6
Continuous
 62
     3
 48
5.0
100
AcDbCircle
 10
139.4880400828661
 20
114.9759944740259
 30
0.0
 40
5.0
100
AcDbArc
 50
180.0
 51
270.0
  0
LINE
  5
4D8D
330
1A
100
AcDbEntity
  8
SEIHIN
  6
Continuous
 62
     3
 48
5.0
100
AcDbLine
 10
132.0718400828661
 20
93.97599447402596
 30
0.0
 11
115.9879400828661
 21
93.97599447402596
 31
0.0
  0
LINE
  5
4D8E
330
1A
100
AcDbEntity
  8
SEIHIN
  6
Continuous
 62
     3
 48
5.0
100
AcDbLine
 10
134.4880400828661
 20
90.97599447402595
 30
0.0
 11
115.9879400828661
 21
90.97599447402595
 31
0.0
  0
LINE
  5
4D8F
330
1A
100
AcDbEntity
  8
SEIHIN
  6
Continuous
 62
     3
 48
5.0
100
AcDbLine
 10
113.4879400828661
 20
78.76469447402596
 30
0.0
 11
100.4878400828661
 21
78.76469447402596
 31
0.0
  0
LINE
  5
4D90
330
1A
100
AcDbEntity
  8
SEIHIN
  6
Continuous
 62
     3
 48
5.0
100
AcDbLine
 10
113.4878400828661
 20
69.62609447402596
 30
0.0
 11
100.4878400828661
 21
69.62609447402596
 31
0.0
  0
LINE
  5
4D91
330
1A
100
AcDbEntity
  8
SEIHIN
  6
Continuous
 62
     3
 48
5.0
100
AcDbLine
 10
110.4879400828661
 20
68.13899447402596
 30
0.0
 11
103.4879400828661
 21
68.13899447402596
 31
0.0
  0
LINE
  5
4D92
330
1A
100
AcDbEntity
  8
SEIHIN
  6
Continuous
 62
     3
 48
5.0
100
AcDbLine
 10
97.98794008286613
 20
71.12609447402596
 30
0.0
 11
100.4879400828661
 21
69.62609447402596
 31
0.0
  0
LINE
  5
4D93
330
1A
100
AcDbEntity
  8
SEIHIN
  6
Continuous
 62
     3
 48
5.0
100
AcDbLine
 10
103.4879400828661
 20
68.13889447402596
 30
0.0
 11
103.4879400828661
 21
69.62599447402595
 31
0.0
  0
LINE
  5
4D94
330
1A
100
AcDbEntity
  8
SEIHIN
  6
Continuous
 62
     3
 48
5.0
100
AcDbLine
 10
97.98794008286613
 20
80.26469447402595
 30
0.0
 11
100.4878400828661
 21
78.76469447402596
 31
0.0
  0
LINE
  5
4D95
330
1A
100
AcDbEntity
  8
SEIHIN
  6
Continuous
 62
     3
 48
5.0
100
AcDbLine
 10
113.4879400828661
 20
69.62609447402596
 30
0.0
 11
115.9879400828661
 21
71.12609447402596
 31
0.0
  0
LINE
  5
4D96
330
1A
100
AcDbEntity
  8
SEIHIN
  6
Continuous
 62
     3
 48
5.0
100
AcDbLine
 10
110.4879400828661
 20
68.13889447402596
 30
0.0
 11
110.4879400828661
 21
69.62599447402595
 31
0.0
  0
LINE
  5
4D97
330
1A
100
AcDbEntity
  8
SEIHIN
  6
Continuous
 62
     3
 48
5.0
100
AcDbLine
 10
113.4879400828661
 20
78.76469447402596
 30
0.0
 11
115.9879400828661
 21
80.26469447402595
 31
0.0
  0
LINE
  5
4D98
330
1A
100
AcDbEntity
  8
SEIHIN
  6
Continuous
 62
     3
 48
5.0
100
AcDbLine
 10
139.4880400828661
 20
95.97599447402595
 30
0.0
 11
139.4880400828661
 21
102.9759944740259
 31
0.0
  0
LINE
  5
4D99
330
1A
100
AcDbEntity
  8
SEIHIN
  6
Continuous
 62
     3
 48
5.0
100
AcDbLine
 10
136.4880400828661
 20
98.39219447402596
 30
0.0
 11
136.4880400828661
 21
102.9759944740259
 31
0.0
  0
LINE
  5
4D9A
330
1A
100
AcDbEntity
  8
CENTER L
  6
CENTER
 62
     1
 48
5.0
100
AcDbLine
 10
130.9880400828661
 20
107.9759944740259
 30
0.0
 11
130.9880400828661
 21
97.97599447402596
 31
0.0
  0
ARC
  5
4D9B
330
1A
100
AcDbEntity
  8
SEIHIN
  6
Continuous
 62
     3
 48
5.0
100
AcDbCircle
 10
139.4880400828661
 20
90.97599447402595
 30
0.0
 40
8.000000999999999
100
AcDbArc
 50
112.0243090000002
 51
157.9756909999998
  0
LINE
  5
4D9C
330
1A
100
AcDbEntity
  8
SEIHIN
  6
Continuous
 62
     3
 48
5.0
100
AcDbLine
 10
134.4881400828662
 20
90.97659447402596
 30
0.0
 11
132.0719400828662
 21
93.97659447402595
 31
0.0
  0
ARC
  5
4D9D
330
1A
100
AcDbEntity
  8
SEIHIN
  6
Continuous
 62
     3
 48
5.0
100
AcDbCircle
 10
139.4880400828661
 20
90.97599447402595
 30
0.0
 40
5.0
100
AcDbArc
 50
90.0
 51
180.0
  0
LINE
  5
4D9E
330
1A
100
AcDbEntity
  8
SEIHIN
  6
Continuous
 62
     3
 48
5.0
100
AcDbLine
 10
139.4881400828662
 20
95.97669447402592
 30
0.0
 11
136.4881400828662
 21
98.39279447402596
 31
0.0
  0
LINE
  5
4D9F
330
1A
100
AcDbEntity
  8
CENTER L
  6
CENTER
 62
     1
 48
5.0
100
AcDbLine
 10
125.9880400828661
 20
102.9759944740259
 30
0.0
 11
135.9880400828661
 21
102.9759944740259
 31
0.0
  0
CIRCLE
  5
4DA0
330
1A
100
AcDbEntity
  8
SEIHIN
  6
Continuous
 62
     3
 48
5.0
100
AcDbCircle
 10
130.9880400828661
 20
102.9759944740259
 30
0.0
 40
2.1
  0
LINE
  5
4DA1
330
1A
100
AcDbEntity
  8
SEIHIN
  6
Continuous
 62
     3
 48
5.0
100
AcDbLine
 10
139.4880400828661
 20
109.9759944740259
 30
0.0
 11
139.4880400828661
 21
102.9759944740259
 31
0.0
  0
LINE
  5
4DA2
330
1A
100
AcDbEntity
  8
SEIHIN
  6
Continuous
 62
     3
 48
5.0
100
AcDbLine
 10
136.4880400828661
 20
107.5597944740259
 30
0.0
 11
136.4880400828661
 21
102.9759944740259
 31
0.0
  0
LINE
  5
4DA3
330
1A
100
AcDbEntity
  8
SEIHIN
  6
Continuous
 62
     3
 48
5.0
100
AcDbLine
 10
139.4881400828662
 20
109.9759944740259
 30
0.0
 11
136.4881400828662
 21
107.5597944740259
 31
0.0
  0
LINE
  5
4DA4
330
1A
100
AcDbEntity
  8
SEIHIN
  6
Continuous
 62
     3
 48
5.0
100
AcDbLine
 10
132.0718400828661
 20
111.9759944740259
 30
0.0
 11
115.9879400828661
 21
111.9759944740259
 31
0.0
  0
LINE
  5
4DA5
330
1A
100
AcDbEntity
  8
SEIHIN
  6
Continuous
 62
     3
 48
5.0
100
AcDbLine
 10
134.4880400828661
 20
114.9759944740259
 30
0.0
 11
115.9879400828661
 21
114.9759944740259
 31
0.0
  0
LINE
  5
4DA6
330
1A
100
AcDbEntity
  8
SEIHIN
  6
Continuous
 62
     3
 48
5.0
100
AcDbLine
 10
113.4879400828661
 20
127.1874944740259
 30
0.0
 11
100.4879400828661
 21
127.1875944740259
 31
0.0
  0
LINE
  5
4DA7
330
1A
100
AcDbEntity
  8
SEIHIN
  6
Continuous
 62
     3
 48
5.0
100
AcDbLine
 10
100.4879400828661
 20
127.1875944740259
 30
0.0
 11
97.98784008286617
 21
125.6875944740259
 31
0.0
  0
LINE
  5
4DA8
330
1A
100
AcDbEntity
  8
SEIHIN
  6
Continuous
 62
     3
 48
5.0
100
AcDbLine
 10
115.9879400828661
 20
125.6874944740259
 30
0.0
 11
113.4879400828661
 21
127.1874944740259
 31
0.0
  0
LINE
  5
4DA9
330
1A
100
AcDbEntity
  8
SEIHIN
  6
Continuous
 62
     3
 48
5.0
100
AcDbLine
 10
115.9879400828661
 20
143.8261944740259
 30
0.0
 11
97.98804008286619
 21
143.8261944740259
 31
0.0
  0
LINE
  5
4DAA
330
1A
100
AcDbEntity
  8
SEIHIN
  6
Continuous
 62
     3
 48
5.0
100
AcDbLine
 10
113.4879400828661
 20
136.3260944740259
 30
0.0
 11
100.4879400828661
 21
136.3260944740259
 31
0.0
  0
LINE
  5
4DAB
330
1A
100
AcDbEntity
  8
SEIHIN
  6
Continuous
 62
     3
 48
5.0
100
AcDbLine
 10
115.9879400828661
 20
141.826294474026
 30
0.0
 11
97.98794008286613
 21
141.8263944740259
 31
0.0
  0
LINE
  5
4DAC
330
1A
100
AcDbEntity
  8
SEIHIN
  6
Continuous
 62
     3
 48
5.0
100
AcDbLine
 10
100.4879400828661
 20
136.3260944740259
 30
0.0
 11
97.98794008286613
 21
134.826094474026
 31
0.0
  0
LINE
  5
4DAD
330
1A
100
AcDbEntity
  8
SEIHIN
  6
Continuous
 62
     3
 48
5.0
100
AcDbLine
 10
103.4878400828662
 20
141.826094474026
 30
0.0
 11
103.4878400828662
 21
143.8259944740259
 31
0.0
  0
LINE
  5
4DAE
330
1A
100
AcDbEntity
  8
SEIHIN
  6
Continuous
 62
     3
 48
5.0
100
AcDbLine
 10
115.9879400828661
 20
134.826094474026
 30
0.0
 11
113.4879400828661
 21
136.3260944740259
 31
0.0
  0
LINE
  5
4DAF
330
1A
100
AcDbEntity
  8
SEIHIN
  6
Continuous
 62
     3
 48
5.0
100
AcDbLine
 10
110.4878400828662
 20
141.826094474026
 30
0.0
 11
110.4878400828662
 21
143.8259944740259
 31
0.0
  0
LINE
  5
4DB0
330
1A
100
AcDbEntity
  8
SEIHIN
  6
Continuous
 62
     3
 48
5.0
100
AcDbLine
 10
134.4881400828662
 20
114.9759944740259
 30
0.0
 11
132.0719400828662
 21
111.9759944740259
 31
0.0
  0
LINE
  5
4DB1
330
1A
100
AcDbEntity
  8
SEIHIN
  6
Continuous
 62
     3
 48
5.0
100
AcDbLine
 10
215.255499563309
 20
102.9759944740259
 30
0.0
 11
215.255499563309
 21
122.6397944740259
 31
0.0
  0
LINE
  5
4DB2
330
1A
100
AcDbEntity
  8
SEIHIN
  6
Continuous
 62
     3
 48
5.0
100
AcDbLine
 10
213.255499563309
 20
102.9759944740259
 30
0.0
 11
213.255499563309
 21
124.2260944740259
 31
0.0
  0
LINE
  5
4DB3
330
1A
100
AcDbEntity
  8
SEIHIN
  6
Continuous
 62
     3
 48
5.0
100
AcDbLine
 10
212.255499563309
 20
102.9759944740259
 30
0.0
 11
212.255499563309
 21
124.2260944740259
 31
0.0
  0
LINE
  5
4DB4
330
1A
100
AcDbEntity
  8
SEIHIN
  6
Continuous
 62
     3
 48
5.0
100
AcDbLine
 10
215.255499563309
 20
102.9759944740259
 30
0.0
 11
215.2553995633089
 21
83.31229447402597
 31
0.0
  0
LINE
  5
4DB5
330
1A
100
AcDbEntity
  8
SEIHIN
  6
Continuous
 62
     3
 48
5.0
100
AcDbLine
 10
213.255499563309
 20
102.9759944740259
 30
0.0
 11
213.2553995633089
 21
81.72599447402594
 31
0.0
  0
LINE
  5
4DB6
330
1A
100
AcDbEntity
  8
SEIHIN
  6
Continuous
 62
     3
 48
5.0
100
AcDbLine
 10
212.255499563309
 20
102.9759944740259
 30
0.0
 11
212.2553995633089
 21
81.72599447402594
 31
0.0
  0
ARC
  5
4DB7
330
1A
100
AcDbEntity
  8
SEIHIN
  6
Continuous
 62
     3
 48
5.0
100
AcDbCircle
 10
213.496899563309
 20
70.86749447402596
 30
0.0
 40
9.000002
100
AcDbArc
 50
9.199206000000039
 51
80.80089599999855
  0
ARC
  5
4DB8
330
1A
100
AcDbEntity
  8
SEIHIN
  6
Continuous
 62
     3
 48
5.0
100
AcDbCircle
 10
213.496899563309
 20
70.86749447402596
 30
0.0
 40
7.999985999999998
100
AcDbArc
 50
9.198932000000214
 51
80.80106799999867
  0
ARC
  5
4DB9
330
1A
100
AcDbEntity
  8
SEIHIN
  6
Continuous
 62
     3
 48
5.0
100
AcDbCircle
 10
217.2553995633089
 20
83.31229447402597
 30
0.0
 40
1.999967999999999
100
AcDbArc
 50
180.0
 51
253.1923650000009
  0
ARC
  5
4DBA
330
1A
100
AcDbEntity
  8
SEIHIN
  6
Continuous
 62
     3
 48
5.0
100
AcDbCircle
 10
215.2553995633089
 20
81.72599447402594
 30
0.0
 40
1.999959
100
AcDbArc
 50
180.0
 51
260.8014319999997
  0
ARC
  5
4DBB
330
1A
100
AcDbEntity
  8
SEIHIN
  6
Continuous
 62
     3
 48
5.0
100
AcDbCircle
 10
215.2553995633089
 20
81.72599447402594
 30
0.0
 40
2.999991999999998
100
AcDbArc
 50
180.0
 51
260.8007939999998
  0
ARC
  5
4DBC
330
1A
100
AcDbEntity
  8
SEIHIN
  6
Continuous
 62
     3
 48
5.0
100
AcDbCircle
 10
213.4970995633089
 20
135.0845944740259
 30
0.0
 40
8.999945
100
AcDbArc
 50
279.1985770000009
 51
350.8007939999998
  0
ARC
  5
4DBD
330
1A
100
AcDbEntity
  8
SEIHIN
  6
Continuous
 62
     3
 48
5.0
100
AcDbCircle
 10
213.4970995633089
 20
135.0845944740259
 30
0.0
 40
7.999985999999998
100
AcDbArc
 50
279.1989320000013
 51
350.8010679999999
  0
ARC
  5
4DBE
330
1A
100
AcDbEntity
  8
SEIHIN
  6
Continuous
 62
     3
 48
5.0
100
AcDbCircle
 10
217.255499563309
 20
122.6397944740259
 30
0.0
 40
2.000000999999999
100
AcDbArc
 50
106.8040639999994
 51
180.0
  0
ARC
  5
4DBF
330
1A
100
AcDbEntity
  8
SEIHIN
  6
Continuous
 62
     3
 48
5.0
100
AcDbCircle
 10
215.255499563309
 20
124.2260944740259
 30
0.0
 40
1.999959
100
AcDbArc
 50
99.19856800000026
 51
180.0
  0
ARC
  5
4DC0
330
1A
100
AcDbEntity
  8
SEIHIN
  6
Continuous
 62
     3
 48
5.0
100
AcDbCircle
 10
215.255499563309
 20
124.2260944740259
 30
0.0
 40
2.999983999999998
100
AcDbArc
 50
99.19732000000058
 51
180.0
  0
DIMENSION
  5
4DC1
330
1A
100
AcDbEntity
  8
SUNPOU
  6
Continuous
 62
     4
 48
5.0
100
AcDbDimension
  2
*D8
 10
184.5763616175181
 20
213.4607416211951
 30
0.0
 11
182.0763616175181
 21
222.460841621122
 31
0.0
 70
    32
 71
     5
 42
-1.0
  3
STANDARD
100
AcDbAlignedDimension
 13
213.255499563309
 23
231.4609416210487
 33
0.0
 14
213.2555508946289
 24
213.4607416211951
 34
0.0
 50
90.0
100
AcDbRotatedDimension
1001
ACAD
1000
DSTYLE
1002
{
1070
   140
1040
3.0
1070
    74
1070
     0
1070
   172
1070
     1
1070
    73
1070
     0
1070
   272
1070
     2
1070
    77
1070
     3
1070
   173
1070
     1
1070
   147
1040
1.0
1070
    42
1040
3.0
1070
    44
1040
1.5
1070
    43
1040
7.0
1070
   271
1070
     0
1070
   178
1070
     4
1070
   177
1070
     4
1070
   176
1070
     4
1070
   141
1040
150.0
1070
     7
1000
_OPEN
1070
     6
1000
_OPEN
1070
    41
1040
3.0
1002
}
  0
LINE
  5
4DC2
330
1A
100
AcDbEntity
  8
SEIHIN
  6
Continuous
 62
     3
 48
5.0
100
AcDbLine
 10
221.6235995633089
 20
228.9609416210487
 30
0.0
 11
221.6235995633089
 21
222.4609416210487
 31
0.0
  0
LINE
  5
4DC3
330
1A
100
AcDbEntity
  8
SEIHIN
  6
Continuous
 62
     3
 48
5.0
100
AcDbLine
 10
212.255499563309
 20
222.4608416210487
 30
0.0
 11
212.255499563309
 21
228.9607416210487
 31
0.0
  0
LINE
  5
4DC4
330
1A
100
AcDbEntity
  8
SEIHIN
  6
Continuous
 62
     3
 48
5.0
100
AcDbLine
 10
221.6235995633089
 20
215.9609416210487
 30
0.0
 11
222.6235995633089
 21
213.4609416210487
 31
0.0
  0
LINE
  5
4DC5
330
1A
100
AcDbEntity
  8
SEIHIN
  6
Continuous
 62
     3
 48
5.0
100
AcDbLine
 10
212.255499563309
 20
215.9609416210487
 30
0.0
 11
213.255499563309
 21
213.4609416210487
 31
0.0
  0
LINE
  5
4DC6
330
1A
100
AcDbEntity
  8
SEIHIN
  6
Continuous
 62
     3
 48
5.0
100
AcDbLine
 10
212.255499563309
 20
222.4608416210487
 30
0.0
 11
212.255499563309
 21
215.9609416210487
 31
0.0
  0
LINE
  5
4DC7
330
1A
100
AcDbEntity
  8
SEIHIN
  6
Continuous
 62
     3
 48
5.0
100
AcDbLine
 10
221.6235995633089
 20
215.9609416210487
 30
0.0
 11
221.6235995633089
 21
222.4609416210487
 31
0.0
  0
LINE
  5
4DC8
330
1A
100
AcDbEntity
  8
SEIHIN
  6
Continuous
 62
     3
 48
5.0
100
AcDbLine
 10
212.255499563309
 20
228.9609416210487
 30
0.0
 11
213.255499563309
 21
231.4609416210487
 31
0.0
  0
LINE
  5
4DC9
330
1A
100
AcDbEntity
  8
SEIHIN
  6
Continuous
 62
     3
 48
5.0
100
AcDbLine
 10
221.6235995633089
 20
228.9609416210487
 30
0.0
 11
222.6235995633089
 21
231.4609416210487
 31
0.0
  0
DIMENSION
  5
4DCC
330
1A
100
AcDbEntity
  8
SUNPOU
  6
Continuous
 62
     4
 48
5.0
100
AcDbDimension
  2
*D9
 10
324.955499563309
 20
58.70653594636682
 30
0.0
 11
300.455446063309
 21
61.20653594636682
 31
0.0
 70
    32
 71
     5
 42
-1.0
  3
STANDARD
100
AcDbAlignedDimension
 13
275.955392563309
 23
82.54599447402595
 33
0.0
 14
324.955499563309
 24
90.97589447402596
 34
0.0
100
AcDbRotatedDimension
1001
ACAD
1000
DSTYLE
1002
{
1070
   140
1040
3.0
1070
    74
1070
     0
1070
   172
1070
     1
1070
    73
1070
     0
1070
   272
1070
     2
1070
    77
1070
     3
1070
   173
1070
     1
1070
   147
1040
1.0
1070
    42
1040
3.0
1070
    44
1040
1.5
1070
    43
1040
7.0
1070
   271
1070
     0
1070
   178
1070
     4
1070
   177
1070
     4
1070
   176
1070
     4
1070
   141
1040
150.0
1070
     7
1000
_OPEN
1070
     6
1000
_OPEN
1070
    41
1040
3.0
1002
}
  0
LINE
  5
4DCD
330
1A
100
AcDbEntity
  8
CENTER L
  6
CENTER
 62
     1
 48
5.0
100
AcDbLine
 10
245.6054183025977
 20
143.326094474026
 30
0.0
 11
245.605280824083
 21
62.62593133815788
 31
0.0
  0
ARC
  5
4DCE
330
1A
100
AcDbEntity
  8
SEIHIN
  6
Continuous
 62
     3
 48
5.0
100
AcDbCircle
 10
259.255499563309
 20
65.62589447402595
 30
0.0
 40
3.500020999999998
100
AcDbArc
 50
92.38907899999857
 51
270.0
  0
ARC
  5
4DCF
330
1A
100
AcDbEntity
  8
SEIHIN
  6
Continuous
 62
     3
 48
5.0
100
AcDbCircle
 10
262.2554995633089
 20
68.12589447402595
 30
0.0
 40
4.999958999999998
100
AcDbArc
 50
270.0
 51
343.1477489999998
  0
ARC
  5
4DD0
330
1A
100
AcDbEntity
  8
SEIHIN
  6
Continuous
 62
     3
 48
5.0
100
AcDbCircle
 10
262.2554995633089
 20
68.12589447402595
 30
0.0
 40
5.999979999999998
100
AcDbArc
 50
270.0
 51
343.1479150000003
  0
LINE
  5
4DD1
330
1A
100
AcDbEntity
  8
SEIHIN
  6
Continuous
 62
     3
 48
5.0
100
AcDbLine
 10
256.805899563309
 20
63.12589447402595
 30
0.0
 11
262.2554995633089
 21
63.12589447402595
 31
0.0
  0
LINE
  5
4DD2
330
1A
100
AcDbEntity
  8
SEIHIN
  6
Continuous
 62
     3
 48
5.0
100
AcDbLine
 10
259.255499563309
 20
62.12589447402596
 30
0.0
 11
262.2554995633089
 21
62.12589447402596
 31
0.0
  0
LINE
  5
4DD6
330
1A
100
AcDbEntity
  8
SEIHIN
  6
Continuous
 62
     3
 48
5.0
100
AcDbLine
 10
318.4554995633089
 20
109.9758944740259
 30
0.0
 11
284.9554995633089
 21
109.9758944740259
 31
0.0
  0
LINE
  5
4DD7
330
1A
100
AcDbEntity
  8
SEIHIN
  6
Continuous
 62
     3
 48
5.0
100
AcDbLine
 10
318.4554995633089
 20
108.9758944740259
 30
0.0
 11
284.9554995633089
 21
108.9758944740259
 31
0.0
  0
LINE
  5
4DD8
330
1A
100
AcDbEntity
  8
SEIHIN
  6
Continuous
 62
     3
 48
5.0
100
AcDbLine
 10
318.4554995633089
 20
95.97579447402599
 30
0.0
 11
284.9554995633089
 21
95.97589447402596
 31
0.0
  0
LINE
  5
4DD9
330
1A
100
AcDbEntity
  8
SEIHIN
  6
Continuous
 62
     3
 48
5.0
100
AcDbLine
 10
318.4554995633089
 20
96.97579447402596
 30
0.0
 11
284.9554995633089
 21
96.97589447402595
 31
0.0
  0
LINE
  5
4DDA
330
1A
100
AcDbEntity
  8
SEIHIN
  6
Continuous
 62
     3
 48
5.0
100
AcDbLine
 10
275.9554995633089
 20
103.4758944740259
 30
0.0
 11
275.9555995633089
 21
115.9758944740259
 31
0.0
  0
LINE
  5
4DDB
330
1A
100
AcDbEntity
  8
SEIHIN
  6
Continuous
 62
     3
 48
5.0
100
AcDbLine
 10
276.9555995633089
 20
116.9758944740259
 30
0.0
 11
276.9555995633089
 21
102.9758944740259
 31
0.0
  0
ARC
  5
4DDC
330
1A
100
AcDbEntity
  8
SEIHIN
  6
Continuous
 62
     3
 48
5.0
100
AcDbCircle
 10
284.9554995633089
 20
114.9758944740259
 30
0.0
 40
5.0
100
AcDbArc
 50
180.0
 51
270.0
  0
ARC
  5
4DDD
330
1A
100
AcDbEntity
  8
SEIHIN
  6
Continuous
 62
     3
 48
5.0
100
AcDbCircle
 10
284.9554995633089
 20
114.9758944740259
 30
0.0
 40
6.0
100
AcDbArc
 50
180.0
 51
270.0
  0
LINE
  5
4DDE
330
1A
100
AcDbEntity
  8
SEIHIN
  6
Continuous
 62
     3
 48
5.0
100
AcDbLine
 10
262.2554995633089
 20
72.62599447402596
 30
0.0
 11
250.605299563309
 21
72.62599447402596
 31
0.0
  0
LINE
  5
4DDF
330
1A
100
AcDbEntity
  8
SEIHIN
  6
Continuous
 62
     3
 48
5.0
100
AcDbLine
 10
256.2553995633089
 20
68.13889447402596
 30
0.0
 11
256.8191995633089
 21
68.13889447402596
 31
0.0
  0
LINE
  5
4DE0
330
1A
100
AcDbEntity
  8
SEIHIN
  6
Continuous
 62
     3
 48
5.0
100
AcDbLine
 10
224.3553995633089
 20
70.62599447402596
 30
0.0
 11
256.963899563309
 21
70.62589447402595
 31
0.0
  0
LINE
  5
4DE1
330
1A
100
AcDbEntity
  8
SEIHIN
  6
Continuous
 62
     3
 48
5.0
100
AcDbLine
 10
224.3553995633089
 20
69.62599447402595
 30
0.0
 11
258.012799563309
 21
69.62589447402597
 31
0.0
  0
LINE
  5
4DE2
330
1A
100
AcDbEntity
  8
SEIHIN
  6
Continuous
 62
     3
 48
5.0
100
AcDbLine
 10
225.941699563309
 20
72.62599447402596
 30
0.0
 11
240.605299563309
 21
72.62599447402596
 31
0.0
  0
LINE
  5
4DE3
330
1A
100
AcDbEntity
  8
SEIHIN
  6
Continuous
 62
     3
 48
5.0
100
AcDbLine
 10
241.605299563309
 20
73.62589447402595
 30
0.0
 11
249.6052995633089
 21
73.62589447402595
 31
0.0
  0
ARC
  5
4DE4
330
1A
100
AcDbEntity
  8
SEIHIN
  6
Continuous
 62
     3
 48
5.0
100
AcDbCircle
 10
241.605299563309
 20
72.62589447402596
 30
0.0
 40
1.0
100
AcDbArc
 50
90.0
 51
180.0
  0
LINE
  5
4DE5
330
1A
100
AcDbEntity
  8
SEIHIN
  6
Continuous
 62
     3
 48
5.0
100
AcDbLine
 10
256.2553995633089
 20
68.12589447402595
 30
0.0
 11
256.255499563309
 21
69.62589447402597
 31
0.0
  0
ARC
  5
4DE6
330
1A
100
AcDbEntity
  8
SEIHIN
  6
Continuous
 62
     3
 48
5.0
100
AcDbCircle
 10
249.6052995633089
 20
72.62589447402596
 30
0.0
 40
1.0
100
AcDbArc
 50
0.0
 51
90.0
  0
LINE
  5
4DE7
330
1A
100
AcDbEntity
  8
SEIHIN
  6
Continuous
 62
     3
 48
5.0
100
AcDbLine
 10
279.9554995633089
 20
90.97589447402596
 30
0.0
 11
279.955399563309
 21
81.84119447402597
 31
0.0
  0
LINE
  5
4DE8
330
1A
100
AcDbEntity
  8
SEIHIN
  6
Continuous
 62
     3
 48
5.0
100
AcDbLine
 10
278.9554995633089
 20
90.97589447402596
 30
0.0
 11
278.9554995633089
 21
81.84119447402597
 31
0.0
  0
LINE
  5
4DE9
330
1A
100
AcDbEntity
  8
SEIHIN
  6
Continuous
 62
     3
 48
5.0
100
AcDbLine
 10
275.9554995633089
 20
87.97589447402595
 30
0.0
 11
275.955399563309
 21
82.54599447402595
 31
0.0
  0
ARC
  5
4DEA
330
1A
100
AcDbEntity
  8
SEIHIN
  6
Continuous
 62
     3
 48
5.0
100
AcDbCircle
 10
277.7139995633091
 20
70.86729447402595
 30
0.0
 40
11.000045
100
AcDbArc
 50
103.289999
 51
166.7098809999998
  0
ARC
  5
4DEB
330
1A
100
AcDbEntity
  8
SEIHIN
  6
Continuous
 62
     3
 48
5.0
100
AcDbCircle
 10
277.7139995633091
 20
70.86729447402595
 30
0.0
 40
9.000004999999998
100
AcDbArc
 50
93.95399000000104
 51
163.1480079999996
  0
ARC
  5
4DEC
330
1A
100
AcDbEntity
  8
SEIHIN
  6
Continuous
 62
     3
 48
5.0
100
AcDbCircle
 10
277.7139995633091
 20
70.86729447402595
 30
0.0
 40
8.000044
100
AcDbArc
 50
93.95437600000118
 51
163.1481229999996
  0
ARC
  5
4DED
330
1A
100
AcDbEntity
  8
SEIHIN
  6
Continuous
 62
     3
 48
5.0
100
AcDbCircle
 10
262.2554995633089
 20
68.12589447402595
 30
0.0
 40
3.300030999999998
100
AcDbArc
 50
162.415527
 51
345.678246
  0
ARC
  5
4DEE
330
1A
100
AcDbEntity
  8
SEIHIN
  6
Continuous
 62
     3
 48
5.0
100
AcDbCircle
 10
262.2553995633089
 20
68.12589447402595
 30
0.0
 40
4.500017999999998
100
AcDbArc
 50
33.74868699999997
 51
90.0
  0
ARC
  5
4DEF
330
1A
100
AcDbEntity
  8
SEIHIN
  6
Continuous
 62
     3
 48
5.0
100
AcDbCircle
 10
256.963899563309
 20
69.62589447402597
 30
0.0
 40
1.0
100
AcDbArc
 50
344.1750180000004
 51
90.0
  0
ARC
  5
4DF0
330
1A
100
AcDbEntity
  8
SEIHIN
  6
Continuous
 62
     3
 48
5.0
100
AcDbCircle
 10
262.2553995633089
 20
68.12589447402595
 30
0.0
 40
4.5
100
AcDbArc
 50
164.1730070000004
 51
171.2223769999999
  0
LINE
  5
4DF1
330
1A
100
AcDbEntity
  8
SEIHIN
  6
Continuous
 62
     3
 48
5.0
100
AcDbLine
 10
270.057599563309
 20
73.18649447402595
 30
0.0
 11
267.997799563309
 21
66.38649447402596
 31
0.0
  0
LINE
  5
4DF2
330
1A
100
AcDbEntity
  8
SEIHIN
  6
Continuous
 62
     3
 48
5.0
100
AcDbLine
 10
269.1004995633089
 20
73.47639447402595
 30
0.0
 11
267.0407995633089
 21
66.67639447402597
 31
0.0
  0
LINE
  5
4DF3
330
1A
100
AcDbEntity
  8
SEIHIN
  6
Continuous
 62
     3
 48
5.0
100
AcDbLine
 10
267.055899563309
 20
73.58839447402596
 30
0.0
 11
265.4528995633089
 21
67.30959447402597
 31
0.0
  0
ARC
  5
4DF4
330
1A
100
AcDbEntity
  8
SEIHIN
  6
Continuous
 62
     3
 48
5.0
100
AcDbCircle
 10
274.9553995633089
 20
82.54599447402595
 30
0.0
 40
0.999993
100
AcDbArc
 50
283.2913719999996
 51
0.0
  0
ARC
  5
4DF5
330
1A
100
AcDbEntity
  8
SEIHIN
  6
Continuous
 62
     3
 48
5.0
100
AcDbCircle
 10
276.9553995633089
 20
81.84119447402597
 30
0.0
 40
2.000029999999999
100
AcDbArc
 50
273.9535629999983
 51
0.0
  0
ARC
  5
4DF6
330
1A
100
AcDbEntity
  8
SEIHIN
  6
Continuous
 62
     3
 48
5.0
100
AcDbCircle
 10
276.9553995633089
 20
81.84119447402597
 30
0.0
 40
3.000021999999998
100
AcDbArc
 50
273.9545810000011
 51
0.0
  0
LINE
  5
4DF7
330
1A
100
AcDbEntity
  8
SEIHIN
  6
Continuous
 62
     3
 48
5.0
100
AcDbLine
 10
275.9554995633089
 20
102.4758944740259
 30
0.0
 11
275.9554995633089
 21
89.97589447402594
 31
0.0
  0
LINE
  5
4DF8
330
1A
100
AcDbEntity
  8
SEIHIN
  6
Continuous
 62
     3
 48
5.0
100
AcDbLine
 10
276.955499563309
 20
88.97589447402593
 30
0.0
 11
276.9555995633089
 21
102.9758944740259
 31
0.0
  0
ARC
  5
4DF9
330
1A
100
AcDbEntity
  8
SEIHIN
  6
Continuous
 62
     3
 48
5.0
100
AcDbCircle
 10
284.9554995633089
 20
90.97589447402596
 30
0.0
 40
5.0
100
AcDbArc
 50
90.0
 51
180.0
  0
ARC
  5
4DFA
330
1A
100
AcDbEntity
  8
SEIHIN
  6
Continuous
 62
     3
 48
5.0
100
AcDbCircle
 10
284.9554995633089
 20
90.97589447402596
 30
0.0
 40
6.0
100
AcDbArc
 50
90.0
 51
180.0
  0
ARC
  5
4DFB
330
1A
100
AcDbEntity
  8
SEIHIN
  6
Continuous
 62
     3
 48
5.0
100
AcDbCircle
 10
275.9554995633089
 20
88.97589447402593
 30
0.0
 40
1.0
100
AcDbArc
 50
270.0
 51
90.0
  0
LINE
  5
4DFC
330
1A
100
AcDbEntity
  8
SEIHIN
  6
Continuous
 62
     3
 48
5.0
100
AcDbLine
 10
276.4554995633089
 20
103.4758944740259
 30
0.0
 11
275.9554995633089
 21
103.4758944740259
 31
0.0
  0
LINE
  5
4DFD
330
1A
100
AcDbEntity
  8
SEIHIN
  6
Continuous
 62
     3
 48
5.0
100
AcDbLine
 10
276.4554995633089
 20
102.4758944740259
 30
0.0
 11
275.9554995633089
 21
102.4758944740259
 31
0.0
  0
ARC
  5
4DFE
330
1A
100
AcDbEntity
  8
SEIHIN
  6
Continuous
 62
     3
 48
5.0
100
AcDbCircle
 10
276.4554995633089
 20
102.9758944740259
 30
0.0
 40
0.5
100
AcDbArc
 50
270.0
 51
90.0
  0
LINE
  5
4DFF
330
1A
100
AcDbEntity
  8
CENTER L
  6
CENTER
 62
     1
 48
5.0
100
AcDbLine
 10
253.3293491613734
 20
138.826094474026
 30
0.0
 11
271.1816499652448
 21
138.826094474026
 31
0.0
  0
ARC
  5
4E00
330
1A
100
AcDbEntity
  8
SEIHIN
  6
Continuous
 62
     3
 48
5.0
100
AcDbCircle
 10
258.255499563309
 20
138.826094474026
 30
0.0
 40
3.0
100
AcDbArc
 50
90.0
 51
180.0
  0
LINE
  5
4E01
330
1A
100
AcDbEntity
  8
SEIHIN
  6
Continuous
 62
     3
 48
5.0
100
AcDbLine
 10
250.6054995633089
 20
133.3260944740259
 30
0.0
 11
262.2554995633089
 21
133.3260944740259
 31
0.0
  0
LINE
  5
4E02
330
1A
100
AcDbEntity
  8
SEIHIN
  6
Continuous
 62
     3
 48
5.0
100
AcDbLine
 10
225.941699563309
 20
133.3260944740259
 30
0.0
 11
240.6053995633089
 21
133.3260944740259
 31
0.0
  0
LINE
  5
4E03
330
1A
100
AcDbEntity
  8
SEIHIN
  6
Continuous
 62
     3
 48
5.0
100
AcDbLine
 10
249.605399563309
 20
132.3260944740259
 30
0.0
 11
241.6053995633089
 21
132.3260944740259
 31
0.0
  0
ARC
  5
4E04
330
1A
100
AcDbEntity
  8
SEIHIN
  6
Continuous
 62
     3
 48
5.0
100
AcDbCircle
 10
241.6053995633089
 20
133.3260944740259
 30
0.0
 40
1.0
100
AcDbArc
 50
180.0
 51
270.0
  0
ARC
  5
4E05
330
1A
100
AcDbEntity
  8
SEIHIN
  6
Continuous
 62
     3
 48
5.0
100
AcDbCircle
 10
249.605399563309
 20
133.3260944740259
 30
0.0
 40
1.0
100
AcDbArc
 50
270.0
 51
0.0
  0
LINE
  5
4E06
330
1A
100
AcDbEntity
  8
SEIHIN
  6
Continuous
 62
     3
 48
5.0
100
AcDbLine
 10
224.3553995633089
 20
136.3260944740259
 30
0.0
 11
252.276399563309
 21
136.3260944740259
 31
0.0
  0
LINE
  5
4E07
330
1A
100
AcDbEntity
  8
SEIHIN
  6
Continuous
 62
     3
 48
5.0
100
AcDbLine
 10
224.3553995633089
 20
135.3260944740259
 30
0.0
 11
252.255499563309
 21
135.3260944740259
 31
0.0
  0
ARC
  5
4E08
330
1A
100
AcDbEntity
  8
SEIHIN
  6
Continuous
 62
     3
 48
5.0
100
AcDbCircle
 10
252.255499563309
 20
138.3260944740259
 30
0.0
 40
3.0
100
AcDbArc
 50
270.0
 51
0.0
  0
ARC
  5
4E09
330
1A
100
AcDbEntity
  8
SEIHIN
  6
Continuous
 62
     3
 48
5.0
100
AcDbCircle
 10
252.276399563309
 20
139.3260944740259
 30
0.0
 40
2.999971999999998
100
AcDbArc
 50
270.0
 51
355.2178009999999
  0
LINE
  5
4E0A
330
1A
100
AcDbEntity
  8
SEIHIN
  6
Continuous
 62
     3
 48
5.0
100
AcDbLine
 10
255.255499563309
 20
138.3260944740259
 30
0.0
 11
255.255499563309
 21
138.826094474026
 31
0.0
  0
LINE
  5
4E0B
330
1A
100
AcDbEntity
  8
CENTER L
  6
CENTER
 62
     1
 48
5.0
100
AcDbLine
 10
262.2554995633089
 20
129.8999440720905
 30
0.0
 11
262.2554995633089
 21
147.7522448759619
 31
0.0
  0
ARC
  5
4E0C
330
1A
100
AcDbEntity
  8
SEIHIN
  6
Continuous
 62
     3
 48
5.0
100
AcDbCircle
 10
264.7409995633089
 20
130.3260944740259
 30
0.0
 40
4.999969999999998
100
AcDbArc
 50
20.4875099999997
 51
63.86030300000022
  0
ARC
  5
4E0D
330
1A
100
AcDbEntity
  8
SEIHIN
  6
Continuous
 62
     3
 48
5.0
100
AcDbCircle
 10
264.7409995633089
 20
130.3260944740259
 30
0.0
 40
5.999997
100
AcDbArc
 50
20.48730900000037
 51
63.81204399999879
  0
ARC
  5
4E0E
330
1A
100
AcDbEntity
  8
SEIHIN
  6
Continuous
 62
     3
 48
5.0
100
AcDbCircle
 10
262.2554995633089
 20
138.826094474026
 30
0.0
 40
5.000046
100
AcDbArc
 50
328.738122
 51
270.0
  0
ARC
  5
4E0F
330
1A
100
AcDbEntity
  8
SEIHIN
  6
Continuous
 62
     3
 48
5.0
100
AcDbCircle
 10
277.855499563309
 20
135.2260944740259
 30
0.0
 40
9.000059
100
AcDbArc
 50
200.487198
 51
265.3073599999997
  0
ARC
  5
4E10
330
1A
100
AcDbEntity
  8
SEIHIN
  6
Continuous
 62
     3
 48
5.0
100
AcDbCircle
 10
277.855499563309
 20
135.2260944740259
 30
0.0
 40
8.000010000000001
100
AcDbArc
 50
200.4873090000004
 51
265.3072549999994
  0
ARC
  5
4E11
330
1A
100
AcDbEntity
  8
SEIHIN
  6
Continuous
 62
     3
 48
5.0
100
AcDbCircle
 10
277.855499563309
 20
135.2260944740259
 30
0.0
 40
11.000044
100
AcDbArc
 50
200.4872179999996
 51
256.0152990000013
  0
ARC
  5
4E12
330
1A
100
AcDbEntity
  8
SEIHIN
  6
Continuous
 62
     3
 48
5.0
100
AcDbCircle
 10
264.7409995633089
 20
130.3260944740259
 30
0.0
 40
2.999976999999999
100
AcDbArc
 50
20.4876430000002
 51
90.0
  0
LINE
  5
4E13
330
1A
100
AcDbEntity
  8
SEIHIN
  6
Continuous
 62
     3
 48
5.0
100
AcDbLine
 10
262.2554995633089
 20
133.8259944740259
 30
0.0
 11
262.2554995633089
 21
133.3260944740259
 31
0.0
  0
LINE
  5
4E14
330
1A
100
AcDbEntity
  8
SEIHIN
  6
Continuous
 62
     3
 48
5.0
100
AcDbLine
 10
262.2554995633089
 20
133.826094474026
 30
0.0
 11
262.2554995633089
 21
133.3260944740259
 31
0.0
  0
LINE
  5
4E15
330
1A
100
AcDbEntity
  8
SEIHIN
  6
Continuous
 62
     3
 48
5.0
100
AcDbLine
 10
262.2554995633089
 20
133.3260944740259
 30
0.0
 11
264.7409995633089
 21
133.3260944740259
 31
0.0
  0
LINE
  5
4E16
330
1A
100
AcDbEntity
  8
SEIHIN
  6
Continuous
 62
     3
 48
5.0
100
AcDbLine
 10
279.9554995633089
 20
114.9758944740259
 30
0.0
 11
279.9554995633089
 21
124.1105944740259
 31
0.0
  0
LINE
  5
4E17
330
1A
100
AcDbEntity
  8
SEIHIN
  6
Continuous
 62
     3
 48
5.0
100
AcDbLine
 10
278.9554995633089
 20
114.9758944740259
 30
0.0
 11
278.9554995633089
 21
124.1105944740259
 31
0.0
  0
LINE
  5
4E18
330
1A
100
AcDbEntity
  8
SEIHIN
  6
Continuous
 62
     3
 48
5.0
100
AcDbLine
 10
275.9555995633089
 20
117.9758944740259
 30
0.0
 11
275.9555995633089
 21
123.4057944740259
 31
0.0
  0
ARC
  5
4E19
330
1A
100
AcDbEntity
  8
SEIHIN
  6
Continuous
 62
     3
 48
5.0
100
AcDbCircle
 10
275.9555995633089
 20
116.9758944740259
 30
0.0
 40
1.0
100
AcDbArc
 50
270.0
 51
90.0
  0
ARC
  5
4E1A
330
1A
100
AcDbEntity
  8
SEIHIN
  6
Continuous
 62
     3
 48
5.0
100
AcDbCircle
 10
276.955499563309
 20
124.2628944740259
 30
0.0
 40
2.000004999999998
100
AcDbArc
 50
0.0
 51
85.30511299999886
  0
ARC
  5
4E1B
330
1A
100
AcDbEntity
  8
SEIHIN
  6
Continuous
 62
     3
 48
5.0
100
AcDbCircle
 10
274.955499563309
 20
123.5816944740259
 30
0.0
 40
1.000024
100
AcDbArc
 50
0.0
 51
76.01378099999985
  0
ARC
  5
4E1C
330
1A
100
AcDbEntity
  8
SEIHIN
  6
Continuous
 62
     3
 48
5.0
100
AcDbCircle
 10
276.955499563309
 20
124.2628944740259
 30
0.0
 40
3.000031
100
AcDbArc
 50
0.0
 51
85.30614299999841
  0
CIRCLE
  5
4E1D
330
1A
100
AcDbEntity
  8
SEIHIN
  6
Continuous
 62
     3
 48
5.0
100
AcDbCircle
 10
262.2554995633089
 20
138.826094474026
 30
0.0
 40
2.399999999999999
  0
CIRCLE
  5
4E1E
330
1A
100
AcDbEntity
  8
SEIHIN
  6
Continuous
 62
     3
 48
5.0
100
AcDbCircle
 10
262.2554995633089
 20
138.826094474026
 30
0.0
 40
2.25
  0
ARC
  5
4E1F
330
1A
100
AcDbEntity
  8
SEIHIN
  6
Continuous
 62
     3
 48
5.0
100
AcDbCircle
 10
267.384399563309
 20
135.7123944740259
 30
0.0
 40
0.9999829999999999
100
AcDbArc
 50
148.7404659999993
 51
243.8577410000005
  0
ARC
  5
4E20
330
1A
100
AcDbEntity
  8
SEIHIN
  6
Continuous
 62
     3
 48
5.0
100
AcDbCircle
 10
267.830299563309
 20
136.6074944740259
 30
0.0
 40
0.9999959999999996
100
AcDbArc
 50
158.3039170000004
 51
243.8116359999987
  0
DIMENSION
  5
4E21
330
1A
100
AcDbEntity
  8
SUNPOU
  6
Continuous
 62
     4
 48
5.0
100
AcDbDimension
  2
*D10
 10
349.160638182865
 20
90.97589447402596
 30
0.0
 11
346.660638182865
 21
102.975844474026
 31
0.0
 70
    32
 71
     5
 42
-1.0
  3
STANDARD
100
AcDbAlignedDimension
 13
324.955499563309
 23
114.9757944740259
 33
0.0
 14
324.955499563309
 24
90.97589447402596
 34
0.0
 50
90.0
100
AcDbRotatedDimension
1001
ACAD
1000
DSTYLE
1002
{
1070
   140
1040
3.0
1070
    74
1070
     0
1070
   172
1070
     1
1070
    73
1070
     0
1070
   272
1070
     2
1070
    77
1070
     3
1070
   173
1070
     1
1070
   147
1040
1.0
1070
    42
1040
3.0
1070
    44
1040
1.5
1070
    43
1040
7.0
1070
   271
1070
     0
1070
   178
1070
     4
1070
   177
1070
     4
1070
   176
1070
     4
1070
   141
1040
150.0
1070
     7
1000
_OPEN
1070
     6
1000
_OPEN
1070
    41
1040
3.0
1002
}
  0
ARC
  5
4E22
330
1A
100
AcDbEntity
  8
SEIHIN
  6
Continuous
 62
     3
 48
5.0
100
AcDbCircle
 10
318.4554995633089
 20
112.4758944740259
 30
0.0
 40
2.5
100
AcDbArc
 50
270.0
 51
0.0
  0
ARC
  5
4E23
330
1A
100
AcDbEntity
  8
SEIHIN
  6
Continuous
 62
     3
 48
5.0
100
AcDbCircle
 10
318.4554995633089
 20
111.4758944740259
 30
0.0
 40
2.5
100
AcDbArc
 50
270.0
 51
0.0
  0
LINE
  5
4E24
330
1A
100
AcDbEntity
  8
SEIHIN
  6
Continuous
 62
     3
 48
5.0
100
AcDbLine
 10
324.9555995633088
 20
102.975794474026
 30
0.0
 11
324.955499563309
 21
114.9757944740259
 31
0.0
  0
LINE
  5
4E25
330
1A
100
AcDbEntity
  8
SEIHIN
  6
Continuous
 62
     3
 48
5.0
100
AcDbLine
 10
322.9555995633088
 20
102.975794474026
 30
0.0
 11
322.955499563309
 21
114.9757944740259
 31
0.0
  0
LINE
  5
4E26
330
1A
100
AcDbEntity
  8
SEIHIN
  6
Continuous
 62
     3
 48
5.0
100
AcDbLine
 10
320.9554995633089
 20
102.9758944740259
 30
0.0
 11
320.9554995633089
 21
112.475794474026
 31
0.0
  0
LINE
  5
4E27
330
1A
100
AcDbEntity
  8
SEIHIN
  6
Continuous
 62
     3
 48
5.0
100
AcDbLine
 10
320.9554995633089
 20
107.4757944740259
 30
0.0
 11
322.955499563309
 21
109.9757944740259
 31
0.0
  0
LINE
  5
4E28
330
1A
100
AcDbEntity
  8
SEIHIN
  6
Continuous
 62
     3
 48
5.0
100
AcDbLine
 10
320.9554995633089
 20
98.47589447402596
 30
0.0
 11
322.955499563309
 21
95.97589447402596
 31
0.0
  0
LINE
  5
4E29
330
1A
100
AcDbEntity
  8
SEIHIN
  6
Continuous
 62
     3
 48
5.0
100
AcDbLine
 10
320.9554995633089
 20
93.47589447402596
 30
0.0
 11
322.955499563309
 21
90.97589447402596
 31
0.0
  0
LINE
  5
4E2A
330
1A
100
AcDbEntity
  8
SEIHIN
  6
Continuous
 62
     3
 48
5.0
100
AcDbLine
 10
320.9554995633089
 20
102.975794474026
 30
0.0
 11
320.9554995633089
 21
93.47589447402596
 31
0.0
  0
ARC
  5
4E2B
330
1A
100
AcDbEntity
  8
SEIHIN
  6
Continuous
 62
     3
 48
5.0
100
AcDbCircle
 10
318.4554995633089
 20
93.47579447402599
 30
0.0
 40
2.5
100
AcDbArc
 50
0.0
 51
90.0
  0
ARC
  5
4E2C
330
1A
100
AcDbEntity
  8
SEIHIN
  6
Continuous
 62
     3
 48
5.0
100
AcDbCircle
 10
318.4554995633089
 20
94.47579447402596
 30
0.0
 40
2.5
100
AcDbArc
 50
0.0
 51
90.0
  0
LINE
  5
4E2D
330
1A
100
AcDbEntity
  8
SEIHIN
  6
Continuous
 62
     3
 48
5.0
100
AcDbLine
 10
324.9555995633088
 20
102.9758944740259
 30
0.0
 11
324.955499563309
 21
90.97589447402596
 31
0.0
  0
LINE
  5
4E2E
330
1A
100
AcDbEntity
  8
SEIHIN
  6
Continuous
 62
     3
 48
5.0
100
AcDbLine
 10
322.9555995633088
 20
102.9758944740259
 30
0.0
 11
322.955499563309
 21
90.97589447402596
 31
0.0
  0
LINE
  5
4E2F
330
1A
100
AcDbEntity
  8
SEIHIN
  6
Continuous
 62
     3
 48
5.0
100
AcDbLine
 10
322.955499563309
 20
90.97589447402596
 30
0.0
 11
324.955499563309
 21
90.97589447402596
 31
0.0
  0
LINE
  5
4E30
330
1A
100
AcDbEntity
  8
SEIHIN
  6
Continuous
 62
     3
 48
5.0
100
AcDbLine
 10
322.955499563309
 20
95.97589447402596
 30
0.0
 11
324.955499563309
 21
95.97589447402596
 31
0.0
  0
LINE
  5
4E31
330
1A
100
AcDbEntity
  8
SEIHIN
  6
Continuous
 62
     3
 48
5.0
100
AcDbLine
 10
322.955499563309
 20
109.9757944740259
 30
0.0
 11
324.955499563309
 21
109.9757944740259
 31
0.0
  0
LINE
  5
4E32
330
1A
100
AcDbEntity
  8
SEIHIN
  6
Continuous
 62
     3
 48
5.0
100
AcDbLine
 10
320.9554995633089
 20
112.475794474026
 30
0.0
 11
322.955499563309
 21
114.9757944740259
 31
0.0
  0
LINE
  5
4E33
330
1A
100
AcDbEntity
  8
SEIHIN
  6
Continuous
 62
     3
 48
5.0
100
AcDbLine
 10
322.955499563309
 20
114.9757944740259
 30
0.0
 11
324.955499563309
 21
114.9757944740259
 31
0.0
  0
DIMENSION
  5
4E39
330
1A
100
AcDbEntity
  8
SUNPOU
  6
Continuous
 62
     4
 48
5.0
100
AcDbDimension
  2
*D11
 10
349.160638182865
 20
189.9609416210487
 30
0.0
 11
346.6606381828648
 21
222.4609416210488
 31
0.0
 70
    32
 71
     5
 42
-1.0
  3
STANDARD
100
AcDbAlignedDimension
 13
324.955499563309
 23
254.9609416210487
 33
0.0
 14
324.9556995633089
 24
189.9609416210487
 34
0.0
 50
90.0
100
AcDbRotatedDimension
1001
ACAD
1000
DSTYLE
1002
{
1070
   140
1040
3.0
1070
    74
1070
     0
1070
   172
1070
     1
1070
    73
1070
     0
1070
   272
1070
     2
1070
    77
1070
     3
1070
   173
1070
     1
1070
   147
1040
1.0
1070
    42
1040
3.0
1070
    44
1040
1.5
1070
    43
1040
7.0
1070
   271
1070
     0
1070
   178
1070
     4
1070
   177
1070
     4
1070
   176
1070
     4
1070
   141
1040
150.0
1070
     7
1000
_OPEN
1070
     6
1000
_OPEN
1070
    41
1040
3.0
1002
}
  0
LINE
  5
4E3A
330
1A
100
AcDbEntity
  8
SEIHIN
  6
Continuous
 62
     3
 48
5.0
100
AcDbLine
 10
324.9555995633088
 20
222.4609416210487
 30
0.0
 11
324.955499563309
 21
254.9609416210487
 31
0.0
  0
LINE
  5
4E3B
330
1A
100
AcDbEntity
  8
SEIHIN
  6
Continuous
 62
     3
 48
5.0
100
AcDbLine
 10
322.9555995633088
 20
222.4609416210487
 30
0.0
 11
322.955499563309
 21
254.9609416210487
 31
0.0
  0
LINE
  5
4E3C
330
1A
100
AcDbEntity
  8
SEIHIN
  6
Continuous
 62
     3
 48
5.0
100
AcDbLine
 10
320.9555995633089
 20
222.4609416210487
 30
0.0
 11
320.9554995633089
 21
251.9609416210487
 31
0.0
  0
LINE
  5
4E3D
330
1A
100
AcDbEntity
  8
SEIHIN
  6
Continuous
 62
     3
 48
5.0
100
AcDbLine
 10
320.9555995633089
 20
215.9610416210487
 30
0.0
 11
267.255799563309
 21
215.9609416210487
 31
0.0
  0
LINE
  5
4E3E
330
1A
100
AcDbEntity
  8
SEIHIN
  6
Continuous
 62
     3
 48
5.0
100
AcDbLine
 10
320.9555995633089
 20
228.9609416210487
 30
0.0
 11
267.255799563309
 21
228.9609416210487
 31
0.0
  0
LINE
  5
4E3F
330
1A
100
AcDbEntity
  8
CENTER L
  6
CENTER
 62
     1
 48
5.0
100
AcDbLine
 10
245.6054183025977
 20
237.2864541991374
 30
0.0
 11
245.605280824083
 21
205.8711466003195
 31
0.0
  0
LINE
  5
4E40
330
1A
100
AcDbEntity
  8
SEIHIN
  6
Continuous
 62
     3
 48
5.0
100
AcDbLine
 10
279.967999563309
 20
228.9609416210487
 30
0.0
 11
279.967999563309
 21
222.4609416210487
 31
0.0
  0
LINE
  5
4E41
330
1A
100
AcDbEntity
  8
SEIHIN
  6
Continuous
 62
     3
 48
5.0
100
AcDbLine
 10
262.2557995633091
 20
224.9610416210487
 30
0.0
 11
262.2557995633091
 21
229.4609416210487
 31
0.0
  0
LINE
  5
4E42
330
1A
100
AcDbEntity
  8
SEIHIN
  6
Continuous
 62
     3
 48
5.0
100
AcDbLine
 10
264.5057995633091
 20
224.9610416210487
 30
0.0
 11
264.5057995633091
 21
229.4609416210487
 31
0.0
  0
LINE
  5
4E43
330
1A
100
AcDbEntity
  8
SEIHIN
  6
Continuous
 62
     3
 48
5.0
100
AcDbLine
 10
267.255799563309
 20
213.4611416210487
 30
0.0
 11
267.255799563309
 21
231.4610416210487
 31
0.0
  0
LINE
  5
4E44
330
1A
100
AcDbEntity
  8
SEIHIN
  6
Continuous
 62
     3
 48
5.0
100
AcDbLine
 10
258.2557995633089
 20
213.4611416210487
 30
0.0
 11
258.2557995633089
 21
231.4610416210487
 31
0.0
  0
LINE
  5
4E45
330
1A
100
AcDbEntity
  8
SEIHIN
  6
Continuous
 62
     3
 48
5.0
100
AcDbLine
 10
267.2552995633089
 20
224.9610416210487
 30
0.0
 11
258.2557995633089
 21
224.9609416210487
 31
0.0
  0
LINE
  5
4E46
330
1A
100
AcDbEntity
  8
SEIHIN
  6
Continuous
 62
     3
 48
5.0
100
AcDbLine
 10
262.255999563309
 20
215.4610416210487
 30
0.0
 11
264.8530995633089
 21
215.4609416210487
 31
0.0
  0
LINE
  5
4E47
330
1A
100
AcDbEntity
  8
SEIHIN
  6
Continuous
 62
     3
 48
5.0
100
AcDbLine
 10
267.2552995633089
 20
219.9610416210487
 30
0.0
 11
258.2557995633089
 21
219.9609416210487
 31
0.0
  0
LINE
  5
4E48
330
1A
100
AcDbEntity
  8
SEIHIN
  6
Continuous
 62
     3
 48
5.0
100
AcDbLine
 10
264.5057995633091
 20
215.9609416210487
 30
0.0
 11
262.2557995633091
 21
215.9609416210487
 31
0.0
  0
LINE
  5
4E49
330
1A
100
AcDbEntity
  8
SEIHIN
  6
Continuous
 62
     3
 48
5.0
100
AcDbLine
 10
264.5057995633091
 20
219.9610416210487
 30
0.0
 11
264.5057995633091
 21
215.4610416210487
 31
0.0
  0
LINE
  5
4E4A
330
1A
100
AcDbEntity
  8
SEIHIN
  6
Continuous
 62
     3
 48
5.0
100
AcDbLine
 10
262.2557995633091
 20
215.4610416210487
 30
0.0
 11
262.2557995633091
 21
219.9610416210487
 31
0.0
  0
LINE
  5
4E4B
330
1A
100
AcDbEntity
  8
SEIHIN
  6
Continuous
 62
     3
 48
5.0
100
AcDbLine
 10
262.2557995633091
 20
225.4609416210487
 30
0.0
 11
264.5057995633091
 21
225.4609416210487
 31
0.0
  0
LINE
  5
4E4C
330
1A
100
AcDbEntity
  8
SEIHIN
  6
Continuous
 62
     3
 48
5.0
100
AcDbLine
 10
267.2552995633089
 20
215.4609416210487
 30
0.0
 11
265.005799563309
 21
215.4609416210487
 31
0.0
  0
LINE
  5
4E4D
330
1A
100
AcDbEntity
  8
SEIHIN
  6
Continuous
 62
     3
 48
5.0
100
AcDbLine
 10
279.967999563309
 20
215.9609416210487
 30
0.0
 11
278.9680995633089
 21
213.4609416210487
 31
0.0
  0
LINE
  5
4E4E
330
1A
100
AcDbEntity
  8
SEIHIN
  6
Continuous
 62
     3
 48
5.0
100
AcDbLine
 10
279.967999563309
 20
215.9609416210487
 30
0.0
 11
279.967999563309
 21
222.4609416210487
 31
0.0
  0
LINE
  5
4E4F
330
1A
100
AcDbEntity
  8
SEIHIN
  6
Continuous
 62
     3
 48
5.0
100
AcDbLine
 10
262.256099563309
 20
229.4609416210487
 30
0.0
 11
264.8531995633089
 21
229.4609416210487
 31
0.0
  0
LINE
  5
4E50
330
1A
100
AcDbEntity
  8
SEIHIN
  6
Continuous
 62
     3
 48
5.0
100
AcDbLine
 10
267.2552995633089
 20
229.4609416210487
 30
0.0
 11
265.005799563309
 21
229.4609416210487
 31
0.0
  0
LINE
  5
4E51
330
1A
100
AcDbEntity
  8
SEIHIN
  6
Continuous
 62
     3
 48
5.0
100
AcDbLine
 10
279.967999563309
 20
228.9609416210487
 30
0.0
 11
278.967999563309
 21
231.4609416210487
 31
0.0
  0
LINE
  5
4E52
330
1A
100
AcDbEntity
  8
SEIHIN
  6
Continuous
 62
     3
 48
5.0
100
AcDbLine
 10
324.9555995633088
 20
222.4609416210487
 30
0.0
 11
324.9555995633088
 21
189.9610416210487
 31
0.0
  0
LINE
  5
4E53
330
1A
100
AcDbEntity
  8
SEIHIN
  6
Continuous
 62
     3
 48
5.0
100
AcDbLine
 10
322.9555995633088
 20
222.4609416210487
 30
0.0
 11
322.9556995633089
 21
189.9609416210487
 31
0.0
  0
LINE
  5
4E54
330
1A
100
AcDbEntity
  8
SEIHIN
  6
Continuous
 62
     3
 48
5.0
100
AcDbLine
 10
320.9555995633089
 20
222.4609416210487
 30
0.0
 11
320.9555995633089
 21
192.9610416210487
 31
0.0
  0
LINE
  5
4E55
330
1A
100
AcDbEntity
  8
CENTER L
  6
CENTER
 62
     1
 48
5.0
100
AcDbLine
 10
334.9556364886767
 20
197.9609416210765
 30
0.0
 11
312.9556826142228
 21
197.9609084636729
 31
0.0
  0
LINE
  5
4E56
330
1A
100
AcDbEntity
  8
SEIHIN
  6
Continuous
 62
     3
 48
5.0
100
AcDbLine
 10
320.9555995633089
 20
197.4609416210487
 30
0.0
 11
322.9555995633088
 21
194.9609416210487
 31
0.0
  0
LINE
  5
4E57
330
1A
100
AcDbEntity
  8
SEIHIN
  6
Continuous
 62
     3
 48
5.0
100
AcDbLine
 10
320.9555995633089
 20
192.9610416210487
 30
0.0
 11
322.9556995633089
 21
189.9609416210487
 31
0.0
  0
LINE
  5
4E58
330
1A
100
AcDbEntity
  8
SEIHIN
  6
Continuous
 62
     3
 48
5.0
100
AcDbLine
 10
322.9556995633089
 20
189.9609416210487
 30
0.0
 11
324.9556995633089
 21
189.9609416210487
 31
0.0
  0
LINE
  5
4E59
330
1A
100
AcDbEntity
  8
SEIHIN
  6
Continuous
 62
     3
 48
5.0
100
AcDbLine
 10
322.9555995633088
 20
194.9609416210487
 30
0.0
 11
324.9555995633088
 21
194.9609416210487
 31
0.0
  0
LINE
  5
4E5A
330
1A
100
AcDbEntity
  8
CENTER L
  6
CENTER
 62
     1
 48
5.0
100
AcDbLine
 10
334.9555626379411
 20
246.9609416210209
 30
0.0
 11
312.9555165125279
 21
246.9609084634783
 31
0.0
  0
LINE
  5
4E5B
330
1A
100
AcDbEntity
  8
SEIHIN
  6
Continuous
 62
     3
 48
5.0
100
AcDbLine
 10
320.9554995633089
 20
247.4609416210487
 30
0.0
 11
322.9555995633088
 21
249.9609416210487
 31
0.0
  0
ARC
  5
4E5C
330
1A
100
AcDbEntity
  8
SEIHIN
  6
Continuous
 62
     3
 48
5.0
100
AcDbCircle
 10
318.4555995633088
 20
210.9610416210487
 30
0.0
 40
2.5
100
AcDbArc
 50
0.0
 51
90.0
  0
ARC
  5
4E5D
330
1A
100
AcDbEntity
  8
SEIHIN
  6
Continuous
 62
     3
 48
5.0
100
AcDbCircle
 10
318.4555995633088
 20
233.9609416210487
 30
0.0
 40
2.5
100
AcDbArc
 50
270.0
 51
0.0
  0
LINE
  5
4E5E
330
1A
100
AcDbEntity
  8
SEIHIN
  6
Continuous
 62
     3
 48
5.0
100
AcDbLine
 10
322.9555995633088
 20
249.9609416210487
 30
0.0
 11
324.955499563309
 21
249.9609416210487
 31
0.0
  0
LINE
  5
4E5F
330
1A
100
AcDbEntity
  8
SEIHIN
  6
Continuous
 62
     3
 48
5.0
100
AcDbLine
 10
320.9554995633089
 20
251.9609416210487
 30
0.0
 11
322.955499563309
 21
254.9609416210487
 31
0.0
  0
LINE
  5
4E60
330
1A
100
AcDbEntity
  8
SEIHIN
  6
Continuous
 62
     3
 48
5.0
100
AcDbLine
 10
322.9555995633088
 20
254.9609416210487
 30
0.0
 11
324.955499563309
 21
254.9609416210487
 31
0.0
  0
LINE
  5
4FDE
330
1A
100
AcDbEntity
  8
CENTER L
  6
CENTER
 62
     1
 48
5.0
100
AcDbLine
 10
145.8945483773448
 20
102.975794474026
 30
0.0
 11
66.19309392623057
 21
102.9759944740259
 31
0.0
  0
DIMENSION
  5
502F
330
1A
100
AcDbEntity
  8
SUNPOU
100
AcDbDimension
  2
*D12
 10
320.9555995633089
 20
176.5948064445711
 30
0.0
 11
322.9556495633089
 21
179.0948064445711
 31
0.0
 70
    32
 71
     5
 42
-1.0
  3
STANDARD
100
AcDbAlignedDimension
 13
324.9556995633089
 23
189.9609416210487
 33
0.0
 14
320.9555995633089
 24
192.9610416210487
 34
0.0
100
AcDbRotatedDimension
1001
ACAD
1000
DSTYLE
1002
{
1070
    41
1040
3.0
1070
    42
1040
3.0
1070
    43
1040
7.0
1070
    44
1040
1.5
1070
    73
1070
     0
1070
    74
1070
     0
1070
    77
1070
     3
1070
   140
1040
3.0
1070
   141
1040
150.0
1070
   147
1040
1.0
1070
   172
1070
     1
1070
   173
1070
     1
1070
   176
1070
   256
1070
   177
1070
   256
1070
   178
1070
   256
1070
   271
1070
     0
1070
   272
1070
     0
1070
   341
1005
B2
1070
     6
1000
OPEN
1070
     7
1000
OPEN
1070
   371
1070
    -1
1070
   372
1070
    -1
1002
}
  0
LINE
  5
5040
330
1A
100
AcDbEntity
  8
SEIHIN
  6
Continuous
 62
     3
 48
5.0
100
AcDbLine
 10
100.4878414305732
 20
63.12589447402595
 30
0.0
 11
100.4878400828661
 21
62.12589447402596
 31
0.0
  0
LINE
  5
5041
330
1A
100
AcDbEntity
  8
SEIHIN
  6
Continuous
 62
     3
 48
5.0
100
AcDbLine
 10
113.4879400828661
 20
63.12589447402596
 30
0.0
 11
113.4879400828661
 21
62.12599447402595
 31
0.0
  0
VIEWPORT
  5
22
102
{ACAD_XDICTIONARY
360
511B
102
}
330
17
100
AcDbEntity
 67
     1
  8
0
100
AcDbViewport
 10
313.6808219178083
 20
163.1276213657074
 30
0.0
 40
627.3616438356164
 41
326.2552427314148
 68
     2
 69
     1
 12
313.6808219178083
 22
163.1276213657074
 13
0.0
 23
0.0
 14
1.0
 24
1.0
 15
10.0
 25
10.0
 16
0.0
 26
0.0
 36
1.0
 17
0.0
 27
0.0
 37
0.0
 42
50.0
 43
0.0
 44
0.0
 45
326.2552427314148
 50
0.0
 51
0.0
 72
   100
 90
    32768
  1

281
     0
 71
     1
 74
     0
110
0.0
120
0.0
130
0.0
111
1.0
121
0.0
131
0.0
112
0.0
122
1.0
132
0.0
 79
     0
146
0.0
  0
VIEWPORT
  5
64
102
{ACAD_XDICTIONARY
360
511D
102
}
330
17
100
AcDbEntity
 67
     1
  8
VIEWPORT
100
AcDbViewport
 10
210.0
 20
148.5
 30
0.0
 40
420.0
 41
297.0
 68
     1
 69
     2
 12
210.0
 22
148.5
 13
0.0
 23
0.0
 14
5.0
 24
5.0
 15
0.0
 25
0.0
 16
0.0
 26
0.0
 36
1.0
 17
0.0
 27
0.0
 37
0.0
 42
50.0
 43
0.0
 44
0.0
 45
302.9399999999999
 50
0.0
 51
0.0
 72
   100
 90
    32768
  1

281
     0
 71
     1
 74
     0
110
0.0
120
0.0
130
0.0
111
1.0
121
0.0
131
0.0
112
0.0
122
1.0
132
0.0
 79
     0
146
0.0
  0
ENDSEC
  0
SECTION
  2
OBJECTS
  0
DICTIONARY
  5
C
330
0
100
AcDbDictionary
281
     1
  3
ACAD_COLOR
350
50F0
  3
ACAD_GROUP
350
D
  3
ACAD_LAYOUT
350
415
  3
ACAD_MATERIAL
350
50EF
  3
ACAD_MLINESTYLE
350
E
  3
ACAD_PLOTSETTINGS
350
416
  3
ACAD_PLOTSTYLENAME
350
413
  3
ACDBHEADERROUNDTRIPXREC
350
5118
  3
AcDbVariableDictionary
350
50FF
  0
DICTIONARY
  5
444
330
1A
100
AcDbDictionary
280
     1
281
     1
  3
ACAD_LAYOUTSELFREF
360
50CC
  0
DICTIONARY
  5
442
330
17
100
AcDbDictionary
280
     1
281
     1
  3
ACAD_LAYOUTSELFREF
360
50CB
  0
DICTIONARY
  5
511B
330
22
100
AcDbDictionary
280
     1
281
     1
  3
ACAD_XREC_ROUNDTRIP
360
511C
  0
DICTIONARY
  5
511D
330
64
100
AcDbDictionary
280
     1
281
     1
  3
ACAD_XREC_ROUNDTRIP
360
511E
  0
DICTIONARY
  5
50F0
102
{ACAD_REACTORS
330
C
102
}
330
C
100
AcDbDictionary
281
     1
  0
DICTIONARY
  5
D
102
{ACAD_REACTORS
330
C
102
}
330
C
100
AcDbDictionary
281
     1
  0
DICTIONARY
  5
415
102
{ACAD_REACTORS
330
C
102
}
330
C
100
AcDbDictionary
281
     1
  3
Model
350
417
  3
ﾚｲｱｳﾄ1
350
418
  0
DICTIONARY
  5
50EF
102
{ACAD_REACTORS
330
C
102
}
330
C
100
AcDbDictionary
281
     1
  0
DICTIONARY
  5
E
102
{ACAD_REACTORS
330
C
102
}
330
C
100
AcDbDictionary
281
     1
  3
STANDARD
350
13
  0
DICTIONARY
  5
416
102
{ACAD_REACTORS
330
C
102
}
330
C
100
AcDbDictionary
281
     1
  0
ACDBDICTIONARYWDFLT
  5
413
102
{ACAD_REACTORS
330
C
102
}
330
C
100
AcDbDictionary
281
     1
  3
Normal
350
414
100
AcDbDictionaryWithDefault
340
414
1001
ACAD
1000
TREAT_AS_HARD
1070
     0
1000
TREAT_AS_HARD
1070
     0
1000
TREAT_AS_HARD
1070
     0
1000
TREAT_AS_HARD
1070
     0
1000
TREAT_AS_HARD
1070
     0
1000
TREAT_AS_HARD
1070
     0
1000
TREAT_AS_HARD
1070
     0
1000
TREAT_AS_HARD
1070
     0
1000
TREAT_AS_HARD
1070
     0
1000
TREAT_AS_HARD
1070
     0
1000
TREAT_AS_HARD
1070
     0
1000
TREAT_AS_HARD
1070
     0
1000
TREAT_AS_HARD
1070
     0
1000
TREAT_AS_HARD
1070
     0
  0
DICTIONARY
  5
5118
102
{ACAD_REACTORS
330
C
102
}
330
C
100
AcDbDictionary
281
     1
  3
COLORDICT
350
511A
  3
MATERIALDICT
350
5119
  0
DICTIONARY
  5
50FF
102
{ACAD_REACTORS
330
C
102
}
330
C
100
AcDbDictionary
281
     1
  3
DIMASSOC
350
5100
  3
PROJECTNAME
350
5101
  0
XRECORD
  5
50CC
102
{ACAD_REACTORS
330
444
102
}
330
444
100
AcDbXrecord
280
     1
340
1A
  0
XRECORD
  5
50CB
102
{ACAD_REACTORS
330
442
102
}
330
442
100
AcDbXrecord
280
     1
340
17
  0
XRECORD
  5
511C
102
{ACAD_REACTORS
330
511B
102
}
330
511B
100
AcDbXrecord
280
     1
102
SHADEPLOT
 70
     0
  0
XRECORD
  5
511E
102
{ACAD_REACTORS
330
511D
102
}
330
511D
100
AcDbXrecord
280
     1
102
SHADEPLOT
 70
     0
  0
LAYOUT
  5
417
102
{ACAD_XDICTIONARY
360
511F
102
}
102
{ACAD_REACTORS
330
415
102
}
330
415
100
AcDbPlotSettings
  1

  2
Acrobat Distiller
  4
A3
  6

 40
3.174999952316283
 41
3.174999952316283
 42
3.17498779296875
 43
3.17498779296875
 44
297.0318298339844
 45
420.1583251953125
 46
0.0
 47
0.0
 48
0.0
 49
0.0
140
0.0
141
0.0
142
1.0
143
1.0
 70
 28336
 72
     1
 73
     1
 74
     2
  7
print.ctb
 75
    16
147
1.0
148
0.0
149
0.0
100
AcDbLayout
  1
Model
 70
     1
 71
     0
 10
0.0
 20
0.0
 11
12.0
 21
9.0
 12
0.0
 22
0.0
 32
0.0
 14
0.0
 24
0.0
 34
0.0
 15
0.0
 25
0.0
 35
0.0
146
0.0
 13
0.0
 23
0.0
 33
0.0
 16
1.0
 26
0.0
 36
0.0
 17
0.0
 27
1.0
 37
0.0
 76
     0
330
1A
  0
LAYOUT
  5
418
102
{ACAD_XDICTIONARY
360
5121
102
}
102
{ACAD_REACTORS
330
415
102
}
330
415
100
AcDbPlotSettings
  1

  2
none_device
  4
Letter_(8.50_x_11.00_Inches)
  6

 40
6.349999904632568
 41
6.349999904632568
 42
6.350006103515625
 43
6.350006103515625
 44
215.8999938964844
 45
279.3999938964844
 46
0.0
 47
0.0
 48
0.0
 49
0.0
140
0.0
141
0.0
142
1.0
143
1.574899339483712
 70
   688
 72
     1
 73
     1
 74
     1
  7
print.ctb
 75
     0
147
0.6349612162056162
148
0.0128164049386896
149
0.0090630292066862
100
AcDbLayout
  1
ﾚｲｱｳﾄ1
 70
     1
 71
     1
 10
-10.01343682308299
 20
-10.00967368473416
 11
430.0134290162437
 21
330.0110840973768
 12
0.0
 22
0.0
 32
0.0
 14
-0.0128164049386896
 24
-0.0090630292066862
 34
-0.0015258207003583
 15
420.0128183607161
 25
297.0090644122207
 35
0.0000000349246037
146
0.0
 13
0.0
 23
0.0
 33
0.0
 16
1.0
 26
0.0
 36
0.0
 17
0.0
 27
1.0
 37
0.0
 76
     0
330
17
331
64
  0
MLINESTYLE
  5
13
102
{ACAD_REACTORS
330
E
102
}
330
E
100
AcDbMlineStyle
  2
STANDARD
 70
     0
  3

 62
     0
 51
90.0
 52
90.0
 71
     2
 49
0.5
 62
   256
  6
BYLAYER
 49
-0.5
 62
   256
  6
BYLAYER
  0
ACDBPLACEHOLDER
  5
414
102
{ACAD_REACTORS
330
413
102
}
330
413
  0
XRECORD
  5
511A
102
{ACAD_REACTORS
330
5118
102
}
330
5118
100
AcDbXrecord
280
     1
340
50F0
  0
XRECORD
  5
5119
102
{ACAD_REACTORS
330
5118
102
}
330
5118
100
AcDbXrecord
280
     1
340
50EF
  0
DICTIONARYVAR
  5
5100
102
{ACAD_REACTORS
330
50FF
102
}
330
50FF
100
DictionaryVariables
280
     0
  1
1
  0
DICTIONARYVAR
  5
5101
102
{ACAD_REACTORS
330
50FF
102
}
330
50FF
100
DictionaryVariables
280
     0
  1

  0
DICTIONARY
  5
511F
330
417
100
AcDbDictionary
280
     1
281
     1
  3
ACAD_XREC_ROUNDTRIP
360
5120
  0
DICTIONARY
  5
5121
330
418
100
AcDbDictionary
280
     1
281
     1
  3
ACAD_XREC_ROUNDTRIP
360
5122
  0
XRECORD
  5
5120
102
{ACAD_REACTORS
330
511F
102
}
330
511F
100
AcDbXrecord
280
     1
102
SHADEPLOT
 70
     0
102
SHADEPLOTRESLEVEL
 70
     2
102
SHADEPLOTCUSTOMDPI
 70
   300
  0
XRECORD
  5
5122
102
{ACAD_REACTORS
330
5121
102
}
330
5121
100
AcDbXrecord
280
     1
102
SHADEPLOT
 70
     0
102
SHADEPLOTRESLEVEL
 70
     2
102
SHADEPLOTCUSTOMDPI
 70
   300
  0
ENDSEC
  0
EOF
