  0
SECTION
  2
HEADER
  9
$ACADVER
  1
AC1012
  9
$DWGCODEPAGE
  3
dos932
  9
$INSBASE
 10
0.0
 20
0.0
 30
0.0
  9
$EXTMIN
 10
10.05047808566086
 20
4.949376903717846
 30
0.0
  9
$EXTMAX
 10
806.2246110975902
 20
563.7825862828226
 30
0.0
  9
$LIMMIN
 10
0.0
 20
0.0
  9
$LIMMAX
 10
840.0
 20
594.0
  9
$ORTHOMODE
 70
     0
  9
$REGENMODE
 70
     1
  9
$FILLMODE
 70
     1
  9
$QTEXTMODE
 70
     0
  9
$MIRRTEXT
 70
     1
  9
$DRAGMODE
 70
     2
  9
$LTSCALE
 40
2.0
  9
$OSMODE
 70
    37
  9
$ATTMODE
 70
     1
  9
$TEXTSIZE
 40
5.0
  9
$TRACEWID
 40
1.0
  9
$TEXTSTYLE
  7
STANDARD
  9
$CLAYER
  8
CENTER_L
  9
$CELTYPE
  6
BYLAYER
  9
$CECOLOR
 62
   256
  9
$CELTSCALE
 40
1.0
  9
$DELOBJ
 70
     1
  9
$DISPSILH
 70
     0
  9
$DIMSCALE
 40
1.0
  9
$DIMASZ
 40
7.0
  9
$DIMEXO
 40
6.0
  9
$DIMDLI
 40
14.0
  9
$DIMRND
 40
0.0
  9
$DIMDLE
 40
0.0
  9
$DIMEXE
 40
3.0
  9
$DIMTP
 40
0.0
  9
$DIMTM
 40
0.0
  9
$DIMTXT
 40
6.0
  9
$DIMCEN
 40
150.0
  9
$DIMTSZ
 40
0.0
  9
$DIMTOL
 70
     0
  9
$DIMLIM
 70
     0
  9
$DIMTIH
 70
     0
  9
$DIMTOH
 70
     0
  9
$DIMSE1
 70
     0
  9
$DIMSE2
 70
     0
  9
$DIMTAD
 70
     3
  9
$DIMZIN
 70
     0
  9
$DIMBLK
  1

  9
$DIMASO
 70
     1
  9
$DIMSHO
 70
     1
  9
$DIMPOST
  1

  9
$DIMAPOST
  1

  9
$DIMALT
 70
     0
  9
$DIMALTD
 70
     2
  9
$DIMALTF
 40
25.4
  9
$DIMLFAC
 40
1.0
  9
$DIMTOFL
 70
     1
  9
$DIMTVP
 40
0.0
  9
$DIMTIX
 70
     0
  9
$DIMSOXD
 70
     0
  9
$DIMSAH
 70
     1
  9
$DIMBLK1
  1
OPEN
  9
$DIMBLK2
  1
OPEN
  9
$DIMSTYLE
  2
STANDARD
  9
$DIMCLRD
 70
   256
  9
$DIMCLRE
 70
   256
  9
$DIMCLRT
 70
   256
  9
$DIMTFAC
 40
1.0
  9
$DIMGAP
 40
2.0
  9
$DIMJUST
 70
     0
  9
$DIMSD1
 70
     0
  9
$DIMSD2
 70
     0
  9
$DIMTOLJ
 70
     1
  9
$DIMTZIN
 70
     0
  9
$DIMALTZ
 70
     0
  9
$DIMALTTZ
 70
     0
  9
$DIMFIT
 70
     3
  9
$DIMUPT
 70
     0
  9
$DIMUNIT
 70
     2
  9
$DIMDEC
 70
     0
  9
$DIMTDEC
 70
     0
  9
$DIMALTU
 70
     2
  9
$DIMALTTD
 70
     2
  9
$DIMTXSTY
  7
STANDARD
  9
$DIMAUNIT
 70
     0
  9
$LUNITS
 70
     2
  9
$LUPREC
 70
     4
  9
$SKETCHINC
 40
1.0
  9
$FILLETRAD
 40
1.5
  9
$AUNITS
 70
     0
  9
$AUPREC
 70
     0
  9
$MENU
  1
.
  9
$ELEVATION
 40
0.0
  9
$PELEVATION
 40
0.0
  9
$THICKNESS
 40
0.0
  9
$LIMCHECK
 70
     0
  9
$BLIPMODE
 70
     0
  9
$CHAMFERA
 40
20.0
  9
$CHAMFERB
 40
20.0
  9
$CHAMFERC
 40
40.0
  9
$CHAMFERD
 40
0.0
  9
$SKPOLY
 70
     0
  9
$TDCREATE
 40
2451274.709296875
  9
$TDUPDATE
 40
2452393.717794780
  9
$TDINDWG
 40
0.0222247569
  9
$TDUSRTIMER
 40
0.0222247569
  9
$USRTIMER
 70
     1
  9
$ANGBASE
 50
0.0
  9
$ANGDIR
 70
     0
  9
$PDMODE
 70
     0
  9
$PDSIZE
 40
0.0
  9
$PLINEWID
 40
0.0
  9
$COORDS
 70
     1
  9
$SPLFRAME
 70
     0
  9
$SPLINETYPE
 70
     6
  9
$SPLINESEGS
 70
     8
  9
$ATTDIA
 70
     0
  9
$ATTREQ
 70
     1
  9
$HANDLING
 70
 10241
  9
$HANDSEED
  5
A86
  9
$SURFTAB1
 70
     6
  9
$SURFTAB2
 70
     6
  9
$SURFTYPE
 70
     6
  9
$SURFU
 70
     6
  9
$SURFV
 70
     6
  9
$UCSNAME
  2

  9
$UCSORG
 10
0.0
 20
0.0
 30
0.0
  9
$UCSXDIR
 10
1.0
 20
0.0
 30
0.0
  9
$UCSYDIR
 10
0.0
 20
1.0
 30
0.0
  9
$PUCSNAME
  2

  9
$PUCSORG
 10
0.0
 20
0.0
 30
0.0
  9
$PUCSXDIR
 10
1.0
 20
0.0
 30
0.0
  9
$PUCSYDIR
 10
0.0
 20
1.0
 30
0.0
  9
$USERI1
 70
     0
  9
$USERI2
 70
     0
  9
$USERI3
 70
     0
  9
$USERI4
 70
     0
  9
$USERI5
 70
     0
  9
$USERR1
 40
0.0
  9
$USERR2
 40
0.0
  9
$USERR3
 40
0.0
  9
$USERR4
 40
0.0
  9
$USERR5
 40
0.0
  9
$WORLDVIEW
 70
     1
  9
$SHADEDGE
 70
     3
  9
$SHADEDIF
 70
    70
  9
$TILEMODE
 70
     1
  9
$MAXACTVP
 70
    16
  9
$PINSBASE
 10
0.0
 20
0.0
 30
0.0
  9
$PLIMCHECK
 70
     0
  9
$PEXTMIN
 10
0.0
 20
0.0
 30
0.0
  9
$PEXTMAX
 10
420.0
 20
297.0
 30
0.0
  9
$PLIMMIN
 10
0.0
 20
0.0
  9
$PLIMMAX
 10
420.0
 20
297.0
  9
$UNITMODE
 70
     0
  9
$VISRETAIN
 70
     0
  9
$PLINEGEN
 70
     0
  9
$PSLTSCALE
 70
     1
  9
$TREEDEPTH
 70
  3020
  9
$PICKSTYLE
 70
     1
  9
$CMLSTYLE
  2
STANDARD
  9
$CMLJUST
 70
     0
  9
$CMLSCALE
 40
1.0
  9
$SAVEIMAGES
 70
     1
  0
ENDSEC
  0
SECTION
  2
CLASSES
  0
CLASS
  1
ACDBDICTIONARYWDFLT
  2
AcDbDictionaryWithDefault
  3
AutoCAD 2000
 90
    32768
280
     0
281
     0
  0
CLASS
  1
ACDBPLACEHOLDER
  2
AcDbPlaceHolder
  3
AutoCAD 2000
 90
    32768
280
     0
281
     0
  0
CLASS
  1
LAYOUT
  2
AcDbLayout
  3
AutoCAD 2000
 90
    32768
280
     0
281
     0
  0
CLASS
  1
LONG_TRANSACTION
  2
AcDbLongTransaction
  3
AutoCAD 2000
 90
    32768
280
     0
281
     0
  0
CLASS
  1
LWPOLYLINE
  2
AcDbPolyline
  3
AutoCAD 2000
 90
    32768
280
     0
281
     1
  0
CLASS
  1
HATCH
  2
AcDbHatch
  3
AutoCAD 2000
 90
    32768
280
     0
281
     1
  0
CLASS
  1
XRECORD
  2
AcDbXrecord
  3
AutoCAD 2000
 90
    32768
280
     0
281
     0
  0
CLASS
  1
LONG_TRANSACTION
  2
AcDbLongTransaction
  3
AutoCAD 2000
 90
    32768
280
     0
281
     0
  0
CLASS
  1
LWPOLYLINE
  2
AcDbPolyline
  3
AutoCAD 2000
 90
    32768
280
     0
281
     1
  0
CLASS
  1
HATCH
  2
AcDbHatch
  3
AutoCAD 2000
 90
    32768
280
     0
281
     1
  0
CLASS
  1
XRECORD
  2
AcDbXrecord
  3
AutoCAD 2000
 90
    32768
280
     0
281
     0
  0
CLASS
  1
LONG_TRANSACTION
  2
AcDbLongTransaction
  3
AutoCAD 2000
 90
    32768
280
     0
281
     0
  0
CLASS
  1
LWPOLYLINE
  2
AcDbPolyline
  3
AutoCAD 2000
 90
    32768
280
     0
281
     1
  0
CLASS
  1
HATCH
  2
AcDbHatch
  3
AutoCAD 2000
 90
    32768
280
     0
281
     1
  0
CLASS
  1
XRECORD
  2
AcDbXrecord
  3
AutoCAD 2000
 90
    32768
280
     0
281
     0
  0
ENDSEC
  0
SECTION
  2
TABLES
  0
TABLE
  2
VPORT
  5
8
330
0
100
AcDbSymbolTable
 70
     2
  0
VPORT
  5
A83
330
8
100
AcDbSymbolTableRecord
100
AcDbViewportTableRecord
  2
*ACTIVE
 70
     0
 10
0.0
 20
0.0
 11
1.0
 21
1.0
 12
519.0513600607959
 22
288.5663040047293
 13
0.0
 23
0.0
 14
5.0
 24
5.0
 15
0.0
 25
0.0
 16
0.0
 26
0.0
 36
1.0
 17
0.0
 27
0.0
 37
0.0
 40
585.0356071646538
 41
2.169459962756052
 42
50.0
 43
0.0
 44
0.0
 50
0.0
 51
0.0
 71
     0
 72
   100
 73
     1
 74
     0
 75
     0
 76
     0
 77
     0
 78
     0
  0
ENDTAB
  0
TABLE
  2
LTYPE
  5
5
330
0
100
AcDbSymbolTable
 70
     2
  0
LTYPE
  5
14
330
5
100
AcDbSymbolTableRecord
100
AcDbLinetypeTableRecord
  2
BYBLOCK
 70
     0
  3

 72
    65
 73
     0
 40
0.0
  0
LTYPE
  5
15
330
5
100
AcDbSymbolTableRecord
100
AcDbLinetypeTableRecord
  2
BYLAYER
 70
     0
  3

 72
    65
 73
     0
 40
0.0
  0
LTYPE
  5
16
330
5
100
AcDbSymbolTableRecord
100
AcDbLinetypeTableRecord
  2
CONTINUOUS
 70
     0
  3
Solid line
 72
    65
 73
     0
 40
0.0
  0
LTYPE
  5
135
330
5
100
AcDbSymbolTableRecord
100
AcDbLinetypeTableRecord
  2
CENTER
 70
     0
  3
____ _ ____ _ ____ _ ____ _ ____ _ ____ _ ____ 
 72
    65
 73
     4
 40
2.0
 49
1.25
 74
     0
 49
-0.25
 74
     0
 49
0.25
 74
     0
 49
-0.25
 74
     0
  0
ENDTAB
  0
TABLE
  2
LAYER
  5
2
330
0
100
AcDbSymbolTable
 70
     8
  0
LAYER
  5
F
330
2
100
AcDbSymbolTableRecord
100
AcDbLayerTableRecord
  2
0
 70
     0
 62
     7
  6
CONTINUOUS
  0
LAYER
  5
62
330
2
100
AcDbSymbolTableRecord
100
AcDbLayerTableRecord
  2
VIEWPORT
 70
     0
 62
     7
  6
CONTINUOUS
  0
LAYER
  5
65
330
2
100
AcDbSymbolTableRecord
100
AcDbLayerTableRecord
  2
ZUWAKU
 70
     0
 62
     7
  6
CONTINUOUS
  0
LAYER
  5
143
330
2
100
AcDbSymbolTableRecord
100
AcDbLayerTableRecord
  2
SEIHIN
 70
     0
 62
     3
  6
CONTINUOUS
  0
LAYER
  5
144
330
2
100
AcDbSymbolTableRecord
100
AcDbLayerTableRecord
  2
SUNPOU
 70
     0
 62
     4
  6
CONTINUOUS
  0
LAYER
  5
145
330
2
100
AcDbSymbolTableRecord
100
AcDbLayerTableRecord
  2
CENTER_L
 70
     0
 62
     1
  6
CENTER
  0
LAYER
  5
83A
330
2
100
AcDbSymbolTableRecord
100
AcDbLayerTableRecord
  2
NOKITOI
 70
     0
 62
     6
  6
CONTINUOUS
  0
LAYER
  5
843
330
2
100
AcDbSymbolTableRecord
100
AcDbLayerTableRecord
  2
DEFPOINTS
 70
     0
 62
     7
  6
CONTINUOUS
  0
ENDTAB
  0
TABLE
  2
STYLE
  5
3
330
0
100
AcDbSymbolTable
 70
     1
  0
STYLE
  5
10
330
3
100
AcDbSymbolTableRecord
100
AcDbTextStyleTableRecord
  2
STANDARD
 70
     0
 40
0.0
 41
1.0
 50
0.0
 71
     0
 42
5.0
  3
TXT
  4
bigfont.shx
  0
ENDTAB
  0
TABLE
  2
VIEW
  5
6
330
0
100
AcDbSymbolTable
 70
     0
  0
ENDTAB
  0
TABLE
  2
UCS
  5
7
330
0
100
AcDbSymbolTable
 70
     0
  0
ENDTAB
  0
TABLE
  2
APPID
  5
9
330
0
100
AcDbSymbolTable
 70
     1
  0
APPID
  5
11
330
9
100
AcDbSymbolTableRecord
100
AcDbRegAppTableRecord
  2
ACAD
 70
     0
  0
ENDTAB
  0
TABLE
  2
DIMSTYLE
  5
A
330
0
100
AcDbSymbolTable
 70
     1
  0
DIMSTYLE
105
1D
102
{ACAD_REACTORS
330
848
330
855
330
862
330
86F
330
8BE
330
8DC
330
8E9
330
8F6
330
903
330
975
330
9C1
102
}
330
A
100
AcDbSymbolTableRecord
100
AcDbDimStyleTableRecord
  2
STANDARD
 70
     0
  3

  4

  5

  6

  7

 40
1.0
 41
0.18
 42
0.0625
 43
0.38
 44
0.18
 45
0.0
 46
0.0
 47
0.0
 48
0.0
140
0.18
141
0.09
142
0.0
143
25.4
144
1.0
145
0.0
146
1.0
147
0.09
 71
     0
 72
     0
 73
     1
 74
     1
 75
     0
 76
     0
 77
     0
 78
     0
170
     0
171
     2
172
     0
173
     0
174
     0
175
     0
176
     0
177
     0
178
     0
270
     2
271
     4
272
     4
273
     2
274
     2
340
10
275
     0
280
     0
281
     0
282
     0
283
     1
284
     0
285
     0
286
     0
287
     3
288
     0
  0
ENDTAB
  0
TABLE
  2
BLOCK_RECORD
  5
1
330
0
100
AcDbSymbolTable
 70
    12
  0
BLOCK_RECORD
  5
1A
102
{ACAD_XDICTIONARY
360
A41
102
}
330
1
100
AcDbSymbolTableRecord
100
AcDbBlockTableRecord
  2
*MODEL_SPACE
  0
BLOCK_RECORD
  5
17
102
{ACAD_XDICTIONARY
360
A3F
102
}
330
1
100
AcDbSymbolTableRecord
100
AcDbBlockTableRecord
  2
*PAPER_SPACE
  0
BLOCK_RECORD
  5
6D
330
1
100
AcDbSymbolTableRecord
100
AcDbBlockTableRecord
  2
_OPEN
  0
BLOCK_RECORD
  5
83B
330
1
100
AcDbSymbolTableRecord
100
AcDbBlockTableRecord
  2
*D1
  0
BLOCK_RECORD
  5
849
330
1
100
AcDbSymbolTableRecord
100
AcDbBlockTableRecord
  2
*D2
  0
BLOCK_RECORD
  5
856
330
1
100
AcDbSymbolTableRecord
100
AcDbBlockTableRecord
  2
*D3
  0
BLOCK_RECORD
  5
863
330
1
100
AcDbSymbolTableRecord
100
AcDbBlockTableRecord
  2
*D4
  0
BLOCK_RECORD
  5
8B2
330
1
100
AcDbSymbolTableRecord
100
AcDbBlockTableRecord
  2
*D5
  0
BLOCK_RECORD
  5
8CE
330
1
100
AcDbSymbolTableRecord
100
AcDbBlockTableRecord
  2
*D6
  0
BLOCK_RECORD
  5
8DD
330
1
100
AcDbSymbolTableRecord
100
AcDbBlockTableRecord
  2
*D7
  0
BLOCK_RECORD
  5
8EA
330
1
100
AcDbSymbolTableRecord
100
AcDbBlockTableRecord
  2
*D8
  0
BLOCK_RECORD
  5
8F7
330
1
100
AcDbSymbolTableRecord
100
AcDbBlockTableRecord
  2
*D9
  0
BLOCK_RECORD
  5
967
330
1
100
AcDbSymbolTableRecord
100
AcDbBlockTableRecord
  2
*D10
  0
BLOCK_RECORD
  5
9B5
330
1
100
AcDbSymbolTableRecord
100
AcDbBlockTableRecord
  2
*D11
  0
ENDTAB
  0
ENDSEC
  0
SECTION
  2
BLOCKS
  0
BLOCK
  5
1B
330
1A
100
AcDbEntity
  8
0
100
AcDbBlockBegin
  2
*MODEL_SPACE
 70
     0
 10
0.0
 20
0.0
 30
0.0
  3
*MODEL_SPACE
  1

  0
ENDBLK
  5
1C
330
1A
100
AcDbEntity
  8
0
100
AcDbBlockEnd
  0
BLOCK
  5
18
330
17
100
AcDbEntity
 67
     1
  8
0
100
AcDbBlockBegin
  2
*PAPER_SPACE
 70
     0
 10
0.0
 20
0.0
 30
0.0
  3
*PAPER_SPACE
  1

  0
ENDBLK
  5
19
330
17
100
AcDbEntity
 67
     1
  8
0
100
AcDbBlockEnd
  0
BLOCK
  5
6E
330
6D
100
AcDbEntity
  8
0
100
AcDbBlockBegin
  2
_OPEN
 70
     0
 10
0.0
 20
0.0
 30
0.0
  3
_OPEN
  1

  0
LINE
  5
6F
330
6D
100
AcDbEntity
  8
0
  6
BYBLOCK
 62
     0
100
AcDbLine
 10
-1.0
 20
0.1666666666666666
 30
0.0
 11
0.0
 21
0.0
 31
0.0
  0
LINE
  5
70
330
6D
100
AcDbEntity
  8
0
  6
BYBLOCK
 62
     0
100
AcDbLine
 10
0.0
 20
0.0
 30
0.0
 11
-1.0
 21
-0.1666666666666666
 31
0.0
  0
LINE
  5
71
330
6D
100
AcDbEntity
  8
0
  6
BYBLOCK
 62
     0
100
AcDbLine
 10
0.0
 20
0.0
 30
0.0
 11
-1.0
 21
0.0
 31
0.0
  0
ENDBLK
  5
72
330
6D
100
AcDbEntity
  8
0
100
AcDbBlockEnd
  0
BLOCK
  5
886
330
83B
100
AcDbEntity
  8
0
100
AcDbBlockBegin
  2
*D1
 70
     1
 10
0.0
 20
0.0
 30
0.0
  3
*D1
  1

  0
LINE
  5
887
330
83B
100
AcDbEntity
  8
0
  6
BYBLOCK
 62
     4
100
AcDbLine
 10
242.6588026257582
 20
250.7873050433548
 30
0.0
 11
242.6588026257582
 21
269.8078967556666
 31
0.0
  0
LINE
  5
888
330
83B
100
AcDbEntity
  8
0
  6
BYBLOCK
 62
     4
100
AcDbLine
 10
142.6588026257582
 20
250.7879050433548
 30
0.0
 11
142.6588026257582
 21
269.8078967556666
 31
0.0
  0
LINE
  5
889
330
83B
100
AcDbEntity
  8
0
  6
BYBLOCK
 62
     4
100
AcDbLine
 10
235.6588026257582
 20
266.8078967556666
 30
0.0
 11
149.6588026257582
 21
266.8078967556666
 31
0.0
  0
INSERT
  5
88A
330
83B
100
AcDbEntity
  8
0
  6
BYBLOCK
 62
     4
100
AcDbBlockReference
  2
_OPEN
 10
242.6588026257582
 20
266.8078967556666
 30
0.0
 41
7.0
 42
7.0
 43
7.0
  0
INSERT
  5
88B
330
83B
100
AcDbEntity
  8
0
  6
BYBLOCK
 62
     4
100
AcDbBlockReference
  2
_OPEN
 10
142.6588026257582
 20
266.8078967556666
 30
0.0
 41
7.0
 42
7.0
 43
7.0
 50
180.0
  0
MTEXT
  5
88C
330
83B
100
AcDbEntity
  8
0
  6
BYBLOCK
 62
     4
100
AcDbMText
 10
192.6588026257582
 20
271.8078967556666
 30
0.0
 40
6.0
 41
0.0
 71
     5
 72
     1
  1
\A1;φ100
1001
ACAD
1000
MTEXTBEGIN
1070
    73
1070
     1
1070
    44
1040
1.0
1070
    74
1070
     0
1000
MTEXTEND
1000
MTEXTBEGIN
1070
    73
1070
     1
1070
    44
1040
1.0
1070
    74
1070
     0
1000
MTEXTEND
1000
MTEXTBEGIN
1070
    73
1070
     1
1070
    44
1040
1.0
1070
    74
1070
     0
1000
MTEXTEND
  0
POINT
  5
88D
330
83B
100
AcDbEntity
  8
DEFPOINTS
  6
BYBLOCK
 62
     0
100
AcDbPoint
 10
242.6588026257582
 20
244.7873050433548
 30
0.0
  0
POINT
  5
88E
330
83B
100
AcDbEntity
  8
DEFPOINTS
  6
BYBLOCK
 62
     0
100
AcDbPoint
 10
142.6588026257582
 20
244.7879050433548
 30
0.0
  0
POINT
  5
88F
330
83B
100
AcDbEntity
  8
DEFPOINTS
  6
BYBLOCK
 62
     0
100
AcDbPoint
 10
142.6588026257582
 20
266.8078967556666
 30
0.0
  0
ENDBLK
  5
890
330
83B
100
AcDbEntity
  8
0
100
AcDbBlockEnd
  0
BLOCK
  5
8A7
330
849
100
AcDbEntity
  8
0
100
AcDbBlockBegin
  2
*D2
 70
     1
 10
0.0
 20
0.0
 30
0.0
  3
*D2
  1

  0
LINE
  5
8A8
330
849
100
AcDbEntity
  8
0
  6
BYBLOCK
 62
     4
100
AcDbLine
 10
224.4586026257582
 20
191.9873050433547
 30
0.0
 11
224.4586026257582
 21
170.8423717518599
 31
0.0
  0
LINE
  5
8A9
330
849
100
AcDbEntity
  8
0
  6
BYBLOCK
 62
     4
100
AcDbLine
 10
160.8586026257583
 20
191.9875050433548
 30
0.0
 11
160.8586026257583
 21
170.8423717518599
 31
0.0
  0
LINE
  5
8AA
330
849
100
AcDbEntity
  8
0
  6
BYBLOCK
 62
     4
100
AcDbLine
 10
217.4586026257582
 20
173.8423717518599
 30
0.0
 11
167.8586026257583
 21
173.8423717518599
 31
0.0
  0
INSERT
  5
8AB
330
849
100
AcDbEntity
  8
0
  6
BYBLOCK
 62
     4
100
AcDbBlockReference
  2
_OPEN
 10
224.4586026257582
 20
173.8423717518599
 30
0.0
 41
7.0
 42
7.0
 43
7.0
  0
INSERT
  5
8AC
330
849
100
AcDbEntity
  8
0
  6
BYBLOCK
 62
     4
100
AcDbBlockReference
  2
_OPEN
 10
160.8586026257583
 20
173.8423717518599
 30
0.0
 41
7.0
 42
7.0
 43
7.0
 50
180.0
  0
MTEXT
  5
8AD
330
849
100
AcDbEntity
  8
0
  6
BYBLOCK
 62
     4
100
AcDbMText
 10
192.6586026257582
 20
178.8423717518599
 30
0.0
 40
6.0
 41
0.0
 71
     5
 72
     1
  1
\A1;φ64
1001
ACAD
1000
MTEXTBEGIN
1070
    73
1070
     1
1070
    44
1040
1.0
1070
    74
1070
     0
1000
MTEXTEND
1000
MTEXTBEGIN
1070
    73
1070
     1
1070
    44
1040
1.0
1070
    74
1070
     0
1000
MTEXTEND
1000
MTEXTBEGIN
1070
    73
1070
     1
1070
    44
1040
1.0
1070
    74
1070
     0
1000
MTEXTEND
  0
POINT
  5
8AE
330
849
100
AcDbEntity
  8
DEFPOINTS
  6
BYBLOCK
 62
     0
100
AcDbPoint
 10
224.4586026257582
 20
197.9873050433547
 30
0.0
  0
POINT
  5
8AF
330
849
100
AcDbEntity
  8
DEFPOINTS
  6
BYBLOCK
 62
     0
100
AcDbPoint
 10
160.8586026257583
 20
197.9875050433548
 30
0.0
  0
POINT
  5
8B0
330
849
100
AcDbEntity
  8
DEFPOINTS
  6
BYBLOCK
 62
     0
100
AcDbPoint
 10
160.8586026257583
 20
173.8423717518599
 30
0.0
  0
ENDBLK
  5
8B1
330
849
100
AcDbEntity
  8
0
100
AcDbBlockEnd
  0
BLOCK
  5
857
330
856
100
AcDbEntity
  8
0
100
AcDbBlockBegin
  2
*D3
 70
     1
 10
0.0
 20
0.0
 30
0.0
  3
*D3
  1

  0
LINE
  5
858
330
856
100
AcDbEntity
  8
0
  6
BYBLOCK
 62
     4
100
AcDbLine
 10
244.6588026257582
 20
242.4873050433547
 30
0.0
 11
263.7926179721284
 21
242.4873050433547
 31
0.0
  0
LINE
  5
859
330
856
100
AcDbEntity
  8
0
  6
BYBLOCK
 62
     4
100
AcDbLine
 10
230.4586026257581
 20
197.9873050433547
 30
0.0
 11
263.7926179721284
 21
197.9873050433547
 31
0.0
  0
LINE
  5
85A
330
856
100
AcDbEntity
  8
0
  6
BYBLOCK
 62
     4
100
AcDbLine
 10
260.7926179721284
 20
235.4873050433547
 30
0.0
 11
260.7926179721284
 21
204.9873050433547
 31
0.0
  0
INSERT
  5
85B
330
856
100
AcDbEntity
  8
0
  6
BYBLOCK
 62
     4
100
AcDbBlockReference
  2
_OPEN
 10
260.7926179721284
 20
242.4873050433547
 30
0.0
 41
7.0
 42
7.0
 43
7.0
 50
90.0
  0
INSERT
  5
85C
330
856
100
AcDbEntity
  8
0
  6
BYBLOCK
 62
     4
100
AcDbBlockReference
  2
_OPEN
 10
260.7926179721284
 20
197.9873050433547
 30
0.0
 41
7.0
 42
7.0
 43
7.0
 50
270.0
  0
MTEXT
  5
85D
330
856
100
AcDbEntity
  8
0
  6
BYBLOCK
 62
     4
100
AcDbMText
 10
255.7926179721284
 20
220.2373050433547
 30
0.0
 40
6.0
 41
0.0
 71
     5
 72
     1
  1
\A1;45
 11
0.0
 21
1.0
 31
0.0
1001
ACAD
1000
MTEXTBEGIN
1070
    73
1070
     1
1070
    44
1040
1.0
1070
    74
1070
     0
1000
MTEXTEND
1000
MTEXTBEGIN
1070
    73
1070
     1
1070
    44
1040
1.0
1070
    74
1070
     0
1000
MTEXTEND
1000
MTEXTBEGIN
1070
    73
1070
     1
1070
    44
1040
1.0
1070
    74
1070
     0
1000
MTEXTEND
  0
POINT
  5
85E
330
856
100
AcDbEntity
  8
DEFPOINTS
  6
BYBLOCK
 62
     0
100
AcDbPoint
 10
238.6588026257582
 20
242.4873050433547
 30
0.0
  0
POINT
  5
85F
330
856
100
AcDbEntity
  8
DEFPOINTS
  6
BYBLOCK
 62
     0
100
AcDbPoint
 10
224.4586026257582
 20
197.9873050433547
 30
0.0
  0
POINT
  5
860
330
856
100
AcDbEntity
  8
DEFPOINTS
  6
BYBLOCK
 62
     0
100
AcDbPoint
 10
260.7926179721284
 20
197.9873050433547
 30
0.0
  0
ENDBLK
  5
861
330
856
100
AcDbEntity
  8
0
100
AcDbBlockEnd
  0
BLOCK
  5
864
330
863
100
AcDbEntity
  8
0
100
AcDbBlockBegin
  2
*D4
 70
     1
 10
0.0
 20
0.0
 30
0.0
  3
*D4
  1

  0
LINE
  5
865
330
863
100
AcDbEntity
  8
0
  6
BYBLOCK
 62
     4
100
AcDbLine
 10
248.6588026257582
 20
244.7873050433548
 30
0.0
 11
285.9320008817635
 21
244.7873050433548
 31
0.0
  0
LINE
  5
866
330
863
100
AcDbEntity
  8
0
  6
BYBLOCK
 62
     4
100
AcDbLine
 10
230.4586026257581
 20
197.9873050433547
 30
0.0
 11
285.9320008817635
 21
197.9873050433547
 31
0.0
  0
LINE
  5
867
330
863
100
AcDbEntity
  8
0
  6
BYBLOCK
 62
     4
100
AcDbLine
 10
282.9320008817635
 20
237.7873050433548
 30
0.0
 11
282.9320008817635
 21
204.9873050433547
 31
0.0
  0
INSERT
  5
868
330
863
100
AcDbEntity
  8
0
  6
BYBLOCK
 62
     4
100
AcDbBlockReference
  2
_OPEN
 10
282.9320008817635
 20
244.7873050433548
 30
0.0
 41
7.0
 42
7.0
 43
7.0
 50
90.0
  0
INSERT
  5
869
330
863
100
AcDbEntity
  8
0
  6
BYBLOCK
 62
     4
100
AcDbBlockReference
  2
_OPEN
 10
282.9320008817635
 20
197.9873050433547
 30
0.0
 41
7.0
 42
7.0
 43
7.0
 50
270.0
  0
MTEXT
  5
86A
330
863
100
AcDbEntity
  8
0
  6
BYBLOCK
 62
     4
100
AcDbMText
 10
277.9320008817635
 20
221.3873050433547
 30
0.0
 40
6.0
 41
0.0
 71
     5
 72
     1
  1
\A1;47
 11
0.0
 21
1.0
 31
0.0
1001
ACAD
1000
MTEXTBEGIN
1070
    73
1070
     1
1070
    44
1040
1.0
1070
    74
1070
     0
1000
MTEXTEND
1000
MTEXTBEGIN
1070
    73
1070
     1
1070
    44
1040
1.0
1070
    74
1070
     0
1000
MTEXTEND
1000
MTEXTBEGIN
1070
    73
1070
     1
1070
    44
1040
1.0
1070
    74
1070
     0
1000
MTEXTEND
  0
POINT
  5
86B
330
863
100
AcDbEntity
  8
DEFPOINTS
  6
BYBLOCK
 62
     0
100
AcDbPoint
 10
242.6588026257582
 20
244.7873050433548
 30
0.0
  0
POINT
  5
86C
330
863
100
AcDbEntity
  8
DEFPOINTS
  6
BYBLOCK
 62
     0
100
AcDbPoint
 10
224.4586026257582
 20
197.9873050433547
 30
0.0
  0
POINT
  5
86D
330
863
100
AcDbEntity
  8
DEFPOINTS
  6
BYBLOCK
 62
     0
100
AcDbPoint
 10
282.9320008817635
 20
197.9873050433547
 30
0.0
  0
ENDBLK
  5
86E
330
863
100
AcDbEntity
  8
0
100
AcDbBlockEnd
  0
BLOCK
  5
95C
330
8B2
100
AcDbEntity
  8
0
100
AcDbBlockBegin
  2
*D5
 70
     1
 10
0.0
 20
0.0
 30
0.0
  3
*D5
  1

  0
LINE
  5
95D
330
8B2
100
AcDbEntity
  8
0
  6
BYBLOCK
 62
     4
100
AcDbLine
 10
429.2778615764583
 20
200.7878050422068
 30
0.0
 11
429.2778615764583
 21
179.5198020928878
 31
0.0
  0
LINE
  5
95E
330
8B2
100
AcDbEntity
  8
0
  6
BYBLOCK
 62
     4
100
AcDbLine
 10
369.2782093863889
 20
200.7878833274016
 30
0.0
 11
369.2782093863889
 21
179.5198020928878
 31
0.0
  0
LINE
  5
95F
330
8B2
100
AcDbEntity
  8
0
  6
BYBLOCK
 62
     4
100
AcDbLine
 10
422.2778615764583
 20
182.5198020928878
 30
0.0
 11
376.2782093863889
 21
182.5198020928878
 31
0.0
  0
INSERT
  5
960
330
8B2
100
AcDbEntity
  8
0
  6
BYBLOCK
 62
     4
100
AcDbBlockReference
  2
_OPEN
 10
429.2778615764583
 20
182.5198020928878
 30
0.0
 41
7.0
 42
7.0
 43
7.0
  0
INSERT
  5
961
330
8B2
100
AcDbEntity
  8
0
  6
BYBLOCK
 62
     4
100
AcDbBlockReference
  2
_OPEN
 10
369.2782093863889
 20
182.5198020928878
 30
0.0
 41
7.0
 42
7.0
 43
7.0
 50
180.0
  0
MTEXT
  5
962
330
8B2
100
AcDbEntity
  8
0
  6
BYBLOCK
 62
     4
100
AcDbMText
 10
399.2780354814236
 20
187.5198020928878
 30
0.0
 40
6.0
 41
0.0
 71
     5
 72
     1
  1
\A1;φ60
1001
ACAD
1000
MTEXTBEGIN
1070
    73
1070
     1
1070
    44
1040
1.0
1070
    74
1070
     0
1000
MTEXTEND
1000
MTEXTBEGIN
1070
    73
1070
     1
1070
    44
1040
1.0
1070
    74
1070
     0
1000
MTEXTEND
1000
MTEXTBEGIN
1070
    73
1070
     1
1070
    44
1040
1.0
1070
    74
1070
     0
1000
MTEXTEND
  0
POINT
  5
963
330
8B2
100
AcDbEntity
  8
DEFPOINTS
  6
BYBLOCK
 62
     0
100
AcDbPoint
 10
429.2778615764583
 20
206.7878050422068
 30
0.0
  0
POINT
  5
964
330
8B2
100
AcDbEntity
  8
DEFPOINTS
  6
BYBLOCK
 62
     0
100
AcDbPoint
 10
369.2782093863889
 20
206.7878833274016
 30
0.0
  0
POINT
  5
965
330
8B2
100
AcDbEntity
  8
DEFPOINTS
  6
BYBLOCK
 62
     0
100
AcDbPoint
 10
369.2782093863889
 20
182.5198020928878
 30
0.0
  0
ENDBLK
  5
966
330
8B2
100
AcDbEntity
  8
0
100
AcDbBlockEnd
  0
BLOCK
  5
98E
330
8CE
100
AcDbEntity
  8
0
100
AcDbBlockBegin
  2
*D6
 70
     1
 10
0.0
 20
0.0
 30
0.0
  3
*D6
  1

  0
LINE
  5
98F
330
8CE
100
AcDbEntity
  8
0
  6
BYBLOCK
 62
     4
100
AcDbLine
 10
450.278089394872
 20
226.7874050433548
 30
0.0
 11
483.4954064323774
 21
226.7874050433548
 31
0.0
  0
LINE
  5
990
330
8CE
100
AcDbEntity
  8
0
  6
BYBLOCK
 62
     4
100
AcDbLine
 10
433.6529615764582
 20
205.7875050422067
 30
0.0
 11
483.4954064323774
 21
205.7875050422067
 31
0.0
  0
LINE
  5
991
330
8CE
100
AcDbEntity
  8
0
  6
BYBLOCK
 62
     4
100
AcDbLine
 10
480.4954064323774
 20
233.7874050433548
 30
0.0
 11
480.4954064323774
 21
240.7874050433548
 31
0.0
  0
LINE
  5
992
330
8CE
100
AcDbEntity
  8
0
  6
BYBLOCK
 62
     4
100
AcDbLine
 10
480.4954064323774
 20
198.7875050422067
 30
0.0
 11
480.4954064323774
 21
191.7875050422066
 31
0.0
  0
LINE
  5
993
330
8CE
100
AcDbEntity
  8
0
  6
BYBLOCK
 62
     4
100
AcDbLine
 10
480.4954064323774
 20
226.7874050433548
 30
0.0
 11
480.4954064323774
 21
205.7875050422067
 31
0.0
  0
INSERT
  5
994
330
8CE
100
AcDbEntity
  8
0
  6
BYBLOCK
 62
     4
100
AcDbBlockReference
  2
_OPEN
 10
480.4954064323774
 20
226.7874050433548
 30
0.0
 41
7.0
 42
7.0
 43
7.0
 50
270.0
  0
INSERT
  5
995
330
8CE
100
AcDbEntity
  8
0
  6
BYBLOCK
 62
     4
100
AcDbBlockReference
  2
_OPEN
 10
480.4954064323774
 20
205.7875050422067
 30
0.0
 41
7.0
 42
7.0
 43
7.0
 50
90.0
  0
MTEXT
  5
996
330
8CE
100
AcDbEntity
  8
0
  6
BYBLOCK
 62
     4
100
AcDbMText
 10
475.4954064323774
 20
216.2874550427807
 30
0.0
 40
6.0
 41
0.0
 71
     5
 72
     1
  1
\A1;21
 11
0.0
 21
1.0
 31
0.0
1001
ACAD
1000
MTEXTBEGIN
1070
    73
1070
     1
1070
    44
1040
1.0
1070
    74
1070
     0
1000
MTEXTEND
1000
MTEXTBEGIN
1070
    73
1070
     1
1070
    44
1040
1.0
1070
    74
1070
     0
1000
MTEXTEND
1000
MTEXTBEGIN
1070
    73
1070
     1
1070
    44
1040
1.0
1070
    74
1070
     0
1000
MTEXTEND
  0
POINT
  5
997
330
8CE
100
AcDbEntity
  8
DEFPOINTS
  6
BYBLOCK
 62
     0
100
AcDbPoint
 10
444.278089394872
 20
226.7874050433548
 30
0.0
  0
POINT
  5
998
330
8CE
100
AcDbEntity
  8
DEFPOINTS
  6
BYBLOCK
 62
     0
100
AcDbPoint
 10
427.6529615764583
 20
205.7875050422067
 30
0.0
  0
POINT
  5
999
330
8CE
100
AcDbEntity
  8
DEFPOINTS
  6
BYBLOCK
 62
     0
100
AcDbPoint
 10
480.4954064323774
 20
205.7875050422067
 30
0.0
  0
ENDBLK
  5
99A
330
8CE
100
AcDbEntity
  8
0
100
AcDbBlockEnd
  0
BLOCK
  5
99B
330
8DD
100
AcDbEntity
  8
0
100
AcDbBlockBegin
  2
*D7
 70
     1
 10
0.0
 20
0.0
 30
0.0
  3
*D7
  1

  0
LINE
  5
99C
330
8DD
100
AcDbEntity
  8
0
  6
BYBLOCK
 62
     4
100
AcDbLine
 10
426.7132893948721
 20
241.7876050433547
 30
0.0
 11
501.8647443951985
 21
241.7876050433547
 31
0.0
  0
LINE
  5
99D
330
8DD
100
AcDbEntity
  8
0
  6
BYBLOCK
 62
     4
100
AcDbLine
 10
433.6529615764582
 20
205.7875050422067
 30
0.0
 11
501.8647443951985
 21
205.7875050422067
 31
0.0
  0
LINE
  5
99E
330
8DD
100
AcDbEntity
  8
0
  6
BYBLOCK
 62
     4
100
AcDbLine
 10
498.8647443951986
 20
234.7876050433547
 30
0.0
 11
498.8647443951986
 21
212.7875050422066
 31
0.0
  0
INSERT
  5
99F
330
8DD
100
AcDbEntity
  8
0
  6
BYBLOCK
 62
     4
100
AcDbBlockReference
  2
_OPEN
 10
498.8647443951986
 20
241.7876050433547
 30
0.0
 41
7.0
 42
7.0
 43
7.0
 50
90.0
  0
INSERT
  5
9A0
330
8DD
100
AcDbEntity
  8
0
  6
BYBLOCK
 62
     4
100
AcDbBlockReference
  2
_OPEN
 10
498.8647443951986
 20
205.7875050422067
 30
0.0
 41
7.0
 42
7.0
 43
7.0
 50
270.0
  0
MTEXT
  5
9A1
330
8DD
100
AcDbEntity
  8
0
  6
BYBLOCK
 62
     4
100
AcDbMText
 10
493.8647443951985
 20
223.7875550427807
 30
0.0
 40
6.0
 41
0.0
 71
     5
 72
     1
  1
\A1;36
 11
0.0
 21
1.0
 31
0.0
1001
ACAD
1000
MTEXTBEGIN
1070
    73
1070
     1
1070
    44
1040
1.0
1070
    74
1070
     0
1000
MTEXTEND
1000
MTEXTBEGIN
1070
    73
1070
     1
1070
    44
1040
1.0
1070
    74
1070
     0
1000
MTEXTEND
1000
MTEXTBEGIN
1070
    73
1070
     1
1070
    44
1040
1.0
1070
    74
1070
     0
1000
MTEXTEND
  0
POINT
  5
9A2
330
8DD
100
AcDbEntity
  8
DEFPOINTS
  6
BYBLOCK
 62
     0
100
AcDbPoint
 10
420.713289394872
 20
241.7876050433547
 30
0.0
  0
POINT
  5
9A3
330
8DD
100
AcDbEntity
  8
DEFPOINTS
  6
BYBLOCK
 62
     0
100
AcDbPoint
 10
427.6529615764583
 20
205.7875050422067
 30
0.0
  0
POINT
  5
9A4
330
8DD
100
AcDbEntity
  8
DEFPOINTS
  6
BYBLOCK
 62
     0
100
AcDbPoint
 10
498.8647443951986
 20
205.7875050422067
 30
0.0
  0
ENDBLK
  5
9A5
330
8DD
100
AcDbEntity
  8
0
100
AcDbBlockEnd
  0
BLOCK
  5
91A
330
8EA
100
AcDbEntity
  8
0
100
AcDbBlockBegin
  2
*D8
 70
     1
 10
0.0
 20
0.0
 30
0.0
  3
*D8
  1

  0
LINE
  5
91B
330
8EA
100
AcDbEntity
  8
0
  6
BYBLOCK
 62
     4
100
AcDbLine
 10
421.9739978982105
 20
247.7875991618402
 30
0.0
 11
421.9739978982105
 21
261.4719869112836
 31
0.0
  0
LINE
  5
91C
330
8EA
100
AcDbEntity
  8
0
  6
BYBLOCK
 62
     4
100
AcDbLine
 10
376.5820003815807
 20
247.7878109266444
 30
0.0
 11
376.5820003815807
 21
261.4719869112836
 31
0.0
  0
LINE
  5
91D
330
8EA
100
AcDbEntity
  8
0
  6
BYBLOCK
 62
     4
100
AcDbLine
 10
414.9739978982105
 20
258.4719869112837
 30
0.0
 11
383.5820003815807
 21
258.4719869112837
 31
0.0
  0
INSERT
  5
91E
330
8EA
100
AcDbEntity
  8
0
  6
BYBLOCK
 62
     4
100
AcDbBlockReference
  2
_OPEN
 10
421.9739978982105
 20
258.4719869112837
 30
0.0
 41
7.0
 42
7.0
 43
7.0
  0
INSERT
  5
91F
330
8EA
100
AcDbEntity
  8
0
  6
BYBLOCK
 62
     4
100
AcDbBlockReference
  2
_OPEN
 10
376.5820003815807
 20
258.4719869112837
 30
0.0
 41
7.0
 42
7.0
 43
7.0
 50
180.0
  0
MTEXT
  5
920
330
8EA
100
AcDbEntity
  8
0
  6
BYBLOCK
 62
     4
100
AcDbMText
 10
399.2779991398956
 20
263.4719869112836
 30
0.0
 40
6.0
 41
0.0
 71
     5
 72
     1
  1
\A1;φ45
1001
ACAD
1000
MTEXTBEGIN
1070
    73
1070
     1
1070
    44
1040
1.0
1070
    74
1070
     0
1000
MTEXTEND
1000
MTEXTBEGIN
1070
    73
1070
     1
1070
    44
1040
1.0
1070
    74
1070
     0
1000
MTEXTEND
1000
MTEXTBEGIN
1070
    73
1070
     1
1070
    44
1040
1.0
1070
    74
1070
     0
1000
MTEXTEND
  0
POINT
  5
921
330
8EA
100
AcDbEntity
  8
DEFPOINTS
  6
BYBLOCK
 62
     0
100
AcDbPoint
 10
421.9739978982105
 20
241.7875991618402
 30
0.0
  0
POINT
  5
922
330
8EA
100
AcDbEntity
  8
DEFPOINTS
  6
BYBLOCK
 62
     0
100
AcDbPoint
 10
376.5820003815807
 20
241.7878109266444
 30
0.0
  0
POINT
  5
923
330
8EA
100
AcDbEntity
  8
DEFPOINTS
  6
BYBLOCK
 62
     0
100
AcDbPoint
 10
376.5820003815807
 20
258.4719869112837
 30
0.0
  0
ENDBLK
  5
924
330
8EA
100
AcDbEntity
  8
0
100
AcDbBlockEnd
  0
BLOCK
  5
93B
330
8F7
100
AcDbEntity
  8
0
100
AcDbBlockBegin
  2
*D9
 70
     1
 10
0.0
 20
0.0
 30
0.0
  3
*D9
  1

  0
LINE
  5
93C
330
8F7
100
AcDbEntity
  8
0
  6
BYBLOCK
 62
     4
100
AcDbLine
 10
444.278089394872
 20
233.7874050433548
 30
0.0
 11
444.278089394872
 21
280.7511620721788
 31
0.0
  0
LINE
  5
93D
330
8F7
100
AcDbEntity
  8
0
  6
BYBLOCK
 62
     4
100
AcDbLine
 10
354.2778893948721
 20
233.7877050433548
 30
0.0
 11
354.2778893948721
 21
280.7511620721788
 31
0.0
  0
LINE
  5
93E
330
8F7
100
AcDbEntity
  8
0
  6
BYBLOCK
 62
     4
100
AcDbLine
 10
437.278089394872
 20
277.7511620721788
 30
0.0
 11
361.277889394872
 21
277.7511620721788
 31
0.0
  0
INSERT
  5
93F
330
8F7
100
AcDbEntity
  8
0
  6
BYBLOCK
 62
     4
100
AcDbBlockReference
  2
_OPEN
 10
444.278089394872
 20
277.7511620721788
 30
0.0
 41
7.0
 42
7.0
 43
7.0
  0
INSERT
  5
940
330
8F7
100
AcDbEntity
  8
0
  6
BYBLOCK
 62
     4
100
AcDbBlockReference
  2
_OPEN
 10
354.2778893948721
 20
277.7511620721788
 30
0.0
 41
7.0
 42
7.0
 43
7.0
 50
180.0
  0
MTEXT
  5
941
330
8F7
100
AcDbEntity
  8
0
  6
BYBLOCK
 62
     4
100
AcDbMText
 10
399.277989394872
 20
282.7511620721788
 30
0.0
 40
6.0
 41
0.0
 71
     5
 72
     1
  1
\A1;φ90
1001
ACAD
1000
MTEXTBEGIN
1070
    73
1070
     1
1070
    44
1040
1.0
1070
    74
1070
     0
1000
MTEXTEND
1000
MTEXTBEGIN
1070
    73
1070
     1
1070
    44
1040
1.0
1070
    74
1070
     0
1000
MTEXTEND
1000
MTEXTBEGIN
1070
    73
1070
     1
1070
    44
1040
1.0
1070
    74
1070
     0
1000
MTEXTEND
  0
POINT
  5
942
330
8F7
100
AcDbEntity
  8
DEFPOINTS
  6
BYBLOCK
 62
     0
100
AcDbPoint
 10
444.278089394872
 20
227.7874050433548
 30
0.0
  0
POINT
  5
943
330
8F7
100
AcDbEntity
  8
DEFPOINTS
  6
BYBLOCK
 62
     0
100
AcDbPoint
 10
354.2778893948721
 20
227.7877050433548
 30
0.0
  0
POINT
  5
944
330
8F7
100
AcDbEntity
  8
DEFPOINTS
  6
BYBLOCK
 62
     0
100
AcDbPoint
 10
354.2778893948721
 20
277.7511620721788
 30
0.0
  0
ENDBLK
  5
945
330
8F7
100
AcDbEntity
  8
0
100
AcDbBlockEnd
  0
BLOCK
  5
9A6
330
967
100
AcDbEntity
  8
0
100
AcDbBlockBegin
  2
*D10
 70
     1
 10
0.0
 20
0.0
 30
0.0
  3
*D10
  1

  0
LINE
  5
9A7
330
967
100
AcDbEntity
  8
0
  6
BYBLOCK
 62
     4
100
AcDbLine
 10
446.2780893948721
 20
228.5874050433548
 30
0.0
 11
465.6015163385263
 21
228.5874050433548
 31
0.0
  0
LINE
  5
9A8
330
967
100
AcDbEntity
  8
0
  6
BYBLOCK
 62
     4
100
AcDbLine
 10
450.278089394872
 20
226.7874050433548
 30
0.0
 11
465.6015163385263
 21
226.7874050433548
 31
0.0
  0
LINE
  5
9A9
330
967
100
AcDbEntity
  8
0
  6
BYBLOCK
 62
     4
100
AcDbLine
 10
462.6015163385264
 20
235.5874050433548
 30
0.0
 11
462.6015163385264
 21
242.5874050433548
 31
0.0
  0
LINE
  5
9AA
330
967
100
AcDbEntity
  8
0
  6
BYBLOCK
 62
     4
100
AcDbLine
 10
462.6015163385264
 20
219.7874050433548
 30
0.0
 11
462.6015163385264
 21
209.7874050433548
 31
0.0
  0
LINE
  5
9AB
330
967
100
AcDbEntity
  8
0
  6
BYBLOCK
 62
     4
100
AcDbLine
 10
462.6015163385264
 20
228.5874050433548
 30
0.0
 11
462.6015163385264
 21
226.7874050433548
 31
0.0
  0
INSERT
  5
9AC
330
967
100
AcDbEntity
  8
0
  6
BYBLOCK
 62
     4
100
AcDbBlockReference
  2
_OPEN
 10
462.6015163385264
 20
228.5874050433548
 30
0.0
 41
7.0
 42
7.0
 43
7.0
 50
270.0
  0
INSERT
  5
9AD
330
967
100
AcDbEntity
  8
0
  6
BYBLOCK
 62
     4
100
AcDbBlockReference
  2
_OPEN
 10
462.6015163385264
 20
226.7874050433548
 30
0.0
 41
7.0
 42
7.0
 43
7.0
 50
90.0
  0
MTEXT
  5
9AE
330
967
100
AcDbEntity
  8
0
  6
BYBLOCK
 62
     4
100
AcDbMText
 10
457.6015163385263
 20
213.7874050433548
 30
0.0
 40
6.0
 41
0.0
 71
     5
 72
     1
  1
\A1;2
 11
0.0
 21
1.0
 31
0.0
1001
ACAD
1000
MTEXTBEGIN
1070
    73
1070
     1
1070
    44
1040
1.0
1070
    74
1070
     0
1000
MTEXTEND
1000
MTEXTBEGIN
1070
    73
1070
     1
1070
    44
1040
1.0
1070
    74
1070
     0
1000
MTEXTEND
1000
MTEXTBEGIN
1070
    73
1070
     1
1070
    44
1040
1.0
1070
    74
1070
     0
1000
MTEXTEND
  0
POINT
  5
9AF
330
967
100
AcDbEntity
  8
DEFPOINTS
  6
BYBLOCK
 62
     0
100
AcDbPoint
 10
440.2780893948722
 20
228.5874050433548
 30
0.0
  0
POINT
  5
9B0
330
967
100
AcDbEntity
  8
DEFPOINTS
  6
BYBLOCK
 62
     0
100
AcDbPoint
 10
444.278089394872
 20
226.7874050433548
 30
0.0
  0
POINT
  5
9B1
330
967
100
AcDbEntity
  8
DEFPOINTS
  6
BYBLOCK
 62
     0
100
AcDbPoint
 10
462.6015163385264
 20
226.7874050433548
 30
0.0
  0
ENDBLK
  5
9B2
330
967
100
AcDbEntity
  8
0
100
AcDbBlockEnd
  0
BLOCK
  5
9F9
330
9B5
100
AcDbEntity
  8
0
100
AcDbBlockBegin
  2
*D11
 70
     1
 10
0.0
 20
0.0
 30
0.0
  3
*D11
  1

  0
LINE
  5
9FA
330
9B5
100
AcDbEntity
  8
0
  6
BYBLOCK
 62
     4
100
AcDbLine
 10
715.9785340413775
 20
309.862517917919
 30
0.0
 11
715.9785340413775
 21
280.047810804795
 31
0.0
  0
LINE
  5
9FB
330
9B5
100
AcDbEntity
  8
0
  6
BYBLOCK
 62
     4
100
AcDbLine
 10
654.9785340413775
 20
310.0865766147204
 30
0.0
 11
654.9785340413775
 21
280.047810804795
 31
0.0
  0
LINE
  5
9FC
330
9B5
100
AcDbEntity
  8
0
  6
BYBLOCK
 62
     4
100
AcDbLine
 10
708.9785340413775
 20
283.047810804795
 30
0.0
 11
661.9785340413775
 21
283.047810804795
 31
0.0
  0
INSERT
  5
9FD
330
9B5
100
AcDbEntity
  8
0
  6
BYBLOCK
 62
     4
100
AcDbBlockReference
  2
_OPEN
 10
715.9785340413775
 20
283.047810804795
 30
0.0
 41
7.0
 42
7.0
 43
7.0
  0
INSERT
  5
9FE
330
9B5
100
AcDbEntity
  8
0
  6
BYBLOCK
 62
     4
100
AcDbBlockReference
  2
_OPEN
 10
654.9785340413775
 20
283.047810804795
 30
0.0
 41
7.0
 42
7.0
 43
7.0
 50
180.0
  0
MTEXT
  5
9FF
330
9B5
100
AcDbEntity
  8
0
  6
BYBLOCK
 62
     4
100
AcDbMText
 10
685.4785340413775
 20
288.047810804795
 30
0.0
 40
6.0
 41
0.0
 71
     5
 72
     1
  1
\A1;穴径 φ61
1001
ACAD
1000
MTEXTBEGIN
1070
    73
1070
     1
1070
    44
1040
1.0
1070
    74
1070
     0
1000
MTEXTEND
1000
MTEXTBEGIN
1070
    73
1070
     1
1070
    44
1040
1.0
1070
    74
1070
     0
1000
MTEXTEND
1000
MTEXTBEGIN
1070
    73
1070
     1
1070
    44
1040
1.0
1070
    74
1070
     0
1000
MTEXTEND
  0
POINT
  5
A00
330
9B5
100
AcDbEntity
  8
DEFPOINTS
  6
BYBLOCK
 62
     0
100
AcDbPoint
 10
715.9785340413775
 20
315.862517917919
 30
0.0
  0
POINT
  5
A01
330
9B5
100
AcDbEntity
  8
DEFPOINTS
  6
BYBLOCK
 62
     0
100
AcDbPoint
 10
654.9785340413775
 20
316.0865766147204
 30
0.0
  0
POINT
  5
A02
330
9B5
100
AcDbEntity
  8
DEFPOINTS
  6
BYBLOCK
 62
     0
100
AcDbPoint
 10
654.9785340413775
 20
283.047810804795
 30
0.0
  0
ENDBLK
  5
A03
330
9B5
100
AcDbEntity
  8
0
100
AcDbBlockEnd
  0
ENDSEC
  0
SECTION
  2
ENTITIES
  0
TEXT
  5
11A
330
1A
100
AcDbEntity
  8
ZUWAKU
 62
     7
 48
10.0
100
AcDbText
 10
795.5579444309237
 20
4.974918402528146
 30
0.0
 40
8.0
  1
A1
100
AcDbText
  0
LINE
  5
11B
330
1A
100
AcDbEntity
  8
ZUWAKU
 62
     7
 48
10.0
100
AcDbLine
 10
10.05047808566086
 20
25.78258628282265
 30
0.0
 11
806.0504780856609
 21
25.78258628282253
 31
0.0
  0
LINE
  5
11C
330
1A
100
AcDbEntity
  8
ZUWAKU
  6
CONTINUOUS
 62
     7
100
AcDbLine
 10
806.0504780856609
 20
563.7825862828226
 30
0.0
 11
10.05047808566086
 21
563.7825862828226
 31
0.0
  0
LINE
  5
11D
330
1A
100
AcDbEntity
  8
ZUWAKU
  6
CONTINUOUS
 62
     7
100
AcDbLine
 10
806.0504780856609
 20
13.78258628282265
 30
0.0
 11
10.05047808566086
 21
13.78258628282265
 31
0.0
  0
LINE
  5
11E
330
1A
100
AcDbEntity
  8
ZUWAKU
  6
CONTINUOUS
 62
     7
100
AcDbLine
 10
10.05047808566086
 20
563.7825862828226
 30
0.0
 11
10.05047808566086
 21
13.78258628282265
 31
0.0
  0
LINE
  5
11F
330
1A
100
AcDbEntity
  8
ZUWAKU
 62
     7
 48
10.0
100
AcDbLine
 10
44.55797523147839
 20
13.78258628282265
 30
0.0
 11
44.5579752314784
 21
25.78258628282265
 31
0.0
  0
TEXT
  5
120
330
1A
100
AcDbEntity
  8
ZUWAKU
 62
     7
100
AcDbText
 10
16.05676551180931
 20
15.52294263804401
 30
0.0
 40
8.0
  1
品 種
100
AcDbText
  0
LINE
  5
121
330
1A
100
AcDbEntity
  8
ZUWAKU
 62
     7
 48
10.0
100
AcDbLine
 10
276.1028387068254
 20
13.78258628282265
 30
0.0
 11
276.1028387068254
 21
25.78258628282261
 31
0.0
  0
LINE
  5
122
330
1A
100
AcDbEntity
  8
ZUWAKU
 62
     7
 48
10.0
100
AcDbLine
 10
209.5138526425484
 20
13.78258628282265
 30
0.0
 11
209.5138526425485
 21
25.78258628282263
 31
0.0
  0
TEXT
  5
124
330
1A
100
AcDbEntity
  8
ZUWAKU
 62
     7
100
AcDbText
 10
215.4560837190756
 20
16.18358115302453
 30
0.0
 40
8.0
  1
品名・ｻ ｲ ｽﾞ
100
AcDbText
  0
LINE
  5
126
330
1A
100
AcDbEntity
  8
ZUWAKU
 62
     7
 48
10.0
100
AcDbLine
 10
768.7231079932794
 20
13.78258628282237
 30
0.0
 11
768.7231079932794
 21
25.78258628282254
 31
0.0
  0
LINE
  5
127
330
1A
100
AcDbEntity
  8
ZUWAKU
 62
     7
 48
10.0
100
AcDbLine
 10
733.8119002376948
 20
13.78258628282242
 30
0.0
 11
733.8119002376946
 21
25.78258628282254
 31
0.0
  0
TEXT
  5
128
330
1A
100
AcDbEntity
  8
ZUWAKU
 62
     7
100
AcDbText
 10
739.6955629973526
 20
15.24227755810852
 30
0.0
 40
8.0
  1
尺 度
100
AcDbText
  0
TEXT
  5
129
330
1A
100
AcDbEntity
  8
ZUWAKU
 62
     7
100
AcDbText
 10
779.7374630323229
 20
15.55488920081529
 30
0.0
 40
8.0
  1
1/2
100
AcDbText
  0
TEXT
  5
12B
330
1A
100
AcDbEntity
  8
ZUWAKU
 62
     7
100
AcDbText
 10
620.3363288383084
 20
15.6519090944263
 30
0.0
 40
8.0
  1
品 番
100
AcDbText
  0
LINE
  5
12C
330
1A
100
AcDbEntity
  8
ZUWAKU
 62
     7
 48
10.0
100
AcDbLine
 10
614.3351028194128
 20
13.78258628282232
 30
0.0
 11
614.3351028194128
 21
25.78258628282256
 31
0.0
  0
LINE
  5
12D
330
1A
100
AcDbEntity
  8
ZUWAKU
 62
     7
 48
10.0
100
AcDbLine
 10
648.7607587371021
 20
13.78258628282232
 30
0.0
 11
648.7607587371021
 21
25.78258628282255
 31
0.0
  0
TEXT
  5
12E
330
1A
100
AcDbEntity
  8
ZUWAKU
 62
     7
 48
10.0
100
AcDbText
 10
646.2758615931216
 20
4.949376903717848
 30
0.0
 40
8.0
  1
積水化学工業株式会社  建材
100
AcDbText
  0
LINE
  5
12F
330
1A
100
AcDbEntity
  8
ZUWAKU
  6
CONTINUOUS
 62
     7
100
AcDbLine
 10
806.0504780856609
 20
563.7825862828226
 30
0.0
 11
806.0504780856609
 21
13.78258628282265
 31
0.0
  0
ARC
  5
3D4
330
1A
100
AcDbEntity
  8
SEIHIN
  6
CONTINUOUS
100
AcDbCircle
 10
192.6592025600497
 20
374.7875550433547
 30
0.0
 40
50.00000006573353
100
AcDbArc
 50
0.0000572957795211
 51
359.9999427042204
  0
LINE
  5
3D5
330
1A
100
AcDbEntity
  8
CENTER_L
 48
5.0
100
AcDbLine
 10
192.6593026257583
 20
434.0160050433546
 30
0.0
 11
192.6591026257583
 21
317.1790050433547
 31
0.0
  0
TEXT
  5
3D6
330
1A
100
AcDbEntity
  8
ZUWAKU
 62
     7
100
AcDbText
 10
50.3519382305086
 20
16.10306189639755
 30
0.0
 40
8.0
  1
自在ドレン
100
AcDbText
  0
TEXT
  5
3D8
330
1A
100
AcDbEntity
  8
ZUWAKU
 62
     7
100
AcDbText
 10
282.3131429914078
 20
15.64241700452384
 30
0.0
 40
8.0
  1
ＶＵ・ＶＰ５０
100
AcDbText
  0
LINE
  5
3E8
330
1A
100
AcDbEntity
  8
SEIHIN
  6
CONTINUOUS
100
AcDbLine
 10
160.8586026257583
 20
177.9875050433548
 30
0.0
 11
160.7085026257583
 21
220.4875050433548
 31
0.0
  0
LINE
  5
3F2
330
1A
100
AcDbEntity
  8
SEIHIN
  6
CONTINUOUS
100
AcDbLine
 10
142.6588026257582
 20
222.9878050433548
 30
0.0
 11
142.6588026257582
 21
224.7879050433548
 31
0.0
  0
LINE
  5
3F3
330
1A
100
AcDbEntity
  8
SEIHIN
  6
CONTINUOUS
100
AcDbLine
 10
146.6588026257582
 20
222.4878050433548
 30
0.0
 11
142.6588026257582
 21
222.9878050433548
 31
0.0
  0
LINE
  5
3FB
330
1A
100
AcDbEntity
  8
SEIHIN
  6
CONTINUOUS
100
AcDbLine
 10
160.7085026257583
 20
220.4875050433548
 30
0.0
 11
158.7085026257583
 21
222.4875050433548
 31
0.0
  0
LINE
  5
405
330
1A
100
AcDbEntity
  8
SEIHIN
  6
CONTINUOUS
100
AcDbLine
 10
224.4586026257582
 20
177.9873050433547
 30
0.0
 11
224.6088026257583
 21
220.4873050433547
 31
0.0
  0
LINE
  5
408
330
1A
100
AcDbEntity
  8
CENTER_L
 48
5.0
100
AcDbLine
 10
192.658781331018
 20
231.7876050436086
 30
0.0
 11
192.6587026257583
 21
171.4660050433547
 31
0.0
  0
LINE
  5
411
330
1A
100
AcDbEntity
  8
SEIHIN
  6
CONTINUOUS
100
AcDbLine
 10
160.8586019194053
 20
177.9877050433592
 30
0.0
 11
224.4586026257582
 21
177.9873050433547
 31
0.0
  0
LINE
  5
41C
330
1A
100
AcDbEntity
  8
SEIHIN
  6
CONTINUOUS
100
AcDbLine
 10
224.6088026257583
 20
220.4873050433547
 30
0.0
 11
160.7085019193943
 21
220.4877050464891
 31
0.0
  0
LINE
  5
41D
330
1A
100
AcDbEntity
  8
SEIHIN
  6
CONTINUOUS
100
AcDbLine
 10
242.6588026257582
 20
224.7873050433548
 30
0.0
 11
142.6588026257582
 21
224.7879050433548
 31
0.0
  0
LINE
  5
41E
330
1A
100
AcDbEntity
  8
SEIHIN
  6
CONTINUOUS
100
AcDbLine
 10
238.6588026257582
 20
222.4873050433547
 30
0.0
 11
146.6580025944533
 21
222.4879050472679
 31
0.0
  0
LINE
  5
439
330
1A
100
AcDbEntity
  8
SEIHIN
  6
CONTINUOUS
100
AcDbLine
 10
224.6088026257583
 20
220.4873050433547
 30
0.0
 11
226.6088026257583
 21
222.4873050433547
 31
0.0
  0
LINE
  5
43B
330
1A
100
AcDbEntity
  8
SEIHIN
  6
CONTINUOUS
100
AcDbLine
 10
242.6588026257582
 20
222.9873050433547
 30
0.0
 11
242.6588026257582
 21
224.7873050433548
 31
0.0
  0
LINE
  5
43C
330
1A
100
AcDbEntity
  8
SEIHIN
  6
CONTINUOUS
100
AcDbLine
 10
238.6588026257582
 20
222.4873050433547
 30
0.0
 11
242.6588026257582
 21
222.9873050433547
 31
0.0
  0
LINE
  5
45C
330
1A
100
AcDbEntity
  8
CENTER_L
 48
5.0
100
AcDbLine
 10
135.9639026257582
 20
374.7877050433548
 30
0.0
 11
249.9335026257583
 21
374.7875050433546
 31
0.0
  0
ARC
  5
4DF
330
1A
100
AcDbEntity
  8
SEIHIN
  6
CONTINUOUS
100
AcDbCircle
 10
664.8606261619431
 20
301.7487419042877
 30
0.0
 40
1.0
100
AcDbArc
 50
270.0
 51
0.0
  0
LINE
  5
4E0
330
1A
100
AcDbEntity
  8
SEIHIN
  6
CONTINUOUS
100
AcDbLine
 10
664.2355261619432
 20
294.5486419042876
 30
0.0
 11
664.2355261619432
 21
300.7487419042877
 31
0.0
  0
ARC
  5
4E1
330
1A
100
AcDbEntity
  8
SEIHIN
  6
CONTINUOUS
100
AcDbCircle
 10
606.8605261619433
 20
301.7490419042878
 30
0.0
 40
1.000000000000113
100
AcDbArc
 50
180.0
 51
270.0
  0
LINE
  5
4E2
330
1A
100
AcDbEntity
  8
SEIHIN
  6
CONTINUOUS
100
AcDbLine
 10
607.4856261619431
 20
294.5486419042876
 30
0.0
 11
607.4856261619431
 21
300.7487419042877
 31
0.0
  0
LINE
  5
4E9
330
1A
100
AcDbEntity
  8
CENTER_L
 48
5.0
100
AcDbLine
 10
635.8605261619434
 20
309.4944419042878
 30
0.0
 11
635.8605261619434
 21
274.3168419042876
 31
0.0
  0
TEXT
  5
4EA
330
1A
100
AcDbEntity
  8
ZUWAKU
 62
     7
100
AcDbText
 10
654.2531733678779
 20
15.90287984531518
 30
0.0
 40
8.0
  1
ＧＫ９９
100
AcDbText
  0
LINE
  5
4EE
330
1A
100
AcDbEntity
  8
SEIHIN
  6
CONTINUOUS
100
AcDbLine
 10
665.8607261619433
 20
294.5487419042876
 30
0.0
 11
605.8607261619431
 21
294.5490419042877
 31
0.0
  0
LINE
  5
4EF
330
1A
100
AcDbEntity
  8
SEIHIN
  6
CONTINUOUS
100
AcDbLine
 10
665.8604261619432
 20
285.5489419042878
 30
0.0
 11
645.8616261619432
 21
282.5491419042877
 31
0.0
  0
LINE
  5
4F0
330
1A
100
AcDbEntity
  8
SEIHIN
  6
CONTINUOUS
100
AcDbLine
 10
664.2354261619434
 20
283.8613419042878
 30
0.0
 11
655.4873261619434
 21
282.5491419042877
 31
0.0
  0
LINE
  5
4F1
330
1A
100
AcDbEntity
  8
SEIHIN
  6
CONTINUOUS
100
AcDbLine
 10
664.2354261619434
 20
284.6107419042877
 30
0.0
 11
650.4916261619432
 21
282.5491419042877
 31
0.0
  0
LINE
  5
4F2
330
1A
100
AcDbEntity
  8
SEIHIN
  6
CONTINUOUS
100
AcDbLine
 10
664.7771261619432
 20
200.2485419042877
 30
0.0
 11
635.8606261619434
 21
200.2485419042877
 31
0.0
  0
LINE
  5
4F3
330
1A
100
AcDbEntity
  8
SEIHIN
  6
CONTINUOUS
100
AcDbLine
 10
680.8604261619434
 20
220.0489419042877
 30
0.0
 11
635.8605261619434
 21
220.0489419042877
 31
0.0
  0
LINE
  5
4F4
330
1A
100
AcDbEntity
  8
SEIHIN
  6
CONTINUOUS
100
AcDbLine
 10
635.8606261619434
 20
173.7486419042877
 30
0.0
 11
667.6605261619434
 21
173.7485419042877
 31
0.0
  0
LINE
  5
4F5
330
1A
100
AcDbEntity
  8
SEIHIN
  6
CONTINUOUS
100
AcDbLine
 10
685.8604261619434
 20
220.5489419042877
 30
0.0
 11
635.8605261619434
 21
220.5487419042877
 31
0.0
  0
LINE
  5
4F6
330
1A
100
AcDbEntity
  8
SEIHIN
  6
CONTINUOUS
100
AcDbLine
 10
661.7104261619433
 20
197.2485419042877
 30
0.0
 11
635.8606261619434
 21
197.2486419042877
 31
0.0
  0
LINE
  5
4F7
330
1A
100
AcDbEntity
  8
SEIHIN
  6
CONTINUOUS
100
AcDbLine
 10
665.8604261619432
 20
216.2485419042877
 30
0.0
 11
635.8607261619432
 21
216.2486419042877
 31
0.0
  0
LINE
  5
4F8
330
1A
100
AcDbEntity
  8
SEIHIN
  6
CONTINUOUS
100
AcDbLine
 10
607.4856261619431
 20
281.5490419042877
 30
0.0
 11
664.2354261619434
 21
281.5487419042876
 31
0.0
  0
LINE
  5
4F9
330
1A
100
AcDbEntity
  8
SEIHIN
  6
CONTINUOUS
100
AcDbLine
 10
665.8604261619432
 20
285.9230419042877
 30
0.0
 11
643.3673261619433
 21
282.5492419042878
 31
0.0
  0
LINE
  5
4FA
330
1A
100
AcDbEntity
  8
SEIHIN
  6
CONTINUOUS
100
AcDbLine
 10
665.8604261619432
 20
282.5491419042877
 30
0.0
 11
605.8607261619431
 21
282.5494419042876
 31
0.0
  0
LINE
  5
4FB
330
1A
100
AcDbEntity
  8
SEIHIN
  6
CONTINUOUS
100
AcDbLine
 10
664.2355261619432
 20
293.6104419042877
 30
0.0
 11
607.4857261619434
 21
285.0979419042877
 31
0.0
  0
LINE
  5
4FC
330
1A
100
AcDbEntity
  8
SEIHIN
  6
CONTINUOUS
100
AcDbLine
 10
664.2355261619432
 20
292.8610419042876
 30
0.0
 11
607.4857261619434
 21
284.3486419042878
 31
0.0
  0
LINE
  5
4FD
330
1A
100
AcDbEntity
  8
SEIHIN
  6
CONTINUOUS
100
AcDbLine
 10
665.8604261619432
 20
294.5486419042876
 30
0.0
 11
605.8607261619431
 21
285.5489419042878
 31
0.0
  0
LINE
  5
4FE
330
1A
100
AcDbEntity
  8
SEIHIN
  6
CONTINUOUS
100
AcDbLine
 10
665.8604261619432
 20
291.9229419042878
 30
0.0
 11
605.8607261619431
 21
282.9231419042877
 31
0.0
  0
LINE
  5
4FF
330
1A
100
AcDbEntity
  8
SEIHIN
  6
CONTINUOUS
100
AcDbLine
 10
665.8604261619432
 20
291.5487419042876
 30
0.0
 11
605.8607261619431
 21
282.5490419042878
 31
0.0
  0
LINE
  5
500
330
1A
100
AcDbEntity
  8
SEIHIN
  6
CONTINUOUS
100
AcDbLine
 10
665.8604261619432
 20
291.5487419042876
 30
0.0
 11
605.8606261619433
 21
282.5490419042878
 31
0.0
  0
LINE
  5
501
330
1A
100
AcDbEntity
  8
SEIHIN
  6
CONTINUOUS
100
AcDbLine
 10
664.2354261619434
 20
290.6105419042877
 30
0.0
 11
610.4944261619433
 21
282.5494419042876
 31
0.0
  0
LINE
  5
502
330
1A
100
AcDbEntity
  8
SEIHIN
  6
CONTINUOUS
100
AcDbLine
 10
664.2354261619434
 20
289.8611419042876
 30
0.0
 11
615.4901261619434
 21
282.5493419042878
 31
0.0
  0
LINE
  5
503
330
1A
100
AcDbEntity
  8
SEIHIN
  6
CONTINUOUS
100
AcDbLine
 10
665.8604261619432
 20
288.9230419042876
 30
0.0
 11
623.3682261619433
 21
282.5493419042878
 31
0.0
  0
LINE
  5
504
330
1A
100
AcDbEntity
  8
SEIHIN
  6
CONTINUOUS
100
AcDbLine
 10
665.8604261619432
 20
288.5488419042878
 30
0.0
 11
625.8623261619431
 21
282.5493419042878
 31
0.0
  0
LINE
  5
505
330
1A
100
AcDbEntity
  8
SEIHIN
  6
CONTINUOUS
100
AcDbLine
 10
664.2354261619434
 20
286.8612419042876
 30
0.0
 11
635.4887261619433
 21
282.5491419042877
 31
0.0
  0
LINE
  5
506
330
1A
100
AcDbEntity
  8
SEIHIN
  6
CONTINUOUS
100
AcDbLine
 10
664.2354261619434
 20
287.6106419042877
 30
0.0
 11
630.4930261619433
 21
282.5492419042878
 31
0.0
  0
LINE
  5
507
330
1A
100
AcDbEntity
  8
SEIHIN
  6
CONTINUOUS
100
AcDbLine
 10
663.3665261619433
 20
294.5487419042876
 30
0.0
 11
605.8607261619431
 21
285.9230419042877
 31
0.0
  0
LINE
  5
50A
330
1A
100
AcDbEntity
  8
SEIHIN
  6
CONTINUOUS
100
AcDbLine
 10
633.0497261619434
 20
207.8831419042876
 30
0.0
 11
633.9628261619432
 21
206.8381419042878
 31
0.0
  0
LINE
  5
50B
330
1A
100
AcDbEntity
  8
SEIHIN
  6
CONTINUOUS
100
AcDbLine
 10
633.9629261619434
 20
209.4639419042878
 30
0.0
 11
633.9628261619432
 21
206.8381419042878
 31
0.0
  0
LINE
  5
50C
330
1A
100
AcDbEntity
  8
SEIHIN
  6
CONTINUOUS
100
AcDbLine
 10
612.3122261619431
 20
208.5218419042877
 30
0.0
 11
612.3122261619431
 21
207.7724419042877
 31
0.0
  0
LINE
  5
50D
330
1A
100
AcDbEntity
  8
SEIHIN
  6
CONTINUOUS
100
AcDbLine
 10
611.3991261619432
 20
209.0792419042877
 30
0.0
 11
611.3991261619432
 21
206.4535419042877
 31
0.0
  0
LINE
  5
50E
330
1A
100
AcDbEntity
  8
SEIHIN
  6
CONTINUOUS
100
AcDbLine
 10
605.8605261619431
 20
216.2486419042877
 30
0.0
 11
605.8605261619431
 21
200.2486419042877
 31
0.0
  0
LINE
  5
50F
330
1A
100
AcDbEntity
  8
SEIHIN
  6
CONTINUOUS
100
AcDbLine
 10
633.9629261619434
 20
209.8380419042877
 30
0.0
 11
611.3991261619432
 21
206.4535419042877
 31
0.0
  0
LINE
  5
510
330
1A
100
AcDbEntity
  8
SEIHIN
  6
CONTINUOUS
100
AcDbLine
 10
633.0497261619434
 20
210.8830419042877
 30
0.0
 11
612.3122261619431
 21
207.7724419042877
 31
0.0
  0
LINE
  5
511
330
1A
100
AcDbEntity
  8
SEIHIN
  6
CONTINUOUS
100
AcDbLine
 10
633.0497261619434
 20
208.6325419042878
 30
0.0
 11
612.3122261619431
 21
205.5218419042877
 31
0.0
  0
LINE
  5
512
330
1A
100
AcDbEntity
  8
SEIHIN
  6
CONTINUOUS
100
AcDbLine
 10
633.0497261619434
 20
207.8831419042876
 30
0.0
 11
612.3122261619431
 21
204.7725419042877
 31
0.0
  0
LINE
  5
513
330
1A
100
AcDbEntity
  8
SEIHIN
  6
CONTINUOUS
100
AcDbLine
 10
633.9629261619434
 20
209.4639419042878
 30
0.0
 11
611.3991261619432
 21
206.0793419042878
 31
0.0
  0
LINE
  5
514
330
1A
100
AcDbEntity
  8
SEIHIN
  6
CONTINUOUS
100
AcDbLine
 10
604.0601261619433
 20
173.7486419042877
 30
0.0
 11
603.9102261619433
 21
216.2486419042877
 31
0.0
  0
LINE
  5
515
330
1A
100
AcDbEntity
  8
CENTER_L
 48
5.0
100
AcDbLine
 10
635.8604261619434
 20
228.6711419042878
 30
0.0
 11
635.8604261619434
 21
167.2272419042877
 31
0.0
  0
LINE
  5
51A
330
1A
100
AcDbEntity
  8
SEIHIN
  6
CONTINUOUS
100
AcDbLine
 10
633.0497261619434
 20
204.8832419042877
 30
0.0
 11
615.4857261619433
 21
202.2486419042877
 31
0.0
  0
LINE
  5
51B
330
1A
100
AcDbEntity
  8
SEIHIN
  6
CONTINUOUS
100
AcDbLine
 10
633.9628261619432
 20
203.8382419042878
 30
0.0
 11
623.3649261619434
 21
202.2486419042877
 31
0.0
  0
LINE
  5
51C
330
1A
100
AcDbEntity
  8
SEIHIN
  6
CONTINUOUS
100
AcDbLine
 10
605.8604261619433
 20
200.2486419042877
 30
0.0
 11
635.8601261619432
 21
200.2485419042877
 31
0.0
  0
LINE
  5
51D
330
1A
100
AcDbEntity
  8
SEIHIN
  6
CONTINUOUS
100
AcDbLine
 10
633.9628261619432
 20
206.8381419042878
 30
0.0
 11
611.3990261619432
 21
203.4536419042877
 31
0.0
  0
LINE
  5
51E
330
1A
100
AcDbEntity
  8
SEIHIN
  6
CONTINUOUS
100
AcDbLine
 10
611.3991261619432
 20
202.2486419042877
 30
0.0
 11
633.9628261619432
 21
202.2486419042877
 31
0.0
  0
LINE
  5
51F
330
1A
100
AcDbEntity
  8
SEIHIN
  6
CONTINUOUS
100
AcDbLine
 10
633.0497261619434
 20
205.6326419042878
 30
0.0
 11
612.3122261619431
 21
202.5219419042878
 31
0.0
  0
LINE
  5
520
330
1A
100
AcDbEntity
  8
SEIHIN
  6
CONTINUOUS
100
AcDbLine
 10
633.9628261619432
 20
206.4640419042877
 30
0.0
 11
611.3990261619432
 21
203.0794419042877
 31
0.0
  0
LINE
  5
521
330
1A
100
AcDbEntity
  8
SEIHIN
  6
CONTINUOUS
100
AcDbLine
 10
635.8601261619432
 20
173.7486419042877
 30
0.0
 11
604.0601261619433
 21
173.7486419042877
 31
0.0
  0
LINE
  5
522
330
1A
100
AcDbEntity
  8
SEIHIN
  6
CONTINUOUS
100
AcDbLine
 10
610.0104261619433
 20
197.2486419042877
 30
0.0
 11
635.8601261619432
 21
197.2486419042877
 31
0.0
  0
LINE
  5
523
330
1A
100
AcDbEntity
  8
SEIHIN
  6
CONTINUOUS
100
AcDbLine
 10
605.8603261619432
 20
173.7486419042877
 30
0.0
 11
606.1104261619432
 21
198.7486419042877
 31
0.0
  0
LINE
  5
524
330
1A
100
AcDbEntity
  8
SEIHIN
  6
CONTINUOUS
100
AcDbLine
 10
606.1104261619432
 20
198.7486419042877
 30
0.0
 11
608.5104261619432
 21
198.7486419042877
 31
0.0
  0
ARC
  5
525
330
1A
100
AcDbEntity
  8
SEIHIN
  6
CONTINUOUS
100
AcDbCircle
 10
610.0104261619433
 20
198.7486419042878
 30
0.0
 40
1.500000000000028
100
AcDbArc
 50
180.0000000000032
 51
270.0000000000032
  0
LINE
  5
526
330
1A
100
AcDbEntity
  8
SEIHIN
  6
CONTINUOUS
100
AcDbLine
 10
611.3991261619432
 20
206.0793419042878
 30
0.0
 11
611.3990261619432
 21
203.4536419042877
 31
0.0
  0
LINE
  5
527
330
1A
100
AcDbEntity
  8
SEIHIN
  6
CONTINUOUS
100
AcDbLine
 10
612.3122261619431
 20
207.7724419042877
 30
0.0
 11
611.3991261619432
 21
206.4535419042877
 31
0.0
  0
LINE
  5
528
330
1A
100
AcDbEntity
  8
SEIHIN
  6
CONTINUOUS
100
AcDbLine
 10
612.3122261619431
 20
205.5218419042877
 30
0.0
 11
611.3991261619432
 21
206.0793419042878
 31
0.0
  0
LINE
  5
529
330
1A
100
AcDbEntity
  8
SEIHIN
  6
CONTINUOUS
100
AcDbLine
 10
612.3122261619431
 20
205.5218419042877
 30
0.0
 11
612.3122261619431
 21
204.7725419042877
 31
0.0
  0
LINE
  5
52A
330
1A
100
AcDbEntity
  8
SEIHIN
  6
CONTINUOUS
100
AcDbLine
 10
612.3122261619431
 20
204.7725419042877
 30
0.0
 11
611.3990261619432
 21
203.4536419042877
 31
0.0
  0
LINE
  5
52B
330
1A
100
AcDbEntity
  8
SEIHIN
  6
CONTINUOUS
100
AcDbLine
 10
612.3122261619431
 20
202.5219419042878
 30
0.0
 11
611.3990261619432
 21
203.0794419042877
 31
0.0
  0
LINE
  5
52C
330
1A
100
AcDbEntity
  8
SEIHIN
  6
CONTINUOUS
100
AcDbLine
 10
611.3990261619432
 20
203.0794419042877
 30
0.0
 11
611.3990261619432
 21
202.2485419042877
 31
0.0
  0
LINE
  5
52D
330
1A
100
AcDbEntity
  8
SEIHIN
  6
CONTINUOUS
100
AcDbLine
 10
612.3122261619431
 20
202.5219419042878
 30
0.0
 11
612.3122261619431
 21
202.2486419042877
 31
0.0
  0
LINE
  5
52E
330
1A
100
AcDbEntity
  8
SEIHIN
  6
CONTINUOUS
100
AcDbLine
 10
610.3604261619433
 20
197.2486419042877
 30
0.0
 11
610.3604261619433
 21
200.2486419042877
 31
0.0
  0
LINE
  5
52F
330
1A
100
AcDbEntity
  8
SEIHIN
  6
CONTINUOUS
100
AcDbLine
 10
633.0496261619432
 20
202.6327419042877
 30
0.0
 11
630.4890261619432
 21
202.2486419042877
 31
0.0
  0
LINE
  5
530
330
1A
100
AcDbEntity
  8
SEIHIN
  6
CONTINUOUS
100
AcDbLine
 10
633.9628261619432
 20
203.4640419042878
 30
0.0
 11
625.8596261619434
 21
202.2486419042877
 31
0.0
  0
LINE
  5
531
330
1A
100
AcDbEntity
  8
SEIHIN
  6
CONTINUOUS
100
AcDbLine
 10
633.9628261619432
 20
206.4640419042877
 30
0.0
 11
633.9628261619432
 21
203.8382419042878
 31
0.0
  0
LINE
  5
532
330
1A
100
AcDbEntity
  8
SEIHIN
  6
CONTINUOUS
100
AcDbLine
 10
633.0497261619434
 20
204.8832419042877
 30
0.0
 11
633.0497261619434
 21
205.6326419042878
 31
0.0
  0
LINE
  5
533
330
1A
100
AcDbEntity
  8
SEIHIN
  6
CONTINUOUS
100
AcDbLine
 10
633.0497261619434
 20
204.8832419042877
 30
0.0
 11
633.9628261619432
 21
203.8382419042878
 31
0.0
  0
LINE
  5
534
330
1A
100
AcDbEntity
  8
SEIHIN
  6
CONTINUOUS
100
AcDbLine
 10
633.9628261619432
 20
206.4640419042877
 30
0.0
 11
633.0497261619434
 21
205.6326419042878
 31
0.0
  0
LINE
  5
535
330
1A
100
AcDbEntity
  8
SEIHIN
  6
CONTINUOUS
100
AcDbLine
 10
633.9628261619432
 20
203.4640419042878
 30
0.0
 11
633.0496261619432
 21
202.6327419042877
 31
0.0
  0
LINE
  5
536
330
1A
100
AcDbEntity
  8
SEIHIN
  6
CONTINUOUS
100
AcDbLine
 10
633.0496261619432
 20
202.2486419042877
 30
0.0
 11
633.0496261619432
 21
202.6327419042877
 31
0.0
  0
LINE
  5
537
330
1A
100
AcDbEntity
  8
SEIHIN
  6
CONTINUOUS
100
AcDbLine
 10
633.9628261619432
 20
203.4640419042878
 30
0.0
 11
633.9628261619432
 21
202.2483419042877
 31
0.0
  0
LINE
  5
538
330
1A
100
AcDbEntity
  8
SEIHIN
  6
CONTINUOUS
100
AcDbLine
 10
589.8604261619433
 20
218.2489419042878
 30
0.0
 11
601.9098261619431
 21
218.2489419042878
 31
0.0
  0
LINE
  5
539
330
1A
100
AcDbEntity
  8
SEIHIN
  6
CONTINUOUS
100
AcDbLine
 10
590.8604261619432
 20
220.0490419042878
 30
0.0
 11
635.8604261619434
 21
220.0489419042877
 31
0.0
  0
LINE
  5
53A
330
1A
100
AcDbEntity
  8
SEIHIN
  6
CONTINUOUS
100
AcDbLine
 10
585.8604261619433
 20
220.5490419042877
 30
0.0
 11
635.8604261619434
 21
220.5487419042877
 31
0.0
  0
LINE
  5
53B
330
1A
100
AcDbEntity
  8
SEIHIN
  6
CONTINUOUS
100
AcDbLine
 10
585.8604261619433
 20
218.7490419042878
 30
0.0
 11
585.8604261619433
 21
220.5490419042877
 31
0.0
  0
LINE
  5
53C
330
1A
100
AcDbEntity
  8
SEIHIN
  6
CONTINUOUS
100
AcDbLine
 10
589.8604261619433
 20
218.2489419042878
 30
0.0
 11
585.8604261619433
 21
218.7490419042878
 31
0.0
  0
LINE
  5
53D
330
1A
100
AcDbEntity
  8
SEIHIN
  6
CONTINUOUS
100
AcDbLine
 10
590.8604261619432
 20
220.0490419042878
 30
0.0
 11
590.8604261619432
 21
220.5490419042877
 31
0.0
  0
LINE
  5
53E
330
1A
100
AcDbEntity
  8
SEIHIN
  6
CONTINUOUS
100
AcDbLine
 10
633.9629261619434
 20
212.4638419042877
 30
0.0
 11
611.3991261619432
 21
209.0792419042877
 31
0.0
  0
LINE
  5
53F
330
1A
100
AcDbEntity
  8
SEIHIN
  6
CONTINUOUS
100
AcDbLine
 10
633.0497261619434
 20
211.6324419042877
 30
0.0
 11
612.3122261619431
 21
208.5218419042877
 31
0.0
  0
LINE
  5
540
330
1A
100
AcDbEntity
  8
SEIHIN
  6
CONTINUOUS
100
AcDbLine
 10
611.3991261619432
 20
214.2486419042878
 30
0.0
 11
633.9629261619434
 21
214.2486419042878
 31
0.0
  0
LINE
  5
541
330
1A
100
AcDbEntity
  8
SEIHIN
  6
CONTINUOUS
100
AcDbLine
 10
605.8604261619433
 20
216.2486419042877
 30
0.0
 11
635.8602261619433
 21
216.2486419042877
 31
0.0
  0
LINE
  5
542
330
1A
100
AcDbEntity
  8
SEIHIN
  6
CONTINUOUS
100
AcDbLine
 10
633.0498261619432
 20
213.8829419042877
 30
0.0
 11
612.3123261619432
 21
210.7723419042878
 31
0.0
  0
LINE
  5
543
330
1A
100
AcDbEntity
  8
SEIHIN
  6
CONTINUOUS
100
AcDbLine
 10
630.4916261619432
 20
214.2486419042878
 30
0.0
 11
612.3123261619432
 21
211.5217419042877
 31
0.0
  0
LINE
  5
544
330
1A
100
AcDbEntity
  8
SEIHIN
  6
CONTINUOUS
100
AcDbLine
 10
633.9629261619434
 20
212.8379419042877
 30
0.0
 11
611.3991261619432
 21
209.4535419042877
 31
0.0
  0
LINE
  5
545
330
1A
100
AcDbEntity
  8
SEIHIN
  6
CONTINUOUS
100
AcDbLine
 10
625.8622261619434
 20
214.2486419042878
 30
0.0
 11
611.3991261619432
 21
212.0791419042877
 31
0.0
  0
LINE
  5
546
330
1A
100
AcDbEntity
  8
SEIHIN
  6
CONTINUOUS
100
AcDbLine
 10
605.8604261619433
 20
216.2486419042877
 30
0.0
 11
602.0601261619433
 21
220.0489419042877
 31
0.0
  0
LINE
  5
547
330
1A
100
AcDbEntity
  8
SEIHIN
  6
CONTINUOUS
100
AcDbLine
 10
603.9102261619433
 20
216.2486419042877
 30
0.0
 11
601.9102261619433
 21
218.2486419042877
 31
0.0
  0
LINE
  5
548
330
1A
100
AcDbEntity
  8
SEIHIN
  6
CONTINUOUS
100
AcDbLine
 10
623.3674261619433
 20
214.2486419042878
 30
0.0
 11
611.3991261619432
 21
212.4534419042876
 31
0.0
  0
LINE
  5
549
330
1A
100
AcDbEntity
  8
SEIHIN
  6
CONTINUOUS
100
AcDbLine
 10
612.3123261619432
 20
211.5217419042877
 30
0.0
 11
611.3991261619432
 21
212.0791419042877
 31
0.0
  0
LINE
  5
54A
330
1A
100
AcDbEntity
  8
SEIHIN
  6
CONTINUOUS
100
AcDbLine
 10
612.3123261619432
 20
211.5217419042877
 30
0.0
 11
612.3123261619432
 21
210.7723419042878
 31
0.0
  0
LINE
  5
54B
330
1A
100
AcDbEntity
  8
SEIHIN
  6
CONTINUOUS
100
AcDbLine
 10
612.3123261619432
 20
210.7723419042878
 30
0.0
 11
611.3991261619432
 21
209.4535419042877
 31
0.0
  0
LINE
  5
54C
330
1A
100
AcDbEntity
  8
SEIHIN
  6
CONTINUOUS
100
AcDbLine
 10
611.3992261619432
 20
214.2485419042877
 30
0.0
 11
611.3991261619432
 21
212.4534419042876
 31
0.0
  0
LINE
  5
54D
330
1A
100
AcDbEntity
  8
SEIHIN
  6
CONTINUOUS
100
AcDbLine
 10
612.3123261619432
 20
214.2486419042878
 30
0.0
 11
612.3123261619432
 21
213.7722419042877
 31
0.0
  0
LINE
  5
54E
330
1A
100
AcDbEntity
  8
SEIHIN
  6
CONTINUOUS
100
AcDbLine
 10
612.3123261619432
 20
213.7722419042877
 30
0.0
 11
611.3991261619432
 21
212.4534419042876
 31
0.0
  0
LINE
  5
54F
330
1A
100
AcDbEntity
  8
SEIHIN
  6
CONTINUOUS
100
AcDbLine
 10
611.3991261619432
 20
212.0791419042877
 30
0.0
 11
611.3991261619432
 21
209.4535419042877
 31
0.0
  0
LINE
  5
550
330
1A
100
AcDbEntity
  8
SEIHIN
  6
CONTINUOUS
100
AcDbLine
 10
612.3122261619431
 20
208.5218419042877
 30
0.0
 11
611.3991261619432
 21
209.0792419042877
 31
0.0
  0
LINE
  5
551
330
1A
100
AcDbEntity
  8
SEIHIN
  6
CONTINUOUS
100
AcDbLine
 10
615.4882261619433
 20
214.2486419042878
 30
0.0
 11
612.3123261619432
 21
213.7722419042877
 31
0.0
  0
LINE
  5
552
330
1A
100
AcDbEntity
  8
SEIHIN
  6
CONTINUOUS
100
AcDbLine
 10
633.0498261619432
 20
213.8829419042877
 30
0.0
 11
633.9629261619434
 21
212.8379419042877
 31
0.0
  0
LINE
  5
553
330
1A
100
AcDbEntity
  8
SEIHIN
  6
CONTINUOUS
100
AcDbLine
 10
633.9629261619434
 20
212.4638419042877
 30
0.0
 11
633.0497261619434
 21
211.6324419042877
 31
0.0
  0
LINE
  5
554
330
1A
100
AcDbEntity
  8
SEIHIN
  6
CONTINUOUS
100
AcDbLine
 10
633.9629261619434
 20
214.2483419042878
 30
0.0
 11
633.9629261619434
 21
212.8379419042877
 31
0.0
  0
LINE
  5
555
330
1A
100
AcDbEntity
  8
SEIHIN
  6
CONTINUOUS
100
AcDbLine
 10
633.9629261619434
 20
212.4638419042877
 30
0.0
 11
633.9629261619434
 21
209.8380419042877
 31
0.0
  0
LINE
  5
556
330
1A
100
AcDbEntity
  8
SEIHIN
  6
CONTINUOUS
100
AcDbLine
 10
633.0497261619434
 20
210.8830419042877
 30
0.0
 11
633.0497261619434
 21
211.6324419042877
 31
0.0
  0
LINE
  5
557
330
1A
100
AcDbEntity
  8
SEIHIN
  6
CONTINUOUS
100
AcDbLine
 10
633.0498261619432
 20
213.8829419042877
 30
0.0
 11
633.0498261619432
 21
214.2486419042878
 31
0.0
  0
LINE
  5
558
330
1A
100
AcDbEntity
  8
SEIHIN
  6
CONTINUOUS
100
AcDbLine
 10
633.0497261619434
 20
210.8830419042877
 30
0.0
 11
633.9629261619434
 21
209.8380419042877
 31
0.0
  0
LINE
  5
559
330
1A
100
AcDbEntity
  8
SEIHIN
  6
CONTINUOUS
100
AcDbLine
 10
633.0497261619434
 20
207.8831419042876
 30
0.0
 11
633.0497261619434
 21
208.6325419042878
 31
0.0
  0
LINE
  5
55A
330
1A
100
AcDbEntity
  8
SEIHIN
  6
CONTINUOUS
100
AcDbLine
 10
633.9629261619434
 20
209.4639419042878
 30
0.0
 11
633.0497261619434
 21
208.6325419042878
 31
0.0
  0
LINE
  5
55B
330
1A
100
AcDbEntity
  8
SEIHIN
  6
CONTINUOUS
100
AcDbLine
 10
635.4889261619432
 20
294.5488419042878
 30
0.0
 11
607.4857261619434
 21
290.3484419042877
 31
0.0
  0
LINE
  5
55C
330
1A
100
AcDbEntity
  8
SEIHIN
  6
CONTINUOUS
100
AcDbLine
 10
630.4931261619433
 20
294.5489419042877
 30
0.0
 11
607.4857261619434
 21
291.0978419042876
 31
0.0
  0
LINE
  5
55D
330
1A
100
AcDbEntity
  8
SEIHIN
  6
CONTINUOUS
100
AcDbLine
 10
625.8624261619433
 20
294.5489419042877
 30
0.0
 11
605.8607261619431
 21
291.5487419042876
 31
0.0
  0
LINE
  5
55E
330
1A
100
AcDbEntity
  8
SEIHIN
  6
CONTINUOUS
100
AcDbLine
 10
643.3675261619432
 20
294.5488419042878
 30
0.0
 11
605.8607261619431
 21
288.9229419042877
 31
0.0
  0
LINE
  5
55F
330
1A
100
AcDbEntity
  8
SEIHIN
  6
CONTINUOUS
100
AcDbLine
 10
650.4917261619434
 20
294.5488419042878
 30
0.0
 11
607.4857261619434
 21
288.0979419042877
 31
0.0
  0
LINE
  5
560
330
1A
100
AcDbEntity
  8
SEIHIN
  6
CONTINUOUS
100
AcDbLine
 10
655.4875261619433
 20
294.5487419042876
 30
0.0
 11
607.4857261619434
 21
287.3485419042876
 31
0.0
  0
LINE
  5
561
330
1A
100
AcDbEntity
  8
SEIHIN
  6
CONTINUOUS
100
AcDbLine
 10
645.8617261619433
 20
294.5488419042878
 30
0.0
 11
605.8607261619431
 21
288.5488419042878
 31
0.0
  0
LINE
  5
565
330
1A
100
AcDbEntity
  8
SEIHIN
  6
CONTINUOUS
100
AcDbLine
 10
610.4945261619433
 20
294.5490419042877
 30
0.0
 11
607.4857261619434
 21
294.0977419042878
 31
0.0
  0
LINE
  5
566
330
1A
100
AcDbEntity
  8
SEIHIN
  6
CONTINUOUS
100
AcDbLine
 10
615.4903261619433
 20
294.5490419042877
 30
0.0
 11
607.4857261619434
 21
293.3483419042877
 31
0.0
  0
LINE
  5
567
330
1A
100
AcDbEntity
  8
SEIHIN
  6
CONTINUOUS
100
AcDbLine
 10
623.3684261619433
 20
294.5489419042877
 30
0.0
 11
605.8607261619431
 21
291.9228419042876
 31
0.0
  0
LINE
  5
568
330
1A
100
AcDbEntity
  8
SEIHIN
  6
CONTINUOUS
100
AcDbLine
 10
607.4857261619434
 20
290.3484419042877
 30
0.0
 11
605.8607261619431
 21
288.9229419042877
 31
0.0
  0
LINE
  5
569
330
1A
100
AcDbEntity
  8
SEIHIN
  6
CONTINUOUS
100
AcDbLine
 10
607.4857261619434
 20
288.0979419042877
 30
0.0
 11
607.4857261619434
 21
287.3485419042876
 31
0.0
  0
LINE
  5
56A
330
1A
100
AcDbEntity
  8
SEIHIN
  6
CONTINUOUS
100
AcDbLine
 10
605.8607261619431
 20
288.9229419042877
 30
0.0
 11
605.8607261619431
 21
288.5488419042878
 31
0.0
  0
LINE
  5
56B
330
1A
100
AcDbEntity
  8
SEIHIN
  6
CONTINUOUS
100
AcDbLine
 10
605.8607261619431
 20
288.5488419042878
 30
0.0
 11
607.4857261619434
 21
288.0979419042877
 31
0.0
  0
LINE
  5
56C
330
1A
100
AcDbEntity
  8
SEIHIN
  6
CONTINUOUS
100
AcDbLine
 10
607.4857261619434
 20
285.0979419042877
 30
0.0
 11
607.4857261619434
 21
284.3486419042878
 31
0.0
  0
LINE
  5
56D
330
1A
100
AcDbEntity
  8
SEIHIN
  6
CONTINUOUS
100
AcDbLine
 10
607.4856261619431
 20
282.5490419042878
 30
0.0
 11
607.4856261619431
 21
281.5490419042877
 31
0.0
  0
LINE
  5
56E
330
1A
100
AcDbEntity
  8
SEIHIN
  6
CONTINUOUS
100
AcDbLine
 10
605.8607261619431
 20
282.9231419042877
 30
0.0
 11
605.8607261619431
 21
282.5490419042878
 31
0.0
  0
LINE
  5
56F
330
1A
100
AcDbEntity
  8
SEIHIN
  6
CONTINUOUS
100
AcDbLine
 10
605.8607261619431
 20
285.9230419042877
 30
0.0
 11
605.8607261619431
 21
285.5489419042878
 31
0.0
  0
LINE
  5
570
330
1A
100
AcDbEntity
  8
SEIHIN
  6
CONTINUOUS
100
AcDbLine
 10
605.8607261619431
 20
285.5489419042878
 30
0.0
 11
607.4857261619434
 21
285.0979419042877
 31
0.0
  0
LINE
  5
571
330
1A
100
AcDbEntity
  8
SEIHIN
  6
CONTINUOUS
100
AcDbLine
 10
607.4857261619434
 20
284.3486419042878
 30
0.0
 11
605.8607261619431
 21
282.9231419042877
 31
0.0
  0
LINE
  5
572
330
1A
100
AcDbEntity
  8
SEIHIN
  6
CONTINUOUS
100
AcDbLine
 10
607.4857261619434
 20
287.3485419042876
 30
0.0
 11
605.8607261619431
 21
285.9230419042877
 31
0.0
  0
LINE
  5
573
330
1A
100
AcDbEntity
  8
SEIHIN
  6
CONTINUOUS
100
AcDbLine
 10
607.4857261619434
 20
291.0978419042876
 30
0.0
 11
607.4857261619434
 21
290.3484419042877
 31
0.0
  0
LINE
  5
574
330
1A
100
AcDbEntity
  8
SEIHIN
  6
CONTINUOUS
100
AcDbLine
 10
607.4857261619434
 20
294.0977419042878
 30
0.0
 11
607.4857261619434
 21
293.3483419042877
 31
0.0
  0
LINE
  5
575
330
1A
100
AcDbEntity
  8
SEIHIN
  6
CONTINUOUS
100
AcDbLine
 10
605.8607261619431
 20
291.9228419042876
 30
0.0
 11
605.8607261619431
 21
291.5487419042876
 31
0.0
  0
LINE
  5
576
330
1A
100
AcDbEntity
  8
SEIHIN
  6
CONTINUOUS
100
AcDbLine
 10
605.8607261619431
 20
291.5487419042876
 30
0.0
 11
607.4857261619434
 21
291.0978419042876
 31
0.0
  0
LINE
  5
577
330
1A
100
AcDbEntity
  8
SEIHIN
  6
CONTINUOUS
100
AcDbLine
 10
605.8607261619431
 20
294.5487419042876
 30
0.0
 11
607.4857261619434
 21
294.0977419042878
 31
0.0
  0
LINE
  5
578
330
1A
100
AcDbEntity
  8
SEIHIN
  6
CONTINUOUS
100
AcDbLine
 10
607.4857261619434
 20
293.3483419042877
 30
0.0
 11
605.8607261619431
 21
291.9228419042876
 31
0.0
  0
LINE
  5
57A
330
1A
100
AcDbEntity
  8
SEIHIN
  6
CONTINUOUS
100
AcDbLine
 10
665.8604261619432
 20
208.2487419042877
 30
0.0
 11
664.2354261619434
 21
207.3105419042877
 31
0.0
  0
LINE
  5
57B
330
1A
100
AcDbEntity
  8
SEIHIN
  6
CONTINUOUS
100
AcDbLine
 10
663.1320261619432
 20
207.8394419042878
 30
0.0
 11
661.3057261619433
 21
206.8711419042877
 31
0.0
  0
LINE
  5
57C
330
1A
100
AcDbEntity
  8
SEIHIN
  6
CONTINUOUS
100
AcDbLine
 10
667.6605261619434
 20
173.7485419042877
 30
0.0
 11
667.8108261619431
 21
216.2485419042877
 31
0.0
  0
LINE
  5
585
330
1A
100
AcDbEntity
  8
SEIHIN
  6
CONTINUOUS
100
AcDbLine
 10
665.8604261619432
 20
173.7485419042877
 30
0.0
 11
665.6104261619434
 21
198.7485419042877
 31
0.0
  0
LINE
  5
586
330
1A
100
AcDbEntity
  8
SEIHIN
  6
CONTINUOUS
100
AcDbLine
 10
665.8604261619432
 20
202.2485419042877
 30
0.0
 11
663.0622261619435
 21
202.2485419042877
 31
0.0
  0
LINE
  5
587
330
1A
100
AcDbEntity
  8
SEIHIN
  6
CONTINUOUS
100
AcDbLine
 10
664.2354261619434
 20
206.5611419042877
 30
0.0
 11
665.8604261619432
 21
205.6230419042877
 31
0.0
  0
LINE
  5
588
330
1A
100
AcDbEntity
  8
SEIHIN
  6
CONTINUOUS
100
AcDbLine
 10
665.8604261619432
 20
205.6230419042877
 30
0.0
 11
663.1320261619432
 21
205.2137419042876
 31
0.0
  0
LINE
  5
589
330
1A
100
AcDbEntity
  8
SEIHIN
  6
CONTINUOUS
100
AcDbLine
 10
665.8604261619432
 20
205.2488419042878
 30
0.0
 11
664.2354261619434
 21
204.3106419042878
 31
0.0
  0
LINE
  5
58A
330
1A
100
AcDbEntity
  8
SEIHIN
  6
CONTINUOUS
100
AcDbLine
 10
664.2354261619434
 20
203.5612419042877
 30
0.0
 11
665.8603261619434
 21
202.6231419042877
 31
0.0
  0
LINE
  5
58B
330
1A
100
AcDbEntity
  8
SEIHIN
  6
CONTINUOUS
100
AcDbLine
 10
665.8603261619434
 20
202.6231419042877
 30
0.0
 11
663.1320261619432
 21
202.2138419042877
 31
0.0
  0
LINE
  5
58C
330
1A
100
AcDbEntity
  8
SEIHIN
  6
CONTINUOUS
100
AcDbLine
 10
665.8603261619434
 20
202.2489419042877
 30
0.0
 11
664.2354261619434
 21
201.3107419042877
 31
0.0
  0
LINE
  5
58D
330
1A
100
AcDbEntity
  8
SEIHIN
  6
CONTINUOUS
100
AcDbLine
 10
665.8604261619432
 20
205.2488419042878
 30
0.0
 11
663.1320261619432
 21
204.8395419042877
 31
0.0
  0
LINE
  5
58E
330
1A
100
AcDbEntity
  8
SEIHIN
  6
CONTINUOUS
100
AcDbLine
 10
665.8603261619434
 20
202.2489419042877
 30
0.0
 11
663.1320261619432
 21
201.8396419042877
 31
0.0
  0
LINE
  5
58F
330
1A
100
AcDbEntity
  8
SEIHIN
  6
CONTINUOUS
100
AcDbLine
 10
665.6104261619434
 20
198.7485419042877
 30
0.0
 11
663.2104261619433
 21
198.7485419042877
 31
0.0
  0
LINE
  5
590
330
1A
100
AcDbEntity
  8
SEIHIN
  6
CONTINUOUS
100
AcDbLine
 10
664.2354261619434
 20
207.3105419042877
 30
0.0
 11
664.2354261619434
 21
206.5611419042877
 31
0.0
  0
LINE
  5
591
330
1A
100
AcDbEntity
  8
SEIHIN
  6
CONTINUOUS
100
AcDbLine
 10
664.2354261619434
 20
207.3105419042877
 30
0.0
 11
661.3057261619433
 21
206.8711419042877
 31
0.0
  0
LINE
  5
592
330
1A
100
AcDbEntity
  8
SEIHIN
  6
CONTINUOUS
100
AcDbLine
 10
664.2354261619434
 20
206.5611419042877
 30
0.0
 11
661.3057261619433
 21
206.1217419042877
 31
0.0
  0
LINE
  5
593
330
1A
100
AcDbEntity
  8
SEIHIN
  6
CONTINUOUS
100
AcDbLine
 10
661.3057261619433
 20
206.1217419042877
 30
0.0
 11
663.1320261619432
 21
205.2137419042876
 31
0.0
  0
LINE
  5
594
330
1A
100
AcDbEntity
  8
SEIHIN
  6
CONTINUOUS
100
AcDbLine
 10
663.1320261619432
 20
205.2137419042876
 30
0.0
 11
663.1320261619432
 21
204.8395419042877
 31
0.0
  0
LINE
  5
595
330
1A
100
AcDbEntity
  8
SEIHIN
  6
CONTINUOUS
100
AcDbLine
 10
661.3057261619433
 20
206.8711419042877
 30
0.0
 11
661.3057261619433
 21
206.1217419042877
 31
0.0
  0
LINE
  5
596
330
1A
100
AcDbEntity
  8
SEIHIN
  6
CONTINUOUS
100
AcDbLine
 10
664.2354261619434
 20
204.3106419042878
 30
0.0
 11
664.2354261619434
 21
203.5612419042877
 31
0.0
  0
LINE
  5
597
330
1A
100
AcDbEntity
  8
SEIHIN
  6
CONTINUOUS
100
AcDbLine
 10
664.2354261619434
 20
204.3106419042878
 30
0.0
 11
661.3057261619433
 21
203.8712419042878
 31
0.0
  0
LINE
  5
598
330
1A
100
AcDbEntity
  8
SEIHIN
  6
CONTINUOUS
100
AcDbLine
 10
664.2354261619434
 20
203.5612419042877
 30
0.0
 11
661.3057261619433
 21
203.1218419042877
 31
0.0
  0
LINE
  5
599
330
1A
100
AcDbEntity
  8
SEIHIN
  6
CONTINUOUS
100
AcDbLine
 10
661.3057261619433
 20
203.1218419042877
 30
0.0
 11
663.1320261619432
 21
202.2138419042877
 31
0.0
  0
LINE
  5
59A
330
1A
100
AcDbEntity
  8
SEIHIN
  6
CONTINUOUS
100
AcDbLine
 10
663.1320261619432
 20
202.2138419042877
 30
0.0
 11
663.1320261619432
 21
201.8396419042877
 31
0.0
  0
LINE
  5
59B
330
1A
100
AcDbEntity
  8
SEIHIN
  6
CONTINUOUS
100
AcDbLine
 10
661.3057261619433
 20
203.8712419042878
 30
0.0
 11
661.3057261619433
 21
203.1218419042877
 31
0.0
  0
LINE
  5
59C
330
1A
100
AcDbEntity
  8
SEIHIN
  6
CONTINUOUS
100
AcDbLine
 10
663.1320261619432
 20
204.8395419042877
 30
0.0
 11
661.3057261619433
 21
203.8712419042878
 31
0.0
  0
LINE
  5
59D
330
1A
100
AcDbEntity
  8
SEIHIN
  6
CONTINUOUS
100
AcDbLine
 10
664.2354261619434
 20
201.3107419042877
 30
0.0
 11
664.2354261619434
 21
200.5613419042878
 31
0.0
  0
LINE
  5
59E
330
1A
100
AcDbEntity
  8
SEIHIN
  6
CONTINUOUS
100
AcDbLine
 10
664.2354261619434
 20
200.5613419042878
 30
0.0
 11
664.7771261619432
 21
200.2485419042877
 31
0.0
  0
LINE
  5
59F
330
1A
100
AcDbEntity
  8
SEIHIN
  6
CONTINUOUS
100
AcDbLine
 10
664.2354261619434
 20
201.3107419042877
 30
0.0
 11
661.3057261619433
 21
200.8713419042877
 31
0.0
  0
LINE
  5
5A0
330
1A
100
AcDbEntity
  8
SEIHIN
  6
CONTINUOUS
100
AcDbLine
 10
664.2354261619434
 20
200.5613419042878
 30
0.0
 11
662.1502261619432
 21
200.2485419042877
 31
0.0
  0
LINE
  5
5A1
330
1A
100
AcDbEntity
  8
SEIHIN
  6
CONTINUOUS
100
AcDbLine
 10
661.3057261619433
 20
200.8713419042877
 30
0.0
 11
661.3057261619433
 21
200.2485419042877
 31
0.0
  0
LINE
  5
5A2
330
1A
100
AcDbEntity
  8
SEIHIN
  6
CONTINUOUS
100
AcDbLine
 10
663.1320261619432
 20
201.8396419042877
 30
0.0
 11
661.3057261619433
 21
200.8713419042877
 31
0.0
  0
LINE
  5
5A3
330
1A
100
AcDbEntity
  8
SEIHIN
  6
CONTINUOUS
100
AcDbLine
 10
661.3604261619432
 20
197.2485419042877
 30
0.0
 11
661.3604261619432
 21
200.2485419042877
 31
0.0
  0
ARC
  5
5A4
330
1A
100
AcDbEntity
  8
SEIHIN
  6
CONTINUOUS
100
AcDbCircle
 10
661.7104261619433
 20
198.7485419042877
 30
0.0
 40
1.500000000000028
100
AcDbArc
 50
270.0000000000021
 51
0.0000000000010856
  0
LINE
  5
5A5
330
1A
100
AcDbEntity
  8
SEIHIN
  6
CONTINUOUS
100
AcDbLine
 10
665.8604261619432
 20
205.6230419042877
 30
0.0
 11
665.8604261619432
 21
205.2488419042878
 31
0.0
  0
LINE
  5
5A6
330
1A
100
AcDbEntity
  8
SEIHIN
  6
CONTINUOUS
100
AcDbLine
 10
665.8603261619434
 20
202.6231419042877
 30
0.0
 11
665.8603261619434
 21
202.2489419042877
 31
0.0
  0
LINE
  5
5B2
330
1A
100
AcDbEntity
  8
SEIHIN
  6
CONTINUOUS
100
AcDbLine
 10
681.8604261619434
 20
218.2489419042878
 30
0.0
 11
669.8111261619433
 21
218.2488419042877
 31
0.0
  0
LINE
  5
5B3
330
1A
100
AcDbEntity
  8
SEIHIN
  6
CONTINUOUS
100
AcDbLine
 10
665.8604261619432
 20
216.2485419042877
 30
0.0
 11
669.6608261619433
 21
220.0489419042877
 31
0.0
  0
LINE
  5
5B4
330
1A
100
AcDbEntity
  8
SEIHIN
  6
CONTINUOUS
100
AcDbLine
 10
665.8604261619432
 20
214.2485419042877
 30
0.0
 11
664.2355261619432
 21
213.3103419042877
 31
0.0
  0
LINE
  5
5B5
330
1A
100
AcDbEntity
  8
SEIHIN
  6
CONTINUOUS
100
AcDbLine
 10
665.8604261619432
 20
214.2485419042877
 30
0.0
 11
663.1321261619434
 21
214.2485419042877
 31
0.0
  0
LINE
  5
5B6
330
1A
100
AcDbEntity
  8
SEIHIN
  6
CONTINUOUS
100
AcDbLine
 10
664.2355261619432
 20
212.5610419042877
 30
0.0
 11
665.8604261619432
 21
211.6228419042877
 31
0.0
  0
LINE
  5
5B7
330
1A
100
AcDbEntity
  8
SEIHIN
  6
CONTINUOUS
100
AcDbLine
 10
665.8604261619432
 20
211.2486419042877
 30
0.0
 11
664.2355261619432
 21
210.3104419042877
 31
0.0
  0
LINE
  5
5B8
330
1A
100
AcDbEntity
  8
SEIHIN
  6
CONTINUOUS
100
AcDbLine
 10
665.8604261619432
 20
214.2485419042877
 30
0.0
 11
663.1321261619434
 21
213.8393419042877
 31
0.0
  0
LINE
  5
5B9
330
1A
100
AcDbEntity
  8
SEIHIN
  6
CONTINUOUS
100
AcDbLine
 10
665.8604261619432
 20
211.6228419042877
 30
0.0
 11
663.1321261619434
 21
211.2135419042878
 31
0.0
  0
LINE
  5
5BA
330
1A
100
AcDbEntity
  8
SEIHIN
  6
CONTINUOUS
100
AcDbLine
 10
665.8604261619432
 20
211.2486419042877
 30
0.0
 11
663.1320261619432
 21
210.8394419042877
 31
0.0
  0
LINE
  5
5BB
330
1A
100
AcDbEntity
  8
SEIHIN
  6
CONTINUOUS
100
AcDbLine
 10
665.8604261619432
 20
208.6229419042878
 30
0.0
 11
663.1320261619432
 21
208.2136419042877
 31
0.0
  0
LINE
  5
5BC
330
1A
100
AcDbEntity
  8
SEIHIN
  6
CONTINUOUS
100
AcDbLine
 10
665.8604261619432
 20
208.2487419042877
 30
0.0
 11
663.1320261619432
 21
207.8394419042878
 31
0.0
  0
LINE
  5
5BD
330
1A
100
AcDbEntity
  8
SEIHIN
  6
CONTINUOUS
100
AcDbLine
 10
664.2354261619434
 20
209.5610419042877
 30
0.0
 11
665.8604261619432
 21
208.6229419042878
 31
0.0
  0
LINE
  5
5BE
330
1A
100
AcDbEntity
  8
SEIHIN
  6
CONTINUOUS
100
AcDbLine
 10
664.2355261619432
 20
213.3103419042877
 30
0.0
 11
664.2355261619432
 21
212.5610419042877
 31
0.0
  0
LINE
  5
5BF
330
1A
100
AcDbEntity
  8
SEIHIN
  6
CONTINUOUS
100
AcDbLine
 10
663.1321261619434
 20
214.2485419042877
 30
0.0
 11
663.1321261619434
 21
213.8393419042877
 31
0.0
  0
LINE
  5
5C0
330
1A
100
AcDbEntity
  8
SEIHIN
  6
CONTINUOUS
100
AcDbLine
 10
664.2354261619434
 20
210.3104419042877
 30
0.0
 11
664.2354261619434
 21
209.5610419042877
 31
0.0
  0
LINE
  5
5C1
330
1A
100
AcDbEntity
  8
SEIHIN
  6
CONTINUOUS
100
AcDbLine
 10
664.2355261619432
 20
213.3103419042877
 30
0.0
 11
661.3058261619433
 21
212.8709419042877
 31
0.0
  0
LINE
  5
5C2
330
1A
100
AcDbEntity
  8
SEIHIN
  6
CONTINUOUS
100
AcDbLine
 10
664.2355261619432
 20
212.5610419042877
 30
0.0
 11
661.3058261619433
 21
212.1215419042878
 31
0.0
  0
LINE
  5
5C3
330
1A
100
AcDbEntity
  8
SEIHIN
  6
CONTINUOUS
100
AcDbLine
 10
663.1321261619434
 20
213.8393419042877
 30
0.0
 11
661.3058261619433
 21
212.8709419042877
 31
0.0
  0
LINE
  5
5C4
330
1A
100
AcDbEntity
  8
SEIHIN
  6
CONTINUOUS
100
AcDbLine
 10
661.3058261619433
 20
212.8709419042877
 30
0.0
 11
661.3058261619433
 21
212.1215419042878
 31
0.0
  0
LINE
  5
5C5
330
1A
100
AcDbEntity
  8
SEIHIN
  6
CONTINUOUS
100
AcDbLine
 10
661.3058261619433
 20
212.1215419042878
 30
0.0
 11
663.1321261619434
 21
211.2135419042878
 31
0.0
  0
LINE
  5
5C6
330
1A
100
AcDbEntity
  8
SEIHIN
  6
CONTINUOUS
100
AcDbLine
 10
663.1321261619434
 20
211.2135419042878
 30
0.0
 11
663.1321261619434
 21
210.8394419042877
 31
0.0
  0
LINE
  5
5C7
330
1A
100
AcDbEntity
  8
SEIHIN
  6
CONTINUOUS
100
AcDbLine
 10
664.2354261619434
 20
210.3104419042877
 30
0.0
 11
661.3057261619433
 21
209.8710419042877
 31
0.0
  0
LINE
  5
5C8
330
1A
100
AcDbEntity
  8
SEIHIN
  6
CONTINUOUS
100
AcDbLine
 10
663.1320261619432
 20
210.8394419042877
 30
0.0
 11
661.3057261619433
 21
209.8710419042877
 31
0.0
  0
LINE
  5
5C9
330
1A
100
AcDbEntity
  8
SEIHIN
  6
CONTINUOUS
100
AcDbLine
 10
661.3057261619433
 20
209.1216419042877
 30
0.0
 11
663.1320261619432
 21
208.2136419042877
 31
0.0
  0
LINE
  5
5CA
330
1A
100
AcDbEntity
  8
SEIHIN
  6
CONTINUOUS
100
AcDbLine
 10
663.1320261619432
 20
208.2136419042877
 30
0.0
 11
663.1320261619432
 21
207.8395419042877
 31
0.0
  0
LINE
  5
5CB
330
1A
100
AcDbEntity
  8
SEIHIN
  6
CONTINUOUS
100
AcDbLine
 10
664.2354261619434
 20
209.5610419042877
 30
0.0
 11
661.3057261619433
 21
209.1216419042877
 31
0.0
  0
LINE
  5
5CC
330
1A
100
AcDbEntity
  8
SEIHIN
  6
CONTINUOUS
100
AcDbLine
 10
661.3057261619433
 20
209.8710419042877
 30
0.0
 11
661.3057261619433
 21
209.1216419042877
 31
0.0
  0
LINE
  5
5CD
330
1A
100
AcDbEntity
  8
SEIHIN
  6
CONTINUOUS
100
AcDbLine
 10
665.8604261619432
 20
211.6228419042877
 30
0.0
 11
665.8604261619432
 21
211.2486419042877
 31
0.0
  0
LINE
  5
5CE
330
1A
100
AcDbEntity
  8
SEIHIN
  6
CONTINUOUS
100
AcDbLine
 10
665.8604261619432
 20
214.2485419042877
 30
0.0
 11
665.8604261619432
 21
216.2485419042877
 31
0.0
  0
LINE
  5
5CF
330
1A
100
AcDbEntity
  8
SEIHIN
  6
CONTINUOUS
100
AcDbLine
 10
667.8108261619431
 20
216.2485419042877
 30
0.0
 11
669.8107261619432
 21
218.2485419042877
 31
0.0
  0
LINE
  5
5D0
330
1A
100
AcDbEntity
  8
SEIHIN
  6
CONTINUOUS
100
AcDbLine
 10
665.8604261619432
 20
208.6229419042878
 30
0.0
 11
665.8604261619432
 21
208.2487419042877
 31
0.0
  0
LINE
  5
5D1
330
1A
100
AcDbEntity
  8
SEIHIN
  6
CONTINUOUS
100
AcDbLine
 10
685.8604261619434
 20
218.7489419042877
 30
0.0
 11
685.8604261619434
 21
220.5489419042877
 31
0.0
  0
LINE
  5
5D2
330
1A
100
AcDbEntity
  8
SEIHIN
  6
CONTINUOUS
100
AcDbLine
 10
681.8604261619434
 20
218.2489419042878
 30
0.0
 11
685.8604261619434
 21
218.7489419042877
 31
0.0
  0
LINE
  5
5D3
330
1A
100
AcDbEntity
  8
SEIHIN
  6
CONTINUOUS
100
AcDbLine
 10
680.8604261619434
 20
220.0489419042877
 30
0.0
 11
680.8604261619434
 21
220.5489419042877
 31
0.0
  0
LINE
  5
5E2
330
1A
100
AcDbEntity
  8
SEIHIN
  6
CONTINUOUS
100
AcDbLine
 10
664.2354261619434
 20
289.8611419042876
 30
0.0
 11
665.8604261619432
 21
288.9230419042876
 31
0.0
  0
LINE
  5
5E3
330
1A
100
AcDbEntity
  8
SEIHIN
  6
CONTINUOUS
100
AcDbLine
 10
665.8604261619432
 20
288.5488419042878
 30
0.0
 11
664.2354261619434
 21
287.6106419042877
 31
0.0
  0
LINE
  5
5E4
330
1A
100
AcDbEntity
  8
SEIHIN
  6
CONTINUOUS
100
AcDbLine
 10
665.8604261619432
 20
285.5489419042878
 30
0.0
 11
664.2354261619434
 21
284.6107419042877
 31
0.0
  0
LINE
  5
5E5
330
1A
100
AcDbEntity
  8
SEIHIN
  6
CONTINUOUS
100
AcDbLine
 10
664.2354261619434
 20
283.8613419042878
 30
0.0
 11
665.8603261619434
 21
282.9231419042877
 31
0.0
  0
LINE
  5
5E6
330
1A
100
AcDbEntity
  8
SEIHIN
  6
CONTINUOUS
100
AcDbLine
 10
665.8603261619434
 20
282.9231419042877
 30
0.0
 11
663.3664261619433
 21
282.5491419042877
 31
0.0
  0
LINE
  5
5E7
330
1A
100
AcDbEntity
  8
SEIHIN
  6
CONTINUOUS
100
AcDbLine
 10
664.2354261619434
 20
286.8612419042876
 30
0.0
 11
665.8604261619432
 21
285.9230419042877
 31
0.0
  0
LINE
  5
5E8
330
1A
100
AcDbEntity
  8
SEIHIN
  6
CONTINUOUS
100
AcDbLine
 10
664.2354261619434
 20
287.6106419042877
 30
0.0
 11
664.2354261619434
 21
286.8612419042876
 31
0.0
  0
LINE
  5
5E9
330
1A
100
AcDbEntity
  8
SEIHIN
  6
CONTINUOUS
100
AcDbLine
 10
664.2354261619434
 20
284.6107419042877
 30
0.0
 11
664.2354261619434
 21
283.8613419042878
 31
0.0
  0
LINE
  5
5EA
330
1A
100
AcDbEntity
  8
SEIHIN
  6
CONTINUOUS
100
AcDbLine
 10
664.2354261619434
 20
282.5490419042878
 30
0.0
 11
664.2354261619434
 21
281.5489419042878
 31
0.0
  0
LINE
  5
5EB
330
1A
100
AcDbEntity
  8
SEIHIN
  6
CONTINUOUS
100
AcDbLine
 10
665.8604261619432
 20
288.9230419042876
 30
0.0
 11
665.8604261619432
 21
288.5488419042878
 31
0.0
  0
LINE
  5
5EC
330
1A
100
AcDbEntity
  8
SEIHIN
  6
CONTINUOUS
100
AcDbLine
 10
665.8604261619432
 20
285.9230419042877
 30
0.0
 11
665.8604261619432
 21
285.5489419042878
 31
0.0
  0
LINE
  5
5ED
330
1A
100
AcDbEntity
  8
SEIHIN
  6
CONTINUOUS
100
AcDbLine
 10
665.8603261619434
 20
282.9231419042877
 30
0.0
 11
665.8603261619434
 21
282.5490419042878
 31
0.0
  0
LINE
  5
5EE
330
1A
100
AcDbEntity
  8
SEIHIN
  6
CONTINUOUS
100
AcDbLine
 10
665.8604261619432
 20
291.5487419042876
 30
0.0
 11
664.2354261619434
 21
290.6105419042877
 31
0.0
  0
LINE
  5
5EF
330
1A
100
AcDbEntity
  8
SEIHIN
  6
CONTINUOUS
100
AcDbLine
 10
665.8604261619432
 20
294.5486419042876
 30
0.0
 11
664.2355261619432
 21
293.6104419042877
 31
0.0
  0
LINE
  5
5F0
330
1A
100
AcDbEntity
  8
SEIHIN
  6
CONTINUOUS
100
AcDbLine
 10
664.2355261619432
 20
292.8610419042876
 30
0.0
 11
665.8604261619432
 21
291.9229419042878
 31
0.0
  0
LINE
  5
5F1
330
1A
100
AcDbEntity
  8
SEIHIN
  6
CONTINUOUS
100
AcDbLine
 10
664.2355261619432
 20
293.6104419042877
 30
0.0
 11
664.2355261619432
 21
292.8610419042876
 31
0.0
  0
LINE
  5
5F2
330
1A
100
AcDbEntity
  8
SEIHIN
  6
CONTINUOUS
100
AcDbLine
 10
664.2354261619434
 20
290.6105419042877
 30
0.0
 11
664.2354261619434
 21
289.8611419042876
 31
0.0
  0
LINE
  5
5F3
330
1A
100
AcDbEntity
  8
SEIHIN
  6
CONTINUOUS
100
AcDbLine
 10
665.8604261619432
 20
291.9229419042878
 30
0.0
 11
665.8604261619432
 21
291.5487419042876
 31
0.0
  0
ARC
  5
5FD
330
1A
100
AcDbEntity
  8
SEIHIN
  6
CONTINUOUS
100
AcDbCircle
 10
657.2957408339818
 20
366.0487292877271
 30
0.0
 40
1.500012616632261
100
AcDbArc
 50
8.615750846225123
 51
90.00056042587928
  0
LINE
  5
5FE
330
1A
100
AcDbEntity
  8
SEIHIN
  6
CONTINUOUS
100
AcDbLine
 10
659.0377261619432
 20
354.3487419042877
 30
0.0
 11
657.0377261619433
 21
365.7487419042878
 31
0.0
  0
LINE
  5
5FF
330
1A
100
AcDbEntity
  8
SEIHIN
  6
CONTINUOUS
100
AcDbLine
 10
680.8605261619431
 20
302.5486419042877
 30
0.0
 11
635.8605261619434
 21
302.5488419042878
 31
0.0
  0
LINE
  5
600
330
1A
100
AcDbEntity
  8
SEIHIN
  6
CONTINUOUS
100
AcDbLine
 10
676.8606261619432
 20
304.3486419042878
 30
0.0
 11
635.8605261619434
 21
304.3489419042876
 31
0.0
  0
LINE
  5
601
330
1A
100
AcDbEntity
  8
SEIHIN
  6
CONTINUOUS
100
AcDbLine
 10
680.8606261619432
 20
303.5486419042877
 30
0.0
 11
590.8603261619432
 21
303.5489419042876
 31
0.0
  0
LINE
  5
602
330
1A
100
AcDbEntity
  8
SEIHIN
  6
CONTINUOUS
100
AcDbLine
 10
664.8606261619431
 20
300.7487419042877
 30
0.0
 11
606.8605261619433
 21
300.7490419042877
 31
0.0
  0
LINE
  5
603
330
1A
100
AcDbEntity
  8
SEIHIN
  6
CONTINUOUS
100
AcDbLine
 10
664.2107261619432
 20
354.3486419042876
 30
0.0
 11
635.8605261619434
 21
354.3488419042878
 31
0.0
  0
LINE
  5
604
330
1A
100
AcDbEntity
  8
SEIHIN
  6
CONTINUOUS
100
AcDbLine
 10
664.2107261619432
 20
352.5487419042876
 30
0.0
 11
607.5105261619433
 21
352.5490419042878
 31
0.0
  0
LINE
  5
607
330
1A
100
AcDbEntity
  8
CENTER_L
 48
5.0
100
AcDbLine
 10
635.8605261619434
 20
373.8695419042876
 30
0.0
 11
635.8605261619434
 21
348.5559419042878
 31
0.0
  0
LINE
  5
608
330
1A
100
AcDbEntity
  8
SEIHIN
  6
CONTINUOUS
100
AcDbLine
 10
590.8603261619432
 20
303.5486419042877
 30
0.0
 11
594.8603261619432
 21
304.3486419042878
 31
0.0
  0
LINE
  5
609
330
1A
100
AcDbEntity
  8
SEIHIN
  6
CONTINUOUS
100
AcDbLine
 10
590.8603261619432
 20
302.5486419042877
 30
0.0
 11
635.8603261619432
 21
302.5489419042878
 31
0.0
  0
LINE
  5
60A
330
1A
100
AcDbEntity
  8
SEIHIN
  6
CONTINUOUS
100
AcDbLine
 10
590.8603261619432
 20
302.5486419042877
 30
0.0
 11
590.8603261619432
 21
303.5486419042877
 31
0.0
  0
LINE
  5
60D
330
1A
100
AcDbEntity
  8
SEIHIN
  6
CONTINUOUS
100
AcDbLine
 10
594.8603261619432
 20
304.3486419042878
 30
0.0
 11
635.8603261619432
 21
304.3489419042876
 31
0.0
  0
LINE
  5
60E
330
1A
100
AcDbEntity
  8
SEIHIN
  6
CONTINUOUS
100
AcDbLine
 10
605.8605261619431
 20
302.5486419042877
 30
0.0
 11
605.8605261619431
 21
301.7490419042878
 31
0.0
  0
LINE
  5
60F
330
1A
100
AcDbEntity
  8
SEIHIN
  6
CONTINUOUS
100
AcDbLine
 10
608.5766261619432
 20
306.3487419042878
 30
0.0
 11
613.3082261619433
 21
306.3487419042878
 31
0.0
  0
LINE
  5
610
330
1A
100
AcDbEntity
  8
SEIHIN
  6
CONTINUOUS
100
AcDbLine
 10
613.3082261619433
 20
306.3487419042878
 30
0.0
 11
613.3082261619433
 21
304.3486419042878
 31
0.0
  0
LINE
  5
611
330
1A
100
AcDbEntity
  8
SEIHIN
  6
CONTINUOUS
100
AcDbLine
 10
608.5766261619432
 20
306.3487419042878
 30
0.0
 11
608.5766261619432
 21
304.3486419042878
 31
0.0
  0
LINE
  5
614
330
1A
100
AcDbEntity
  8
SEIHIN
  6
CONTINUOUS
100
AcDbLine
 10
637.8605261619432
 20
306.3487419042878
 30
0.0
 11
637.8605261619432
 21
304.3486419042878
 31
0.0
  0
LINE
  5
615
330
1A
100
AcDbEntity
  8
SEIHIN
  6
CONTINUOUS
100
AcDbLine
 10
633.8605261619432
 20
306.3487419042878
 30
0.0
 11
633.8605261619432
 21
304.3486419042878
 31
0.0
  0
LINE
  5
616
330
1A
100
AcDbEntity
  8
SEIHIN
  6
CONTINUOUS
100
AcDbLine
 10
637.8605261619432
 20
306.3488419042877
 30
0.0
 11
633.8605261619432
 21
306.3489419042876
 31
0.0
  0
LINE
  5
618
330
1A
100
AcDbEntity
  8
SEIHIN
  6
CONTINUOUS
100
AcDbLine
 10
635.8602261619433
 20
367.5488419042876
 30
0.0
 11
614.4251261619433
 21
367.5488419042876
 31
0.0
  0
LINE
  5
619
330
1A
100
AcDbEntity
  8
SEIHIN
  6
CONTINUOUS
100
AcDbLine
 10
607.5102261619431
 20
354.3487419042877
 30
0.0
 11
635.8603261619432
 21
354.3489419042878
 31
0.0
  0
LINE
  5
61C
330
1A
100
AcDbEntity
  8
SEIHIN
  6
CONTINUOUS
100
AcDbLine
 10
607.5105261619433
 20
352.5487419042876
 30
0.0
 11
607.5105261619433
 21
354.3486419042876
 31
0.0
  0
LINE
  5
61D
330
1A
100
AcDbEntity
  8
SEIHIN
  6
CONTINUOUS
100
AcDbLine
 10
610.8625261619433
 20
354.3488419042878
 30
0.0
 11
612.9420261619432
 21
366.2735419042876
 31
0.0
  0
LINE
  5
61E
330
1A
100
AcDbEntity
  8
SEIHIN
  6
CONTINUOUS
100
AcDbLine
 10
623.0852261619432
 20
354.3488419042878
 30
0.0
 11
623.0852261619432
 21
365.7488419042878
 31
0.0
  0
LINE
  5
61F
330
1A
100
AcDbEntity
  8
SEIHIN
  6
CONTINUOUS
100
AcDbLine
 10
618.5712261619433
 20
354.3487419042877
 30
0.0
 11
618.5712261619433
 21
365.7488419042878
 31
0.0
  0
LINE
  5
620
330
1A
100
AcDbEntity
  8
SEIHIN
  6
CONTINUOUS
100
AcDbLine
 10
617.0092261619431
 20
354.3487419042877
 30
0.0
 11
617.0092261619431
 21
365.7488419042878
 31
0.0
  0
LINE
  5
621
330
1A
100
AcDbEntity
  8
SEIHIN
  6
CONTINUOUS
100
AcDbLine
 10
615.5092261619434
 20
354.3487419042877
 30
0.0
 11
615.5092261619434
 21
365.7488419042878
 31
0.0
  0
LINE
  5
622
330
1A
100
AcDbEntity
  8
SEIHIN
  6
CONTINUOUS
100
AcDbLine
 10
612.6830261619434
 20
354.3488419042878
 30
0.0
 11
614.6830261619434
 21
365.7488419042878
 31
0.0
  0
LINE
  5
623
330
1A
100
AcDbEntity
  8
SEIHIN
  6
CONTINUOUS
100
AcDbLine
 10
614.6830261619434
 20
365.7488419042878
 30
0.0
 11
615.5092261619434
 21
365.7488419042878
 31
0.0
  0
ARC
  5
624
330
1A
100
AcDbEntity
  8
SEIHIN
  6
CONTINUOUS
100
AcDbCircle
 10
614.4251114899048
 20
366.048829287727
 30
0.0
 40
1.500012616632366
100
AcDbArc
 50
89.99943957412071
 51
171.3842491537776
  0
LINE
  5
625
330
1A
100
AcDbEntity
  8
SEIHIN
  6
CONTINUOUS
100
AcDbLine
 10
617.0092261619431
 20
365.7488419042878
 30
0.0
 11
618.5712261619433
 21
365.7488419042878
 31
0.0
  0
LINE
  5
626
330
1A
100
AcDbEntity
  8
SEIHIN
  6
CONTINUOUS
100
AcDbLine
 10
618.5712261619433
 20
365.7488419042878
 30
0.0
 11
623.0852261619432
 21
365.7488419042878
 31
0.0
  0
LINE
  5
628
330
1A
100
AcDbEntity
  8
SEIHIN
  6
CONTINUOUS
100
AcDbLine
 10
635.8606261619434
 20
367.5488419042876
 30
0.0
 11
657.2957261619433
 21
367.5487419042876
 31
0.0
  0
LINE
  5
629
330
1A
100
AcDbEntity
  8
SEIHIN
  6
CONTINUOUS
100
AcDbLine
 10
645.1346261619432
 20
365.7488419042878
 30
0.0
 11
637.3606261619434
 21
365.7489419042876
 31
0.0
  0
LINE
  5
62A
330
1A
100
AcDbEntity
  8
SEIHIN
  6
CONTINUOUS
100
AcDbLine
 10
637.3605261619432
 20
354.3488419042878
 30
0.0
 11
637.3606261619434
 21
365.7488419042878
 31
0.0
  0
LINE
  5
62B
330
1A
100
AcDbEntity
  8
SEIHIN
  6
CONTINUOUS
100
AcDbLine
 10
634.3602261619432
 20
354.3488419042878
 30
0.0
 11
634.3602261619432
 21
365.7488419042878
 31
0.0
  0
LINE
  5
62C
330
1A
100
AcDbEntity
  8
SEIHIN
  6
CONTINUOUS
100
AcDbLine
 10
626.5862261619432
 20
354.3488419042878
 30
0.0
 11
626.5862261619432
 21
365.7488419042878
 31
0.0
  0
LINE
  5
62D
330
1A
100
AcDbEntity
  8
SEIHIN
  6
CONTINUOUS
100
AcDbLine
 10
625.6842261619433
 20
354.3488419042878
 30
0.0
 11
625.6842261619433
 21
365.7488419042878
 31
0.0
  0
LINE
  5
62E
330
1A
100
AcDbEntity
  8
SEIHIN
  6
CONTINUOUS
100
AcDbLine
 10
626.5862261619432
 20
365.7488419042878
 30
0.0
 11
634.3602261619432
 21
365.7489419042876
 31
0.0
  0
LINE
  5
62F
330
1A
100
AcDbEntity
  8
SEIHIN
  6
CONTINUOUS
100
AcDbLine
 10
625.6842261619433
 20
365.7488419042878
 30
0.0
 11
626.5862261619432
 21
365.7488419042878
 31
0.0
  0
LINE
  5
630
330
1A
100
AcDbEntity
  8
SEIHIN
  6
CONTINUOUS
100
AcDbLine
 10
646.0365261619434
 20
354.3487419042877
 30
0.0
 11
646.0366261619431
 21
365.7488419042878
 31
0.0
  0
LINE
  5
631
330
1A
100
AcDbEntity
  8
SEIHIN
  6
CONTINUOUS
100
AcDbLine
 10
645.1345261619433
 20
354.3487419042877
 30
0.0
 11
645.1346261619432
 21
365.7488419042878
 31
0.0
  0
LINE
  5
632
330
1A
100
AcDbEntity
  8
SEIHIN
  6
CONTINUOUS
100
AcDbLine
 10
656.4865261619433
 20
354.3486419042876
 30
0.0
 11
656.2116261619433
 21
365.7487419042878
 31
0.0
  0
LINE
  5
633
330
1A
100
AcDbEntity
  8
SEIHIN
  6
CONTINUOUS
100
AcDbLine
 10
654.9865261619431
 20
354.3486419042876
 30
0.0
 11
654.7116261619432
 21
365.7487419042878
 31
0.0
  0
LINE
  5
634
330
1A
100
AcDbEntity
  8
SEIHIN
  6
CONTINUOUS
100
AcDbLine
 10
653.4245261619433
 20
354.3486419042876
 30
0.0
 11
653.1496261619434
 21
365.7487419042878
 31
0.0
  0
LINE
  5
635
330
1A
100
AcDbEntity
  8
SEIHIN
  6
CONTINUOUS
100
AcDbLine
 10
648.6355261619433
 20
354.3487419042877
 30
0.0
 11
648.6356261619432
 21
365.7488419042878
 31
0.0
  0
LINE
  5
636
330
1A
100
AcDbEntity
  8
SEIHIN
  6
CONTINUOUS
100
AcDbLine
 10
653.1496261619434
 20
365.7487419042878
 30
0.0
 11
648.6356261619432
 21
365.7488419042878
 31
0.0
  0
LINE
  5
637
330
1A
100
AcDbEntity
  8
SEIHIN
  6
CONTINUOUS
100
AcDbLine
 10
646.0366261619431
 20
365.7488419042878
 30
0.0
 11
645.1346261619432
 21
365.7488419042878
 31
0.0
  0
LINE
  5
638
330
1A
100
AcDbEntity
  8
SEIHIN
  6
CONTINUOUS
100
AcDbLine
 10
654.7116261619432
 20
365.7487419042878
 30
0.0
 11
653.1496261619434
 21
365.7487419042878
 31
0.0
  0
LINE
  5
639
330
1A
100
AcDbEntity
  8
SEIHIN
  6
CONTINUOUS
100
AcDbLine
 10
657.0377261619433
 20
365.7487419042878
 30
0.0
 11
656.2116261619433
 21
365.7487419042878
 31
0.0
  0
LINE
  5
63F
330
1A
100
AcDbEntity
  8
SEIHIN
  6
CONTINUOUS
100
AcDbLine
 10
663.1444261619433
 20
306.3487419042878
 30
0.0
 11
663.1444261619433
 21
304.3486419042878
 31
0.0
  0
LINE
  5
640
330
1A
100
AcDbEntity
  8
SEIHIN
  6
CONTINUOUS
100
AcDbLine
 10
658.4129261619434
 20
306.3487419042878
 30
0.0
 11
658.4129261619434
 21
304.3486419042878
 31
0.0
  0
LINE
  5
641
330
1A
100
AcDbEntity
  8
SEIHIN
  6
CONTINUOUS
100
AcDbLine
 10
663.1444261619433
 20
306.3487419042878
 30
0.0
 11
658.4128261619435
 21
306.3487419042878
 31
0.0
  0
LINE
  5
642
330
1A
100
AcDbEntity
  8
SEIHIN
  6
CONTINUOUS
100
AcDbLine
 10
665.8606261619431
 20
302.5486419042877
 30
0.0
 11
665.8606261619431
 21
301.7487419042877
 31
0.0
  0
LINE
  5
643
330
1A
100
AcDbEntity
  8
SEIHIN
  6
CONTINUOUS
100
AcDbLine
 10
680.8606261619432
 20
303.5486419042877
 30
0.0
 11
676.8606261619432
 21
304.3486419042878
 31
0.0
  0
LINE
  5
644
330
1A
100
AcDbEntity
  8
SEIHIN
  6
CONTINUOUS
100
AcDbLine
 10
680.8605261619431
 20
302.5486419042877
 30
0.0
 11
680.8606261619432
 21
303.5486419042877
 31
0.0
  0
LINE
  5
651
330
1A
100
AcDbEntity
  8
SEIHIN
  6
CONTINUOUS
100
AcDbLine
 10
660.8583261619433
 20
354.3487419042877
 30
0.0
 11
658.7788261619435
 21
366.2734419042877
 31
0.0
  0
LINE
  5
652
330
1A
100
AcDbEntity
  8
SEIHIN
  6
CONTINUOUS
100
AcDbLine
 10
664.2105261619433
 20
352.5487419042876
 30
0.0
 11
664.2105261619433
 21
354.3486419042876
 31
0.0
  0
LINE
  5
666
330
1A
100
AcDbEntity
  8
SEIHIN
  6
CONTINUOUS
100
AcDbLine
 10
444.278089394872
 20
207.7874050433548
 30
0.0
 11
354.2778893948721
 21
207.7877050433547
 31
0.0
  0
LINE
  5
667
330
1A
100
AcDbEntity
  8
SEIHIN
  6
CONTINUOUS
100
AcDbLine
 10
354.2778893948721
 20
207.7874050433548
 30
0.0
 11
358.2808892924371
 21
208.5880050228677
 31
0.0
  0
LINE
  5
66A
330
1A
100
AcDbEntity
  8
SEIHIN
  6
CONTINUOUS
100
AcDbLine
 10
354.2778893948721
 20
206.7874050433548
 30
0.0
 11
354.2778893948721
 21
207.7874050433548
 31
0.0
  0
LINE
  5
66C
330
1A
100
AcDbEntity
  8
CENTER_L
 48
5.0
100
AcDbLine
 10
399.2780902811961
 20
228.7877050438933
 30
0.0
 11
399.2780250430904
 21
178.7876550423021
 31
0.0
  0
LINE
  5
673
330
1A
100
AcDbEntity
  8
SEIHIN
  6
CONTINUOUS
100
AcDbLine
 10
444.278089394872
 20
206.7874050433548
 30
0.0
 11
354.2778893948721
 21
206.788005044688
 31
0.0
  0
LINE
  5
674
330
1A
100
AcDbEntity
  8
SEIHIN
  6
CONTINUOUS
100
AcDbLine
 10
440.2780893948722
 20
208.5874050433548
 30
0.0
 11
358.280889292437
 21
208.5880050228678
 31
0.0
  0
LINE
  5
675
330
1A
100
AcDbEntity
  8
SEIHIN
  6
CONTINUOUS
100
AcDbLine
 10
422.4552893948722
 20
208.5875050433548
 30
0.0
 11
420.4552893948721
 21
219.9876050433548
 31
0.0
  0
LINE
  5
676
330
1A
100
AcDbEntity
  8
SEIHIN
  6
CONTINUOUS
100
AcDbLine
 10
419.9040893948722
 20
208.5875050433548
 30
0.0
 11
419.6291893948721
 21
219.9876050433548
 31
0.0
  0
LINE
  5
677
330
1A
100
AcDbEntity
  8
SEIHIN
  6
CONTINUOUS
100
AcDbLine
 10
408.5520893948721
 20
208.5876050433547
 30
0.0
 11
408.5521893948722
 21
219.9876050433548
 31
0.0
  0
LINE
  5
678
330
1A
100
AcDbEntity
  8
SEIHIN
  6
CONTINUOUS
100
AcDbLine
 10
409.4540893948722
 20
208.5876050433547
 30
0.0
 11
409.4541893948721
 21
219.9876050433548
 31
0.0
  0
LINE
  5
679
330
1A
100
AcDbEntity
  8
SEIHIN
  6
CONTINUOUS
100
AcDbLine
 10
412.0530893948721
 20
208.5876050433547
 30
0.0
 11
412.053189394872
 21
219.9876050433548
 31
0.0
  0
LINE
  5
67A
330
1A
100
AcDbEntity
  8
SEIHIN
  6
CONTINUOUS
100
AcDbLine
 10
416.8420893948721
 20
208.5875050433548
 30
0.0
 11
416.567189394872
 21
219.9876050433548
 31
0.0
  0
LINE
  5
67B
330
1A
100
AcDbEntity
  8
SEIHIN
  6
CONTINUOUS
100
AcDbLine
 10
418.4040893948721
 20
208.5875050433548
 30
0.0
 11
418.1291893948722
 21
219.9876050433548
 31
0.0
  0
LINE
  5
67C
330
1A
100
AcDbEntity
  8
SEIHIN
  6
CONTINUOUS
100
AcDbLine
 10
400.7780893948721
 20
210.5876050433547
 30
0.0
 11
400.7781893948721
 21
219.9877050433546
 31
0.0
  0
LINE
  5
67D
330
1A
100
AcDbEntity
  8
SEIHIN
  6
CONTINUOUS
100
AcDbLine
 10
389.1017893948721
 20
208.5876050433547
 30
0.0
 11
389.1017893948721
 21
219.9877050433546
 31
0.0
  0
LINE
  5
67E
330
1A
100
AcDbEntity
  8
SEIHIN
  6
CONTINUOUS
100
AcDbLine
 10
390.003789394872
 20
208.5876050433547
 30
0.0
 11
390.003789394872
 21
219.9877050433546
 31
0.0
  0
LINE
  5
67F
330
1A
100
AcDbEntity
  8
SEIHIN
  6
CONTINUOUS
100
AcDbLine
 10
397.7777893948721
 20
210.5877050433548
 30
0.0
 11
397.7777893948721
 21
219.9877050433546
 31
0.0
  0
LINE
  5
680
330
1A
100
AcDbEntity
  8
SEIHIN
  6
CONTINUOUS
100
AcDbLine
 10
424.2758893948722
 20
208.5875050433548
 30
0.0
 11
422.1963893948721
 21
220.5123050433547
 31
0.0
  0
LINE
  5
681
330
1A
100
AcDbEntity
  8
SEIHIN
  6
CONTINUOUS
100
AcDbLine
 10
374.2800893948721
 20
208.5876050433547
 30
0.0
 11
376.3653594143791
 21
220.5454929628619
 31
0.0
  0
LINE
  5
682
330
1A
100
AcDbEntity
  8
SEIHIN
  6
CONTINUOUS
100
AcDbLine
 10
376.1005893948722
 20
208.5876050433547
 30
0.0
 11
378.1005893948722
 21
219.9877050433546
 31
0.0
  0
LINE
  5
683
330
1A
100
AcDbEntity
  8
SEIHIN
  6
CONTINUOUS
100
AcDbLine
 10
378.926789394872
 20
208.5876050433547
 30
0.0
 11
378.926789394872
 21
219.9877050433546
 31
0.0
  0
LINE
  5
684
330
1A
100
AcDbEntity
  8
SEIHIN
  6
CONTINUOUS
100
AcDbLine
 10
380.426789394872
 20
208.5876050433547
 30
0.0
 11
380.426789394872
 21
219.9877050433546
 31
0.0
  0
LINE
  5
685
330
1A
100
AcDbEntity
  8
SEIHIN
  6
CONTINUOUS
100
AcDbLine
 10
381.9887893948721
 20
208.5876050433547
 30
0.0
 11
381.9887893948721
 21
219.9877050433546
 31
0.0
  0
LINE
  5
686
330
1A
100
AcDbEntity
  8
SEIHIN
  6
CONTINUOUS
100
AcDbLine
 10
386.5027893948722
 20
208.5876050433547
 30
0.0
 11
386.5027893948722
 21
219.9877050433546
 31
0.0
  0
LINE
  5
68A
330
1A
100
AcDbEntity
  8
SEIHIN
  6
CONTINUOUS
100
AcDbLine
 10
397.2779893948721
 20
210.5877050433548
 30
0.0
 11
401.2779893948722
 21
210.5876050433547
 31
0.0
  0
LINE
  5
68B
330
1A
100
AcDbEntity
  8
SEIHIN
  6
CONTINUOUS
100
AcDbLine
 10
401.278089394872
 20
210.5877050433548
 30
0.0
 11
401.278089394872
 21
208.5874050433548
 31
0.0
  0
LINE
  5
68C
330
1A
100
AcDbEntity
  8
SEIHIN
  6
CONTINUOUS
100
AcDbLine
 10
397.2780893948721
 20
210.5877050433548
 30
0.0
 11
397.2780893948721
 21
208.5874050433548
 31
0.0
  0
LINE
  5
68E
330
1A
100
AcDbEntity
  8
SEIHIN
  6
CONTINUOUS
100
AcDbLine
 10
390.003789394872
 20
219.9877050433546
 30
0.0
 11
397.7777893948721
 21
219.9877050433546
 31
0.0
  0
LINE
  5
690
330
1A
100
AcDbEntity
  8
SEIHIN
  6
CONTINUOUS
100
AcDbLine
 10
380.426789394872
 20
219.9877050433546
 30
0.0
 11
381.9887893948721
 21
219.9877050433546
 31
0.0
  0
LINE
  5
691
330
1A
100
AcDbEntity
  8
SEIHIN
  6
CONTINUOUS
100
AcDbLine
 10
378.1005893948722
 20
219.9877050433546
 30
0.0
 11
378.926789394872
 21
219.9877050433546
 31
0.0
  0
LINE
  5
693
330
1A
100
AcDbEntity
  8
SEIHIN
  6
CONTINUOUS
100
AcDbLine
 10
381.9887893948721
 20
219.9877050433546
 30
0.0
 11
386.5027893948722
 21
219.9877050433546
 31
0.0
  0
LINE
  5
694
330
1A
100
AcDbEntity
  8
SEIHIN
  6
CONTINUOUS
100
AcDbLine
 10
389.1017893948721
 20
219.9877050433546
 30
0.0
 11
390.003789394872
 21
219.9877050433546
 31
0.0
  0
LINE
  5
695
330
1A
100
AcDbEntity
  8
SEIHIN
  6
CONTINUOUS
100
AcDbLine
 10
416.567189394872
 20
219.9876050433548
 30
0.0
 11
412.053189394872
 21
219.9876050433548
 31
0.0
  0
LINE
  5
696
330
1A
100
AcDbEntity
  8
SEIHIN
  6
CONTINUOUS
100
AcDbLine
 10
377.8430662925354
 20
221.7878050434626
 30
0.0
 11
420.713289394872
 21
221.7876050433547
 31
0.0
  0
LINE
  5
697
330
1A
100
AcDbEntity
  8
SEIHIN
  6
CONTINUOUS
100
AcDbLine
 10
408.5521893948722
 20
219.9877050433546
 30
0.0
 11
400.7781893948721
 21
219.9877050433546
 31
0.0
  0
LINE
  5
698
330
1A
100
AcDbEntity
  8
SEIHIN
  6
CONTINUOUS
100
AcDbLine
 10
409.4541893948721
 20
219.9877050433546
 30
0.0
 11
408.5521893948722
 21
219.9877050433546
 31
0.0
  0
ARC
  5
699
330
1A
100
AcDbEntity
  8
SEIHIN
  6
CONTINUOUS
100
AcDbCircle
 10
420.7133040669106
 20
220.2875924267941
 30
0.0
 40
1.500012616632349
100
AcDbArc
 50
8.615750846221871
 51
90.00056042587766
  0
LINE
  5
69A
330
1A
100
AcDbEntity
  8
SEIHIN
  6
CONTINUOUS
100
AcDbLine
 10
420.4552893948721
 20
219.9876050433548
 30
0.0
 11
419.6291893948721
 21
219.9876050433548
 31
0.0
  0
LINE
  5
69B
330
1A
100
AcDbEntity
  8
SEIHIN
  6
CONTINUOUS
100
AcDbLine
 10
418.1291893948722
 20
219.9876050433548
 30
0.0
 11
416.567189394872
 21
219.9876050433548
 31
0.0
  0
LINE
  5
69E
330
1A
100
AcDbEntity
  8
SEIHIN
  6
CONTINUOUS
100
AcDbLine
 10
444.278089394872
 20
206.7874050433548
 30
0.0
 11
444.278089394872
 21
207.7874050433548
 31
0.0
  0
LINE
  5
69F
330
1A
100
AcDbEntity
  8
SEIHIN
  6
CONTINUOUS
100
AcDbLine
 10
444.278089394872
 20
207.7874050433548
 30
0.0
 11
440.2780893948722
 21
208.5874050433548
 31
0.0
  0
ARC
  5
6A2
330
1A
100
AcDbEntity
  8
SEIHIN
  6
CONTINUOUS
100
AcDbCircle
 10
399.278455401081
 20
374.7876639261327
 30
0.0
 40
28.35000534168104
100
AcDbArc
 50
154.042677670255
 51
265.9542738348164
  0
ARC
  5
6A3
330
1A
100
AcDbEntity
  8
SEIHIN
  6
CONTINUOUS
100
AcDbCircle
 10
399.2784893477283
 20
374.7875550433547
 30
0.0
 40
45.00000004717153
100
AcDbArc
 50
0.0000636619772626
 51
359.9999363380227
  0
ARC
  5
6A4
330
1A
100
AcDbEntity
  8
SEIHIN
  6
CONTINUOUS
100
AcDbCircle
 10
399.2784893686735
 20
374.7875550433547
 30
0.0
 40
41.00000002622919
100
AcDbArc
 50
0.0000698729019022
 51
359.9999301270981
  0
LINE
  5
6A5
330
1A
100
AcDbEntity
  8
CENTER_L
 48
5.0
100
AcDbLine
 10
347.2784893007501
 20
374.7876968037893
 30
0.0
 11
451.278489394884
 21
374.7875142989807
 31
0.0
  0
LINE
  5
6A6
330
1A
100
AcDbEntity
  8
CENTER_L
 48
5.0
100
AcDbLine
 10
399.278577021309
 20
426.7875550904523
 30
0.0
 11
399.2783989955123
 21
322.7875549962617
 31
0.0
  0
ARC
  5
6A7
330
1A
100
AcDbEntity
  8
SEIHIN
  6
CONTINUOUS
100
AcDbCircle
 10
423.8303129042844
 20
388.9625643221712
 30
0.0
 40
2.000008653179914
100
AcDbArc
 50
122.0196083354462
 51
297.9782410155063
  0
ARC
  5
6A8
330
1A
100
AcDbEntity
  8
SEIHIN
  6
CONTINUOUS
100
AcDbCircle
 10
399.2785140466384
 20
374.7875792725986
 30
0.0
 40
23.50000963193823
100
AcDbArc
 50
33.43921004587397
 51
54.01833231360186
  0
LINE
  5
6A9
330
1A
100
AcDbEntity
  8
SEIHIN
  6
CONTINUOUS
100
AcDbLine
 10
426.5623893948721
 20
388.2305050433548
 30
0.0
 11
424.5623893948722
 21
391.6946050433546
 31
0.0
  0
ARC
  5
6AA
330
1A
100
AcDbEntity
  8
SEIHIN
  6
CONTINUOUS
100
AcDbCircle
 10
399.2783963218415
 20
374.7875160119478
 30
0.0
 40
23.50003900870209
100
AcDbArc
 50
123.4388155174945
 51
144.0177404922019
  0
ARC
  5
6AB
330
1A
100
AcDbEntity
  8
SEIHIN
  6
CONTINUOUS
100
AcDbCircle
 10
374.7266791486152
 20
388.9626872964506
 30
0.0
 40
2.00003516458613
100
AcDbArc
 50
242.0217322000929
 51
57.97793594009479
  0
LINE
  5
6AC
330
1A
100
AcDbEntity
  8
SEIHIN
  6
CONTINUOUS
100
AcDbLine
 10
373.994689394872
 20
391.6948050433548
 30
0.0
 11
371.9946893948721
 21
388.2307050433548
 31
0.0
  0
ARC
  5
6AD
330
1A
100
AcDbEntity
  8
SEIHIN
  6
CONTINUOUS
100
AcDbCircle
 10
399.2784893620428
 20
374.7875550433547
 30
0.0
 40
25.00000003287927
100
AcDbArc
 50
0.0001145915590422
 51
359.9998854084409
  0
ARC
  5
6AE
330
1A
100
AcDbEntity
  8
SEIHIN
  6
CONTINUOUS
100
AcDbCircle
 10
399.2784893695774
 20
374.7875550433547
 30
0.0
 40
23.00000002534896
100
AcDbArc
 50
0.0001245560424637
 51
359.9998754439575
  0
ARC
  5
6AF
330
1A
100
AcDbEntity
  8
SEIHIN
  6
CONTINUOUS
100
AcDbCircle
 10
399.2785033635955
 20
374.7876292389872
 30
0.0
 40
28.34995098937168
100
AcDbArc
 50
274.0451666866237
 51
25.95700421908523
  0
LINE
  5
6B0
330
1A
100
AcDbEntity
  8
SEIHIN
  6
CONTINUOUS
100
AcDbLine
 10
399.2784893948721
 20
380.7876050433548
 30
0.0
 11
395.2784893948721
 21
380.7876050433548
 31
0.0
  0
LINE
  5
6B1
330
1A
100
AcDbEntity
  8
SEIHIN
  6
CONTINUOUS
100
AcDbLine
 10
399.2784893948721
 20
378.7876050433548
 30
0.0
 11
395.2784893948721
 21
378.7876050433548
 31
0.0
  0
LINE
  5
6B2
330
1A
100
AcDbEntity
  8
SEIHIN
  6
CONTINUOUS
100
AcDbLine
 10
399.2784893948721
 20
388.7876050433547
 30
0.0
 11
395.2784893948721
 21
388.7876050433547
 31
0.0
  0
LINE
  5
6B3
330
1A
100
AcDbEntity
  8
SEIHIN
  6
CONTINUOUS
100
AcDbLine
 10
399.2784893948721
 20
368.7876050433548
 30
0.0
 11
395.2784893948721
 21
368.7876050433548
 31
0.0
  0
LINE
  5
6B4
330
1A
100
AcDbEntity
  8
SEIHIN
  6
CONTINUOUS
100
AcDbLine
 10
399.2784893948721
 20
370.7876050433548
 30
0.0
 11
395.2784893948721
 21
370.7876050433548
 31
0.0
  0
LINE
  5
6B5
330
1A
100
AcDbEntity
  8
SEIHIN
  6
CONTINUOUS
100
AcDbLine
 10
399.2784893948721
 20
358.7876050433548
 30
0.0
 11
395.2784893948721
 21
358.7876050433548
 31
0.0
  0
LINE
  5
6B6
330
1A
100
AcDbEntity
  8
SEIHIN
  6
CONTINUOUS
100
AcDbLine
 10
399.2784893948721
 20
360.7876050433548
 30
0.0
 11
395.2784893948721
 21
360.7876050433548
 31
0.0
  0
ARC
  5
6B7
330
1A
100
AcDbEntity
  8
SEIHIN
  6
CONTINUOUS
100
AcDbCircle
 10
399.2784893948721
 20
374.7876050433549
 30
0.0
 40
20.99997238688672
100
AcDbArc
 50
259.0194099544933
 51
280.9805900455066
  0
LINE
  5
6B8
330
1A
100
AcDbEntity
  8
SEIHIN
  6
CONTINUOUS
100
AcDbLine
 10
393.2784893948721
 20
368.7876050433548
 30
0.0
 11
393.2784893948721
 21
360.7876050433548
 31
0.0
  0
LINE
  5
6B9
330
1A
100
AcDbEntity
  8
SEIHIN
  6
CONTINUOUS
100
AcDbLine
 10
395.2784893948721
 20
368.7876050433548
 30
0.0
 11
395.2784893948721
 21
360.7876050433548
 31
0.0
  0
ARC
  5
6BA
330
1A
100
AcDbEntity
  8
SEIHIN
  6
CONTINUOUS
100
AcDbCircle
 10
399.2784834677483
 20
374.7876293049939
 30
0.0
 40
23.50000961224586
100
AcDbArc
 50
183.4388936116481
 51
204.0181741340902
  0
ARC
  5
6BB
330
1A
100
AcDbEntity
  8
SEIHIN
  6
CONTINUOUS
100
AcDbCircle
 10
399.2784496014974
 20
374.7876783809302
 30
0.0
 40
20.99997151346565
100
AcDbArc
 50
196.6017815674009
 51
220.3676697450577
  0
LINE
  5
6BC
330
1A
100
AcDbEntity
  8
SEIHIN
  6
CONTINUOUS
100
AcDbLine
 10
385.2784893948721
 20
368.7876050433548
 30
0.0
 11
385.2784893948721
 21
360.7876050433548
 31
0.0
  0
LINE
  5
6BD
330
1A
100
AcDbEntity
  8
SEIHIN
  6
CONTINUOUS
100
AcDbLine
 10
383.2784893948721
 20
368.7876050433548
 30
0.0
 11
383.2784893948721
 21
361.1862050433548
 31
0.0
  0
ARC
  5
6BE
330
1A
100
AcDbEntity
  8
SEIHIN
  6
CONTINUOUS
100
AcDbCircle
 10
399.2785284751306
 20
374.787564188782
 30
0.0
 40
23.49997099589702
100
AcDbArc
 50
213.4387854137667
 51
234.0177705959333
  0
LINE
  5
6BF
330
1A
100
AcDbEntity
  8
SEIHIN
  6
CONTINUOUS
100
AcDbLine
 10
377.8131893948721
 20
365.2225050433547
 30
0.0
 11
376.4430893948721
 21
364.6120050433547
 31
0.0
  0
LINE
  5
6C0
330
1A
100
AcDbEntity
  8
SEIHIN
  6
CONTINUOUS
100
AcDbLine
 10
379.6683893948721
 20
361.8380050433547
 30
0.0
 11
378.4165893948721
 21
361.0114050433546
 31
0.0
  0
LINE
  5
6C1
330
1A
100
AcDbEntity
  8
SEIHIN
  6
CONTINUOUS
100
AcDbLine
 10
395.2784893948721
 20
358.7876050433548
 30
0.0
 11
395.2784893948721
 21
354.1721050433548
 31
0.0
  0
LINE
  5
6C2
330
1A
100
AcDbEntity
  8
SEIHIN
  6
CONTINUOUS
100
AcDbLine
 10
393.2784893948721
 20
358.7876050433548
 30
0.0
 11
393.2784893948721
 21
354.6630050433548
 31
0.0
  0
LINE
  5
6C3
330
1A
100
AcDbEntity
  8
SEIHIN
  6
CONTINUOUS
100
AcDbLine
 10
385.4714893948722
 20
355.7714050433547
 30
0.0
 11
384.5901893948722
 21
354.5575050433548
 31
0.0
  0
ARC
  5
6C4
330
1A
100
AcDbEntity
  8
SEIHIN
  6
CONTINUOUS
100
AcDbCircle
 10
399.278424499057
 20
374.7876402563357
 30
0.0
 40
21.00000389785637
100
AcDbArc
 50
229.6325422794142
 51
253.3986383331781
  0
LINE
  5
6C5
330
1A
100
AcDbEntity
  8
SEIHIN
  6
CONTINUOUS
100
AcDbLine
 10
388.7703893948722
 20
353.7679050433548
 30
0.0
 11
388.099689394872
 21
352.4262050433548
 31
0.0
  0
ARC
  5
6C6
330
1A
100
AcDbEntity
  8
SEIHIN
  6
CONTINUOUS
100
AcDbCircle
 10
399.2782788401701
 20
374.7876665005678
 30
0.0
 40
23.50000672925521
100
AcDbArc
 50
243.4394002875228
 51
264.0184601949747
  0
LINE
  5
6C7
330
1A
100
AcDbEntity
  8
SEIHIN
  6
CONTINUOUS
100
AcDbLine
 10
396.8293893948721
 20
351.4156050433546
 30
0.0
 11
396.6730893948721
 21
349.9237050433547
 31
0.0
  0
LINE
  5
6C8
330
1A
100
AcDbEntity
  8
SEIHIN
  6
CONTINUOUS
100
AcDbLine
 10
393.2784893948721
 20
360.7876050433548
 30
0.0
 11
385.2784893948721
 21
360.7876050433548
 31
0.0
  0
LINE
  5
6C9
330
1A
100
AcDbEntity
  8
SEIHIN
  6
CONTINUOUS
100
AcDbLine
 10
393.2784893948721
 20
358.7876050433548
 30
0.0
 11
385.6769893948722
 21
358.7876050433548
 31
0.0
  0
ARC
  5
6CA
330
1A
100
AcDbEntity
  8
SEIHIN
  6
CONTINUOUS
100
AcDbCircle
 10
399.2785246078528
 20
374.7876699391699
 30
0.0
 40
21.00000389785609
100
AcDbArc
 50
139.6325422794141
 51
163.398638333178
  0
LINE
  5
6CB
330
1A
100
AcDbEntity
  8
SEIHIN
  6
CONTINUOUS
100
AcDbLine
 10
383.2784893948721
 20
380.7876050433548
 30
0.0
 11
379.1538893948721
 21
380.7876050433548
 31
0.0
  0
LINE
  5
6CC
330
1A
100
AcDbEntity
  8
SEIHIN
  6
CONTINUOUS
100
AcDbLine
 10
383.2784893948721
 20
378.7876050433548
 30
0.0
 11
378.6629893948721
 21
378.7876050433548
 31
0.0
  0
LINE
  5
6CD
330
1A
100
AcDbEntity
  8
SEIHIN
  6
CONTINUOUS
100
AcDbLine
 10
383.2784893948721
 20
368.7876050433548
 30
0.0
 11
379.1538893948721
 21
368.7876050433548
 31
0.0
  0
LINE
  5
6CE
330
1A
100
AcDbEntity
  8
SEIHIN
  6
CONTINUOUS
100
AcDbLine
 10
383.2784893948721
 20
370.7876050433548
 30
0.0
 11
378.6629893948721
 21
370.7876050433548
 31
0.0
  0
ARC
  5
6CF
330
1A
100
AcDbEntity
  8
SEIHIN
  6
CONTINUOUS
100
AcDbCircle
 10
399.2784893948721
 20
374.7876050433548
 30
0.0
 40
20.99997238688657
100
AcDbArc
 50
169.0194099544933
 51
190.9805900455066
  0
ARC
  5
6D0
330
1A
100
AcDbEntity
  8
SEIHIN
  6
CONTINUOUS
100
AcDbCircle
 10
399.2785508520984
 20
374.7878155980532
 30
0.0
 40
23.50000672926868
100
AcDbArc
 50
153.4394002875411
 51
174.0184601949692
  0
LINE
  5
6D1
330
1A
100
AcDbEntity
  8
SEIHIN
  6
CONTINUOUS
100
AcDbLine
 10
375.9064893948721
 20
377.2367050433548
 30
0.0
 11
374.4145893948721
 21
377.3930050433548
 31
0.0
  0
LINE
  5
6D2
330
1A
100
AcDbEntity
  8
SEIHIN
  6
CONTINUOUS
100
AcDbLine
 10
375.8207893948721
 20
373.3780050433546
 30
0.0
 11
374.3234893948721
 21
373.2880050433548
 31
0.0
  0
LINE
  5
6D3
330
1A
100
AcDbEntity
  8
SEIHIN
  6
CONTINUOUS
100
AcDbLine
 10
371.9946893948721
 20
388.2307050433548
 30
0.0
 11
373.7878893948721
 21
387.1953050433548
 31
0.0
  0
LINE
  5
6D4
330
1A
100
AcDbEntity
  8
SEIHIN
  6
CONTINUOUS
100
AcDbLine
 10
378.2586893948721
 20
385.2957050433548
 30
0.0
 11
376.9169893948721
 21
385.9664050433547
 31
0.0
  0
LINE
  5
6D5
330
1A
100
AcDbEntity
  8
SEIHIN
  6
CONTINUOUS
100
AcDbLine
 10
380.2621893948721
 20
388.5946050433548
 30
0.0
 11
379.0483893948721
 21
389.4759050433547
 31
0.0
  0
LINE
  5
6D6
330
1A
100
AcDbEntity
  8
SEIHIN
  6
CONTINUOUS
100
AcDbLine
 10
393.2784893948721
 20
374.7876050433548
 30
0.0
 11
393.2784893948721
 21
378.7876050433548
 31
0.0
  0
LINE
  5
6D7
330
1A
100
AcDbEntity
  8
SEIHIN
  6
CONTINUOUS
100
AcDbLine
 10
395.2784893948721
 20
374.7876050433548
 30
0.0
 11
395.2784893948721
 21
378.7876050433548
 31
0.0
  0
LINE
  5
6D8
330
1A
100
AcDbEntity
  8
SEIHIN
  6
CONTINUOUS
100
AcDbLine
 10
385.2784893948721
 20
374.7876050433548
 30
0.0
 11
385.2784893948721
 21
378.7876050433548
 31
0.0
  0
LINE
  5
6D9
330
1A
100
AcDbEntity
  8
SEIHIN
  6
CONTINUOUS
100
AcDbLine
 10
383.2784893948721
 20
374.7876050433548
 30
0.0
 11
383.2784893948721
 21
378.7876050433548
 31
0.0
  0
LINE
  5
6DA
330
1A
100
AcDbEntity
  8
SEIHIN
  6
CONTINUOUS
100
AcDbLine
 10
393.2784893948721
 20
368.7876050433548
 30
0.0
 11
385.2784893948721
 21
368.7876050433548
 31
0.0
  0
LINE
  5
6DB
330
1A
100
AcDbEntity
  8
SEIHIN
  6
CONTINUOUS
100
AcDbLine
 10
393.2784893948721
 20
370.7876050433548
 30
0.0
 11
385.2784893948721
 21
370.7876050433548
 31
0.0
  0
LINE
  5
6DC
330
1A
100
AcDbEntity
  8
SEIHIN
  6
CONTINUOUS
100
AcDbLine
 10
385.2784893948721
 20
374.7876050433548
 30
0.0
 11
385.2784893948721
 21
370.7876050433548
 31
0.0
  0
LINE
  5
6DD
330
1A
100
AcDbEntity
  8
SEIHIN
  6
CONTINUOUS
100
AcDbLine
 10
383.2784893948721
 20
374.7876050433548
 30
0.0
 11
383.2784893948721
 21
370.7876050433548
 31
0.0
  0
LINE
  5
6DE
330
1A
100
AcDbEntity
  8
SEIHIN
  6
CONTINUOUS
100
AcDbLine
 10
393.2784893948721
 20
374.7876050433548
 30
0.0
 11
393.2784893948721
 21
370.7876050433548
 31
0.0
  0
LINE
  5
6DF
330
1A
100
AcDbEntity
  8
SEIHIN
  6
CONTINUOUS
100
AcDbLine
 10
395.2784893948721
 20
374.7876050433548
 30
0.0
 11
395.2784893948721
 21
370.7876050433548
 31
0.0
  0
LINE
  5
6E0
330
1A
100
AcDbEntity
  8
SEIHIN
  6
CONTINUOUS
100
AcDbLine
 10
393.2784893948721
 20
388.7876050433547
 30
0.0
 11
385.2784893948721
 21
388.7876050433547
 31
0.0
  0
LINE
  5
6E1
330
1A
100
AcDbEntity
  8
SEIHIN
  6
CONTINUOUS
100
AcDbLine
 10
393.2784893948721
 20
380.7876050433548
 30
0.0
 11
385.2784893948721
 21
380.7876050433548
 31
0.0
  0
LINE
  5
6E2
330
1A
100
AcDbEntity
  8
SEIHIN
  6
CONTINUOUS
100
AcDbLine
 10
393.2784893948721
 20
378.7876050433548
 30
0.0
 11
385.2784893948721
 21
378.7876050433548
 31
0.0
  0
LINE
  5
6E3
330
1A
100
AcDbEntity
  8
SEIHIN
  6
CONTINUOUS
100
AcDbLine
 10
385.2784893948721
 20
380.7876050433548
 30
0.0
 11
385.2784893948721
 21
388.7876050433547
 31
0.0
  0
LINE
  5
6E4
330
1A
100
AcDbEntity
  8
SEIHIN
  6
CONTINUOUS
100
AcDbLine
 10
383.2784893948721
 20
380.7876050433548
 30
0.0
 11
383.2784893948721
 21
388.3891050433546
 31
0.0
  0
LINE
  5
6E5
330
1A
100
AcDbEntity
  8
SEIHIN
  6
CONTINUOUS
100
AcDbLine
 10
393.2784893948721
 20
380.7876050433548
 30
0.0
 11
393.2784893948721
 21
388.7876050433547
 31
0.0
  0
LINE
  5
6E6
330
1A
100
AcDbEntity
  8
SEIHIN
  6
CONTINUOUS
100
AcDbLine
 10
395.2784893948721
 20
380.7876050433548
 30
0.0
 11
395.2784893948721
 21
388.7876050433547
 31
0.0
  0
LINE
  5
6E7
330
1A
100
AcDbEntity
  8
SEIHIN
  6
CONTINUOUS
100
AcDbLine
 10
403.2784893948721
 20
368.7876050433548
 30
0.0
 11
403.2784893948721
 21
360.7876050433548
 31
0.0
  0
LINE
  5
6E8
330
1A
100
AcDbEntity
  8
SEIHIN
  6
CONTINUOUS
100
AcDbLine
 10
405.2784893948722
 20
368.7876050433548
 30
0.0
 11
405.2784893948722
 21
360.7876050433548
 31
0.0
  0
LINE
  5
6E9
330
1A
100
AcDbEntity
  8
SEIHIN
  6
CONTINUOUS
100
AcDbLine
 10
413.2784893948722
 20
368.7876050433548
 30
0.0
 11
413.2784893948722
 21
360.7876050433548
 31
0.0
  0
LINE
  5
6EA
330
1A
100
AcDbEntity
  8
SEIHIN
  6
CONTINUOUS
100
AcDbLine
 10
415.2784893948721
 20
368.7876050433548
 30
0.0
 11
415.2784893948721
 21
361.1861050433548
 31
0.0
  0
ARC
  5
6EB
330
1A
100
AcDbEntity
  8
SEIHIN
  6
CONTINUOUS
100
AcDbCircle
 10
399.278454181891
 20
374.7875401475396
 30
0.0
 40
21.00000389785643
100
AcDbArc
 50
319.6325422794147
 51
343.3986383331786
  0
ARC
  5
6EC
330
1A
100
AcDbEntity
  8
SEIHIN
  6
CONTINUOUS
100
AcDbCircle
 10
399.2785331615825
 20
374.7877549903158
 30
0.0
 40
23.49993964829464
100
AcDbArc
 50
333.4386084493223
 51
354.0175592979671
  0
ARC
  5
6ED
330
1A
100
AcDbEntity
  8
SEIHIN
  6
CONTINUOUS
100
AcDbCircle
 10
399.2785302494456
 20
374.7876441236132
 30
0.0
 40
23.49997099589653
100
AcDbArc
 50
303.4387854137653
 51
324.0177705959319
  0
LINE
  5
6EE
330
1A
100
AcDbEntity
  8
SEIHIN
  6
CONTINUOUS
100
AcDbLine
 10
412.2280893948722
 20
355.1775050433548
 30
0.0
 11
413.0546893948721
 21
353.9258050433547
 31
0.0
  0
ARC
  5
6EF
330
1A
100
AcDbEntity
  8
SEIHIN
  6
CONTINUOUS
100
AcDbCircle
 10
399.2784160572966
 20
374.78756524998
 30
0.0
 40
20.99997151346557
100
AcDbArc
 50
286.6017815674013
 51
310.3676697450583
  0
LINE
  5
6F0
330
1A
100
AcDbEntity
  8
SEIHIN
  6
CONTINUOUS
100
AcDbLine
 10
405.2784893948722
 20
358.7876050433548
 30
0.0
 11
405.2784893948722
 21
354.6630050433548
 31
0.0
  0
LINE
  5
6F1
330
1A
100
AcDbEntity
  8
SEIHIN
  6
CONTINUOUS
100
AcDbLine
 10
403.2784893948721
 20
358.7876050433548
 30
0.0
 11
403.2784893948721
 21
354.1721050433548
 31
0.0
  0
ARC
  5
6F2
330
1A
100
AcDbEntity
  8
SEIHIN
  6
CONTINUOUS
100
AcDbCircle
 10
399.2784651332333
 20
374.7875991162296
 30
0.0
 40
23.50000961224453
100
AcDbArc
 50
273.4388936116472
 51
294.0181741340919
  0
ARC
  5
6F3
330
1A
100
AcDbEntity
  8
SEIHIN
  6
CONTINUOUS
100
AcDbCircle
 10
399.2784393948721
 20
346.4376050433105
 30
0.0
 40
1.999996480623491
100
AcDbArc
 50
2.022964859744703
 51
177.9770351402552
  0
LINE
  5
6F4
330
1A
100
AcDbEntity
  8
SEIHIN
  6
CONTINUOUS
100
AcDbLine
 10
401.2783893948721
 20
344.4376050433547
 30
0.0
 11
401.2783893948721
 21
346.5083050433548
 31
0.0
  0
LINE
  5
6F5
330
1A
100
AcDbEntity
  8
SEIHIN
  6
CONTINUOUS
100
AcDbLine
 10
397.2783893948721
 20
344.4376050433547
 30
0.0
 11
397.2783893948721
 21
346.5083050433548
 31
0.0
  0
LINE
  5
6F6
330
1A
100
AcDbEntity
  8
SEIHIN
  6
CONTINUOUS
100
AcDbLine
 10
397.2783893948721
 20
344.4376050433547
 30
0.0
 11
401.2783893948721
 21
344.4376050433547
 31
0.0
  0
LINE
  5
6F7
330
1A
100
AcDbEntity
  8
SEIHIN
  6
CONTINUOUS
100
AcDbLine
 10
400.6881893948721
 20
351.3299050433548
 30
0.0
 11
400.7781893948721
 21
349.8326050433548
 31
0.0
  0
LINE
  5
6F8
330
1A
100
AcDbEntity
  8
SEIHIN
  6
CONTINUOUS
100
AcDbLine
 10
408.8435893948721
 20
353.3223050433548
 30
0.0
 11
409.4541893948721
 21
351.9522050433548
 31
0.0
  0
LINE
  5
6F9
330
1A
100
AcDbEntity
  8
SEIHIN
  6
CONTINUOUS
100
AcDbLine
 10
399.2784893948721
 20
358.7876050433548
 30
0.0
 11
403.2784893948721
 21
358.7876050433548
 31
0.0
  0
LINE
  5
6FA
330
1A
100
AcDbEntity
  8
SEIHIN
  6
CONTINUOUS
100
AcDbLine
 10
399.2784893948721
 20
360.7876050433548
 30
0.0
 11
403.2784893948721
 21
360.7876050433548
 31
0.0
  0
LINE
  5
6FB
330
1A
100
AcDbEntity
  8
SEIHIN
  6
CONTINUOUS
100
AcDbLine
 10
405.2784893948722
 20
358.7876050433548
 30
0.0
 11
412.8798893948721
 21
358.7876050433548
 31
0.0
  0
LINE
  5
6FC
330
1A
100
AcDbEntity
  8
SEIHIN
  6
CONTINUOUS
100
AcDbLine
 10
405.2784893948722
 20
360.7876050433548
 30
0.0
 11
413.2784893948722
 21
360.7876050433548
 31
0.0
  0
LINE
  5
6FD
330
1A
100
AcDbEntity
  8
SEIHIN
  6
CONTINUOUS
100
AcDbLine
 10
420.2982893948721
 20
364.2796050433547
 30
0.0
 11
421.6399893948722
 21
363.6089050433548
 31
0.0
  0
LINE
  5
6FE
330
1A
100
AcDbEntity
  8
SEIHIN
  6
CONTINUOUS
100
AcDbLine
 10
418.2947893948721
 20
360.9807050433548
 30
0.0
 11
419.5085893948721
 21
360.0994050433548
 31
0.0
  0
LINE
  5
6FF
330
1A
100
AcDbEntity
  8
SEIHIN
  6
CONTINUOUS
100
AcDbLine
 10
405.2784893948722
 20
374.7876050433548
 30
0.0
 11
405.2784893948722
 21
378.7876050433548
 31
0.0
  0
LINE
  5
700
330
1A
100
AcDbEntity
  8
SEIHIN
  6
CONTINUOUS
100
AcDbLine
 10
413.2784893948722
 20
374.7876050433548
 30
0.0
 11
413.2784893948722
 21
378.7876050433548
 31
0.0
  0
LINE
  5
701
330
1A
100
AcDbEntity
  8
SEIHIN
  6
CONTINUOUS
100
AcDbLine
 10
403.2784893948721
 20
374.7876050433548
 30
0.0
 11
403.2784893948721
 21
378.7876050433548
 31
0.0
  0
LINE
  5
702
330
1A
100
AcDbEntity
  8
SEIHIN
  6
CONTINUOUS
100
AcDbLine
 10
403.2784893948721
 20
374.7876050433548
 30
0.0
 11
403.2784893948721
 21
370.7876050433548
 31
0.0
  0
LINE
  5
703
330
1A
100
AcDbEntity
  8
SEIHIN
  6
CONTINUOUS
100
AcDbLine
 10
399.2784893948721
 20
370.7876050433548
 30
0.0
 11
403.2784893948721
 21
370.7876050433548
 31
0.0
  0
LINE
  5
704
330
1A
100
AcDbEntity
  8
SEIHIN
  6
CONTINUOUS
100
AcDbLine
 10
399.2784893948721
 20
368.7876050433548
 30
0.0
 11
403.2784893948721
 21
368.7876050433548
 31
0.0
  0
LINE
  5
705
330
1A
100
AcDbEntity
  8
SEIHIN
  6
CONTINUOUS
100
AcDbLine
 10
413.2784893948722
 20
374.7876050433548
 30
0.0
 11
413.2784893948722
 21
370.7876050433548
 31
0.0
  0
LINE
  5
706
330
1A
100
AcDbEntity
  8
SEIHIN
  6
CONTINUOUS
100
AcDbLine
 10
405.2784893948722
 20
374.7876050433548
 30
0.0
 11
405.2784893948722
 21
370.7876050433548
 31
0.0
  0
LINE
  5
707
330
1A
100
AcDbEntity
  8
SEIHIN
  6
CONTINUOUS
100
AcDbLine
 10
405.2784893948722
 20
368.7876050433548
 30
0.0
 11
413.2784893948722
 21
368.7876050433548
 31
0.0
  0
LINE
  5
708
330
1A
100
AcDbEntity
  8
SEIHIN
  6
CONTINUOUS
100
AcDbLine
 10
405.2784893948722
 20
370.7876050433548
 30
0.0
 11
413.2784893948722
 21
370.7876050433548
 31
0.0
  0
LINE
  5
709
330
1A
100
AcDbEntity
  8
SEIHIN
  6
CONTINUOUS
100
AcDbLine
 10
403.2784893948721
 20
380.7876050433548
 30
0.0
 11
403.2785893948721
 21
388.7876050433547
 31
0.0
  0
LINE
  5
70A
330
1A
100
AcDbEntity
  8
SEIHIN
  6
CONTINUOUS
100
AcDbLine
 10
399.2784893948721
 20
380.7876050433548
 30
0.0
 11
403.2784893948721
 21
380.7876050433548
 31
0.0
  0
LINE
  5
70B
330
1A
100
AcDbEntity
  8
SEIHIN
  6
CONTINUOUS
100
AcDbLine
 10
399.2784893948721
 20
378.7876050433548
 30
0.0
 11
403.2784893948721
 21
378.7876050433548
 31
0.0
  0
LINE
  5
70C
330
1A
100
AcDbEntity
  8
SEIHIN
  6
CONTINUOUS
100
AcDbLine
 10
399.2785893948721
 20
388.7876050433547
 30
0.0
 11
403.2785893948721
 21
388.7876050433547
 31
0.0
  0
LINE
  5
70D
330
1A
100
AcDbEntity
  8
SEIHIN
  6
CONTINUOUS
100
AcDbLine
 10
413.2784893948722
 20
380.7876050433548
 30
0.0
 11
413.2785893948721
 21
388.7876050433547
 31
0.0
  0
LINE
  5
70E
330
1A
100
AcDbEntity
  8
SEIHIN
  6
CONTINUOUS
100
AcDbLine
 10
405.2784893948722
 20
380.7876050433548
 30
0.0
 11
405.2784893948722
 21
388.7876050433547
 31
0.0
  0
LINE
  5
70F
330
1A
100
AcDbEntity
  8
SEIHIN
  6
CONTINUOUS
100
AcDbLine
 10
405.2784893948722
 20
380.7876050433548
 30
0.0
 11
413.2784893948722
 21
380.7876050433548
 31
0.0
  0
LINE
  5
710
330
1A
100
AcDbEntity
  8
SEIHIN
  6
CONTINUOUS
100
AcDbLine
 10
405.2784893948722
 20
378.7876050433548
 30
0.0
 11
413.2784893948722
 21
378.7876050433548
 31
0.0
  0
LINE
  5
711
330
1A
100
AcDbEntity
  8
SEIHIN
  6
CONTINUOUS
100
AcDbLine
 10
405.2784893948722
 20
388.7876050433547
 30
0.0
 11
413.2785893948721
 21
388.7876050433547
 31
0.0
  0
ARC
  5
712
330
1A
100
AcDbEntity
  8
SEIHIN
  6
CONTINUOUS
100
AcDbCircle
 10
399.2784993070165
 20
374.7875644701101
 30
0.0
 40
23.50001261152263
100
AcDbArc
 50
3.439177265114342
 51
24.01821441494353
  0
ARC
  5
713
330
1A
100
AcDbEntity
  8
SEIHIN
  6
CONTINUOUS
100
AcDbCircle
 10
399.2784893947549
 20
374.7875550433547
 30
0.0
 40
20.99998191088102
100
AcDbArc
 50
349.0192760334981
 51
10.98072396650185
  0
LINE
  5
714
330
1A
100
AcDbEntity
  8
SEIHIN
  6
CONTINUOUS
100
AcDbLine
 10
415.2784893948721
 20
374.7876050433548
 30
0.0
 11
415.2784893948721
 21
378.7876050433548
 31
0.0
  0
LINE
  5
715
330
1A
100
AcDbEntity
  8
SEIHIN
  6
CONTINUOUS
100
AcDbLine
 10
415.2784893948721
 20
374.7876050433548
 30
0.0
 11
415.2784893948721
 21
370.7876050433548
 31
0.0
  0
LINE
  5
716
330
1A
100
AcDbEntity
  8
SEIHIN
  6
CONTINUOUS
100
AcDbLine
 10
415.2784893948721
 20
368.7876050433548
 30
0.0
 11
419.403089394872
 21
368.7876050433548
 31
0.0
  0
LINE
  5
717
330
1A
100
AcDbEntity
  8
SEIHIN
  6
CONTINUOUS
100
AcDbLine
 10
415.2784893948721
 20
370.7876050433548
 30
0.0
 11
419.8939893948721
 21
370.7876050433548
 31
0.0
  0
LINE
  5
718
330
1A
100
AcDbEntity
  8
SEIHIN
  6
CONTINUOUS
100
AcDbLine
 10
422.650489394872
 20
372.3386050433548
 30
0.0
 11
424.142389394872
 21
372.1823050433548
 31
0.0
  0
LINE
  5
719
330
1A
100
AcDbEntity
  8
SEIHIN
  6
CONTINUOUS
100
AcDbLine
 10
422.736189394872
 20
376.1973050433546
 30
0.0
 11
424.233489394872
 21
376.2873050433547
 31
0.0
  0
LINE
  5
71A
330
1A
100
AcDbEntity
  8
SEIHIN
  6
CONTINUOUS
100
AcDbLine
 10
420.7437893948721
 20
384.3527050433547
 30
0.0
 11
422.1138893948721
 21
384.9633050433548
 31
0.0
  0
LINE
  5
71B
330
1A
100
AcDbEntity
  8
SEIHIN
  6
CONTINUOUS
100
AcDbLine
 10
415.2784893948721
 20
380.7876050433548
 30
0.0
 11
415.2784893948721
 21
388.3890050433548
 31
0.0
  0
ARC
  5
71C
330
1A
100
AcDbEntity
  8
SEIHIN
  6
CONTINUOUS
100
AcDbCircle
 10
399.2784541818914
 20
374.7876699391699
 30
0.0
 40
21.00000389785609
100
AcDbArc
 50
16.60136166682192
 51
40.36745772058582
  0
LINE
  5
71D
330
1A
100
AcDbEntity
  8
SEIHIN
  6
CONTINUOUS
100
AcDbLine
 10
415.2784893948721
 20
380.7876050433548
 30
0.0
 11
419.403089394872
 21
380.7876050433548
 31
0.0
  0
LINE
  5
71E
330
1A
100
AcDbEntity
  8
SEIHIN
  6
CONTINUOUS
100
AcDbLine
 10
415.2784893948721
 20
378.7876050433548
 30
0.0
 11
419.8939893948721
 21
378.7876050433548
 31
0.0
  0
LINE
  5
71F
330
1A
100
AcDbEntity
  8
SEIHIN
  6
CONTINUOUS
100
AcDbLine
 10
418.8885893948721
 20
387.7373050433547
 30
0.0
 11
420.1402893948722
 21
388.5639050433546
 31
0.0
  0
LINE
  5
720
330
1A
100
AcDbEntity
  8
SEIHIN
  6
CONTINUOUS
100
AcDbLine
 10
426.5623893948721
 20
388.2305050433548
 30
0.0
 11
424.769189394872
 21
387.1951050433547
 31
0.0
  0
LINE
  5
721
330
1A
100
AcDbEntity
  8
SEIHIN
  6
CONTINUOUS
100
AcDbLine
 10
399.2784893948721
 20
390.7876050433547
 30
0.0
 11
395.2784893948721
 21
390.7876050433547
 31
0.0
  0
ARC
  5
722
330
1A
100
AcDbEntity
  8
SEIHIN
  6
CONTINUOUS
100
AcDbCircle
 10
399.2784893948721
 20
374.7876050433546
 30
0.0
 40
20.99997238688675
100
AcDbArc
 50
79.01940995449336
 51
100.9805900455066
  0
ARC
  5
723
330
1A
100
AcDbEntity
  8
SEIHIN
  6
CONTINUOUS
100
AcDbCircle
 10
399.2785299681167
 20
374.7876149555011
 30
0.0
 40
23.50001261152091
100
AcDbArc
 50
93.43917726511453
 51
114.0182144149464
  0
ARC
  5
724
330
1A
100
AcDbEntity
  8
SEIHIN
  6
CONTINUOUS
100
AcDbCircle
 10
399.278517797771
 20
374.7876050426739
 30
0.0
 40
28.35002042370863
100
AcDbArc
 50
34.04284208571371
 51
145.9544749566662
  0
LINE
  5
725
330
1A
100
AcDbEntity
  8
SEIHIN
  6
CONTINUOUS
100
AcDbLine
 10
373.994689394872
 20
391.6948050433548
 30
0.0
 11
375.7878893948721
 21
390.6594050433548
 31
0.0
  0
LINE
  5
726
330
1A
100
AcDbEntity
  8
SEIHIN
  6
CONTINUOUS
100
AcDbLine
 10
393.2784893948721
 20
390.7876050433547
 30
0.0
 11
385.6769893948722
 21
390.7876050433547
 31
0.0
  0
ARC
  5
727
330
1A
100
AcDbEntity
  8
SEIHIN
  6
CONTINUOUS
100
AcDbCircle
 10
399.278424499057
 20
374.7875698303738
 30
0.0
 40
21.0000038978564
100
AcDbArc
 50
106.6013616668219
 51
130.3674577205857
  0
LINE
  5
728
330
1A
100
AcDbEntity
  8
SEIHIN
  6
CONTINUOUS
100
AcDbLine
 10
386.328889394872
 20
394.3977050433547
 30
0.0
 11
385.5022893948722
 21
395.6495050433547
 31
0.0
  0
LINE
  5
729
330
1A
100
AcDbEntity
  8
SEIHIN
  6
CONTINUOUS
100
AcDbLine
 10
395.2784893948721
 20
390.7876050433547
 30
0.0
 11
395.2784893948721
 21
395.4031050433547
 31
0.0
  0
LINE
  5
72A
330
1A
100
AcDbEntity
  8
SEIHIN
  6
CONTINUOUS
100
AcDbLine
 10
393.2784893948721
 20
390.7876050433547
 30
0.0
 11
393.2784893948721
 21
394.9122050433548
 31
0.0
  0
LINE
  5
72B
330
1A
100
AcDbEntity
  8
SEIHIN
  6
CONTINUOUS
100
AcDbLine
 10
389.7133893948721
 20
396.2529050433548
 30
0.0
 11
389.1028893948722
 21
397.6230050433548
 31
0.0
  0
LINE
  5
72C
330
1A
100
AcDbEntity
  8
SEIHIN
  6
CONTINUOUS
100
AcDbLine
 10
413.0853893948721
 20
393.8039050433548
 30
0.0
 11
413.9666893948721
 21
395.0177050433548
 31
0.0
  0
ARC
  5
72D
330
1A
100
AcDbEntity
  8
SEIHIN
  6
CONTINUOUS
100
AcDbCircle
 10
399.2786078001575
 20
374.7875704834518
 30
0.0
 40
23.49997916029364
100
AcDbArc
 50
63.43938808491128
 51
84.0184723975852
  0
LINE
  5
72E
330
1A
100
AcDbEntity
  8
SEIHIN
  6
CONTINUOUS
100
AcDbLine
 10
403.2785893948721
 20
390.7876050433547
 30
0.0
 11
403.2785893948721
 21
395.4031050433547
 31
0.0
  0
LINE
  5
72F
330
1A
100
AcDbEntity
  8
SEIHIN
  6
CONTINUOUS
100
AcDbLine
 10
399.2785893948721
 20
390.7876050433547
 30
0.0
 11
403.2785893948721
 21
390.7876050433547
 31
0.0
  0
LINE
  5
730
330
1A
100
AcDbEntity
  8
SEIHIN
  6
CONTINUOUS
100
AcDbLine
 10
401.727589394872
 20
398.1596050433548
 30
0.0
 11
401.8838893948721
 21
399.6515050433548
 31
0.0
  0
LINE
  5
731
330
1A
100
AcDbEntity
  8
SEIHIN
  6
CONTINUOUS
100
AcDbLine
 10
397.8688893948721
 20
398.2453050433548
 30
0.0
 11
397.7788893948721
 21
399.7426050433546
 31
0.0
  0
LINE
  5
732
330
1A
100
AcDbEntity
  8
SEIHIN
  6
CONTINUOUS
100
AcDbLine
 10
405.2784893948722
 20
390.7876050433547
 30
0.0
 11
405.2784893948722
 21
394.9122050433548
 31
0.0
  0
LINE
  5
733
330
1A
100
AcDbEntity
  8
SEIHIN
  6
CONTINUOUS
100
AcDbLine
 10
409.7865893948721
 20
395.8074050433548
 30
0.0
 11
410.4572893948722
 21
397.1491050433547
 31
0.0
  0
ARC
  5
734
330
1A
100
AcDbEntity
  8
SEIHIN
  6
CONTINUOUS
100
AcDbCircle
 10
399.2785542906872
 20
374.7875698303737
 30
0.0
 40
21.00000389785652
100
AcDbArc
 50
49.6325422794144
 51
73.3986383331783
  0
LINE
  5
735
330
1A
100
AcDbEntity
  8
SEIHIN
  6
CONTINUOUS
100
AcDbLine
 10
405.2784893948722
 20
390.7876050433547
 30
0.0
 11
412.8799893948722
 21
390.7876050433547
 31
0.0
  0
LINE
  5
736
330
1A
100
AcDbEntity
  8
SEIHIN
  6
CONTINUOUS
100
AcDbLine
 10
424.5623893948722
 20
391.6946050433546
 30
0.0
 11
422.7691893948721
 21
390.6593050433548
 31
0.0
  0
ARC
  5
737
330
1A
100
AcDbEntity
  8
SEIHIN
  6
CONTINUOUS
100
AcDbCircle
 10
377.8430592946674
 20
220.2878050434788
 30
0.0
 40
1.5
100
AcDbArc
 50
89.99973270113256
 51
170.1079770346935
  0
CIRCLE
  5
7D7
330
1A
100
AcDbEntity
  8
SEIHIN
  6
CONTINUOUS
100
AcDbCircle
 10
192.6592012393832
 20
374.7876055513874
 30
0.0
 40
44.99940054340462
  0
CIRCLE
  5
7D8
330
1A
100
AcDbEntity
  8
SEIHIN
  6
CONTINUOUS
100
AcDbCircle
 10
192.6592012393832
 20
374.7876055513874
 30
0.0
 40
33.79980054338723
  0
CIRCLE
  5
7DA
330
1A
100
AcDbEntity
  8
SEIHIN
  6
CONTINUOUS
100
AcDbCircle
 10
192.6592012393832
 20
374.7876055513874
 30
0.0
 40
29.99940054338129
  0
ARC
  5
7DB
330
1A
100
AcDbEntity
  8
SEIHIN
  6
CONTINUOUS
100
AcDbCircle
 10
192.6592012393833
 20
374.7876055513874
 30
0.0
 40
28.37450054337873
100
AcDbArc
 50
333.6275984852237
 51
24.6278832155502
  0
CIRCLE
  5
7DC
330
1A
100
AcDbEntity
  8
SEIHIN
  6
CONTINUOUS
100
AcDbCircle
 10
192.6592012393832
 20
374.7876055513874
 30
0.0
 40
25.49940054337436
  0
LINE
  5
7DF
330
1A
100
AcDbEntity
  8
SEIHIN
  6
CONTINUOUS
100
AcDbLine
 10
190.8639112306166
 20
403.1052540213896
 30
0.0
 11
190.7611017827185
 21
404.7268983188332
 31
0.0
  0
LINE
  5
7E0
330
1A
100
AcDbEntity
  8
SEIHIN
  6
CONTINUOUS
100
AcDbLine
 10
169.5223608558078
 20
391.2131618022774
 30
0.0
 11
168.1974017827184
 21
392.1537910941062
 31
0.0
  0
LINE
  5
7E1
330
1A
100
AcDbEntity
  8
SEIHIN
  6
CONTINUOUS
100
AcDbLine
 10
169.0330432933071
 20
359.074014561634
 30
0.0
 11
167.6800628597679
 21
358.1741568192833
 31
0.0
  0
LINE
  5
7E2
330
1A
100
AcDbEntity
  8
SEIHIN
  6
CONTINUOUS
100
AcDbLine
 10
190.00267244661
 20
346.5377358904603
 30
0.0
 11
189.8505431208872
 21
344.9199730282757
 31
0.0
  0
LINE
  5
7E3
330
1A
100
AcDbEntity
  8
SEIHIN
  6
CONTINUOUS
100
AcDbLine
 10
218.0806491942261
 20
362.1835480711385
 30
0.0
 11
219.5364390756634
 21
361.4617615160456
 31
0.0
  0
LINE
  5
7E4
330
1A
100
AcDbEntity
  8
SEIHIN
  6
CONTINUOUS
100
AcDbLine
 10
218.4525704157321
 20
386.6119189614244
 30
0.0
 11
219.9296588145443
 21
387.2890525317801
 31
0.0
  0
ARC
  5
7E5
330
1A
100
AcDbEntity
  8
SEIHIN
  6
CONTINUOUS
100
AcDbCircle
 10
192.6592012393833
 20
374.7876055513874
 30
0.0
 40
28.37450054337873
100
AcDbArc
 50
93.62759848521355
 51
144.6278832155524
  0
ARC
  5
7E6
330
1A
100
AcDbEntity
  8
SEIHIN
  6
CONTINUOUS
100
AcDbCircle
 10
192.6592012393833
 20
374.7876055513874
 30
0.0
 40
28.37450054337873
100
AcDbArc
 50
213.6275984852134
 51
264.6278832155526
  0
LINE
  5
7EC
330
1A
100
AcDbEntity
  8
SEIHIN
  6
CONTINUOUS
100
AcDbLine
 10
429.2782615764582
 20
198.7875050422067
 30
0.0
 11
369.278261576458
 21
198.7878050422068
 31
0.0
  0
LINE
  5
7ED
330
1A
100
AcDbEntity
  8
SEIHIN
  6
CONTINUOUS
100
AcDbLine
 10
370.903161576458
 20
185.7878050422068
 30
0.0
 11
427.6529615764583
 21
185.7875050422067
 31
0.0
  0
LINE
  5
7EE
330
1A
100
AcDbEntity
  8
SEIHIN
  6
CONTINUOUS
100
AcDbLine
 10
429.2779615764581
 20
186.7879050422068
 30
0.0
 11
369.278261576458
 21
186.7882050422067
 31
0.0
  0
LINE
  5
7FB
330
1A
100
AcDbEntity
  8
SEIHIN
  6
CONTINUOUS
100
AcDbLine
 10
428.278161576458
 20
204.9875050422068
 30
0.0
 11
370.2780615764581
 21
204.9878050422067
 31
0.0
  0
LINE
  5
7FC
330
1A
100
AcDbEntity
  8
SEIHIN
  6
CONTINUOUS
100
AcDbLine
 10
370.903161576458
 20
198.7874050422067
 30
0.0
 11
370.903161576458
 21
204.9875050422068
 31
0.0
  0
LINE
  5
801
330
1A
100
AcDbEntity
  8
SEIHIN
  6
CONTINUOUS
100
AcDbLine
 10
370.903161576458
 20
186.7878050422068
 30
0.0
 11
370.903161576458
 21
185.7878050422068
 31
0.0
  0
ARC
  5
813
330
1A
100
AcDbEntity
  8
SEIHIN
  6
CONTINUOUS
100
AcDbCircle
 10
370.2780615764581
 20
205.9878050422069
 30
0.0
 40
1.000000000000113
100
AcDbArc
 50
180.0
 51
270.0
  0
ARC
  5
814
330
1A
100
AcDbEntity
  8
SEIHIN
  6
CONTINUOUS
100
AcDbCircle
 10
428.278161576458
 20
205.9875050422068
 30
0.0
 40
1.0
100
AcDbArc
 50
270.0
 51
0.0
  0
LINE
  5
820
330
1A
100
AcDbEntity
  8
SEIHIN
  6
CONTINUOUS
100
AcDbLine
 10
427.653061576458
 20
198.7874050422067
 30
0.0
 11
427.653061576458
 21
204.9875050422068
 31
0.0
  0
LINE
  5
825
330
1A
100
AcDbEntity
  8
SEIHIN
  6
CONTINUOUS
 62
     4
100
AcDbLine
 10
427.6529615764583
 20
198.7875131687066
 30
0.0
 11
427.6529615764583
 21
186.7879131672474
 31
0.0
  0
LINE
  5
829
330
1A
100
AcDbEntity
  8
SEIHIN
  6
CONTINUOUS
100
AcDbLine
 10
429.2778615764584
 20
198.7875050442067
 30
0.0
 11
429.2778615764583
 21
186.7878050422068
 31
0.0
  0
LINE
  5
82D
330
1A
100
AcDbEntity
  8
SEIHIN
  6
CONTINUOUS
100
AcDbLine
 10
429.278161576458
 20
206.7874050422068
 30
0.0
 11
429.278161576458
 21
205.9875050422068
 31
0.0
  0
LINE
  5
82E
330
1A
100
AcDbEntity
  8
SEIHIN
  6
CONTINUOUS
100
AcDbLine
 10
369.278061576458
 20
206.7874050422068
 30
0.0
 11
369.278061576458
 21
205.9878050422069
 31
0.0
  0
LINE
  5
82F
330
1A
100
AcDbEntity
  8
SEIHIN
  6
CONTINUOUS
100
AcDbLine
 10
427.6529615764583
 20
186.7879131672474
 30
0.0
 11
427.6529615764583
 21
185.7877050422068
 31
0.0
  0
LINE
  5
830
330
1A
100
AcDbEntity
  8
SEIHIN
  6
CONTINUOUS
 62
     4
100
AcDbLine
 10
370.9031406998812
 20
198.7875872136489
 30
0.0
 11
370.9031093866656
 21
186.7879872122306
 31
0.0
  0
LINE
  5
831
330
1A
100
AcDbEntity
  8
SEIHIN
  6
CONTINUOUS
100
AcDbLine
 10
369.2782406998655
 20
198.7875833293606
 30
0.0
 11
369.2782093863889
 21
186.7878833274016
 31
0.0
  0
DIMENSION
  5
848
330
1A
100
AcDbEntity
  8
SUNPOU
  6
CONTINUOUS
100
AcDbDimension
  2
*D1
 10
142.6588026257582
 20
246.8078967556666
 30
0.0
 11
192.6588026257582
 21
251.8078967556666
 31
0.0
 12
0.0
 22
-20.0
 32
0.0
 70
    32
  1
φ<>
  3
STANDARD
100
AcDbAlignedDimension
 13
242.6588026257582
 23
224.7873050433548
 33
0.0
 14
142.6588026257582
 24
224.7879050433548
 34
0.0
100
AcDbRotatedDimension
1001
ACAD
1000
DSTYLE
1002
{
1070
   140
1040
6.0
1070
    74
1070
     0
1070
   172
1070
     1
1070
    73
1070
     0
1070
   272
1070
     2
1070
    77
1070
     3
1070
   173
1070
     1
1070
   147
1040
2.0
1070
    42
1040
6.0
1070
    44
1040
3.0
1070
    43
1040
14.0
1070
   271
1070
     0
1070
   178
1070
     4
1070
   177
1070
     4
1070
   176
1070
     4
1070
   141
1040
150.0
1070
     7
1000
_OPEN
1070
     6
1000
_OPEN
1070
    41
1040
7.0
1002
}
  0
DIMENSION
  5
855
330
1A
100
AcDbEntity
  8
SUNPOU
  6
CONTINUOUS
100
AcDbDimension
  2
*D2
 10
160.8586026257583
 20
153.8423717518599
 30
0.0
 11
192.6586026257582
 21
158.8423717518599
 31
0.0
 12
0.0
 22
-20.0
 32
0.0
 70
    32
  1
φ<>
  3
STANDARD
100
AcDbAlignedDimension
 13
224.4586026257582
 23
177.9873050433547
 33
0.0
 14
160.8586026257583
 24
177.9875050433548
 34
0.0
100
AcDbRotatedDimension
1001
ACAD
1000
DSTYLE
1002
{
1070
   140
1040
6.0
1070
    74
1070
     0
1070
   172
1070
     1
1070
    73
1070
     0
1070
   272
1070
     2
1070
    77
1070
     3
1070
   173
1070
     1
1070
   147
1040
2.0
1070
    42
1040
6.0
1070
    44
1040
3.0
1070
    43
1040
14.0
1070
   271
1070
     0
1070
   178
1070
     4
1070
   177
1070
     4
1070
   176
1070
     4
1070
   141
1040
150.0
1070
     7
1000
_OPEN
1070
     6
1000
_OPEN
1070
    41
1040
7.0
1002
}
  0
DIMENSION
  5
862
330
1A
100
AcDbEntity
  8
SUNPOU
  6
CONTINUOUS
100
AcDbDimension
  2
*D3
 10
260.7926179721284
 20
177.9873050433547
 30
0.0
 11
255.7926179721284
 21
200.2373050433547
 31
0.0
 12
0.0
 22
-20.0
 32
0.0
 70
    32
  3
STANDARD
100
AcDbAlignedDimension
 13
238.6588026257582
 23
222.4873050433547
 33
0.0
 14
224.4586026257582
 24
177.9873050433547
 34
0.0
 50
90.0
100
AcDbRotatedDimension
1001
ACAD
1000
DSTYLE
1002
{
1070
   140
1040
6.0
1070
    74
1070
     0
1070
   172
1070
     1
1070
    73
1070
     0
1070
   272
1070
     2
1070
    77
1070
     3
1070
   173
1070
     1
1070
   147
1040
2.0
1070
    42
1040
6.0
1070
    44
1040
3.0
1070
    43
1040
14.0
1070
   271
1070
     0
1070
   178
1070
     4
1070
   177
1070
     4
1070
   176
1070
     4
1070
   141
1040
150.0
1070
     7
1000
_OPEN
1070
     6
1000
_OPEN
1070
    41
1040
7.0
1002
}
  0
DIMENSION
  5
86F
330
1A
100
AcDbEntity
  8
SUNPOU
  6
CONTINUOUS
100
AcDbDimension
  2
*D4
 10
282.9320008817635
 20
177.9873050433547
 30
0.0
 11
277.9320008817635
 21
201.3873050433547
 31
0.0
 12
0.0
 22
-20.0
 32
0.0
 70
    32
  3
STANDARD
100
AcDbAlignedDimension
 13
242.6588026257582
 23
224.7873050433548
 33
0.0
 14
224.4586026257582
 24
177.9873050433547
 34
0.0
 50
90.0
100
AcDbRotatedDimension
1001
ACAD
1000
DSTYLE
1002
{
1070
   140
1040
6.0
1070
    74
1070
     0
1070
   172
1070
     1
1070
    73
1070
     0
1070
   272
1070
     2
1070
    77
1070
     3
1070
   173
1070
     1
1070
   147
1040
2.0
1070
    42
1040
6.0
1070
    44
1040
3.0
1070
    43
1040
14.0
1070
   271
1070
     0
1070
   178
1070
     4
1070
   177
1070
     4
1070
   176
1070
     4
1070
   141
1040
150.0
1070
     7
1000
_OPEN
1070
     6
1000
_OPEN
1070
    41
1040
7.0
1002
}
  0
DIMENSION
  5
8BE
330
1A
100
AcDbEntity
  8
SUNPOU
  6
CONTINUOUS
100
AcDbDimension
  2
*D5
 10
369.2782093863889
 20
162.5198020928878
 30
0.0
 11
399.2780354814236
 21
167.5198020928878
 31
0.0
 12
0.0
 22
-20.0
 32
0.0
 70
    32
  1
φ<>
  3
STANDARD
100
AcDbAlignedDimension
 13
429.2778615764583
 23
186.7878050422068
 33
0.0
 14
369.2782093863889
 24
186.7878833274016
 34
0.0
100
AcDbRotatedDimension
1001
ACAD
1000
DSTYLE
1002
{
1070
   140
1040
6.0
1070
    74
1070
     0
1070
   172
1070
     1
1070
    73
1070
     0
1070
   272
1070
     2
1070
    77
1070
     3
1070
   173
1070
     1
1070
   147
1040
2.0
1070
    42
1040
6.0
1070
    44
1040
3.0
1070
    43
1040
14.0
1070
   271
1070
     0
1070
   178
1070
     4
1070
   177
1070
     4
1070
   176
1070
     4
1070
   141
1040
150.0
1070
     7
1000
_OPEN
1070
     6
1000
_OPEN
1070
    41
1040
7.0
1002
}
  0
DIMENSION
  5
8DC
330
1A
100
AcDbEntity
  8
SUNPOU
  6
CONTINUOUS
100
AcDbDimension
  2
*D6
 10
480.4954064323774
 20
185.7875050422067
 30
0.0
 11
475.4954064323774
 21
196.2874550427807
 31
0.0
 12
0.0
 22
-20.0
 32
0.0
 70
    32
  3
STANDARD
100
AcDbAlignedDimension
 13
444.278089394872
 23
206.7874050433548
 33
0.0
 14
427.6529615764583
 24
185.7875050422067
 34
0.0
 50
90.0
100
AcDbRotatedDimension
1001
ACAD
1000
DSTYLE
1002
{
1070
   140
1040
6.0
1070
    74
1070
     0
1070
   172
1070
     1
1070
    73
1070
     0
1070
   272
1070
     2
1070
    77
1070
     3
1070
   173
1070
     1
1070
   147
1040
2.0
1070
    42
1040
6.0
1070
    44
1040
3.0
1070
    43
1040
14.0
1070
   271
1070
     0
1070
   178
1070
     4
1070
   177
1070
     4
1070
   176
1070
     4
1070
   141
1040
150.0
1070
     7
1000
_OPEN
1070
     6
1000
_OPEN
1070
    41
1040
7.0
1002
}
  0
DIMENSION
  5
8E9
330
1A
100
AcDbEntity
  8
SUNPOU
  6
CONTINUOUS
100
AcDbDimension
  2
*D7
 10
498.8647443951986
 20
185.7875050422067
 30
0.0
 11
493.8647443951985
 21
203.7875550427807
 31
0.0
 12
0.0
 22
-20.0
 32
0.0
 70
    32
  3
STANDARD
100
AcDbAlignedDimension
 13
420.713289394872
 23
221.7876050433547
 33
0.0
 14
427.6529615764583
 24
185.7875050422067
 34
0.0
 50
90.0
100
AcDbRotatedDimension
1001
ACAD
1000
DSTYLE
1002
{
1070
   140
1040
6.0
1070
    74
1070
     0
1070
   172
1070
     1
1070
    73
1070
     0
1070
   272
1070
     2
1070
    77
1070
     3
1070
   173
1070
     1
1070
   147
1040
2.0
1070
    42
1040
6.0
1070
    44
1040
3.0
1070
    43
1040
14.0
1070
   271
1070
     0
1070
   178
1070
     4
1070
   177
1070
     4
1070
   176
1070
     4
1070
   141
1040
150.0
1070
     7
1000
_OPEN
1070
     6
1000
_OPEN
1070
    41
1040
7.0
1002
}
  0
DIMENSION
  5
8F6
330
1A
100
AcDbEntity
  8
SUNPOU
  6
CONTINUOUS
100
AcDbDimension
  2
*D8
 10
376.5820003815807
 20
238.4719869112836
 30
0.0
 11
399.2779991398956
 21
243.4719869112837
 31
0.0
 12
0.0
 22
-20.0
 32
0.0
 70
    32
  1
φ<>
  3
STANDARD
100
AcDbAlignedDimension
 13
421.9739978982105
 23
221.7875991618402
 33
0.0
 14
376.5820003815807
 24
221.7878109266444
 34
0.0
100
AcDbRotatedDimension
1001
ACAD
1000
DSTYLE
1002
{
1070
   140
1040
6.0
1070
    74
1070
     0
1070
   172
1070
     1
1070
    73
1070
     0
1070
   272
1070
     2
1070
    77
1070
     3
1070
   173
1070
     1
1070
   147
1040
2.0
1070
    42
1040
6.0
1070
    44
1040
3.0
1070
    43
1040
14.0
1070
   271
1070
     0
1070
   178
1070
     4
1070
   177
1070
     4
1070
   176
1070
     4
1070
   141
1040
150.0
1070
     7
1000
_OPEN
1070
     6
1000
_OPEN
1070
    41
1040
7.0
1002
}
  0
DIMENSION
  5
903
330
1A
100
AcDbEntity
  8
SUNPOU
  6
CONTINUOUS
100
AcDbDimension
  2
*D9
 10
354.2778893948721
 20
257.7511620721788
 30
0.0
 11
399.277989394872
 21
262.7511620721788
 31
0.0
 12
0.0
 22
-20.0
 32
0.0
 70
    32
  1
φ<>
  3
STANDARD
100
AcDbAlignedDimension
 13
444.278089394872
 23
207.7874050433548
 33
0.0
 14
354.2778893948721
 24
207.7877050433547
 34
0.0
100
AcDbRotatedDimension
1001
ACAD
1000
DSTYLE
1002
{
1070
   140
1040
6.0
1070
    74
1070
     0
1070
   172
1070
     1
1070
    73
1070
     0
1070
   272
1070
     2
1070
    77
1070
     3
1070
   173
1070
     1
1070
   147
1040
2.0
1070
    42
1040
6.0
1070
    44
1040
3.0
1070
    43
1040
14.0
1070
   271
1070
     0
1070
   178
1070
     4
1070
   177
1070
     4
1070
   176
1070
     4
1070
   141
1040
150.0
1070
     7
1000
_OPEN
1070
     6
1000
_OPEN
1070
    41
1040
7.0
1002
}
  0
DIMENSION
  5
975
330
1A
100
AcDbEntity
  8
SUNPOU
  6
CONTINUOUS
100
AcDbDimension
  2
*D10
 10
462.6015163385264
 20
206.7874050433548
 30
0.0
 11
462.6015163385264
 21
193.7874050433548
 31
0.0
 12
0.0
 22
-20.0
 32
0.0
 70
   160
  3
STANDARD
100
AcDbAlignedDimension
 13
440.2780893948722
 23
208.5874050433548
 33
0.0
 14
444.278089394872
 24
206.7874050433548
 34
0.0
 50
90.0
100
AcDbRotatedDimension
1001
ACAD
1000
DSTYLE
1002
{
1070
   288
1070
     1
1070
   140
1040
6.0
1070
    74
1070
     0
1070
   172
1070
     1
1070
    73
1070
     0
1070
   272
1070
     2
1070
    77
1070
     3
1070
   173
1070
     1
1070
   147
1040
2.0
1070
    42
1040
6.0
1070
    44
1040
3.0
1070
    43
1040
14.0
1070
   271
1070
     0
1070
   178
1070
     4
1070
   177
1070
     4
1070
   176
1070
     4
1070
   141
1040
150.0
1070
     7
1000
_OPEN
1070
     6
1000
_OPEN
1070
    41
1040
7.0
1002
}
  0
DIMENSION
  5
9C1
330
1A
100
AcDbEntity
  8
SUNPOU
  6
CONTINUOUS
100
AcDbDimension
  2
*D11
 10
605.3605261619434
 20
258.809047665728
 30
0.0
 11
635.8605261619434
 21
263.809047665728
 31
0.0
 12
-49.61800787943412
 22
-24.23876313906703
 32
0.0
 70
    32
  1
穴径 φ<>
  3
STANDARD
100
AcDbAlignedDimension
 13
666.3605261619434
 23
291.623754778852
 33
0.0
 14
605.3605261619434
 24
291.8478134756534
 34
0.0
100
AcDbRotatedDimension
1001
ACAD
1000
DSTYLE
1002
{
1070
   140
1040
6.0
1070
    74
1070
     0
1070
   172
1070
     1
1070
    73
1070
     0
1070
   272
1070
     2
1070
    77
1070
     3
1070
   173
1070
     1
1070
   147
1040
2.0
1070
    42
1040
6.0
1070
    44
1040
3.0
1070
    43
1040
14.0
1070
   271
1070
     0
1070
   178
1070
     4
1070
   177
1070
     4
1070
   176
1070
     4
1070
   141
1040
150.0
1070
     7
1000
_OPEN
1070
     6
1000
_OPEN
1070
    41
1040
7.0
1002
}
  0
LINE
  5
A04
330
1A
100
AcDbEntity
  8
NOKITOI
  6
CONTINUOUS
 62
     6
100
AcDbLine
 10
578.3607261619431
 20
302.2485585736144
 30
0.0
 11
605.3607261619431
 21
302.2487385736144
 31
0.0
  0
LINE
  5
A05
330
1A
100
AcDbEntity
  8
NOKITOI
  6
CONTINUOUS
 62
     6
100
AcDbLine
 10
578.3607261619431
 20
299.7485585735588
 30
0.0
 11
605.3607261619433
 21
299.7487385735588
 31
0.0
  0
LINE
  5
A06
330
1A
100
AcDbEntity
  8
NOKITOI
  6
CONTINUOUS
 62
     6
100
AcDbLine
 10
605.3607261619433
 20
302.2487385736143
 30
0.0
 11
605.3607261619433
 21
299.7487385735588
 31
0.0
  0
LINE
  5
A08
330
1A
100
AcDbEntity
  8
NOKITOI
  6
CONTINUOUS
 62
     6
100
AcDbLine
 10
693.3603261619436
 20
302.2485585736144
 30
0.0
 11
666.3603261619437
 21
302.2487385736144
 31
0.0
  0
LINE
  5
A09
330
1A
100
AcDbEntity
  8
NOKITOI
  6
CONTINUOUS
 62
     6
100
AcDbLine
 10
693.3603261619436
 20
299.7485585735588
 30
0.0
 11
666.3603261619435
 21
299.7487385735588
 31
0.0
  0
LINE
  5
A0A
330
1A
100
AcDbEntity
  8
NOKITOI
  6
CONTINUOUS
 62
     6
100
AcDbLine
 10
666.3603261619435
 20
302.2487385736143
 30
0.0
 11
666.3603261619435
 21
299.7487385735588
 31
0.0
  0
VIEWPORT
  5
22
330
17
100
AcDbEntity
 67
     1
  8
0
100
AcDbViewport
 10
313.6808219178082
 20
148.5
 30
0.0
 40
627.3616438356165
 41
297.0
 68
     2
 69
     1
1001
ACAD
1000
MVIEW
1002
{
1070
    16
1010
0.0
1020
0.0
1030
0.0
1010
0.0
1020
0.0
1030
1.0
1040
0.0
1040
297.0
1040
313.6808219178082
1040
148.5
1040
50.0
1040
0.0
1040
0.0
1070
     0
1070
   100
1070
     1
1070
     0
1070
     0
1070
     0
1070
     0
1070
     0
1040
0.0
1040
0.0
1040
0.0
1040
1.0
1040
1.0
1040
10.0
1040
10.0
1070
     0
1002
{
1002
}
1002
}
  0
VIEWPORT
  5
64
330
17
100
AcDbEntity
 67
     1
  8
VIEWPORT
100
AcDbViewport
 10
210.0
 20
148.5
 30
0.0
 40
420.0
 41
297.0
 68
     1
 69
     2
1001
ACAD
1000
MVIEW
1002
{
1070
    16
1010
0.0
1020
0.0
1030
0.0
1010
0.0
1020
0.0
1030
1.0
1040
0.0
1040
605.8799999999998
1040
420.0
1040
297.0
1040
50.0
1040
0.0
1040
0.0
1070
     0
1070
   100
1070
     1
1070
     0
1070
     0
1070
     0
1070
     0
1070
     0
1040
0.0
1040
0.0
1040
0.0
1040
10.0
1040
10.0
1040
0.0
1040
0.0
1070
     0
1002
{
1002
}
1002
}
  0
ENDSEC
  0
SECTION
  2
OBJECTS
  0
DICTIONARY
  5
C
330
0
100
AcDbDictionary
  3
ACAD_GROUP
350
D
  3
ACAD_LAYOUT
350
A14
  3
ACAD_MLINESTYLE
350
E
  3
ACAD_PLOTSETTINGS
350
A15
1001
ACAD
1000
TREAT_AS_HARD
1070
     0
  0
DICTIONARY
  5
A41
330
1A
100
AcDbDictionary
  3
ACAD_LAYOUTSELFREF
350
A85
1001
ACAD
1000
TREAT_AS_HARD
1070
     1
  0
DICTIONARY
  5
A3F
330
17
100
AcDbDictionary
  3
ACAD_LAYOUTSELFREF
350
A84
1001
ACAD
1000
TREAT_AS_HARD
1070
     1
  0
DICTIONARY
  5
D
102
{ACAD_REACTORS
330
C
102
}
330
C
100
AcDbDictionary
1001
ACAD
1000
TREAT_AS_HARD
1070
     0
  0
DICTIONARY
  5
A14
102
{ACAD_REACTORS
330
C
102
}
330
C
100
AcDbDictionary
1001
ACAD
1000
TREAT_AS_HARD
1070
     0
  0
DICTIONARY
  5
E
102
{ACAD_REACTORS
330
C
102
}
330
C
100
AcDbDictionary
  3
STANDARD
350
13
1001
ACAD
1000
TREAT_AS_HARD
1070
     0
  0
DICTIONARY
  5
A15
102
{ACAD_REACTORS
330
C
102
}
330
C
100
AcDbDictionary
1001
ACAD
1000
TREAT_AS_HARD
1070
     0
  0
XRECORD
  5
A85
102
{ACAD_REACTORS
330
A41
102
}
330
A41
100
AcDbXrecord
340
1A
  0
XRECORD
  5
A84
102
{ACAD_REACTORS
330
A3F
102
}
330
A3F
100
AcDbXrecord
340
17
  0
MLINESTYLE
  5
13
102
{ACAD_REACTORS
330
E
102
}
330
E
100
AcDbMlineStyle
  2
STANDARD
 70
     0
  3

 62
     0
 51
90.0
 52
90.0
 71
     2
 49
0.5
 62
   256
  6
BYLAYER
 49
-0.5
 62
   256
  6
BYLAYER
  0
ENDSEC
  0
EOF
