  0
SECTION
  2
HEADER
  9
$ACADVER
  1
AC1012
  9
$DWGCODEPAGE
  3
dos932
  9
$INSBASE
 10
0.0
 20
0.0
 30
0.0
  9
$EXTMIN
 10
10.05047808566086
 20
4.949376903717846
 30
0.0
  9
$EXTMAX
 10
806.2246110975902
 20
563.7825862828226
 30
0.0
  9
$LIMMIN
 10
0.0
 20
0.0
  9
$LIMMAX
 10
840.0
 20
594.0
  9
$ORTHOMODE
 70
     0
  9
$REGENMODE
 70
     1
  9
$FILLMODE
 70
     1
  9
$QTEXTMODE
 70
     0
  9
$MIRRTEXT
 70
     1
  9
$DRAGMODE
 70
     2
  9
$LTSCALE
 40
2.0
  9
$OSMODE
 70
    37
  9
$ATTMODE
 70
     1
  9
$TEXTSIZE
 40
5.0
  9
$TRACEWID
 40
1.0
  9
$TEXTSTYLE
  7
STANDARD
  9
$CLAYER
  8
SUNPOU
  9
$CELTYPE
  6
BYLAYER
  9
$CECOLOR
 62
   256
  9
$CELTSCALE
 40
5.0
  9
$DELOBJ
 70
     1
  9
$DISPSILH
 70
     0
  9
$DIMSCALE
 40
1.0
  9
$DIMASZ
 40
7.0
  9
$DIMEXO
 40
6.0
  9
$DIMDLI
 40
14.0
  9
$DIMRND
 40
0.0
  9
$DIMDLE
 40
0.0
  9
$DIMEXE
 40
3.0
  9
$DIMTP
 40
0.0
  9
$DIMTM
 40
0.0
  9
$DIMTXT
 40
6.0
  9
$DIMCEN
 40
150.0
  9
$DIMTSZ
 40
0.0
  9
$DIMTOL
 70
     0
  9
$DIMLIM
 70
     0
  9
$DIMTIH
 70
     0
  9
$DIMTOH
 70
     0
  9
$DIMSE1
 70
     0
  9
$DIMSE2
 70
     0
  9
$DIMTAD
 70
     3
  9
$DIMZIN
 70
     0
  9
$DIMBLK
  1

  9
$DIMASO
 70
     1
  9
$DIMSHO
 70
     1
  9
$DIMPOST
  1

  9
$DIMAPOST
  1

  9
$DIMALT
 70
     0
  9
$DIMALTD
 70
     2
  9
$DIMALTF
 40
25.4
  9
$DIMLFAC
 40
1.0
  9
$DIMTOFL
 70
     1
  9
$DIMTVP
 40
0.0
  9
$DIMTIX
 70
     0
  9
$DIMSOXD
 70
     0
  9
$DIMSAH
 70
     1
  9
$DIMBLK1
  1
OPEN
  9
$DIMBLK2
  1
OPEN
  9
$DIMSTYLE
  2
STANDARD
  9
$DIMCLRD
 70
   256
  9
$DIMCLRE
 70
   256
  9
$DIMCLRT
 70
   256
  9
$DIMTFAC
 40
1.0
  9
$DIMGAP
 40
2.0
  9
$DIMJUST
 70
     0
  9
$DIMSD1
 70
     0
  9
$DIMSD2
 70
     0
  9
$DIMTOLJ
 70
     1
  9
$DIMTZIN
 70
     0
  9
$DIMALTZ
 70
     0
  9
$DIMALTTZ
 70
     0
  9
$DIMFIT
 70
     3
  9
$DIMUPT
 70
     0
  9
$DIMUNIT
 70
     2
  9
$DIMDEC
 70
     0
  9
$DIMTDEC
 70
     0
  9
$DIMALTU
 70
     2
  9
$DIMALTTD
 70
     2
  9
$DIMTXSTY
  7
STANDARD
  9
$DIMAUNIT
 70
     0
  9
$LUNITS
 70
     2
  9
$LUPREC
 70
     4
  9
$SKETCHINC
 40
1.0
  9
$FILLETRAD
 40
2.0
  9
$AUNITS
 70
     0
  9
$AUPREC
 70
     0
  9
$MENU
  1
.
  9
$ELEVATION
 40
0.0
  9
$PELEVATION
 40
0.0
  9
$THICKNESS
 40
0.0
  9
$LIMCHECK
 70
     0
  9
$BLIPMODE
 70
     0
  9
$CHAMFERA
 40
20.0
  9
$CHAMFERB
 40
20.0
  9
$CHAMFERC
 40
40.0
  9
$CHAMFERD
 40
0.0
  9
$SKPOLY
 70
     0
  9
$TDCREATE
 40
2451275.379396296
  9
$TDUPDATE
 40
2452393.718049780
  9
$TDINDWG
 40
0.0386109028
  9
$TDUSRTIMER
 40
0.0386109028
  9
$USRTIMER
 70
     1
  9
$ANGBASE
 50
0.0
  9
$ANGDIR
 70
     0
  9
$PDMODE
 70
     0
  9
$PDSIZE
 40
0.0
  9
$PLINEWID
 40
0.0
  9
$COORDS
 70
     1
  9
$SPLFRAME
 70
     0
  9
$SPLINETYPE
 70
     6
  9
$SPLINESEGS
 70
     8
  9
$ATTDIA
 70
     0
  9
$ATTREQ
 70
     1
  9
$HANDLING
 70
 10241
  9
$HANDSEED
  5
C04
  9
$SURFTAB1
 70
     6
  9
$SURFTAB2
 70
     6
  9
$SURFTYPE
 70
     6
  9
$SURFU
 70
     6
  9
$SURFV
 70
     6
  9
$UCSNAME
  2

  9
$UCSORG
 10
0.0
 20
0.0
 30
0.0
  9
$UCSXDIR
 10
1.0
 20
0.0
 30
0.0
  9
$UCSYDIR
 10
0.0
 20
1.0
 30
0.0
  9
$PUCSNAME
  2

  9
$PUCSORG
 10
0.0
 20
0.0
 30
0.0
  9
$PUCSXDIR
 10
1.0
 20
0.0
 30
0.0
  9
$PUCSYDIR
 10
0.0
 20
1.0
 30
0.0
  9
$USERI1
 70
     0
  9
$USERI2
 70
     0
  9
$USERI3
 70
     0
  9
$USERI4
 70
     0
  9
$USERI5
 70
     0
  9
$USERR1
 40
0.0
  9
$USERR2
 40
0.0
  9
$USERR3
 40
0.0
  9
$USERR4
 40
0.0
  9
$USERR5
 40
0.0
  9
$WORLDVIEW
 70
     1
  9
$SHADEDGE
 70
     3
  9
$SHADEDIF
 70
    70
  9
$TILEMODE
 70
     1
  9
$MAXACTVP
 70
    16
  9
$PINSBASE
 10
0.0
 20
0.0
 30
0.0
  9
$PLIMCHECK
 70
     0
  9
$PEXTMIN
 10
0.0
 20
0.0
 30
0.0
  9
$PEXTMAX
 10
420.0
 20
297.0
 30
0.0
  9
$PLIMMIN
 10
0.0
 20
0.0
  9
$PLIMMAX
 10
420.0
 20
297.0
  9
$UNITMODE
 70
     0
  9
$VISRETAIN
 70
     0
  9
$PLINEGEN
 70
     0
  9
$PSLTSCALE
 70
     1
  9
$TREEDEPTH
 70
  3020
  9
$PICKSTYLE
 70
     1
  9
$CMLSTYLE
  2
STANDARD
  9
$CMLJUST
 70
     0
  9
$CMLSCALE
 40
1.0
  9
$SAVEIMAGES
 70
     1
  0
ENDSEC
  0
SECTION
  2
CLASSES
  0
CLASS
  1
ACDBDICTIONARYWDFLT
  2
AcDbDictionaryWithDefault
  3
AutoCAD 2000
 90
    32768
280
     0
281
     0
  0
CLASS
  1
ACDBPLACEHOLDER
  2
AcDbPlaceHolder
  3
AutoCAD 2000
 90
    32768
280
     0
281
     0
  0
CLASS
  1
LAYOUT
  2
AcDbLayout
  3
AutoCAD 2000
 90
    32768
280
     0
281
     0
  0
CLASS
  1
LONG_TRANSACTION
  2
AcDbLongTransaction
  3
AutoCAD 2000
 90
    32768
280
     0
281
     0
  0
CLASS
  1
LWPOLYLINE
  2
AcDbPolyline
  3
AutoCAD 2000
 90
    32768
280
     0
281
     1
  0
CLASS
  1
HATCH
  2
AcDbHatch
  3
AutoCAD 2000
 90
    32768
280
     0
281
     1
  0
CLASS
  1
XRECORD
  2
AcDbXrecord
  3
AutoCAD 2000
 90
    32768
280
     0
281
     0
  0
CLASS
  1
LONG_TRANSACTION
  2
AcDbLongTransaction
  3
AutoCAD 2000
 90
    32768
280
     0
281
     0
  0
CLASS
  1
LWPOLYLINE
  2
AcDbPolyline
  3
AutoCAD 2000
 90
    32768
280
     0
281
     1
  0
CLASS
  1
HATCH
  2
AcDbHatch
  3
AutoCAD 2000
 90
    32768
280
     0
281
     1
  0
CLASS
  1
XRECORD
  2
AcDbXrecord
  3
AutoCAD 2000
 90
    32768
280
     0
281
     0
  0
CLASS
  1
LONG_TRANSACTION
  2
AcDbLongTransaction
  3
AutoCAD 2000
 90
    32768
280
     0
281
     0
  0
CLASS
  1
LWPOLYLINE
  2
AcDbPolyline
  3
AutoCAD 2000
 90
    32768
280
     0
281
     1
  0
CLASS
  1
HATCH
  2
AcDbHatch
  3
AutoCAD 2000
 90
    32768
280
     0
281
     1
  0
CLASS
  1
XRECORD
  2
AcDbXrecord
  3
AutoCAD 2000
 90
    32768
280
     0
281
     0
  0
ENDSEC
  0
SECTION
  2
TABLES
  0
TABLE
  2
VPORT
  5
8
330
0
100
AcDbSymbolTable
 70
     2
  0
VPORT
  5
C01
330
8
100
AcDbSymbolTableRecord
100
AcDbViewportTableRecord
  2
*ACTIVE
 70
     0
 10
0.0
 20
0.0
 11
1.0
 21
1.0
 12
535.5624650603121
 22
285.0685865319446
 13
0.0
 23
0.0
 14
5.0
 24
5.0
 15
0.0
 25
0.0
 16
0.0
 26
0.0
 36
1.0
 17
0.0
 27
0.0
 37
0.0
 40
597.820781281548
 41
2.169459962756052
 42
50.0
 43
0.0
 44
0.0
 50
0.0
 51
0.0
 71
     0
 72
   100
 73
     1
 74
     0
 75
     0
 76
     0
 77
     0
 78
     0
  0
ENDTAB
  0
TABLE
  2
LTYPE
  5
5
330
0
100
AcDbSymbolTable
 70
     2
  0
LTYPE
  5
14
330
5
100
AcDbSymbolTableRecord
100
AcDbLinetypeTableRecord
  2
BYBLOCK
 70
     0
  3

 72
    65
 73
     0
 40
0.0
  0
LTYPE
  5
15
330
5
100
AcDbSymbolTableRecord
100
AcDbLinetypeTableRecord
  2
BYLAYER
 70
     0
  3

 72
    65
 73
     0
 40
0.0
  0
LTYPE
  5
16
330
5
100
AcDbSymbolTableRecord
100
AcDbLinetypeTableRecord
  2
CONTINUOUS
 70
     0
  3
Solid line
 72
    65
 73
     0
 40
0.0
  0
LTYPE
  5
135
330
5
100
AcDbSymbolTableRecord
100
AcDbLinetypeTableRecord
  2
CENTER
 70
     0
  3
____ _ ____ _ ____ _ ____ _ ____ _ ____ _ ____ 
 72
    65
 73
     4
 40
2.0
 49
1.25
 74
     0
 49
-0.25
 74
     0
 49
0.25
 74
     0
 49
-0.25
 74
     0
  0
ENDTAB
  0
TABLE
  2
LAYER
  5
2
330
0
100
AcDbSymbolTable
 70
     8
  0
LAYER
  5
F
330
2
100
AcDbSymbolTableRecord
100
AcDbLayerTableRecord
  2
0
 70
     0
 62
     7
  6
CONTINUOUS
  0
LAYER
  5
62
330
2
100
AcDbSymbolTableRecord
100
AcDbLayerTableRecord
  2
VIEWPORT
 70
     0
 62
     7
  6
CONTINUOUS
  0
LAYER
  5
65
330
2
100
AcDbSymbolTableRecord
100
AcDbLayerTableRecord
  2
ZUWAKU
 70
     0
 62
     7
  6
CONTINUOUS
  0
LAYER
  5
143
330
2
100
AcDbSymbolTableRecord
100
AcDbLayerTableRecord
  2
SEIHIN
 70
     0
 62
     3
  6
CONTINUOUS
  0
LAYER
  5
144
330
2
100
AcDbSymbolTableRecord
100
AcDbLayerTableRecord
  2
SUNPOU
 70
     0
 62
     4
  6
CONTINUOUS
  0
LAYER
  5
145
330
2
100
AcDbSymbolTableRecord
100
AcDbLayerTableRecord
  2
CENTER_L
 70
     0
 62
     1
  6
CENTER
  0
LAYER
  5
9E7
330
2
100
AcDbSymbolTableRecord
100
AcDbLayerTableRecord
  2
NOKITOI
 70
     0
 62
     6
  6
CONTINUOUS
  0
LAYER
  5
9F0
330
2
100
AcDbSymbolTableRecord
100
AcDbLayerTableRecord
  2
DEFPOINTS
 70
     0
 62
     7
  6
CONTINUOUS
  0
ENDTAB
  0
TABLE
  2
STYLE
  5
3
330
0
100
AcDbSymbolTable
 70
     1
  0
STYLE
  5
10
330
3
100
AcDbSymbolTableRecord
100
AcDbTextStyleTableRecord
  2
STANDARD
 70
     0
 40
0.0
 41
1.0
 50
0.0
 71
     0
 42
5.0
  3
TXT
  4
bigfont.shx
  0
ENDTAB
  0
TABLE
  2
VIEW
  5
6
330
0
100
AcDbSymbolTable
 70
     0
  0
ENDTAB
  0
TABLE
  2
UCS
  5
7
330
0
100
AcDbSymbolTable
 70
     0
  0
ENDTAB
  0
TABLE
  2
APPID
  5
9
330
0
100
AcDbSymbolTable
 70
     1
  0
APPID
  5
11
330
9
100
AcDbSymbolTableRecord
100
AcDbRegAppTableRecord
  2
ACAD
 70
     0
  0
ENDTAB
  0
TABLE
  2
DIMSTYLE
  5
A
330
0
100
AcDbSymbolTable
 70
     1
  0
DIMSTYLE
105
1D
102
{ACAD_REACTORS
330
9F5
330
A02
330
A1E
330
A2B
330
A7A
330
A87
330
A94
330
AA3
330
AB0
330
ABD
330
B49
102
}
330
A
100
AcDbSymbolTableRecord
100
AcDbDimStyleTableRecord
  2
STANDARD
 70
     0
  3

  4

  5

  6

  7

 40
1.0
 41
0.18
 42
0.0625
 43
0.38
 44
0.18
 45
0.0
 46
0.0
 47
0.0
 48
0.0
140
0.18
141
0.09
142
0.0
143
25.4
144
1.0
145
0.0
146
1.0
147
0.09
 71
     0
 72
     0
 73
     1
 74
     1
 75
     0
 76
     0
 77
     0
 78
     0
170
     0
171
     2
172
     0
173
     0
174
     0
175
     0
176
     0
177
     0
178
     0
270
     2
271
     4
272
     4
273
     2
274
     2
340
10
275
     0
280
     0
281
     0
282
     0
283
     1
284
     0
285
     0
286
     0
287
     3
288
     0
  0
ENDTAB
  0
TABLE
  2
BLOCK_RECORD
  5
1
330
0
100
AcDbSymbolTable
 70
    12
  0
BLOCK_RECORD
  5
1A
102
{ACAD_XDICTIONARY
360
BBF
102
}
330
1
100
AcDbSymbolTableRecord
100
AcDbBlockTableRecord
  2
*MODEL_SPACE
  0
BLOCK_RECORD
  5
17
102
{ACAD_XDICTIONARY
360
BBD
102
}
330
1
100
AcDbSymbolTableRecord
100
AcDbBlockTableRecord
  2
*PAPER_SPACE
  0
BLOCK_RECORD
  5
6D
330
1
100
AcDbSymbolTableRecord
100
AcDbBlockTableRecord
  2
_OPEN
  0
BLOCK_RECORD
  5
9E8
330
1
100
AcDbSymbolTableRecord
100
AcDbBlockTableRecord
  2
*D1
  0
BLOCK_RECORD
  5
9F6
330
1
100
AcDbSymbolTableRecord
100
AcDbBlockTableRecord
  2
*D2
  0
BLOCK_RECORD
  5
A12
330
1
100
AcDbSymbolTableRecord
100
AcDbBlockTableRecord
  2
*D3
  0
BLOCK_RECORD
  5
A1F
330
1
100
AcDbSymbolTableRecord
100
AcDbBlockTableRecord
  2
*D4
  0
BLOCK_RECORD
  5
A6E
330
1
100
AcDbSymbolTableRecord
100
AcDbBlockTableRecord
  2
*D5
  0
BLOCK_RECORD
  5
A7B
330
1
100
AcDbSymbolTableRecord
100
AcDbBlockTableRecord
  2
*D6
  0
BLOCK_RECORD
  5
A88
330
1
100
AcDbSymbolTableRecord
100
AcDbBlockTableRecord
  2
*D7
  0
BLOCK_RECORD
  5
A95
330
1
100
AcDbSymbolTableRecord
100
AcDbBlockTableRecord
  2
*D8
  0
BLOCK_RECORD
  5
AA4
330
1
100
AcDbSymbolTableRecord
100
AcDbBlockTableRecord
  2
*D9
  0
BLOCK_RECORD
  5
AB1
330
1
100
AcDbSymbolTableRecord
100
AcDbBlockTableRecord
  2
*D10
  0
BLOCK_RECORD
  5
B3D
330
1
100
AcDbSymbolTableRecord
100
AcDbBlockTableRecord
  2
*D11
  0
ENDTAB
  0
ENDSEC
  0
SECTION
  2
BLOCKS
  0
BLOCK
  5
1B
330
1A
100
AcDbEntity
  8
0
100
AcDbBlockBegin
  2
*MODEL_SPACE
 70
     0
 10
0.0
 20
0.0
 30
0.0
  3
*MODEL_SPACE
  1

  0
ENDBLK
  5
1C
330
1A
100
AcDbEntity
  8
0
100
AcDbBlockEnd
  0
BLOCK
  5
18
330
17
100
AcDbEntity
 67
     1
  8
0
100
AcDbBlockBegin
  2
*PAPER_SPACE
 70
     0
 10
0.0
 20
0.0
 30
0.0
  3
*PAPER_SPACE
  1

  0
ENDBLK
  5
19
330
17
100
AcDbEntity
 67
     1
  8
0
100
AcDbBlockEnd
  0
BLOCK
  5
6E
330
6D
100
AcDbEntity
  8
0
100
AcDbBlockBegin
  2
_OPEN
 70
     0
 10
0.0
 20
0.0
 30
0.0
  3
_OPEN
  1

  0
LINE
  5
6F
330
6D
100
AcDbEntity
  8
0
  6
BYBLOCK
 62
     0
100
AcDbLine
 10
-1.0
 20
0.1666666666666666
 30
0.0
 11
0.0
 21
0.0
 31
0.0
  0
LINE
  5
70
330
6D
100
AcDbEntity
  8
0
  6
BYBLOCK
 62
     0
100
AcDbLine
 10
0.0
 20
0.0
 30
0.0
 11
-1.0
 21
-0.1666666666666666
 31
0.0
  0
LINE
  5
71
330
6D
100
AcDbEntity
  8
0
  6
BYBLOCK
 62
     0
100
AcDbLine
 10
0.0
 20
0.0
 30
0.0
 11
-1.0
 21
0.0
 31
0.0
  0
ENDBLK
  5
72
330
6D
100
AcDbEntity
  8
0
100
AcDbBlockEnd
  0
BLOCK
  5
A63
330
9E8
100
AcDbEntity
  8
0
 48
5.0
100
AcDbBlockBegin
  2
*D1
 70
     1
 10
0.0
 20
0.0
 30
0.0
  3
*D1
  1

  0
LINE
  5
A64
330
9E8
100
AcDbEntity
  8
0
  6
BYBLOCK
 62
     4
 48
5.0
100
AcDbLine
 10
194.0682596846599
 20
178.6767847819295
 30
0.0
 11
194.0682596846599
 21
157.1561326499636
 31
0.0
  0
LINE
  5
A65
330
9E8
100
AcDbEntity
  8
0
  6
BYBLOCK
 62
     4
 48
5.0
100
AcDbLine
 10
100.8682596846599
 20
178.6769847819296
 30
0.0
 11
100.8682596846599
 21
157.1561326499636
 31
0.0
  0
LINE
  5
A66
330
9E8
100
AcDbEntity
  8
0
  6
BYBLOCK
 62
     4
 48
5.0
100
AcDbLine
 10
187.0682596846599
 20
160.1561326499636
 30
0.0
 11
107.8682596846599
 21
160.1561326499636
 31
0.0
  0
INSERT
  5
A67
330
9E8
100
AcDbEntity
  8
0
  6
BYBLOCK
 62
     4
 48
5.0
100
AcDbBlockReference
  2
_OPEN
 10
194.0682596846599
 20
160.1561326499636
 30
0.0
 41
7.0
 42
7.0
 43
7.0
  0
INSERT
  5
A68
330
9E8
100
AcDbEntity
  8
0
  6
BYBLOCK
 62
     4
 48
5.0
100
AcDbBlockReference
  2
_OPEN
 10
100.8682596846599
 20
160.1561326499636
 30
0.0
 41
7.0
 42
7.0
 43
7.0
 50
180.0
  0
MTEXT
  5
A69
330
9E8
100
AcDbEntity
  8
0
  6
BYBLOCK
 62
     4
 48
5.0
100
AcDbMText
 10
147.4682596846599
 20
165.1561326499636
 30
0.0
 40
6.0
 41
0.0
 71
     5
 72
     1
  1
\A1;φ93
1001
ACAD
1000
MTEXTBEGIN
1070
    73
1070
     1
1070
    44
1040
1.0
1070
    74
1070
     0
1000
MTEXTEND
1000
MTEXTBEGIN
1070
    73
1070
     1
1070
    44
1040
1.0
1070
    74
1070
     0
1000
MTEXTEND
1000
MTEXTBEGIN
1070
    73
1070
     1
1070
    44
1040
1.0
1070
    74
1070
     0
1000
MTEXTEND
  0
POINT
  5
A6A
330
9E8
100
AcDbEntity
  8
DEFPOINTS
  6
BYBLOCK
 62
     0
 48
5.0
100
AcDbPoint
 10
194.0682596846599
 20
184.6767847819295
 30
0.0
  0
POINT
  5
A6B
330
9E8
100
AcDbEntity
  8
DEFPOINTS
  6
BYBLOCK
 62
     0
 48
5.0
100
AcDbPoint
 10
100.8682596846599
 20
184.6769847819296
 30
0.0
  0
POINT
  5
A6C
330
9E8
100
AcDbEntity
  8
DEFPOINTS
  6
BYBLOCK
 62
     0
 48
5.0
100
AcDbPoint
 10
100.8682596846599
 20
160.1561326499636
 30
0.0
  0
ENDBLK
  5
A6D
330
9E8
100
AcDbEntity
  8
0
 48
5.0
100
AcDbBlockEnd
  0
BLOCK
  5
A42
330
9F6
100
AcDbEntity
  8
0
 48
5.0
100
AcDbBlockBegin
  2
*D2
 70
     1
 10
0.0
 20
0.0
 30
0.0
  3
*D2
  1

  0
LINE
  5
A43
330
9F6
100
AcDbEntity
  8
0
  6
BYBLOCK
 62
     4
 48
5.0
100
AcDbLine
 10
202.4683596846599
 20
262.1767847819296
 30
0.0
 11
202.4683596846599
 21
280.3124385168271
 31
0.0
  0
LINE
  5
A44
330
9F6
100
AcDbEntity
  8
0
  6
BYBLOCK
 62
     4
 48
5.0
100
AcDbLine
 10
92.46845968465995
 20
262.1771847822933
 30
0.0
 11
92.46845968465995
 21
280.3124385168271
 31
0.0
  0
LINE
  5
A45
330
9F6
100
AcDbEntity
  8
0
  6
BYBLOCK
 62
     4
 48
5.0
100
AcDbLine
 10
195.4683596846598
 20
277.3124385168271
 30
0.0
 11
99.46845968465995
 21
277.3124385168271
 31
0.0
  0
INSERT
  5
A46
330
9F6
100
AcDbEntity
  8
0
  6
BYBLOCK
 62
     4
 48
5.0
100
AcDbBlockReference
  2
_OPEN
 10
202.4683596846599
 20
277.3124385168271
 30
0.0
 41
7.0
 42
7.0
 43
7.0
  0
INSERT
  5
A47
330
9F6
100
AcDbEntity
  8
0
  6
BYBLOCK
 62
     4
 48
5.0
100
AcDbBlockReference
  2
_OPEN
 10
92.46845968465995
 20
277.3124385168271
 30
0.0
 41
7.0
 42
7.0
 43
7.0
 50
180.0
  0
MTEXT
  5
A48
330
9F6
100
AcDbEntity
  8
0
  6
BYBLOCK
 62
     4
 48
5.0
100
AcDbMText
 10
147.4684096846599
 20
282.312438516827
 30
0.0
 40
6.0
 41
0.0
 71
     5
 72
     1
  1
\A1;φ110
1001
ACAD
1000
MTEXTBEGIN
1070
    73
1070
     1
1070
    44
1040
1.0
1070
    74
1070
     0
1000
MTEXTEND
1000
MTEXTBEGIN
1070
    73
1070
     1
1070
    44
1040
1.0
1070
    74
1070
     0
1000
MTEXTEND
1000
MTEXTBEGIN
1070
    73
1070
     1
1070
    44
1040
1.0
1070
    74
1070
     0
1000
MTEXTEND
  0
POINT
  5
A49
330
9F6
100
AcDbEntity
  8
DEFPOINTS
  6
BYBLOCK
 62
     0
 48
5.0
100
AcDbPoint
 10
202.4683596846599
 20
256.1767847819296
 30
0.0
  0
POINT
  5
A4A
330
9F6
100
AcDbEntity
  8
DEFPOINTS
  6
BYBLOCK
 62
     0
 48
5.0
100
AcDbPoint
 10
92.46845968465995
 20
256.1771847822932
 30
0.0
  0
POINT
  5
A4B
330
9F6
100
AcDbEntity
  8
DEFPOINTS
  6
BYBLOCK
 62
     0
 48
5.0
100
AcDbPoint
 10
92.46845968465995
 20
277.3124385168271
 30
0.0
  0
ENDBLK
  5
A4C
330
9F6
100
AcDbEntity
  8
0
 48
5.0
100
AcDbBlockEnd
  0
BLOCK
  5
A13
330
A12
100
AcDbEntity
  8
0
 48
5.0
100
AcDbBlockBegin
  2
*D3
 70
     1
 10
0.0
 20
0.0
 30
0.0
  3
*D3
  1

  0
LINE
  5
A14
330
A12
100
AcDbEntity
  8
0
  6
BYBLOCK
 62
     4
 48
5.0
100
AcDbLine
 10
204.4683596846599
 20
253.1767847819296
 30
0.0
 11
228.1223716016957
 21
253.1767847819296
 31
0.0
  0
LINE
  5
A15
330
A12
100
AcDbEntity
  8
0
  6
BYBLOCK
 62
     4
 48
5.0
100
AcDbLine
 10
200.0682596846599
 20
184.6767847819295
 30
0.0
 11
228.1223716016957
 21
184.6767847819295
 31
0.0
  0
LINE
  5
A16
330
A12
100
AcDbEntity
  8
0
  6
BYBLOCK
 62
     4
 48
5.0
100
AcDbLine
 10
225.1223716016957
 20
246.1767847819296
 30
0.0
 11
225.1223716016957
 21
191.6767847819295
 31
0.0
  0
INSERT
  5
A17
330
A12
100
AcDbEntity
  8
0
  6
BYBLOCK
 62
     4
 48
5.0
100
AcDbBlockReference
  2
_OPEN
 10
225.1223716016957
 20
253.1767847819296
 30
0.0
 41
7.0
 42
7.0
 43
7.0
 50
90.0
  0
INSERT
  5
A18
330
A12
100
AcDbEntity
  8
0
  6
BYBLOCK
 62
     4
 48
5.0
100
AcDbBlockReference
  2
_OPEN
 10
225.1223716016957
 20
184.6767847819295
 30
0.0
 41
7.0
 42
7.0
 43
7.0
 50
270.0
  0
MTEXT
  5
A19
330
A12
100
AcDbEntity
  8
0
  6
BYBLOCK
 62
     4
 48
5.0
100
AcDbMText
 10
220.1223716016956
 20
218.9267847819296
 30
0.0
 40
6.0
 41
0.0
 71
     5
 72
     1
  1
\A1;69
 11
0.0
 21
1.0
 31
0.0
1001
ACAD
1000
MTEXTBEGIN
1070
    73
1070
     1
1070
    44
1040
1.0
1070
    74
1070
     0
1000
MTEXTEND
1000
MTEXTBEGIN
1070
    73
1070
     1
1070
    44
1040
1.0
1070
    74
1070
     0
1000
MTEXTEND
1000
MTEXTBEGIN
1070
    73
1070
     1
1070
    44
1040
1.0
1070
    74
1070
     0
1000
MTEXTEND
  0
POINT
  5
A1A
330
A12
100
AcDbEntity
  8
DEFPOINTS
  6
BYBLOCK
 62
     0
 48
5.0
100
AcDbPoint
 10
198.4683596846599
 20
253.1767847819296
 30
0.0
  0
POINT
  5
A1B
330
A12
100
AcDbEntity
  8
DEFPOINTS
  6
BYBLOCK
 62
     0
 48
5.0
100
AcDbPoint
 10
194.0682596846599
 20
184.6767847819295
 30
0.0
  0
POINT
  5
A1C
330
A12
100
AcDbEntity
  8
DEFPOINTS
  6
BYBLOCK
 62
     0
 48
5.0
100
AcDbPoint
 10
225.1223716016957
 20
184.6767847819295
 30
0.0
  0
ENDBLK
  5
A1D
330
A12
100
AcDbEntity
  8
0
 48
5.0
100
AcDbBlockEnd
  0
BLOCK
  5
A20
330
A1F
100
AcDbEntity
  8
0
 48
5.0
100
AcDbBlockBegin
  2
*D4
 70
     1
 10
0.0
 20
0.0
 30
0.0
  3
*D4
  1

  0
LINE
  5
A21
330
A1F
100
AcDbEntity
  8
0
  6
BYBLOCK
 62
     4
 48
5.0
100
AcDbLine
 10
208.4683596846598
 20
256.1767847819296
 30
0.0
 11
248.0051481474183
 21
256.1767847819296
 31
0.0
  0
LINE
  5
A22
330
A1F
100
AcDbEntity
  8
0
  6
BYBLOCK
 62
     4
 48
5.0
100
AcDbLine
 10
200.0682596846599
 20
184.6767847819295
 30
0.0
 11
248.0051481474183
 21
184.6767847819295
 31
0.0
  0
LINE
  5
A23
330
A1F
100
AcDbEntity
  8
0
  6
BYBLOCK
 62
     4
 48
5.0
100
AcDbLine
 10
245.0051481474183
 20
249.1767847819296
 30
0.0
 11
245.0051481474183
 21
191.6767847819295
 31
0.0
  0
INSERT
  5
A24
330
A1F
100
AcDbEntity
  8
0
  6
BYBLOCK
 62
     4
 48
5.0
100
AcDbBlockReference
  2
_OPEN
 10
245.0051481474183
 20
256.1767847819296
 30
0.0
 41
7.0
 42
7.0
 43
7.0
 50
90.0
  0
INSERT
  5
A25
330
A1F
100
AcDbEntity
  8
0
  6
BYBLOCK
 62
     4
 48
5.0
100
AcDbBlockReference
  2
_OPEN
 10
245.0051481474183
 20
184.6767847819295
 30
0.0
 41
7.0
 42
7.0
 43
7.0
 50
270.0
  0
MTEXT
  5
A26
330
A1F
100
AcDbEntity
  8
0
  6
BYBLOCK
 62
     4
 48
5.0
100
AcDbMText
 10
240.0051481474183
 20
220.4267847819295
 30
0.0
 40
6.0
 41
0.0
 71
     5
 72
     1
  1
\A1;72
 11
0.0
 21
1.0
 31
0.0
1001
ACAD
1000
MTEXTBEGIN
1070
    73
1070
     1
1070
    44
1040
1.0
1070
    74
1070
     0
1000
MTEXTEND
1000
MTEXTBEGIN
1070
    73
1070
     1
1070
    44
1040
1.0
1070
    74
1070
     0
1000
MTEXTEND
1000
MTEXTBEGIN
1070
    73
1070
     1
1070
    44
1040
1.0
1070
    74
1070
     0
1000
MTEXTEND
  0
POINT
  5
A27
330
A1F
100
AcDbEntity
  8
DEFPOINTS
  6
BYBLOCK
 62
     0
 48
5.0
100
AcDbPoint
 10
202.4683596846599
 20
256.1767847819296
 30
0.0
  0
POINT
  5
A28
330
A1F
100
AcDbEntity
  8
DEFPOINTS
  6
BYBLOCK
 62
     0
 48
5.0
100
AcDbPoint
 10
194.0682596846599
 20
184.6767847819295
 30
0.0
  0
POINT
  5
A29
330
A1F
100
AcDbEntity
  8
DEFPOINTS
  6
BYBLOCK
 62
     0
 48
5.0
100
AcDbPoint
 10
245.0051481474183
 20
184.6767847819295
 30
0.0
  0
ENDBLK
  5
A2A
330
A1F
100
AcDbEntity
  8
0
 48
5.0
100
AcDbBlockEnd
  0
BLOCK
  5
B0F
330
A6E
100
AcDbEntity
  8
0
 48
5.0
100
AcDbBlockBegin
  2
*D5
 70
     1
 10
0.0
 20
0.0
 30
0.0
  3
*D5
  1

  0
LINE
  5
B10
330
A6E
100
AcDbEntity
  8
0
  6
BYBLOCK
 62
     4
 48
5.0
100
AcDbLine
 10
431.6997621558823
 20
266.1768793392146
 30
0.0
 11
431.6997621558823
 21
282.5880894224665
 31
0.0
  0
LINE
  5
B11
330
A6E
100
AcDbEntity
  8
0
  6
BYBLOCK
 62
     4
 48
5.0
100
AcDbLine
 10
359.199585946682
 20
266.1770902248919
 30
0.0
 11
359.199585946682
 21
282.5880894224665
 31
0.0
  0
LINE
  5
B12
330
A6E
100
AcDbEntity
  8
0
  6
BYBLOCK
 62
     4
 48
5.0
100
AcDbLine
 10
424.6997621558823
 20
279.5880894224665
 30
0.0
 11
366.199585946682
 21
279.5880894224665
 31
0.0
  0
INSERT
  5
B13
330
A6E
100
AcDbEntity
  8
0
  6
BYBLOCK
 62
     4
 48
5.0
100
AcDbBlockReference
  2
_OPEN
 10
431.6997621558823
 20
279.5880894224665
 30
0.0
 41
7.0
 42
7.0
 43
7.0
  0
INSERT
  5
B14
330
A6E
100
AcDbEntity
  8
0
  6
BYBLOCK
 62
     4
 48
5.0
100
AcDbBlockReference
  2
_OPEN
 10
359.199585946682
 20
279.5880894224665
 30
0.0
 41
7.0
 42
7.0
 43
7.0
 50
180.0
  0
MTEXT
  5
B15
330
A6E
100
AcDbEntity
  8
0
  6
BYBLOCK
 62
     4
 48
5.0
100
AcDbMText
 10
395.4496740512822
 20
284.5880894224665
 30
0.0
 40
6.0
 41
0.0
 71
     5
 72
     1
  1
\A1;φ73
1001
ACAD
1000
MTEXTBEGIN
1070
    73
1070
     1
1070
    44
1040
1.0
1070
    74
1070
     0
1000
MTEXTEND
1000
MTEXTBEGIN
1070
    73
1070
     1
1070
    44
1040
1.0
1070
    74
1070
     0
1000
MTEXTEND
1000
MTEXTBEGIN
1070
    73
1070
     1
1070
    44
1040
1.0
1070
    74
1070
     0
1000
MTEXTEND
  0
POINT
  5
B16
330
A6E
100
AcDbEntity
  8
DEFPOINTS
  6
BYBLOCK
 62
     0
 48
5.0
100
AcDbPoint
 10
431.6997621558823
 20
260.1768793392146
 30
0.0
  0
POINT
  5
B17
330
A6E
100
AcDbEntity
  8
DEFPOINTS
  6
BYBLOCK
 62
     0
 48
5.0
100
AcDbPoint
 10
359.199585946682
 20
260.1770902248919
 30
0.0
  0
POINT
  5
B18
330
A6E
100
AcDbEntity
  8
DEFPOINTS
  6
BYBLOCK
 62
     0
 48
5.0
100
AcDbPoint
 10
359.199585946682
 20
279.5880894224665
 30
0.0
  0
ENDBLK
  5
B19
330
A6E
100
AcDbEntity
  8
0
 48
5.0
100
AcDbBlockEnd
  0
BLOCK
  5
B30
330
A7B
100
AcDbEntity
  8
0
 48
5.0
100
AcDbBlockBegin
  2
*D6
 70
     1
 10
0.0
 20
0.0
 30
0.0
  3
*D6
  1

  0
LINE
  5
B31
330
A7B
100
AcDbEntity
  8
0
  6
BYBLOCK
 62
     4
 48
5.0
100
AcDbLine
 10
445.4496165807801
 20
235.1768847819296
 30
0.0
 11
445.4496165807801
 21
302.5451462619335
 31
0.0
  0
LINE
  5
B32
330
A7B
100
AcDbEntity
  8
0
  6
BYBLOCK
 62
     4
 48
5.0
100
AcDbLine
 10
345.4495165807802
 20
235.1771847819296
 30
0.0
 11
345.4495165807802
 21
302.5451462619335
 31
0.0
  0
LINE
  5
B33
330
A7B
100
AcDbEntity
  8
0
  6
BYBLOCK
 62
     4
 48
5.0
100
AcDbLine
 10
438.4496165807801
 20
299.5451462619334
 30
0.0
 11
352.4495165807802
 21
299.5451462619334
 31
0.0
  0
INSERT
  5
B34
330
A7B
100
AcDbEntity
  8
0
  6
BYBLOCK
 62
     4
 48
5.0
100
AcDbBlockReference
  2
_OPEN
 10
445.4496165807801
 20
299.5451462619334
 30
0.0
 41
7.0
 42
7.0
 43
7.0
  0
INSERT
  5
B35
330
A7B
100
AcDbEntity
  8
0
  6
BYBLOCK
 62
     4
 48
5.0
100
AcDbBlockReference
  2
_OPEN
 10
345.4495165807802
 20
299.5451462619334
 30
0.0
 41
7.0
 42
7.0
 43
7.0
 50
180.0
  0
MTEXT
  5
B36
330
A7B
100
AcDbEntity
  8
0
  6
BYBLOCK
 62
     4
 48
5.0
100
AcDbMText
 10
395.4495665807801
 20
304.5451462619335
 30
0.0
 40
6.0
 41
0.0
 71
     5
 72
     1
  1
\A1;φ100
1001
ACAD
1000
MTEXTBEGIN
1070
    73
1070
     1
1070
    44
1040
1.0
1070
    74
1070
     0
1000
MTEXTEND
1000
MTEXTBEGIN
1070
    73
1070
     1
1070
    44
1040
1.0
1070
    74
1070
     0
1000
MTEXTEND
1000
MTEXTBEGIN
1070
    73
1070
     1
1070
    44
1040
1.0
1070
    74
1070
     0
1000
MTEXTEND
  0
POINT
  5
B37
330
A7B
100
AcDbEntity
  8
DEFPOINTS
  6
BYBLOCK
 62
     0
 48
5.0
100
AcDbPoint
 10
445.4496165807801
 20
229.1768847819296
 30
0.0
  0
POINT
  5
B38
330
A7B
100
AcDbEntity
  8
DEFPOINTS
  6
BYBLOCK
 62
     0
 48
5.0
100
AcDbPoint
 10
345.4495165807802
 20
229.1771847819296
 30
0.0
  0
POINT
  5
B39
330
A7B
100
AcDbEntity
  8
DEFPOINTS
  6
BYBLOCK
 62
     0
 48
5.0
100
AcDbPoint
 10
345.4495165807802
 20
299.5451462619334
 30
0.0
  0
ENDBLK
  5
B3A
330
A7B
100
AcDbEntity
  8
0
 48
5.0
100
AcDbBlockEnd
  0
BLOCK
  5
AEE
330
A88
100
AcDbEntity
  8
0
 48
5.0
100
AcDbBlockBegin
  2
*D7
 70
     1
 10
0.0
 20
0.0
 30
0.0
  3
*D7
  1

  0
LINE
  5
AEF
330
A88
100
AcDbEntity
  8
0
  6
BYBLOCK
 62
     4
 48
5.0
100
AcDbLine
 10
437.9498274035752
 20
188.1768847816728
 30
0.0
 11
437.9498274035752
 21
166.3004662606445
 31
0.0
  0
LINE
  5
AF0
330
A88
100
AcDbEntity
  8
0
  6
BYBLOCK
 62
     4
 48
5.0
100
AcDbLine
 10
352.9495274035746
 20
188.1770847816726
 30
0.0
 11
352.9495274035746
 21
166.3004662606445
 31
0.0
  0
LINE
  5
AF1
330
A88
100
AcDbEntity
  8
0
  6
BYBLOCK
 62
     4
 48
5.0
100
AcDbLine
 10
430.9498274035752
 20
169.3004662606444
 30
0.0
 11
359.9495274035746
 21
169.3004662606444
 31
0.0
  0
INSERT
  5
AF2
330
A88
100
AcDbEntity
  8
0
  6
BYBLOCK
 62
     4
 48
5.0
100
AcDbBlockReference
  2
_OPEN
 10
437.9498274035752
 20
169.3004662606444
 30
0.0
 41
7.0
 42
7.0
 43
7.0
  0
INSERT
  5
AF3
330
A88
100
AcDbEntity
  8
0
  6
BYBLOCK
 62
     4
 48
5.0
100
AcDbBlockReference
  2
_OPEN
 10
352.9495274035746
 20
169.3004662606444
 30
0.0
 41
7.0
 42
7.0
 43
7.0
 50
180.0
  0
MTEXT
  5
AF4
330
A88
100
AcDbEntity
  8
0
  6
BYBLOCK
 62
     4
 48
5.0
100
AcDbMText
 10
395.4496774035749
 20
174.3004662606445
 30
0.0
 40
6.0
 41
0.0
 71
     5
 72
     1
  1
\A1;φ85
1001
ACAD
1000
MTEXTBEGIN
1070
    73
1070
     1
1070
    44
1040
1.0
1070
    74
1070
     0
1000
MTEXTEND
1000
MTEXTBEGIN
1070
    73
1070
     1
1070
    44
1040
1.0
1070
    74
1070
     0
1000
MTEXTEND
1000
MTEXTBEGIN
1070
    73
1070
     1
1070
    44
1040
1.0
1070
    74
1070
     0
1000
MTEXTEND
  0
POINT
  5
AF5
330
A88
100
AcDbEntity
  8
DEFPOINTS
  6
BYBLOCK
 62
     0
 48
5.0
100
AcDbPoint
 10
437.9498274035752
 20
194.1768847816728
 30
0.0
  0
POINT
  5
AF6
330
A88
100
AcDbEntity
  8
DEFPOINTS
  6
BYBLOCK
 62
     0
 48
5.0
100
AcDbPoint
 10
352.9495274035746
 20
194.1770847816726
 30
0.0
  0
POINT
  5
AF7
330
A88
100
AcDbEntity
  8
DEFPOINTS
  6
BYBLOCK
 62
     0
 48
5.0
100
AcDbPoint
 10
352.9495274035746
 20
169.3004662606444
 30
0.0
  0
ENDBLK
  5
AF8
330
A88
100
AcDbEntity
  8
0
 48
5.0
100
AcDbBlockEnd
  0
BLOCK
  5
ACB
330
A95
100
AcDbEntity
  8
0
 48
5.0
100
AcDbBlockBegin
  2
*D8
 70
     1
 10
0.0
 20
0.0
 30
0.0
  3
*D8
  1

  0
LINE
  5
ACC
330
A95
100
AcDbEntity
  8
0
  6
BYBLOCK
 62
     4
 48
5.0
100
AcDbLine
 10
447.4496784264723
 20
230.1768693205065
 30
0.0
 11
466.5092245590012
 21
230.1768693205065
 31
0.0
  0
LINE
  5
ACD
330
A95
100
AcDbEntity
  8
0
  6
BYBLOCK
 62
     4
 48
5.0
100
AcDbLine
 10
451.4496165807801
 20
228.1768847819295
 30
0.0
 11
466.5092245590012
 21
228.1768847819295
 31
0.0
  0
LINE
  5
ACE
330
A95
100
AcDbEntity
  8
0
  6
BYBLOCK
 62
     4
 48
5.0
100
AcDbLine
 10
463.5092245590012
 20
221.1768847819295
 30
0.0
 11
463.5092245590012
 21
214.1768847819295
 31
0.0
  0
LINE
  5
ACF
330
A95
100
AcDbEntity
  8
0
  6
BYBLOCK
 62
     4
 48
5.0
100
AcDbLine
 10
463.5092245590012
 20
237.1768693205065
 30
0.0
 11
463.5092245590012
 21
252.1768693205065
 31
0.0
  0
LINE
  5
AD0
330
A95
100
AcDbEntity
  8
0
  6
BYBLOCK
 62
     4
 48
5.0
100
AcDbLine
 10
463.5092245590012
 20
228.1768847819295
 30
0.0
 11
463.5092245590012
 21
230.1768693205065
 31
0.0
  0
INSERT
  5
AD1
330
A95
100
AcDbEntity
  8
0
  6
BYBLOCK
 62
     4
 48
5.0
100
AcDbBlockReference
  2
_OPEN
 10
463.5092245590012
 20
228.1768847819295
 30
0.0
 41
7.0
 42
7.0
 43
7.0
 50
90.0
  0
INSERT
  5
AD2
330
A95
100
AcDbEntity
  8
0
  6
BYBLOCK
 62
     4
 48
5.0
100
AcDbBlockReference
  2
_OPEN
 10
463.5092245590012
 20
230.1768693205065
 30
0.0
 41
7.0
 42
7.0
 43
7.0
 50
270.0
  0
MTEXT
  5
AD3
330
A95
100
AcDbEntity
  8
0
  6
BYBLOCK
 62
     4
 48
5.0
100
AcDbMText
 10
458.5092245590012
 20
248.1768693205065
 30
0.0
 40
6.0
 41
0.0
 71
     5
 72
     1
  1
\A1;2
 11
0.0
 21
1.0
 31
0.0
1001
ACAD
1000
MTEXTBEGIN
1070
    73
1070
     1
1070
    44
1040
1.0
1070
    74
1070
     0
1000
MTEXTEND
1000
MTEXTBEGIN
1070
    73
1070
     1
1070
    44
1040
1.0
1070
    74
1070
     0
1000
MTEXTEND
1000
MTEXTBEGIN
1070
    73
1070
     1
1070
    44
1040
1.0
1070
    74
1070
     0
1000
MTEXTEND
  0
POINT
  5
AD4
330
A95
100
AcDbEntity
  8
DEFPOINTS
  6
BYBLOCK
 62
     0
 48
5.0
100
AcDbPoint
 10
441.4496784264724
 20
230.1768693205065
 30
0.0
  0
POINT
  5
AD5
330
A95
100
AcDbEntity
  8
DEFPOINTS
  6
BYBLOCK
 62
     0
 48
5.0
100
AcDbPoint
 10
445.4496165807801
 20
228.1768847819295
 30
0.0
  0
POINT
  5
AD6
330
A95
100
AcDbEntity
  8
DEFPOINTS
  6
BYBLOCK
 62
     0
 48
5.0
100
AcDbPoint
 10
463.5092245590012
 20
228.1768847819295
 30
0.0
  0
ENDBLK
  5
AD7
330
A95
100
AcDbEntity
  8
0
 48
5.0
100
AcDbBlockEnd
  0
BLOCK
  5
AA5
330
AA4
100
AcDbEntity
  8
0
 48
5.0
100
AcDbBlockBegin
  2
*D9
 70
     1
 10
0.0
 20
0.0
 30
0.0
  3
*D9
  1

  0
LINE
  5
AA6
330
AA4
100
AcDbEntity
  8
0
  6
BYBLOCK
 62
     4
 48
5.0
100
AcDbLine
 10
451.4496165807801
 20
228.1768847819295
 30
0.0
 11
486.1673408823398
 21
228.1768847819295
 31
0.0
  0
LINE
  5
AA7
330
AA4
100
AcDbEntity
  8
0
  6
BYBLOCK
 62
     4
 48
5.0
100
AcDbLine
 10
441.7848274035743
 20
193.176884781908
 30
0.0
 11
486.1673408823398
 21
193.176884781908
 31
0.0
  0
LINE
  5
AA8
330
AA4
100
AcDbEntity
  8
0
  6
BYBLOCK
 62
     4
 48
5.0
100
AcDbLine
 10
483.1673408823398
 20
221.1768847819295
 30
0.0
 11
483.1673408823398
 21
200.176884781908
 31
0.0
  0
INSERT
  5
AA9
330
AA4
100
AcDbEntity
  8
0
  6
BYBLOCK
 62
     4
 48
5.0
100
AcDbBlockReference
  2
_OPEN
 10
483.1673408823398
 20
228.1768847819295
 30
0.0
 41
7.0
 42
7.0
 43
7.0
 50
90.0
  0
INSERT
  5
AAA
330
AA4
100
AcDbEntity
  8
0
  6
BYBLOCK
 62
     4
 48
5.0
100
AcDbBlockReference
  2
_OPEN
 10
483.1673408823398
 20
193.176884781908
 30
0.0
 41
7.0
 42
7.0
 43
7.0
 50
270.0
  0
MTEXT
  5
AAB
330
AA4
100
AcDbEntity
  8
0
  6
BYBLOCK
 62
     4
 48
5.0
100
AcDbMText
 10
478.1673408823398
 20
210.6768847819187
 30
0.0
 40
6.0
 41
0.0
 71
     5
 72
     1
  1
\A1;35
 11
0.0
 21
1.0
 31
0.0
1001
ACAD
1000
MTEXTBEGIN
1070
    73
1070
     1
1070
    44
1040
1.0
1070
    74
1070
     0
1000
MTEXTEND
1000
MTEXTBEGIN
1070
    73
1070
     1
1070
    44
1040
1.0
1070
    74
1070
     0
1000
MTEXTEND
1000
MTEXTBEGIN
1070
    73
1070
     1
1070
    44
1040
1.0
1070
    74
1070
     0
1000
MTEXTEND
  0
POINT
  5
AAC
330
AA4
100
AcDbEntity
  8
DEFPOINTS
  6
BYBLOCK
 62
     0
 48
5.0
100
AcDbPoint
 10
445.4496165807801
 20
228.1768847819295
 30
0.0
  0
POINT
  5
AAD
330
AA4
100
AcDbEntity
  8
DEFPOINTS
  6
BYBLOCK
 62
     0
 48
5.0
100
AcDbPoint
 10
435.7848274035744
 20
193.176884781908
 30
0.0
  0
POINT
  5
AAE
330
AA4
100
AcDbEntity
  8
DEFPOINTS
  6
BYBLOCK
 62
     0
 48
5.0
100
AcDbPoint
 10
483.1673408823398
 20
193.176884781908
 30
0.0
  0
ENDBLK
  5
AAF
330
AA4
100
AcDbEntity
  8
0
 48
5.0
100
AcDbBlockEnd
  0
BLOCK
  5
AB2
330
AB1
100
AcDbEntity
  8
0
 48
5.0
100
AcDbBlockBegin
  2
*D10
 70
     1
 10
0.0
 20
0.0
 30
0.0
  3
*D10
  1

  0
LINE
  5
AB3
330
AB1
100
AcDbEntity
  8
0
  6
BYBLOCK
 62
     4
 48
5.0
100
AcDbLine
 10
435.8286165807801
 20
260.1768847819296
 30
0.0
 11
506.6117814982326
 21
260.1768847819296
 31
0.0
  0
LINE
  5
AB4
330
AB1
100
AcDbEntity
  8
0
  6
BYBLOCK
 62
     4
 48
5.0
100
AcDbLine
 10
441.7848274035743
 20
193.176884781908
 30
0.0
 11
506.6117814982326
 21
193.176884781908
 31
0.0
  0
LINE
  5
AB5
330
AB1
100
AcDbEntity
  8
0
  6
BYBLOCK
 62
     4
 48
5.0
100
AcDbLine
 10
503.6117814982326
 20
253.1768847819297
 30
0.0
 11
503.6117814982326
 21
200.176884781908
 31
0.0
  0
INSERT
  5
AB6
330
AB1
100
AcDbEntity
  8
0
  6
BYBLOCK
 62
     4
 48
5.0
100
AcDbBlockReference
  2
_OPEN
 10
503.6117814982326
 20
260.1768847819296
 30
0.0
 41
7.0
 42
7.0
 43
7.0
 50
90.0
  0
INSERT
  5
AB7
330
AB1
100
AcDbEntity
  8
0
  6
BYBLOCK
 62
     4
 48
5.0
100
AcDbBlockReference
  2
_OPEN
 10
503.6117814982326
 20
193.176884781908
 30
0.0
 41
7.0
 42
7.0
 43
7.0
 50
270.0
  0
MTEXT
  5
AB8
330
AB1
100
AcDbEntity
  8
0
  6
BYBLOCK
 62
     4
 48
5.0
100
AcDbMText
 10
498.6117814982326
 20
226.6768847819188
 30
0.0
 40
6.0
 41
0.0
 71
     5
 72
     1
  1
\A1;67
 11
0.0
 21
1.0
 31
0.0
1001
ACAD
1000
MTEXTBEGIN
1070
    73
1070
     1
1070
    44
1040
1.0
1070
    74
1070
     0
1000
MTEXTEND
1000
MTEXTBEGIN
1070
    73
1070
     1
1070
    44
1040
1.0
1070
    74
1070
     0
1000
MTEXTEND
1000
MTEXTBEGIN
1070
    73
1070
     1
1070
    44
1040
1.0
1070
    74
1070
     0
1000
MTEXTEND
  0
POINT
  5
AB9
330
AB1
100
AcDbEntity
  8
DEFPOINTS
  6
BYBLOCK
 62
     0
 48
5.0
100
AcDbPoint
 10
429.8286165807802
 20
260.1768847819296
 30
0.0
  0
POINT
  5
ABA
330
AB1
100
AcDbEntity
  8
DEFPOINTS
  6
BYBLOCK
 62
     0
 48
5.0
100
AcDbPoint
 10
435.7848274035744
 20
193.176884781908
 30
0.0
  0
POINT
  5
ABB
330
AB1
100
AcDbEntity
  8
DEFPOINTS
  6
BYBLOCK
 62
     0
 48
5.0
100
AcDbPoint
 10
503.6117814982326
 20
193.176884781908
 30
0.0
  0
ENDBLK
  5
ABC
330
AB1
100
AcDbEntity
  8
0
 48
5.0
100
AcDbBlockEnd
  0
BLOCK
  5
B76
330
B3D
100
AcDbEntity
  8
0
 48
5.0
100
AcDbBlockBegin
  2
*D11
 70
     1
 10
0.0
 20
0.0
 30
0.0
  3
*D11
  1

  0
LINE
  5
B77
330
B3D
100
AcDbEntity
  8
0
  6
BYBLOCK
 62
     4
 48
5.0
100
AcDbLine
 10
733.0862809407684
 20
362.9457629863408
 30
0.0
 11
733.0862809407684
 21
311.1614109641736
 31
0.0
  0
LINE
  5
B78
330
B3D
100
AcDbEntity
  8
0
  6
BYBLOCK
 62
     4
 48
5.0
100
AcDbLine
 10
647.0862822506026
 20
363.3032329043806
 30
0.0
 11
647.0862822506026
 21
311.1614109641736
 31
0.0
  0
LINE
  5
B79
330
B3D
100
AcDbEntity
  8
0
  6
BYBLOCK
 62
     4
 48
5.0
100
AcDbLine
 10
726.0862809407684
 20
314.1614109641736
 30
0.0
 11
654.0862822506026
 21
314.1614109641736
 31
0.0
  0
INSERT
  5
B7A
330
B3D
100
AcDbEntity
  8
0
  6
BYBLOCK
 62
     4
 48
5.0
100
AcDbBlockReference
  2
_OPEN
 10
733.0862809407684
 20
314.1614109641736
 30
0.0
 41
7.0
 42
7.0
 43
7.0
  0
INSERT
  5
B7B
330
B3D
100
AcDbEntity
  8
0
  6
BYBLOCK
 62
     4
 48
5.0
100
AcDbBlockReference
  2
_OPEN
 10
647.0862822506026
 20
314.1614109641736
 30
0.0
 41
7.0
 42
7.0
 43
7.0
 50
180.0
  0
MTEXT
  5
B7C
330
B3D
100
AcDbEntity
  8
0
  6
BYBLOCK
 62
     4
 48
5.0
100
AcDbMText
 10
690.0862815956855
 20
319.1614109641736
 30
0.0
 40
6.0
 41
0.0
 71
     5
 72
     1
  1
\A1;穴径 φ86
1001
ACAD
1000
MTEXTBEGIN
1070
    73
1070
     1
1070
    44
1040
1.0
1070
    74
1070
     0
1000
MTEXTEND
1000
MTEXTBEGIN
1070
    73
1070
     1
1070
    44
1040
1.0
1070
    74
1070
     0
1000
MTEXTEND
1000
MTEXTBEGIN
1070
    73
1070
     1
1070
    44
1040
1.0
1070
    74
1070
     0
1000
MTEXTEND
  0
POINT
  5
B7D
330
B3D
100
AcDbEntity
  8
DEFPOINTS
  6
BYBLOCK
 62
     0
 48
5.0
100
AcDbPoint
 10
733.0862809407684
 20
368.9457629863408
 30
0.0
  0
POINT
  5
B7E
330
B3D
100
AcDbEntity
  8
DEFPOINTS
  6
BYBLOCK
 62
     0
 48
5.0
100
AcDbPoint
 10
647.0862822506026
 20
369.3032329043806
 30
0.0
  0
POINT
  5
B7F
330
B3D
100
AcDbEntity
  8
DEFPOINTS
  6
BYBLOCK
 62
     0
 48
5.0
100
AcDbPoint
 10
647.0862822506026
 20
314.1614109641736
 30
0.0
  0
ENDBLK
  5
B80
330
B3D
100
AcDbEntity
  8
0
 48
5.0
100
AcDbBlockEnd
  0
ENDSEC
  0
SECTION
  2
ENTITIES
  0
TEXT
  5
11A
330
1A
100
AcDbEntity
  8
ZUWAKU
 62
     7
 48
10.0
100
AcDbText
 10
795.5579444309237
 20
4.974918402528146
 30
0.0
 40
8.0
  1
A1
100
AcDbText
  0
LINE
  5
11B
330
1A
100
AcDbEntity
  8
ZUWAKU
 62
     7
 48
10.0
100
AcDbLine
 10
10.05047808566086
 20
25.78258628282265
 30
0.0
 11
806.0504780856609
 21
25.78258628282253
 31
0.0
  0
LINE
  5
11C
330
1A
100
AcDbEntity
  8
ZUWAKU
  6
CONTINUOUS
 62
     7
100
AcDbLine
 10
806.0504780856609
 20
563.7825862828226
 30
0.0
 11
10.05047808566086
 21
563.7825862828226
 31
0.0
  0
LINE
  5
11D
330
1A
100
AcDbEntity
  8
ZUWAKU
  6
CONTINUOUS
 62
     7
100
AcDbLine
 10
806.0504780856609
 20
13.78258628282265
 30
0.0
 11
10.05047808566086
 21
13.78258628282265
 31
0.0
  0
LINE
  5
11E
330
1A
100
AcDbEntity
  8
ZUWAKU
  6
CONTINUOUS
 62
     7
100
AcDbLine
 10
10.05047808566086
 20
563.7825862828226
 30
0.0
 11
10.05047808566086
 21
13.78258628282265
 31
0.0
  0
LINE
  5
11F
330
1A
100
AcDbEntity
  8
ZUWAKU
 62
     7
 48
10.0
100
AcDbLine
 10
44.55797523147839
 20
13.78258628282265
 30
0.0
 11
44.5579752314784
 21
25.78258628282265
 31
0.0
  0
TEXT
  5
120
330
1A
100
AcDbEntity
  8
ZUWAKU
 62
     7
100
AcDbText
 10
16.05676551180931
 20
15.52294263804401
 30
0.0
 40
8.0
  1
品 種
100
AcDbText
  0
LINE
  5
121
330
1A
100
AcDbEntity
  8
ZUWAKU
 62
     7
 48
10.0
100
AcDbLine
 10
276.1028387068254
 20
13.78258628282265
 30
0.0
 11
276.1028387068254
 21
25.78258628282261
 31
0.0
  0
LINE
  5
122
330
1A
100
AcDbEntity
  8
ZUWAKU
 62
     7
 48
10.0
100
AcDbLine
 10
209.5138526425484
 20
13.78258628282265
 30
0.0
 11
209.5138526425485
 21
25.78258628282263
 31
0.0
  0
TEXT
  5
124
330
1A
100
AcDbEntity
  8
ZUWAKU
 62
     7
100
AcDbText
 10
215.4560837190756
 20
16.18358115302453
 30
0.0
 40
8.0
  1
品名・ｻ ｲ ｽﾞ
100
AcDbText
  0
LINE
  5
126
330
1A
100
AcDbEntity
  8
ZUWAKU
 62
     7
 48
10.0
100
AcDbLine
 10
768.7231079932794
 20
13.78258628282237
 30
0.0
 11
768.7231079932794
 21
25.78258628282254
 31
0.0
  0
LINE
  5
127
330
1A
100
AcDbEntity
  8
ZUWAKU
 62
     7
 48
10.0
100
AcDbLine
 10
733.8119002376948
 20
13.78258628282242
 30
0.0
 11
733.8119002376946
 21
25.78258628282254
 31
0.0
  0
TEXT
  5
128
330
1A
100
AcDbEntity
  8
ZUWAKU
 62
     7
100
AcDbText
 10
739.6955629973526
 20
15.24227755810852
 30
0.0
 40
8.0
  1
尺 度
100
AcDbText
  0
TEXT
  5
129
330
1A
100
AcDbEntity
  8
ZUWAKU
 62
     7
100
AcDbText
 10
779.7374630323229
 20
15.55488920081529
 30
0.0
 40
8.0
  1
1/2
100
AcDbText
  0
TEXT
  5
12B
330
1A
100
AcDbEntity
  8
ZUWAKU
 62
     7
100
AcDbText
 10
620.3363288383084
 20
15.6519090944263
 30
0.0
 40
8.0
  1
品 番
100
AcDbText
  0
LINE
  5
12C
330
1A
100
AcDbEntity
  8
ZUWAKU
 62
     7
 48
10.0
100
AcDbLine
 10
614.3351028194128
 20
13.78258628282232
 30
0.0
 11
614.3351028194128
 21
25.78258628282256
 31
0.0
  0
LINE
  5
12D
330
1A
100
AcDbEntity
  8
ZUWAKU
 62
     7
 48
10.0
100
AcDbLine
 10
648.7607587371021
 20
13.78258628282232
 30
0.0
 11
648.7607587371021
 21
25.78258628282255
 31
0.0
  0
TEXT
  5
12E
330
1A
100
AcDbEntity
  8
ZUWAKU
 62
     7
 48
10.0
100
AcDbText
 10
646.2758615931216
 20
4.949376903717848
 30
0.0
 40
8.0
  1
積水化学工業株式会社  建材
100
AcDbText
  0
LINE
  5
12F
330
1A
100
AcDbEntity
  8
ZUWAKU
  6
CONTINUOUS
 62
     7
100
AcDbLine
 10
806.0504780856609
 20
563.7825862828226
 30
0.0
 11
806.0504780856609
 21
13.78258628282265
 31
0.0
  0
TEXT
  5
3E9
330
1A
100
AcDbEntity
  8
ZUWAKU
 62
     7
100
AcDbText
 10
49.21547820815288
 20
16.10306189639755
 30
0.0
 40
8.0
  1
自在ドレン
100
AcDbText
  0
TEXT
  5
3EB
330
1A
100
AcDbEntity
  8
ZUWAKU
 62
     7
100
AcDbText
 10
281.1766829690521
 20
15.64241700452384
 30
0.0
 40
8.0
  1
ＶＵ・ＶＰ７５
100
AcDbText
  0
LINE
  5
3EF
330
1A
100
AcDbEntity
  8
SEIHIN
  6
CONTINUOUS
100
AcDbLine
 10
226.3217000986205
 20
172.2925494558289
 30
0.0
 11
133.1216994977191
 21
172.2929494558316
 31
0.0
  0
LINE
  5
3F0
330
1A
100
AcDbEntity
  8
SEIHIN
  6
CONTINUOUS
100
AcDbLine
 10
230.7218000986205
 20
240.7925494558289
 30
0.0
 11
128.7216001020518
 21
240.7929494566132
 31
0.0
  0
LINE
  5
3F1
330
1A
100
AcDbEntity
  8
SEIHIN
  6
CONTINUOUS
100
AcDbLine
 10
234.7218000986204
 20
242.7925494558289
 30
0.0
 11
124.7219000986204
 21
242.7929494561926
 31
0.0
  0
LINE
  5
3F2
330
1A
100
AcDbEntity
  8
SEIHIN
  6
CONTINUOUS
100
AcDbLine
 10
234.7218000986204
 20
243.7925494558289
 30
0.0
 11
124.7219000986204
 21
243.7929494561926
 31
0.0
  0
LINE
  5
3F7
330
1A
100
AcDbEntity
  8
SEIHIN
  6
CONTINUOUS
100
AcDbLine
 10
226.5219000986204
 20
238.7925494558289
 30
0.0
 11
132.9218997981724
 21
238.7929494549756
 31
0.0
  0
LINE
  5
3FF
330
1A
100
AcDbEntity
  8
SEIHIN
  6
CONTINUOUS
100
AcDbLine
 10
132.9219000986205
 20
238.7928494558289
 30
0.0
 11
133.1217000986205
 21
172.2927494558289
 31
0.0
  0
LINE
  5
401
330
1A
100
AcDbEntity
  8
CENTER_L
 48
5.0
100
AcDbLine
 10
179.7216000986206
 20
166.2613494558288
 30
0.0
 11
179.7218862834001
 21
250.7927494559255
 31
0.0
  0
LINE
  5
41C
330
1A
100
AcDbEntity
  8
SEIHIN
  6
CONTINUOUS
100
AcDbLine
 10
128.7218000986205
 20
240.7928494558289
 30
0.0
 11
124.7219000986204
 21
242.7928494558289
 31
0.0
  0
LINE
  5
41D
330
1A
100
AcDbEntity
  8
SEIHIN
  6
CONTINUOUS
100
AcDbLine
 10
124.7219000986204
 20
242.7928494558289
 30
0.0
 11
124.7219000986204
 21
243.792849455829
 31
0.0
  0
LINE
  5
41E
330
1A
100
AcDbEntity
  8
SEIHIN
  6
CONTINUOUS
100
AcDbLine
 10
132.9219000986205
 20
238.7928494558289
 30
0.0
 11
130.9219000986205
 21
240.7928494558289
 31
0.0
  0
LINE
  5
42B
330
1A
100
AcDbEntity
  8
SEIHIN
  6
CONTINUOUS
100
AcDbLine
 10
226.3217000986205
 20
172.2925494558289
 30
0.0
 11
226.5219000986204
 21
238.7926494558289
 31
0.0
  0
LINE
  5
44F
330
1A
100
AcDbEntity
  8
SEIHIN
  6
CONTINUOUS
100
AcDbLine
 10
230.7218000986205
 20
240.7925494558289
 30
0.0
 11
234.7218000986204
 21
242.7925494558289
 31
0.0
  0
LINE
  5
452
330
1A
100
AcDbEntity
  8
SEIHIN
  6
CONTINUOUS
100
AcDbLine
 10
226.5219000986204
 20
238.7926494558289
 30
0.0
 11
228.5219000986205
 21
240.7925494558289
 31
0.0
  0
LINE
  5
456
330
1A
100
AcDbEntity
  8
SEIHIN
  6
CONTINUOUS
100
AcDbLine
 10
234.7218000986204
 20
242.7925494558289
 30
0.0
 11
234.7218000986204
 21
243.7925494558289
 31
0.0
  0
LINE
  5
48A
330
1A
100
AcDbEntity
  8
CENTER_L
 48
5.0
100
AcDbLine
 10
114.8186000986205
 20
395.9511494558288
 30
0.0
 11
246.5708000986204
 21
395.950949455829
 31
0.0
  0
LINE
  5
48F
330
1A
100
AcDbEntity
  8
CENTER_L
 48
5.0
100
AcDbLine
 10
179.7222000986205
 20
395.9510494558288
 30
0.0
 11
179.7223000986205
 21
460.7802494558289
 31
0.0
  0
LINE
  5
490
330
1A
100
AcDbEntity
  8
CENTER_L
 48
5.0
100
AcDbLine
 10
179.7222000986205
 20
395.9511494558288
 30
0.0
 11
179.7221000986206
 21
335.7927494558289
 31
0.0
  0
LINE
  5
4E9
330
1A
100
AcDbEntity
  8
CENTER_L
 48
5.0
100
AcDbLine
 10
664.171615519667
 20
319.2713645754744
 30
0.0
 11
664.1719155196672
 21
401.1089645754744
 31
0.0
  0
TEXT
  5
4EA
330
1A
100
AcDbEntity
  8
ZUWAKU
 62
     7
100
AcDbText
 10
653.1167133455221
 20
15.90287984531518
 30
0.0
 40
8.0
  1
ＧＬ０４
100
AcDbText
  0
LINE
  5
4EE
330
1A
100
AcDbEntity
  8
SEIHIN
  6
CONTINUOUS
100
AcDbLine
 10
710.7716155196672
 20
168.9907645754743
 30
0.0
 11
664.171615519667
 21
168.9909645754744
 31
0.0
  0
LINE
  5
4EF
330
1A
100
AcDbEntity
  8
SEIHIN
  6
CONTINUOUS
100
AcDbLine
 10
719.1718155196672
 20
240.4907645754744
 30
0.0
 11
664.1718155196672
 21
240.4909645754745
 31
0.0
  0
LINE
  5
4F0
330
1A
100
AcDbEntity
  8
SEIHIN
  6
CONTINUOUS
100
AcDbLine
 10
700.9965155196671
 20
200.4907645754745
 30
0.0
 11
664.1717155196673
 21
200.4909645754744
 31
0.0
  0
LINE
  5
4F1
330
1A
100
AcDbEntity
  8
SEIHIN
  6
CONTINUOUS
100
AcDbLine
 10
706.6715155196673
 20
205.4907645754743
 30
0.0
 11
664.1717155196673
 21
205.4909645754744
 31
0.0
  0
LINE
  5
4F2
330
1A
100
AcDbEntity
  8
SEIHIN
  6
CONTINUOUS
100
AcDbLine
 10
706.6715155196673
 20
234.0189645754744
 30
0.0
 11
664.171615519667
 21
234.0189645754744
 31
0.0
  0
LINE
  5
4F3
330
1A
100
AcDbEntity
  8
SEIHIN
  6
CONTINUOUS
100
AcDbLine
 10
716.171815519667
 20
239.4907645754745
 30
0.0
 11
664.1718155196672
 21
239.4909645754744
 31
0.0
  0
LINE
  5
4F6
330
1A
100
AcDbEntity
  8
SEIHIN
  6
CONTINUOUS
100
AcDbLine
 10
661.1566155196672
 20
209.1214645754744
 30
0.0
 11
661.1566155196672
 21
208.1203645754744
 31
0.0
  0
LINE
  5
4F7
330
1A
100
AcDbEntity
  8
SEIHIN
  6
CONTINUOUS
100
AcDbLine
 10
659.9622155196673
 20
209.8971645754744
 30
0.0
 11
642.9178155196673
 21
207.4909645754745
 31
0.0
  0
LINE
  5
4F8
330
1A
100
AcDbEntity
  8
SEIHIN
  6
CONTINUOUS
100
AcDbLine
 10
661.1566155196672
 20
209.1214645754744
 30
0.0
 11
649.6066155196672
 21
207.4909645754745
 31
0.0
  0
LINE
  5
4F9
330
1A
100
AcDbEntity
  8
SEIHIN
  6
CONTINUOUS
100
AcDbLine
 10
630.845715519667
 20
208.8422645754744
 30
0.0
 11
630.845715519667
 21
207.8411645754744
 31
0.0
  0
LINE
  5
4FA
330
1A
100
AcDbEntity
  8
SEIHIN
  6
CONTINUOUS
100
AcDbLine
 10
630.845715519667
 20
208.8422645754744
 30
0.0
 11
630.845715519667
 21
207.8411645754744
 31
0.0
  0
LINE
  5
4FB
330
1A
100
AcDbEntity
  8
SEIHIN
  6
CONTINUOUS
100
AcDbLine
 10
629.6513155196671
 20
209.6179645754744
 30
0.0
 11
629.6513155196671
 21
207.4910645754744
 31
0.0
  0
LINE
  5
4FC
330
1A
100
AcDbEntity
  8
SEIHIN
  6
CONTINUOUS
100
AcDbLine
 10
621.6716155196673
 20
205.4910645754744
 30
0.0
 11
621.6718155196672
 21
234.0191645754745
 31
0.0
  0
LINE
  5
4FD
330
1A
100
AcDbEntity
  8
SEIHIN
  6
CONTINUOUS
100
AcDbLine
 10
617.5714155196672
 20
168.9910645754745
 30
0.0
 11
617.3715155196672
 21
235.4910645754744
 31
0.0
  0
LINE
  5
4FE
330
1A
100
AcDbEntity
  8
SEIHIN
  6
CONTINUOUS
100
AcDbLine
 10
659.9622155196673
 20
210.3959645754744
 30
0.0
 11
639.384515519667
 21
207.4909645754745
 31
0.0
  0
LINE
  5
4FF
330
1A
100
AcDbEntity
  8
SEIHIN
  6
CONTINUOUS
100
AcDbLine
 10
661.1566155196672
 20
212.1202645754745
 30
0.0
 11
630.845715519667
 21
207.8411645754744
 31
0.0
  0
LINE
  5
500
330
1A
100
AcDbEntity
  8
CENTER_L
 48
5.0
100
AcDbLine
 10
664.1715155196671
 20
162.9595645754744
 30
0.0
 11
664.1718155196672
 21
249.6670645754744
 31
0.0
  0
LINE
  5
505
330
1A
100
AcDbEntity
  8
SEIHIN
  6
CONTINUOUS
100
AcDbLine
 10
621.6716155196673
 20
205.4910645754744
 30
0.0
 11
664.1715155196671
 21
205.4909645754744
 31
0.0
  0
LINE
  5
506
330
1A
100
AcDbEntity
  8
SEIHIN
  6
CONTINUOUS
100
AcDbLine
 10
629.6513155196671
 20
207.4909645754745
 30
0.0
 11
660.720615519667
 21
207.4909645754745
 31
0.0
  0
LINE
  5
507
330
1A
100
AcDbEntity
  8
SEIHIN
  6
CONTINUOUS
100
AcDbLine
 10
627.3466155196672
 20
200.4909645754744
 30
0.0
 11
664.1715155196671
 21
200.4909645754744
 31
0.0
  0
LINE
  5
508
330
1A
100
AcDbEntity
  8
SEIHIN
  6
CONTINUOUS
100
AcDbLine
 10
617.5714155196672
 20
168.9910645754745
 30
0.0
 11
664.1714155196673
 21
168.9909645754744
 31
0.0
  0
LINE
  5
509
330
1A
100
AcDbEntity
  8
SEIHIN
  6
CONTINUOUS
100
AcDbLine
 10
619.846515519667
 20
203.9910645754745
 30
0.0
 11
619.3715155196672
 21
168.9910645754745
 31
0.0
  0
LINE
  5
50A
330
1A
100
AcDbEntity
  8
SEIHIN
  6
CONTINUOUS
100
AcDbLine
 10
619.846515519667
 20
203.9910645754745
 30
0.0
 11
624.346615519667
 21
203.9910645754745
 31
0.0
  0
LINE
  5
50B
330
1A
100
AcDbEntity
  8
SEIHIN
  6
CONTINUOUS
100
AcDbLine
 10
630.845715519667
 20
207.8411645754744
 30
0.0
 11
630.6031155196672
 21
207.4909645754745
 31
0.0
  0
LINE
  5
50C
330
1A
100
AcDbEntity
  8
SEIHIN
  6
CONTINUOUS
100
AcDbLine
 10
627.671515519667
 20
200.4907645754745
 30
0.0
 11
627.671515519667
 21
205.4907645754743
 31
0.0
  0
LINE
  5
50D
330
1A
100
AcDbEntity
  8
SEIHIN
  6
CONTINUOUS
100
AcDbLine
 10
625.8466155196672
 20
201.9909645754744
 30
0.0
 11
625.8466155196672
 21
202.4909645754744
 31
0.0
  0
ARC
  5
50E
330
1A
100
AcDbEntity
  8
SEIHIN
  6
CONTINUOUS
100
AcDbCircle
 10
627.3466155196672
 20
201.9909645754744
 30
0.0
 40
1.5
100
AcDbArc
 50
180.0
 51
270.0
  0
ARC
  5
50F
330
1A
100
AcDbEntity
  8
SEIHIN
  6
CONTINUOUS
100
AcDbCircle
 10
624.3466155196672
 20
202.4909645754743
 30
0.0
 40
1.500000000000085
100
AcDbArc
 50
0.0000000000032569
 51
90.00000000000325
  0
LINE
  5
510
330
1A
100
AcDbEntity
  8
SEIHIN
  6
CONTINUOUS
100
AcDbLine
 10
661.1566155196672
 20
208.1203645754744
 30
0.0
 11
656.6979155196673
 21
207.4909645754745
 31
0.0
  0
LINE
  5
511
330
1A
100
AcDbEntity
  8
SEIHIN
  6
CONTINUOUS
100
AcDbLine
 10
661.1566155196672
 20
208.1203645754744
 30
0.0
 11
660.720615519667
 21
207.4909645754745
 31
0.0
  0
LINE
  5
512
330
1A
100
AcDbEntity
  8
SEIHIN
  6
CONTINUOUS
100
AcDbLine
 10
617.3715155196672
 20
235.4910645754744
 30
0.0
 11
615.3715155196672
 21
237.4910645754744
 31
0.0
  0
LINE
  5
513
330
1A
100
AcDbEntity
  8
SEIHIN
  6
CONTINUOUS
100
AcDbLine
 10
612.171715519667
 20
239.4910645754745
 30
0.0
 11
664.1717155196673
 21
239.4909645754744
 31
0.0
  0
LINE
  5
514
330
1A
100
AcDbEntity
  8
SEIHIN
  6
CONTINUOUS
100
AcDbLine
 10
609.1717155196672
 20
240.4910645754745
 30
0.0
 11
664.1717155196673
 21
240.4908645754744
 31
0.0
  0
LINE
  5
515
330
1A
100
AcDbEntity
  8
SEIHIN
  6
CONTINUOUS
100
AcDbLine
 10
612.171715519667
 20
239.4910645754745
 30
0.0
 11
612.171715519667
 21
240.4910645754745
 31
0.0
  0
LINE
  5
516
330
1A
100
AcDbEntity
  8
SEIHIN
  6
CONTINUOUS
100
AcDbLine
 10
613.1716155196673
 20
237.4910645754744
 30
0.0
 11
609.1717155196672
 21
239.4910645754745
 31
0.0
  0
LINE
  5
517
330
1A
100
AcDbEntity
  8
SEIHIN
  6
CONTINUOUS
100
AcDbLine
 10
609.1717155196672
 20
239.4910645754745
 30
0.0
 11
609.1717155196672
 21
240.4910645754745
 31
0.0
  0
LINE
  5
518
330
1A
100
AcDbEntity
  8
SEIHIN
  6
CONTINUOUS
100
AcDbLine
 10
613.1716155196673
 20
237.4909645754744
 30
0.0
 11
615.3716155196672
 21
237.4909645754744
 31
0.0
  0
LINE
  5
519
330
1A
100
AcDbEntity
  8
SEIHIN
  6
CONTINUOUS
100
AcDbLine
 10
621.6718155196672
 20
234.0191645754745
 30
0.0
 11
664.1717155196673
 21
234.0189645754744
 31
0.0
  0
LINE
  5
51A
330
1A
100
AcDbEntity
  8
SEIHIN
  6
CONTINUOUS
100
AcDbLine
 10
629.6513155196671
 20
232.4909645754745
 30
0.0
 11
661.1566155196672
 21
232.4909645754745
 31
0.0
  0
LINE
  5
51B
330
1A
100
AcDbEntity
  8
SEIHIN
  6
CONTINUOUS
100
AcDbLine
 10
656.6958155196673
 20
232.4909645754745
 30
0.0
 11
630.845715519667
 21
228.8415645754744
 31
0.0
  0
LINE
  5
51C
330
1A
100
AcDbEntity
  8
SEIHIN
  6
CONTINUOUS
100
AcDbLine
 10
659.9622155196673
 20
230.3953645754744
 30
0.0
 11
629.6513155196671
 21
226.1162645754744
 31
0.0
  0
LINE
  5
51D
330
1A
100
AcDbEntity
  8
SEIHIN
  6
CONTINUOUS
100
AcDbLine
 10
661.1566155196672
 20
232.1195645754745
 30
0.0
 11
630.845715519667
 21
227.8404645754744
 31
0.0
  0
LINE
  5
51E
330
1A
100
AcDbEntity
  8
SEIHIN
  6
CONTINUOUS
100
AcDbLine
 10
650.0070155196672
 20
232.4909645754745
 30
0.0
 11
629.6513155196671
 21
229.6172645754744
 31
0.0
  0
LINE
  5
51F
330
1A
100
AcDbEntity
  8
SEIHIN
  6
CONTINUOUS
100
AcDbLine
 10
659.9622155196673
 20
229.8964645754744
 30
0.0
 11
629.6513155196671
 21
225.6173645754744
 31
0.0
  0
LINE
  5
520
330
1A
100
AcDbEntity
  8
SEIHIN
  6
CONTINUOUS
100
AcDbLine
 10
659.9622155196673
 20
226.3954645754745
 30
0.0
 11
629.6513155196671
 21
222.1163645754744
 31
0.0
  0
LINE
  5
521
330
1A
100
AcDbEntity
  8
SEIHIN
  6
CONTINUOUS
100
AcDbLine
 10
661.1566155196672
 20
228.1196645754744
 30
0.0
 11
630.845715519667
 21
223.8406645754744
 31
0.0
  0
LINE
  5
522
330
1A
100
AcDbEntity
  8
SEIHIN
  6
CONTINUOUS
100
AcDbLine
 10
661.1566155196672
 20
229.1208645754744
 30
0.0
 11
630.845715519667
 21
224.8417645754745
 31
0.0
  0
LINE
  5
523
330
1A
100
AcDbEntity
  8
SEIHIN
  6
CONTINUOUS
100
AcDbLine
 10
659.9622155196673
 20
225.8966645754744
 30
0.0
 11
629.6513155196671
 21
221.6175645754745
 31
0.0
  0
LINE
  5
524
330
1A
100
AcDbEntity
  8
SEIHIN
  6
CONTINUOUS
100
AcDbLine
 10
659.9622155196673
 20
222.3955645754744
 30
0.0
 11
629.6513155196671
 21
218.1164645754744
 31
0.0
  0
LINE
  5
525
330
1A
100
AcDbEntity
  8
SEIHIN
  6
CONTINUOUS
100
AcDbLine
 10
661.1566155196672
 20
224.1198645754744
 30
0.0
 11
630.845715519667
 21
219.8407645754744
 31
0.0
  0
LINE
  5
526
330
1A
100
AcDbEntity
  8
SEIHIN
  6
CONTINUOUS
100
AcDbLine
 10
661.1566155196672
 20
225.1209645754744
 30
0.0
 11
630.845715519667
 21
220.8418645754744
 31
0.0
  0
LINE
  5
527
330
1A
100
AcDbEntity
  8
SEIHIN
  6
CONTINUOUS
100
AcDbLine
 10
659.9622155196673
 20
221.8967645754744
 30
0.0
 11
629.6513155196671
 21
217.6176645754745
 31
0.0
  0
LINE
  5
528
330
1A
100
AcDbEntity
  8
SEIHIN
  6
CONTINUOUS
100
AcDbLine
 10
659.9622155196673
 20
218.3957645754744
 30
0.0
 11
629.6513155196671
 21
214.1166645754744
 31
0.0
  0
LINE
  5
529
330
1A
100
AcDbEntity
  8
SEIHIN
  6
CONTINUOUS
100
AcDbLine
 10
661.1566155196672
 20
220.1199645754744
 30
0.0
 11
630.845715519667
 21
215.8408645754744
 31
0.0
  0
LINE
  5
52A
330
1A
100
AcDbEntity
  8
SEIHIN
  6
CONTINUOUS
100
AcDbLine
 10
661.1566155196672
 20
221.1210645754745
 30
0.0
 11
630.845715519667
 21
216.8420645754745
 31
0.0
  0
LINE
  5
52B
330
1A
100
AcDbEntity
  8
SEIHIN
  6
CONTINUOUS
100
AcDbLine
 10
659.9622155196673
 20
217.8968645754745
 30
0.0
 11
629.6513155196671
 21
213.6177645754745
 31
0.0
  0
LINE
  5
52C
330
1A
100
AcDbEntity
  8
SEIHIN
  6
CONTINUOUS
100
AcDbLine
 10
659.9622155196673
 20
214.3958645754744
 30
0.0
 11
629.6513155196671
 21
210.1167645754745
 31
0.0
  0
LINE
  5
52D
330
1A
100
AcDbEntity
  8
SEIHIN
  6
CONTINUOUS
100
AcDbLine
 10
661.1566155196672
 20
216.1201645754744
 30
0.0
 11
630.845715519667
 21
211.8410645754745
 31
0.0
  0
LINE
  5
52E
330
1A
100
AcDbEntity
  8
SEIHIN
  6
CONTINUOUS
100
AcDbLine
 10
661.1566155196672
 20
217.1212645754744
 30
0.0
 11
630.845715519667
 21
212.8421645754745
 31
0.0
  0
LINE
  5
52F
330
1A
100
AcDbEntity
  8
SEIHIN
  6
CONTINUOUS
100
AcDbLine
 10
659.9622155196673
 20
213.8970645754744
 30
0.0
 11
629.6513155196671
 21
209.6179645754744
 31
0.0
  0
LINE
  5
530
330
1A
100
AcDbEntity
  8
SEIHIN
  6
CONTINUOUS
100
AcDbLine
 10
661.1566155196672
 20
213.1213645754744
 30
0.0
 11
630.845715519667
 21
208.8422645754744
 31
0.0
  0
LINE
  5
531
330
1A
100
AcDbEntity
  8
SEIHIN
  6
CONTINUOUS
100
AcDbLine
 10
630.845715519667
 20
231.8403645754745
 30
0.0
 11
629.6513155196671
 21
230.1160645754745
 31
0.0
  0
LINE
  5
532
330
1A
100
AcDbEntity
  8
SEIHIN
  6
CONTINUOUS
100
AcDbLine
 10
629.6513155196671
 20
232.4910645754744
 30
0.0
 11
629.6513155196671
 21
230.1160645754745
 31
0.0
  0
LINE
  5
533
330
1A
100
AcDbEntity
  8
SEIHIN
  6
CONTINUOUS
100
AcDbLine
 10
646.4737155196671
 20
232.4909645754745
 30
0.0
 11
629.6513155196671
 21
230.1160645754745
 31
0.0
  0
LINE
  5
534
330
1A
100
AcDbEntity
  8
SEIHIN
  6
CONTINUOUS
100
AcDbLine
 10
630.845715519667
 20
220.8418645754744
 30
0.0
 11
630.845715519667
 21
219.8407645754744
 31
0.0
  0
LINE
  5
535
330
1A
100
AcDbEntity
  8
SEIHIN
  6
CONTINUOUS
100
AcDbLine
 10
630.845715519667
 20
220.8418645754744
 30
0.0
 11
630.845715519667
 21
219.8407645754744
 31
0.0
  0
LINE
  5
536
330
1A
100
AcDbEntity
  8
SEIHIN
  6
CONTINUOUS
100
AcDbLine
 10
629.6513155196671
 20
221.6175645754745
 30
0.0
 11
629.6513155196671
 21
218.1164645754744
 31
0.0
  0
LINE
  5
537
330
1A
100
AcDbEntity
  8
SEIHIN
  6
CONTINUOUS
100
AcDbLine
 10
630.845715519667
 20
216.8420645754745
 30
0.0
 11
630.845715519667
 21
215.8408645754744
 31
0.0
  0
LINE
  5
538
330
1A
100
AcDbEntity
  8
SEIHIN
  6
CONTINUOUS
100
AcDbLine
 10
630.845715519667
 20
216.8420645754745
 30
0.0
 11
630.845715519667
 21
215.8408645754744
 31
0.0
  0
LINE
  5
539
330
1A
100
AcDbEntity
  8
SEIHIN
  6
CONTINUOUS
100
AcDbLine
 10
630.845715519667
 20
212.8421645754745
 30
0.0
 11
630.845715519667
 21
211.8410645754745
 31
0.0
  0
LINE
  5
53A
330
1A
100
AcDbEntity
  8
SEIHIN
  6
CONTINUOUS
100
AcDbLine
 10
630.845715519667
 20
212.8421645754745
 30
0.0
 11
630.845715519667
 21
211.8410645754745
 31
0.0
  0
LINE
  5
53B
330
1A
100
AcDbEntity
  8
SEIHIN
  6
CONTINUOUS
100
AcDbLine
 10
629.6513155196671
 20
217.6176645754745
 30
0.0
 11
629.6513155196671
 21
214.1166645754744
 31
0.0
  0
LINE
  5
53C
330
1A
100
AcDbEntity
  8
SEIHIN
  6
CONTINUOUS
100
AcDbLine
 10
629.6513155196671
 20
213.6177645754745
 30
0.0
 11
629.6513155196671
 21
210.1167645754745
 31
0.0
  0
LINE
  5
53D
330
1A
100
AcDbEntity
  8
SEIHIN
  6
CONTINUOUS
100
AcDbLine
 10
630.845715519667
 20
219.8407645754744
 30
0.0
 11
629.6513155196671
 21
218.1164645754744
 31
0.0
  0
LINE
  5
53E
330
1A
100
AcDbEntity
  8
SEIHIN
  6
CONTINUOUS
100
AcDbLine
 10
629.6513155196671
 20
217.6176645754745
 30
0.0
 11
630.845715519667
 21
216.8420645754745
 31
0.0
  0
LINE
  5
53F
330
1A
100
AcDbEntity
  8
SEIHIN
  6
CONTINUOUS
100
AcDbLine
 10
630.845715519667
 20
215.8408645754744
 30
0.0
 11
629.6513155196671
 21
214.1166645754744
 31
0.0
  0
LINE
  5
540
330
1A
100
AcDbEntity
  8
SEIHIN
  6
CONTINUOUS
100
AcDbLine
 10
629.6513155196671
 20
213.6177645754745
 30
0.0
 11
630.845715519667
 21
212.8421645754745
 31
0.0
  0
LINE
  5
541
330
1A
100
AcDbEntity
  8
SEIHIN
  6
CONTINUOUS
100
AcDbLine
 10
630.845715519667
 20
211.8410645754745
 30
0.0
 11
629.6513155196671
 21
210.1167645754745
 31
0.0
  0
LINE
  5
542
330
1A
100
AcDbEntity
  8
SEIHIN
  6
CONTINUOUS
100
AcDbLine
 10
629.6513155196671
 20
209.6179645754744
 30
0.0
 11
630.845715519667
 21
208.8422645754744
 31
0.0
  0
LINE
  5
543
330
1A
100
AcDbEntity
  8
SEIHIN
  6
CONTINUOUS
100
AcDbLine
 10
630.845715519667
 20
228.8415645754744
 30
0.0
 11
630.845715519667
 21
227.8404645754744
 31
0.0
  0
LINE
  5
544
330
1A
100
AcDbEntity
  8
SEIHIN
  6
CONTINUOUS
100
AcDbLine
 10
630.845715519667
 20
228.8415645754744
 30
0.0
 11
630.845715519667
 21
227.8404645754744
 31
0.0
  0
LINE
  5
545
330
1A
100
AcDbEntity
  8
SEIHIN
  6
CONTINUOUS
100
AcDbLine
 10
630.845715519667
 20
224.8417645754745
 30
0.0
 11
630.845715519667
 21
223.8406645754744
 31
0.0
  0
LINE
  5
546
330
1A
100
AcDbEntity
  8
SEIHIN
  6
CONTINUOUS
100
AcDbLine
 10
630.845715519667
 20
224.8417645754745
 30
0.0
 11
630.845715519667
 21
223.8406645754744
 31
0.0
  0
LINE
  5
547
330
1A
100
AcDbEntity
  8
SEIHIN
  6
CONTINUOUS
100
AcDbLine
 10
629.6513155196671
 20
229.6172645754744
 30
0.0
 11
629.6513155196671
 21
226.1162645754744
 31
0.0
  0
LINE
  5
548
330
1A
100
AcDbEntity
  8
SEIHIN
  6
CONTINUOUS
100
AcDbLine
 10
629.6513155196671
 20
225.6173645754744
 30
0.0
 11
629.6513155196671
 21
222.1163645754744
 31
0.0
  0
LINE
  5
549
330
1A
100
AcDbEntity
  8
SEIHIN
  6
CONTINUOUS
100
AcDbLine
 10
629.6513155196671
 20
229.6172645754744
 30
0.0
 11
630.845715519667
 21
228.8415645754744
 31
0.0
  0
LINE
  5
54A
330
1A
100
AcDbEntity
  8
SEIHIN
  6
CONTINUOUS
100
AcDbLine
 10
630.845715519667
 20
227.8404645754744
 30
0.0
 11
629.6513155196671
 21
226.1162645754744
 31
0.0
  0
LINE
  5
54B
330
1A
100
AcDbEntity
  8
SEIHIN
  6
CONTINUOUS
100
AcDbLine
 10
629.6513155196671
 20
225.6173645754744
 30
0.0
 11
630.845715519667
 21
224.8417645754745
 31
0.0
  0
LINE
  5
54C
330
1A
100
AcDbEntity
  8
SEIHIN
  6
CONTINUOUS
100
AcDbLine
 10
630.845715519667
 20
223.8406645754744
 30
0.0
 11
629.6513155196671
 21
222.1163645754744
 31
0.0
  0
LINE
  5
54D
330
1A
100
AcDbEntity
  8
SEIHIN
  6
CONTINUOUS
100
AcDbLine
 10
629.6513155196671
 20
221.6175645754745
 30
0.0
 11
630.845715519667
 21
220.8418645754744
 31
0.0
  0
LINE
  5
54E
330
1A
100
AcDbEntity
  8
SEIHIN
  6
CONTINUOUS
100
AcDbLine
 10
635.4545155196672
 20
232.4909645754745
 30
0.0
 11
630.845715519667
 21
231.8403645754745
 31
0.0
  0
LINE
  5
54F
330
1A
100
AcDbEntity
  8
SEIHIN
  6
CONTINUOUS
100
AcDbLine
 10
616.2001155196671
 20
239.4910645754745
 30
0.0
 11
621.6718155196672
 21
234.0191645754745
 31
0.0
  0
LINE
  5
550
330
1A
100
AcDbEntity
  8
SEIHIN
  6
CONTINUOUS
100
AcDbLine
 10
630.845715519667
 20
232.4910645754744
 30
0.0
 11
630.845715519667
 21
231.8403645754745
 31
0.0
  0
LINE
  5
551
330
1A
100
AcDbEntity
  8
SEIHIN
  6
CONTINUOUS
100
AcDbLine
 10
630.845715519667
 20
232.4910645754744
 30
0.0
 11
630.845715519667
 21
231.8403645754745
 31
0.0
  0
LINE
  5
552
330
1A
100
AcDbEntity
  8
SEIHIN
  6
CONTINUOUS
100
AcDbLine
 10
661.1566155196672
 20
232.1195645754745
 30
0.0
 11
659.9622155196673
 21
230.3953645754744
 31
0.0
  0
LINE
  5
553
330
1A
100
AcDbEntity
  8
SEIHIN
  6
CONTINUOUS
100
AcDbLine
 10
661.1566155196672
 20
220.1199645754744
 30
0.0
 11
659.9622155196673
 21
218.3957645754744
 31
0.0
  0
LINE
  5
554
330
1A
100
AcDbEntity
  8
SEIHIN
  6
CONTINUOUS
100
AcDbLine
 10
659.9622155196673
 20
217.8968645754745
 30
0.0
 11
661.1566155196672
 21
217.1212645754744
 31
0.0
  0
LINE
  5
555
330
1A
100
AcDbEntity
  8
SEIHIN
  6
CONTINUOUS
100
AcDbLine
 10
661.1566155196672
 20
217.1212645754744
 30
0.0
 11
661.1566155196672
 21
216.1201645754744
 31
0.0
  0
LINE
  5
556
330
1A
100
AcDbEntity
  8
SEIHIN
  6
CONTINUOUS
100
AcDbLine
 10
661.1566155196672
 20
216.1201645754744
 30
0.0
 11
659.9622155196673
 21
214.3958645754744
 31
0.0
  0
LINE
  5
557
330
1A
100
AcDbEntity
  8
SEIHIN
  6
CONTINUOUS
100
AcDbLine
 10
659.9622155196673
 20
213.8970645754744
 30
0.0
 11
661.1566155196672
 21
213.1213645754744
 31
0.0
  0
LINE
  5
558
330
1A
100
AcDbEntity
  8
SEIHIN
  6
CONTINUOUS
100
AcDbLine
 10
661.1566155196672
 20
213.1213645754744
 30
0.0
 11
661.1566155196672
 21
212.1202645754745
 31
0.0
  0
LINE
  5
559
330
1A
100
AcDbEntity
  8
SEIHIN
  6
CONTINUOUS
100
AcDbLine
 10
661.1566155196672
 20
212.1202645754745
 30
0.0
 11
659.9622155196673
 21
210.3959645754744
 31
0.0
  0
LINE
  5
55A
330
1A
100
AcDbEntity
  8
SEIHIN
  6
CONTINUOUS
100
AcDbLine
 10
659.9622155196673
 20
209.8971645754744
 30
0.0
 11
661.1566155196672
 21
209.1214645754744
 31
0.0
  0
LINE
  5
55B
330
1A
100
AcDbEntity
  8
SEIHIN
  6
CONTINUOUS
100
AcDbLine
 10
659.9622155196673
 20
229.8964645754744
 30
0.0
 11
661.1566155196672
 21
229.1208645754744
 31
0.0
  0
LINE
  5
55C
330
1A
100
AcDbEntity
  8
SEIHIN
  6
CONTINUOUS
100
AcDbLine
 10
661.1566155196672
 20
229.1208645754744
 30
0.0
 11
661.1566155196672
 21
228.1196645754744
 31
0.0
  0
LINE
  5
55D
330
1A
100
AcDbEntity
  8
SEIHIN
  6
CONTINUOUS
100
AcDbLine
 10
661.1566155196672
 20
228.1196645754744
 30
0.0
 11
659.9622155196673
 21
226.3954645754745
 31
0.0
  0
LINE
  5
55E
330
1A
100
AcDbEntity
  8
SEIHIN
  6
CONTINUOUS
100
AcDbLine
 10
659.9622155196673
 20
225.8966645754744
 30
0.0
 11
661.1566155196672
 21
225.1209645754744
 31
0.0
  0
LINE
  5
55F
330
1A
100
AcDbEntity
  8
SEIHIN
  6
CONTINUOUS
100
AcDbLine
 10
661.1566155196672
 20
225.1209645754744
 30
0.0
 11
661.1566155196672
 21
224.1198645754744
 31
0.0
  0
LINE
  5
560
330
1A
100
AcDbEntity
  8
SEIHIN
  6
CONTINUOUS
100
AcDbLine
 10
661.1566155196672
 20
224.1198645754744
 30
0.0
 11
659.9622155196673
 21
222.3955645754744
 31
0.0
  0
LINE
  5
561
330
1A
100
AcDbEntity
  8
SEIHIN
  6
CONTINUOUS
100
AcDbLine
 10
659.9622155196673
 20
221.8967645754744
 30
0.0
 11
661.1566155196672
 21
221.1210645754745
 31
0.0
  0
LINE
  5
562
330
1A
100
AcDbEntity
  8
SEIHIN
  6
CONTINUOUS
100
AcDbLine
 10
661.1566155196672
 20
221.1210645754745
 30
0.0
 11
661.1566155196672
 21
220.1199645754744
 31
0.0
  0
LINE
  5
563
330
1A
100
AcDbEntity
  8
SEIHIN
  6
CONTINUOUS
100
AcDbLine
 10
661.1566155196672
 20
232.4910645754744
 30
0.0
 11
661.1566155196672
 21
232.1195645754745
 31
0.0
  0
LINE
  5
567
330
1A
100
AcDbEntity
  8
SEIHIN
  6
CONTINUOUS
100
AcDbLine
 10
700.5126155196669
 20
209.6765645754744
 30
0.0
 11
702.901515519667
 21
208.4581645754743
 31
0.0
  0
LINE
  5
568
330
1A
100
AcDbEntity
  8
SEIHIN
  6
CONTINUOUS
100
AcDbLine
 10
706.6715155196673
 20
208.4915645754743
 30
0.0
 11
702.901515519667
 21
207.9593645754744
 31
0.0
  0
LINE
  5
569
330
1A
100
AcDbEntity
  8
SEIHIN
  6
CONTINUOUS
100
AcDbLine
 10
706.6715155196673
 20
208.4915645754743
 30
0.0
 11
704.9380155196672
 21
207.4907645754743
 31
0.0
  0
LINE
  5
56A
330
1A
100
AcDbEntity
  8
SEIHIN
  6
CONTINUOUS
100
AcDbLine
 10
706.6715155196673
 20
208.9904645754744
 30
0.0
 11
702.901515519667
 21
208.4581645754743
 31
0.0
  0
LINE
  5
56B
330
1A
100
AcDbEntity
  8
SEIHIN
  6
CONTINUOUS
100
AcDbLine
 10
710.7716155196672
 20
168.9907645754743
 30
0.0
 11
710.9718155196672
 21
235.4908645754744
 31
0.0
  0
LINE
  5
574
330
1A
100
AcDbEntity
  8
SEIHIN
  6
CONTINUOUS
100
AcDbLine
 10
708.4967155196673
 20
203.9907645754744
 30
0.0
 11
708.9715155196672
 21
168.9907645754743
 31
0.0
  0
LINE
  5
575
330
1A
100
AcDbEntity
  8
SEIHIN
  6
CONTINUOUS
100
AcDbLine
 10
706.6715155196673
 20
207.4907645754743
 30
0.0
 11
702.0280155196672
 21
207.4907645754743
 31
0.0
  0
LINE
  5
576
330
1A
100
AcDbEntity
  8
SEIHIN
  6
CONTINUOUS
100
AcDbLine
 10
708.4967155196673
 20
203.9907645754744
 30
0.0
 11
703.9965155196671
 21
203.9907645754744
 31
0.0
  0
LINE
  5
577
330
1A
100
AcDbEntity
  8
SEIHIN
  6
CONTINUOUS
100
AcDbLine
 10
702.4965155196671
 20
201.9907645754744
 30
0.0
 11
702.4965155196671
 21
202.4907645754744
 31
0.0
  0
LINE
  5
578
330
1A
100
AcDbEntity
  8
SEIHIN
  6
CONTINUOUS
100
AcDbLine
 10
700.6715155196673
 20
200.4907645754745
 30
0.0
 11
700.6715155196673
 21
205.4907645754743
 31
0.0
  0
LINE
  5
579
330
1A
100
AcDbEntity
  8
SEIHIN
  6
CONTINUOUS
100
AcDbLine
 10
702.901515519667
 20
208.4581645754743
 30
0.0
 11
702.901515519667
 21
207.9593645754744
 31
0.0
  0
LINE
  5
57A
330
1A
100
AcDbEntity
  8
SEIHIN
  6
CONTINUOUS
100
AcDbLine
 10
702.901515519667
 20
207.9593645754744
 30
0.0
 11
702.0280155196672
 21
207.4907645754743
 31
0.0
  0
ARC
  5
57B
330
1A
100
AcDbEntity
  8
SEIHIN
  6
CONTINUOUS
100
AcDbCircle
 10
700.9965155196671
 20
201.9907645754745
 30
0.0
 40
1.500000000000056
100
AcDbArc
 50
269.9999999999977
 51
359.9999999999977
  0
ARC
  5
57C
330
1A
100
AcDbEntity
  8
SEIHIN
  6
CONTINUOUS
100
AcDbCircle
 10
703.9965155196671
 20
202.4907645754745
 30
0.0
 40
1.499999999999985
100
AcDbArc
 50
90.00000000000433
 51
180.0000000000037
  0
LINE
  5
57D
330
1A
100
AcDbEntity
  8
SEIHIN
  6
CONTINUOUS
100
AcDbLine
 10
706.6715155196673
 20
207.4907645754743
 30
0.0
 11
706.6715155196673
 21
205.4907645754743
 31
0.0
  0
LINE
  5
585
330
1A
100
AcDbEntity
  8
SEIHIN
  6
CONTINUOUS
100
AcDbLine
 10
715.171815519667
 20
237.4907645754745
 30
0.0
 11
712.9718155196671
 21
237.4907645754745
 31
0.0
  0
LINE
  5
586
330
1A
100
AcDbEntity
  8
SEIHIN
  6
CONTINUOUS
100
AcDbLine
 10
702.901515519667
 20
231.9585645754745
 30
0.0
 11
700.5126155196669
 21
230.6769645754744
 31
0.0
  0
LINE
  5
587
330
1A
100
AcDbEntity
  8
SEIHIN
  6
CONTINUOUS
100
AcDbLine
 10
706.6715155196673
 20
232.4907645754744
 30
0.0
 11
704.5065155196671
 21
231.2407645754745
 31
0.0
  0
LINE
  5
588
330
1A
100
AcDbEntity
  8
SEIHIN
  6
CONTINUOUS
100
AcDbLine
 10
706.6715155196673
 20
220.4911645754744
 30
0.0
 11
702.901515519667
 21
219.9589645754743
 31
0.0
  0
LINE
  5
589
330
1A
100
AcDbEntity
  8
SEIHIN
  6
CONTINUOUS
100
AcDbLine
 10
706.6715155196673
 20
220.4911645754744
 30
0.0
 11
704.5065155196671
 21
219.2412645754744
 31
0.0
  0
LINE
  5
58A
330
1A
100
AcDbEntity
  8
SEIHIN
  6
CONTINUOUS
100
AcDbLine
 10
702.901515519667
 20
220.4577645754745
 30
0.0
 11
702.901515519667
 21
219.9589645754743
 31
0.0
  0
LINE
  5
58B
330
1A
100
AcDbEntity
  8
SEIHIN
  6
CONTINUOUS
100
AcDbLine
 10
704.5065155196671
 20
218.2401645754744
 30
0.0
 11
706.6715155196673
 21
216.9901645754745
 31
0.0
  0
LINE
  5
58C
330
1A
100
AcDbEntity
  8
SEIHIN
  6
CONTINUOUS
100
AcDbLine
 10
706.6715155196673
 20
216.4913645754744
 30
0.0
 11
702.901515519667
 21
215.9590645754744
 31
0.0
  0
LINE
  5
58D
330
1A
100
AcDbEntity
  8
SEIHIN
  6
CONTINUOUS
100
AcDbLine
 10
706.6715155196673
 20
216.4913645754744
 30
0.0
 11
704.5065155196671
 21
215.2413645754744
 31
0.0
  0
LINE
  5
58E
330
1A
100
AcDbEntity
  8
SEIHIN
  6
CONTINUOUS
100
AcDbLine
 10
706.6715155196673
 20
216.9901645754745
 30
0.0
 11
702.901515519667
 21
216.4579645754744
 31
0.0
  0
LINE
  5
58F
330
1A
100
AcDbEntity
  8
SEIHIN
  6
CONTINUOUS
100
AcDbLine
 10
704.5065155196671
 20
214.2402645754744
 30
0.0
 11
706.6715155196673
 21
212.9902645754745
 31
0.0
  0
LINE
  5
590
330
1A
100
AcDbEntity
  8
SEIHIN
  6
CONTINUOUS
100
AcDbLine
 10
706.6715155196673
 20
212.4914645754744
 30
0.0
 11
702.901515519667
 21
211.9592645754745
 31
0.0
  0
LINE
  5
591
330
1A
100
AcDbEntity
  8
SEIHIN
  6
CONTINUOUS
100
AcDbLine
 10
706.6715155196673
 20
212.4914645754744
 30
0.0
 11
704.5065155196671
 21
211.2414645754745
 31
0.0
  0
LINE
  5
592
330
1A
100
AcDbEntity
  8
SEIHIN
  6
CONTINUOUS
100
AcDbLine
 10
706.6715155196673
 20
212.9902645754745
 30
0.0
 11
702.901515519667
 21
212.4580645754744
 31
0.0
  0
LINE
  5
593
330
1A
100
AcDbEntity
  8
SEIHIN
  6
CONTINUOUS
100
AcDbLine
 10
704.5065155196671
 20
210.2403645754744
 30
0.0
 11
706.6715155196673
 21
208.9904645754744
 31
0.0
  0
LINE
  5
594
330
1A
100
AcDbEntity
  8
SEIHIN
  6
CONTINUOUS
100
AcDbLine
 10
704.5065155196671
 20
219.2412645754744
 30
0.0
 11
704.5065155196671
 21
218.2401645754744
 31
0.0
  0
LINE
  5
595
330
1A
100
AcDbEntity
  8
SEIHIN
  6
CONTINUOUS
100
AcDbLine
 10
704.5065155196671
 20
219.2412645754744
 30
0.0
 11
700.5126155196669
 21
218.6773645754743
 31
0.0
  0
LINE
  5
596
330
1A
100
AcDbEntity
  8
SEIHIN
  6
CONTINUOUS
100
AcDbLine
 10
704.5065155196671
 20
218.2401645754744
 30
0.0
 11
700.5126155196669
 21
217.6762645754744
 31
0.0
  0
LINE
  5
597
330
1A
100
AcDbEntity
  8
SEIHIN
  6
CONTINUOUS
100
AcDbLine
 10
700.5126155196669
 20
218.6773645754743
 30
0.0
 11
700.5126155196669
 21
217.6762645754744
 31
0.0
  0
LINE
  5
598
330
1A
100
AcDbEntity
  8
SEIHIN
  6
CONTINUOUS
100
AcDbLine
 10
700.5126155196669
 20
217.6762645754744
 30
0.0
 11
702.901515519667
 21
216.4579645754744
 31
0.0
  0
LINE
  5
599
330
1A
100
AcDbEntity
  8
SEIHIN
  6
CONTINUOUS
100
AcDbLine
 10
702.901515519667
 20
219.9589645754743
 30
0.0
 11
700.5126155196669
 21
218.6773645754743
 31
0.0
  0
LINE
  5
59A
330
1A
100
AcDbEntity
  8
SEIHIN
  6
CONTINUOUS
100
AcDbLine
 10
702.901515519667
 20
216.4579645754744
 30
0.0
 11
702.901515519667
 21
215.9590645754744
 31
0.0
  0
LINE
  5
59B
330
1A
100
AcDbEntity
  8
SEIHIN
  6
CONTINUOUS
100
AcDbLine
 10
704.5065155196671
 20
215.2413645754744
 30
0.0
 11
704.5065155196671
 21
214.2402645754744
 31
0.0
  0
LINE
  5
59C
330
1A
100
AcDbEntity
  8
SEIHIN
  6
CONTINUOUS
100
AcDbLine
 10
704.5065155196671
 20
215.2413645754744
 30
0.0
 11
700.5126155196669
 21
214.6775645754745
 31
0.0
  0
LINE
  5
59D
330
1A
100
AcDbEntity
  8
SEIHIN
  6
CONTINUOUS
100
AcDbLine
 10
704.5065155196671
 20
214.2402645754744
 30
0.0
 11
700.5126155196669
 21
213.6764645754744
 31
0.0
  0
LINE
  5
59E
330
1A
100
AcDbEntity
  8
SEIHIN
  6
CONTINUOUS
100
AcDbLine
 10
700.5126155196669
 20
214.6775645754745
 30
0.0
 11
700.5126155196669
 21
213.6764645754744
 31
0.0
  0
LINE
  5
59F
330
1A
100
AcDbEntity
  8
SEIHIN
  6
CONTINUOUS
100
AcDbLine
 10
700.5126155196669
 20
213.6764645754744
 30
0.0
 11
702.901515519667
 21
212.4580645754744
 31
0.0
  0
LINE
  5
5A0
330
1A
100
AcDbEntity
  8
SEIHIN
  6
CONTINUOUS
100
AcDbLine
 10
702.901515519667
 20
215.9590645754744
 30
0.0
 11
700.5126155196669
 21
214.6775645754745
 31
0.0
  0
LINE
  5
5A1
330
1A
100
AcDbEntity
  8
SEIHIN
  6
CONTINUOUS
100
AcDbLine
 10
702.901515519667
 20
212.4580645754744
 30
0.0
 11
702.901515519667
 21
211.9592645754745
 31
0.0
  0
LINE
  5
5A2
330
1A
100
AcDbEntity
  8
SEIHIN
  6
CONTINUOUS
100
AcDbLine
 10
704.5065155196671
 20
211.2415645754743
 30
0.0
 11
704.5065155196671
 21
210.2403645754744
 31
0.0
  0
LINE
  5
5A3
330
1A
100
AcDbEntity
  8
SEIHIN
  6
CONTINUOUS
100
AcDbLine
 10
704.5065155196671
 20
211.2415645754743
 30
0.0
 11
700.5126155196669
 21
210.6776645754744
 31
0.0
  0
LINE
  5
5A4
330
1A
100
AcDbEntity
  8
SEIHIN
  6
CONTINUOUS
100
AcDbLine
 10
702.901515519667
 20
211.9592645754745
 30
0.0
 11
700.5126155196669
 21
210.6776645754744
 31
0.0
  0
LINE
  5
5A5
330
1A
100
AcDbEntity
  8
SEIHIN
  6
CONTINUOUS
100
AcDbLine
 10
704.5065155196671
 20
210.2403645754744
 30
0.0
 11
700.5126155196669
 21
209.6765645754744
 31
0.0
  0
LINE
  5
5A6
330
1A
100
AcDbEntity
  8
SEIHIN
  6
CONTINUOUS
100
AcDbLine
 10
700.5126155196669
 20
210.6776645754744
 30
0.0
 11
700.5126155196669
 21
209.6765645754744
 31
0.0
  0
LINE
  5
5A7
330
1A
100
AcDbEntity
  8
SEIHIN
  6
CONTINUOUS
100
AcDbLine
 10
706.6715155196673
 20
216.9901645754745
 30
0.0
 11
706.6715155196673
 21
216.4913645754744
 31
0.0
  0
LINE
  5
5A8
330
1A
100
AcDbEntity
  8
SEIHIN
  6
CONTINUOUS
100
AcDbLine
 10
706.6715155196673
 20
212.9902645754745
 30
0.0
 11
706.6715155196673
 21
212.4914645754744
 31
0.0
  0
LINE
  5
5A9
330
1A
100
AcDbEntity
  8
SEIHIN
  6
CONTINUOUS
100
AcDbLine
 10
706.6715155196673
 20
208.9904645754744
 30
0.0
 11
706.6715155196673
 21
208.4915645754743
 31
0.0
  0
LINE
  5
5AA
330
1A
100
AcDbEntity
  8
SEIHIN
  6
CONTINUOUS
100
AcDbLine
 10
704.5065155196671
 20
226.2398645754744
 30
0.0
 11
706.6715155196673
 21
224.9898645754744
 31
0.0
  0
LINE
  5
5AB
330
1A
100
AcDbEntity
  8
SEIHIN
  6
CONTINUOUS
100
AcDbLine
 10
706.6715155196673
 20
228.9897645754744
 30
0.0
 11
702.901515519667
 21
228.4575645754744
 31
0.0
  0
LINE
  5
5AC
330
1A
100
AcDbEntity
  8
SEIHIN
  6
CONTINUOUS
100
AcDbLine
 10
706.6715155196673
 20
228.4909645754744
 30
0.0
 11
704.5065155196671
 21
227.2409645754744
 31
0.0
  0
LINE
  5
5AD
330
1A
100
AcDbEntity
  8
SEIHIN
  6
CONTINUOUS
100
AcDbLine
 10
704.5065155196671
 20
230.2397645754744
 30
0.0
 11
706.6715155196673
 21
228.9897645754744
 31
0.0
  0
LINE
  5
5AE
330
1A
100
AcDbEntity
  8
SEIHIN
  6
CONTINUOUS
100
AcDbLine
 10
706.6715155196673
 20
228.4909645754744
 30
0.0
 11
702.901515519667
 21
227.9586645754744
 31
0.0
  0
LINE
  5
5AF
330
1A
100
AcDbEntity
  8
SEIHIN
  6
CONTINUOUS
100
AcDbLine
 10
706.6715155196673
 20
224.4910645754745
 30
0.0
 11
702.901515519667
 21
223.9588645754744
 31
0.0
  0
LINE
  5
5B0
330
1A
100
AcDbEntity
  8
SEIHIN
  6
CONTINUOUS
100
AcDbLine
 10
706.6715155196673
 20
224.4910645754745
 30
0.0
 11
704.5065155196671
 21
223.2410645754744
 31
0.0
  0
LINE
  5
5B1
330
1A
100
AcDbEntity
  8
SEIHIN
  6
CONTINUOUS
100
AcDbLine
 10
706.6715155196673
 20
224.9898645754744
 30
0.0
 11
702.901515519667
 21
224.4576645754745
 31
0.0
  0
LINE
  5
5B2
330
1A
100
AcDbEntity
  8
SEIHIN
  6
CONTINUOUS
100
AcDbLine
 10
706.6715155196673
 20
220.9900645754744
 30
0.0
 11
702.901515519667
 21
220.4577645754745
 31
0.0
  0
LINE
  5
5B3
330
1A
100
AcDbEntity
  8
SEIHIN
  6
CONTINUOUS
100
AcDbLine
 10
704.5065155196671
 20
222.2399645754745
 30
0.0
 11
706.6715155196673
 21
220.9900645754744
 31
0.0
  0
LINE
  5
5B4
330
1A
100
AcDbEntity
  8
SEIHIN
  6
CONTINUOUS
100
AcDbLine
 10
704.5065155196671
 20
231.2408645754744
 30
0.0
 11
704.5065155196671
 21
230.2397645754744
 31
0.0
  0
LINE
  5
5B5
330
1A
100
AcDbEntity
  8
SEIHIN
  6
CONTINUOUS
100
AcDbLine
 10
704.5065155196671
 20
230.2397645754744
 30
0.0
 11
700.5126155196669
 21
229.6758645754744
 31
0.0
  0
LINE
  5
5B6
330
1A
100
AcDbEntity
  8
SEIHIN
  6
CONTINUOUS
100
AcDbLine
 10
704.5065155196671
 20
231.2408645754744
 30
0.0
 11
700.5126155196669
 21
230.6769645754744
 31
0.0
  0
LINE
  5
5B7
330
1A
100
AcDbEntity
  8
SEIHIN
  6
CONTINUOUS
100
AcDbLine
 10
704.5065155196671
 20
227.2409645754744
 30
0.0
 11
704.5065155196671
 21
226.2398645754744
 31
0.0
  0
LINE
  5
5B8
330
1A
100
AcDbEntity
  8
SEIHIN
  6
CONTINUOUS
100
AcDbLine
 10
704.5065155196671
 20
227.2409645754744
 30
0.0
 11
700.5126155196669
 21
226.6771645754744
 31
0.0
  0
LINE
  5
5B9
330
1A
100
AcDbEntity
  8
SEIHIN
  6
CONTINUOUS
100
AcDbLine
 10
700.5126155196669
 20
230.6769645754744
 30
0.0
 11
700.5126155196669
 21
229.6758645754744
 31
0.0
  0
LINE
  5
5BA
330
1A
100
AcDbEntity
  8
SEIHIN
  6
CONTINUOUS
100
AcDbLine
 10
700.5126155196669
 20
229.6758645754744
 30
0.0
 11
702.901515519667
 21
228.4575645754744
 31
0.0
  0
LINE
  5
5BB
330
1A
100
AcDbEntity
  8
SEIHIN
  6
CONTINUOUS
100
AcDbLine
 10
702.901515519667
 20
228.4575645754744
 30
0.0
 11
702.901515519667
 21
227.9586645754744
 31
0.0
  0
LINE
  5
5BC
330
1A
100
AcDbEntity
  8
SEIHIN
  6
CONTINUOUS
100
AcDbLine
 10
704.5065155196671
 20
226.2398645754744
 30
0.0
 11
700.5126155196669
 21
225.6760645754745
 31
0.0
  0
LINE
  5
5BD
330
1A
100
AcDbEntity
  8
SEIHIN
  6
CONTINUOUS
100
AcDbLine
 10
700.5126155196669
 20
226.6771645754744
 30
0.0
 11
700.5126155196669
 21
225.6760645754745
 31
0.0
  0
LINE
  5
5BE
330
1A
100
AcDbEntity
  8
SEIHIN
  6
CONTINUOUS
100
AcDbLine
 10
700.5126155196669
 20
225.6760645754745
 30
0.0
 11
702.901515519667
 21
224.4576645754745
 31
0.0
  0
LINE
  5
5BF
330
1A
100
AcDbEntity
  8
SEIHIN
  6
CONTINUOUS
100
AcDbLine
 10
702.901515519667
 20
227.9586645754744
 30
0.0
 11
700.5126155196669
 21
226.6771645754744
 31
0.0
  0
LINE
  5
5C0
330
1A
100
AcDbEntity
  8
SEIHIN
  6
CONTINUOUS
100
AcDbLine
 10
702.901515519667
 20
224.4576645754745
 30
0.0
 11
702.901515519667
 21
223.9588645754744
 31
0.0
  0
LINE
  5
5C1
330
1A
100
AcDbEntity
  8
SEIHIN
  6
CONTINUOUS
100
AcDbLine
 10
704.5065155196671
 20
223.2410645754744
 30
0.0
 11
704.5065155196671
 21
222.2399645754745
 31
0.0
  0
LINE
  5
5C2
330
1A
100
AcDbEntity
  8
SEIHIN
  6
CONTINUOUS
100
AcDbLine
 10
704.5065155196671
 20
223.2410645754744
 30
0.0
 11
700.5126155196669
 21
222.6772645754744
 31
0.0
  0
LINE
  5
5C3
330
1A
100
AcDbEntity
  8
SEIHIN
  6
CONTINUOUS
100
AcDbLine
 10
704.5065155196671
 20
222.2399645754745
 30
0.0
 11
700.5126155196669
 21
221.6761645754744
 31
0.0
  0
LINE
  5
5C4
330
1A
100
AcDbEntity
  8
SEIHIN
  6
CONTINUOUS
100
AcDbLine
 10
700.5126155196669
 20
222.6772645754744
 30
0.0
 11
700.5126155196669
 21
221.6761645754744
 31
0.0
  0
LINE
  5
5C5
330
1A
100
AcDbEntity
  8
SEIHIN
  6
CONTINUOUS
100
AcDbLine
 10
702.901515519667
 20
223.9588645754744
 30
0.0
 11
700.5126155196669
 21
222.6772645754744
 31
0.0
  0
LINE
  5
5C6
330
1A
100
AcDbEntity
  8
SEIHIN
  6
CONTINUOUS
100
AcDbLine
 10
700.5126155196669
 20
221.6761645754744
 30
0.0
 11
702.901515519667
 21
220.4577645754745
 31
0.0
  0
LINE
  5
5C7
330
1A
100
AcDbEntity
  8
SEIHIN
  6
CONTINUOUS
100
AcDbLine
 10
706.6715155196673
 20
228.9897645754744
 30
0.0
 11
706.6715155196673
 21
228.4909645754744
 31
0.0
  0
LINE
  5
5C8
330
1A
100
AcDbEntity
  8
SEIHIN
  6
CONTINUOUS
100
AcDbLine
 10
706.6715155196673
 20
224.9898645754744
 30
0.0
 11
706.6715155196673
 21
224.4910645754745
 31
0.0
  0
LINE
  5
5C9
330
1A
100
AcDbEntity
  8
SEIHIN
  6
CONTINUOUS
100
AcDbLine
 10
706.6715155196673
 20
220.9900645754744
 30
0.0
 11
706.6715155196673
 21
220.4911645754744
 31
0.0
  0
LINE
  5
5CA
330
1A
100
AcDbEntity
  8
SEIHIN
  6
CONTINUOUS
100
AcDbLine
 10
706.6718155196672
 20
232.4907645754744
 30
0.0
 11
702.901515519667
 21
232.4907645754744
 31
0.0
  0
LINE
  5
5CB
330
1A
100
AcDbEntity
  8
SEIHIN
  6
CONTINUOUS
100
AcDbLine
 10
706.6715155196673
 20
232.4907645754744
 30
0.0
 11
702.901515519667
 21
231.9585645754745
 31
0.0
  0
LINE
  5
5CC
330
1A
100
AcDbEntity
  8
SEIHIN
  6
CONTINUOUS
100
AcDbLine
 10
702.901515519667
 20
232.4573645754744
 30
0.0
 11
702.901515519667
 21
231.9585645754745
 31
0.0
  0
LINE
  5
5CD
330
1A
100
AcDbEntity
  8
SEIHIN
  6
CONTINUOUS
100
AcDbLine
 10
710.9718155196672
 20
235.4908645754744
 30
0.0
 11
712.9718155196671
 21
237.4907645754745
 31
0.0
  0
LINE
  5
5CE
330
1A
100
AcDbEntity
  8
SEIHIN
  6
CONTINUOUS
100
AcDbLine
 10
706.6715155196673
 20
232.4907645754744
 30
0.0
 11
706.6715155196673
 21
234.0189645754744
 31
0.0
  0
LINE
  5
5CF
330
1A
100
AcDbEntity
  8
SEIHIN
  6
CONTINUOUS
100
AcDbLine
 10
712.1434155196673
 20
239.4907645754745
 30
0.0
 11
706.6715155196673
 21
234.0189645754744
 31
0.0
  0
LINE
  5
5D2
330
1A
100
AcDbEntity
  8
SEIHIN
  6
CONTINUOUS
100
AcDbLine
 10
719.1718155196672
 20
239.4907645754745
 30
0.0
 11
719.1718155196672
 21
240.4907645754744
 31
0.0
  0
LINE
  5
5D3
330
1A
100
AcDbEntity
  8
SEIHIN
  6
CONTINUOUS
100
AcDbLine
 10
716.171815519667
 20
239.4907645754745
 30
0.0
 11
716.171815519667
 21
240.4907645754744
 31
0.0
  0
LINE
  5
5D4
330
1A
100
AcDbEntity
  8
SEIHIN
  6
CONTINUOUS
100
AcDbLine
 10
715.171815519667
 20
237.4907645754745
 30
0.0
 11
719.1718155196672
 21
239.4907645754745
 31
0.0
  0
LINE
  5
5D9
330
1A
100
AcDbEntity
  8
SEIHIN
  6
CONTINUOUS
100
AcDbLine
 10
706.6719155196674
 20
332.9907645754745
 30
0.0
 11
674.7975155196672
 21
328.4909645754743
 31
0.0
  0
LINE
  5
5DA
330
1A
100
AcDbEntity
  8
SEIHIN
  6
CONTINUOUS
100
AcDbLine
 10
706.6719155196674
 20
332.4919645754744
 30
0.0
 11
678.3308155196673
 21
328.4909645754743
 31
0.0
  0
LINE
  5
5DB
330
1A
100
AcDbEntity
  8
SEIHIN
  6
CONTINUOUS
100
AcDbLine
 10
692.119215519667
 20
360.4908645754743
 30
0.0
 11
623.8365155196673
 21
350.8515645754744
 31
0.0
  0
LINE
  5
5DC
330
1A
100
AcDbEntity
  8
SEIHIN
  6
CONTINUOUS
100
AcDbLine
 10
685.028715519667
 20
360.4909645754744
 30
0.0
 11
623.8365155196673
 21
351.8520645754744
 31
0.0
  0
LINE
  5
5DD
330
1A
100
AcDbEntity
  8
SEIHIN
  6
CONTINUOUS
100
AcDbLine
 10
664.1717155196673
 20
360.4909645754744
 30
0.0
 11
706.6719155196674
 21
360.4908645754743
 31
0.0
  0
LINE
  5
5DE
330
1A
100
AcDbEntity
  8
SEIHIN
  6
CONTINUOUS
100
AcDbLine
 10
664.1717155196673
 20
328.4909645754743
 30
0.0
 11
706.6718155196672
 21
328.4908645754745
 31
0.0
  0
LINE
  5
5DF
330
1A
100
AcDbEntity
  8
SEIHIN
  6
CONTINUOUS
100
AcDbLine
 10
704.506915519667
 20
327.4908645754744
 30
0.0
 11
664.1717155196673
 21
327.4909645754744
 31
0.0
  0
LINE
  5
5E0
330
1A
100
AcDbEntity
  8
SEIHIN
  6
CONTINUOUS
100
AcDbLine
 10
664.1717155196673
 20
362.4909645754744
 30
0.0
 11
714.171815519667
 21
362.4908645754743
 31
0.0
  0
LINE
  5
5E1
330
1A
100
AcDbEntity
  8
SEIHIN
  6
CONTINUOUS
100
AcDbLine
 10
664.1718155196672
 20
394.4909645754743
 30
0.0
 11
698.5507155196671
 21
394.4908645754744
 31
0.0
  0
LINE
  5
5E2
330
1A
100
AcDbEntity
  8
SEIHIN
  6
CONTINUOUS
100
AcDbLine
 10
664.1717155196673
 20
364.4909645754744
 30
0.0
 11
704.0119155196671
 21
364.4908645754743
 31
0.0
  0
LINE
  5
5E3
330
1A
100
AcDbEntity
  8
SEIHIN
  6
CONTINUOUS
100
AcDbLine
 10
714.171815519667
 20
363.4908645754745
 30
0.0
 11
614.171615519667
 21
363.4911645754743
 31
0.0
  0
LINE
  5
5E4
330
1A
100
AcDbEntity
  8
SEIHIN
  6
CONTINUOUS
100
AcDbLine
 10
704.506915519667
 20
359.2409645754743
 30
0.0
 11
623.836415519667
 21
347.8521645754743
 31
0.0
  0
LINE
  5
5E5
330
1A
100
AcDbEntity
  8
SEIHIN
  6
CONTINUOUS
100
AcDbLine
 10
706.6719155196674
 20
360.4908645754743
 30
0.0
 11
621.6715155196671
 21
348.4910645754744
 31
0.0
  0
LINE
  5
5E6
330
1A
100
AcDbEntity
  8
SEIHIN
  6
CONTINUOUS
100
AcDbLine
 10
706.6719155196674
 20
356.4909645754744
 30
0.0
 11
621.6715155196671
 21
344.4912645754745
 31
0.0
  0
LINE
  5
5E7
330
1A
100
AcDbEntity
  8
SEIHIN
  6
CONTINUOUS
100
AcDbLine
 10
706.6719155196674
 20
356.9898645754745
 30
0.0
 11
621.6715155196671
 21
344.9900645754743
 31
0.0
  0
LINE
  5
5E8
330
1A
100
AcDbEntity
  8
SEIHIN
  6
CONTINUOUS
100
AcDbLine
 10
704.506915519667
 20
358.2397645754744
 30
0.0
 11
623.836415519667
 21
346.8516645754744
 31
0.0
  0
LINE
  5
5E9
330
1A
100
AcDbEntity
  8
SEIHIN
  6
CONTINUOUS
100
AcDbLine
 10
703.1387155196671
 20
360.4908645754743
 30
0.0
 11
621.6715155196671
 21
348.9898645754745
 31
0.0
  0
LINE
  5
5EA
330
1A
100
AcDbEntity
  8
SEIHIN
  6
CONTINUOUS
100
AcDbLine
 10
706.6719155196674
 20
352.9899645754745
 30
0.0
 11
621.6715155196671
 21
340.9901645754743
 31
0.0
  0
LINE
  5
5EB
330
1A
100
AcDbEntity
  8
SEIHIN
  6
CONTINUOUS
100
AcDbLine
 10
706.6719155196674
 20
352.4911645754743
 30
0.0
 11
621.6715155196671
 21
340.4913645754745
 31
0.0
  0
LINE
  5
5EC
330
1A
100
AcDbEntity
  8
SEIHIN
  6
CONTINUOUS
100
AcDbLine
 10
704.506915519667
 20
354.2399645754745
 30
0.0
 11
623.836415519667
 21
342.8518645754743
 31
0.0
  0
LINE
  5
5ED
330
1A
100
AcDbEntity
  8
SEIHIN
  6
CONTINUOUS
100
AcDbLine
 10
704.506915519667
 20
355.2410645754744
 30
0.0
 11
623.836415519667
 21
343.8523645754743
 31
0.0
  0
LINE
  5
5EE
330
1A
100
AcDbEntity
  8
SEIHIN
  6
CONTINUOUS
100
AcDbLine
 10
706.6719155196674
 20
348.9901645754744
 30
0.0
 11
621.6715155196671
 21
336.9903645754745
 31
0.0
  0
LINE
  5
5EF
330
1A
100
AcDbEntity
  8
SEIHIN
  6
CONTINUOUS
100
AcDbLine
 10
706.6719155196674
 20
348.4913645754744
 30
0.0
 11
621.6715155196671
 21
336.4915645754743
 31
0.0
  0
LINE
  5
5F0
330
1A
100
AcDbEntity
  8
SEIHIN
  6
CONTINUOUS
100
AcDbLine
 10
704.506915519667
 20
350.2400645754743
 30
0.0
 11
623.836415519667
 21
338.8519645754744
 31
0.0
  0
LINE
  5
5F1
330
1A
100
AcDbEntity
  8
SEIHIN
  6
CONTINUOUS
100
AcDbLine
 10
704.506915519667
 20
351.2412645754745
 30
0.0
 11
623.836415519667
 21
339.8524645754744
 31
0.0
  0
LINE
  5
5F2
330
1A
100
AcDbEntity
  8
SEIHIN
  6
CONTINUOUS
100
AcDbLine
 10
706.6719155196674
 20
344.9902645754743
 30
0.0
 11
621.6715155196671
 21
332.9904645754743
 31
0.0
  0
LINE
  5
5F3
330
1A
100
AcDbEntity
  8
SEIHIN
  6
CONTINUOUS
100
AcDbLine
 10
706.6719155196674
 20
344.4914645754745
 30
0.0
 11
621.6715155196671
 21
332.4916645754743
 31
0.0
  0
LINE
  5
5F4
330
1A
100
AcDbEntity
  8
SEIHIN
  6
CONTINUOUS
100
AcDbLine
 10
704.506915519667
 20
346.2402645754743
 30
0.0
 11
623.836415519667
 21
334.8521645754743
 31
0.0
  0
LINE
  5
5F5
330
1A
100
AcDbEntity
  8
SEIHIN
  6
CONTINUOUS
100
AcDbLine
 10
704.506915519667
 20
347.2413645754743
 30
0.0
 11
623.836415519667
 21
335.8526645754745
 31
0.0
  0
LINE
  5
5F6
330
1A
100
AcDbEntity
  8
SEIHIN
  6
CONTINUOUS
100
AcDbLine
 10
706.6719155196674
 20
340.9904645754745
 30
0.0
 11
621.6715155196671
 21
328.9906645754744
 31
0.0
  0
LINE
  5
5F7
330
1A
100
AcDbEntity
  8
SEIHIN
  6
CONTINUOUS
100
AcDbLine
 10
706.6719155196674
 20
340.4916645754743
 30
0.0
 11
621.6715155196671
 21
328.4918645754743
 31
0.0
  0
LINE
  5
5F8
330
1A
100
AcDbEntity
  8
SEIHIN
  6
CONTINUOUS
100
AcDbLine
 10
704.506915519667
 20
342.2403645754745
 30
0.0
 11
623.836415519667
 21
330.8522645754744
 31
0.0
  0
LINE
  5
5F9
330
1A
100
AcDbEntity
  8
SEIHIN
  6
CONTINUOUS
100
AcDbLine
 10
704.506915519667
 20
343.2415645754744
 30
0.0
 11
623.836415519667
 21
331.8527645754743
 31
0.0
  0
LINE
  5
5FA
330
1A
100
AcDbEntity
  8
SEIHIN
  6
CONTINUOUS
100
AcDbLine
 10
706.6719155196674
 20
336.9905645754744
 30
0.0
 11
646.4650155196671
 21
328.4909645754743
 31
0.0
  0
LINE
  5
5FB
330
1A
100
AcDbEntity
  8
SEIHIN
  6
CONTINUOUS
100
AcDbLine
 10
706.6719155196674
 20
336.4917645754745
 30
0.0
 11
649.9983155196671
 21
328.4909645754743
 31
0.0
  0
LINE
  5
5FC
330
1A
100
AcDbEntity
  8
SEIHIN
  6
CONTINUOUS
100
AcDbLine
 10
704.506915519667
 20
338.2405645754744
 30
0.0
 11
635.4437155196672
 21
328.4909645754743
 31
0.0
  0
LINE
  5
5FD
330
1A
100
AcDbEntity
  8
SEIHIN
  6
CONTINUOUS
100
AcDbLine
 10
704.506915519667
 20
339.2416645754743
 30
0.0
 11
628.3562155196672
 21
328.4910645754743
 31
0.0
  0
LINE
  5
5FE
330
1A
100
AcDbEntity
  8
SEIHIN
  6
CONTINUOUS
100
AcDbLine
 10
704.506915519667
 20
334.2406645754744
 30
0.0
 11
663.7771155196672
 21
328.4909645754743
 31
0.0
  0
LINE
  5
5FF
330
1A
100
AcDbEntity
  8
SEIHIN
  6
CONTINUOUS
100
AcDbLine
 10
704.506915519667
 20
335.2418645754744
 30
0.0
 11
656.6881155196672
 21
328.4909645754743
 31
0.0
  0
LINE
  5
600
330
1A
100
AcDbEntity
  8
SEIHIN
  6
CONTINUOUS
100
AcDbLine
 10
614.171615519667
 20
363.4911645754743
 30
0.0
 11
618.171615519667
 21
364.4911645754743
 31
0.0
  0
LINE
  5
601
330
1A
100
AcDbEntity
  8
SEIHIN
  6
CONTINUOUS
100
AcDbLine
 10
664.171615519667
 20
362.4909645754744
 30
0.0
 11
614.171615519667
 21
362.4911645754743
 31
0.0
  0
LINE
  5
602
330
1A
100
AcDbEntity
  8
SEIHIN
  6
CONTINUOUS
100
AcDbLine
 10
614.171615519667
 20
362.4911645754743
 30
0.0
 11
614.171615519667
 21
363.4911645754743
 31
0.0
  0
LINE
  5
603
330
1A
100
AcDbEntity
  8
SEIHIN
  6
CONTINUOUS
100
AcDbLine
 10
679.7717155196671
 20
364.4909645754744
 30
0.0
 11
679.7718155196671
 21
391.4909645754744
 31
0.0
  0
LINE
  5
604
330
1A
100
AcDbEntity
  8
SEIHIN
  6
CONTINUOUS
100
AcDbLine
 10
680.5417155196671
 20
364.4909645754744
 30
0.0
 11
680.5418155196673
 21
391.4909645754744
 31
0.0
  0
LINE
  5
605
330
1A
100
AcDbEntity
  8
SEIHIN
  6
CONTINUOUS
100
AcDbLine
 10
666.171715519667
 20
364.4909645754744
 30
0.0
 11
666.1718155196672
 21
391.4909645754744
 31
0.0
  0
LINE
  5
606
330
1A
100
AcDbEntity
  8
SEIHIN
  6
CONTINUOUS
100
AcDbLine
 10
644.3716155196673
 20
364.4909645754744
 30
0.0
 11
644.371715519667
 21
391.4909645754744
 31
0.0
  0
LINE
  5
607
330
1A
100
AcDbEntity
  8
SEIHIN
  6
CONTINUOUS
100
AcDbLine
 10
647.8016155196671
 20
364.4909645754744
 30
0.0
 11
647.8017155196671
 21
391.4909645754744
 31
0.0
  0
LINE
  5
608
330
1A
100
AcDbEntity
  8
SEIHIN
  6
CONTINUOUS
100
AcDbLine
 10
648.5716155196671
 20
364.4909645754744
 30
0.0
 11
648.5717155196673
 21
391.4909645754744
 31
0.0
  0
LINE
  5
609
330
1A
100
AcDbEntity
  8
SEIHIN
  6
CONTINUOUS
100
AcDbLine
 10
662.1716155196672
 20
364.4909645754744
 30
0.0
 11
662.171715519667
 21
391.4909645754744
 31
0.0
  0
LINE
  5
60A
330
1A
100
AcDbEntity
  8
SEIHIN
  6
CONTINUOUS
100
AcDbLine
 10
626.0460155196672
 20
366.3580645754745
 30
0.0
 11
627.7972155196671
 21
392.6241645754745
 31
0.0
  0
LINE
  5
60B
330
1A
100
AcDbEntity
  8
SEIHIN
  6
CONTINUOUS
100
AcDbLine
 10
629.726115519667
 20
391.4910645754744
 30
0.0
 11
627.9260155196672
 21
364.4910645754744
 31
0.0
  0
LINE
  5
60C
330
1A
100
AcDbEntity
  8
SEIHIN
  6
CONTINUOUS
100
AcDbLine
 10
629.726115519667
 20
391.4910645754744
 30
0.0
 11
627.9260155196672
 21
364.4910645754744
 31
0.0
  0
LINE
  5
60D
330
1A
100
AcDbEntity
  8
SEIHIN
  6
CONTINUOUS
100
AcDbLine
 10
631.8316155196671
 20
364.4910645754744
 30
0.0
 11
631.8317155196672
 21
391.4910645754744
 31
0.0
  0
LINE
  5
60E
330
1A
100
AcDbEntity
  8
SEIHIN
  6
CONTINUOUS
100
AcDbLine
 10
633.8216155196671
 20
364.4910645754744
 30
0.0
 11
633.8216155196671
 21
391.4910645754744
 31
0.0
  0
LINE
  5
60F
330
1A
100
AcDbEntity
  8
SEIHIN
  6
CONTINUOUS
100
AcDbLine
 10
635.4216155196673
 20
364.4910645754744
 30
0.0
 11
635.4216155196673
 21
391.4910645754744
 31
0.0
  0
LINE
  5
610
330
1A
100
AcDbEntity
  8
SEIHIN
  6
CONTINUOUS
100
AcDbLine
 10
664.171615519667
 20
364.4909645754744
 30
0.0
 11
624.3315155196671
 21
364.4910645754744
 31
0.0
  0
LINE
  5
611
330
1A
100
AcDbEntity
  8
SEIHIN
  6
CONTINUOUS
100
AcDbLine
 10
664.1717155196673
 20
360.4909645754744
 30
0.0
 11
621.6716155196673
 21
360.4910645754744
 31
0.0
  0
LINE
  5
612
330
1A
100
AcDbEntity
  8
SEIHIN
  6
CONTINUOUS
100
AcDbLine
 10
664.171615519667
 20
328.4909645754743
 30
0.0
 11
621.6715155196671
 21
328.4910645754743
 31
0.0
  0
LINE
  5
613
330
1A
100
AcDbEntity
  8
SEIHIN
  6
CONTINUOUS
100
AcDbLine
 10
623.8363155196671
 20
327.4910645754744
 30
0.0
 11
664.171615519667
 21
327.4909645754744
 31
0.0
  0
LINE
  5
614
330
1A
100
AcDbEntity
  8
SEIHIN
  6
CONTINUOUS
100
AcDbLine
 10
663.785815519667
 20
360.4909645754744
 30
0.0
 11
623.8365155196673
 21
354.8513645754745
 31
0.0
  0
LINE
  5
615
330
1A
100
AcDbEntity
  8
SEIHIN
  6
CONTINUOUS
100
AcDbLine
 10
656.6968155196673
 20
360.4909645754744
 30
0.0
 11
623.8365155196673
 21
355.8518645754744
 31
0.0
  0
LINE
  5
616
330
1A
100
AcDbEntity
  8
SEIHIN
  6
CONTINUOUS
100
AcDbLine
 10
650.0071155196671
 20
360.4909645754744
 30
0.0
 11
621.6716155196673
 21
356.4907645754745
 31
0.0
  0
LINE
  5
617
330
1A
100
AcDbEntity
  8
SEIHIN
  6
CONTINUOUS
100
AcDbLine
 10
678.3395155196672
 20
360.4909645754744
 30
0.0
 11
621.6716155196673
 21
352.4909645754744
 31
0.0
  0
LINE
  5
618
330
1A
100
AcDbEntity
  8
SEIHIN
  6
CONTINUOUS
100
AcDbLine
 10
674.8062155196671
 20
360.4909645754744
 30
0.0
 11
621.6716155196673
 21
352.9897645754744
 31
0.0
  0
LINE
  5
619
330
1A
100
AcDbEntity
  8
SEIHIN
  6
CONTINUOUS
100
AcDbLine
 10
621.6715155196671
 20
344.9900645754743
 30
0.0
 11
621.6715155196671
 21
344.4912645754745
 31
0.0
  0
LINE
  5
61A
330
1A
100
AcDbEntity
  8
SEIHIN
  6
CONTINUOUS
100
AcDbLine
 10
621.6714155196671
 20
332.9904645754743
 30
0.0
 11
621.6714155196671
 21
332.4916645754743
 31
0.0
  0
LINE
  5
61B
330
1A
100
AcDbEntity
  8
SEIHIN
  6
CONTINUOUS
100
AcDbLine
 10
621.6714155196671
 20
332.4916645754743
 30
0.0
 11
623.8363155196671
 21
331.8527645754743
 31
0.0
  0
LINE
  5
61C
330
1A
100
AcDbEntity
  8
SEIHIN
  6
CONTINUOUS
100
AcDbLine
 10
623.8363155196671
 20
330.8522645754744
 30
0.0
 11
621.6714155196671
 21
328.9906645754744
 31
0.0
  0
LINE
  5
61D
330
1A
100
AcDbEntity
  8
SEIHIN
  6
CONTINUOUS
100
AcDbLine
 10
621.6714155196671
 20
328.9906645754744
 30
0.0
 11
621.6714155196671
 21
328.4918645754743
 31
0.0
  0
LINE
  5
61E
330
1A
100
AcDbEntity
  8
SEIHIN
  6
CONTINUOUS
100
AcDbLine
 10
623.8363155196671
 20
331.8527645754743
 30
0.0
 11
623.8363155196671
 21
330.8522645754744
 31
0.0
  0
LINE
  5
61F
330
1A
100
AcDbEntity
  8
SEIHIN
  6
CONTINUOUS
100
AcDbLine
 10
623.8363155196671
 20
328.4909645754743
 30
0.0
 11
623.8363155196671
 21
327.4910645754744
 31
0.0
  0
LINE
  5
620
330
1A
100
AcDbEntity
  8
SEIHIN
  6
CONTINUOUS
100
AcDbLine
 10
621.6715155196671
 20
344.4912645754745
 30
0.0
 11
623.836415519667
 21
343.8523645754743
 31
0.0
  0
LINE
  5
621
330
1A
100
AcDbEntity
  8
SEIHIN
  6
CONTINUOUS
100
AcDbLine
 10
623.836415519667
 20
342.8518645754743
 30
0.0
 11
621.6715155196671
 21
340.9901645754743
 31
0.0
  0
LINE
  5
622
330
1A
100
AcDbEntity
  8
SEIHIN
  6
CONTINUOUS
100
AcDbLine
 10
623.836415519667
 20
338.8519645754744
 30
0.0
 11
621.6714155196671
 21
336.9903645754745
 31
0.0
  0
LINE
  5
623
330
1A
100
AcDbEntity
  8
SEIHIN
  6
CONTINUOUS
100
AcDbLine
 10
621.6714155196671
 20
336.4915645754743
 30
0.0
 11
623.8363155196671
 21
335.8526645754745
 31
0.0
  0
LINE
  5
624
330
1A
100
AcDbEntity
  8
SEIHIN
  6
CONTINUOUS
100
AcDbLine
 10
623.8363155196671
 20
334.8521645754743
 30
0.0
 11
621.6714155196671
 21
332.9904645754743
 31
0.0
  0
LINE
  5
625
330
1A
100
AcDbEntity
  8
SEIHIN
  6
CONTINUOUS
100
AcDbLine
 10
621.6715155196671
 20
340.4913645754745
 30
0.0
 11
623.836415519667
 21
339.8524645754744
 31
0.0
  0
LINE
  5
626
330
1A
100
AcDbEntity
  8
SEIHIN
  6
CONTINUOUS
100
AcDbLine
 10
621.6715155196671
 20
340.9901645754743
 30
0.0
 11
621.6715155196671
 21
340.4913645754745
 31
0.0
  0
LINE
  5
627
330
1A
100
AcDbEntity
  8
SEIHIN
  6
CONTINUOUS
100
AcDbLine
 10
621.6714155196671
 20
336.9903645754745
 30
0.0
 11
621.6714155196671
 21
336.4915645754743
 31
0.0
  0
LINE
  5
628
330
1A
100
AcDbEntity
  8
SEIHIN
  6
CONTINUOUS
100
AcDbLine
 10
623.836415519667
 20
343.8523645754743
 30
0.0
 11
623.836415519667
 21
342.8518645754743
 31
0.0
  0
LINE
  5
629
330
1A
100
AcDbEntity
  8
SEIHIN
  6
CONTINUOUS
100
AcDbLine
 10
623.836415519667
 20
339.8524645754744
 30
0.0
 11
623.836415519667
 21
338.8519645754744
 31
0.0
  0
LINE
  5
62A
330
1A
100
AcDbEntity
  8
SEIHIN
  6
CONTINUOUS
100
AcDbLine
 10
623.8363155196671
 20
335.8526645754745
 30
0.0
 11
623.8363155196671
 21
334.8521645754743
 31
0.0
  0
LINE
  5
62B
330
1A
100
AcDbEntity
  8
SEIHIN
  6
CONTINUOUS
100
AcDbLine
 10
635.452515519667
 20
360.4909645754744
 30
0.0
 11
623.8365155196673
 21
358.8511645754743
 31
0.0
  0
LINE
  5
62C
330
1A
100
AcDbEntity
  8
SEIHIN
  6
CONTINUOUS
100
AcDbLine
 10
646.4738155196671
 20
360.4909645754744
 30
0.0
 11
621.6716155196673
 21
356.9895645754744
 31
0.0
  0
LINE
  5
62D
330
1A
100
AcDbEntity
  8
SEIHIN
  6
CONTINUOUS
100
AcDbLine
 10
621.6716155196673
 20
356.4907645754745
 30
0.0
 11
623.8365155196673
 21
355.8518645754744
 31
0.0
  0
LINE
  5
62E
330
1A
100
AcDbEntity
  8
SEIHIN
  6
CONTINUOUS
100
AcDbLine
 10
623.836415519667
 20
346.8516645754744
 30
0.0
 11
621.6715155196671
 21
344.9900645754743
 31
0.0
  0
LINE
  5
62F
330
1A
100
AcDbEntity
  8
SEIHIN
  6
CONTINUOUS
100
AcDbLine
 10
621.6715155196671
 20
348.4910645754744
 30
0.0
 11
623.836415519667
 21
347.8521645754743
 31
0.0
  0
LINE
  5
630
330
1A
100
AcDbEntity
  8
SEIHIN
  6
CONTINUOUS
100
AcDbLine
 10
623.8365155196673
 20
350.8515645754744
 30
0.0
 11
621.6715155196671
 21
348.9898645754745
 31
0.0
  0
LINE
  5
631
330
1A
100
AcDbEntity
  8
SEIHIN
  6
CONTINUOUS
100
AcDbLine
 10
621.6716155196673
 20
352.4909645754744
 30
0.0
 11
623.8365155196673
 21
351.8520645754744
 31
0.0
  0
LINE
  5
632
330
1A
100
AcDbEntity
  8
SEIHIN
  6
CONTINUOUS
100
AcDbLine
 10
623.8365155196673
 20
354.8513645754745
 30
0.0
 11
621.6716155196673
 21
352.9897645754744
 31
0.0
  0
LINE
  5
633
330
1A
100
AcDbEntity
  8
SEIHIN
  6
CONTINUOUS
100
AcDbLine
 10
621.6716155196673
 20
352.9897645754744
 30
0.0
 11
621.6716155196673
 21
352.4909645754744
 31
0.0
  0
LINE
  5
634
330
1A
100
AcDbEntity
  8
SEIHIN
  6
CONTINUOUS
100
AcDbLine
 10
621.6715155196671
 20
348.9898645754745
 30
0.0
 11
621.6715155196671
 21
348.4910645754744
 31
0.0
  0
LINE
  5
635
330
1A
100
AcDbEntity
  8
SEIHIN
  6
CONTINUOUS
100
AcDbLine
 10
623.8365155196673
 20
355.8518645754744
 30
0.0
 11
623.8365155196673
 21
354.8513645754745
 31
0.0
  0
LINE
  5
636
330
1A
100
AcDbEntity
  8
SEIHIN
  6
CONTINUOUS
100
AcDbLine
 10
623.836415519667
 20
347.8521645754743
 30
0.0
 11
623.836415519667
 21
346.8516645754744
 31
0.0
  0
LINE
  5
637
330
1A
100
AcDbEntity
  8
SEIHIN
  6
CONTINUOUS
100
AcDbLine
 10
623.8365155196673
 20
351.8520645754744
 30
0.0
 11
623.8365155196673
 21
350.8515645754744
 31
0.0
  0
LINE
  5
638
330
1A
100
AcDbEntity
  8
SEIHIN
  6
CONTINUOUS
100
AcDbLine
 10
618.171615519667
 20
364.4911645754743
 30
0.0
 11
624.050515519667
 21
364.4910645754744
 31
0.0
  0
LINE
  5
639
330
1A
100
AcDbEntity
  8
SEIHIN
  6
CONTINUOUS
100
AcDbLine
 10
623.8365155196673
 20
358.8511645754743
 30
0.0
 11
621.6716155196673
 21
356.9895645754744
 31
0.0
  0
LINE
  5
63A
330
1A
100
AcDbEntity
  8
SEIHIN
  6
CONTINUOUS
100
AcDbLine
 10
621.6716155196673
 20
360.4906645754744
 30
0.0
 11
623.8365155196673
 21
359.8517645754745
 31
0.0
  0
LINE
  5
63B
330
1A
100
AcDbEntity
  8
SEIHIN
  6
CONTINUOUS
100
AcDbLine
 10
621.6716155196673
 20
356.9895645754744
 30
0.0
 11
621.6716155196673
 21
356.4907645754745
 31
0.0
  0
LINE
  5
63C
330
1A
100
AcDbEntity
  8
SEIHIN
  6
CONTINUOUS
100
AcDbLine
 10
623.671715519667
 20
360.4909645754744
 30
0.0
 11
623.671715519667
 21
362.4910645754744
 31
0.0
  0
ARC
  5
63D
330
1A
100
AcDbEntity
  8
SEIHIN
  6
CONTINUOUS
100
AcDbCircle
 10
624.0504766722676
 20
366.4910282310641
 30
0.0
 40
1.999963655966911
100
AcDbArc
 50
270.00111291624
 51
356.1879909312206
  0
LINE
  5
63E
330
1A
100
AcDbEntity
  8
SEIHIN
  6
CONTINUOUS
100
AcDbLine
 10
623.8365155196673
 20
359.8517645754745
 30
0.0
 11
623.8365155196673
 21
358.8511645754743
 31
0.0
  0
LINE
  5
63F
330
1A
100
AcDbEntity
  8
SEIHIN
  6
CONTINUOUS
100
AcDbLine
 10
628.3649155196671
 20
360.4910645754744
 30
0.0
 11
623.8365155196673
 21
359.8517645754745
 31
0.0
  0
LINE
  5
640
330
1A
100
AcDbEntity
  8
SEIHIN
  6
CONTINUOUS
100
AcDbLine
 10
647.8017155196671
 20
391.4909645754744
 30
0.0
 11
648.5717155196673
 21
391.4909645754744
 31
0.0
  0
LINE
  5
641
330
1A
100
AcDbEntity
  8
SEIHIN
  6
CONTINUOUS
100
AcDbLine
 10
664.1717155196673
 20
394.4909645754743
 30
0.0
 11
629.7928155196671
 21
394.4910645754745
 31
0.0
  0
ARC
  5
642
330
1A
100
AcDbEntity
  8
SEIHIN
  6
CONTINUOUS
100
AcDbCircle
 10
629.7927974858281
 20
392.4910477043669
 30
0.0
 40
2.000016871188908
100
AcDbArc
 50
89.9994833729294
 51
176.1836935012206
  0
LINE
  5
643
330
1A
100
AcDbEntity
  8
SEIHIN
  6
CONTINUOUS
100
AcDbLine
 10
629.726115519667
 20
391.4910645754744
 30
0.0
 11
631.8317155196672
 21
391.4910645754744
 31
0.0
  0
LINE
  5
644
330
1A
100
AcDbEntity
  8
SEIHIN
  6
CONTINUOUS
100
AcDbLine
 10
635.4217155196672
 20
391.4910645754744
 30
0.0
 11
644.371715519667
 21
391.4909645754744
 31
0.0
  0
LINE
  5
645
330
1A
100
AcDbEntity
  8
SEIHIN
  6
CONTINUOUS
100
AcDbLine
 10
633.8217155196672
 20
391.4910645754744
 30
0.0
 11
635.4217155196672
 21
391.4910645754744
 31
0.0
  0
LINE
  5
646
330
1A
100
AcDbEntity
  8
SEIHIN
  6
CONTINUOUS
100
AcDbLine
 10
648.5717155196673
 20
391.4909645754744
 30
0.0
 11
662.171715519667
 21
391.4909645754744
 31
0.0
  0
LINE
  5
647
330
1A
100
AcDbEntity
  8
SEIHIN
  6
CONTINUOUS
100
AcDbLine
 10
679.7718155196671
 20
391.4909645754744
 30
0.0
 11
666.1718155196672
 21
391.4909645754744
 31
0.0
  0
LINE
  5
648
330
1A
100
AcDbEntity
  8
SEIHIN
  6
CONTINUOUS
100
AcDbLine
 10
680.5418155196673
 20
391.4909645754744
 30
0.0
 11
679.7718155196671
 21
391.4909645754744
 31
0.0
  0
LINE
  5
649
330
1A
100
AcDbEntity
  8
SEIHIN
  6
CONTINUOUS
100
AcDbLine
 10
702.297315519667
 20
366.3578645754745
 30
0.0
 11
700.5463155196671
 21
392.6239645754744
 31
0.0
  0
LINE
  5
64A
330
1A
100
AcDbEntity
  8
SEIHIN
  6
CONTINUOUS
100
AcDbLine
 10
683.9718155196671
 20
364.4909645754744
 30
0.0
 11
683.9718155196671
 21
391.4909645754744
 31
0.0
  0
LINE
  5
64B
330
1A
100
AcDbEntity
  8
SEIHIN
  6
CONTINUOUS
100
AcDbLine
 10
692.921715519667
 20
364.4909645754744
 30
0.0
 11
692.9218155196672
 21
391.4909645754744
 31
0.0
  0
LINE
  5
64C
330
1A
100
AcDbEntity
  8
SEIHIN
  6
CONTINUOUS
100
AcDbLine
 10
694.5217155196671
 20
364.4909645754744
 30
0.0
 11
694.5218155196671
 21
391.4909645754744
 31
0.0
  0
LINE
  5
64D
330
1A
100
AcDbEntity
  8
SEIHIN
  6
CONTINUOUS
100
AcDbLine
 10
696.5117155196671
 20
364.4909645754744
 30
0.0
 11
696.5118155196671
 21
391.4909645754744
 31
0.0
  0
LINE
  5
64E
330
1A
100
AcDbEntity
  8
SEIHIN
  6
CONTINUOUS
100
AcDbLine
 10
698.6174155196672
 20
391.4908645754745
 30
0.0
 11
700.417315519667
 21
364.4908645754743
 31
0.0
  0
LINE
  5
64F
330
1A
100
AcDbEntity
  8
SEIHIN
  6
CONTINUOUS
100
AcDbLine
 10
714.171815519667
 20
363.4908645754745
 30
0.0
 11
710.1718155196672
 21
364.4908645754743
 31
0.0
  0
LINE
  5
651
330
1A
100
AcDbEntity
  8
SEIHIN
  6
CONTINUOUS
100
AcDbLine
 10
706.6719155196674
 20
344.9902645754743
 30
0.0
 11
706.6719155196674
 21
344.4914645754745
 31
0.0
  0
LINE
  5
652
330
1A
100
AcDbEntity
  8
SEIHIN
  6
CONTINUOUS
100
AcDbLine
 10
704.506915519667
 20
330.2408645754745
 30
0.0
 11
692.1106155196674
 21
328.4908645754745
 31
0.0
  0
LINE
  5
653
330
1A
100
AcDbEntity
  8
SEIHIN
  6
CONTINUOUS
100
AcDbLine
 10
704.506915519667
 20
331.2419645754744
 30
0.0
 11
685.0200155196671
 21
328.4909645754743
 31
0.0
  0
LINE
  5
654
330
1A
100
AcDbEntity
  8
SEIHIN
  6
CONTINUOUS
100
AcDbLine
 10
706.6719155196674
 20
332.9907645754745
 30
0.0
 11
706.6719155196674
 21
332.4919645754744
 31
0.0
  0
LINE
  5
655
330
1A
100
AcDbEntity
  8
SEIHIN
  6
CONTINUOUS
100
AcDbLine
 10
706.6719155196674
 20
332.4919645754744
 30
0.0
 11
704.506915519667
 21
331.2419645754744
 31
0.0
  0
LINE
  5
656
330
1A
100
AcDbEntity
  8
SEIHIN
  6
CONTINUOUS
100
AcDbLine
 10
706.6719155196674
 20
328.9908645754745
 30
0.0
 11
703.1300155196673
 21
328.4908645754745
 31
0.0
  0
LINE
  5
657
330
1A
100
AcDbEntity
  8
SEIHIN
  6
CONTINUOUS
100
AcDbLine
 10
704.506915519667
 20
330.2408645754745
 30
0.0
 11
706.6719155196674
 21
328.9908645754745
 31
0.0
  0
LINE
  5
658
330
1A
100
AcDbEntity
  8
SEIHIN
  6
CONTINUOUS
100
AcDbLine
 10
704.506915519667
 20
331.2419645754744
 30
0.0
 11
704.506915519667
 21
330.2408645754745
 31
0.0
  0
LINE
  5
659
330
1A
100
AcDbEntity
  8
SEIHIN
  6
CONTINUOUS
100
AcDbLine
 10
704.506915519667
 20
328.4909645754743
 30
0.0
 11
704.506915519667
 21
327.4908645754744
 31
0.0
  0
LINE
  5
65A
330
1A
100
AcDbEntity
  8
SEIHIN
  6
CONTINUOUS
100
AcDbLine
 10
706.6719155196674
 20
328.9908645754745
 30
0.0
 11
706.6719155196674
 21
328.4920645754743
 31
0.0
  0
LINE
  5
65B
330
1A
100
AcDbEntity
  8
SEIHIN
  6
CONTINUOUS
100
AcDbLine
 10
706.6719155196674
 20
344.4914645754745
 30
0.0
 11
704.506915519667
 21
343.2414645754744
 31
0.0
  0
LINE
  5
65C
330
1A
100
AcDbEntity
  8
SEIHIN
  6
CONTINUOUS
100
AcDbLine
 10
704.506915519667
 20
342.2403645754745
 30
0.0
 11
706.6719155196674
 21
340.9904645754745
 31
0.0
  0
LINE
  5
65D
330
1A
100
AcDbEntity
  8
SEIHIN
  6
CONTINUOUS
100
AcDbLine
 10
704.506915519667
 20
338.2405645754744
 30
0.0
 11
706.6719155196674
 21
336.9905645754744
 31
0.0
  0
LINE
  5
65E
330
1A
100
AcDbEntity
  8
SEIHIN
  6
CONTINUOUS
100
AcDbLine
 10
706.6719155196674
 20
336.4917645754745
 30
0.0
 11
704.506915519667
 21
335.2417645754744
 31
0.0
  0
LINE
  5
65F
330
1A
100
AcDbEntity
  8
SEIHIN
  6
CONTINUOUS
100
AcDbLine
 10
704.506915519667
 20
334.2406645754744
 30
0.0
 11
706.6719155196674
 21
332.9907645754745
 31
0.0
  0
LINE
  5
660
330
1A
100
AcDbEntity
  8
SEIHIN
  6
CONTINUOUS
100
AcDbLine
 10
706.6719155196674
 20
340.4916645754743
 30
0.0
 11
704.506915519667
 21
339.2416645754743
 31
0.0
  0
LINE
  5
661
330
1A
100
AcDbEntity
  8
SEIHIN
  6
CONTINUOUS
100
AcDbLine
 10
704.506915519667
 20
343.2415645754744
 30
0.0
 11
704.506915519667
 21
342.2403645754745
 31
0.0
  0
LINE
  5
662
330
1A
100
AcDbEntity
  8
SEIHIN
  6
CONTINUOUS
100
AcDbLine
 10
704.506915519667
 20
339.2416645754743
 30
0.0
 11
704.506915519667
 21
338.2405645754744
 31
0.0
  0
LINE
  5
663
330
1A
100
AcDbEntity
  8
SEIHIN
  6
CONTINUOUS
100
AcDbLine
 10
704.506915519667
 20
335.2418645754744
 30
0.0
 11
704.506915519667
 21
334.2406645754744
 31
0.0
  0
LINE
  5
664
330
1A
100
AcDbEntity
  8
SEIHIN
  6
CONTINUOUS
100
AcDbLine
 10
706.6719155196674
 20
340.9904645754745
 30
0.0
 11
706.6719155196674
 21
340.4916645754743
 31
0.0
  0
LINE
  5
665
330
1A
100
AcDbEntity
  8
SEIHIN
  6
CONTINUOUS
100
AcDbLine
 10
706.6719155196674
 20
336.9905645754744
 30
0.0
 11
706.6719155196674
 21
336.4917645754745
 31
0.0
  0
LINE
  5
666
330
1A
100
AcDbEntity
  8
SEIHIN
  6
CONTINUOUS
100
AcDbLine
 10
706.6719155196674
 20
356.4909645754744
 30
0.0
 11
704.506915519667
 21
355.2410645754744
 31
0.0
  0
LINE
  5
667
330
1A
100
AcDbEntity
  8
SEIHIN
  6
CONTINUOUS
100
AcDbLine
 10
704.506915519667
 20
354.2399645754745
 30
0.0
 11
706.6719155196674
 21
352.9899645754745
 31
0.0
  0
LINE
  5
668
330
1A
100
AcDbEntity
  8
SEIHIN
  6
CONTINUOUS
100
AcDbLine
 10
706.6719155196674
 20
352.4911645754743
 30
0.0
 11
704.506915519667
 21
351.2411645754744
 31
0.0
  0
LINE
  5
669
330
1A
100
AcDbEntity
  8
SEIHIN
  6
CONTINUOUS
100
AcDbLine
 10
704.506915519667
 20
350.2400645754743
 30
0.0
 11
706.6719155196674
 21
348.9901645754744
 31
0.0
  0
LINE
  5
66A
330
1A
100
AcDbEntity
  8
SEIHIN
  6
CONTINUOUS
100
AcDbLine
 10
706.6719155196674
 20
348.4913645754744
 30
0.0
 11
704.506915519667
 21
347.2413645754743
 31
0.0
  0
LINE
  5
66B
330
1A
100
AcDbEntity
  8
SEIHIN
  6
CONTINUOUS
100
AcDbLine
 10
704.506915519667
 20
346.2402645754743
 30
0.0
 11
706.6719155196674
 21
344.9902645754743
 31
0.0
  0
LINE
  5
66C
330
1A
100
AcDbEntity
  8
SEIHIN
  6
CONTINUOUS
100
AcDbLine
 10
704.506915519667
 20
355.2410645754744
 30
0.0
 11
704.506915519667
 21
354.2399645754745
 31
0.0
  0
LINE
  5
66D
330
1A
100
AcDbEntity
  8
SEIHIN
  6
CONTINUOUS
100
AcDbLine
 10
704.506915519667
 20
347.2413645754743
 30
0.0
 11
704.506915519667
 21
346.2402645754743
 31
0.0
  0
LINE
  5
66E
330
1A
100
AcDbEntity
  8
SEIHIN
  6
CONTINUOUS
100
AcDbLine
 10
704.506915519667
 20
351.2412645754745
 30
0.0
 11
704.506915519667
 21
350.2400645754743
 31
0.0
  0
LINE
  5
66F
330
1A
100
AcDbEntity
  8
SEIHIN
  6
CONTINUOUS
100
AcDbLine
 10
706.6719155196674
 20
352.9899645754745
 30
0.0
 11
706.6719155196674
 21
352.4911645754743
 31
0.0
  0
LINE
  5
670
330
1A
100
AcDbEntity
  8
SEIHIN
  6
CONTINUOUS
100
AcDbLine
 10
706.6719155196674
 20
348.9901645754744
 30
0.0
 11
706.6719155196674
 21
348.4913645754744
 31
0.0
  0
LINE
  5
671
330
1A
100
AcDbEntity
  8
SEIHIN
  6
CONTINUOUS
100
AcDbLine
 10
710.1718155196672
 20
364.4908645754743
 30
0.0
 11
704.2929155196673
 21
364.4908645754743
 31
0.0
  0
LINE
  5
672
330
1A
100
AcDbEntity
  8
SEIHIN
  6
CONTINUOUS
100
AcDbLine
 10
706.6719155196674
 20
360.4908645754743
 30
0.0
 11
704.506915519667
 21
359.2408645754745
 31
0.0
  0
LINE
  5
673
330
1A
100
AcDbEntity
  8
SEIHIN
  6
CONTINUOUS
100
AcDbLine
 10
704.506915519667
 20
358.2397645754744
 30
0.0
 11
706.6719155196674
 21
356.9898645754745
 31
0.0
  0
ARC
  5
674
330
1A
100
AcDbEntity
  8
SEIHIN
  6
CONTINUOUS
100
AcDbCircle
 10
704.2929010419882
 20
366.4908781203827
 30
0.0
 40
2.000013544960802
100
AcDbArc
 50
183.8133462243531
 51
270.0004147521454
  0
LINE
  5
675
330
1A
100
AcDbEntity
  8
SEIHIN
  6
CONTINUOUS
100
AcDbLine
 10
704.506915519667
 20
359.2409645754743
 30
0.0
 11
704.506915519667
 21
358.2397645754744
 31
0.0
  0
LINE
  5
676
330
1A
100
AcDbEntity
  8
SEIHIN
  6
CONTINUOUS
100
AcDbLine
 10
704.6718155196669
 20
360.4907645754745
 30
0.0
 11
704.6718155196669
 21
362.4908645754743
 31
0.0
  0
LINE
  5
677
330
1A
100
AcDbEntity
  8
SEIHIN
  6
CONTINUOUS
100
AcDbLine
 10
706.6719155196674
 20
356.9898645754745
 30
0.0
 11
706.6719155196674
 21
356.4909645754744
 31
0.0
  0
LINE
  5
67D
330
1A
100
AcDbEntity
  8
SEIHIN
  6
CONTINUOUS
100
AcDbLine
 10
714.171815519667
 20
362.4908645754743
 30
0.0
 11
714.171815519667
 21
363.4908645754745
 31
0.0
  0
LINE
  5
680
330
1A
100
AcDbEntity
  8
SEIHIN
  6
CONTINUOUS
100
AcDbLine
 10
698.6174155196672
 20
391.4908645754745
 30
0.0
 11
696.5118155196671
 21
391.4909645754744
 31
0.0
  0
LINE
  5
681
330
1A
100
AcDbEntity
  8
SEIHIN
  6
CONTINUOUS
100
AcDbLine
 10
692.9218155196672
 20
391.4909645754744
 30
0.0
 11
683.9718155196671
 21
391.4909645754744
 31
0.0
  0
LINE
  5
682
330
1A
100
AcDbEntity
  8
SEIHIN
  6
CONTINUOUS
100
AcDbLine
 10
694.5218155196671
 20
391.4909645754744
 30
0.0
 11
692.9218155196672
 21
391.4909645754744
 31
0.0
  0
ARC
  5
683
330
1A
100
AcDbEntity
  8
SEIHIN
  6
CONTINUOUS
100
AcDbCircle
 10
698.5506802259505
 20
392.4908975935196
 30
0.0
 40
1.999966982266263
100
AcDbArc
 50
3.81496941929533
 51
89.99898889280158
  0
LINE
  5
787
330
1A
100
AcDbEntity
  8
SEIHIN
  6
CONTINUOUS
100
AcDbLine
 10
347.7029569947407
 20
200.7928494560291
 30
0.0
 11
447.7030569947407
 21
200.7926494558288
 31
0.0
  0
LINE
  5
788
330
1A
100
AcDbEntity
  8
SEIHIN
  6
CONTINUOUS
100
AcDbLine
 10
363.3241289957952
 20
232.792849456201
 30
0.0
 11
432.0820569947407
 21
232.792649455829
 31
0.0
  0
LINE
  5
789
330
1A
100
AcDbEntity
  8
SEIHIN
  6
CONTINUOUS
100
AcDbLine
 10
351.7026188442117
 20
202.7928649181966
 30
0.0
 11
443.7031188404329
 21
202.7926339944059
 31
0.0
  0
LINE
  5
78A
330
1A
100
AcDbEntity
  8
SEIHIN
  6
CONTINUOUS
100
AcDbLine
 10
413.3031569947406
 20
229.7927494558289
 30
0.0
 11
399.7031569947407
 21
229.7927494558289
 31
0.0
  0
LINE
  5
792
330
1A
100
AcDbEntity
  8
CENTER_L
 48
5.0
100
AcDbLine
 10
397.7029840589493
 20
158.7927494559935
 30
0.0
 11
397.7032569947406
 21
239.4107494558289
 31
0.0
  0
LINE
  5
7A1
330
1A
100
AcDbEntity
  8
SEIHIN
  6
CONTINUOUS
100
AcDbLine
 10
368.9530569947407
 20
229.7928494558289
 30
0.0
 11
377.9030569947408
 21
229.7927494558289
 31
0.0
  0
LINE
  5
7A2
330
1A
100
AcDbEntity
  8
SEIHIN
  6
CONTINUOUS
100
AcDbLine
 10
359.5773569947406
 20
204.6598494558289
 30
0.0
 11
361.3285535013119
 21
230.9258970581868
 31
0.0
  0
LINE
  5
7A3
330
1A
100
AcDbEntity
  8
SEIHIN
  6
CONTINUOUS
100
AcDbLine
 10
363.2574569947407
 20
229.7928494558289
 30
0.0
 11
361.4573569947407
 21
202.792849455829
 31
0.0
  0
LINE
  5
7A4
330
1A
100
AcDbEntity
  8
SEIHIN
  6
CONTINUOUS
100
AcDbLine
 10
363.2574569947407
 20
229.7928494558289
 30
0.0
 11
361.4573569947407
 21
202.792849455829
 31
0.0
  0
LINE
  5
7A5
330
1A
100
AcDbEntity
  8
SEIHIN
  6
CONTINUOUS
100
AcDbLine
 10
365.3629569947407
 20
202.792849455829
 30
0.0
 11
365.3630569947407
 21
229.7928494558289
 31
0.0
  0
LINE
  5
7A6
330
1A
100
AcDbEntity
  8
SEIHIN
  6
CONTINUOUS
100
AcDbLine
 10
367.3529569947407
 20
202.792849455829
 30
0.0
 11
367.3529569947407
 21
229.7928494558289
 31
0.0
  0
LINE
  5
7A7
330
1A
100
AcDbEntity
  8
SEIHIN
  6
CONTINUOUS
100
AcDbLine
 10
368.9529569947407
 20
202.792849455829
 30
0.0
 11
368.9529569947407
 21
229.7928494558289
 31
0.0
  0
ARC
  5
7A8
330
1A
100
AcDbEntity
  8
SEIHIN
  6
CONTINUOUS
100
AcDbCircle
 10
357.5818181473412
 20
204.7928131114185
 30
0.0
 40
1.99996365596684
100
AcDbArc
 50
270.0011129162416
 51
356.1879909312217
  0
LINE
  5
7AA
330
1A
100
AcDbEntity
  8
SEIHIN
  6
CONTINUOUS
100
AcDbLine
 10
347.7029569947407
 20
201.7929494558289
 30
0.0
 11
351.7029569947407
 21
202.7929494558288
 31
0.0
  0
LINE
  5
7AB
330
1A
100
AcDbEntity
  8
SEIHIN
  6
CONTINUOUS
100
AcDbLine
 10
347.7029569947407
 20
200.7929494558289
 30
0.0
 11
347.7029569947407
 21
201.7929494558289
 31
0.0
  0
LINE
  5
7B0
330
1A
100
AcDbEntity
  8
SEIHIN
  6
CONTINUOUS
100
AcDbLine
 10
363.2574569947407
 20
229.7928494558289
 30
0.0
 11
365.3630569947407
 21
229.7928494558289
 31
0.0
  0
LINE
  5
7B2
330
1A
100
AcDbEntity
  8
SEIHIN
  6
CONTINUOUS
100
AcDbLine
 10
367.3530569947406
 20
229.7928494558289
 30
0.0
 11
368.9530569947407
 21
229.7928494558289
 31
0.0
  0
LINE
  5
7B3
330
1A
100
AcDbEntity
  8
SEIHIN
  6
CONTINUOUS
100
AcDbLine
 10
399.7030569947407
 20
202.7927494558289
 30
0.0
 11
399.7031569947407
 21
229.7927494558289
 31
0.0
  0
LINE
  5
7B4
330
1A
100
AcDbEntity
  8
SEIHIN
  6
CONTINUOUS
100
AcDbLine
 10
377.9029569947407
 20
202.7927494558289
 30
0.0
 11
377.9030569947408
 21
229.7927494558289
 31
0.0
  0
LINE
  5
7B5
330
1A
100
AcDbEntity
  8
SEIHIN
  6
CONTINUOUS
100
AcDbLine
 10
381.3329569947406
 20
202.7927494558289
 30
0.0
 11
381.3330569947407
 21
229.7927494558289
 31
0.0
  0
LINE
  5
7B6
330
1A
100
AcDbEntity
  8
SEIHIN
  6
CONTINUOUS
100
AcDbLine
 10
382.1029569947406
 20
202.7927494558289
 30
0.0
 11
382.1030569947406
 21
229.7927494558289
 31
0.0
  0
LINE
  5
7B7
330
1A
100
AcDbEntity
  8
SEIHIN
  6
CONTINUOUS
100
AcDbLine
 10
395.7029569947407
 20
202.7927494558289
 30
0.0
 11
395.7030569947407
 21
229.7927494558289
 31
0.0
  0
LINE
  5
7B8
330
1A
100
AcDbEntity
  8
SEIHIN
  6
CONTINUOUS
100
AcDbLine
 10
382.1030569947406
 20
229.7927494558289
 30
0.0
 11
395.7030569947407
 21
229.7927494558289
 31
0.0
  0
LINE
  5
7B9
330
1A
100
AcDbEntity
  8
SEIHIN
  6
CONTINUOUS
100
AcDbLine
 10
381.3330569947407
 20
229.7927494558289
 30
0.0
 11
382.1030569947406
 21
229.7927494558289
 31
0.0
  0
LINE
  5
7D8
330
1A
100
AcDbEntity
  8
SEIHIN
  6
CONTINUOUS
100
AcDbLine
 10
435.8286569947408
 20
204.6596494558289
 30
0.0
 11
434.0776569947406
 21
230.9257494558289
 31
0.0
  0
LINE
  5
7D9
330
1A
100
AcDbEntity
  8
SEIHIN
  6
CONTINUOUS
100
AcDbLine
 10
432.1487569947406
 20
229.792649455829
 30
0.0
 11
433.9486569947407
 21
202.7926494558288
 31
0.0
  0
LINE
  5
7DA
330
1A
100
AcDbEntity
  8
SEIHIN
  6
CONTINUOUS
100
AcDbLine
 10
413.3030569947407
 20
202.7927494558289
 30
0.0
 11
413.3031569947406
 21
229.7927494558289
 31
0.0
  0
LINE
  5
7DB
330
1A
100
AcDbEntity
  8
SEIHIN
  6
CONTINUOUS
100
AcDbLine
 10
414.0730569947407
 20
202.7927494558289
 30
0.0
 11
414.0731569947407
 21
229.7927494558289
 31
0.0
  0
LINE
  5
7DC
330
1A
100
AcDbEntity
  8
SEIHIN
  6
CONTINUOUS
100
AcDbLine
 10
417.5031569947408
 20
202.7927494558289
 30
0.0
 11
417.5031569947408
 21
229.7927494558289
 31
0.0
  0
LINE
  5
7DD
330
1A
100
AcDbEntity
  8
SEIHIN
  6
CONTINUOUS
100
AcDbLine
 10
426.4530569947407
 20
202.7926494558288
 30
0.0
 11
426.4531569947407
 21
229.792649455829
 31
0.0
  0
LINE
  5
7DE
330
1A
100
AcDbEntity
  8
SEIHIN
  6
CONTINUOUS
100
AcDbLine
 10
428.0530569947408
 20
202.7926494558288
 30
0.0
 11
428.0531569947406
 21
229.792649455829
 31
0.0
  0
LINE
  5
7DF
330
1A
100
AcDbEntity
  8
SEIHIN
  6
CONTINUOUS
100
AcDbLine
 10
430.0430569947407
 20
202.7926494558288
 30
0.0
 11
430.0431569947407
 21
229.792649455829
 31
0.0
  0
ARC
  5
7E1
330
1A
100
AcDbEntity
  8
SEIHIN
  6
CONTINUOUS
100
AcDbCircle
 10
437.8242425170618
 20
204.7926630007371
 30
0.0
 40
2.000013544960668
100
AcDbArc
 50
183.8133462243503
 51
270.000414752141
  0
LINE
  5
7E2
330
1A
100
AcDbEntity
  8
SEIHIN
  6
CONTINUOUS
100
AcDbLine
 10
426.4531569947407
 20
229.792649455829
 30
0.0
 11
417.5031569947408
 21
229.7927494558289
 31
0.0
  0
LINE
  5
7E3
330
1A
100
AcDbEntity
  8
SEIHIN
  6
CONTINUOUS
100
AcDbLine
 10
414.0731569947407
 20
229.7927494558289
 30
0.0
 11
413.3031569947406
 21
229.7927494558289
 31
0.0
  0
ARC
  5
7E4
330
1A
100
AcDbEntity
  8
SEIHIN
  6
CONTINUOUS
100
AcDbCircle
 10
432.0820217010241
 20
230.792682473874
 30
0.0
 40
1.999966982266345
100
AcDbArc
 50
3.814969419295225
 51
89.99898889280251
  0
LINE
  5
7E5
330
1A
100
AcDbEntity
  8
SEIHIN
  6
CONTINUOUS
100
AcDbLine
 10
432.1487569947406
 20
229.792649455829
 30
0.0
 11
430.0431569947407
 21
229.792649455829
 31
0.0
  0
LINE
  5
7E6
330
1A
100
AcDbEntity
  8
SEIHIN
  6
CONTINUOUS
100
AcDbLine
 10
428.0531569947406
 20
229.792649455829
 30
0.0
 11
426.4531569947407
 21
229.792649455829
 31
0.0
  0
LINE
  5
7E8
330
1A
100
AcDbEntity
  8
SEIHIN
  6
CONTINUOUS
100
AcDbLine
 10
447.7030569947407
 20
200.7926494558288
 30
0.0
 11
447.7030569947407
 21
201.7926494558289
 31
0.0
  0
LINE
  5
7EA
330
1A
100
AcDbEntity
  8
SEIHIN
  6
CONTINUOUS
100
AcDbLine
 10
447.7030569947407
 20
201.7926494558289
 30
0.0
 11
443.7030569947407
 21
202.7926494558288
 31
0.0
  0
LINE
  5
807
330
1A
100
AcDbEntity
  8
SEIHIN
  6
CONTINUOUS
100
AcDbLine
 10
397.7033569947407
 20
412.9510494558288
 30
0.0
 11
410.7033569947406
 21
412.9510494558288
 31
0.0
  0
LINE
  5
808
330
1A
100
AcDbEntity
  8
SEIHIN
  6
CONTINUOUS
100
AcDbLine
 10
397.7033569947407
 20
408.9510494558288
 30
0.0
 11
410.7033569947406
 21
408.9510494558288
 31
0.0
  0
LINE
  5
809
330
1A
100
AcDbEntity
  8
SEIHIN
  6
CONTINUOUS
100
AcDbLine
 10
397.7033569947407
 20
378.9510494558288
 30
0.0
 11
410.7033569947406
 21
378.9510494558288
 31
0.0
  0
LINE
  5
80A
330
1A
100
AcDbEntity
  8
SEIHIN
  6
CONTINUOUS
100
AcDbLine
 10
397.7033569947407
 20
382.9510494558288
 30
0.0
 11
410.7033569947406
 21
382.9510494558288
 31
0.0
  0
ARC
  5
80E
330
1A
100
AcDbEntity
  8
SEIHIN
  6
CONTINUOUS
100
AcDbCircle
 10
397.7034767871737
 20
395.9510441524471
 30
0.0
 40
36.25001864524181
100
AcDbArc
 50
63.16269957019213
 51
86.83728055035293
  0
ARC
  5
80F
330
1A
100
AcDbEntity
  8
SEIHIN
  6
CONTINUOUS
100
AcDbCircle
 10
397.7035674767478
 20
395.9510269628367
 30
0.0
 40
33.25002249317572
100
AcDbArc
 50
66.98507805417453
 51
90.0001903804042
  0
ARC
  5
813
330
1A
100
AcDbEntity
  8
SEIHIN
  6
CONTINUOUS
100
AcDbCircle
 10
397.7033704959425
 20
395.9510262785924
 30
0.0
 40
36.24999607244579
100
AcDbArc
 50
273.1628896784523
 51
296.8373296252652
  0
ARC
  5
814
330
1A
100
AcDbEntity
  8
SEIHIN
  6
CONTINUOUS
100
AcDbCircle
 10
397.7034714570748
 20
395.9510524001893
 30
0.0
 40
33.25000294436363
100
AcDbArc
 50
269.9999750787781
 51
293.0149288031218
  0
LINE
  5
817
330
1A
100
AcDbEntity
  8
CENTER_L
 48
5.0
100
AcDbLine
 10
340.7038569947534
 20
395.9511374575472
 30
0.0
 11
454.7030569947327
 21
395.9509644066229
 31
0.0
  0
LINE
  5
818
330
1A
100
AcDbEntity
  8
CENTER_L
 48
5.0
100
AcDbLine
 10
397.7034569947407
 20
395.9511494558288
 30
0.0
 11
397.7033622453815
 21
338.9514509321085
 31
0.0
  0
ARC
  5
819
330
1A
100
AcDbEntity
  8
SEIHIN
  6
CONTINUOUS
100
AcDbCircle
 10
397.7032835648597
 20
395.9511228855199
 30
0.0
 40
33.25001075750906
100
AcDbArc
 50
210.7491434674191
 51
239.2513515007221
  0
LINE
  5
81A
330
1A
100
AcDbEntity
  8
SEIHIN
  6
CONTINUOUS
100
AcDbLine
 10
365.5779569947407
 20
375.0939494558288
 30
0.0
 11
363.5779569947407
 21
378.5581494558289
 31
0.0
  0
LINE
  5
81B
330
1A
100
AcDbEntity
  8
SEIHIN
  6
CONTINUOUS
100
AcDbLine
 10
380.7034569947407
 20
378.9510494558288
 30
0.0
 11
380.7034569947407
 21
367.375449455829
 31
0.0
  0
LINE
  5
81C
330
1A
100
AcDbEntity
  8
SEIHIN
  6
CONTINUOUS
100
AcDbLine
 10
384.7034569947407
 20
378.9510494558288
 30
0.0
 11
384.7034569947407
 21
365.3476494558289
 31
0.0
  0
ARC
  5
822
330
1A
100
AcDbEntity
  8
SEIHIN
  6
CONTINUOUS
100
AcDbCircle
 10
397.7034569947404
 20
395.9510494558287
 30
0.0
 40
36.25002771874775
100
AcDbArc
 50
213.162830315734
 51
236.8371696842664
  0
LINE
  5
823
330
1A
100
AcDbEntity
  8
SEIHIN
  6
CONTINUOUS
100
AcDbLine
 10
367.3578569947407
 20
376.1215494558288
 30
0.0
 11
365.5779569947407
 21
375.0940494558289
 31
0.0
  0
ARC
  5
824
330
1A
100
AcDbEntity
  8
SEIHIN
  6
CONTINUOUS
100
AcDbCircle
 10
397.7034372023076
 20
395.951054759211
 30
0.0
 40
36.25001864524214
100
AcDbArc
 50
243.1626995701922
 51
266.8372805503531
  0
ARC
  5
825
330
1A
100
AcDbEntity
  8
SEIHIN
  6
CONTINUOUS
100
AcDbCircle
 10
397.7034725556965
 20
395.9510259287445
 30
0.0
 40
33.24997647311654
100
AcDbArc
 50
246.9846211691573
 51
269.9998008673764
  0
LINE
  5
826
330
1A
100
AcDbEntity
  8
SEIHIN
  6
CONTINUOUS
100
AcDbLine
 10
381.3380569947406
 20
363.6054494558289
 30
0.0
 11
380.3104569947407
 21
361.825649455829
 31
0.0
  0
LINE
  5
827
330
1A
100
AcDbEntity
  8
SEIHIN
  6
CONTINUOUS
100
AcDbLine
 10
377.8739569947406
 20
365.605549455829
 30
0.0
 11
376.8463569947407
 21
363.825649455829
 31
0.0
  0
LINE
  5
828
330
1A
100
AcDbEntity
  8
SEIHIN
  6
CONTINUOUS
100
AcDbLine
 10
380.3105569947407
 20
361.8255494558288
 30
0.0
 11
376.8463569947407
 21
363.825649455829
 31
0.0
  0
LINE
  5
829
330
1A
100
AcDbEntity
  8
SEIHIN
  6
CONTINUOUS
100
AcDbLine
 10
399.7034569947407
 20
357.7010494558288
 30
0.0
 11
395.7033569947407
 21
357.7010494558288
 31
0.0
  0
LINE
  5
82A
330
1A
100
AcDbEntity
  8
SEIHIN
  6
CONTINUOUS
100
AcDbLine
 10
395.7033569947407
 20
359.7562494558288
 30
0.0
 11
395.7033569947407
 21
357.701149455829
 31
0.0
  0
LINE
  5
82B
330
1A
100
AcDbEntity
  8
SEIHIN
  6
CONTINUOUS
100
AcDbLine
 10
399.7033569947408
 20
359.7562494558288
 30
0.0
 11
399.7033569947408
 21
357.7010494558288
 31
0.0
  0
LINE
  5
82C
330
1A
100
AcDbEntity
  8
CENTER_L
 48
5.0
100
AcDbLine
 10
397.7034569947407
 20
395.9510494558288
 30
0.0
 11
397.7035449174692
 21
452.9506509320724
 31
0.0
  0
ARC
  5
82D
330
1A
100
AcDbEntity
  8
SEIHIN
  6
CONTINUOUS
100
AcDbCircle
 10
397.7033627136924
 20
395.9509551749987
 30
0.0
 40
36.25000036801743
100
AcDbArc
 50
123.1624917412217
 51
146.8369634226975
  0
ARC
  5
82E
330
1A
100
AcDbEntity
  8
SEIHIN
  6
CONTINUOUS
100
AcDbCircle
 10
397.7034069948438
 20
395.9510994557258
 30
0.0
 40
33.25005372829348
100
AcDbArc
 50
120.7488519324299
 51
149.2511480675702
  0
LINE
  5
82F
330
1A
100
AcDbEntity
  8
SEIHIN
  6
CONTINUOUS
100
AcDbLine
 10
380.7034569947407
 20
412.9511494558289
 30
0.0
 11
380.7035569947406
 21
424.5267494558289
 31
0.0
  0
LINE
  5
830
330
1A
100
AcDbEntity
  8
SEIHIN
  6
CONTINUOUS
100
AcDbLine
 10
384.7034569947407
 20
412.9511494558289
 30
0.0
 11
384.7035569947406
 21
426.5544494558289
 31
0.0
  0
LINE
  5
831
330
1A
100
AcDbEntity
  8
SEIHIN
  6
CONTINUOUS
100
AcDbLine
 10
380.7034569947407
 20
382.9510494558288
 30
0.0
 11
367.0999569947407
 21
382.9510494558288
 31
0.0
  0
LINE
  5
832
330
1A
100
AcDbEntity
  8
SEIHIN
  6
CONTINUOUS
100
AcDbLine
 10
380.7034569947407
 20
378.9510494558288
 30
0.0
 11
369.1277569947406
 21
378.9510494558288
 31
0.0
  0
LINE
  5
833
330
1A
100
AcDbEntity
  8
SEIHIN
  6
CONTINUOUS
100
AcDbLine
 10
380.7034569947407
 20
408.9511494558289
 30
0.0
 11
367.1000569947407
 21
408.9511494558289
 31
0.0
  0
LINE
  5
834
330
1A
100
AcDbEntity
  8
SEIHIN
  6
CONTINUOUS
100
AcDbLine
 10
380.7034569947407
 20
412.9511494558289
 30
0.0
 11
369.1278569947407
 21
412.9511494558289
 31
0.0
  0
ARC
  5
835
330
1A
100
AcDbEntity
  8
SEIHIN
  6
CONTINUOUS
100
AcDbCircle
 10
397.7033530164703
 20
395.9510299153894
 30
0.0
 40
33.24999602173534
100
AcDbArc
 50
156.9846280281845
 51
179.9999663282754
  0
ARC
  5
836
330
1A
100
AcDbEntity
  8
SEIHIN
  6
CONTINUOUS
100
AcDbCircle
 10
397.7034622981223
 20
395.951069248262
 30
0.0
 40
36.25001864524165
100
AcDbArc
 50
153.1626995701921
 51
176.837280550353
  0
ARC
  5
837
330
1A
100
AcDbEntity
  8
SEIHIN
  6
CONTINUOUS
100
AcDbCircle
 10
397.7034338175044
 20
395.9511359546269
 30
0.0
 40
36.24999607244598
100
AcDbArc
 50
183.1628896784521
 51
206.8373296252651
  0
ARC
  5
838
330
1A
100
AcDbEntity
  8
SEIHIN
  6
CONTINUOUS
100
AcDbCircle
 10
397.703379487326
 20
395.9509389749733
 30
0.0
 40
33.25002249325143
100
AcDbArc
 50
179.9996373035629
 51
203.0149219479254
  0
LINE
  5
839
330
1A
100
AcDbEntity
  8
SEIHIN
  6
CONTINUOUS
100
AcDbLine
 10
365.3578569947407
 20
379.5857494558288
 30
0.0
 11
363.5780569947407
 21
378.558249455829
 31
0.0
  0
LINE
  5
83A
330
1A
100
AcDbEntity
  8
SEIHIN
  6
CONTINUOUS
100
AcDbLine
 10
359.4534569947407
 20
397.951249455829
 30
0.0
 11
359.4534569947407
 21
395.9511494558288
 31
0.0
  0
LINE
  5
83B
330
1A
100
AcDbEntity
  8
SEIHIN
  6
CONTINUOUS
100
AcDbLine
 10
361.5086569947407
 20
393.9511494558289
 30
0.0
 11
359.4534569947407
 21
393.9511494558289
 31
0.0
  0
LINE
  5
83C
330
1A
100
AcDbEntity
  8
SEIHIN
  6
CONTINUOUS
100
AcDbLine
 10
359.4534569947407
 20
393.9510494558288
 30
0.0
 11
359.4534569947407
 21
395.9511494558288
 31
0.0
  0
LINE
  5
83D
330
1A
100
AcDbEntity
  8
SEIHIN
  6
CONTINUOUS
100
AcDbLine
 10
361.5086569947407
 20
397.9511494558288
 30
0.0
 11
359.4534569947407
 21
397.9511494558288
 31
0.0
  0
LINE
  5
83E
330
1A
100
AcDbEntity
  8
SEIHIN
  6
CONTINUOUS
100
AcDbLine
 10
367.3578569947407
 20
415.780549455829
 30
0.0
 11
365.5780569947407
 21
416.8081494558288
 31
0.0
  0
LINE
  5
83F
330
1A
100
AcDbEntity
  8
SEIHIN
  6
CONTINUOUS
100
AcDbLine
 10
365.3578569947407
 20
412.3164494558287
 30
0.0
 11
363.5780569947407
 21
413.344049455829
 31
0.0
  0
LINE
  5
840
330
1A
100
AcDbEntity
  8
SEIHIN
  6
CONTINUOUS
100
AcDbLine
 10
365.5780569947407
 20
416.8082494558287
 30
0.0
 11
363.5779569947407
 21
413.344049455829
 31
0.0
  0
LINE
  5
841
330
1A
100
AcDbEntity
  8
SEIHIN
  6
CONTINUOUS
100
AcDbLine
 10
384.7034569947407
 20
395.9511494558288
 30
0.0
 11
384.7034569947407
 21
408.9511494558289
 31
0.0
  0
LINE
  5
842
330
1A
100
AcDbEntity
  8
SEIHIN
  6
CONTINUOUS
100
AcDbLine
 10
380.7034569947407
 20
395.9511494558288
 30
0.0
 11
380.7034569947407
 21
408.9511494558289
 31
0.0
  0
LINE
  5
843
330
1A
100
AcDbEntity
  8
SEIHIN
  6
CONTINUOUS
100
AcDbLine
 10
397.7033569947407
 20
378.9510494558288
 30
0.0
 11
384.7034569947407
 21
378.9510494558288
 31
0.0
  0
LINE
  5
844
330
1A
100
AcDbEntity
  8
SEIHIN
  6
CONTINUOUS
100
AcDbLine
 10
397.7033569947407
 20
382.9510494558288
 30
0.0
 11
384.7034569947407
 21
382.9510494558288
 31
0.0
  0
LINE
  5
845
330
1A
100
AcDbEntity
  8
SEIHIN
  6
CONTINUOUS
100
AcDbLine
 10
384.7034569947407
 20
395.950949455829
 30
0.0
 11
384.7034569947407
 21
382.950949455829
 31
0.0
  0
LINE
  5
846
330
1A
100
AcDbEntity
  8
SEIHIN
  6
CONTINUOUS
100
AcDbLine
 10
380.7034569947407
 20
395.9510494558288
 30
0.0
 11
380.7034569947407
 21
382.9510494558288
 31
0.0
  0
LINE
  5
847
330
1A
100
AcDbEntity
  8
SEIHIN
  6
CONTINUOUS
100
AcDbLine
 10
397.7034569947407
 20
412.9510494558288
 30
0.0
 11
384.7034569947407
 21
412.9511494558289
 31
0.0
  0
LINE
  5
848
330
1A
100
AcDbEntity
  8
SEIHIN
  6
CONTINUOUS
100
AcDbLine
 10
397.7034569947407
 20
408.9510494558288
 30
0.0
 11
384.7034569947407
 21
408.9511494558289
 31
0.0
  0
ARC
  5
849
330
1A
100
AcDbEntity
  8
SEIHIN
  6
CONTINUOUS
100
AcDbCircle
 10
397.7035434935389
 20
395.9510726330652
 30
0.0
 40
36.249996072446
100
AcDbArc
 50
93.16288967845229
 51
116.8373296252652
  0
ARC
  5
84A
330
1A
100
AcDbEntity
  8
SEIHIN
  6
CONTINUOUS
100
AcDbCircle
 10
397.7032465127336
 20
395.9510269628365
 30
0.0
 40
33.25002249317595
100
AcDbArc
 50
89.99980961959574
 51
113.0149219458253
  0
LINE
  5
84B
330
1A
100
AcDbEntity
  8
SEIHIN
  6
CONTINUOUS
100
AcDbLine
 10
381.3381569947407
 20
428.2967494558289
 30
0.0
 11
380.3105569947407
 21
430.0765494558289
 31
0.0
  0
LINE
  5
84C
330
1A
100
AcDbEntity
  8
SEIHIN
  6
CONTINUOUS
100
AcDbLine
 10
377.8740569947406
 20
426.2966494558289
 30
0.0
 11
376.8465569947406
 21
428.0764494558289
 31
0.0
  0
LINE
  5
84D
330
1A
100
AcDbEntity
  8
SEIHIN
  6
CONTINUOUS
100
AcDbLine
 10
380.3106569947408
 20
430.0766494558289
 30
0.0
 11
376.8464569947407
 21
428.076549455829
 31
0.0
  0
LINE
  5
84E
330
1A
100
AcDbEntity
  8
SEIHIN
  6
CONTINUOUS
100
AcDbLine
 10
399.7036569947407
 20
434.2010494558289
 30
0.0
 11
395.7034569947407
 21
434.2010494558289
 31
0.0
  0
LINE
  5
84F
330
1A
100
AcDbEntity
  8
SEIHIN
  6
CONTINUOUS
100
AcDbLine
 10
395.7034569947407
 20
432.145849455829
 30
0.0
 11
395.7035569947407
 21
434.2010494558289
 31
0.0
  0
LINE
  5
850
330
1A
100
AcDbEntity
  8
SEIHIN
  6
CONTINUOUS
100
AcDbLine
 10
399.7035569947406
 20
432.145849455829
 30
0.0
 11
399.7035569947406
 21
434.2010494558289
 31
0.0
  0
LINE
  5
851
330
1A
100
AcDbEntity
  8
SEIHIN
  6
CONTINUOUS
100
AcDbLine
 10
410.7033569947406
 20
378.9510494558288
 30
0.0
 11
410.7032569947406
 21
365.3476494558289
 31
0.0
  0
LINE
  5
852
330
1A
100
AcDbEntity
  8
SEIHIN
  6
CONTINUOUS
100
AcDbLine
 10
414.7033569947407
 20
378.9510494558288
 30
0.0
 11
414.7032569947406
 21
367.375449455829
 31
0.0
  0
ARC
  5
853
330
1A
100
AcDbEntity
  8
SEIHIN
  6
CONTINUOUS
100
AcDbCircle
 10
397.7034804243893
 20
395.9510728853203
 30
0.0
 40
33.24994222289648
100
AcDbArc
 50
300.7486185038406
 51
329.2508865280182
  0
LINE
  5
854
330
1A
100
AcDbEntity
  8
SEIHIN
  6
CONTINUOUS
100
AcDbLine
 10
431.8289569947407
 20
378.5580494558289
 30
0.0
 11
429.8288569947407
 21
375.0938494558289
 31
0.0
  0
ARC
  5
859
330
1A
100
AcDbEntity
  8
SEIHIN
  6
CONTINUOUS
100
AcDbCircle
 10
397.7035512757891
 20
395.9511437366593
 30
0.0
 40
36.25000036801743
100
AcDbArc
 50
303.1624917412213
 51
326.8369634226971
  0
LINE
  5
85A
330
1A
100
AcDbEntity
  8
SEIHIN
  6
CONTINUOUS
100
AcDbLine
 10
418.5605569947407
 20
363.825649455829
 30
0.0
 11
415.0963569947406
 21
361.8255494558288
 31
0.0
  0
LINE
  5
85B
330
1A
100
AcDbEntity
  8
SEIHIN
  6
CONTINUOUS
100
AcDbLine
 10
414.0686569947407
 20
363.6054494558289
 30
0.0
 11
415.0962569947406
 21
361.825649455829
 31
0.0
  0
LINE
  5
85C
330
1A
100
AcDbEntity
  8
SEIHIN
  6
CONTINUOUS
100
AcDbLine
 10
417.5328569947406
 20
365.6054494558289
 30
0.0
 11
418.5604569947407
 21
363.8255494558288
 31
0.0
  0
LINE
  5
85D
330
1A
100
AcDbEntity
  8
SEIHIN
  6
CONTINUOUS
100
AcDbLine
 10
428.0490569947406
 20
376.1215494558288
 30
0.0
 11
429.8288569947407
 21
375.0939494558288
 31
0.0
  0
LINE
  5
85E
330
1A
100
AcDbEntity
  8
SEIHIN
  6
CONTINUOUS
100
AcDbLine
 10
414.7033569947407
 20
412.9510494558288
 30
0.0
 11
414.7033569947407
 21
424.5266494558288
 31
0.0
  0
LINE
  5
85F
330
1A
100
AcDbEntity
  8
SEIHIN
  6
CONTINUOUS
100
AcDbLine
 10
410.7033569947406
 20
412.9510494558288
 30
0.0
 11
410.7033569947406
 21
426.5543494558289
 31
0.0
  0
ARC
  5
860
330
1A
100
AcDbEntity
  8
SEIHIN
  6
CONTINUOUS
100
AcDbCircle
 10
397.7033627139099
 20
395.9511437368772
 30
0.0
 40
36.25000036801778
100
AcDbArc
 50
33.16249174122114
 51
56.83696342269694
  0
ARC
  5
861
330
1A
100
AcDbEntity
  8
SEIHIN
  6
CONTINUOUS
100
AcDbCircle
 10
397.7035304246214
 20
395.9509760261378
 30
0.0
 40
33.25001075750931
100
AcDbArc
 50
30.74914346741871
 51
59.25135150072185
  0
ARC
  5
862
330
1A
100
AcDbEntity
  8
SEIHIN
  6
CONTINUOUS
100
AcDbCircle
 10
397.7034609730111
 20
395.9510299153892
 30
0.0
 40
33.24999602173537
100
AcDbArc
 50
0.0000336717247677
 51
23.01537197181562
  0
LINE
  5
863
330
1A
100
AcDbEntity
  8
SEIHIN
  6
CONTINUOUS
100
AcDbLine
 10
410.7033569947406
 20
395.9510494558288
 30
0.0
 11
410.7033569947406
 21
408.9510494558288
 31
0.0
  0
LINE
  5
864
330
1A
100
AcDbEntity
  8
SEIHIN
  6
CONTINUOUS
100
AcDbLine
 10
414.7033569947407
 20
395.9510494558288
 30
0.0
 11
414.7033569947407
 21
408.9510494558288
 31
0.0
  0
ARC
  5
865
330
1A
100
AcDbEntity
  8
SEIHIN
  6
CONTINUOUS
100
AcDbCircle
 10
397.7034801719767
 20
395.9509629570309
 30
0.0
 40
36.24999607244623
100
AcDbArc
 50
3.162889678451849
 51
26.83732962526484
  0
LINE
  5
866
330
1A
100
AcDbEntity
  8
SEIHIN
  6
CONTINUOUS
100
AcDbLine
 10
414.7033569947407
 20
378.9510494558288
 30
0.0
 11
426.2789569947407
 21
378.9510494558288
 31
0.0
  0
LINE
  5
867
330
1A
100
AcDbEntity
  8
SEIHIN
  6
CONTINUOUS
100
AcDbLine
 10
414.7033569947407
 20
382.9510494558288
 30
0.0
 11
428.3067569947406
 21
382.950949455829
 31
0.0
  0
LINE
  5
868
330
1A
100
AcDbEntity
  8
SEIHIN
  6
CONTINUOUS
100
AcDbLine
 10
410.7033569947406
 20
395.9510494558288
 30
0.0
 11
410.7033569947406
 21
382.9510494558288
 31
0.0
  0
LINE
  5
869
330
1A
100
AcDbEntity
  8
SEIHIN
  6
CONTINUOUS
100
AcDbLine
 10
414.7033569947407
 20
395.9510494558288
 30
0.0
 11
414.7033569947407
 21
382.9510494558288
 31
0.0
  0
ARC
  5
86A
330
1A
100
AcDbEntity
  8
SEIHIN
  6
CONTINUOUS
100
AcDbCircle
 10
397.7034551720191
 20
395.9510426533968
 30
0.0
 40
36.25002140392538
100
AcDbArc
 50
333.162678766306
 51
356.837101929977
  0
ARC
  5
86B
330
1A
100
AcDbEntity
  8
SEIHIN
  6
CONTINUOUS
100
AcDbCircle
 10
397.7034609730111
 20
395.9510689962683
 30
0.0
 40
33.24999602173541
100
AcDbArc
 50
336.9846280281843
 51
359.9999663282753
  0
LINE
  5
86C
330
1A
100
AcDbEntity
  8
SEIHIN
  6
CONTINUOUS
100
AcDbLine
 10
430.0490569947406
 20
379.5856494558289
 30
0.0
 11
431.8289569947407
 21
378.5579494558289
 31
0.0
  0
LINE
  5
86D
330
1A
100
AcDbEntity
  8
SEIHIN
  6
CONTINUOUS
100
AcDbLine
 10
435.9534569947407
 20
395.950949455829
 30
0.0
 11
435.9534569947407
 21
397.9509494558289
 31
0.0
  0
LINE
  5
86E
330
1A
100
AcDbEntity
  8
SEIHIN
  6
CONTINUOUS
100
AcDbLine
 10
433.8982569947407
 20
393.950949455829
 30
0.0
 11
435.9534569947407
 21
393.950949455829
 31
0.0
  0
LINE
  5
86F
330
1A
100
AcDbEntity
  8
SEIHIN
  6
CONTINUOUS
100
AcDbLine
 10
435.9534569947407
 20
395.950949455829
 30
0.0
 11
435.9534569947407
 21
393.950949455829
 31
0.0
  0
LINE
  5
870
330
1A
100
AcDbEntity
  8
SEIHIN
  6
CONTINUOUS
100
AcDbLine
 10
433.8982569947407
 20
397.9509494558289
 30
0.0
 11
435.9534569947407
 21
397.9509494558289
 31
0.0
  0
LINE
  5
871
330
1A
100
AcDbEntity
  8
SEIHIN
  6
CONTINUOUS
100
AcDbLine
 10
414.7033569947407
 20
412.9510494558288
 30
0.0
 11
426.2790569947407
 21
412.9510494558288
 31
0.0
  0
LINE
  5
872
330
1A
100
AcDbEntity
  8
SEIHIN
  6
CONTINUOUS
100
AcDbLine
 10
414.7033569947407
 20
408.9510494558288
 30
0.0
 11
428.3067569947406
 21
408.9509494558289
 31
0.0
  0
LINE
  5
873
330
1A
100
AcDbEntity
  8
SEIHIN
  6
CONTINUOUS
100
AcDbLine
 10
431.8290569947407
 20
413.3438494558288
 30
0.0
 11
429.8289569947407
 21
416.8080494558289
 31
0.0
  0
LINE
  5
874
330
1A
100
AcDbEntity
  8
SEIHIN
  6
CONTINUOUS
100
AcDbLine
 10
428.0490569947406
 20
415.7804494558288
 30
0.0
 11
429.8288569947407
 21
416.8080494558289
 31
0.0
  0
LINE
  5
875
330
1A
100
AcDbEntity
  8
SEIHIN
  6
CONTINUOUS
100
AcDbLine
 10
430.0490569947406
 20
412.316349455829
 30
0.0
 11
431.8289569947407
 21
413.3439494558289
 31
0.0
  0
LINE
  5
876
330
1A
100
AcDbEntity
  8
SEIHIN
  6
CONTINUOUS
100
AcDbLine
 10
418.5606569947406
 20
428.0764494558289
 30
0.0
 11
415.0964569947407
 21
430.0764494558288
 31
0.0
  0
LINE
  5
877
330
1A
100
AcDbEntity
  8
SEIHIN
  6
CONTINUOUS
100
AcDbLine
 10
414.0688569947406
 20
428.2966494558288
 30
0.0
 11
415.0964569947407
 21
430.0764494558288
 31
0.0
  0
LINE
  5
878
330
1A
100
AcDbEntity
  8
SEIHIN
  6
CONTINUOUS
100
AcDbLine
 10
417.5329569947407
 20
426.2966494558289
 30
0.0
 11
418.5606569947406
 21
428.0764494558289
 31
0.0
  0
CIRCLE
  5
87D
330
1A
100
AcDbEntity
  8
SEIHIN
  6
CONTINUOUS
100
AcDbCircle
 10
397.703456994743
 20
395.951050932085
 30
0.0
 40
38.24966145415949
  0
CIRCLE
  5
87E
330
1A
100
AcDbEntity
  8
SEIHIN
  6
CONTINUOUS
100
AcDbCircle
 10
397.703456994743
 20
395.951050932085
 30
0.0
 40
45.99960000005065
  0
CIRCLE
  5
87F
330
1A
100
AcDbEntity
  8
SEIHIN
  6
CONTINUOUS
100
AcDbCircle
 10
397.703456994743
 20
395.951050932085
 30
0.0
 40
49.99960000005525
  0
ARC
  5
953
330
1A
100
AcDbEntity
  8
SEIHIN
  6
CONTINUOUS
100
AcDbCircle
 10
179.7222000986228
 20
395.951050932085
 30
0.0
 40
40.33395681641247
100
AcDbArc
 50
94.28825394310317
 51
148.8576836941849
  0
CIRCLE
  5
954
330
1A
100
AcDbEntity
  8
SEIHIN
  6
CONTINUOUS
100
AcDbCircle
 10
179.7222000986228
 20
395.951050932085
 30
0.0
 40
42.49895681641516
  0
CIRCLE
  5
955
330
1A
100
AcDbEntity
  8
SEIHIN
  6
CONTINUOUS
100
AcDbCircle
 10
179.7222000986228
 20
395.951050932085
 30
0.0
 40
47.97085681642146
  0
CIRCLE
  5
956
330
1A
100
AcDbEntity
  8
SEIHIN
  6
CONTINUOUS
100
AcDbCircle
 10
179.7222000986228
 20
395.951050932085
 30
0.0
 40
51.9992568164258
  0
CIRCLE
  5
957
330
1A
100
AcDbEntity
  8
SEIHIN
  6
CONTINUOUS
100
AcDbCircle
 10
179.7222000986228
 20
395.951050932085
 30
0.0
 40
54.99925681642948
  0
LINE
  5
95B
330
1A
100
AcDbEntity
  8
SEIHIN
  6
CONTINUOUS
100
AcDbLine
 10
176.7062569149889
 20
436.1720921814276
 30
0.0
 11
176.5443705664142
 21
438.3310312287742
 31
0.0
  0
LINE
  5
95C
330
1A
100
AcDbEntity
  8
SEIHIN
  6
CONTINUOUS
100
AcDbLine
 10
145.2009569149889
 20
416.8103855697151
 30
0.0
 11
143.3479651087856
 21
417.9300490754862
 31
0.0
  0
CIRCLE
  5
95D
330
1A
100
AcDbEntity
  8
SEIHIN
  6
CONTINUOUS
100
AcDbCircle
 10
179.7222000984568
 20
395.951050932085
 30
0.0
 40
36.50104318351005
  0
LINE
  5
964
330
1A
100
AcDbEntity
  8
SEIHIN
  6
CONTINUOUS
100
AcDbLine
 10
146.3977282017013
 20
373.2286468942303
 30
0.0
 11
144.6089753156613
 21
372.0089796800952
 31
0.0
  0
LINE
  5
965
330
1A
100
AcDbEntity
  8
SEIHIN
  6
CONTINUOUS
100
AcDbLine
 10
178.9181079879596
 20
355.6251100460277
 30
0.0
 11
178.8749468513759
 21
353.4605403161044
 31
0.0
  0
LINE
  5
966
330
1A
100
AcDbEntity
  8
SEIHIN
  6
CONTINUOUS
100
AcDbLine
 10
216.0626151789291
 20
378.4524137205971
 30
0.0
 11
218.0132544132948
 21
377.5131418873856
 31
0.0
  0
LINE
  5
967
330
1A
100
AcDbEntity
  8
SEIHIN
  6
CONTINUOUS
100
AcDbLine
 10
215.0475353926709
 20
415.4176571805123
 30
0.0
 11
216.9436883352089
 21
416.4625634046644
 31
0.0
  0
ARC
  5
968
330
1A
100
AcDbEntity
  8
SEIHIN
  6
CONTINUOUS
100
AcDbCircle
 10
179.7222000986228
 20
395.951050932085
 30
0.0
 40
40.33395681641247
100
AcDbArc
 50
214.288253942735
 51
268.8576836938271
  0
ARC
  5
969
330
1A
100
AcDbEntity
  8
SEIHIN
  6
CONTINUOUS
100
AcDbCircle
 10
179.7222000986228
 20
395.951050932085
 30
0.0
 40
40.33395681641247
100
AcDbArc
 50
334.2882539427713
 51
28.85768369417677
  0
LINE
  5
9A0
330
1A
100
AcDbEntity
  8
SEIHIN
  6
CONTINUOUS
100
AcDbLine
 10
357.3676678175349
 20
166.7927494558073
 30
0.0
 11
357.3676678175349
 21
165.7928494558074
 31
0.0
  0
LINE
  5
9AE
330
1A
100
AcDbEntity
  8
SEIHIN
  6
CONTINUOUS
100
AcDbLine
 10
355.2029678175351
 20
198.7928494558074
 30
0.0
 11
355.2029678175351
 21
166.7928494555719
 31
0.0
  0
LINE
  5
9B2
330
1A
100
AcDbEntity
  8
SEIHIN
  6
CONTINUOUS
 62
     4
100
AcDbLine
 10
357.3678678175352
 20
198.792844361937
 30
0.0
 11
357.3678678175352
 21
166.7928443617016
 31
0.0
  0
LINE
  5
9B7
330
1A
100
AcDbEntity
  8
SEIHIN
  6
CONTINUOUS
100
AcDbLine
 10
355.2029678175351
 20
166.7928494558071
 30
0.0
 11
440.2031678175351
 21
166.7926494558074
 31
0.0
  0
LINE
  5
9B8
330
1A
100
AcDbEntity
  8
SEIHIN
  6
CONTINUOUS
100
AcDbLine
 10
438.0382678175349
 20
165.7926494558073
 30
0.0
 11
357.3678678175352
 21
165.7928494558074
 31
0.0
  0
LINE
  5
9BB
330
1A
100
AcDbEntity
  8
SEIHIN
  6
CONTINUOUS
100
AcDbLine
 10
438.0382678175349
 20
166.7927494558073
 30
0.0
 11
438.0382678175349
 21
165.7926494558073
 31
0.0
  0
LINE
  5
9D4
330
1A
100
AcDbEntity
  8
SEIHIN
  6
CONTINUOUS
100
AcDbLine
 10
355.2029678175351
 20
198.792849455572
 30
0.0
 11
440.2032678175353
 21
198.7926494558073
 31
0.0
  0
LINE
  5
9DB
330
1A
100
AcDbEntity
  8
SEIHIN
  6
CONTINUOUS
 62
     4
100
AcDbLine
 10
438.0382678175349
 20
198.792654549901
 30
0.0
 11
438.0382678175341
 21
166.7926545496777
 31
0.0
  0
LINE
  5
9DD
330
1A
100
AcDbEntity
  8
SEIHIN
  6
CONTINUOUS
100
AcDbLine
 10
440.2032678175352
 20
198.7926494558073
 30
0.0
 11
440.2032678175357
 21
166.7926494555721
 31
0.0
  0
LINE
  5
9DE
330
1A
100
AcDbEntity
  8
SEIHIN
  6
CONTINUOUS
100
AcDbLine
 10
438.2031678175349
 20
198.7925494558074
 30
0.0
 11
438.2031678175349
 21
200.7926494558073
 31
0.0
  0
LINE
  5
9DF
330
1A
100
AcDbEntity
  8
SEIHIN
  6
CONTINUOUS
100
AcDbLine
 10
357.2030678175349
 20
198.7927494558073
 30
0.0
 11
357.2030678175349
 21
200.7928494558074
 31
0.0
  0
ARC
  5
9E1
330
1A
100
AcDbEntity
  8
SEIHIN
  6
CONTINUOUS
100
AcDbCircle
 10
363.3241231782733
 20
230.7928494562095
 30
0.0
 40
2.0
100
AcDbArc
 50
89.99983334027723
 51
176.1856500829825
  0
DIMENSION
  5
9F5
330
1A
100
AcDbEntity
  8
SUNPOU
  6
CONTINUOUS
 48
5.0
100
AcDbDimension
  2
*D1
 10
133.1217000986205
 20
147.7718973238629
 30
0.0
 11
179.7217000986205
 21
152.7718973238629
 31
0.0
 12
32.25344041396056
 22
-12.38423532610068
 32
0.0
 70
    32
  1
φ<>
  3
STANDARD
100
AcDbAlignedDimension
 13
226.3217000986205
 23
172.2925494558289
 33
0.0
 14
133.1217000986205
 24
172.2927494558289
 34
0.0
100
AcDbRotatedDimension
1001
ACAD
1000
DSTYLE
1002
{
1070
   140
1040
6.0
1070
    74
1070
     0
1070
   172
1070
     1
1070
    73
1070
     0
1070
   272
1070
     2
1070
    77
1070
     3
1070
   173
1070
     1
1070
   147
1040
2.0
1070
    42
1040
6.0
1070
    44
1040
3.0
1070
    43
1040
14.0
1070
   271
1070
     0
1070
   178
1070
     4
1070
   177
1070
     4
1070
   176
1070
     4
1070
   141
1040
150.0
1070
     7
1000
_OPEN
1070
     6
1000
_OPEN
1070
    41
1040
7.0
1002
}
  0
DIMENSION
  5
A02
330
1A
100
AcDbEntity
  8
SUNPOU
  6
CONTINUOUS
 48
5.0
100
AcDbDimension
  2
*D2
 10
124.7219000986204
 20
264.9282031907264
 30
0.0
 11
179.7218500986205
 21
269.9282031907264
 31
0.0
 12
32.25344041396056
 22
-12.38423532610068
 32
0.0
 70
    32
  1
φ<>
  3
STANDARD
100
AcDbAlignedDimension
 13
234.7218000986204
 23
243.7925494558289
 33
0.0
 14
124.7219000986204
 24
243.7929494561926
 34
0.0
100
AcDbRotatedDimension
1001
ACAD
1000
DSTYLE
1002
{
1070
   140
1040
6.0
1070
    74
1070
     0
1070
   172
1070
     1
1070
    73
1070
     0
1070
   272
1070
     2
1070
    77
1070
     3
1070
   173
1070
     1
1070
   147
1040
2.0
1070
    42
1040
6.0
1070
    44
1040
3.0
1070
    43
1040
14.0
1070
   271
1070
     0
1070
   178
1070
     4
1070
   177
1070
     4
1070
   176
1070
     4
1070
   141
1040
150.0
1070
     7
1000
_OPEN
1070
     6
1000
_OPEN
1070
    41
1040
7.0
1002
}
  0
DIMENSION
  5
A1E
330
1A
100
AcDbEntity
  8
SUNPOU
  6
CONTINUOUS
 48
5.0
100
AcDbDimension
  2
*D3
 10
257.3758120156562
 20
172.2925494558289
 30
0.0
 11
252.3758120156562
 21
206.5425494558289
 31
0.0
 12
32.25344041396056
 22
-12.38423532610068
 32
0.0
 70
    32
  3
STANDARD
100
AcDbAlignedDimension
 13
230.7218000986205
 23
240.7925494558289
 33
0.0
 14
226.3217000986205
 24
172.2925494558289
 34
0.0
 50
90.0
100
AcDbRotatedDimension
1001
ACAD
1000
DSTYLE
1002
{
1070
   140
1040
6.0
1070
    74
1070
     0
1070
   172
1070
     1
1070
    73
1070
     0
1070
   272
1070
     2
1070
    77
1070
     3
1070
   173
1070
     1
1070
   147
1040
2.0
1070
    42
1040
6.0
1070
    44
1040
3.0
1070
    43
1040
14.0
1070
   271
1070
     0
1070
   178
1070
     4
1070
   177
1070
     4
1070
   176
1070
     4
1070
   141
1040
150.0
1070
     7
1000
_OPEN
1070
     6
1000
_OPEN
1070
    41
1040
7.0
1002
}
  0
DIMENSION
  5
A2B
330
1A
100
AcDbEntity
  8
SUNPOU
  6
CONTINUOUS
 48
5.0
100
AcDbDimension
  2
*D4
 10
277.2585885613789
 20
172.2925494558289
 30
0.0
 11
272.2585885613789
 21
208.0425494558289
 31
0.0
 12
32.25344041396056
 22
-12.38423532610068
 32
0.0
 70
    32
  3
STANDARD
100
AcDbAlignedDimension
 13
234.7218000986204
 23
243.7925494558289
 33
0.0
 14
226.3217000986205
 24
172.2925494558289
 34
0.0
 50
90.0
100
AcDbRotatedDimension
1001
ACAD
1000
DSTYLE
1002
{
1070
   140
1040
6.0
1070
    74
1070
     0
1070
   172
1070
     1
1070
    73
1070
     0
1070
   272
1070
     2
1070
    77
1070
     3
1070
   173
1070
     1
1070
   147
1040
2.0
1070
    42
1040
6.0
1070
    44
1040
3.0
1070
    43
1040
14.0
1070
   271
1070
     0
1070
   178
1070
     4
1070
   177
1070
     4
1070
   176
1070
     4
1070
   141
1040
150.0
1070
     7
1000
_OPEN
1070
     6
1000
_OPEN
1070
    41
1040
7.0
1002
}
  0
DIMENSION
  5
A7A
330
1A
100
AcDbEntity
  8
SUNPOU
  6
CONTINUOUS
 48
5.0
100
AcDbDimension
  2
*D5
 10
361.4530263606426
 20
252.2038540963658
 30
0.0
 11
397.7031144652428
 21
257.2038540963658
 31
0.0
 12
2.253440413960561
 22
-27.38423532610068
 32
0.0
 70
    32
  1
φ<>
  3
STANDARD
100
AcDbAlignedDimension
 13
433.9532025698429
 23
232.7926440131139
 33
0.0
 14
361.4530263606426
 24
232.7928548987912
 34
0.0
100
AcDbRotatedDimension
1001
ACAD
1000
DSTYLE
1002
{
1070
   140
1040
6.0
1070
    74
1070
     0
1070
   172
1070
     1
1070
    73
1070
     0
1070
   272
1070
     2
1070
    77
1070
     3
1070
   173
1070
     1
1070
   147
1040
2.0
1070
    42
1040
6.0
1070
    44
1040
3.0
1070
    43
1040
14.0
1070
   271
1070
     0
1070
   178
1070
     4
1070
   177
1070
     4
1070
   176
1070
     4
1070
   141
1040
150.0
1070
     7
1000
_OPEN
1070
     6
1000
_OPEN
1070
    41
1040
7.0
1002
}
  0
DIMENSION
  5
A87
330
1A
100
AcDbEntity
  8
SUNPOU
  6
CONTINUOUS
 48
5.0
100
AcDbDimension
  2
*D6
 10
347.7029569947407
 20
272.1609109358328
 30
0.0
 11
397.7030069947407
 21
277.1609109358328
 31
0.0
 12
2.253440413960561
 22
-27.38423532610068
 32
0.0
 70
    32
  1
φ<>
  3
STANDARD
100
AcDbAlignedDimension
 13
447.7030569947407
 23
201.7926494558289
 33
0.0
 14
347.7029569947407
 24
201.7929494558289
 34
0.0
100
AcDbRotatedDimension
1001
ACAD
1000
DSTYLE
1002
{
1070
   140
1040
6.0
1070
    74
1070
     0
1070
   172
1070
     1
1070
    73
1070
     0
1070
   272
1070
     2
1070
    77
1070
     3
1070
   173
1070
     1
1070
   147
1040
2.0
1070
    42
1040
6.0
1070
    44
1040
3.0
1070
    43
1040
14.0
1070
   271
1070
     0
1070
   178
1070
     4
1070
   177
1070
     4
1070
   176
1070
     4
1070
   141
1040
150.0
1070
     7
1000
_OPEN
1070
     6
1000
_OPEN
1070
    41
1040
7.0
1002
}
  0
DIMENSION
  5
A94
330
1A
100
AcDbEntity
  8
SUNPOU
  6
CONTINUOUS
 48
5.0
100
AcDbDimension
  2
*D7
 10
355.2029678175351
 20
141.9162309345438
 30
0.0
 11
397.7031178175355
 21
146.9162309345438
 31
0.0
 12
2.253440413960561
 22
-27.38423532610068
 32
0.0
 70
    32
  1
φ<>
  3
STANDARD
100
AcDbAlignedDimension
 13
440.2032678175357
 23
166.7926494555721
 33
0.0
 14
355.2029678175351
 24
166.7928494555719
 34
0.0
100
AcDbRotatedDimension
1001
ACAD
1000
DSTYLE
1002
{
1070
   140
1040
6.0
1070
    74
1070
     0
1070
   172
1070
     1
1070
    73
1070
     0
1070
   272
1070
     2
1070
    77
1070
     3
1070
   173
1070
     1
1070
   147
1040
2.0
1070
    42
1040
6.0
1070
    44
1040
3.0
1070
    43
1040
14.0
1070
   271
1070
     0
1070
   178
1070
     4
1070
   177
1070
     4
1070
   176
1070
     4
1070
   141
1040
150.0
1070
     7
1000
_OPEN
1070
     6
1000
_OPEN
1070
    41
1040
7.0
1002
}
  0
DIMENSION
  5
AA3
330
1A
100
AcDbEntity
  8
SUNPOU
  6
CONTINUOUS
 48
5.0
100
AcDbDimension
  2
*D8
 10
465.7626649729618
 20
200.7926494558288
 30
0.0
 11
460.7626649729618
 21
220.7926339944058
 31
0.0
 12
2.253440413960561
 22
-27.38423532610068
 32
0.0
 70
    32
  3
STANDARD
100
AcDbAlignedDimension
 13
443.7031188404329
 23
202.7926339944059
 33
0.0
 14
447.7030569947407
 24
200.7926494558288
 34
0.0
 50
90.0
100
AcDbRotatedDimension
1001
ACAD
1000
DSTYLE
1002
{
1070
   140
1040
6.0
1070
    74
1070
     0
1070
   172
1070
     1
1070
    73
1070
     0
1070
   272
1070
     2
1070
    77
1070
     3
1070
   173
1070
     1
1070
   280
1070
     1
1070
   147
1040
2.0
1070
    42
1040
6.0
1070
    44
1040
3.0
1070
    43
1040
14.0
1070
   271
1070
     0
1070
   178
1070
     4
1070
   177
1070
     4
1070
   176
1070
     4
1070
   141
1040
150.0
1070
     7
1000
_OPEN
1070
     6
1000
_OPEN
1070
    41
1040
7.0
1002
}
  0
DIMENSION
  5
AB0
330
1A
100
AcDbEntity
  8
SUNPOU
  6
CONTINUOUS
 48
5.0
100
AcDbDimension
  2
*D9
 10
485.4207812963004
 20
165.7926494558073
 30
0.0
 11
480.4207812963004
 21
183.2926494558181
 31
0.0
 12
2.253440413960561
 22
-27.38423532610068
 32
0.0
 70
    32
  3
STANDARD
100
AcDbAlignedDimension
 13
447.7030569947407
 23
200.7926494558288
 33
0.0
 14
438.0382678175349
 24
165.7926494558073
 34
0.0
 50
90.0
100
AcDbRotatedDimension
1001
ACAD
1000
DSTYLE
1002
{
1070
   140
1040
6.0
1070
    74
1070
     0
1070
   172
1070
     1
1070
    73
1070
     0
1070
   272
1070
     2
1070
    77
1070
     3
1070
   173
1070
     1
1070
   147
1040
2.0
1070
    42
1040
6.0
1070
    44
1040
3.0
1070
    43
1040
14.0
1070
   271
1070
     0
1070
   178
1070
     4
1070
   177
1070
     4
1070
   176
1070
     4
1070
   141
1040
150.0
1070
     7
1000
_OPEN
1070
     6
1000
_OPEN
1070
    41
1040
7.0
1002
}
  0
DIMENSION
  5
ABD
330
1A
100
AcDbEntity
  8
SUNPOU
  6
CONTINUOUS
 48
5.0
100
AcDbDimension
  2
*D10
 10
505.8652219121931
 20
165.7926494558073
 30
0.0
 11
500.8652219121931
 21
199.2926494558181
 31
0.0
 12
2.253440413960561
 22
-27.38423532610068
 32
0.0
 70
    32
  3
STANDARD
100
AcDbAlignedDimension
 13
432.0820569947407
 23
232.792649455829
 33
0.0
 14
438.0382678175349
 24
165.7926494558073
 34
0.0
 50
90.0
100
AcDbRotatedDimension
1001
ACAD
1000
DSTYLE
1002
{
1070
   140
1040
6.0
1070
    74
1070
     0
1070
   172
1070
     1
1070
    73
1070
     0
1070
   272
1070
     2
1070
    77
1070
     3
1070
   173
1070
     1
1070
   147
1040
2.0
1070
    42
1040
6.0
1070
    44
1040
3.0
1070
    43
1040
14.0
1070
   271
1070
     0
1070
   178
1070
     4
1070
   177
1070
     4
1070
   176
1070
     4
1070
   141
1040
150.0
1070
     7
1000
_OPEN
1070
     6
1000
_OPEN
1070
    41
1040
7.0
1002
}
  0
DIMENSION
  5
B49
330
1A
100
AcDbEntity
  8
SUNPOU
  6
CONTINUOUS
 48
5.0
100
AcDbDimension
  2
*D11
 10
621.1717535279452
 20
301.777175638073
 30
0.0
 11
664.171752873028
 21
306.777175638073
 31
0.0
 12
-25.91452872265745
 22
-12.38423532610068
 32
0.0
 70
    32
  1
穴径 φ<>
  3
STANDARD
100
AcDbAlignedDimension
 13
707.171752218111
 23
356.5615276602401
 33
0.0
 14
621.1717535279452
 24
356.9189975782799
 34
0.0
100
AcDbRotatedDimension
1001
ACAD
1000
DSTYLE
1002
{
1070
   140
1040
6.0
1070
    74
1070
     0
1070
   172
1070
     1
1070
    73
1070
     0
1070
   272
1070
     2
1070
    77
1070
     3
1070
   173
1070
     1
1070
   147
1040
2.0
1070
    42
1040
6.0
1070
    44
1040
3.0
1070
    43
1040
14.0
1070
   271
1070
     0
1070
   178
1070
     4
1070
   177
1070
     4
1070
   176
1070
     4
1070
   141
1040
150.0
1070
     7
1000
_OPEN
1070
     6
1000
_OPEN
1070
    41
1040
7.0
1002
}
  0
LINE
  5
B81
330
1A
100
AcDbEntity
  8
NOKITOI
  6
CONTINUOUS
 62
     6
100
AcDbLine
 10
621.1716155196673
 20
362.1911365754719
 30
0.0
 11
594.1716155196672
 21
362.1912445754718
 31
0.0
  0
LINE
  5
B82
330
1A
100
AcDbEntity
  8
NOKITOI
  6
CONTINUOUS
 62
     6
100
AcDbLine
 10
621.1716155196673
 20
359.6911365754519
 30
0.0
 11
594.1716155196672
 21
359.6912445754519
 31
0.0
  0
LINE
  5
B84
330
1A
100
AcDbEntity
  8
NOKITOI
  6
CONTINUOUS
 62
     6
100
AcDbLine
 10
621.1716155196673
 20
362.1911365754719
 30
0.0
 11
621.1716155196673
 21
359.6911365754519
 31
0.0
  0
LINE
  5
B86
330
1A
100
AcDbEntity
  8
NOKITOI
  6
CONTINUOUS
 62
     6
 48
5.0
100
AcDbLine
 10
707.171911859841
 20
359.6908213158535
 30
0.0
 11
734.1719118599073
 21
359.6907313628341
 31
0.0
  0
LINE
  5
B87
330
1A
100
AcDbEntity
  8
NOKITOI
  6
CONTINUOUS
 62
     6
 48
5.0
100
AcDbLine
 10
707.1719301888244
 20
362.1908213158062
 30
0.0
 11
734.1719301888905
 21
362.190731362787
 31
0.0
  0
LINE
  5
B88
330
1A
100
AcDbEntity
  8
NOKITOI
  6
CONTINUOUS
 62
     6
 48
5.0
100
AcDbLine
 10
707.1719301888244
 20
362.1908213158062
 30
0.0
 11
707.171911859841
 21
359.6908213158534
 31
0.0
  0
VIEWPORT
  5
22
330
17
100
AcDbEntity
 67
     1
  8
0
100
AcDbViewport
 10
313.6808219178082
 20
148.5
 30
0.0
 40
627.3616438356165
 41
297.0
 68
     2
 69
     1
1001
ACAD
1000
MVIEW
1002
{
1070
    16
1010
0.0
1020
0.0
1030
0.0
1010
0.0
1020
0.0
1030
1.0
1040
0.0
1040
297.0
1040
313.6808219178082
1040
148.5
1040
50.0
1040
0.0
1040
0.0
1070
     0
1070
   100
1070
     1
1070
     0
1070
     0
1070
     0
1070
     0
1070
     0
1040
0.0
1040
0.0
1040
0.0
1040
1.0
1040
1.0
1040
10.0
1040
10.0
1070
     0
1002
{
1002
}
1002
}
  0
VIEWPORT
  5
64
330
17
100
AcDbEntity
 67
     1
  8
VIEWPORT
100
AcDbViewport
 10
210.0
 20
148.5
 30
0.0
 40
420.0
 41
297.0
 68
     1
 69
     2
1001
ACAD
1000
MVIEW
1002
{
1070
    16
1010
0.0
1020
0.0
1030
0.0
1010
0.0
1020
0.0
1030
1.0
1040
0.0
1040
605.8799999999998
1040
420.0
1040
297.0
1040
50.0
1040
0.0
1040
0.0
1070
     0
1070
   100
1070
     1
1070
     0
1070
     0
1070
     0
1070
     0
1070
     0
1040
0.0
1040
0.0
1040
0.0
1040
10.0
1040
10.0
1040
0.0
1040
0.0
1070
     0
1002
{
1002
}
1002
}
  0
ENDSEC
  0
SECTION
  2
OBJECTS
  0
DICTIONARY
  5
C
330
0
100
AcDbDictionary
  3
ACAD_GROUP
350
D
  3
ACAD_LAYOUT
350
B92
  3
ACAD_MLINESTYLE
350
E
  3
ACAD_PLOTSETTINGS
350
B93
1001
ACAD
1000
TREAT_AS_HARD
1070
     0
  0
DICTIONARY
  5
BBF
330
1A
100
AcDbDictionary
  3
ACAD_LAYOUTSELFREF
350
C03
1001
ACAD
1000
TREAT_AS_HARD
1070
     1
  0
DICTIONARY
  5
BBD
330
17
100
AcDbDictionary
  3
ACAD_LAYOUTSELFREF
350
C02
1001
ACAD
1000
TREAT_AS_HARD
1070
     1
  0
DICTIONARY
  5
D
102
{ACAD_REACTORS
330
C
102
}
330
C
100
AcDbDictionary
1001
ACAD
1000
TREAT_AS_HARD
1070
     0
  0
DICTIONARY
  5
B92
102
{ACAD_REACTORS
330
C
102
}
330
C
100
AcDbDictionary
1001
ACAD
1000
TREAT_AS_HARD
1070
     0
  0
DICTIONARY
  5
E
102
{ACAD_REACTORS
330
C
102
}
330
C
100
AcDbDictionary
  3
STANDARD
350
13
1001
ACAD
1000
TREAT_AS_HARD
1070
     0
  0
DICTIONARY
  5
B93
102
{ACAD_REACTORS
330
C
102
}
330
C
100
AcDbDictionary
1001
ACAD
1000
TREAT_AS_HARD
1070
     0
  0
XRECORD
  5
C03
102
{ACAD_REACTORS
330
BBF
102
}
330
BBF
100
AcDbXrecord
340
1A
  0
XRECORD
  5
C02
102
{ACAD_REACTORS
330
BBD
102
}
330
BBD
100
AcDbXrecord
340
17
  0
MLINESTYLE
  5
13
102
{ACAD_REACTORS
330
E
102
}
330
E
100
AcDbMlineStyle
  2
STANDARD
 70
     0
  3

 62
     0
 51
90.0
 52
90.0
 71
     2
 49
0.5
 62
   256
  6
BYLAYER
 49
-0.5
 62
   256
  6
BYLAYER
  0
ENDSEC
  0
EOF
