  0
SECTION
  2
HEADER
  9
$ACADVER
  1
AC1012
  9
$DWGCODEPAGE
  3
dos932
  9
$INSBASE
 10
0.0
 20
0.0
 30
0.0
  9
$EXTMIN
 10
10.05047808566086
 20
4.949376903717846
 30
0.0
  9
$EXTMAX
 10
806.2246110975902
 20
563.7825862828226
 30
0.0
  9
$LIMMIN
 10
0.0
 20
0.0
  9
$LIMMAX
 10
840.0
 20
594.0
  9
$ORTHOMODE
 70
     0
  9
$REGENMODE
 70
     1
  9
$FILLMODE
 70
     1
  9
$QTEXTMODE
 70
     0
  9
$MIRRTEXT
 70
     1
  9
$DRAGMODE
 70
     2
  9
$LTSCALE
 40
2.0
  9
$OSMODE
 70
    37
  9
$ATTMODE
 70
     1
  9
$TEXTSIZE
 40
5.0
  9
$TRACEWID
 40
1.0
  9
$TEXTSTYLE
  7
STANDARD
  9
$CLAYER
  8
ZUWAKU
  9
$CELTYPE
  6
BYLAYER
  9
$CECOLOR
 62
     4
  9
$CELTSCALE
 40
5.0
  9
$DELOBJ
 70
     1
  9
$DISPSILH
 70
     0
  9
$DIMSCALE
 40
1.0
  9
$DIMASZ
 40
7.0
  9
$DIMEXO
 40
6.0
  9
$DIMDLI
 40
14.0
  9
$DIMRND
 40
0.0
  9
$DIMDLE
 40
0.0
  9
$DIMEXE
 40
3.0
  9
$DIMTP
 40
0.0
  9
$DIMTM
 40
0.0
  9
$DIMTXT
 40
6.0
  9
$DIMCEN
 40
150.0
  9
$DIMTSZ
 40
0.0
  9
$DIMTOL
 70
     0
  9
$DIMLIM
 70
     0
  9
$DIMTIH
 70
     0
  9
$DIMTOH
 70
     0
  9
$DIMSE1
 70
     0
  9
$DIMSE2
 70
     0
  9
$DIMTAD
 70
     3
  9
$DIMZIN
 70
     0
  9
$DIMBLK
  1

  9
$DIMASO
 70
     1
  9
$DIMSHO
 70
     1
  9
$DIMPOST
  1

  9
$DIMAPOST
  1

  9
$DIMALT
 70
     0
  9
$DIMALTD
 70
     2
  9
$DIMALTF
 40
25.4
  9
$DIMLFAC
 40
1.0
  9
$DIMTOFL
 70
     1
  9
$DIMTVP
 40
0.0
  9
$DIMTIX
 70
     0
  9
$DIMSOXD
 70
     0
  9
$DIMSAH
 70
     1
  9
$DIMBLK1
  1
OPEN
  9
$DIMBLK2
  1
OPEN
  9
$DIMSTYLE
  2
STANDARD
  9
$DIMCLRD
 70
   256
  9
$DIMCLRE
 70
   256
  9
$DIMCLRT
 70
   256
  9
$DIMTFAC
 40
1.0
  9
$DIMGAP
 40
2.0
  9
$DIMJUST
 70
     0
  9
$DIMSD1
 70
     0
  9
$DIMSD2
 70
     0
  9
$DIMTOLJ
 70
     1
  9
$DIMTZIN
 70
     0
  9
$DIMALTZ
 70
     0
  9
$DIMALTTZ
 70
     0
  9
$DIMFIT
 70
     3
  9
$DIMUPT
 70
     0
  9
$DIMUNIT
 70
     2
  9
$DIMDEC
 70
     0
  9
$DIMTDEC
 70
     0
  9
$DIMALTU
 70
     2
  9
$DIMALTTD
 70
     2
  9
$DIMTXSTY
  7
STANDARD
  9
$DIMAUNIT
 70
     0
  9
$LUNITS
 70
     2
  9
$LUPREC
 70
     4
  9
$SKETCHINC
 40
1.0
  9
$FILLETRAD
 40
3.0
  9
$AUNITS
 70
     0
  9
$AUPREC
 70
     0
  9
$MENU
  1
.
  9
$ELEVATION
 40
0.0
  9
$PELEVATION
 40
0.0
  9
$THICKNESS
 40
0.0
  9
$LIMCHECK
 70
     0
  9
$BLIPMODE
 70
     0
  9
$CHAMFERA
 40
20.0
  9
$CHAMFERB
 40
20.0
  9
$CHAMFERC
 40
40.0
  9
$CHAMFERD
 40
0.0
  9
$SKPOLY
 70
     0
  9
$TDCREATE
 40
2451274.477189930
  9
$TDUPDATE
 40
2452393.716916898
  9
$TDINDWG
 40
0.0247670949
  9
$TDUSRTIMER
 40
0.0247670949
  9
$USRTIMER
 70
     1
  9
$ANGBASE
 50
0.0
  9
$ANGDIR
 70
     0
  9
$PDMODE
 70
     0
  9
$PDSIZE
 40
0.0
  9
$PLINEWID
 40
0.0
  9
$COORDS
 70
     1
  9
$SPLFRAME
 70
     0
  9
$SPLINETYPE
 70
     6
  9
$SPLINESEGS
 70
     8
  9
$ATTDIA
 70
     0
  9
$ATTREQ
 70
     1
  9
$HANDLING
 70
 10241
  9
$HANDSEED
  5
C0C
  9
$SURFTAB1
 70
     6
  9
$SURFTAB2
 70
     6
  9
$SURFTYPE
 70
     6
  9
$SURFU
 70
     6
  9
$SURFV
 70
     6
  9
$UCSNAME
  2

  9
$UCSORG
 10
0.0
 20
0.0
 30
0.0
  9
$UCSXDIR
 10
1.0
 20
0.0
 30
0.0
  9
$UCSYDIR
 10
0.0
 20
1.0
 30
0.0
  9
$PUCSNAME
  2

  9
$PUCSORG
 10
0.0
 20
0.0
 30
0.0
  9
$PUCSXDIR
 10
1.0
 20
0.0
 30
0.0
  9
$PUCSYDIR
 10
0.0
 20
1.0
 30
0.0
  9
$USERI1
 70
     0
  9
$USERI2
 70
     0
  9
$USERI3
 70
     0
  9
$USERI4
 70
     0
  9
$USERI5
 70
     0
  9
$USERR1
 40
0.0
  9
$USERR2
 40
0.0
  9
$USERR3
 40
0.0
  9
$USERR4
 40
0.0
  9
$USERR5
 40
0.0
  9
$WORLDVIEW
 70
     1
  9
$SHADEDGE
 70
     3
  9
$SHADEDIF
 70
    70
  9
$TILEMODE
 70
     1
  9
$MAXACTVP
 70
    16
  9
$PINSBASE
 10
0.0
 20
0.0
 30
0.0
  9
$PLIMCHECK
 70
     0
  9
$PEXTMIN
 10
0.0
 20
0.0
 30
0.0
  9
$PEXTMAX
 10
420.0
 20
297.0
 30
0.0
  9
$PLIMMIN
 10
0.0
 20
0.0
  9
$PLIMMAX
 10
420.0
 20
297.0
  9
$UNITMODE
 70
     0
  9
$VISRETAIN
 70
     0
  9
$PLINEGEN
 70
     0
  9
$PSLTSCALE
 70
     1
  9
$TREEDEPTH
 70
  3020
  9
$PICKSTYLE
 70
     1
  9
$CMLSTYLE
  2
STANDARD
  9
$CMLJUST
 70
     0
  9
$CMLSCALE
 40
1.0
  9
$SAVEIMAGES
 70
     1
  0
ENDSEC
  0
SECTION
  2
CLASSES
  0
CLASS
  1
ACDBDICTIONARYWDFLT
  2
AcDbDictionaryWithDefault
  3
AutoCAD 2000
 90
    32768
280
     0
281
     0
  0
CLASS
  1
ACDBPLACEHOLDER
  2
AcDbPlaceHolder
  3
AutoCAD 2000
 90
    32768
280
     0
281
     0
  0
CLASS
  1
LAYOUT
  2
AcDbLayout
  3
AutoCAD 2000
 90
    32768
280
     0
281
     0
  0
CLASS
  1
LONG_TRANSACTION
  2
AcDbLongTransaction
  3
AutoCAD 2000
 90
    32768
280
     0
281
     0
  0
CLASS
  1
LWPOLYLINE
  2
AcDbPolyline
  3
AutoCAD 2000
 90
    32768
280
     0
281
     1
  0
CLASS
  1
HATCH
  2
AcDbHatch
  3
AutoCAD 2000
 90
    32768
280
     0
281
     1
  0
CLASS
  1
XRECORD
  2
AcDbXrecord
  3
AutoCAD 2000
 90
    32768
280
     0
281
     0
  0
CLASS
  1
LONG_TRANSACTION
  2
AcDbLongTransaction
  3
AutoCAD 2000
 90
    32768
280
     0
281
     0
  0
CLASS
  1
LWPOLYLINE
  2
AcDbPolyline
  3
AutoCAD 2000
 90
    32768
280
     0
281
     1
  0
CLASS
  1
HATCH
  2
AcDbHatch
  3
AutoCAD 2000
 90
    32768
280
     0
281
     1
  0
CLASS
  1
XRECORD
  2
AcDbXrecord
  3
AutoCAD 2000
 90
    32768
280
     0
281
     0
  0
CLASS
  1
LONG_TRANSACTION
  2
AcDbLongTransaction
  3
AutoCAD 2000
 90
    32768
280
     0
281
     0
  0
CLASS
  1
LWPOLYLINE
  2
AcDbPolyline
  3
AutoCAD 2000
 90
    32768
280
     0
281
     1
  0
CLASS
  1
HATCH
  2
AcDbHatch
  3
AutoCAD 2000
 90
    32768
280
     0
281
     1
  0
CLASS
  1
XRECORD
  2
AcDbXrecord
  3
AutoCAD 2000
 90
    32768
280
     0
281
     0
  0
ENDSEC
  0
SECTION
  2
TABLES
  0
TABLE
  2
VPORT
  5
8
330
0
100
AcDbSymbolTable
 70
     2
  0
VPORT
  5
C09
330
8
100
AcDbSymbolTableRecord
100
AcDbViewportTableRecord
  2
*ACTIVE
 70
     0
 10
0.0
 20
0.0
 11
1.0
 21
1.0
 12
564.9300167071638
 22
281.5801207033933
 13
0.0
 23
0.0
 14
5.0
 24
5.0
 15
0.0
 25
0.0
 16
0.0
 26
0.0
 36
1.0
 17
0.0
 27
0.0
 37
0.0
 40
605.8884511820452
 41
2.169459962756052
 42
50.0
 43
0.0
 44
0.0
 50
0.0
 51
0.0
 71
     0
 72
   100
 73
     1
 74
     0
 75
     0
 76
     0
 77
     0
 78
     0
  0
ENDTAB
  0
TABLE
  2
LTYPE
  5
5
330
0
100
AcDbSymbolTable
 70
     2
  0
LTYPE
  5
14
330
5
100
AcDbSymbolTableRecord
100
AcDbLinetypeTableRecord
  2
BYBLOCK
 70
     0
  3

 72
    65
 73
     0
 40
0.0
  0
LTYPE
  5
15
330
5
100
AcDbSymbolTableRecord
100
AcDbLinetypeTableRecord
  2
BYLAYER
 70
     0
  3

 72
    65
 73
     0
 40
0.0
  0
LTYPE
  5
16
330
5
100
AcDbSymbolTableRecord
100
AcDbLinetypeTableRecord
  2
CONTINUOUS
 70
     0
  3
Solid line
 72
    65
 73
     0
 40
0.0
  0
LTYPE
  5
135
330
5
100
AcDbSymbolTableRecord
100
AcDbLinetypeTableRecord
  2
CENTER
 70
     0
  3
____ _ ____ _ ____ _ ____ _ ____ _ ____ _ ____ 
 72
    65
 73
     4
 40
2.0
 49
1.25
 74
     0
 49
-0.25
 74
     0
 49
0.25
 74
     0
 49
-0.25
 74
     0
  0
ENDTAB
  0
TABLE
  2
LAYER
  5
2
330
0
100
AcDbSymbolTable
 70
     8
  0
LAYER
  5
F
330
2
100
AcDbSymbolTableRecord
100
AcDbLayerTableRecord
  2
0
 70
     0
 62
     7
  6
CONTINUOUS
  0
LAYER
  5
62
330
2
100
AcDbSymbolTableRecord
100
AcDbLayerTableRecord
  2
VIEWPORT
 70
     0
 62
     7
  6
CONTINUOUS
  0
LAYER
  5
65
330
2
100
AcDbSymbolTableRecord
100
AcDbLayerTableRecord
  2
ZUWAKU
 70
     0
 62
     7
  6
CONTINUOUS
  0
LAYER
  5
143
330
2
100
AcDbSymbolTableRecord
100
AcDbLayerTableRecord
  2
SEIHIN
 70
     0
 62
     3
  6
CONTINUOUS
  0
LAYER
  5
144
330
2
100
AcDbSymbolTableRecord
100
AcDbLayerTableRecord
  2
SUNPOU
 70
     0
 62
     4
  6
CONTINUOUS
  0
LAYER
  5
145
330
2
100
AcDbSymbolTableRecord
100
AcDbLayerTableRecord
  2
CENTER_L
 70
     0
 62
     1
  6
CENTER
  0
LAYER
  5
9A4
330
2
100
AcDbSymbolTableRecord
100
AcDbLayerTableRecord
  2
NOKITOI
 70
     0
 62
     6
  6
CONTINUOUS
  0
LAYER
  5
9AD
330
2
100
AcDbSymbolTableRecord
100
AcDbLayerTableRecord
  2
DEFPOINTS
 70
     0
 62
     7
  6
CONTINUOUS
  0
ENDTAB
  0
TABLE
  2
STYLE
  5
3
330
0
100
AcDbSymbolTable
 70
     1
  0
STYLE
  5
10
330
3
100
AcDbSymbolTableRecord
100
AcDbTextStyleTableRecord
  2
STANDARD
 70
     0
 40
0.0
 41
1.0
 50
0.0
 71
     0
 42
5.0
  3
TXT
  4
bigfont.shx
  0
ENDTAB
  0
TABLE
  2
VIEW
  5
6
330
0
100
AcDbSymbolTable
 70
     0
  0
ENDTAB
  0
TABLE
  2
UCS
  5
7
330
0
100
AcDbSymbolTable
 70
     0
  0
ENDTAB
  0
TABLE
  2
APPID
  5
9
330
0
100
AcDbSymbolTable
 70
     1
  0
APPID
  5
11
330
9
100
AcDbSymbolTableRecord
100
AcDbRegAppTableRecord
  2
ACAD
 70
     0
  0
ENDTAB
  0
TABLE
  2
DIMSTYLE
  5
A
330
0
100
AcDbSymbolTable
 70
     1
  0
DIMSTYLE
105
1D
102
{ACAD_REACTORS
330
9B2
330
9BF
330
9DB
330
A40
330
A4D
330
A5A
330
ACC
330
AD9
330
AE6
330
B1C
330
B70
102
}
330
A
100
AcDbSymbolTableRecord
100
AcDbDimStyleTableRecord
  2
STANDARD
 70
     0
  3

  4

  5

  6

  7

 40
1.0
 41
0.18
 42
0.0625
 43
0.38
 44
0.18
 45
0.0
 46
0.0
 47
0.0
 48
0.0
140
0.18
141
0.09
142
0.0
143
25.4
144
1.0
145
0.0
146
1.0
147
0.09
 71
     0
 72
     0
 73
     1
 74
     1
 75
     0
 76
     0
 77
     0
 78
     0
170
     0
171
     2
172
     0
173
     0
174
     0
175
     0
176
     0
177
     0
178
     0
270
     2
271
     4
272
     4
273
     2
274
     2
340
10
275
     0
280
     0
281
     0
282
     0
283
     1
284
     0
285
     0
286
     0
287
     3
288
     0
  0
ENDTAB
  0
TABLE
  2
BLOCK_RECORD
  5
1
330
0
100
AcDbSymbolTable
 70
    12
  0
BLOCK_RECORD
  5
1A
102
{ACAD_XDICTIONARY
360
BC7
102
}
330
1
100
AcDbSymbolTableRecord
100
AcDbBlockTableRecord
  2
*MODEL_SPACE
  0
BLOCK_RECORD
  5
17
102
{ACAD_XDICTIONARY
360
BC5
102
}
330
1
100
AcDbSymbolTableRecord
100
AcDbBlockTableRecord
  2
*PAPER_SPACE
  0
BLOCK_RECORD
  5
6D
330
1
100
AcDbSymbolTableRecord
100
AcDbBlockTableRecord
  2
_OPEN
  0
BLOCK_RECORD
  5
9A5
330
1
100
AcDbSymbolTableRecord
100
AcDbBlockTableRecord
  2
*D1
  0
BLOCK_RECORD
  5
9B3
330
1
100
AcDbSymbolTableRecord
100
AcDbBlockTableRecord
  2
*D2
  0
BLOCK_RECORD
  5
9CF
330
1
100
AcDbSymbolTableRecord
100
AcDbBlockTableRecord
  2
*D3
  0
BLOCK_RECORD
  5
A34
330
1
100
AcDbSymbolTableRecord
100
AcDbBlockTableRecord
  2
*D4
  0
BLOCK_RECORD
  5
A41
330
1
100
AcDbSymbolTableRecord
100
AcDbBlockTableRecord
  2
*D5
  0
BLOCK_RECORD
  5
A4E
330
1
100
AcDbSymbolTableRecord
100
AcDbBlockTableRecord
  2
*D6
  0
BLOCK_RECORD
  5
ABE
330
1
100
AcDbSymbolTableRecord
100
AcDbBlockTableRecord
  2
*D7
  0
BLOCK_RECORD
  5
ACD
330
1
100
AcDbSymbolTableRecord
100
AcDbBlockTableRecord
  2
*D8
  0
BLOCK_RECORD
  5
ADA
330
1
100
AcDbSymbolTableRecord
100
AcDbBlockTableRecord
  2
*D9
  0
BLOCK_RECORD
  5
B10
330
1
100
AcDbSymbolTableRecord
100
AcDbBlockTableRecord
  2
*D10
  0
BLOCK_RECORD
  5
B64
330
1
100
AcDbSymbolTableRecord
100
AcDbBlockTableRecord
  2
*D11
  0
ENDTAB
  0
ENDSEC
  0
SECTION
  2
BLOCKS
  0
BLOCK
  5
1B
330
1A
100
AcDbEntity
  8
0
100
AcDbBlockBegin
  2
*MODEL_SPACE
 70
     0
 10
0.0
 20
0.0
 30
0.0
  3
*MODEL_SPACE
  1

  0
ENDBLK
  5
1C
330
1A
100
AcDbEntity
  8
0
100
AcDbBlockEnd
  0
BLOCK
  5
18
330
17
100
AcDbEntity
 67
     1
  8
0
100
AcDbBlockBegin
  2
*PAPER_SPACE
 70
     0
 10
0.0
 20
0.0
 30
0.0
  3
*PAPER_SPACE
  1

  0
ENDBLK
  5
19
330
17
100
AcDbEntity
 67
     1
  8
0
100
AcDbBlockEnd
  0
BLOCK
  5
6E
330
6D
100
AcDbEntity
  8
0
100
AcDbBlockBegin
  2
_OPEN
 70
     0
 10
0.0
 20
0.0
 30
0.0
  3
_OPEN
  1

  0
LINE
  5
6F
330
6D
100
AcDbEntity
  8
0
  6
BYBLOCK
 62
     0
100
AcDbLine
 10
-1.0
 20
0.1666666666666666
 30
0.0
 11
0.0
 21
0.0
 31
0.0
  0
LINE
  5
70
330
6D
100
AcDbEntity
  8
0
  6
BYBLOCK
 62
     0
100
AcDbLine
 10
0.0
 20
0.0
 30
0.0
 11
-1.0
 21
-0.1666666666666666
 31
0.0
  0
LINE
  5
71
330
6D
100
AcDbEntity
  8
0
  6
BYBLOCK
 62
     0
100
AcDbLine
 10
0.0
 20
0.0
 30
0.0
 11
-1.0
 21
0.0
 31
0.0
  0
ENDBLK
  5
72
330
6D
100
AcDbEntity
  8
0
100
AcDbBlockEnd
  0
BLOCK
  5
A13
330
9A5
100
AcDbEntity
  8
0
 48
5.0
100
AcDbBlockBegin
  2
*D1
 70
     1
 10
0.0
 20
0.0
 30
0.0
  3
*D1
  1

  0
LINE
  5
A14
330
9A5
100
AcDbEntity
  8
0
  6
BYBLOCK
 62
     4
 48
5.0
100
AcDbLine
 10
244.9513679984164
 20
139.2187077515488
 30
0.0
 11
244.9513679984164
 21
110.6304492314507
 31
0.0
  0
LINE
  5
A15
330
9A5
100
AcDbEntity
  8
0
  6
BYBLOCK
 62
     4
 48
5.0
100
AcDbLine
 10
126.5512679984165
 20
139.2193077515489
 30
0.0
 11
126.5512679984165
 21
110.6304492314507
 31
0.0
  0
LINE
  5
A16
330
9A5
100
AcDbEntity
  8
0
  6
BYBLOCK
 62
     4
 48
5.0
100
AcDbLine
 10
237.9513679984163
 20
113.6304492314507
 30
0.0
 11
133.5512679984165
 21
113.6304492314507
 31
0.0
  0
INSERT
  5
A17
330
9A5
100
AcDbEntity
  8
0
  6
BYBLOCK
 62
     4
 48
5.0
100
AcDbBlockReference
  2
_OPEN
 10
244.9513679984164
 20
113.6304492314507
 30
0.0
 41
7.0
 42
7.0
 43
7.0
  0
INSERT
  5
A18
330
9A5
100
AcDbEntity
  8
0
  6
BYBLOCK
 62
     4
 48
5.0
100
AcDbBlockReference
  2
_OPEN
 10
126.5512679984165
 20
113.6304492314507
 30
0.0
 41
7.0
 42
7.0
 43
7.0
 50
180.0
  0
MTEXT
  5
A19
330
9A5
100
AcDbEntity
  8
0
  6
BYBLOCK
 62
     4
 48
5.0
100
AcDbMText
 10
185.7513179984164
 20
118.6304492314507
 30
0.0
 40
6.0
 41
0.0
 71
     5
 72
     1
  1
\A1;φ118
1001
ACAD
1000
MTEXTBEGIN
1070
    73
1070
     1
1070
    44
1040
1.0
1070
    74
1070
     0
1000
MTEXTEND
1000
MTEXTBEGIN
1070
    73
1070
     1
1070
    44
1040
1.0
1070
    74
1070
     0
1000
MTEXTEND
1000
MTEXTBEGIN
1070
    73
1070
     1
1070
    44
1040
1.0
1070
    74
1070
     0
1000
MTEXTEND
  0
POINT
  5
A1A
330
9A5
100
AcDbEntity
  8
DEFPOINTS
  6
BYBLOCK
 62
     0
 48
5.0
100
AcDbPoint
 10
244.9513679984164
 20
145.2187077515488
 30
0.0
  0
POINT
  5
A1B
330
9A5
100
AcDbEntity
  8
DEFPOINTS
  6
BYBLOCK
 62
     0
 48
5.0
100
AcDbPoint
 10
126.5512679984165
 20
145.2193077515489
 30
0.0
  0
POINT
  5
A1C
330
9A5
100
AcDbEntity
  8
DEFPOINTS
  6
BYBLOCK
 62
     0
 48
5.0
100
AcDbPoint
 10
126.5512679984165
 20
113.6304492314507
 30
0.0
  0
ENDBLK
  5
A1D
330
9A5
100
AcDbEntity
  8
0
 48
5.0
100
AcDbBlockEnd
  0
BLOCK
  5
A29
330
9B3
100
AcDbEntity
  8
0
 48
5.0
100
AcDbBlockBegin
  2
*D2
 70
     1
 10
0.0
 20
0.0
 30
0.0
  3
*D2
  1

  0
LINE
  5
A2A
330
9B3
100
AcDbEntity
  8
0
  6
BYBLOCK
 62
     4
 48
5.0
100
AcDbLine
 10
255.7516679984165
 20
228.0188077511203
 30
0.0
 11
255.7516679984165
 21
249.9314671301356
 31
0.0
  0
LINE
  5
A2B
330
9B3
100
AcDbEntity
  8
0
  6
BYBLOCK
 62
     4
 48
5.0
100
AcDbLine
 10
115.7515679984165
 20
228.0194077515488
 30
0.0
 11
115.7515679984165
 21
249.9314671301356
 31
0.0
  0
LINE
  5
A2C
330
9B3
100
AcDbEntity
  8
0
  6
BYBLOCK
 62
     4
 48
5.0
100
AcDbLine
 10
248.7516679984165
 20
246.9314671301356
 30
0.0
 11
122.7515679984165
 21
246.9314671301356
 31
0.0
  0
INSERT
  5
A2D
330
9B3
100
AcDbEntity
  8
0
  6
BYBLOCK
 62
     4
 48
5.0
100
AcDbBlockReference
  2
_OPEN
 10
255.7516679984165
 20
246.9314671301356
 30
0.0
 41
7.0
 42
7.0
 43
7.0
  0
INSERT
  5
A2E
330
9B3
100
AcDbEntity
  8
0
  6
BYBLOCK
 62
     4
 48
5.0
100
AcDbBlockReference
  2
_OPEN
 10
115.7515679984165
 20
246.9314671301356
 30
0.0
 41
7.0
 42
7.0
 43
7.0
 50
180.0
  0
MTEXT
  5
A2F
330
9B3
100
AcDbEntity
  8
0
  6
BYBLOCK
 62
     4
 48
5.0
100
AcDbMText
 10
185.7516179984165
 20
251.9314671301356
 30
0.0
 40
6.0
 41
0.0
 71
     5
 72
     1
  1
\A1;φ140
1001
ACAD
1000
MTEXTBEGIN
1070
    73
1070
     1
1070
    44
1040
1.0
1070
    74
1070
     0
1000
MTEXTEND
1000
MTEXTBEGIN
1070
    73
1070
     1
1070
    44
1040
1.0
1070
    74
1070
     0
1000
MTEXTEND
1000
MTEXTBEGIN
1070
    73
1070
     1
1070
    44
1040
1.0
1070
    74
1070
     0
1000
MTEXTEND
  0
POINT
  5
A30
330
9B3
100
AcDbEntity
  8
DEFPOINTS
  6
BYBLOCK
 62
     0
 48
5.0
100
AcDbPoint
 10
255.7516679984165
 20
222.0188077511203
 30
0.0
  0
POINT
  5
A31
330
9B3
100
AcDbEntity
  8
DEFPOINTS
  6
BYBLOCK
 62
     0
 48
5.0
100
AcDbPoint
 10
115.7515679984165
 20
222.0194077515488
 30
0.0
  0
POINT
  5
A32
330
9B3
100
AcDbEntity
  8
DEFPOINTS
  6
BYBLOCK
 62
     0
 48
5.0
100
AcDbPoint
 10
115.7515679984165
 20
246.9314671301356
 30
0.0
  0
ENDBLK
  5
A33
330
9B3
100
AcDbEntity
  8
0
 48
5.0
100
AcDbBlockEnd
  0
BLOCK
  5
B87
330
9CF
100
AcDbEntity
  8
0
 48
5.0
100
AcDbBlockBegin
  2
*D3
 70
     1
 10
0.0
 20
0.0
 30
0.0
  3
*D3
  1

  0
LINE
  5
B88
330
9CF
100
AcDbEntity
  8
0
  6
BYBLOCK
 62
     4
 48
5.0
100
AcDbLine
 10
249.1345253791624
 20
238.8198500417293
 30
0.0
 11
280.5885611042017
 21
238.8198500417293
 31
0.0
  0
LINE
  5
B89
330
9CF
100
AcDbEntity
  8
0
  6
BYBLOCK
 62
     4
 48
5.0
100
AcDbLine
 10
238.3342248212216
 20
162.0195500414858
 30
0.0
 11
280.5885611042017
 21
162.0195500414858
 31
0.0
  0
LINE
  5
B8A
330
9CF
100
AcDbEntity
  8
0
  6
BYBLOCK
 62
     4
 48
5.0
100
AcDbLine
 10
277.5885611042017
 20
231.8198500417294
 30
0.0
 11
277.5885611042017
 21
169.0195500414858
 31
0.0
  0
INSERT
  5
B8B
330
9CF
100
AcDbEntity
  8
0
  6
BYBLOCK
 62
     4
 48
5.0
100
AcDbBlockReference
  2
_OPEN
 10
277.5885611042017
 20
238.8198500417293
 30
0.0
 41
7.0
 42
7.0
 43
7.0
 50
90.0
  0
INSERT
  5
B8C
330
9CF
100
AcDbEntity
  8
0
  6
BYBLOCK
 62
     4
 48
5.0
100
AcDbBlockReference
  2
_OPEN
 10
277.5885611042017
 20
162.0195500414858
 30
0.0
 41
7.0
 42
7.0
 43
7.0
 50
270.0
  0
MTEXT
  5
B8D
330
9CF
100
AcDbEntity
  8
0
  6
BYBLOCK
 62
     4
 48
5.0
100
AcDbMText
 10
272.5885611042017
 20
200.4197000416076
 30
0.0
 40
6.0
 41
0.0
 71
     5
 72
     1
  1
\A1;77
 11
0.0
 21
1.0
 31
0.0
1001
ACAD
1000
MTEXTBEGIN
1070
    73
1070
     1
1070
    44
1040
1.0
1070
    74
1070
     0
1000
MTEXTEND
1000
MTEXTBEGIN
1070
    73
1070
     1
1070
    44
1040
1.0
1070
    74
1070
     0
1000
MTEXTEND
1000
MTEXTBEGIN
1070
    73
1070
     1
1070
    44
1040
1.0
1070
    74
1070
     0
1000
MTEXTEND
  0
POINT
  5
B8E
330
9CF
100
AcDbEntity
  8
DEFPOINTS
  6
BYBLOCK
 62
     0
 48
5.0
100
AcDbPoint
 10
243.1345253791624
 20
238.8198500417293
 30
0.0
  0
POINT
  5
B8F
330
9CF
100
AcDbEntity
  8
DEFPOINTS
  6
BYBLOCK
 62
     0
 48
5.0
100
AcDbPoint
 10
232.3342248212216
 20
162.0195500414858
 30
0.0
  0
POINT
  5
B90
330
9CF
100
AcDbEntity
  8
DEFPOINTS
  6
BYBLOCK
 62
     0
 48
5.0
100
AcDbPoint
 10
277.5885611042017
 20
162.0195500414858
 30
0.0
  0
ENDBLK
  5
B91
330
9CF
100
AcDbEntity
  8
0
 48
5.0
100
AcDbBlockEnd
  0
BLOCK
  5
A92
330
A34
100
AcDbEntity
  8
0
 48
5.0
100
AcDbBlockBegin
  2
*D4
 70
     1
 10
0.0
 20
0.0
 30
0.0
  3
*D4
  1

  0
LINE
  5
A93
330
A34
100
AcDbEntity
  8
0
  6
BYBLOCK
 62
     4
 48
5.0
100
AcDbLine
 10
500.4505610579932
 20
249.4530057221572
 30
0.0
 11
500.4505610579932
 21
272.2974737724796
 31
0.0
  0
LINE
  5
A94
330
A34
100
AcDbEntity
  8
0
  6
BYBLOCK
 62
     4
 48
5.0
100
AcDbLine
 10
402.9505753445222
 20
249.4536427465821
 30
0.0
 11
402.9505753445222
 21
272.2974737724796
 31
0.0
  0
LINE
  5
A95
330
A34
100
AcDbEntity
  8
0
  6
BYBLOCK
 62
     4
 48
5.0
100
AcDbLine
 10
493.4505610579932
 20
269.2974737724796
 30
0.0
 11
409.9505753445223
 21
269.2974737724796
 31
0.0
  0
INSERT
  5
A96
330
A34
100
AcDbEntity
  8
0
  6
BYBLOCK
 62
     4
 48
5.0
100
AcDbBlockReference
  2
_OPEN
 10
500.4505610579932
 20
269.2974737724796
 30
0.0
 41
7.0
 42
7.0
 43
7.0
  0
INSERT
  5
A97
330
A34
100
AcDbEntity
  8
0
  6
BYBLOCK
 62
     4
 48
5.0
100
AcDbBlockReference
  2
_OPEN
 10
402.9505753445222
 20
269.2974737724796
 30
0.0
 41
7.0
 42
7.0
 43
7.0
 50
180.0
  0
MTEXT
  5
A98
330
A34
100
AcDbEntity
  8
0
  6
BYBLOCK
 62
     4
 48
5.0
100
AcDbMText
 10
451.7005682012577
 20
274.2974737724796
 30
0.0
 40
6.0
 41
0.0
 71
     5
 72
     1
  1
\A1;φ97
1001
ACAD
1000
MTEXTBEGIN
1070
    73
1070
     1
1070
    44
1040
1.0
1070
    74
1070
     0
1000
MTEXTEND
1000
MTEXTBEGIN
1070
    73
1070
     1
1070
    44
1040
1.0
1070
    74
1070
     0
1000
MTEXTEND
1000
MTEXTBEGIN
1070
    73
1070
     1
1070
    44
1040
1.0
1070
    74
1070
     0
1000
MTEXTEND
  0
POINT
  5
A99
330
A34
100
AcDbEntity
  8
DEFPOINTS
  6
BYBLOCK
 62
     0
 48
5.0
100
AcDbPoint
 10
500.4505610579932
 20
243.4530057221572
 30
0.0
  0
POINT
  5
A9A
330
A34
100
AcDbEntity
  8
DEFPOINTS
  6
BYBLOCK
 62
     0
 48
5.0
100
AcDbPoint
 10
402.9505753445222
 20
243.4536427465821
 30
0.0
  0
POINT
  5
A9B
330
A34
100
AcDbEntity
  8
DEFPOINTS
  6
BYBLOCK
 62
     0
 48
5.0
100
AcDbPoint
 10
402.9505753445222
 20
269.2974737724796
 30
0.0
  0
ENDBLK
  5
A9C
330
A34
100
AcDbEntity
  8
0
 48
5.0
100
AcDbBlockEnd
  0
BLOCK
  5
A71
330
A41
100
AcDbEntity
  8
0
 48
5.0
100
AcDbBlockBegin
  2
*D5
 70
     1
 10
0.0
 20
0.0
 30
0.0
  3
*D5
  1

  0
LINE
  5
A72
330
A41
100
AcDbEntity
  8
0
  6
BYBLOCK
 62
     4
 48
5.0
100
AcDbLine
 10
516.7005015122756
 20
213.4529242348054
 30
0.0
 11
516.7005015122756
 21
290.2001408044154
 31
0.0
  0
LINE
  5
A73
330
A41
100
AcDbEntity
  8
0
  6
BYBLOCK
 62
     4
 48
5.0
100
AcDbLine
 10
386.7004015122757
 20
213.4535242348054
 30
0.0
 11
386.7004015122757
 21
290.2001408044154
 31
0.0
  0
LINE
  5
A74
330
A41
100
AcDbEntity
  8
0
  6
BYBLOCK
 62
     4
 48
5.0
100
AcDbLine
 10
509.7005015122756
 20
287.2001408044154
 30
0.0
 11
393.7004015122757
 21
287.2001408044154
 31
0.0
  0
INSERT
  5
A75
330
A41
100
AcDbEntity
  8
0
  6
BYBLOCK
 62
     4
 48
5.0
100
AcDbBlockReference
  2
_OPEN
 10
516.7005015122756
 20
287.2001408044154
 30
0.0
 41
7.0
 42
7.0
 43
7.0
  0
INSERT
  5
A76
330
A41
100
AcDbEntity
  8
0
  6
BYBLOCK
 62
     4
 48
5.0
100
AcDbBlockReference
  2
_OPEN
 10
386.7004015122757
 20
287.2001408044154
 30
0.0
 41
7.0
 42
7.0
 43
7.0
 50
180.0
  0
MTEXT
  5
A77
330
A41
100
AcDbEntity
  8
0
  6
BYBLOCK
 62
     4
 48
5.0
100
AcDbMText
 10
451.7004515122756
 20
292.2001408044154
 30
0.0
 40
6.0
 41
0.0
 71
     5
 72
     1
  1
\A1;φ130
1001
ACAD
1000
MTEXTBEGIN
1070
    73
1070
     1
1070
    44
1040
1.0
1070
    74
1070
     0
1000
MTEXTEND
1000
MTEXTBEGIN
1070
    73
1070
     1
1070
    44
1040
1.0
1070
    74
1070
     0
1000
MTEXTEND
1000
MTEXTBEGIN
1070
    73
1070
     1
1070
    44
1040
1.0
1070
    74
1070
     0
1000
MTEXTEND
  0
POINT
  5
A78
330
A41
100
AcDbEntity
  8
DEFPOINTS
  6
BYBLOCK
 62
     0
 48
5.0
100
AcDbPoint
 10
516.7005015122756
 20
207.4529242348054
 30
0.0
  0
POINT
  5
A79
330
A41
100
AcDbEntity
  8
DEFPOINTS
  6
BYBLOCK
 62
     0
 48
5.0
100
AcDbPoint
 10
386.7004015122757
 20
207.4535242348054
 30
0.0
  0
POINT
  5
A7A
330
A41
100
AcDbEntity
  8
DEFPOINTS
  6
BYBLOCK
 62
     0
 48
5.0
100
AcDbPoint
 10
386.7004015122757
 20
287.2001408044154
 30
0.0
  0
ENDBLK
  5
A7B
330
A41
100
AcDbEntity
  8
0
 48
5.0
100
AcDbBlockEnd
  0
BLOCK
  5
AB3
330
A4E
100
AcDbEntity
  8
0
 48
5.0
100
AcDbBlockBegin
  2
*D6
 70
     1
 10
0.0
 20
0.0
 30
0.0
  3
*D6
  1

  0
LINE
  5
AB4
330
A4E
100
AcDbEntity
  8
0
  6
BYBLOCK
 62
     4
 48
5.0
100
AcDbLine
 10
506.7005788879782
 20
166.4564656610099
 30
0.0
 11
506.7005788879782
 21
140.5899417886475
 31
0.0
  0
LINE
  5
AB5
330
A4E
100
AcDbEntity
  8
0
  6
BYBLOCK
 62
     4
 48
5.0
100
AcDbLine
 10
396.7001857796252
 20
166.4566242348779
 30
0.0
 11
396.7001857796252
 21
140.5899417886475
 31
0.0
  0
LINE
  5
AB6
330
A4E
100
AcDbEntity
  8
0
  6
BYBLOCK
 62
     4
 48
5.0
100
AcDbLine
 10
499.7005788879782
 20
143.5899417886475
 30
0.0
 11
403.7001857796252
 21
143.5899417886475
 31
0.0
  0
INSERT
  5
AB7
330
A4E
100
AcDbEntity
  8
0
  6
BYBLOCK
 62
     4
 48
5.0
100
AcDbBlockReference
  2
_OPEN
 10
506.7005788879782
 20
143.5899417886475
 30
0.0
 41
7.0
 42
7.0
 43
7.0
  0
INSERT
  5
AB8
330
A4E
100
AcDbEntity
  8
0
  6
BYBLOCK
 62
     4
 48
5.0
100
AcDbBlockReference
  2
_OPEN
 10
396.7001857796252
 20
143.5899417886475
 30
0.0
 41
7.0
 42
7.0
 43
7.0
 50
180.0
  0
MTEXT
  5
AB9
330
A4E
100
AcDbEntity
  8
0
  6
BYBLOCK
 62
     4
 48
5.0
100
AcDbMText
 10
451.7003823338018
 20
148.5899417886475
 30
0.0
 40
6.0
 41
0.0
 71
     5
 72
     1
  1
\A1;φ110
1001
ACAD
1000
MTEXTBEGIN
1070
    73
1070
     1
1070
    44
1040
1.0
1070
    74
1070
     0
1000
MTEXTEND
1000
MTEXTBEGIN
1070
    73
1070
     1
1070
    44
1040
1.0
1070
    74
1070
     0
1000
MTEXTEND
1000
MTEXTBEGIN
1070
    73
1070
     1
1070
    44
1040
1.0
1070
    74
1070
     0
1000
MTEXTEND
  0
POINT
  5
ABA
330
A4E
100
AcDbEntity
  8
DEFPOINTS
  6
BYBLOCK
 62
     0
 48
5.0
100
AcDbPoint
 10
506.7005788879782
 20
172.4564656610098
 30
0.0
  0
POINT
  5
ABB
330
A4E
100
AcDbEntity
  8
DEFPOINTS
  6
BYBLOCK
 62
     0
 48
5.0
100
AcDbPoint
 10
396.7001857796252
 20
172.4566242348779
 30
0.0
  0
POINT
  5
ABC
330
A4E
100
AcDbEntity
  8
DEFPOINTS
  6
BYBLOCK
 62
     0
 48
5.0
100
AcDbPoint
 10
396.7001857796252
 20
143.5899417886475
 30
0.0
  0
ENDBLK
  5
ABD
330
A4E
100
AcDbEntity
  8
0
 48
5.0
100
AcDbBlockEnd
  0
BLOCK
  5
AF4
330
ABE
100
AcDbEntity
  8
0
 48
5.0
100
AcDbBlockBegin
  2
*D7
 70
     1
 10
0.0
 20
0.0
 30
0.0
  3
*D7
  1

  0
LINE
  5
AF5
330
ABE
100
AcDbEntity
  8
0
  6
BYBLOCK
 62
     4
 48
5.0
100
AcDbLine
 10
518.7005015122756
 20
208.4530242348054
 30
0.0
 11
542.6851940216302
 21
208.4530242348054
 31
0.0
  0
LINE
  5
AF6
330
ABE
100
AcDbEntity
  8
0
  6
BYBLOCK
 62
     4
 48
5.0
100
AcDbLine
 10
522.7004015122757
 20
206.4529242348054
 30
0.0
 11
542.6851940216302
 21
206.4529242348054
 31
0.0
  0
LINE
  5
AF7
330
ABE
100
AcDbEntity
  8
0
  6
BYBLOCK
 62
     4
 48
5.0
100
AcDbLine
 10
539.6851940216301
 20
199.4529242348054
 30
0.0
 11
539.6851940216301
 21
192.4529242348054
 31
0.0
  0
LINE
  5
AF8
330
ABE
100
AcDbEntity
  8
0
  6
BYBLOCK
 62
     4
 48
5.0
100
AcDbLine
 10
539.6851940216301
 20
215.4530242348054
 30
0.0
 11
539.6851940216301
 21
230.4530242348054
 31
0.0
  0
LINE
  5
AF9
330
ABE
100
AcDbEntity
  8
0
  6
BYBLOCK
 62
     4
 48
5.0
100
AcDbLine
 10
539.6851940216301
 20
206.4529242348054
 30
0.0
 11
539.6851940216301
 21
208.4530242348054
 31
0.0
  0
INSERT
  5
AFA
330
ABE
100
AcDbEntity
  8
0
  6
BYBLOCK
 62
     4
 48
5.0
100
AcDbBlockReference
  2
_OPEN
 10
539.6851940216301
 20
206.4529242348054
 30
0.0
 41
7.0
 42
7.0
 43
7.0
 50
90.0
  0
INSERT
  5
AFB
330
ABE
100
AcDbEntity
  8
0
  6
BYBLOCK
 62
     4
 48
5.0
100
AcDbBlockReference
  2
_OPEN
 10
539.6851940216301
 20
208.4530242348054
 30
0.0
 41
7.0
 42
7.0
 43
7.0
 50
270.0
  0
MTEXT
  5
AFC
330
ABE
100
AcDbEntity
  8
0
  6
BYBLOCK
 62
     4
 48
5.0
100
AcDbMText
 10
534.6851940216302
 20
226.4530242348054
 30
0.0
 40
6.0
 41
0.0
 71
     5
 72
     1
  1
\A1;2
 11
0.0
 21
1.0
 31
0.0
1001
ACAD
1000
MTEXTBEGIN
1070
    73
1070
     1
1070
    44
1040
1.0
1070
    74
1070
     0
1000
MTEXTEND
1000
MTEXTBEGIN
1070
    73
1070
     1
1070
    44
1040
1.0
1070
    74
1070
     0
1000
MTEXTEND
1000
MTEXTBEGIN
1070
    73
1070
     1
1070
    44
1040
1.0
1070
    74
1070
     0
1000
MTEXTEND
  0
POINT
  5
AFD
330
ABE
100
AcDbEntity
  8
DEFPOINTS
  6
BYBLOCK
 62
     0
 48
5.0
100
AcDbPoint
 10
512.7005015122756
 20
208.4530242348054
 30
0.0
  0
POINT
  5
AFE
330
ABE
100
AcDbEntity
  8
DEFPOINTS
  6
BYBLOCK
 62
     0
 48
5.0
100
AcDbPoint
 10
516.7004015122756
 20
206.4529242348054
 30
0.0
  0
POINT
  5
AFF
330
ABE
100
AcDbEntity
  8
DEFPOINTS
  6
BYBLOCK
 62
     0
 48
5.0
100
AcDbPoint
 10
539.6851940216301
 20
206.4529242348054
 30
0.0
  0
ENDBLK
  5
B00
330
ABE
100
AcDbEntity
  8
0
 48
5.0
100
AcDbBlockEnd
  0
BLOCK
  5
ACE
330
ACD
100
AcDbEntity
  8
0
 48
5.0
100
AcDbBlockBegin
  2
*D8
 70
     1
 10
0.0
 20
0.0
 30
0.0
  3
*D8
  1

  0
LINE
  5
ACF
330
ACD
100
AcDbEntity
  8
0
  6
BYBLOCK
 62
     4
 48
5.0
100
AcDbLine
 10
522.7004015122757
 20
206.4529242348054
 30
0.0
 11
562.3000349705161
 21
206.4529242348054
 31
0.0
  0
LINE
  5
AD0
330
ACD
100
AcDbEntity
  8
0
  6
BYBLOCK
 62
     4
 48
5.0
100
AcDbLine
 10
510.5355759951844
 20
171.4531242348779
 30
0.0
 11
562.3000349705161
 21
171.4531242348779
 31
0.0
  0
LINE
  5
AD1
330
ACD
100
AcDbEntity
  8
0
  6
BYBLOCK
 62
     4
 48
5.0
100
AcDbLine
 10
559.3000349705162
 20
199.4529242348054
 30
0.0
 11
559.3000349705162
 21
178.4531242348779
 31
0.0
  0
INSERT
  5
AD2
330
ACD
100
AcDbEntity
  8
0
  6
BYBLOCK
 62
     4
 48
5.0
100
AcDbBlockReference
  2
_OPEN
 10
559.3000349705162
 20
206.4529242348054
 30
0.0
 41
7.0
 42
7.0
 43
7.0
 50
90.0
  0
INSERT
  5
AD3
330
ACD
100
AcDbEntity
  8
0
  6
BYBLOCK
 62
     4
 48
5.0
100
AcDbBlockReference
  2
_OPEN
 10
559.3000349705162
 20
171.4531242348779
 30
0.0
 41
7.0
 42
7.0
 43
7.0
 50
270.0
  0
MTEXT
  5
AD4
330
ACD
100
AcDbEntity
  8
0
  6
BYBLOCK
 62
     4
 48
5.0
100
AcDbMText
 10
554.3000349705161
 20
188.9530242348417
 30
0.0
 40
6.0
 41
0.0
 71
     5
 72
     1
  1
\A1;35
 11
0.0
 21
1.0
 31
0.0
1001
ACAD
1000
MTEXTBEGIN
1070
    73
1070
     1
1070
    44
1040
1.0
1070
    74
1070
     0
1000
MTEXTEND
1000
MTEXTBEGIN
1070
    73
1070
     1
1070
    44
1040
1.0
1070
    74
1070
     0
1000
MTEXTEND
1000
MTEXTBEGIN
1070
    73
1070
     1
1070
    44
1040
1.0
1070
    74
1070
     0
1000
MTEXTEND
  0
POINT
  5
AD5
330
ACD
100
AcDbEntity
  8
DEFPOINTS
  6
BYBLOCK
 62
     0
 48
5.0
100
AcDbPoint
 10
516.7004015122756
 20
206.4529242348054
 30
0.0
  0
POINT
  5
AD6
330
ACD
100
AcDbEntity
  8
DEFPOINTS
  6
BYBLOCK
 62
     0
 48
5.0
100
AcDbPoint
 10
504.5355759951845
 20
171.4531242348779
 30
0.0
  0
POINT
  5
AD7
330
ACD
100
AcDbEntity
  8
DEFPOINTS
  6
BYBLOCK
 62
     0
 48
5.0
100
AcDbPoint
 10
559.3000349705162
 20
171.4531242348779
 30
0.0
  0
ENDBLK
  5
AD8
330
ACD
100
AcDbEntity
  8
0
 48
5.0
100
AcDbBlockEnd
  0
BLOCK
  5
ADB
330
ADA
100
AcDbEntity
  8
0
 48
5.0
100
AcDbBlockBegin
  2
*D9
 70
     1
 10
0.0
 20
0.0
 30
0.0
  3
*D9
  1

  0
LINE
  5
ADC
330
ADA
100
AcDbEntity
  8
0
  6
BYBLOCK
 62
     4
 48
5.0
100
AcDbLine
 10
503.6171015122755
 20
243.4530242348054
 30
0.0
 11
582.4135589490365
 21
243.4530242348054
 31
0.0
  0
LINE
  5
ADD
330
ADA
100
AcDbEntity
  8
0
  6
BYBLOCK
 62
     4
 48
5.0
100
AcDbLine
 10
510.5355759951844
 20
171.4531242348779
 30
0.0
 11
582.4135589490365
 21
171.4531242348779
 31
0.0
  0
LINE
  5
ADE
330
ADA
100
AcDbEntity
  8
0
  6
BYBLOCK
 62
     4
 48
5.0
100
AcDbLine
 10
579.4135589490365
 20
236.4530242348054
 30
0.0
 11
579.4135589490365
 21
178.4531242348779
 31
0.0
  0
INSERT
  5
ADF
330
ADA
100
AcDbEntity
  8
0
  6
BYBLOCK
 62
     4
 48
5.0
100
AcDbBlockReference
  2
_OPEN
 10
579.4135589490365
 20
243.4530242348054
 30
0.0
 41
7.0
 42
7.0
 43
7.0
 50
90.0
  0
INSERT
  5
AE0
330
ADA
100
AcDbEntity
  8
0
  6
BYBLOCK
 62
     4
 48
5.0
100
AcDbBlockReference
  2
_OPEN
 10
579.4135589490365
 20
171.4531242348779
 30
0.0
 41
7.0
 42
7.0
 43
7.0
 50
270.0
  0
MTEXT
  5
AE1
330
ADA
100
AcDbEntity
  8
0
  6
BYBLOCK
 62
     4
 48
5.0
100
AcDbMText
 10
574.4135589490365
 20
207.4530742348417
 30
0.0
 40
6.0
 41
0.0
 71
     5
 72
     1
  1
\A1;72
 11
0.0
 21
1.0
 31
0.0
1001
ACAD
1000
MTEXTBEGIN
1070
    73
1070
     1
1070
    44
1040
1.0
1070
    74
1070
     0
1000
MTEXTEND
1000
MTEXTBEGIN
1070
    73
1070
     1
1070
    44
1040
1.0
1070
    74
1070
     0
1000
MTEXTEND
1000
MTEXTBEGIN
1070
    73
1070
     1
1070
    44
1040
1.0
1070
    74
1070
     0
1000
MTEXTEND
  0
POINT
  5
AE2
330
ADA
100
AcDbEntity
  8
DEFPOINTS
  6
BYBLOCK
 62
     0
 48
5.0
100
AcDbPoint
 10
497.6171015122756
 20
243.4530242348054
 30
0.0
  0
POINT
  5
AE3
330
ADA
100
AcDbEntity
  8
DEFPOINTS
  6
BYBLOCK
 62
     0
 48
5.0
100
AcDbPoint
 10
504.5355759951845
 20
171.4531242348779
 30
0.0
  0
POINT
  5
AE4
330
ADA
100
AcDbEntity
  8
DEFPOINTS
  6
BYBLOCK
 62
     0
 48
5.0
100
AcDbPoint
 10
579.4135589490365
 20
171.4531242348779
 30
0.0
  0
ENDBLK
  5
AE5
330
ADA
100
AcDbEntity
  8
0
 48
5.0
100
AcDbBlockEnd
  0
BLOCK
  5
B49
330
B10
100
AcDbEntity
  8
0
 48
5.0
100
AcDbBlockBegin
  2
*D10
 70
     1
 10
0.0
 20
0.0
 30
0.0
  3
*D10
  1

  0
LINE
  5
B4A
330
B10
100
AcDbEntity
  8
0
  6
BYBLOCK
 62
     4
 48
5.0
100
AcDbLine
 10
712.0649208666214
 20
339.0589538721814
 30
0.0
 11
712.0649208666214
 21
289.3142562825987
 31
0.0
  0
LINE
  5
B4B
330
B10
100
AcDbEntity
  8
0
  6
BYBLOCK
 62
     4
 48
5.0
100
AcDbLine
 10
601.0649207427643
 20
338.9482673525668
 30
0.0
 11
601.0649207427643
 21
289.3142562825987
 31
0.0
  0
LINE
  5
B4C
330
B10
100
AcDbEntity
  8
0
  6
BYBLOCK
 62
     4
 48
5.0
100
AcDbLine
 10
705.0649208666214
 20
292.3142562825987
 30
0.0
 11
608.0649207427643
 21
292.3142562825987
 31
0.0
  0
INSERT
  5
B4D
330
B10
100
AcDbEntity
  8
0
  6
BYBLOCK
 62
     4
 48
5.0
100
AcDbBlockReference
  2
_OPEN
 10
712.0649208666214
 20
292.3142562825987
 30
0.0
 41
7.0
 42
7.0
 43
7.0
  0
INSERT
  5
B4E
330
B10
100
AcDbEntity
  8
0
  6
BYBLOCK
 62
     4
 48
5.0
100
AcDbBlockReference
  2
_OPEN
 10
601.0649207427643
 20
292.3142562825987
 30
0.0
 41
7.0
 42
7.0
 43
7.0
 50
180.0
  0
MTEXT
  5
B4F
330
B10
100
AcDbEntity
  8
0
  6
BYBLOCK
 62
     4
 48
5.0
100
AcDbMText
 10
656.5649208046928
 20
297.3142562825987
 30
0.0
 40
6.0
 41
0.0
 71
     5
 72
     1
  1
\A1;穴径 φ111
1001
ACAD
1000
MTEXTBEGIN
1070
    73
1070
     1
1070
    44
1040
1.0
1070
    74
1070
     0
1000
MTEXTEND
1000
MTEXTBEGIN
1070
    73
1070
     1
1070
    44
1040
1.0
1070
    74
1070
     0
1000
MTEXTEND
1000
MTEXTBEGIN
1070
    73
1070
     1
1070
    44
1040
1.0
1070
    74
1070
     0
1000
MTEXTEND
  0
POINT
  5
B50
330
B10
100
AcDbEntity
  8
DEFPOINTS
  6
BYBLOCK
 62
     0
 48
5.0
100
AcDbPoint
 10
712.0649208666214
 20
345.0589538721814
 30
0.0
  0
POINT
  5
B51
330
B10
100
AcDbEntity
  8
DEFPOINTS
  6
BYBLOCK
 62
     0
 48
5.0
100
AcDbPoint
 10
601.0649207427643
 20
344.9482673525668
 30
0.0
  0
POINT
  5
B52
330
B10
100
AcDbEntity
  8
DEFPOINTS
  6
BYBLOCK
 62
     0
 48
5.0
100
AcDbPoint
 10
601.0649207427643
 20
292.3142562825987
 30
0.0
  0
ENDBLK
  5
B53
330
B10
100
AcDbEntity
  8
0
 48
5.0
100
AcDbBlockEnd
  0
BLOCK
  5
B71
330
B64
100
AcDbEntity
  8
0
 48
5.0
100
AcDbBlockBegin
  2
*D11
 70
     1
 10
0.0
 20
0.0
 30
0.0
  3
*D11
  1

  0
LINE
  5
B72
330
B64
100
AcDbEntity
  8
0
  6
BYBLOCK
 62
     4
 48
5.0
100
AcDbLine
 10
245.1345253773435
 20
235.8198500417033
 30
0.0
 11
264.4743547623238
 21
235.8198500417033
 31
0.0
  0
LINE
  5
B73
330
B64
100
AcDbEntity
  8
0
  6
BYBLOCK
 62
     4
 48
5.0
100
AcDbLine
 10
238.3342248212216
 20
162.0195500414858
 30
0.0
 11
264.4743547623238
 21
162.0195500414858
 31
0.0
  0
LINE
  5
B74
330
B64
100
AcDbEntity
  8
0
  6
BYBLOCK
 62
     4
 48
5.0
100
AcDbLine
 10
261.4743547623238
 20
228.8198500417033
 30
0.0
 11
261.4743547623238
 21
169.0195500414858
 31
0.0
  0
INSERT
  5
B75
330
B64
100
AcDbEntity
  8
0
  6
BYBLOCK
 62
     4
 48
5.0
100
AcDbBlockReference
  2
_OPEN
 10
261.4743547623238
 20
235.8198500417033
 30
0.0
 41
7.0
 42
7.0
 43
7.0
 50
90.0
  0
INSERT
  5
B76
330
B64
100
AcDbEntity
  8
0
  6
BYBLOCK
 62
     4
 48
5.0
100
AcDbBlockReference
  2
_OPEN
 10
261.4743547623238
 20
162.0195500414858
 30
0.0
 41
7.0
 42
7.0
 43
7.0
 50
270.0
  0
MTEXT
  5
B77
330
B64
100
AcDbEntity
  8
0
  6
BYBLOCK
 62
     4
 48
5.0
100
AcDbMText
 10
256.4743547623238
 20
198.9197000415945
 30
0.0
 40
6.0
 41
0.0
 71
     5
 72
     1
  1
\A1;74
 11
0.0
 21
1.0
 31
0.0
1001
ACAD
1000
MTEXTBEGIN
1070
    73
1070
     1
1070
    44
1040
1.0
1070
    74
1070
     0
1000
MTEXTEND
1000
MTEXTBEGIN
1070
    73
1070
     1
1070
    44
1040
1.0
1070
    74
1070
     0
1000
MTEXTEND
1000
MTEXTBEGIN
1070
    73
1070
     1
1070
    44
1040
1.0
1070
    74
1070
     0
1000
MTEXTEND
  0
POINT
  5
B78
330
B64
100
AcDbEntity
  8
DEFPOINTS
  6
BYBLOCK
 62
     0
 48
5.0
100
AcDbPoint
 10
239.1345253773435
 20
235.8198500417033
 30
0.0
  0
POINT
  5
B79
330
B64
100
AcDbEntity
  8
DEFPOINTS
  6
BYBLOCK
 62
     0
 48
5.0
100
AcDbPoint
 10
232.3342248212216
 20
162.0195500414858
 30
0.0
  0
POINT
  5
B7A
330
B64
100
AcDbEntity
  8
DEFPOINTS
  6
BYBLOCK
 62
     0
 48
5.0
100
AcDbPoint
 10
261.4743547623238
 20
162.0195500414858
 30
0.0
  0
ENDBLK
  5
B7B
330
B64
100
AcDbEntity
  8
0
 48
5.0
100
AcDbBlockEnd
  0
ENDSEC
  0
SECTION
  2
ENTITIES
  0
TEXT
  5
11A
330
1A
100
AcDbEntity
  8
ZUWAKU
 62
     7
 48
10.0
100
AcDbText
 10
795.5579444309237
 20
4.974918402528146
 30
0.0
 40
8.0
  1
A1
100
AcDbText
  0
LINE
  5
11B
330
1A
100
AcDbEntity
  8
ZUWAKU
 62
     7
 48
10.0
100
AcDbLine
 10
10.05047808566086
 20
25.78258628282265
 30
0.0
 11
806.0504780856609
 21
25.78258628282253
 31
0.0
  0
LINE
  5
11C
330
1A
100
AcDbEntity
  8
ZUWAKU
  6
CONTINUOUS
 62
     7
100
AcDbLine
 10
806.0504780856609
 20
563.7825862828226
 30
0.0
 11
10.05047808566086
 21
563.7825862828226
 31
0.0
  0
LINE
  5
11D
330
1A
100
AcDbEntity
  8
ZUWAKU
  6
CONTINUOUS
 62
     7
100
AcDbLine
 10
806.0504780856609
 20
13.78258628282265
 30
0.0
 11
10.05047808566086
 21
13.78258628282265
 31
0.0
  0
LINE
  5
11E
330
1A
100
AcDbEntity
  8
ZUWAKU
  6
CONTINUOUS
 62
     7
100
AcDbLine
 10
10.05047808566086
 20
563.7825862828226
 30
0.0
 11
10.05047808566086
 21
13.78258628282265
 31
0.0
  0
LINE
  5
11F
330
1A
100
AcDbEntity
  8
ZUWAKU
 62
     7
 48
10.0
100
AcDbLine
 10
44.55797523147839
 20
13.78258628282265
 30
0.0
 11
44.5579752314784
 21
25.78258628282265
 31
0.0
  0
TEXT
  5
120
330
1A
100
AcDbEntity
  8
ZUWAKU
 62
     7
100
AcDbText
 10
16.05676551180931
 20
15.52294263804401
 30
0.0
 40
8.0
  1
品 種
100
AcDbText
  0
LINE
  5
121
330
1A
100
AcDbEntity
  8
ZUWAKU
 62
     7
 48
10.0
100
AcDbLine
 10
276.1028387068254
 20
13.78258628282265
 30
0.0
 11
276.1028387068254
 21
25.78258628282261
 31
0.0
  0
LINE
  5
122
330
1A
100
AcDbEntity
  8
ZUWAKU
 62
     7
 48
10.0
100
AcDbLine
 10
209.5138526425484
 20
13.78258628282265
 30
0.0
 11
209.5138526425485
 21
25.78258628282263
 31
0.0
  0
TEXT
  5
124
330
1A
100
AcDbEntity
  8
ZUWAKU
 62
     7
100
AcDbText
 10
215.4560837190756
 20
16.18358115302453
 30
0.0
 40
8.0
  1
品名・ｻ ｲ ｽﾞ
100
AcDbText
  0
LINE
  5
126
330
1A
100
AcDbEntity
  8
ZUWAKU
 62
     7
 48
10.0
100
AcDbLine
 10
768.7231079932794
 20
13.78258628282237
 30
0.0
 11
768.7231079932794
 21
25.78258628282254
 31
0.0
  0
LINE
  5
127
330
1A
100
AcDbEntity
  8
ZUWAKU
 62
     7
 48
10.0
100
AcDbLine
 10
733.8119002376948
 20
13.78258628282242
 30
0.0
 11
733.8119002376946
 21
25.78258628282254
 31
0.0
  0
TEXT
  5
128
330
1A
100
AcDbEntity
  8
ZUWAKU
 62
     7
100
AcDbText
 10
739.6955629973526
 20
15.24227755810852
 30
0.0
 40
8.0
  1
尺 度
100
AcDbText
  0
TEXT
  5
129
330
1A
100
AcDbEntity
  8
ZUWAKU
 62
     7
100
AcDbText
 10
779.7374630323229
 20
15.55488920081529
 30
0.0
 40
8.0
  1
1/2
100
AcDbText
  0
TEXT
  5
12B
330
1A
100
AcDbEntity
  8
ZUWAKU
 62
     7
100
AcDbText
 10
620.3363288383084
 20
15.6519090944263
 30
0.0
 40
8.0
  1
品 番
100
AcDbText
  0
LINE
  5
12C
330
1A
100
AcDbEntity
  8
ZUWAKU
 62
     7
 48
10.0
100
AcDbLine
 10
614.3351028194128
 20
13.78258628282232
 30
0.0
 11
614.3351028194128
 21
25.78258628282256
 31
0.0
  0
LINE
  5
12D
330
1A
100
AcDbEntity
  8
ZUWAKU
 62
     7
 48
10.0
100
AcDbLine
 10
648.7607587371021
 20
13.78258628282232
 30
0.0
 11
648.7607587371021
 21
25.78258628282255
 31
0.0
  0
TEXT
  5
12E
330
1A
100
AcDbEntity
  8
ZUWAKU
 62
     7
 48
10.0
100
AcDbText
 10
646.2758615931216
 20
4.949376903717848
 30
0.0
 40
8.0
  1
積水化学工業株式会社  建材
100
AcDbText
  0
LINE
  5
12F
330
1A
100
AcDbEntity
  8
ZUWAKU
  6
CONTINUOUS
 62
     7
100
AcDbLine
 10
806.0504780856609
 20
563.7825862828226
 30
0.0
 11
806.0504780856609
 21
13.78258628282265
 31
0.0
  0
ARC
  5
4C5
330
1A
100
AcDbEntity
  8
SEIHIN
  6
CONTINUOUS
100
AcDbCircle
 10
389.0838129301361
 20
406.2543601199321
 30
0.0
 40
49.74991273114474
100
AcDbArc
 50
147.6960164083328
 51
152.3039604565137
  0
ARC
  5
4C6
330
1A
100
AcDbEntity
  8
SEIHIN
  6
CONTINUOUS
100
AcDbCircle
 10
389.0837475488005
 20
406.254111184713
 30
0.0
 40
45.74998865604259
100
AcDbArc
 50
156.8310387480603
 51
179.9998054564199
  0
ARC
  5
4C7
330
1A
100
AcDbEntity
  8
SEIHIN
  6
CONTINUOUS
100
AcDbCircle
 10
389.0837446286514
 20
406.2542912320507
 30
0.0
 40
49.74994930385235
100
AcDbArc
 50
207.6960412381191
 51
212.3039818970326
  0
ARC
  5
4C8
330
1A
100
AcDbEntity
  8
SEIHIN
  6
CONTINUOUS
100
AcDbCircle
 10
389.0837475489762
 20
406.2543218655666
 30
0.0
 40
45.7499886559881
100
AcDbArc
 50
180.0000693061845
 51
203.1689612512207
  0
LINE
  5
4C9
330
1A
100
AcDbEntity
  8
CENTER_L
 48
5.0
100
AcDbLine
 10
313.4136588930216
 20
406.2543665254144
 30
0.0
 11
465.4108588930216
 21
406.2540665254143
 31
0.0
  0
ARC
  5
4CA
330
1A
100
AcDbEntity
  8
SEIHIN
  6
CONTINUOUS
100
AcDbCircle
 10
389.0837588051658
 20
406.2541665254143
 30
0.0
 40
70.0001000879271
100
AcDbArc
 50
0.0000818509966298
 51
359.9999181490033
  0
ARC
  5
4CB
330
1A
100
AcDbEntity
  8
SEIHIN
  6
CONTINUOUS
100
AcDbCircle
 10
389.0837588359784
 20
406.2541665254143
 30
0.0
 40
65.00010005712005
100
AcDbArc
 50
0.0000881472174866
 51
359.9999118527825
  0
ARC
  5
4CC
330
1A
100
AcDbEntity
  8
SEIHIN
  6
CONTINUOUS
100
AcDbCircle
 10
389.0837589276142
 20
406.2542165254145
 30
0.0
 40
48.750099965433
100
AcDbArc
 50
0.0000587647815485
 51
359.9999412352184
  0
LINE
  5
4DF
330
1A
100
AcDbEntity
  8
SEIHIN
  6
CONTINUOUS
100
AcDbLine
 10
232.3342248212216
 20
162.0195500414858
 30
0.0
 11
113.9341253791624
 21
162.020350042158
 31
0.0
  0
LINE
  5
4E0
330
1A
100
AcDbEntity
  8
SEIHIN
  6
CONTINUOUS
100
AcDbLine
 10
107.1344253791624
 20
235.820450042158
 30
0.0
 11
239.1345253773435
 21
235.8198500417033
 31
0.0
  0
LINE
  5
4E1
330
1A
100
AcDbEntity
  8
SEIHIN
  6
CONTINUOUS
100
AcDbLine
 10
103.1344253791624
 20
236.8204500421579
 30
0.0
 11
243.1345253774483
 21
236.8198500417293
 31
0.0
  0
LINE
  5
4E2
330
1A
100
AcDbEntity
  8
SEIHIN
  6
CONTINUOUS
100
AcDbLine
 10
103.1344253791624
 20
238.8204500421579
 30
0.0
 11
243.1345253791624
 21
238.8198500417293
 31
0.0
  0
LINE
  5
4E7
330
1A
100
AcDbEntity
  8
SEIHIN
  6
CONTINUOUS
100
AcDbLine
 10
113.7344253791624
 20
233.820350042158
 30
0.0
 11
232.5347253781522
 21
233.8199500411478
 31
0.0
  0
TEXT
  5
4EA
330
1A
100
AcDbEntity
  8
ZUWAKU
 62
     7
100
AcDbText
 10
50.3519382305086
 20
16.10306189639755
 30
0.0
 40
8.0
  1
自在ドレン
100
AcDbText
  0
LINE
  5
4F0
330
1A
100
AcDbEntity
  8
SEIHIN
  6
CONTINUOUS
100
AcDbLine
 10
107.1344253791624
 20
235.820450042158
 30
0.0
 11
103.1344253791624
 21
236.8204500421579
 31
0.0
  0
LINE
  5
4F1
330
1A
100
AcDbEntity
  8
SEIHIN
  6
CONTINUOUS
100
AcDbLine
 10
113.7344253791624
 20
233.820350042158
 30
0.0
 11
113.9341253791624
 21
162.020350042158
 31
0.0
  0
LINE
  5
4F2
330
1A
100
AcDbEntity
  8
SEIHIN
  6
CONTINUOUS
100
AcDbLine
 10
113.7344253791624
 20
233.820350042158
 30
0.0
 11
111.7344253791624
 21
235.820350042158
 31
0.0
  0
LINE
  5
4FD
330
1A
100
AcDbEntity
  8
SEIHIN
  6
CONTINUOUS
100
AcDbLine
 10
103.1344253791624
 20
236.8204500421579
 30
0.0
 11
103.1344253791624
 21
238.8204500421579
 31
0.0
  0
TEXT
  5
50C
330
1A
100
AcDbEntity
  8
ZUWAKU
 62
     7
100
AcDbText
 10
282.3131429914078
 20
15.64241700452384
 30
0.0
 40
8.0
  1
ＶＵ・ＶＰ１００
100
AcDbText
  0
LINE
  5
52A
330
1A
100
AcDbEntity
  8
CENTER_L
 48
5.0
100
AcDbLine
 10
173.1345624173446
 20
245.8201500420606
 30
0.0
 11
173.1344253791624
 21
150.7587500421579
 31
0.0
  0
LINE
  5
52B
330
1A
100
AcDbEntity
  8
SEIHIN
  6
CONTINUOUS
100
AcDbLine
 10
239.1345253791623
 20
235.819850042158
 30
0.0
 11
243.1345253791624
 21
236.8198500421579
 31
0.0
  0
LINE
  5
52F
330
1A
100
AcDbEntity
  8
SEIHIN
  6
CONTINUOUS
100
AcDbLine
 10
232.5345253791624
 20
233.819750042158
 30
0.0
 11
232.3342253791623
 21
162.0197500421579
 31
0.0
  0
LINE
  5
530
330
1A
100
AcDbEntity
  8
SEIHIN
  6
CONTINUOUS
100
AcDbLine
 10
232.5345253791624
 20
233.819750042158
 30
0.0
 11
234.5345253791624
 21
235.819750042158
 31
0.0
  0
LINE
  5
556
330
1A
100
AcDbEntity
  8
SEIHIN
  6
CONTINUOUS
100
AcDbLine
 10
243.1345253791624
 20
236.8198500421579
 30
0.0
 11
243.1345253791624
 21
238.819850042158
 31
0.0
  0
LINE
  5
580
330
1A
100
AcDbEntity
  8
SEIHIN
  6
CONTINUOUS
100
AcDbLine
 10
345.8832588930215
 20
190.2544665254144
 30
0.0
 11
345.8834588930216
 21
222.2544665254145
 31
0.0
  0
LINE
  5
581
330
1A
100
AcDbEntity
  8
SEIHIN
  6
CONTINUOUS
100
AcDbLine
 10
340.3300588930216
 20
190.1403665254145
 30
0.0
 11
342.1113588930216
 21
221.3114665254145
 31
0.0
  0
LINE
  5
582
330
1A
100
AcDbEntity
  8
SEIHIN
  6
CONTINUOUS
100
AcDbLine
 10
340.1717737416874
 20
222.4258263611276
 30
0.0
 11
338.4949588930215
 21
193.0833665254144
 31
0.0
  0
LINE
  5
583
330
1A
100
AcDbEntity
  8
SEIHIN
  6
CONTINUOUS
100
AcDbLine
 10
328.0832588930216
 20
190.2544665254144
 30
0.0
 11
335.4998588930215
 21
190.2544665254144
 31
0.0
  0
LINE
  5
585
330
1A
100
AcDbEntity
  8
SEIHIN
  6
CONTINUOUS
100
AcDbLine
 10
328.0832588930216
 20
190.2544665254144
 30
0.0
 11
324.0832588930216
 21
189.2545665254145
 31
0.0
  0
LINE
  5
586
330
1A
100
AcDbEntity
  8
SEIHIN
  6
CONTINUOUS
100
AcDbLine
 10
324.0832588930216
 20
188.2545665254144
 30
0.0
 11
324.0832588930216
 21
189.2545665254145
 31
0.0
  0
ARC
  5
587
330
1A
100
AcDbEntity
  8
SEIHIN
  6
CONTINUOUS
100
AcDbCircle
 10
335.4998530211249
 20
193.2544609795709
 30
0.0
 40
2.999994454162193
100
AcDbArc
 50
270.000112145173
 51
356.728643604698
  0
ARC
  5
58A
330
1A
100
AcDbEntity
  8
SEIHIN
  6
CONTINUOUS
100
AcDbCircle
 10
343.1097452463002
 20
221.2544536355807
 30
0.0
 40
1.000012889926969
100
AcDbArc
 50
89.99921811053608
 51
176.7316719525131
  0
LINE
  5
58B
330
1A
100
AcDbEntity
  8
SEIHIN
  6
CONTINUOUS
100
AcDbLine
 10
345.8833588930216
 20
222.2544665254145
 30
0.0
 11
343.1097588930216
 21
222.2544665254145
 31
0.0
  0
ARC
  5
598
330
1A
100
AcDbEntity
  8
SEIHIN
  6
CONTINUOUS
100
AcDbCircle
 10
173.1350252913065
 20
406.2541665254143
 30
0.0
 40
70.0001000879271
100
AcDbArc
 50
0.0000818509966298
 51
359.9999181490033
  0
LINE
  5
599
330
1A
100
AcDbEntity
  8
CENTER_L
 48
5.0
100
AcDbLine
 10
97.46492537916243
 20
406.2543665254144
 30
0.0
 11
249.4621253791624
 21
406.2540665254143
 31
0.0
  0
LINE
  5
5A5
330
1A
100
AcDbEntity
  8
CENTER_L
 48
5.0
100
AcDbLine
 10
173.1352253791623
 20
485.3484665254145
 30
0.0
 11
173.1349253791623
 21
328.5841665254145
 31
0.0
  0
LINE
  5
5E8
330
1A
100
AcDbEntity
  8
SEIHIN
  6
CONTINUOUS
100
AcDbLine
 10
345.0337588930215
 20
383.1315665254145
 30
0.0
 11
345.9005588930216
 21
383.6319665254145
 31
0.0
  0
LINE
  5
5E9
330
1A
100
AcDbEntity
  8
SEIHIN
  6
CONTINUOUS
100
AcDbLine
 10
339.3740588930215
 20
408.2543665254143
 30
0.0
 11
340.3748588930216
 21
408.2543665254143
 31
0.0
  0
LINE
  5
5EA
330
1A
100
AcDbEntity
  8
SEIHIN
  6
CONTINUOUS
100
AcDbLine
 10
339.3739588930215
 20
404.2543665254143
 30
0.0
 11
340.3748588930216
 21
404.2543665254143
 31
0.0
  0
ARC
  5
5EB
330
1A
100
AcDbEntity
  8
SEIHIN
  6
CONTINUOUS
100
AcDbCircle
 10
389.0837588932222
 20
406.2543665254144
 30
0.0
 40
49.74991732766962
100
AcDbArc
 50
177.6960273827891
 51
182.3039726172108
  0
LINE
  5
5EC
330
1A
100
AcDbEntity
  8
SEIHIN
  6
CONTINUOUS
100
AcDbLine
 10
345.0339588930215
 20
429.3772665254145
 30
0.0
 11
345.9006588930216
 21
428.8768665254143
 31
0.0
  0
LINE
  5
5ED
330
1A
100
AcDbEntity
  8
SEIHIN
  6
CONTINUOUS
100
AcDbLine
 10
711.5647830860873
 20
217.6512159030667
 30
0.0
 11
656.5648830860875
 21
217.6513159030668
 31
0.0
  0
LINE
  5
5EE
330
1A
100
AcDbEntity
  8
SEIHIN
  6
CONTINUOUS
100
AcDbLine
 10
656.5646830860876
 20
189.2231159030668
 30
0.0
 11
711.5646830860876
 21
189.2229159030667
 31
0.0
  0
LINE
  5
5EF
330
1A
100
AcDbEntity
  8
SEIHIN
  6
CONTINUOUS
100
AcDbLine
 10
656.5646830860876
 20
184.2231159030666
 30
0.0
 11
704.3390830860876
 21
184.2230159030667
 31
0.0
  0
LINE
  5
5F0
330
1A
100
AcDbEntity
  8
SEIHIN
  6
CONTINUOUS
100
AcDbLine
 10
726.5649830860873
 20
224.2229159030666
 30
0.0
 11
656.5648830860875
 21
224.2233159030667
 31
0.0
  0
LINE
  5
5F1
330
1A
100
AcDbEntity
  8
SEIHIN
  6
CONTINUOUS
100
AcDbLine
 10
723.5649830860872
 20
223.2229159030667
 30
0.0
 11
656.5648830860875
 21
223.2233159030666
 31
0.0
  0
LINE
  5
5F2
330
1A
100
AcDbEntity
  8
SEIHIN
  6
CONTINUOUS
100
AcDbLine
 10
656.5644830860876
 20
147.4231159030667
 30
0.0
 11
715.7645830860874
 21
147.4229159030666
 31
0.0
  0
TEXT
  5
5F6
330
1A
100
AcDbEntity
  8
ZUWAKU
 62
     7
100
AcDbText
 10
654.2531733678779
 20
15.90287984531518
 30
0.0
 40
8.0
  1
ＧＬ０７
100
AcDbText
  0
LINE
  5
613
330
1A
100
AcDbEntity
  8
CENTER_L
 48
5.0
100
AcDbLine
 10
389.0833588930215
 20
236.9299665254144
 30
0.0
 11
389.0832281770126
 21
146.2541665254869
 31
0.0
  0
LINE
  5
619
330
1A
100
AcDbEntity
  8
SEIHIN
  6
CONTINUOUS
100
AcDbLine
 10
336.3072588983691
 20
190.2544665254144
 30
0.0
 11
441.8592588930216
 21
190.2540665254145
 31
0.0
  0
LINE
  5
61A
330
1A
100
AcDbEntity
  8
SEIHIN
  6
CONTINUOUS
100
AcDbLine
 10
343.1669067476954
 20
225.2546665244484
 30
0.0
 11
434.9999588930215
 21
225.2540665254145
 31
0.0
  0
LINE
  5
61B
330
1A
100
AcDbEntity
  8
SEIHIN
  6
CONTINUOUS
100
AcDbLine
 10
324.0832588930216
 20
189.2545665249528
 30
0.0
 11
454.0833588930215
 21
189.2539665254145
 31
0.0
  0
LINE
  5
61C
330
1A
100
AcDbEntity
  8
SEIHIN
  6
CONTINUOUS
100
AcDbLine
 10
324.0832588930216
 20
188.2545665254145
 30
0.0
 11
454.0832588930215
 21
188.2539665254145
 31
0.0
  0
LINE
  5
61F
330
1A
100
AcDbEntity
  8
SEIHIN
  6
CONTINUOUS
100
AcDbLine
 10
387.0833588930215
 20
222.2543665254145
 30
0.0
 11
367.1833588930216
 21
222.2543665254145
 31
0.0
  0
LINE
  5
620
330
1A
100
AcDbEntity
  8
SEIHIN
  6
CONTINUOUS
100
AcDbLine
 10
362.9832588930215
 20
190.2543665254144
 30
0.0
 11
362.9833588930216
 21
222.2543665254145
 31
0.0
  0
LINE
  5
621
330
1A
100
AcDbEntity
  8
SEIHIN
  6
CONTINUOUS
100
AcDbLine
 10
366.4832588930215
 20
190.2543665254144
 30
0.0
 11
366.4833588930215
 21
222.2543665254145
 31
0.0
  0
LINE
  5
622
330
1A
100
AcDbEntity
  8
SEIHIN
  6
CONTINUOUS
100
AcDbLine
 10
367.1832588930215
 20
190.2543665254144
 30
0.0
 11
367.1833588930216
 21
222.2543665254145
 31
0.0
  0
LINE
  5
623
330
1A
100
AcDbEntity
  8
SEIHIN
  6
CONTINUOUS
100
AcDbLine
 10
347.8832588930215
 20
190.2544665254144
 30
0.0
 11
347.8833588930216
 21
222.2544665254145
 31
0.0
  0
LINE
  5
624
330
1A
100
AcDbEntity
  8
SEIHIN
  6
CONTINUOUS
100
AcDbLine
 10
349.4832588930215
 20
190.2544665254144
 30
0.0
 11
349.4833588930216
 21
222.2544665254145
 31
0.0
  0
LINE
  5
625
330
1A
100
AcDbEntity
  8
SEIHIN
  6
CONTINUOUS
100
AcDbLine
 10
362.9833588930216
 20
222.2543665254145
 30
0.0
 11
349.4833588930216
 21
222.2544665254145
 31
0.0
  0
LINE
  5
626
330
1A
100
AcDbEntity
  8
SEIHIN
  6
CONTINUOUS
100
AcDbLine
 10
349.4833588930216
 20
222.2544665254145
 30
0.0
 11
347.8832588930215
 21
222.2544665254145
 31
0.0
  0
LINE
  5
627
330
1A
100
AcDbEntity
  8
SEIHIN
  6
CONTINUOUS
100
AcDbLine
 10
367.1833588930216
 20
222.2543665254145
 30
0.0
 11
366.4833588930215
 21
222.2543665254145
 31
0.0
  0
LINE
  5
628
330
1A
100
AcDbEntity
  8
SEIHIN
  6
CONTINUOUS
100
AcDbLine
 10
411.6832588930217
 20
190.2541665254145
 30
0.0
 11
411.6834588930216
 21
222.2541665254145
 31
0.0
  0
LINE
  5
629
330
1A
100
AcDbEntity
  8
SEIHIN
  6
CONTINUOUS
100
AcDbLine
 10
410.9832588930216
 20
190.2541665254145
 30
0.0
 11
410.9834588930216
 21
222.2541665254145
 31
0.0
  0
LINE
  5
62A
330
1A
100
AcDbEntity
  8
SEIHIN
  6
CONTINUOUS
100
AcDbLine
 10
387.0832588930216
 20
190.2542665254145
 30
0.0
 11
387.0833588930215
 21
222.2542665254144
 31
0.0
  0
LINE
  5
62B
330
1A
100
AcDbEntity
  8
SEIHIN
  6
CONTINUOUS
100
AcDbLine
 10
391.0832588930215
 20
190.2542665254145
 30
0.0
 11
391.0834588930216
 21
222.2542665254144
 31
0.0
  0
LINE
  5
62C
330
1A
100
AcDbEntity
  8
SEIHIN
  6
CONTINUOUS
100
AcDbLine
 10
391.0834588930216
 20
222.2543665254145
 30
0.0
 11
410.9834588930216
 21
222.2541665254145
 31
0.0
  0
LINE
  5
62D
330
1A
100
AcDbEntity
  8
SEIHIN
  6
CONTINUOUS
100
AcDbLine
 10
410.9834588930216
 20
222.2541665254145
 30
0.0
 11
411.6834588930216
 21
222.2541665254145
 31
0.0
  0
LINE
  5
632
330
1A
100
AcDbEntity
  8
SEIHIN
  6
CONTINUOUS
100
AcDbLine
 10
450.0833588930215
 20
190.2540665254145
 30
0.0
 11
442.6667588930214
 21
190.2540665254145
 31
0.0
  0
LINE
  5
633
330
1A
100
AcDbEntity
  8
SEIHIN
  6
CONTINUOUS
100
AcDbLine
 10
432.2833588930215
 20
190.2540665254145
 30
0.0
 11
432.2834588930215
 21
222.2540665254145
 31
0.0
  0
LINE
  5
634
330
1A
100
AcDbEntity
  8
SEIHIN
  6
CONTINUOUS
100
AcDbLine
 10
430.2833588930215
 20
190.2540665254145
 30
0.0
 11
430.2834588930216
 21
222.2540665254145
 31
0.0
  0
LINE
  5
635
330
1A
100
AcDbEntity
  8
SEIHIN
  6
CONTINUOUS
100
AcDbLine
 10
428.6833588930215
 20
190.2540665254145
 30
0.0
 11
428.6834588930216
 21
222.2540665254145
 31
0.0
  0
LINE
  5
636
330
1A
100
AcDbEntity
  8
SEIHIN
  6
CONTINUOUS
100
AcDbLine
 10
437.8365588930216
 20
190.1399665254145
 30
0.0
 11
436.0554588930217
 21
221.3110665254144
 31
0.0
  0
LINE
  5
637
330
1A
100
AcDbEntity
  8
SEIHIN
  6
CONTINUOUS
100
AcDbLine
 10
437.9950588930216
 20
222.4251665254145
 30
0.0
 11
439.6716588930216
 21
193.0828665254145
 31
0.0
  0
LINE
  5
638
330
1A
100
AcDbEntity
  8
SEIHIN
  6
CONTINUOUS
100
AcDbLine
 10
415.1832588930217
 20
190.2540665254145
 30
0.0
 11
415.1834588930216
 21
222.2540665254145
 31
0.0
  0
ARC
  5
63A
330
1A
100
AcDbEntity
  8
SEIHIN
  6
CONTINUOUS
100
AcDbCircle
 10
442.6667647649182
 20
193.2540609795708
 30
0.0
 40
2.999994454162087
100
AcDbArc
 50
183.2713563953012
 51
269.9998878548261
  0
LINE
  5
63B
330
1A
100
AcDbEntity
  8
SEIHIN
  6
CONTINUOUS
100
AcDbLine
 10
415.1834588930216
 20
222.2541665254145
 30
0.0
 11
428.6834588930216
 21
222.2540665254145
 31
0.0
  0
ARC
  5
63C
330
1A
100
AcDbEntity
  8
SEIHIN
  6
CONTINUOUS
100
AcDbCircle
 10
434.9999500012022
 20
222.2540749237713
 30
0.0
 40
2.999991601656408
100
AcDbArc
 50
3.269391961153575
 51
89.99983017828458
  0
LINE
  5
63D
330
1A
100
AcDbEntity
  8
SEIHIN
  6
CONTINUOUS
100
AcDbLine
 10
432.2835588930216
 20
222.2540665254145
 30
0.0
 11
435.0571588930216
 21
222.2540665254145
 31
0.0
  0
LINE
  5
63E
330
1A
100
AcDbEntity
  8
SEIHIN
  6
CONTINUOUS
100
AcDbLine
 10
428.6834588930216
 20
222.2540665254145
 30
0.0
 11
430.2835588930216
 21
222.2540665254145
 31
0.0
  0
ARC
  5
63F
330
1A
100
AcDbEntity
  8
SEIHIN
  6
CONTINUOUS
100
AcDbCircle
 10
435.0571196896012
 20
221.2541035542856
 30
0.0
 40
0.9999629718974038
100
AcDbArc
 50
3.265626486027736
 51
89.99775372629482
  0
LINE
  5
640
330
1A
100
AcDbEntity
  8
SEIHIN
  6
CONTINUOUS
100
AcDbLine
 10
450.0833588930215
 20
190.2540665254145
 30
0.0
 11
454.0833588930215
 21
189.2539665254145
 31
0.0
  0
LINE
  5
641
330
1A
100
AcDbEntity
  8
SEIHIN
  6
CONTINUOUS
100
AcDbLine
 10
454.0832588930215
 20
188.2539665254145
 30
0.0
 11
454.0833588930215
 21
189.2539665254145
 31
0.0
  0
LINE
  5
64F
330
1A
100
AcDbEntity
  8
SEIHIN
  6
CONTINUOUS
100
AcDbLine
 10
599.7897830860875
 20
187.4231159030667
 30
0.0
 11
599.1647830860874
 21
147.4233159030667
 31
0.0
  0
LINE
  5
650
330
1A
100
AcDbEntity
  8
CENTER_L
 48
5.0
100
AcDbLine
 10
656.5648830860875
 20
231.4307159030667
 30
0.0
 11
656.5647830860875
 21
136.1619159030666
 31
0.0
  0
LINE
  5
651
330
1A
100
AcDbEntity
  8
SEIHIN
  6
CONTINUOUS
100
AcDbLine
 10
597.1648830860874
 20
219.2231159030667
 30
0.0
 11
597.3649830860876
 21
147.4231159030667
 31
0.0
  0
LINE
  5
65A
330
1A
100
AcDbEntity
  8
SEIHIN
  6
CONTINUOUS
100
AcDbLine
 10
656.5650830860873
 20
147.4231159030667
 30
0.0
 11
597.3649830860876
 21
147.4231159030667
 31
0.0
  0
LINE
  5
65E
330
1A
100
AcDbEntity
  8
SEIHIN
  6
CONTINUOUS
100
AcDbLine
 10
590.5648830860875
 20
221.2231159030666
 30
0.0
 11
595.1648830860876
 21
221.2231159030666
 31
0.0
  0
LINE
  5
65F
330
1A
100
AcDbEntity
  8
SEIHIN
  6
CONTINUOUS
100
AcDbLine
 10
589.5648830860875
 20
223.2231159030666
 30
0.0
 11
656.5648830860875
 21
223.2233159030666
 31
0.0
  0
LINE
  5
660
330
1A
100
AcDbEntity
  8
SEIHIN
  6
CONTINUOUS
100
AcDbLine
 10
586.5648830860875
 20
224.2231159030667
 30
0.0
 11
656.5648830860875
 21
224.2233159030667
 31
0.0
  0
LINE
  5
671
330
1A
100
AcDbEntity
  8
SEIHIN
  6
CONTINUOUS
100
AcDbLine
 10
589.5648830860875
 20
224.2232159030667
 30
0.0
 11
589.5648830860875
 21
223.2231159030666
 31
0.0
  0
LINE
  5
672
330
1A
100
AcDbEntity
  8
SEIHIN
  6
CONTINUOUS
100
AcDbLine
 10
586.5648830860875
 20
222.2232159030667
 30
0.0
 11
586.5648830860875
 21
224.2232159030667
 31
0.0
  0
LINE
  5
673
330
1A
100
AcDbEntity
  8
SEIHIN
  6
CONTINUOUS
100
AcDbLine
 10
590.5648830860875
 20
221.2232159030667
 30
0.0
 11
586.5648830860875
 21
222.2232159030667
 31
0.0
  0
LINE
  5
674
330
1A
100
AcDbEntity
  8
SEIHIN
  6
CONTINUOUS
100
AcDbLine
 10
610.4192830860874
 20
197.1897159030668
 30
0.0
 11
610.4192830860874
 21
193.6901159030668
 31
0.0
  0
LINE
  5
675
330
1A
100
AcDbEntity
  8
SEIHIN
  6
CONTINUOUS
100
AcDbLine
 10
611.6411830860875
 20
195.3094159030666
 30
0.0
 11
610.4192830860874
 21
193.6901159030668
 31
0.0
  0
LINE
  5
676
330
1A
100
AcDbEntity
  8
SEIHIN
  6
CONTINUOUS
100
AcDbLine
 10
653.7205830860876
 20
197.9134159030667
 30
0.0
 11
610.4192830860874
 21
193.1898159030668
 31
0.0
  0
LINE
  5
677
330
1A
100
AcDbEntity
  8
SEIHIN
  6
CONTINUOUS
100
AcDbLine
 10
653.7205830860876
 20
194.4137159030667
 30
0.0
 11
624.4715830860875
 21
191.2231159030667
 31
0.0
  0
LINE
  5
678
330
1A
100
AcDbEntity
  8
SEIHIN
  6
CONTINUOUS
100
AcDbLine
 10
654.9423830860874
 20
196.0332159030667
 30
0.0
 11
611.6411830860875
 21
191.3096159030668
 31
0.0
  0
LINE
  5
679
330
1A
100
AcDbEntity
  8
SEIHIN
  6
CONTINUOUS
100
AcDbLine
 10
654.9423830860874
 20
197.0329159030668
 30
0.0
 11
611.6411830860875
 21
192.3093159030668
 31
0.0
  0
LINE
  5
67A
330
1A
100
AcDbEntity
  8
SEIHIN
  6
CONTINUOUS
100
AcDbLine
 10
653.7205830860876
 20
198.4136159030667
 30
0.0
 11
610.4192830860874
 21
193.6901159030668
 31
0.0
  0
LINE
  5
67B
330
1A
100
AcDbEntity
  8
SEIHIN
  6
CONTINUOUS
100
AcDbLine
 10
601.5649830860875
 20
189.2233159030666
 30
0.0
 11
601.5649830860875
 21
217.6514159030666
 31
0.0
  0
LINE
  5
67C
330
1A
100
AcDbEntity
  8
SEIHIN
  6
CONTINUOUS
100
AcDbLine
 10
610.4192830860874
 20
191.2231159030667
 30
0.0
 11
654.3311830860875
 21
191.2231159030667
 31
0.0
  0
LINE
  5
67D
330
1A
100
AcDbEntity
  8
SEIHIN
  6
CONTINUOUS
100
AcDbLine
 10
656.5650830860873
 20
184.2231159030666
 30
0.0
 11
608.7906830860874
 21
184.2231159030666
 31
0.0
  0
LINE
  5
67E
330
1A
100
AcDbEntity
  8
SEIHIN
  6
CONTINUOUS
100
AcDbLine
 10
656.5650830860873
 20
189.2231159030668
 30
0.0
 11
601.5649830860875
 21
189.2231159030668
 31
0.0
  0
LINE
  5
67F
330
1A
100
AcDbEntity
  8
SEIHIN
  6
CONTINUOUS
100
AcDbLine
 10
605.7506830860875
 20
187.4231159030667
 30
0.0
 11
599.7897830860875
 21
187.4231159030667
 31
0.0
  0
LINE
  5
680
330
1A
100
AcDbEntity
  8
SEIHIN
  6
CONTINUOUS
100
AcDbLine
 10
609.2906830860875
 20
189.2233159030666
 30
0.0
 11
609.2906830860875
 21
184.2233159030666
 31
0.0
  0
ARC
  5
681
330
1A
100
AcDbEntity
  8
SEIHIN
  6
CONTINUOUS
100
AcDbCircle
 10
608.7906830860874
 20
185.7231159030668
 30
0.0
 40
1.500000000000113
100
AcDbArc
 50
180.0
 51
270.0
  0
ARC
  5
682
330
1A
100
AcDbEntity
  8
SEIHIN
  6
CONTINUOUS
100
AcDbCircle
 10
605.7506830860875
 20
185.8831159030668
 30
0.0
 40
1.54000000000002
100
AcDbArc
 50
0.0000000000005287
 51
90.0
  0
LINE
  5
683
330
1A
100
AcDbEntity
  8
SEIHIN
  6
CONTINUOUS
100
AcDbLine
 10
607.2906830860874
 20
185.8831159030668
 30
0.0
 11
607.2906830860874
 21
185.7231159030668
 31
0.0
  0
LINE
  5
684
330
1A
100
AcDbEntity
  8
SEIHIN
  6
CONTINUOUS
100
AcDbLine
 10
610.4192830860874
 20
193.1898159030668
 30
0.0
 11
610.4192830860874
 21
191.2231159030667
 31
0.0
  0
LINE
  5
685
330
1A
100
AcDbEntity
  8
SEIHIN
  6
CONTINUOUS
100
AcDbLine
 10
611.6411830860875
 20
191.3096159030668
 30
0.0
 11
611.5758830860875
 21
191.2231159030667
 31
0.0
  0
LINE
  5
686
330
1A
100
AcDbEntity
  8
SEIHIN
  6
CONTINUOUS
100
AcDbLine
 10
611.6411830860875
 20
192.3093159030668
 30
0.0
 11
611.6411830860875
 21
191.3096159030668
 31
0.0
  0
LINE
  5
687
330
1A
100
AcDbEntity
  8
SEIHIN
  6
CONTINUOUS
100
AcDbLine
 10
610.4192830860874
 20
193.1898159030668
 30
0.0
 11
611.6411830860875
 21
192.3093159030668
 31
0.0
  0
LINE
  5
688
330
1A
100
AcDbEntity
  8
SEIHIN
  6
CONTINUOUS
100
AcDbLine
 10
653.7205830860876
 20
193.9135159030666
 30
0.0
 11
629.0572830860874
 21
191.2231159030667
 31
0.0
  0
LINE
  5
689
330
1A
100
AcDbEntity
  8
SEIHIN
  6
CONTINUOUS
100
AcDbLine
 10
654.9423830860874
 20
193.0330159030668
 30
0.0
 11
638.3510830860875
 21
191.2231159030667
 31
0.0
  0
LINE
  5
68A
330
1A
100
AcDbEntity
  8
SEIHIN
  6
CONTINUOUS
100
AcDbLine
 10
654.9423830860874
 20
192.0333159030667
 30
0.0
 11
647.5153830860874
 21
191.2231159030667
 31
0.0
  0
LINE
  5
68B
330
1A
100
AcDbEntity
  8
SEIHIN
  6
CONTINUOUS
100
AcDbLine
 10
654.9423830860874
 20
192.0333159030667
 30
0.0
 11
654.3311830860875
 21
191.2231159030667
 31
0.0
  0
LINE
  5
68C
330
1A
100
AcDbEntity
  8
SEIHIN
  6
CONTINUOUS
100
AcDbLine
 10
654.9423830860874
 20
193.0330159030668
 30
0.0
 11
654.9423830860874
 21
192.0333159030667
 31
0.0
  0
LINE
  5
68D
330
1A
100
AcDbEntity
  8
SEIHIN
  6
CONTINUOUS
100
AcDbLine
 10
653.7205830860876
 20
193.9135159030666
 30
0.0
 11
654.9423830860874
 21
193.0330159030668
 31
0.0
  0
LINE
  5
68E
330
1A
100
AcDbEntity
  8
SEIHIN
  6
CONTINUOUS
100
AcDbLine
 10
638.2320830860874
 20
216.2231159030667
 30
0.0
 11
610.4192830860874
 21
213.1891159030666
 31
0.0
  0
LINE
  5
68F
330
1A
100
AcDbEntity
  8
SEIHIN
  6
CONTINUOUS
100
AcDbLine
 10
633.6463830860875
 20
216.2231159030667
 30
0.0
 11
610.4192830860874
 21
213.6894159030666
 31
0.0
  0
LINE
  5
690
330
1A
100
AcDbEntity
  8
SEIHIN
  6
CONTINUOUS
100
AcDbLine
 10
653.7205830860876
 20
201.9132159030667
 30
0.0
 11
610.4192830860874
 21
197.1897159030668
 31
0.0
  0
LINE
  5
691
330
1A
100
AcDbEntity
  8
SEIHIN
  6
CONTINUOUS
100
AcDbLine
 10
653.7205830860876
 20
205.9131159030668
 30
0.0
 11
610.4192830860874
 21
201.1896159030667
 31
0.0
  0
LINE
  5
692
330
1A
100
AcDbEntity
  8
SEIHIN
  6
CONTINUOUS
100
AcDbLine
 10
653.7205830860876
 20
202.4135159030667
 30
0.0
 11
610.4192830860874
 21
197.6899159030667
 31
0.0
  0
LINE
  5
693
330
1A
100
AcDbEntity
  8
SEIHIN
  6
CONTINUOUS
100
AcDbLine
 10
654.9423830860874
 20
204.0329159030667
 30
0.0
 11
611.6411830860875
 21
199.3093159030668
 31
0.0
  0
LINE
  5
694
330
1A
100
AcDbEntity
  8
SEIHIN
  6
CONTINUOUS
100
AcDbLine
 10
654.9423830860874
 20
205.0326159030666
 30
0.0
 11
611.6411830860875
 21
200.3090159030666
 31
0.0
  0
LINE
  5
695
330
1A
100
AcDbEntity
  8
SEIHIN
  6
CONTINUOUS
100
AcDbLine
 10
654.9423830860874
 20
200.0330159030667
 30
0.0
 11
611.6411830860875
 21
195.3094159030666
 31
0.0
  0
LINE
  5
696
330
1A
100
AcDbEntity
  8
SEIHIN
  6
CONTINUOUS
100
AcDbLine
 10
654.9423830860874
 20
201.0327159030667
 30
0.0
 11
611.6411830860875
 21
196.3092159030667
 31
0.0
  0
LINE
  5
697
330
1A
100
AcDbEntity
  8
SEIHIN
  6
CONTINUOUS
100
AcDbLine
 10
653.7205830860876
 20
209.9130159030667
 30
0.0
 11
610.4192830860874
 21
205.1894159030666
 31
0.0
  0
LINE
  5
698
330
1A
100
AcDbEntity
  8
SEIHIN
  6
CONTINUOUS
100
AcDbLine
 10
653.7205830860876
 20
206.4133159030667
 30
0.0
 11
610.4192830860874
 21
201.6898159030668
 31
0.0
  0
LINE
  5
699
330
1A
100
AcDbEntity
  8
SEIHIN
  6
CONTINUOUS
100
AcDbLine
 10
654.9423830860874
 20
208.0328159030666
 30
0.0
 11
611.6411830860875
 21
203.3092159030666
 31
0.0
  0
LINE
  5
69A
330
1A
100
AcDbEntity
  8
SEIHIN
  6
CONTINUOUS
100
AcDbLine
 10
654.9423830860874
 20
209.0325159030667
 30
0.0
 11
611.6411830860875
 21
204.3089159030667
 31
0.0
  0
LINE
  5
69B
330
1A
100
AcDbEntity
  8
SEIHIN
  6
CONTINUOUS
100
AcDbLine
 10
653.7205830860876
 20
213.9128159030667
 30
0.0
 11
610.4192830860874
 21
209.1893159030667
 31
0.0
  0
LINE
  5
69C
330
1A
100
AcDbEntity
  8
SEIHIN
  6
CONTINUOUS
100
AcDbLine
 10
653.7205830860876
 20
210.4132159030667
 30
0.0
 11
610.4192830860874
 21
205.6897159030667
 31
0.0
  0
LINE
  5
69D
330
1A
100
AcDbEntity
  8
SEIHIN
  6
CONTINUOUS
100
AcDbLine
 10
654.9423830860874
 20
212.0326159030667
 30
0.0
 11
611.6411830860875
 21
207.3090159030667
 31
0.0
  0
LINE
  5
69E
330
1A
100
AcDbEntity
  8
SEIHIN
  6
CONTINUOUS
100
AcDbLine
 10
654.9423830860874
 20
213.0323159030667
 30
0.0
 11
611.6411830860875
 21
208.3087159030667
 31
0.0
  0
LINE
  5
69F
330
1A
100
AcDbEntity
  8
SEIHIN
  6
CONTINUOUS
100
AcDbLine
 10
654.9423830860874
 20
216.0325159030667
 30
0.0
 11
611.6411830860875
 21
211.3089159030666
 31
0.0
  0
LINE
  5
6A0
330
1A
100
AcDbEntity
  8
SEIHIN
  6
CONTINUOUS
100
AcDbLine
 10
653.7205830860876
 20
214.4131159030667
 30
0.0
 11
610.4192830860874
 21
209.6895159030666
 31
0.0
  0
LINE
  5
6A1
330
1A
100
AcDbEntity
  8
SEIHIN
  6
CONTINUOUS
100
AcDbLine
 10
647.5257830860873
 20
216.2231159030667
 30
0.0
 11
611.6411830860875
 21
212.3086159030667
 31
0.0
  0
LINE
  5
6A2
330
1A
100
AcDbEntity
  8
SEIHIN
  6
CONTINUOUS
100
AcDbLine
 10
610.4192830860874
 20
216.2231159030667
 30
0.0
 11
654.9423830860874
 21
216.2231159030667
 31
0.0
  0
LINE
  5
6A3
330
1A
100
AcDbEntity
  8
SEIHIN
  6
CONTINUOUS
100
AcDbLine
 10
656.5648830860875
 20
217.6513159030668
 30
0.0
 11
601.5649830860875
 21
217.6514159030666
 31
0.0
  0
LINE
  5
6A4
330
1A
100
AcDbEntity
  8
SEIHIN
  6
CONTINUOUS
100
AcDbLine
 10
611.6411830860875
 20
196.3092159030667
 30
0.0
 11
611.6411830860875
 21
195.3094159030666
 31
0.0
  0
LINE
  5
6A5
330
1A
100
AcDbEntity
  8
SEIHIN
  6
CONTINUOUS
100
AcDbLine
 10
610.4192830860874
 20
197.1897159030668
 30
0.0
 11
611.6411830860875
 21
196.3092159030667
 31
0.0
  0
LINE
  5
6A6
330
1A
100
AcDbEntity
  8
SEIHIN
  6
CONTINUOUS
100
AcDbLine
 10
610.4192830860874
 20
201.1896159030667
 30
0.0
 11
610.4192830860874
 21
197.6899159030667
 31
0.0
  0
LINE
  5
6A7
330
1A
100
AcDbEntity
  8
SEIHIN
  6
CONTINUOUS
100
AcDbLine
 10
611.6411830860875
 20
199.3093159030668
 30
0.0
 11
610.4192830860874
 21
197.6899159030667
 31
0.0
  0
LINE
  5
6A8
330
1A
100
AcDbEntity
  8
SEIHIN
  6
CONTINUOUS
100
AcDbLine
 10
611.6411830860875
 20
200.3090159030666
 30
0.0
 11
611.6411830860875
 21
199.3093159030668
 31
0.0
  0
LINE
  5
6A9
330
1A
100
AcDbEntity
  8
SEIHIN
  6
CONTINUOUS
100
AcDbLine
 10
610.4192830860874
 20
201.1896159030667
 30
0.0
 11
611.6411830860875
 21
200.3090159030666
 31
0.0
  0
LINE
  5
6AA
330
1A
100
AcDbEntity
  8
SEIHIN
  6
CONTINUOUS
100
AcDbLine
 10
610.4192830860874
 20
205.1894159030666
 30
0.0
 11
610.4192830860874
 21
201.6898159030668
 31
0.0
  0
LINE
  5
6AB
330
1A
100
AcDbEntity
  8
SEIHIN
  6
CONTINUOUS
100
AcDbLine
 10
611.6411830860875
 20
203.3092159030666
 30
0.0
 11
610.4192830860874
 21
201.6898159030668
 31
0.0
  0
LINE
  5
6AC
330
1A
100
AcDbEntity
  8
SEIHIN
  6
CONTINUOUS
100
AcDbLine
 10
611.6411830860875
 20
204.3089159030667
 30
0.0
 11
611.6411830860875
 21
203.3092159030666
 31
0.0
  0
LINE
  5
6AD
330
1A
100
AcDbEntity
  8
SEIHIN
  6
CONTINUOUS
100
AcDbLine
 10
610.4192830860874
 20
205.1894159030666
 30
0.0
 11
611.6411830860875
 21
204.3089159030667
 31
0.0
  0
LINE
  5
6AE
330
1A
100
AcDbEntity
  8
SEIHIN
  6
CONTINUOUS
100
AcDbLine
 10
620.0229830860876
 20
216.2231159030667
 30
0.0
 11
611.6411830860875
 21
215.3088159030667
 31
0.0
  0
LINE
  5
6AF
330
1A
100
AcDbEntity
  8
SEIHIN
  6
CONTINUOUS
100
AcDbLine
 10
610.4192830860874
 20
213.1891159030666
 30
0.0
 11
610.4192830860874
 21
209.6895159030666
 31
0.0
  0
LINE
  5
6B0
330
1A
100
AcDbEntity
  8
SEIHIN
  6
CONTINUOUS
100
AcDbLine
 10
610.4192830860874
 20
213.1891159030666
 30
0.0
 11
611.6411830860875
 21
212.3086159030667
 31
0.0
  0
LINE
  5
6B1
330
1A
100
AcDbEntity
  8
SEIHIN
  6
CONTINUOUS
100
AcDbLine
 10
611.6411830860875
 20
208.3087159030667
 30
0.0
 11
611.6411830860875
 21
207.3090159030667
 31
0.0
  0
LINE
  5
6B2
330
1A
100
AcDbEntity
  8
SEIHIN
  6
CONTINUOUS
100
AcDbLine
 10
610.4192830860874
 20
209.1893159030667
 30
0.0
 11
611.6411830860875
 21
208.3087159030667
 31
0.0
  0
LINE
  5
6B3
330
1A
100
AcDbEntity
  8
SEIHIN
  6
CONTINUOUS
100
AcDbLine
 10
611.6411830860875
 20
211.3089159030666
 30
0.0
 11
610.4192830860874
 21
209.6895159030666
 31
0.0
  0
LINE
  5
6B4
330
1A
100
AcDbEntity
  8
SEIHIN
  6
CONTINUOUS
100
AcDbLine
 10
611.6411830860875
 20
212.3086159030667
 30
0.0
 11
611.6411830860875
 21
211.3089159030666
 31
0.0
  0
LINE
  5
6B5
330
1A
100
AcDbEntity
  8
SEIHIN
  6
CONTINUOUS
100
AcDbLine
 10
611.6411830860875
 20
216.2231159030667
 30
0.0
 11
611.6411830860875
 21
215.3088159030667
 31
0.0
  0
LINE
  5
6B6
330
1A
100
AcDbEntity
  8
SEIHIN
  6
CONTINUOUS
100
AcDbLine
 10
611.6411830860875
 20
215.3088159030667
 30
0.0
 11
610.4192830860874
 21
213.6894159030666
 31
0.0
  0
LINE
  5
6B7
330
1A
100
AcDbEntity
  8
SEIHIN
  6
CONTINUOUS
100
AcDbLine
 10
610.4192830860874
 20
216.2231159030667
 30
0.0
 11
610.4192830860874
 21
213.6894159030666
 31
0.0
  0
LINE
  5
6B8
330
1A
100
AcDbEntity
  8
SEIHIN
  6
CONTINUOUS
100
AcDbLine
 10
610.4192830860874
 20
209.1893159030667
 30
0.0
 11
610.4192830860874
 21
205.6897159030667
 31
0.0
  0
LINE
  5
6B9
330
1A
100
AcDbEntity
  8
SEIHIN
  6
CONTINUOUS
100
AcDbLine
 10
611.6411830860875
 20
207.3090159030667
 30
0.0
 11
610.4192830860874
 21
205.6897159030667
 31
0.0
  0
LINE
  5
6BA
330
1A
100
AcDbEntity
  8
SEIHIN
  6
CONTINUOUS
100
AcDbLine
 10
597.1648830860874
 20
219.2231159030667
 30
0.0
 11
595.1648830860876
 21
221.2231159030666
 31
0.0
  0
LINE
  5
6BB
330
1A
100
AcDbEntity
  8
SEIHIN
  6
CONTINUOUS
100
AcDbLine
 10
595.9932830860875
 20
223.2231159030666
 30
0.0
 11
601.5649830860875
 21
217.6514159030666
 31
0.0
  0
LINE
  5
6BC
330
1A
100
AcDbEntity
  8
SEIHIN
  6
CONTINUOUS
100
AcDbLine
 10
653.7205830860876
 20
205.9131159030668
 30
0.0
 11
654.9423830860874
 21
205.0326159030666
 31
0.0
  0
LINE
  5
6BD
330
1A
100
AcDbEntity
  8
SEIHIN
  6
CONTINUOUS
100
AcDbLine
 10
653.7205830860876
 20
201.9132159030667
 30
0.0
 11
654.9423830860874
 21
201.0327159030667
 31
0.0
  0
LINE
  5
6BE
330
1A
100
AcDbEntity
  8
SEIHIN
  6
CONTINUOUS
100
AcDbLine
 10
654.9423830860874
 20
197.0329159030668
 30
0.0
 11
654.9423830860874
 21
196.0332159030667
 31
0.0
  0
LINE
  5
6BF
330
1A
100
AcDbEntity
  8
SEIHIN
  6
CONTINUOUS
100
AcDbLine
 10
653.7205830860876
 20
197.9134159030667
 30
0.0
 11
654.9423830860874
 21
197.0329159030668
 31
0.0
  0
LINE
  5
6C0
330
1A
100
AcDbEntity
  8
SEIHIN
  6
CONTINUOUS
100
AcDbLine
 10
654.9423830860874
 20
200.0330159030667
 30
0.0
 11
653.7205830860876
 21
198.4136159030667
 31
0.0
  0
LINE
  5
6C1
330
1A
100
AcDbEntity
  8
SEIHIN
  6
CONTINUOUS
100
AcDbLine
 10
654.9423830860874
 20
201.0327159030667
 30
0.0
 11
654.9423830860874
 21
200.0330159030667
 31
0.0
  0
LINE
  5
6C2
330
1A
100
AcDbEntity
  8
SEIHIN
  6
CONTINUOUS
100
AcDbLine
 10
654.9423830860874
 20
204.0329159030667
 30
0.0
 11
653.7205830860876
 21
202.4135159030667
 31
0.0
  0
LINE
  5
6C3
330
1A
100
AcDbEntity
  8
SEIHIN
  6
CONTINUOUS
100
AcDbLine
 10
654.9423830860874
 20
205.0326159030666
 30
0.0
 11
654.9423830860874
 21
204.0329159030667
 31
0.0
  0
LINE
  5
6C4
330
1A
100
AcDbEntity
  8
SEIHIN
  6
CONTINUOUS
100
AcDbLine
 10
654.9423830860874
 20
196.0332159030667
 30
0.0
 11
653.7205830860876
 21
194.4137159030667
 31
0.0
  0
LINE
  5
6C5
330
1A
100
AcDbEntity
  8
SEIHIN
  6
CONTINUOUS
100
AcDbLine
 10
654.9423830860874
 20
213.0323159030667
 30
0.0
 11
654.9423830860874
 21
212.0326159030667
 31
0.0
  0
LINE
  5
6C6
330
1A
100
AcDbEntity
  8
SEIHIN
  6
CONTINUOUS
100
AcDbLine
 10
654.9423830860874
 20
208.0328159030666
 30
0.0
 11
653.7205830860876
 21
206.4133159030667
 31
0.0
  0
LINE
  5
6C7
330
1A
100
AcDbEntity
  8
SEIHIN
  6
CONTINUOUS
100
AcDbLine
 10
654.9423830860874
 20
209.0325159030667
 30
0.0
 11
654.9423830860874
 21
208.0328159030666
 31
0.0
  0
LINE
  5
6C8
330
1A
100
AcDbEntity
  8
SEIHIN
  6
CONTINUOUS
100
AcDbLine
 10
653.7205830860876
 20
209.9130159030667
 30
0.0
 11
654.9423830860874
 21
209.0325159030667
 31
0.0
  0
LINE
  5
6C9
330
1A
100
AcDbEntity
  8
SEIHIN
  6
CONTINUOUS
100
AcDbLine
 10
654.9423830860874
 20
212.0326159030667
 30
0.0
 11
653.7205830860876
 21
210.4132159030667
 31
0.0
  0
LINE
  5
6CA
330
1A
100
AcDbEntity
  8
SEIHIN
  6
CONTINUOUS
100
AcDbLine
 10
653.7205830860876
 20
213.9128159030667
 30
0.0
 11
654.9423830860874
 21
213.0323159030667
 31
0.0
  0
LINE
  5
6CB
330
1A
100
AcDbEntity
  8
SEIHIN
  6
CONTINUOUS
100
AcDbLine
 10
654.9423830860874
 20
216.0325159030667
 30
0.0
 11
653.7205830860876
 21
214.4130159030667
 31
0.0
  0
LINE
  5
6CC
330
1A
100
AcDbEntity
  8
SEIHIN
  6
CONTINUOUS
100
AcDbLine
 10
654.9423830860874
 20
216.2231159030667
 30
0.0
 11
654.9423830860874
 21
216.0325159030667
 31
0.0
  0
LINE
  5
6D3
330
1A
100
AcDbEntity
  8
SEIHIN
  6
CONTINUOUS
100
AcDbLine
 10
713.3399830860875
 20
187.4229159030667
 30
0.0
 11
713.9647830860874
 21
147.4232159030667
 31
0.0
  0
LINE
  5
6D4
330
1A
100
AcDbEntity
  8
SEIHIN
  6
CONTINUOUS
100
AcDbLine
 10
715.9648830860874
 20
219.2229159030667
 30
0.0
 11
715.7645830860874
 21
147.4229159030666
 31
0.0
  0
LINE
  5
6D9
330
1A
100
AcDbEntity
  8
SEIHIN
  6
CONTINUOUS
100
AcDbLine
 10
722.5649830860873
 20
221.2230159030667
 30
0.0
 11
726.5649830860873
 21
222.2230159030666
 31
0.0
  0
LINE
  5
6DC
330
1A
100
AcDbEntity
  8
SEIHIN
  6
CONTINUOUS
100
AcDbLine
 10
709.3997830860875
 20
193.9739159030667
 30
0.0
 11
711.5647830860873
 21
192.7240159030668
 31
0.0
  0
LINE
  5
6DD
330
1A
100
AcDbEntity
  8
SEIHIN
  6
CONTINUOUS
100
AcDbLine
 10
703.1108830860875
 20
194.2876159030666
 30
0.0
 11
703.1108830860875
 21
193.2879159030667
 31
0.0
  0
LINE
  5
6DE
330
1A
100
AcDbEntity
  8
SEIHIN
  6
CONTINUOUS
100
AcDbLine
 10
709.3997830860875
 20
193.9739159030667
 30
0.0
 11
703.1108830860875
 21
193.2879159030667
 31
0.0
  0
LINE
  5
6DF
330
1A
100
AcDbEntity
  8
SEIHIN
  6
CONTINUOUS
100
AcDbLine
 10
711.5647830860873
 20
192.7240159030668
 30
0.0
 11
705.5545830860873
 21
192.0683159030668
 31
0.0
  0
LINE
  5
6E0
330
1A
100
AcDbEntity
  8
SEIHIN
  6
CONTINUOUS
100
AcDbLine
 10
711.5647830860873
 20
192.2237159030667
 30
0.0
 11
705.5545830860873
 21
191.5681159030667
 31
0.0
  0
LINE
  5
6E1
330
1A
100
AcDbEntity
  8
SEIHIN
  6
CONTINUOUS
100
AcDbLine
 10
711.5646830860876
 20
191.2229159030666
 30
0.0
 11
704.8957830860874
 21
191.2229159030666
 31
0.0
  0
LINE
  5
6E2
330
1A
100
AcDbEntity
  8
SEIHIN
  6
CONTINUOUS
100
AcDbLine
 10
707.3790830860875
 20
187.4229159030667
 30
0.0
 11
713.3399830860875
 21
187.4229159030667
 31
0.0
  0
ARC
  5
6E3
330
1A
100
AcDbEntity
  8
SEIHIN
  6
CONTINUOUS
100
AcDbCircle
 10
704.3390830860876
 20
185.7230159030667
 30
0.0
 40
1.5
100
AcDbArc
 50
270.0
 51
0.0
  0
ARC
  5
6E4
330
1A
100
AcDbEntity
  8
SEIHIN
  6
CONTINUOUS
100
AcDbCircle
 10
707.3790830860875
 20
185.8829159030667
 30
0.0
 40
1.539999999999977
100
AcDbArc
 50
90.0
 51
180.0000000000005
  0
LINE
  5
6E5
330
1A
100
AcDbEntity
  8
SEIHIN
  6
CONTINUOUS
100
AcDbLine
 10
705.8390830860876
 20
185.8829159030667
 30
0.0
 11
705.8390830860876
 21
185.7230159030667
 31
0.0
  0
LINE
  5
6E6
330
1A
100
AcDbEntity
  8
SEIHIN
  6
CONTINUOUS
100
AcDbLine
 10
703.8390830860876
 20
189.2231159030668
 30
0.0
 11
703.8390830860876
 21
184.2231159030666
 31
0.0
  0
LINE
  5
6E7
330
1A
100
AcDbEntity
  8
SEIHIN
  6
CONTINUOUS
100
AcDbLine
 10
705.5545830860873
 20
191.5681159030667
 30
0.0
 11
704.8957830860874
 21
191.2230159030667
 31
0.0
  0
LINE
  5
6E8
330
1A
100
AcDbEntity
  8
SEIHIN
  6
CONTINUOUS
100
AcDbLine
 10
703.1108830860875
 20
193.2879159030667
 30
0.0
 11
705.5545830860873
 21
192.0683159030668
 31
0.0
  0
LINE
  5
6E9
330
1A
100
AcDbEntity
  8
SEIHIN
  6
CONTINUOUS
100
AcDbLine
 10
711.5647830860873
 20
192.2237159030667
 30
0.0
 11
709.8312830860873
 21
191.2229159030666
 31
0.0
  0
LINE
  5
6EA
330
1A
100
AcDbEntity
  8
SEIHIN
  6
CONTINUOUS
100
AcDbLine
 10
711.5646830860876
 20
191.2229159030666
 30
0.0
 11
711.5646830860876
 21
189.2231159030668
 31
0.0
  0
LINE
  5
6EB
330
1A
100
AcDbEntity
  8
SEIHIN
  6
CONTINUOUS
100
AcDbLine
 10
711.5647830860873
 20
192.7240159030668
 30
0.0
 11
711.5647830860873
 21
192.2237159030667
 31
0.0
  0
LINE
  5
6EC
330
1A
100
AcDbEntity
  8
SEIHIN
  6
CONTINUOUS
100
AcDbLine
 10
711.5647830860873
 20
216.2229159030666
 30
0.0
 11
711.5647830860873
 21
217.6512159030667
 31
0.0
  0
LINE
  5
6ED
330
1A
100
AcDbEntity
  8
SEIHIN
  6
CONTINUOUS
100
AcDbLine
 10
709.3997830860875
 20
201.9737159030666
 30
0.0
 11
703.1108830860875
 21
201.2876159030668
 31
0.0
  0
LINE
  5
6EE
330
1A
100
AcDbEntity
  8
SEIHIN
  6
CONTINUOUS
100
AcDbLine
 10
711.5647830860873
 20
196.7238159030667
 30
0.0
 11
705.5545830860873
 21
196.0682159030668
 31
0.0
  0
LINE
  5
6EF
330
1A
100
AcDbEntity
  8
SEIHIN
  6
CONTINUOUS
100
AcDbLine
 10
711.5647830860873
 20
196.2236159030667
 30
0.0
 11
705.5545830860873
 21
195.5680159030668
 31
0.0
  0
LINE
  5
6F0
330
1A
100
AcDbEntity
  8
SEIHIN
  6
CONTINUOUS
100
AcDbLine
 10
711.5647830860873
 20
200.7237159030667
 30
0.0
 11
705.5545830860873
 21
200.0681159030667
 31
0.0
  0
LINE
  5
6F1
330
1A
100
AcDbEntity
  8
SEIHIN
  6
CONTINUOUS
100
AcDbLine
 10
711.5647830860873
 20
200.2235159030667
 30
0.0
 11
705.5545830860873
 21
199.5678159030667
 31
0.0
  0
LINE
  5
6F2
330
1A
100
AcDbEntity
  8
SEIHIN
  6
CONTINUOUS
100
AcDbLine
 10
709.3997830860875
 20
194.9736159030667
 30
0.0
 11
703.1108830860875
 21
194.2876159030666
 31
0.0
  0
LINE
  5
6F3
330
1A
100
AcDbEntity
  8
SEIHIN
  6
CONTINUOUS
100
AcDbLine
 10
709.3997830860875
 20
198.9735159030667
 30
0.0
 11
703.1108830860875
 21
198.2875159030667
 31
0.0
  0
LINE
  5
6F4
330
1A
100
AcDbEntity
  8
SEIHIN
  6
CONTINUOUS
100
AcDbLine
 10
709.3997830860875
 20
197.9738159030667
 30
0.0
 11
703.1108830860875
 21
197.2878159030667
 31
0.0
  0
LINE
  5
6F5
330
1A
100
AcDbEntity
  8
SEIHIN
  6
CONTINUOUS
100
AcDbLine
 10
711.5647830860873
 20
204.7236159030666
 30
0.0
 11
705.5545830860873
 21
204.0679159030667
 31
0.0
  0
LINE
  5
6F6
330
1A
100
AcDbEntity
  8
SEIHIN
  6
CONTINUOUS
100
AcDbLine
 10
711.5647830860873
 20
204.2233159030666
 30
0.0
 11
705.5545830860873
 21
203.5677159030667
 31
0.0
  0
LINE
  5
6F7
330
1A
100
AcDbEntity
  8
SEIHIN
  6
CONTINUOUS
100
AcDbLine
 10
711.5647830860873
 20
208.2232159030667
 30
0.0
 11
705.5545830860873
 21
207.5676159030666
 31
0.0
  0
LINE
  5
6F8
330
1A
100
AcDbEntity
  8
SEIHIN
  6
CONTINUOUS
100
AcDbLine
 10
711.5647830860873
 20
208.7234159030666
 30
0.0
 11
705.5545830860873
 21
208.0678159030667
 31
0.0
  0
LINE
  5
6F9
330
1A
100
AcDbEntity
  8
SEIHIN
  6
CONTINUOUS
100
AcDbLine
 10
711.5647830860873
 20
212.7233159030667
 30
0.0
 11
705.5545830860873
 21
212.0677159030667
 31
0.0
  0
LINE
  5
6FA
330
1A
100
AcDbEntity
  8
SEIHIN
  6
CONTINUOUS
100
AcDbLine
 10
711.5647830860873
 20
212.2231159030667
 30
0.0
 11
705.5545830860873
 21
211.5674159030667
 31
0.0
  0
LINE
  5
6FB
330
1A
100
AcDbEntity
  8
SEIHIN
  6
CONTINUOUS
100
AcDbLine
 10
711.5647830860873
 20
216.2229159030666
 30
0.0
 11
705.2430830860876
 21
216.2229159030666
 31
0.0
  0
LINE
  5
6FC
330
1A
100
AcDbEntity
  8
SEIHIN
  6
CONTINUOUS
100
AcDbLine
 10
711.5647830860873
 20
216.2229159030666
 30
0.0
 11
705.5545830860873
 21
215.5673159030667
 31
0.0
  0
LINE
  5
6FD
330
1A
100
AcDbEntity
  8
SEIHIN
  6
CONTINUOUS
100
AcDbLine
 10
709.3997830860875
 20
202.9734159030667
 30
0.0
 11
703.1108830860875
 21
202.2873159030667
 31
0.0
  0
LINE
  5
6FE
330
1A
100
AcDbEntity
  8
SEIHIN
  6
CONTINUOUS
100
AcDbLine
 10
709.3997830860875
 20
206.9732159030667
 30
0.0
 11
703.1108830860875
 21
206.2872159030667
 31
0.0
  0
LINE
  5
6FF
330
1A
100
AcDbEntity
  8
SEIHIN
  6
CONTINUOUS
100
AcDbLine
 10
709.3997830860875
 20
205.9735159030667
 30
0.0
 11
703.1108830860875
 21
205.2875159030667
 31
0.0
  0
LINE
  5
700
330
1A
100
AcDbEntity
  8
SEIHIN
  6
CONTINUOUS
100
AcDbLine
 10
709.3997830860875
 20
210.9731159030667
 30
0.0
 11
703.1108830860875
 21
210.2870159030667
 31
0.0
  0
LINE
  5
701
330
1A
100
AcDbEntity
  8
SEIHIN
  6
CONTINUOUS
100
AcDbLine
 10
709.3997830860875
 20
209.9734159030666
 30
0.0
 11
703.1108830860875
 21
209.2874159030667
 31
0.0
  0
LINE
  5
702
330
1A
100
AcDbEntity
  8
SEIHIN
  6
CONTINUOUS
100
AcDbLine
 10
709.3997830860875
 20
214.9729159030667
 30
0.0
 11
703.1108830860875
 21
214.2869159030666
 31
0.0
  0
LINE
  5
703
330
1A
100
AcDbEntity
  8
SEIHIN
  6
CONTINUOUS
100
AcDbLine
 10
709.3997830860875
 20
213.9733159030666
 30
0.0
 11
703.1108830860875
 21
213.2872159030668
 31
0.0
  0
LINE
  5
704
330
1A
100
AcDbEntity
  8
SEIHIN
  6
CONTINUOUS
100
AcDbLine
 10
703.1108830860875
 20
206.2872159030667
 30
0.0
 11
703.1108830860875
 21
205.2875159030667
 31
0.0
  0
LINE
  5
705
330
1A
100
AcDbEntity
  8
SEIHIN
  6
CONTINUOUS
100
AcDbLine
 10
703.1108830860875
 20
202.2873159030667
 30
0.0
 11
703.1108830860875
 21
201.2876159030668
 31
0.0
  0
LINE
  5
706
330
1A
100
AcDbEntity
  8
SEIHIN
  6
CONTINUOUS
100
AcDbLine
 10
703.1108830860875
 20
197.2878159030667
 30
0.0
 11
705.5545830860873
 21
196.0682159030668
 31
0.0
  0
LINE
  5
707
330
1A
100
AcDbEntity
  8
SEIHIN
  6
CONTINUOUS
100
AcDbLine
 10
703.1108830860875
 20
198.2875159030667
 30
0.0
 11
703.1108830860875
 21
197.2878159030667
 31
0.0
  0
LINE
  5
708
330
1A
100
AcDbEntity
  8
SEIHIN
  6
CONTINUOUS
100
AcDbLine
 10
705.5545830860873
 20
199.5678159030667
 30
0.0
 11
703.1108830860875
 21
198.2875159030667
 31
0.0
  0
LINE
  5
709
330
1A
100
AcDbEntity
  8
SEIHIN
  6
CONTINUOUS
100
AcDbLine
 10
703.1108830860875
 20
201.2876159030668
 30
0.0
 11
705.5545830860873
 21
200.0681159030667
 31
0.0
  0
LINE
  5
70A
330
1A
100
AcDbEntity
  8
SEIHIN
  6
CONTINUOUS
100
AcDbLine
 10
705.5545830860873
 20
203.5677159030667
 30
0.0
 11
703.1108830860875
 21
202.2873159030667
 31
0.0
  0
LINE
  5
70B
330
1A
100
AcDbEntity
  8
SEIHIN
  6
CONTINUOUS
100
AcDbLine
 10
703.1108830860875
 20
205.2875159030667
 30
0.0
 11
705.5545830860873
 21
204.0679159030667
 31
0.0
  0
LINE
  5
70C
330
1A
100
AcDbEntity
  8
SEIHIN
  6
CONTINUOUS
100
AcDbLine
 10
705.5545830860873
 20
195.5680159030668
 30
0.0
 11
703.1108830860875
 21
194.2876159030666
 31
0.0
  0
LINE
  5
70D
330
1A
100
AcDbEntity
  8
SEIHIN
  6
CONTINUOUS
100
AcDbLine
 10
703.1108830860875
 20
213.2872159030668
 30
0.0
 11
705.5545830860873
 21
212.0677159030667
 31
0.0
  0
LINE
  5
70E
330
1A
100
AcDbEntity
  8
SEIHIN
  6
CONTINUOUS
100
AcDbLine
 10
703.1108830860875
 20
209.2874159030667
 30
0.0
 11
705.5545830860873
 21
208.0678159030667
 31
0.0
  0
LINE
  5
70F
330
1A
100
AcDbEntity
  8
SEIHIN
  6
CONTINUOUS
100
AcDbLine
 10
703.1108830860875
 20
210.2870159030667
 30
0.0
 11
703.1108830860875
 21
209.2874159030667
 31
0.0
  0
LINE
  5
710
330
1A
100
AcDbEntity
  8
SEIHIN
  6
CONTINUOUS
100
AcDbLine
 10
705.5545830860873
 20
211.5674159030667
 30
0.0
 11
703.1108830860875
 21
210.2870159030667
 31
0.0
  0
LINE
  5
711
330
1A
100
AcDbEntity
  8
SEIHIN
  6
CONTINUOUS
100
AcDbLine
 10
703.1108830860875
 20
214.2869159030666
 30
0.0
 11
703.1108830860875
 21
213.2872159030668
 31
0.0
  0
LINE
  5
712
330
1A
100
AcDbEntity
  8
SEIHIN
  6
CONTINUOUS
100
AcDbLine
 10
705.5545830860873
 20
215.5673159030667
 30
0.0
 11
703.1108830860875
 21
214.2869159030666
 31
0.0
  0
LINE
  5
713
330
1A
100
AcDbEntity
  8
SEIHIN
  6
CONTINUOUS
100
AcDbLine
 10
706.9793830860874
 20
216.2229159030666
 30
0.0
 11
705.5545830860873
 21
216.0675159030667
 31
0.0
  0
LINE
  5
714
330
1A
100
AcDbEntity
  8
SEIHIN
  6
CONTINUOUS
100
AcDbLine
 10
705.2430830860876
 20
216.2229159030666
 30
0.0
 11
705.5545830860873
 21
216.0675159030667
 31
0.0
  0
LINE
  5
715
330
1A
100
AcDbEntity
  8
SEIHIN
  6
CONTINUOUS
100
AcDbLine
 10
705.5545830860873
 20
207.5676159030666
 30
0.0
 11
703.1108830860875
 21
206.2872159030667
 31
0.0
  0
LINE
  5
716
330
1A
100
AcDbEntity
  8
SEIHIN
  6
CONTINUOUS
100
AcDbLine
 10
709.3997830860875
 20
205.9735159030667
 30
0.0
 11
711.5647830860873
 21
204.7236159030666
 31
0.0
  0
LINE
  5
717
330
1A
100
AcDbEntity
  8
SEIHIN
  6
CONTINUOUS
100
AcDbLine
 10
709.3997830860875
 20
201.9737159030666
 30
0.0
 11
711.5647830860873
 21
200.7237159030667
 31
0.0
  0
LINE
  5
718
330
1A
100
AcDbEntity
  8
SEIHIN
  6
CONTINUOUS
100
AcDbLine
 10
711.5647830860873
 20
196.2236159030667
 30
0.0
 11
709.3997830860875
 21
194.9736159030667
 31
0.0
  0
LINE
  5
719
330
1A
100
AcDbEntity
  8
SEIHIN
  6
CONTINUOUS
100
AcDbLine
 10
711.5647830860873
 20
200.2235159030667
 30
0.0
 11
709.3997830860875
 21
198.9735159030667
 31
0.0
  0
LINE
  5
71A
330
1A
100
AcDbEntity
  8
SEIHIN
  6
CONTINUOUS
100
AcDbLine
 10
709.3997830860875
 20
197.9738159030667
 30
0.0
 11
711.5647830860873
 21
196.7238159030667
 31
0.0
  0
LINE
  5
71B
330
1A
100
AcDbEntity
  8
SEIHIN
  6
CONTINUOUS
100
AcDbLine
 10
709.3997830860875
 20
198.9735159030667
 30
0.0
 11
709.3997830860875
 21
197.9738159030667
 31
0.0
  0
LINE
  5
71C
330
1A
100
AcDbEntity
  8
SEIHIN
  6
CONTINUOUS
100
AcDbLine
 10
711.5647830860873
 20
200.7237159030667
 30
0.0
 11
711.5647830860873
 21
200.2235159030667
 31
0.0
  0
LINE
  5
71D
330
1A
100
AcDbEntity
  8
SEIHIN
  6
CONTINUOUS
100
AcDbLine
 10
711.5647830860873
 20
196.7238159030667
 30
0.0
 11
711.5647830860873
 21
196.2236159030667
 31
0.0
  0
LINE
  5
71E
330
1A
100
AcDbEntity
  8
SEIHIN
  6
CONTINUOUS
100
AcDbLine
 10
711.5647830860873
 20
204.2233159030666
 30
0.0
 11
709.3997830860875
 21
202.9734159030667
 31
0.0
  0
LINE
  5
71F
330
1A
100
AcDbEntity
  8
SEIHIN
  6
CONTINUOUS
100
AcDbLine
 10
709.3997830860875
 20
202.9734159030667
 30
0.0
 11
709.3997830860875
 21
201.9737159030666
 31
0.0
  0
LINE
  5
720
330
1A
100
AcDbEntity
  8
SEIHIN
  6
CONTINUOUS
100
AcDbLine
 10
711.5647830860873
 20
204.7236159030666
 30
0.0
 11
711.5647830860873
 21
204.2233159030666
 31
0.0
  0
LINE
  5
721
330
1A
100
AcDbEntity
  8
SEIHIN
  6
CONTINUOUS
100
AcDbLine
 10
709.3997830860875
 20
194.9736159030667
 30
0.0
 11
709.3997830860875
 21
193.9739159030667
 31
0.0
  0
LINE
  5
722
330
1A
100
AcDbEntity
  8
SEIHIN
  6
CONTINUOUS
100
AcDbLine
 10
711.5647830860873
 20
208.2232159030667
 30
0.0
 11
709.3997830860875
 21
206.9732159030667
 31
0.0
  0
LINE
  5
723
330
1A
100
AcDbEntity
  8
SEIHIN
  6
CONTINUOUS
100
AcDbLine
 10
711.5647830860873
 20
212.2231159030667
 30
0.0
 11
709.3997830860875
 21
210.9731159030667
 31
0.0
  0
LINE
  5
724
330
1A
100
AcDbEntity
  8
SEIHIN
  6
CONTINUOUS
100
AcDbLine
 10
709.3997830860875
 20
213.9733159030666
 30
0.0
 11
711.5647830860873
 21
212.7233159030667
 31
0.0
  0
LINE
  5
725
330
1A
100
AcDbEntity
  8
SEIHIN
  6
CONTINUOUS
100
AcDbLine
 10
711.5647830860873
 20
216.2229159030666
 30
0.0
 11
709.3997830860875
 21
214.9729159030667
 31
0.0
  0
LINE
  5
726
330
1A
100
AcDbEntity
  8
SEIHIN
  6
CONTINUOUS
100
AcDbLine
 10
709.3997830860875
 20
209.9734159030666
 30
0.0
 11
711.5647830860873
 21
208.7234159030666
 31
0.0
  0
LINE
  5
727
330
1A
100
AcDbEntity
  8
SEIHIN
  6
CONTINUOUS
100
AcDbLine
 10
709.3997830860875
 20
210.9731159030667
 30
0.0
 11
709.3997830860875
 21
209.9734159030666
 31
0.0
  0
LINE
  5
728
330
1A
100
AcDbEntity
  8
SEIHIN
  6
CONTINUOUS
100
AcDbLine
 10
709.3997830860875
 20
214.9729159030667
 30
0.0
 11
709.3997830860875
 21
213.9733159030666
 31
0.0
  0
LINE
  5
729
330
1A
100
AcDbEntity
  8
SEIHIN
  6
CONTINUOUS
100
AcDbLine
 10
711.5647830860873
 20
212.7233159030667
 30
0.0
 11
711.5647830860873
 21
212.2231159030667
 31
0.0
  0
LINE
  5
72A
330
1A
100
AcDbEntity
  8
SEIHIN
  6
CONTINUOUS
100
AcDbLine
 10
711.5647830860873
 20
208.7234159030666
 30
0.0
 11
711.5647830860873
 21
208.2232159030667
 31
0.0
  0
LINE
  5
72B
330
1A
100
AcDbEntity
  8
SEIHIN
  6
CONTINUOUS
100
AcDbLine
 10
709.3997830860875
 20
206.9732159030667
 30
0.0
 11
709.3997830860875
 21
205.9735159030667
 31
0.0
  0
LINE
  5
72C
330
1A
100
AcDbEntity
  8
SEIHIN
  6
CONTINUOUS
100
AcDbLine
 10
715.9648830860874
 20
219.2229159030667
 30
0.0
 11
717.9648830860874
 21
221.2229159030667
 31
0.0
  0
LINE
  5
72D
330
1A
100
AcDbEntity
  8
SEIHIN
  6
CONTINUOUS
100
AcDbLine
 10
717.1365830860873
 20
223.2229159030667
 30
0.0
 11
711.5647830860873
 21
217.6512159030667
 31
0.0
  0
LINE
  5
72E
330
1A
100
AcDbEntity
  8
SEIHIN
  6
CONTINUOUS
100
AcDbLine
 10
723.5649830860872
 20
224.2230159030667
 30
0.0
 11
723.5649830860872
 21
223.2229159030667
 31
0.0
  0
LINE
  5
72F
330
1A
100
AcDbEntity
  8
SEIHIN
  6
CONTINUOUS
100
AcDbLine
 10
722.5649830860873
 20
221.2229159030667
 30
0.0
 11
717.9648830860874
 21
221.2229159030667
 31
0.0
  0
LINE
  5
738
330
1A
100
AcDbEntity
  8
SEIHIN
  6
CONTINUOUS
100
AcDbLine
 10
726.5649830860873
 20
222.2230159030666
 30
0.0
 11
726.5649830860873
 21
224.2230159030667
 31
0.0
  0
LINE
  5
73B
330
1A
100
AcDbEntity
  8
SEIHIN
  6
CONTINUOUS
100
AcDbLine
 10
670.3246830860873
 20
340.0176538791126
 30
0.0
 11
601.5646830860876
 21
332.5168538791128
 31
0.0
  0
LINE
  5
73C
330
1A
100
AcDbEntity
  8
SEIHIN
  6
CONTINUOUS
100
AcDbLine
 10
711.5651830860874
 20
340.0175538791128
 30
0.0
 11
656.5648830860875
 21
340.0177538791128
 31
0.0
  0
LINE
  5
73D
330
1A
100
AcDbEntity
  8
SEIHIN
  6
CONTINUOUS
100
AcDbLine
 10
709.4000830860875
 20
338.7675538791127
 30
0.0
 11
603.7296830860875
 21
327.2402538791127
 31
0.0
  0
LINE
  5
73E
330
1A
100
AcDbEntity
  8
SEIHIN
  6
CONTINUOUS
100
AcDbLine
 10
684.1979830860875
 20
340.0176538791126
 30
0.0
 11
603.7296830860875
 21
331.2395538791126
 31
0.0
  0
LINE
  5
73F
330
1A
100
AcDbEntity
  8
SEIHIN
  6
CONTINUOUS
100
AcDbLine
 10
693.3617830860874
 20
340.0175538791128
 30
0.0
 11
603.7296830860875
 21
330.2398538791128
 31
0.0
  0
LINE
  5
740
330
1A
100
AcDbEntity
  8
SEIHIN
  6
CONTINUOUS
100
AcDbLine
 10
706.9847830860874
 20
340.0175538791128
 30
0.0
 11
601.5646830860876
 21
328.5174538791127
 31
0.0
  0
LINE
  5
741
330
1A
100
AcDbEntity
  8
SEIHIN
  6
CONTINUOUS
100
AcDbLine
 10
711.5651830860874
 20
340.0169538791127
 30
0.0
 11
601.5646830860876
 21
328.0177538791129
 31
0.0
  0
LINE
  5
742
330
1A
100
AcDbEntity
  8
SEIHIN
  6
CONTINUOUS
100
AcDbLine
 10
674.9084830860875
 20
340.0176538791126
 30
0.0
 11
601.5646830860876
 21
332.0171538791127
 31
0.0
  0
LINE
  5
743
330
1A
100
AcDbEntity
  8
SEIHIN
  6
CONTINUOUS
100
AcDbLine
 10
658.5650830860875
 20
376.0178538791127
 30
0.0
 11
678.4650830860873
 21
376.0176538791127
 31
0.0
  0
LINE
  5
744
330
1A
100
AcDbEntity
  8
SEIHIN
  6
CONTINUOUS
100
AcDbLine
 10
656.5648830860875
 20
344.0177538791128
 30
0.0
 11
709.3408830860876
 21
344.0175538791128
 31
0.0
  0
LINE
  5
745
330
1A
100
AcDbEntity
  8
SEIHIN
  6
CONTINUOUS
100
AcDbLine
 10
656.5650830860873
 20
379.0178538791126
 30
0.0
 11
702.4816830860872
 21
379.0175538791128
 31
0.0
  0
LINE
  5
746
330
1A
100
AcDbEntity
  8
SEIHIN
  6
CONTINUOUS
100
AcDbLine
 10
656.5648830860875
 20
343.0177538791129
 30
0.0
 11
721.5649830860873
 21
343.0174538791127
 31
0.0
  0
LINE
  5
747
330
1A
100
AcDbEntity
  8
SEIHIN
  6
CONTINUOUS
100
AcDbLine
 10
656.5648830860875
 20
342.0177538791128
 30
0.0
 11
721.5649830860873
 21
342.0174538791128
 31
0.0
  0
LINE
  5
74A
330
1A
100
AcDbEntity
  8
SEIHIN
  6
CONTINUOUS
100
AcDbLine
 10
709.4000830860875
 20
313.7707538791128
 30
0.0
 11
656.6621830860874
 21
308.0177538791128
 31
0.0
  0
LINE
  5
74B
330
1A
100
AcDbEntity
  8
SEIHIN
  6
CONTINUOUS
100
AcDbLine
 10
709.4000830860875
 20
314.7704538791129
 30
0.0
 11
647.4983830860876
 21
308.0177538791128
 31
0.0
  0
LINE
  5
74C
330
1A
100
AcDbEntity
  8
SEIHIN
  6
CONTINUOUS
100
AcDbLine
 10
711.5651830860874
 20
316.0198538791128
 30
0.0
 11
638.2060830860873
 21
308.0176538791127
 31
0.0
  0
LINE
  5
74D
330
1A
100
AcDbEntity
  8
SEIHIN
  6
CONTINUOUS
100
AcDbLine
 10
711.5651830860874
 20
316.5206538791128
 30
0.0
 11
633.6204830860877
 21
308.0178538791127
 31
0.0
  0
LINE
  5
74E
330
1A
100
AcDbEntity
  8
SEIHIN
  6
CONTINUOUS
100
AcDbLine
 10
711.5651830860874
 20
316.0204538791128
 30
0.0
 11
638.2026830860874
 21
308.0178538791127
 31
0.0
  0
LINE
  5
74F
330
1A
100
AcDbEntity
  8
SEIHIN
  6
CONTINUOUS
100
AcDbLine
 10
709.4000830860875
 20
317.7706538791128
 30
0.0
 11
619.9969830860875
 21
308.0178538791127
 31
0.0
  0
LINE
  5
750
330
1A
100
AcDbEntity
  8
SEIHIN
  6
CONTINUOUS
100
AcDbLine
 10
709.4000830860875
 20
318.7703538791126
 30
0.0
 11
610.8301830860873
 21
308.0176538791127
 31
0.0
  0
LINE
  5
751
330
1A
100
AcDbEntity
  8
SEIHIN
  6
CONTINUOUS
100
AcDbLine
 10
711.5651830860874
 20
320.0197538791128
 30
0.0
 11
601.5646830860876
 21
308.0205538791128
 31
0.0
  0
LINE
  5
752
330
1A
100
AcDbEntity
  8
SEIHIN
  6
CONTINUOUS
100
AcDbLine
 10
709.4000830860875
 20
322.7702538791128
 30
0.0
 11
603.7296830860875
 21
311.2429538791127
 31
0.0
  0
LINE
  5
753
330
1A
100
AcDbEntity
  8
SEIHIN
  6
CONTINUOUS
100
AcDbLine
 10
709.4000830860875
 20
321.7705538791127
 30
0.0
 11
603.7296830860875
 21
310.2432538791128
 31
0.0
  0
LINE
  5
754
330
1A
100
AcDbEntity
  8
SEIHIN
  6
CONTINUOUS
100
AcDbLine
 10
711.5651830860874
 20
320.5205538791128
 30
0.0
 11
601.5646830860876
 21
308.5207538791128
 31
0.0
  0
LINE
  5
755
330
1A
100
AcDbEntity
  8
SEIHIN
  6
CONTINUOUS
100
AcDbLine
 10
711.5651830860874
 20
320.0203538791126
 30
0.0
 11
601.5646830860876
 21
308.0211538791128
 31
0.0
  0
LINE
  5
756
330
1A
100
AcDbEntity
  8
SEIHIN
  6
CONTINUOUS
100
AcDbLine
 10
709.4000830860875
 20
325.7698538791128
 30
0.0
 11
603.7296830860875
 21
314.2425538791128
 31
0.0
  0
LINE
  5
757
330
1A
100
AcDbEntity
  8
SEIHIN
  6
CONTINUOUS
100
AcDbLine
 10
711.5651830860874
 20
324.5198538791127
 30
0.0
 11
601.5646830860876
 21
312.5201538791127
 31
0.0
  0
LINE
  5
758
330
1A
100
AcDbEntity
  8
SEIHIN
  6
CONTINUOUS
100
AcDbLine
 10
711.5651830860874
 20
324.0196538791127
 30
0.0
 11
601.5646830860876
 21
312.0204538791128
 31
0.0
  0
LINE
  5
759
330
1A
100
AcDbEntity
  8
SEIHIN
  6
CONTINUOUS
100
AcDbLine
 10
656.5646830860876
 20
308.0177538791128
 30
0.0
 11
711.5651830860874
 21
308.0175538791128
 31
0.0
  0
LINE
  5
75A
330
1A
100
AcDbEntity
  8
SEIHIN
  6
CONTINUOUS
100
AcDbLine
 10
656.5646830860876
 20
307.0177538791128
 30
0.0
 11
709.4000830860875
 21
307.0175538791128
 31
0.0
  0
LINE
  5
75B
330
1A
100
AcDbEntity
  8
SEIHIN
  6
CONTINUOUS
100
AcDbLine
 10
709.4000830860875
 20
326.7695538791128
 30
0.0
 11
603.7296830860875
 21
315.2422538791128
 31
0.0
  0
LINE
  5
75C
330
1A
100
AcDbEntity
  8
SEIHIN
  6
CONTINUOUS
100
AcDbLine
 10
709.4000830860875
 20
330.7688538791128
 30
0.0
 11
603.7296830860875
 21
319.2415538791128
 31
0.0
  0
LINE
  5
75D
330
1A
100
AcDbEntity
  8
SEIHIN
  6
CONTINUOUS
100
AcDbLine
 10
709.4000830860875
 20
329.7691538791128
 30
0.0
 11
603.7296830860875
 21
318.2418538791127
 31
0.0
  0
LINE
  5
75E
330
1A
100
AcDbEntity
  8
SEIHIN
  6
CONTINUOUS
100
AcDbLine
 10
711.5651830860874
 20
328.5192538791127
 30
0.0
 11
601.5646830860876
 21
316.5194538791128
 31
0.0
  0
LINE
  5
75F
330
1A
100
AcDbEntity
  8
SEIHIN
  6
CONTINUOUS
100
AcDbLine
 10
711.5651830860874
 20
328.0189538791128
 30
0.0
 11
601.5646830860876
 21
316.0197538791128
 31
0.0
  0
LINE
  5
760
330
1A
100
AcDbEntity
  8
SEIHIN
  6
CONTINUOUS
100
AcDbLine
 10
709.4000830860875
 20
334.7682538791128
 30
0.0
 11
603.7296830860875
 21
323.2409538791126
 31
0.0
  0
LINE
  5
761
330
1A
100
AcDbEntity
  8
SEIHIN
  6
CONTINUOUS
100
AcDbLine
 10
709.4000830860875
 20
333.7685538791126
 30
0.0
 11
603.7296830860875
 21
322.2412538791127
 31
0.0
  0
LINE
  5
762
330
1A
100
AcDbEntity
  8
SEIHIN
  6
CONTINUOUS
100
AcDbLine
 10
711.5651830860874
 20
332.5185538791127
 30
0.0
 11
601.5646830860876
 21
320.5188538791128
 31
0.0
  0
LINE
  5
763
330
1A
100
AcDbEntity
  8
SEIHIN
  6
CONTINUOUS
100
AcDbLine
 10
711.5651830860874
 20
332.0182538791129
 30
0.0
 11
601.5646830860876
 21
320.0191538791127
 31
0.0
  0
LINE
  5
764
330
1A
100
AcDbEntity
  8
SEIHIN
  6
CONTINUOUS
100
AcDbLine
 10
709.4000830860875
 20
337.7678538791128
 30
0.0
 11
603.7296830860875
 21
326.2405538791128
 31
0.0
  0
LINE
  5
765
330
1A
100
AcDbEntity
  8
SEIHIN
  6
CONTINUOUS
100
AcDbLine
 10
711.5651830860874
 20
336.5178538791127
 30
0.0
 11
601.5646830860876
 21
324.5181538791129
 31
0.0
  0
LINE
  5
766
330
1A
100
AcDbEntity
  8
SEIHIN
  6
CONTINUOUS
100
AcDbLine
 10
711.5651830860874
 20
336.0176538791126
 30
0.0
 11
601.5646830860876
 21
324.0184538791128
 31
0.0
  0
ARC
  5
767
330
1A
100
AcDbEntity
  8
SEIHIN
  6
CONTINUOUS
100
AcDbCircle
 10
389.0837742696043
 20
406.2540915129985
 30
0.0
 40
45.75008462347883
100
AcDbArc
 50
0.0000939428829537
 51
23.16893661452281
  0
LINE
  5
768
330
1A
100
AcDbEntity
  8
SEIHIN
  6
CONTINUOUS
100
AcDbLine
 10
407.0838588930215
 20
406.2540665254143
 30
0.0
 11
407.0839588930216
 21
424.2540665254145
 31
0.0
  0
LINE
  5
769
330
1A
100
AcDbEntity
  8
SEIHIN
  6
CONTINUOUS
100
AcDbLine
 10
411.0838588930215
 20
406.2540665254143
 30
0.0
 11
411.0839588930216
 21
424.2540665254145
 31
0.0
  0
LINE
  5
76A
330
1A
100
AcDbEntity
  8
SEIHIN
  6
CONTINUOUS
100
AcDbLine
 10
371.0837588930215
 20
406.2541665254145
 30
0.0
 11
371.0837588930215
 21
424.2541665254144
 31
0.0
  0
LINE
  5
76B
330
1A
100
AcDbEntity
  8
SEIHIN
  6
CONTINUOUS
100
AcDbLine
 10
367.0837588930215
 20
406.2541665254145
 30
0.0
 11
367.0837588930215
 21
424.2541665254144
 31
0.0
  0
LINE
  5
76C
330
1A
100
AcDbEntity
  8
CENTER_L
 48
5.0
100
AcDbLine
 10
389.0839588930215
 20
485.3484665254145
 30
0.0
 11
389.0836588930215
 21
328.5841665254145
 31
0.0
  0
ARC
  5
76D
330
1A
100
AcDbEntity
  8
SEIHIN
  6
CONTINUOUS
100
AcDbCircle
 10
389.0836908850513
 20
406.2542272611184
 30
0.0
 40
49.75003583648032
100
AcDbArc
 50
297.6960452476876
 51
302.3039778874657
  0
ARC
  5
76E
330
1A
100
AcDbEntity
  8
SEIHIN
  6
CONTINUOUS
100
AcDbCircle
 10
389.0836908850513
 20
406.2542272611184
 30
0.0
 40
49.75003583648032
100
AcDbArc
 50
297.6960452476876
 51
302.3039778874657
  0
ARC
  5
76F
330
1A
100
AcDbEntity
  8
SEIHIN
  6
CONTINUOUS
100
AcDbCircle
 10
389.0837088929476
 20
406.2542165254887
 30
0.0
 40
45.75004921236928
100
AcDbArc
 50
298.7425582266943
 51
331.2574417733051
  0
LINE
  5
770
330
1A
100
AcDbEntity
  8
SEIHIN
  6
CONTINUOUS
100
AcDbLine
 10
411.0837588930214
 20
388.2542665254145
 30
0.0
 11
431.1439588930215
 21
388.2541665254144
 31
0.0
  0
LINE
  5
771
330
1A
100
AcDbEntity
  8
SEIHIN
  6
CONTINUOUS
100
AcDbLine
 10
411.0837588930214
 20
384.2542665254145
 30
0.0
 11
429.1969588930215
 21
384.2541665254143
 31
0.0
  0
LINE
  5
772
330
1A
100
AcDbEntity
  8
SEIHIN
  6
CONTINUOUS
100
AcDbLine
 10
412.2065588930216
 20
362.2042665254145
 30
0.0
 11
411.7061588930216
 21
363.0710665254145
 31
0.0
  0
LINE
  5
773
330
1A
100
AcDbEntity
  8
SEIHIN
  6
CONTINUOUS
100
AcDbLine
 10
412.2065588930216
 20
362.2042665254145
 30
0.0
 11
411.7061588930216
 21
363.0710665254145
 31
0.0
  0
ARC
  5
774
330
1A
100
AcDbEntity
  8
SEIHIN
  6
CONTINUOUS
100
AcDbCircle
 10
389.0837835996574
 20
406.2542522610431
 30
0.0
 40
49.74994930385106
100
AcDbArc
 50
237.696018102967
 51
242.3039587618807
  0
LINE
  5
775
330
1A
100
AcDbEntity
  8
SEIHIN
  6
CONTINUOUS
100
AcDbLine
 10
365.9607588930215
 20
362.2043665254143
 30
0.0
 11
366.4612588930215
 21
363.0711665254144
 31
0.0
  0
ARC
  5
776
330
1A
100
AcDbEntity
  8
SEIHIN
  6
CONTINUOUS
100
AcDbCircle
 10
389.0838142331736
 20
406.2542551813682
 30
0.0
 40
45.74998865598722
100
AcDbArc
 50
246.8310387487782
 51
269.9999306938156
  0
ARC
  5
777
330
1A
100
AcDbEntity
  8
SEIHIN
  6
CONTINUOUS
100
AcDbCircle
 10
389.0837035528694
 20
406.2542551813677
 30
0.0
 40
45.7499886559868
100
AcDbArc
 50
270.0000693061844
 51
293.1689612512218
  0
ARC
  5
778
330
1A
100
AcDbEntity
  8
SEIHIN
  6
CONTINUOUS
100
AcDbCircle
 10
389.0837588930216
 20
406.2542665254133
 30
0.0
 40
49.75001724662916
100
AcDbArc
 50
267.696032012631
 51
272.3039679873689
  0
LINE
  5
779
330
1A
100
AcDbEntity
  8
SEIHIN
  6
CONTINUOUS
100
AcDbLine
 10
387.0835588930215
 20
356.5444665254143
 30
0.0
 11
387.0835588930215
 21
357.5452665254144
 31
0.0
  0
LINE
  5
77A
330
1A
100
AcDbEntity
  8
SEIHIN
  6
CONTINUOUS
100
AcDbLine
 10
391.0835588930217
 20
356.5444665254143
 30
0.0
 11
391.0835588930217
 21
357.5452665254144
 31
0.0
  0
LINE
  5
77B
330
1A
100
AcDbEntity
  8
SEIHIN
  6
CONTINUOUS
100
AcDbLine
 10
389.0837588930216
 20
388.2542665254145
 30
0.0
 11
371.0837588930215
 21
388.2542665254145
 31
0.0
  0
LINE
  5
77C
330
1A
100
AcDbEntity
  8
SEIHIN
  6
CONTINUOUS
100
AcDbLine
 10
389.0837588930216
 20
384.2542665254145
 30
0.0
 11
371.0837588930215
 21
384.2542665254145
 31
0.0
  0
ARC
  5
77D
330
1A
100
AcDbEntity
  8
SEIHIN
  6
CONTINUOUS
100
AcDbCircle
 10
389.0837588930217
 20
406.2542665254142
 30
0.0
 40
45.74998132906725
100
AcDbArc
 50
208.7425334351499
 51
241.2574665648492
  0
LINE
  5
77E
330
1A
100
AcDbEntity
  8
SEIHIN
  6
CONTINUOUS
100
AcDbLine
 10
367.0837588930215
 20
384.2542665254145
 30
0.0
 11
348.9706588930216
 21
384.2543665254143
 31
0.0
  0
LINE
  5
77F
330
1A
100
AcDbEntity
  8
SEIHIN
  6
CONTINUOUS
100
AcDbLine
 10
362.4966588930215
 20
364.2044665254143
 30
0.0
 11
362.9970588930215
 21
365.0711665254143
 31
0.0
  0
LINE
  5
780
330
1A
100
AcDbEntity
  8
SEIHIN
  6
CONTINUOUS
100
AcDbLine
 10
347.0337588930216
 20
379.6674665254144
 30
0.0
 11
347.9005588930216
 21
380.1678665254144
 31
0.0
  0
LINE
  5
781
330
1A
100
AcDbEntity
  8
SEIHIN
  6
CONTINUOUS
100
AcDbLine
 10
371.0837588930215
 20
384.2542665254145
 30
0.0
 11
371.0837588930215
 21
364.1940665254145
 31
0.0
  0
LINE
  5
782
330
1A
100
AcDbEntity
  8
SEIHIN
  6
CONTINUOUS
100
AcDbLine
 10
367.0837588930215
 20
384.2542665254145
 30
0.0
 11
367.0837588930215
 21
366.1411665254143
 31
0.0
  0
LINE
  5
783
330
1A
100
AcDbEntity
  8
SEIHIN
  6
CONTINUOUS
100
AcDbLine
 10
367.0837588930215
 20
388.2542665254145
 30
0.0
 11
347.0235588930215
 21
388.2543665254143
 31
0.0
  0
LINE
  5
784
330
1A
100
AcDbEntity
  8
SEIHIN
  6
CONTINUOUS
100
AcDbLine
 10
371.0837588930215
 20
406.2542665254144
 30
0.0
 11
371.0837588930215
 21
388.2542665254145
 31
0.0
  0
LINE
  5
785
330
1A
100
AcDbEntity
  8
SEIHIN
  6
CONTINUOUS
100
AcDbLine
 10
367.0837588930215
 20
406.2542665254144
 30
0.0
 11
367.0837588930215
 21
388.2542665254145
 31
0.0
  0
LINE
  5
786
330
1A
100
AcDbEntity
  8
SEIHIN
  6
CONTINUOUS
100
AcDbLine
 10
389.0837588930216
 20
384.2542665254145
 30
0.0
 11
407.0837588930215
 21
384.2542665254145
 31
0.0
  0
LINE
  5
787
330
1A
100
AcDbEntity
  8
SEIHIN
  6
CONTINUOUS
100
AcDbLine
 10
407.0837588930215
 20
384.2542665254145
 30
0.0
 11
407.0837588930215
 21
364.1940665254145
 31
0.0
  0
LINE
  5
788
330
1A
100
AcDbEntity
  8
SEIHIN
  6
CONTINUOUS
100
AcDbLine
 10
411.0837588930214
 20
384.2542665254145
 30
0.0
 11
411.0837588930214
 21
366.1410665254145
 31
0.0
  0
LINE
  5
789
330
1A
100
AcDbEntity
  8
SEIHIN
  6
CONTINUOUS
100
AcDbLine
 10
389.0837588930216
 20
388.2542665254145
 30
0.0
 11
407.0837588930215
 21
388.2542665254145
 31
0.0
  0
LINE
  5
78A
330
1A
100
AcDbEntity
  8
SEIHIN
  6
CONTINUOUS
100
AcDbLine
 10
411.0838588930215
 20
406.2542665254144
 30
0.0
 11
411.0837588930214
 21
388.2542665254145
 31
0.0
  0
LINE
  5
78B
330
1A
100
AcDbEntity
  8
SEIHIN
  6
CONTINUOUS
100
AcDbLine
 10
407.0838588930215
 20
406.2542665254144
 30
0.0
 11
407.0837588930215
 21
388.2542665254145
 31
0.0
  0
LINE
  5
78C
330
1A
100
AcDbEntity
  8
SEIHIN
  6
CONTINUOUS
100
AcDbLine
 10
415.6706588930215
 20
364.2042665254145
 30
0.0
 11
415.1702588930215
 21
365.0709665254143
 31
0.0
  0
LINE
  5
78D
330
1A
100
AcDbEntity
  8
SEIHIN
  6
CONTINUOUS
100
AcDbLine
 10
415.6706588930215
 20
364.2042665254145
 30
0.0
 11
415.1702588930215
 21
365.0709665254143
 31
0.0
  0
LINE
  5
78E
330
1A
100
AcDbEntity
  8
SEIHIN
  6
CONTINUOUS
100
AcDbLine
 10
433.1337588930215
 20
383.1313665254143
 30
0.0
 11
432.2669588930216
 21
383.6317665254145
 31
0.0
  0
LINE
  5
78F
330
1A
100
AcDbEntity
  8
SEIHIN
  6
CONTINUOUS
100
AcDbLine
 10
431.1336588930216
 20
379.6672665254145
 30
0.0
 11
430.2669588930217
 21
380.1676665254144
 31
0.0
  0
ARC
  5
790
330
1A
100
AcDbEntity
  8
SEIHIN
  6
CONTINUOUS
100
AcDbCircle
 10
389.0840188997583
 20
406.2547168679449
 30
0.0
 40
49.75002250531732
100
AcDbArc
 50
327.6953551906552
 51
332.3031892476908
  0
ARC
  5
791
330
1A
100
AcDbEntity
  8
SEIHIN
  6
CONTINUOUS
100
AcDbCircle
 10
389.0838005653784
 20
406.254469815313
 30
0.0
 40
45.75005832864849
100
AcDbArc
 50
336.8307383254789
 51
359.999620170295
  0
LINE
  5
792
330
1A
100
AcDbEntity
  8
SEIHIN
  6
CONTINUOUS
100
AcDbLine
 10
438.7935588930215
 20
408.2541665254145
 30
0.0
 11
437.7927588930214
 21
408.2541665254145
 31
0.0
  0
LINE
  5
793
330
1A
100
AcDbEntity
  8
SEIHIN
  6
CONTINUOUS
100
AcDbLine
 10
438.7935588930215
 20
404.2541665254145
 30
0.0
 11
437.7927588930214
 21
404.2541665254145
 31
0.0
  0
ARC
  5
794
330
1A
100
AcDbEntity
  8
SEIHIN
  6
CONTINUOUS
100
AcDbCircle
 10
389.0837588928208
 20
406.2541665254145
 30
0.0
 40
49.75001724683068
100
AcDbArc
 50
357.6960320126403
 51
2.303967987359639
  0
ARC
  5
795
330
1A
100
AcDbEntity
  8
SEIHIN
  6
CONTINUOUS
100
AcDbCircle
 10
389.083809186341
 20
406.2542374884603
 30
0.0
 40
49.74999926350189
100
AcDbArc
 50
57.69602041789318
 51
62.30395644695219
  0
ARC
  5
796
330
1A
100
AcDbEntity
  8
SEIHIN
  6
CONTINUOUS
100
AcDbCircle
 10
389.0837588930215
 20
406.2541665254145
 30
0.0
 40
45.75006900803528
100
AcDbArc
 50
28.74247321211525
 51
61.25752678788458
  0
LINE
  5
797
330
1A
100
AcDbEntity
  8
SEIHIN
  6
CONTINUOUS
100
AcDbLine
 10
411.0839588930216
 20
424.2540665254145
 30
0.0
 11
431.1441588930216
 21
424.2540665254145
 31
0.0
  0
LINE
  5
798
330
1A
100
AcDbEntity
  8
SEIHIN
  6
CONTINUOUS
100
AcDbLine
 10
411.0839588930216
 20
428.2540665254143
 30
0.0
 11
429.1970588930216
 21
428.2540665254143
 31
0.0
  0
LINE
  5
799
330
1A
100
AcDbEntity
  8
SEIHIN
  6
CONTINUOUS
100
AcDbLine
 10
387.0839588930215
 20
455.9640665254143
 30
0.0
 11
387.0839588930215
 21
454.9631665254144
 31
0.0
  0
LINE
  5
79A
330
1A
100
AcDbEntity
  8
SEIHIN
  6
CONTINUOUS
100
AcDbLine
 10
391.0839588930215
 20
455.9640665254143
 30
0.0
 11
391.0839588930215
 21
454.9631665254144
 31
0.0
  0
LINE
  5
79B
330
1A
100
AcDbEntity
  8
SEIHIN
  6
CONTINUOUS
100
AcDbLine
 10
389.0837588930216
 20
424.2541665254144
 30
0.0
 11
371.0837588930215
 21
424.2541665254144
 31
0.0
  0
LINE
  5
79C
330
1A
100
AcDbEntity
  8
SEIHIN
  6
CONTINUOUS
100
AcDbLine
 10
389.0837588930216
 20
428.2541665254144
 30
0.0
 11
371.0837588930215
 21
428.2541665254144
 31
0.0
  0
ARC
  5
79D
330
1A
100
AcDbEntity
  8
SEIHIN
  6
CONTINUOUS
100
AcDbCircle
 10
389.0836859552576
 20
406.2541515742672
 30
0.0
 40
45.75001495147405
100
AcDbArc
 50
89.99978341856271
 51
113.1686361906886
  0
LINE
  5
79E
330
1A
100
AcDbEntity
  8
SEIHIN
  6
CONTINUOUS
100
AcDbLine
 10
371.0837588930215
 20
428.2541665254144
 30
0.0
 11
371.0837588930215
 21
448.3143665254143
 31
0.0
  0
LINE
  5
79F
330
1A
100
AcDbEntity
  8
SEIHIN
  6
CONTINUOUS
100
AcDbLine
 10
367.0837588930215
 20
428.2541665254144
 30
0.0
 11
367.0837588930215
 21
446.3672665254145
 31
0.0
  0
ARC
  5
7A0
330
1A
100
AcDbEntity
  8
SEIHIN
  6
CONTINUOUS
100
AcDbCircle
 10
389.0837481636356
 20
406.254155796081
 30
0.0
 40
45.75002516868364
100
AcDbArc
 50
118.7423451628637
 51
151.2573385156816
  0
LINE
  5
7A1
330
1A
100
AcDbEntity
  8
SEIHIN
  6
CONTINUOUS
100
AcDbLine
 10
367.0837588930215
 20
424.2541665254144
 30
0.0
 11
347.0235588930215
 21
424.2541665254144
 31
0.0
  0
LINE
  5
7A2
330
1A
100
AcDbEntity
  8
SEIHIN
  6
CONTINUOUS
100
AcDbLine
 10
367.0837588930215
 20
428.2541665254144
 30
0.0
 11
348.9706588930216
 21
428.2541665254144
 31
0.0
  0
ARC
  5
7A3
330
1A
100
AcDbEntity
  8
SEIHIN
  6
CONTINUOUS
100
AcDbCircle
 10
389.0838269009946
 20
406.2543057897094
 30
0.0
 40
49.75003583648265
100
AcDbArc
 50
117.6960452476898
 51
122.3039778874679
  0
LINE
  5
7A4
330
1A
100
AcDbEntity
  8
SEIHIN
  6
CONTINUOUS
100
AcDbLine
 10
347.0339588930215
 20
432.8413665254144
 30
0.0
 11
347.9006588930216
 21
432.3409665254145
 31
0.0
  0
LINE
  5
7A5
330
1A
100
AcDbEntity
  8
SEIHIN
  6
CONTINUOUS
100
AcDbLine
 10
362.4969588930216
 20
448.3042665254143
 30
0.0
 11
362.9973588930214
 21
447.4375665254144
 31
0.0
  0
LINE
  5
7A6
330
1A
100
AcDbEntity
  8
SEIHIN
  6
CONTINUOUS
100
AcDbLine
 10
365.9610588930216
 20
450.3042665254145
 30
0.0
 11
366.4615588930216
 21
449.4375665254145
 31
0.0
  0
LINE
  5
7A7
330
1A
100
AcDbEntity
  8
SEIHIN
  6
CONTINUOUS
100
AcDbLine
 10
407.0839588930216
 20
428.2540665254143
 30
0.0
 11
407.0839588930216
 21
448.3143665254143
 31
0.0
  0
LINE
  5
7A8
330
1A
100
AcDbEntity
  8
SEIHIN
  6
CONTINUOUS
100
AcDbLine
 10
411.0839588930216
 20
428.2540665254143
 30
0.0
 11
411.0839588930216
 21
446.3672665254145
 31
0.0
  0
LINE
  5
7A9
330
1A
100
AcDbEntity
  8
SEIHIN
  6
CONTINUOUS
100
AcDbLine
 10
389.0838588930216
 20
424.2541665254144
 30
0.0
 11
407.0839588930216
 21
424.2540665254145
 31
0.0
  0
LINE
  5
7AA
330
1A
100
AcDbEntity
  8
SEIHIN
  6
CONTINUOUS
100
AcDbLine
 10
389.0838588930216
 20
428.2541665254144
 30
0.0
 11
407.0839588930216
 21
428.2540665254143
 31
0.0
  0
ARC
  5
7AB
330
1A
100
AcDbEntity
  8
SEIHIN
  6
CONTINUOUS
100
AcDbCircle
 10
389.0839277982982
 20
406.254131901998
 30
0.0
 40
45.75003462372815
100
AcDbArc
 50
66.83136885955376
 51
90.00021153119478
  0
LINE
  5
7AC
330
1A
100
AcDbEntity
  8
SEIHIN
  6
CONTINUOUS
100
AcDbLine
 10
412.2067588930216
 20
450.3041665254144
 30
0.0
 11
411.7063588930216
 21
449.4373665254144
 31
0.0
  0
ARC
  5
7AD
330
1A
100
AcDbEntity
  8
SEIHIN
  6
CONTINUOUS
100
AcDbCircle
 10
389.0838588930216
 20
406.2542665252134
 30
0.0
 40
49.75001724683092
100
AcDbArc
 50
87.69603201264038
 51
92.30396798735963
  0
ARC
  5
7AE
330
1A
100
AcDbEntity
  8
SEIHIN
  6
CONTINUOUS
100
AcDbCircle
 10
389.0837981573176
 20
406.2541985174441
 30
0.0
 40
49.75003583648032
100
AcDbArc
 50
27.69604524768767
 51
32.30397788746576
  0
LINE
  5
7AF
330
1A
100
AcDbEntity
  8
SEIHIN
  6
CONTINUOUS
100
AcDbLine
 10
433.1337588930215
 20
429.3769665254144
 30
0.0
 11
432.2670588930217
 21
428.8765665254144
 31
0.0
  0
LINE
  5
7B0
330
1A
100
AcDbEntity
  8
SEIHIN
  6
CONTINUOUS
100
AcDbLine
 10
415.6708588930215
 20
448.3041665254143
 30
0.0
 11
415.1704588930216
 21
447.4373665254143
 31
0.0
  0
LINE
  5
7B1
330
1A
100
AcDbEntity
  8
SEIHIN
  6
CONTINUOUS
100
AcDbLine
 10
431.1337588930214
 20
432.8410665254145
 30
0.0
 11
430.2670588930216
 21
432.3406665254145
 31
0.0
  0
LINE
  5
7B2
330
1A
100
AcDbEntity
  8
SEIHIN
  6
CONTINUOUS
100
AcDbLine
 10
613.3648830860875
 20
344.0179538791128
 30
0.0
 11
613.3650830860877
 21
376.0179538791128
 31
0.0
  0
LINE
  5
7B3
330
1A
100
AcDbEntity
  8
SEIHIN
  6
CONTINUOUS
100
AcDbLine
 10
615.3648830860874
 20
344.0179538791128
 30
0.0
 11
615.3650830860875
 21
376.0179538791128
 31
0.0
  0
LINE
  5
7B4
330
1A
100
AcDbEntity
  8
SEIHIN
  6
CONTINUOUS
100
AcDbLine
 10
616.9648830860876
 20
344.0179538791128
 30
0.0
 11
616.9649830860874
 21
376.0179538791128
 31
0.0
  0
LINE
  5
7B5
330
1A
100
AcDbEntity
  8
SEIHIN
  6
CONTINUOUS
100
AcDbLine
 10
630.4648830860876
 20
344.0178538791128
 30
0.0
 11
630.4649830860876
 21
376.0178538791127
 31
0.0
  0
LINE
  5
7B6
330
1A
100
AcDbEntity
  8
SEIHIN
  6
CONTINUOUS
100
AcDbLine
 10
633.9648830860876
 20
344.0178538791128
 30
0.0
 11
633.9649830860876
 21
376.0178538791127
 31
0.0
  0
LINE
  5
7B7
330
1A
100
AcDbEntity
  8
SEIHIN
  6
CONTINUOUS
100
AcDbLine
 10
634.6648830860874
 20
344.0178538791128
 30
0.0
 11
634.6649830860876
 21
376.0178538791127
 31
0.0
  0
LINE
  5
7B8
330
1A
100
AcDbEntity
  8
SEIHIN
  6
CONTINUOUS
100
AcDbLine
 10
654.5648830860873
 20
344.0177538791128
 30
0.0
 11
654.5649830860873
 21
376.0177538791128
 31
0.0
  0
LINE
  5
7B9
330
1A
100
AcDbEntity
  8
SEIHIN
  6
CONTINUOUS
100
AcDbLine
 10
658.5648830860873
 20
344.0177538791128
 30
0.0
 11
658.5650830860875
 21
376.0177538791128
 31
0.0
  0
LINE
  5
7BA
330
1A
100
AcDbEntity
  8
SEIHIN
  6
CONTINUOUS
100
AcDbLine
 10
607.6533830860876
 20
376.1891538791128
 30
0.0
 11
605.9765830860874
 21
346.8468538791126
 31
0.0
  0
LINE
  5
7BB
330
1A
100
AcDbEntity
  8
SEIHIN
  6
CONTINUOUS
100
AcDbLine
 10
607.8116830860876
 20
343.9038538791128
 30
0.0
 11
609.5929830860875
 21
375.0749538791128
 31
0.0
  0
LINE
  5
7BC
330
1A
100
AcDbEntity
  8
CENTER_L
 48
5.0
100
AcDbLine
 10
656.5649830860875
 20
390.6934538791128
 30
0.0
 11
656.5648830860875
 21
301.2769538791127
 31
0.0
  0
LINE
  5
7BD
330
1A
100
AcDbEntity
  8
SEIHIN
  6
CONTINUOUS
100
AcDbLine
 10
595.5648830860875
 20
344.0179538791128
 30
0.0
 11
591.5648830860875
 21
343.0180538791128
 31
0.0
  0
LINE
  5
7BE
330
1A
100
AcDbEntity
  8
SEIHIN
  6
CONTINUOUS
100
AcDbLine
 10
656.5648830860875
 20
343.0177538791129
 30
0.0
 11
591.5648830860875
 21
343.0180538791128
 31
0.0
  0
LINE
  5
7BF
330
1A
100
AcDbEntity
  8
SEIHIN
  6
CONTINUOUS
100
AcDbLine
 10
656.5648830860875
 20
342.0177538791128
 30
0.0
 11
591.5648830860875
 21
342.0180538791127
 31
0.0
  0
LINE
  5
7C0
330
1A
100
AcDbEntity
  8
SEIHIN
  6
CONTINUOUS
100
AcDbLine
 10
591.5648830860875
 20
342.0180538791127
 30
0.0
 11
591.5648830860875
 21
343.0180538791128
 31
0.0
  0
LINE
  5
7C4
330
1A
100
AcDbEntity
  8
SEIHIN
  6
CONTINUOUS
100
AcDbLine
 10
601.5646830860876
 20
340.0179538791128
 30
0.0
 11
656.5648830860875
 21
340.0177538791128
 31
0.0
  0
LINE
  5
7C5
330
1A
100
AcDbEntity
  8
SEIHIN
  6
CONTINUOUS
100
AcDbLine
 10
647.5375830860875
 20
340.0177538791128
 30
0.0
 11
603.7296830860875
 21
335.2389538791128
 31
0.0
  0
LINE
  5
7C6
330
1A
100
AcDbEntity
  8
SEIHIN
  6
CONTINUOUS
100
AcDbLine
 10
656.7013830860876
 20
340.0177538791128
 30
0.0
 11
603.7296830860875
 21
334.2392538791127
 31
0.0
  0
LINE
  5
7C7
330
1A
100
AcDbEntity
  8
SEIHIN
  6
CONTINUOUS
100
AcDbLine
 10
638.2467830860876
 20
340.0178538791128
 30
0.0
 11
601.5646830860876
 21
336.0164538791127
 31
0.0
  0
LINE
  5
7C8
330
1A
100
AcDbEntity
  8
SEIHIN
  6
CONTINUOUS
100
AcDbLine
 10
633.6645830860875
 20
340.0178538791128
 30
0.0
 11
601.5646830860876
 21
336.5161538791128
 31
0.0
  0
LINE
  5
7C9
330
1A
100
AcDbEntity
  8
SEIHIN
  6
CONTINUOUS
100
AcDbLine
 10
656.5648830860875
 20
344.0177538791128
 30
0.0
 11
603.7889830860875
 21
344.0179538791128
 31
0.0
  0
LINE
  5
7CA
330
1A
100
AcDbEntity
  8
SEIHIN
  6
CONTINUOUS
100
AcDbLine
 10
656.5649830860875
 20
307.0176538791128
 30
0.0
 11
603.7295830860876
 21
307.0176538791128
 31
0.0
  0
LINE
  5
7CB
330
1A
100
AcDbEntity
  8
SEIHIN
  6
CONTINUOUS
100
AcDbLine
 10
656.5650830860873
 20
308.0176538791127
 30
0.0
 11
601.5646830860876
 21
308.0176538791127
 31
0.0
  0
LINE
  5
7CC
330
1A
100
AcDbEntity
  8
SEIHIN
  6
CONTINUOUS
100
AcDbLine
 10
603.7296830860875
 20
326.2405538791128
 30
0.0
 11
601.5646830860876
 21
324.5181538791129
 31
0.0
  0
LINE
  5
7CD
330
1A
100
AcDbEntity
  8
SEIHIN
  6
CONTINUOUS
100
AcDbLine
 10
603.7296830860875
 20
314.2425538791128
 30
0.0
 11
601.5646830860876
 21
312.5201538791127
 31
0.0
  0
LINE
  5
7CE
330
1A
100
AcDbEntity
  8
SEIHIN
  6
CONTINUOUS
100
AcDbLine
 10
601.5646830860876
 20
312.0204538791128
 30
0.0
 11
603.7296830860875
 21
311.2429538791127
 31
0.0
  0
LINE
  5
7CF
330
1A
100
AcDbEntity
  8
SEIHIN
  6
CONTINUOUS
100
AcDbLine
 10
603.7296830860875
 20
310.2432538791128
 30
0.0
 11
601.5646830860876
 21
308.5207538791128
 31
0.0
  0
LINE
  5
7D0
330
1A
100
AcDbEntity
  8
SEIHIN
  6
CONTINUOUS
100
AcDbLine
 10
601.5646830860876
 20
308.5207538791128
 30
0.0
 11
601.5646830860876
 21
308.0211538791128
 31
0.0
  0
LINE
  5
7D1
330
1A
100
AcDbEntity
  8
SEIHIN
  6
CONTINUOUS
100
AcDbLine
 10
601.5646830860876
 20
312.5201538791127
 30
0.0
 11
601.5646830860876
 21
312.0204538791128
 31
0.0
  0
LINE
  5
7D2
330
1A
100
AcDbEntity
  8
SEIHIN
  6
CONTINUOUS
100
AcDbLine
 10
603.7296830860875
 20
308.0176538791127
 30
0.0
 11
603.7296830860875
 21
307.0177538791128
 31
0.0
  0
LINE
  5
7D3
330
1A
100
AcDbEntity
  8
SEIHIN
  6
CONTINUOUS
100
AcDbLine
 10
603.7296830860875
 20
311.2429538791127
 30
0.0
 11
603.7296830860875
 21
310.2432538791128
 31
0.0
  0
LINE
  5
7D4
330
1A
100
AcDbEntity
  8
SEIHIN
  6
CONTINUOUS
100
AcDbLine
 10
603.7296830860875
 20
318.2418538791127
 30
0.0
 11
601.5646830860876
 21
316.5194538791128
 31
0.0
  0
LINE
  5
7D5
330
1A
100
AcDbEntity
  8
SEIHIN
  6
CONTINUOUS
100
AcDbLine
 10
601.5646830860876
 20
316.0197538791128
 30
0.0
 11
603.7296830860875
 21
315.2422538791128
 31
0.0
  0
LINE
  5
7D6
330
1A
100
AcDbEntity
  8
SEIHIN
  6
CONTINUOUS
100
AcDbLine
 10
601.5646830860876
 20
320.0191538791127
 30
0.0
 11
603.7296830860875
 21
319.2415538791128
 31
0.0
  0
LINE
  5
7D7
330
1A
100
AcDbEntity
  8
SEIHIN
  6
CONTINUOUS
100
AcDbLine
 10
601.5646830860876
 20
324.0184538791128
 30
0.0
 11
603.7296830860875
 21
323.2409538791126
 31
0.0
  0
LINE
  5
7D8
330
1A
100
AcDbEntity
  8
SEIHIN
  6
CONTINUOUS
100
AcDbLine
 10
603.7296830860875
 20
322.2412538791127
 30
0.0
 11
601.5646830860876
 21
320.5188538791128
 31
0.0
  0
LINE
  5
7D9
330
1A
100
AcDbEntity
  8
SEIHIN
  6
CONTINUOUS
100
AcDbLine
 10
601.5646830860876
 20
316.5194538791128
 30
0.0
 11
601.5646830860876
 21
316.0197538791128
 31
0.0
  0
LINE
  5
7DA
330
1A
100
AcDbEntity
  8
SEIHIN
  6
CONTINUOUS
100
AcDbLine
 10
601.5646830860876
 20
320.5188538791128
 30
0.0
 11
601.5646830860876
 21
320.0191538791127
 31
0.0
  0
LINE
  5
7DB
330
1A
100
AcDbEntity
  8
SEIHIN
  6
CONTINUOUS
100
AcDbLine
 10
601.5646830860876
 20
324.5181538791129
 30
0.0
 11
601.5646830860876
 21
324.0184538791128
 31
0.0
  0
LINE
  5
7DC
330
1A
100
AcDbEntity
  8
SEIHIN
  6
CONTINUOUS
100
AcDbLine
 10
603.7296830860875
 20
319.2415538791128
 30
0.0
 11
603.7296830860875
 21
318.2418538791127
 31
0.0
  0
LINE
  5
7DD
330
1A
100
AcDbEntity
  8
SEIHIN
  6
CONTINUOUS
100
AcDbLine
 10
603.7296830860875
 20
323.2409538791126
 30
0.0
 11
603.7296830860875
 21
322.2412538791127
 31
0.0
  0
LINE
  5
7DE
330
1A
100
AcDbEntity
  8
SEIHIN
  6
CONTINUOUS
100
AcDbLine
 10
603.7296830860875
 20
315.2422538791128
 30
0.0
 11
603.7296830860875
 21
314.2425538791128
 31
0.0
  0
LINE
  5
7DF
330
1A
100
AcDbEntity
  8
SEIHIN
  6
CONTINUOUS
100
AcDbLine
 10
620.0410830860874
 20
340.0178538791128
 30
0.0
 11
603.7296830860875
 21
338.2384538791127
 31
0.0
  0
LINE
  5
7E0
330
1A
100
AcDbEntity
  8
SEIHIN
  6
CONTINUOUS
100
AcDbLine
 10
610.8771830860874
 20
340.0179538791128
 30
0.0
 11
603.7296830860875
 21
339.2382538791126
 31
0.0
  0
LINE
  5
7E1
330
1A
100
AcDbEntity
  8
SEIHIN
  6
CONTINUOUS
100
AcDbLine
 10
603.7296830860875
 20
338.2384538791127
 30
0.0
 11
601.5646830860876
 21
336.5161538791128
 31
0.0
  0
LINE
  5
7E2
330
1A
100
AcDbEntity
  8
SEIHIN
  6
CONTINUOUS
100
AcDbLine
 10
601.5646830860876
 20
328.0177538791129
 30
0.0
 11
603.7296830860875
 21
327.2402538791127
 31
0.0
  0
LINE
  5
7E3
330
1A
100
AcDbEntity
  8
SEIHIN
  6
CONTINUOUS
100
AcDbLine
 10
601.5646830860876
 20
332.0171538791127
 30
0.0
 11
603.7296830860875
 21
331.2395538791126
 31
0.0
  0
LINE
  5
7E4
330
1A
100
AcDbEntity
  8
SEIHIN
  6
CONTINUOUS
100
AcDbLine
 10
603.7296830860875
 20
330.2398538791128
 30
0.0
 11
601.5646830860876
 21
328.5174538791127
 31
0.0
  0
LINE
  5
7E5
330
1A
100
AcDbEntity
  8
SEIHIN
  6
CONTINUOUS
100
AcDbLine
 10
601.5646830860876
 20
336.0164538791127
 30
0.0
 11
603.7296830860875
 21
335.2389538791128
 31
0.0
  0
LINE
  5
7E6
330
1A
100
AcDbEntity
  8
SEIHIN
  6
CONTINUOUS
100
AcDbLine
 10
603.7296830860875
 20
334.2392538791127
 30
0.0
 11
601.5646830860876
 21
332.5168538791128
 31
0.0
  0
LINE
  5
7E7
330
1A
100
AcDbEntity
  8
SEIHIN
  6
CONTINUOUS
100
AcDbLine
 10
601.5646830860876
 20
328.5174538791127
 30
0.0
 11
601.5646830860876
 21
328.0177538791129
 31
0.0
  0
LINE
  5
7E8
330
1A
100
AcDbEntity
  8
SEIHIN
  6
CONTINUOUS
100
AcDbLine
 10
601.5646830860876
 20
332.5168538791128
 30
0.0
 11
601.5646830860876
 21
332.0171538791127
 31
0.0
  0
LINE
  5
7E9
330
1A
100
AcDbEntity
  8
SEIHIN
  6
CONTINUOUS
100
AcDbLine
 10
601.5646830860876
 20
336.5161538791128
 30
0.0
 11
601.5646830860876
 21
336.0164538791127
 31
0.0
  0
LINE
  5
7EA
330
1A
100
AcDbEntity
  8
SEIHIN
  6
CONTINUOUS
100
AcDbLine
 10
603.7296830860875
 20
331.2395538791126
 30
0.0
 11
603.7296830860875
 21
330.2398538791128
 31
0.0
  0
LINE
  5
7EB
330
1A
100
AcDbEntity
  8
SEIHIN
  6
CONTINUOUS
100
AcDbLine
 10
603.7296830860875
 20
335.2389538791128
 30
0.0
 11
603.7296830860875
 21
334.2392538791127
 31
0.0
  0
LINE
  5
7EC
330
1A
100
AcDbEntity
  8
SEIHIN
  6
CONTINUOUS
100
AcDbLine
 10
603.7296830860875
 20
327.2402538791127
 30
0.0
 11
603.7296830860875
 21
326.2405538791128
 31
0.0
  0
LINE
  5
7ED
330
1A
100
AcDbEntity
  8
SEIHIN
  6
CONTINUOUS
100
AcDbLine
 10
601.5646830860876
 20
340.0157538791128
 30
0.0
 11
603.7296830860875
 21
339.2382538791126
 31
0.0
  0
LINE
  5
7EE
330
1A
100
AcDbEntity
  8
SEIHIN
  6
CONTINUOUS
100
AcDbLine
 10
595.5648830860875
 20
344.0179538791128
 30
0.0
 11
602.9814830860873
 21
344.0179538791128
 31
0.0
  0
LINE
  5
7EF
330
1A
100
AcDbEntity
  8
SEIHIN
  6
CONTINUOUS
100
AcDbLine
 10
601.5849830860875
 20
340.0179538791128
 30
0.0
 11
601.5646830860876
 21
340.0157538791128
 31
0.0
  0
LINE
  5
7F0
330
1A
100
AcDbEntity
  8
SEIHIN
  6
CONTINUOUS
100
AcDbLine
 10
603.7296830860875
 20
339.2382538791126
 30
0.0
 11
603.7296830860875
 21
338.2384538791127
 31
0.0
  0
ARC
  5
7F1
330
1A
100
AcDbEntity
  8
SEIHIN
  6
CONTINUOUS
100
AcDbCircle
 10
602.9814741942679
 20
347.0179454807559
 30
0.0
 40
2.999991601656294
100
AcDbArc
 50
270.0001698217154
 51
356.7306080388458
  0
LINE
  5
7F2
330
1A
100
AcDbEntity
  8
SEIHIN
  6
CONTINUOUS
100
AcDbLine
 10
603.5648830860875
 20
340.0175538791128
 30
0.0
 11
603.5648830860875
 21
342.0178538791128
 31
0.0
  0
LINE
  5
7F3
330
1A
100
AcDbEntity
  8
SEIHIN
  6
CONTINUOUS
100
AcDbLine
 10
630.4649830860876
 20
376.0178538791127
 30
0.0
 11
616.9649830860874
 21
376.0179538791128
 31
0.0
  0
LINE
  5
7F4
330
1A
100
AcDbEntity
  8
SEIHIN
  6
CONTINUOUS
100
AcDbLine
 10
656.5649830860875
 20
379.0178538791126
 30
0.0
 11
610.6484830860875
 21
379.0179538791129
 31
0.0
  0
ARC
  5
7F5
330
1A
100
AcDbEntity
  8
SEIHIN
  6
CONTINUOUS
100
AcDbCircle
 10
610.5913694393661
 20
375.0179409892789
 30
0.0
 40
1.000012889927055
100
AcDbArc
 50
89.99921811053404
 51
176.731671952515
  0
ARC
  5
7F6
330
1A
100
AcDbEntity
  8
SEIHIN
  6
CONTINUOUS
100
AcDbCircle
 10
610.6484889579842
 20
376.0179594249565
 30
0.0
 40
2.999994454162083
100
AcDbArc
 50
90.00011214517387
 51
176.7286436046989
  0
LINE
  5
7F7
330
1A
100
AcDbEntity
  8
SEIHIN
  6
CONTINUOUS
100
AcDbLine
 10
613.3649830860877
 20
376.0179538791128
 30
0.0
 11
610.5913830860875
 21
376.0179538791128
 31
0.0
  0
LINE
  5
7F8
330
1A
100
AcDbEntity
  8
SEIHIN
  6
CONTINUOUS
100
AcDbLine
 10
616.9649830860874
 20
376.0179538791128
 30
0.0
 11
615.3648830860874
 21
376.0179538791128
 31
0.0
  0
LINE
  5
7F9
330
1A
100
AcDbEntity
  8
SEIHIN
  6
CONTINUOUS
100
AcDbLine
 10
654.5649830860873
 20
376.0178538791127
 30
0.0
 11
634.6649830860876
 21
376.0178538791127
 31
0.0
  0
LINE
  5
7FA
330
1A
100
AcDbEntity
  8
SEIHIN
  6
CONTINUOUS
100
AcDbLine
 10
634.6649830860876
 20
376.0178538791127
 30
0.0
 11
633.9650830860875
 21
376.0178538791127
 31
0.0
  0
LINE
  5
7FB
330
1A
100
AcDbEntity
  8
SEIHIN
  6
CONTINUOUS
100
AcDbLine
 10
699.7649830860873
 20
344.0175538791128
 30
0.0
 11
699.7650830860875
 21
376.0175538791128
 31
0.0
  0
LINE
  5
7FC
330
1A
100
AcDbEntity
  8
SEIHIN
  6
CONTINUOUS
100
AcDbLine
 10
697.7649830860875
 20
344.0175538791128
 30
0.0
 11
697.7650830860873
 21
376.0175538791128
 31
0.0
  0
LINE
  5
7FD
330
1A
100
AcDbEntity
  8
SEIHIN
  6
CONTINUOUS
100
AcDbLine
 10
696.1649830860874
 20
344.0175538791128
 30
0.0
 11
696.1650830860873
 21
376.0175538791128
 31
0.0
  0
LINE
  5
7FE
330
1A
100
AcDbEntity
  8
SEIHIN
  6
CONTINUOUS
100
AcDbLine
 10
682.6648830860874
 20
344.0175538791128
 30
0.0
 11
682.6650830860874
 21
376.0176538791127
 31
0.0
  0
LINE
  5
7FF
330
1A
100
AcDbEntity
  8
SEIHIN
  6
CONTINUOUS
100
AcDbLine
 10
679.1648830860874
 20
344.0176538791126
 30
0.0
 11
679.1650830860874
 21
376.0176538791127
 31
0.0
  0
LINE
  5
800
330
1A
100
AcDbEntity
  8
SEIHIN
  6
CONTINUOUS
100
AcDbLine
 10
678.4648830860874
 20
344.0176538791126
 30
0.0
 11
678.4650830860873
 21
376.0176538791127
 31
0.0
  0
LINE
  5
801
330
1A
100
AcDbEntity
  8
SEIHIN
  6
CONTINUOUS
100
AcDbLine
 10
705.3181830860873
 20
343.9034538791128
 30
0.0
 11
703.5370830860874
 21
375.0746538791128
 31
0.0
  0
LINE
  5
802
330
1A
100
AcDbEntity
  8
SEIHIN
  6
CONTINUOUS
100
AcDbLine
 10
705.4767830860874
 20
376.1886538791126
 30
0.0
 11
707.1533830860876
 21
346.8463538791128
 31
0.0
  0
LINE
  5
807
330
1A
100
AcDbEntity
  8
SEIHIN
  6
CONTINUOUS
100
AcDbLine
 10
709.4000830860875
 20
310.7705538791127
 30
0.0
 11
684.1638830860874
 21
308.0176538791127
 31
0.0
  0
LINE
  5
808
330
1A
100
AcDbEntity
  8
SEIHIN
  6
CONTINUOUS
100
AcDbLine
 10
711.5651830860874
 20
312.0200538791128
 30
0.0
 11
674.8743830860876
 21
308.0176538791127
 31
0.0
  0
LINE
  5
809
330
1A
100
AcDbEntity
  8
SEIHIN
  6
CONTINUOUS
100
AcDbLine
 10
711.5651830860874
 20
312.5207538791128
 30
0.0
 11
670.2854830860874
 21
308.0176538791127
 31
0.0
  0
LINE
  5
80A
330
1A
100
AcDbEntity
  8
SEIHIN
  6
CONTINUOUS
100
AcDbLine
 10
711.5651830860874
 20
312.0204538791128
 30
0.0
 11
674.8693830860872
 21
308.0176538791127
 31
0.0
  0
LINE
  5
80B
330
1A
100
AcDbEntity
  8
SEIHIN
  6
CONTINUOUS
100
AcDbLine
 10
709.4000830860875
 20
325.7682538791129
 30
0.0
 11
711.5651830860874
 21
324.5182538791127
 31
0.0
  0
LINE
  5
80C
330
1A
100
AcDbEntity
  8
SEIHIN
  6
CONTINUOUS
100
AcDbLine
 10
709.4000830860875
 20
309.7708538791128
 30
0.0
 11
693.3275830860875
 21
308.0175538791128
 31
0.0
  0
LINE
  5
80D
330
1A
100
AcDbEntity
  8
SEIHIN
  6
CONTINUOUS
100
AcDbLine
 10
711.5651830860874
 20
308.5209538791128
 30
0.0
 11
706.9504830860876
 21
308.0175538791128
 31
0.0
  0
LINE
  5
80E
330
1A
100
AcDbEntity
  8
SEIHIN
  6
CONTINUOUS
100
AcDbLine
 10
709.4000830860875
 20
314.7682538791128
 30
0.0
 11
709.4000830860875
 21
313.7685538791127
 31
0.0
  0
LINE
  5
80F
330
1A
100
AcDbEntity
  8
SEIHIN
  6
CONTINUOUS
100
AcDbLine
 10
709.4000830860875
 20
309.7686538791128
 30
0.0
 11
711.5651830860874
 21
308.5187538791128
 31
0.0
  0
LINE
  5
810
330
1A
100
AcDbEntity
  8
SEIHIN
  6
CONTINUOUS
100
AcDbLine
 10
711.5651830860874
 20
312.0183538791127
 30
0.0
 11
709.4000830860875
 21
310.7683538791127
 31
0.0
  0
LINE
  5
811
330
1A
100
AcDbEntity
  8
SEIHIN
  6
CONTINUOUS
100
AcDbLine
 10
709.4000830860875
 20
313.7685538791127
 30
0.0
 11
711.5651830860874
 21
312.5186538791128
 31
0.0
  0
LINE
  5
812
330
1A
100
AcDbEntity
  8
SEIHIN
  6
CONTINUOUS
100
AcDbLine
 10
709.4000830860875
 20
308.0177538791128
 30
0.0
 11
709.4000830860875
 21
307.0177538791128
 31
0.0
  0
LINE
  5
813
330
1A
100
AcDbEntity
  8
SEIHIN
  6
CONTINUOUS
100
AcDbLine
 10
709.4000830860875
 20
310.7683538791127
 30
0.0
 11
709.4000830860875
 21
309.7686538791128
 31
0.0
  0
LINE
  5
814
330
1A
100
AcDbEntity
  8
SEIHIN
  6
CONTINUOUS
100
AcDbLine
 10
711.5651830860874
 20
308.5187538791128
 30
0.0
 11
711.5651830860874
 21
308.0184538791128
 31
0.0
  0
LINE
  5
815
330
1A
100
AcDbEntity
  8
SEIHIN
  6
CONTINUOUS
100
AcDbLine
 10
711.5651830860874
 20
312.5186538791128
 30
0.0
 11
711.5651830860874
 21
312.0183538791127
 31
0.0
  0
LINE
  5
816
330
1A
100
AcDbEntity
  8
SEIHIN
  6
CONTINUOUS
100
AcDbLine
 10
709.4000830860875
 20
317.7684538791128
 30
0.0
 11
711.5651830860874
 21
316.5184538791128
 31
0.0
  0
LINE
  5
817
330
1A
100
AcDbEntity
  8
SEIHIN
  6
CONTINUOUS
100
AcDbLine
 10
711.5651830860874
 20
320.0181538791129
 30
0.0
 11
709.4000830860875
 21
318.7681538791129
 31
0.0
  0
LINE
  5
818
330
1A
100
AcDbEntity
  8
SEIHIN
  6
CONTINUOUS
100
AcDbLine
 10
709.4000830860875
 20
321.7683538791127
 30
0.0
 11
711.5651830860874
 21
320.5183538791127
 31
0.0
  0
LINE
  5
819
330
1A
100
AcDbEntity
  8
SEIHIN
  6
CONTINUOUS
100
AcDbLine
 10
711.5651830860874
 20
324.0179538791128
 30
0.0
 11
709.4000830860875
 21
322.7680538791128
 31
0.0
  0
LINE
  5
81A
330
1A
100
AcDbEntity
  8
SEIHIN
  6
CONTINUOUS
100
AcDbLine
 10
709.4000830860875
 20
318.7681538791129
 30
0.0
 11
709.4000830860875
 21
317.7684538791128
 31
0.0
  0
LINE
  5
81B
330
1A
100
AcDbEntity
  8
SEIHIN
  6
CONTINUOUS
100
AcDbLine
 10
709.4000830860875
 20
322.7680538791128
 30
0.0
 11
709.4000830860875
 21
321.7683538791127
 31
0.0
  0
LINE
  5
81C
330
1A
100
AcDbEntity
  8
SEIHIN
  6
CONTINUOUS
100
AcDbLine
 10
711.5651830860874
 20
316.5184538791128
 30
0.0
 11
711.5651830860874
 21
316.0182538791128
 31
0.0
  0
LINE
  5
81D
330
1A
100
AcDbEntity
  8
SEIHIN
  6
CONTINUOUS
100
AcDbLine
 10
711.5651830860874
 20
320.5183538791127
 30
0.0
 11
711.5651830860874
 21
320.0181538791129
 31
0.0
  0
LINE
  5
81E
330
1A
100
AcDbEntity
  8
SEIHIN
  6
CONTINUOUS
100
AcDbLine
 10
711.5651830860874
 20
324.5182538791127
 30
0.0
 11
711.5651830860874
 21
324.0179538791128
 31
0.0
  0
LINE
  5
81F
330
1A
100
AcDbEntity
  8
SEIHIN
  6
CONTINUOUS
100
AcDbLine
 10
711.5651830860874
 20
316.0182538791128
 30
0.0
 11
709.4000830860875
 21
314.7682538791128
 31
0.0
  0
ARC
  5
820
330
1A
100
AcDbEntity
  8
SEIHIN
  6
CONTINUOUS
100
AcDbCircle
 10
710.1484889579842
 20
347.0175483332692
 30
0.0
 40
2.999994454162176
100
AcDbArc
 50
183.2713563953023
 51
269.9998878548266
  0
LINE
  5
821
330
1A
100
AcDbEntity
  8
SEIHIN
  6
CONTINUOUS
100
AcDbLine
 10
709.4000830860875
 20
337.7678538791128
 30
0.0
 11
711.5651830860874
 21
336.5178538791127
 31
0.0
  0
LINE
  5
822
330
1A
100
AcDbEntity
  8
SEIHIN
  6
CONTINUOUS
100
AcDbLine
 10
711.5651830860874
 20
328.0178538791128
 30
0.0
 11
709.4000830860875
 21
326.7678538791127
 31
0.0
  0
LINE
  5
823
330
1A
100
AcDbEntity
  8
SEIHIN
  6
CONTINUOUS
100
AcDbLine
 10
709.4000830860875
 20
329.7680538791126
 30
0.0
 11
711.5651830860874
 21
328.5181538791129
 31
0.0
  0
LINE
  5
824
330
1A
100
AcDbEntity
  8
SEIHIN
  6
CONTINUOUS
100
AcDbLine
 10
711.5651830860874
 20
332.0177538791128
 30
0.0
 11
709.4000830860875
 21
330.7677538791129
 31
0.0
  0
LINE
  5
825
330
1A
100
AcDbEntity
  8
SEIHIN
  6
CONTINUOUS
100
AcDbLine
 10
709.4000830860875
 20
333.7679538791128
 30
0.0
 11
711.5651830860874
 21
332.5179538791128
 31
0.0
  0
LINE
  5
826
330
1A
100
AcDbEntity
  8
SEIHIN
  6
CONTINUOUS
100
AcDbLine
 10
711.5651830860874
 20
336.0176538791126
 30
0.0
 11
709.4000830860875
 21
334.7676538791128
 31
0.0
  0
LINE
  5
827
330
1A
100
AcDbEntity
  8
SEIHIN
  6
CONTINUOUS
100
AcDbLine
 10
709.4000830860875
 20
330.7677538791129
 30
0.0
 11
709.4000830860875
 21
329.7680538791126
 31
0.0
  0
LINE
  5
828
330
1A
100
AcDbEntity
  8
SEIHIN
  6
CONTINUOUS
100
AcDbLine
 10
709.4000830860875
 20
334.7676538791128
 30
0.0
 11
709.4000830860875
 21
333.7679538791128
 31
0.0
  0
LINE
  5
829
330
1A
100
AcDbEntity
  8
SEIHIN
  6
CONTINUOUS
100
AcDbLine
 10
711.5651830860874
 20
328.5181538791129
 30
0.0
 11
711.5651830860874
 21
328.0178538791128
 31
0.0
  0
LINE
  5
82A
330
1A
100
AcDbEntity
  8
SEIHIN
  6
CONTINUOUS
100
AcDbLine
 10
711.5651830860874
 20
332.5179538791128
 30
0.0
 11
711.5651830860874
 21
332.0177538791128
 31
0.0
  0
LINE
  5
82B
330
1A
100
AcDbEntity
  8
SEIHIN
  6
CONTINUOUS
100
AcDbLine
 10
711.5651830860874
 20
336.5178538791127
 30
0.0
 11
711.5651830860874
 21
336.0176538791126
 31
0.0
  0
LINE
  5
82C
330
1A
100
AcDbEntity
  8
SEIHIN
  6
CONTINUOUS
100
AcDbLine
 10
709.4000830860875
 20
326.7678538791127
 30
0.0
 11
709.4000830860875
 21
325.7682538791129
 31
0.0
  0
LINE
  5
82D
330
1A
100
AcDbEntity
  8
SEIHIN
  6
CONTINUOUS
100
AcDbLine
 10
717.5649830860873
 20
344.0175538791128
 30
0.0
 11
710.1484830860875
 21
344.0175538791128
 31
0.0
  0
LINE
  5
82E
330
1A
100
AcDbEntity
  8
SEIHIN
  6
CONTINUOUS
100
AcDbLine
 10
711.5651830860874
 20
340.0175538791128
 30
0.0
 11
709.4000830860875
 21
338.7675538791127
 31
0.0
  0
LINE
  5
82F
330
1A
100
AcDbEntity
  8
SEIHIN
  6
CONTINUOUS
100
AcDbLine
 10
709.5648830860873
 20
340.0173538791127
 30
0.0
 11
709.5648830860873
 21
342.0176538791126
 31
0.0
  0
LINE
  5
830
330
1A
100
AcDbEntity
  8
SEIHIN
  6
CONTINUOUS
100
AcDbLine
 10
709.4000830860875
 20
338.7675538791127
 30
0.0
 11
709.4000830860875
 21
337.7678538791128
 31
0.0
  0
LINE
  5
831
330
1A
100
AcDbEntity
  8
SEIHIN
  6
CONTINUOUS
100
AcDbLine
 10
717.5649830860873
 20
344.0175538791128
 30
0.0
 11
721.5649830860873
 21
343.0174538791127
 31
0.0
  0
LINE
  5
832
330
1A
100
AcDbEntity
  8
SEIHIN
  6
CONTINUOUS
100
AcDbLine
 10
721.5649830860873
 20
342.0174538791128
 30
0.0
 11
721.5649830860873
 21
343.0174538791127
 31
0.0
  0
LINE
  5
83A
330
1A
100
AcDbEntity
  8
SEIHIN
  6
CONTINUOUS
100
AcDbLine
 10
682.6650830860874
 20
376.0176538791127
 30
0.0
 11
696.1650830860873
 21
376.0175538791128
 31
0.0
  0
LINE
  5
83B
330
1A
100
AcDbEntity
  8
SEIHIN
  6
CONTINUOUS
100
AcDbLine
 10
678.4650830860873
 20
376.0176538791127
 30
0.0
 11
679.1650830860874
 21
376.0176538791127
 31
0.0
  0
LINE
  5
83C
330
1A
100
AcDbEntity
  8
SEIHIN
  6
CONTINUOUS
100
AcDbLine
 10
699.7651830860872
 20
376.0175538791128
 30
0.0
 11
702.5387830860877
 21
376.0175538791128
 31
0.0
  0
LINE
  5
83D
330
1A
100
AcDbEntity
  8
SEIHIN
  6
CONTINUOUS
100
AcDbLine
 10
696.1650830860873
 20
376.0175538791128
 30
0.0
 11
697.7651830860873
 21
376.0175538791128
 31
0.0
  0
ARC
  5
83E
330
1A
100
AcDbEntity
  8
SEIHIN
  6
CONTINUOUS
100
AcDbCircle
 10
702.5387468992789
 20
375.0175880552809
 30
0.0
 40
0.9999658244866637
100
AcDbArc
 50
3.271519989780349
 51
89.99792657772022
  0
ARC
  5
83F
330
1A
100
AcDbEntity
  8
SEIHIN
  6
CONTINUOUS
100
AcDbCircle
 10
702.4816772141908
 20
376.0175594249563
 30
0.0
 40
2.99999445416229
100
AcDbArc
 50
3.271356395302243
 51
89.99988785482667
  0
CIRCLE
  5
907
330
1A
100
AcDbEntity
  8
SEIHIN
  6
CONTINUOUS
100
AcDbCircle
 10
173.135074016417
 20
406.2542171736855
 30
0.0
 40
54.99922210566522
  0
CIRCLE
  5
908
330
1A
100
AcDbEntity
  8
SEIHIN
  6
CONTINUOUS
100
AcDbCircle
 10
173.135074016417
 20
406.2542171736856
 30
0.0
 40
60.57102210567601
  0
CIRCLE
  5
909
330
1A
100
AcDbEntity
  8
SEIHIN
  6
CONTINUOUS
100
AcDbCircle
 10
173.135074016417
 20
406.2542171736856
 30
0.0
 40
66.99942210568853
  0
LINE
  5
90C
330
1A
100
AcDbEntity
  8
SEIHIN
  6
CONTINUOUS
100
AcDbLine
 10
170.2900961219754
 20
461.1798080490546
 30
0.0
 11
170.4020863812129
 21
459.0177064830191
 31
0.0
  0
LINE
  5
90D
330
1A
100
AcDbEntity
  8
SEIHIN
  6
CONTINUOUS
100
AcDbLine
 10
126.9887961219753
 20
436.1780449488423
 30
0.0
 11
128.8181986487766
 21
435.0199882073179
 31
0.0
  0
LINE
  5
90E
330
1A
100
AcDbEntity
  8
SEIHIN
  6
CONTINUOUS
100
AcDbLine
 10
126.6879565474294
 20
376.7995110802555
 30
0.0
 11
128.5044945387515
 21
377.9776119849766
 31
0.0
  0
LINE
  5
90F
330
1A
100
AcDbEntity
  8
SEIHIN
  6
CONTINUOUS
100
AcDbLine
 10
170.8654797425345
 20
351.3018434846423
 30
0.0
 11
170.9536795544745
 21
353.4650464687791
 31
0.0
  0
LINE
  5
910
330
1A
100
AcDbEntity
  8
SEIHIN
  6
CONTINUOUS
100
AcDbLine
 10
222.4259213059589
 20
381.8548973940821
 30
0.0
 11
220.4973418226276
 21
382.8390380421235
 31
0.0
  0
LINE
  5
911
330
1A
100
AcDbEntity
  8
SEIHIN
  6
CONTINUOUS
100
AcDbLine
 10
221.5063139108963
 20
432.3243024405554
 30
0.0
 11
219.632906978476
 21
431.3421934839184
 31
0.0
  0
CIRCLE
  5
915
330
1A
100
AcDbEntity
  8
SEIHIN
  6
CONTINUOUS
100
AcDbCircle
 10
173.135074016417
 20
406.2542171736855
 30
0.0
 40
47.27352210565043
  0
ARC
  5
916
330
1A
100
AcDbEntity
  8
SEIHIN
  6
CONTINUOUS
100
AcDbCircle
 10
173.135074016417
 20
406.2542171736855
 30
0.0
 40
52.83422210566126
100
AcDbArc
 50
92.96509661380385
 51
147.0126822581077
  0
ARC
  5
917
330
1A
100
AcDbEntity
  8
SEIHIN
  6
CONTINUOUS
100
AcDbCircle
 10
173.135074016417
 20
406.2542171736855
 30
0.0
 40
52.83422210566126
100
AcDbArc
 50
333.6929142838996
 51
28.34914771543073
  0
ARC
  5
918
330
1A
100
AcDbEntity
  8
SEIHIN
  6
CONTINUOUS
100
AcDbCircle
 10
173.135074016417
 20
406.2542171736855
 30
0.0
 40
52.83422210566126
100
AcDbArc
 50
212.3571286961207
 51
267.6337262514834
  0
ARC
  5
91A
330
1A
100
AcDbEntity
  8
SEIHIN
  6
CONTINUOUS
100
AcDbCircle
 10
343.166887146941
 20
222.2546665245124
 30
0.0
 40
3.0
100
AcDbArc
 50
89.99962565316575
 51
176.7293118839789
  0
LINE
  5
942
330
1A
100
AcDbEntity
  8
SEIHIN
  6
CONTINUOUS
100
AcDbLine
 10
334.0830431603711
 20
186.254466525487
 30
0.0
 11
444.083528519632
 21
186.2540665251767
 31
0.0
  0
LINE
  5
947
330
1A
100
AcDbEntity
  8
SEIHIN
  6
CONTINUOUS
100
AcDbLine
 10
441.9184333759304
 20
153.254166525487
 30
0.0
 11
336.2479431603711
 21
153.254166525487
 31
0.0
  0
LINE
  5
948
330
1A
100
AcDbEntity
  8
SEIHIN
  6
CONTINUOUS
100
AcDbLine
 10
444.0834362590903
 20
154.254166525487
 30
0.0
 11
334.0830431603711
 21
154.254166525487
 31
0.0
  0
LINE
  5
94E
330
1A
100
AcDbEntity
  8
SEIHIN
  6
CONTINUOUS
100
AcDbLine
 10
334.0830431603711
 20
186.2544665254871
 30
0.0
 11
334.0830431603711
 21
154.257666525487
 31
0.0
  0
LINE
  5
96A
330
1A
100
AcDbEntity
  8
SEIHIN
  6
CONTINUOUS
100
AcDbLine
 10
334.103343160371
 20
186.254466525487
 30
0.0
 11
334.0830431603711
 21
186.252266525487
 31
0.0
  0
LINE
  5
992
330
1A
100
AcDbEntity
  8
SEIHIN
  6
CONTINUOUS
100
AcDbLine
 10
336.0832431603711
 20
153.254166525487
 30
0.0
 11
336.0832431603711
 21
154.254166525487
 31
0.0
  0
LINE
  5
993
330
1A
100
AcDbEntity
  8
SEIHIN
  6
CONTINUOUS
100
AcDbLine
 10
444.083528520328
 20
186.254307951486
 30
0.0
 11
444.0834362687241
 21
154.2575079516189
 31
0.0
  0
LINE
  5
996
330
1A
100
AcDbEntity
  8
SEIHIN
  6
CONTINUOUS
100
AcDbLine
 10
444.0632285203281
 20
186.2543080100139
 30
0.0
 11
444.0835285139851
 21
186.2521079514859
 31
0.0
  0
LINE
  5
99A
330
1A
100
AcDbEntity
  8
SEIHIN
  6
CONTINUOUS
100
AcDbLine
 10
336.0832431603711
 20
186.2544580356112
 30
0.0
 11
336.0832431603711
 21
188.254366525487
 31
0.0
  0
LINE
  5
99B
330
1A
100
AcDbEntity
  8
SEIHIN
  6
CONTINUOUS
 62
     4
100
AcDbLine
 10
336.0832431603711
 20
186.2544580356112
 30
0.0
 11
336.0832431603711
 21
154.254166525487
 31
0.0
  0
LINE
  5
99C
330
1A
100
AcDbEntity
  8
SEIHIN
  6
CONTINUOUS
 62
     4
100
AcDbLine
 10
442.0833285203118
 20
186.2543052284887
 30
0.0
 11
442.0832362586415
 21
154.2540137184974
 31
0.0
  0
LINE
  5
99D
330
1A
100
AcDbEntity
  8
SEIHIN
  6
CONTINUOUS
100
AcDbLine
 10
442.0832333754906
 20
153.2540137185016
 30
0.0
 11
442.0832362586415
 21
154.2540137184974
 31
0.0
  0
LINE
  5
99E
330
1A
100
AcDbEntity
  8
SEIHIN
  6
CONTINUOUS
100
AcDbLine
 10
442.0833285203118
 20
186.2543052284887
 30
0.0
 11
442.0833342863499
 21
188.2542137183562
 31
0.0
  0
DIMENSION
  5
9B2
330
1A
100
AcDbEntity
  8
SUNPOU
  6
CONTINUOUS
 62
     4
100
AcDbDimension
  2
*D1
 10
113.9341253791624
 20
130.4314915220597
 30
0.0
 11
173.1341753791623
 21
135.4314915220597
 31
0.0
 12
-12.61714261925408
 22
16.80104229060907
 32
0.0
 70
    32
  1
φ<>
  3
STANDARD
100
AcDbAlignedDimension
 13
232.3342253791623
 23
162.0197500421579
 33
0.0
 14
113.9341253791624
 24
162.020350042158
 34
0.0
100
AcDbRotatedDimension
1001
ACAD
1000
DSTYLE
1002
{
1070
   140
1040
6.0
1070
    74
1070
     0
1070
   172
1070
     1
1070
    73
1070
     0
1070
   272
1070
     2
1070
    77
1070
     3
1070
   173
1070
     1
1070
   147
1040
2.0
1070
    42
1040
6.0
1070
    44
1040
3.0
1070
    43
1040
14.0
1070
   271
1070
     0
1070
   178
1070
     4
1070
   177
1070
     4
1070
   176
1070
     4
1070
   141
1040
150.0
1070
     7
1000
_OPEN
1070
     6
1000
_OPEN
1070
    41
1040
7.0
1002
}
  0
DIMENSION
  5
9BF
330
1A
100
AcDbEntity
  8
SUNPOU
  6
CONTINUOUS
 62
     4
100
AcDbDimension
  2
*D2
 10
103.1344253791624
 20
263.7325094207446
 30
0.0
 11
173.1344753791624
 21
268.7325094207447
 31
0.0
 12
-12.61714261925408
 22
16.80104229060907
 32
0.0
 70
    32
  1
φ<>
  3
STANDARD
100
AcDbAlignedDimension
 13
243.1345253791624
 23
238.8198500417293
 33
0.0
 14
103.1344253791624
 24
238.8204500421579
 34
0.0
100
AcDbRotatedDimension
1001
ACAD
1000
DSTYLE
1002
{
1070
   140
1040
6.0
1070
    74
1070
     0
1070
   172
1070
     1
1070
    73
1070
     0
1070
   272
1070
     2
1070
    77
1070
     3
1070
   173
1070
     1
1070
   147
1040
2.0
1070
    42
1040
6.0
1070
    44
1040
3.0
1070
    43
1040
14.0
1070
   271
1070
     0
1070
   178
1070
     4
1070
   177
1070
     4
1070
   176
1070
     4
1070
   141
1040
150.0
1070
     7
1000
_OPEN
1070
     6
1000
_OPEN
1070
    41
1040
7.0
1002
}
  0
DIMENSION
  5
9DB
330
1A
100
AcDbEntity
  8
SUNPOU
  6
CONTINUOUS
 62
     4
100
AcDbDimension
  2
*D3
 10
277.5885611042017
 20
162.0195500414858
 30
0.0
 11
272.5885611042017
 21
200.4197000416076
 31
0.0
 70
    32
  3
STANDARD
100
AcDbAlignedDimension
 13
243.1345253791624
 23
238.8198500417293
 33
0.0
 14
232.3342248212216
 24
162.0195500414858
 34
0.0
 50
90.0
100
AcDbRotatedDimension
1001
ACAD
1000
DSTYLE
1002
{
1070
   140
1040
6.0
1070
    74
1070
     0
1070
   172
1070
     1
1070
    73
1070
     0
1070
   272
1070
     2
1070
    77
1070
     3
1070
   173
1070
     1
1070
   147
1040
2.0
1070
    42
1040
6.0
1070
    44
1040
3.0
1070
    43
1040
14.0
1070
   271
1070
     0
1070
   178
1070
     4
1070
   177
1070
     4
1070
   176
1070
     4
1070
   141
1040
150.0
1070
     7
1000
_OPEN
1070
     6
1000
_OPEN
1070
    41
1040
7.0
1002
}
  0
DIMENSION
  5
A40
330
1A
100
AcDbEntity
  8
SUNPOU
  6
CONTINUOUS
 62
     4
 48
5.0
100
AcDbDimension
  2
*D4
 10
340.3334327252682
 20
251.0985160630887
 30
0.0
 11
389.0834255820036
 21
256.0985160630887
 31
0.0
 12
-62.61714261925408
 22
-18.19895770939092
 32
0.0
 70
    32
  1
φ<>
  3
STANDARD
100
AcDbAlignedDimension
 13
437.8334184387391
 23
225.2540480127663
 33
0.0
 14
340.3334327252682
 24
225.2546850371912
 34
0.0
100
AcDbRotatedDimension
1001
ACAD
1000
DSTYLE
1002
{
1070
   140
1040
6.0
1070
    74
1070
     0
1070
   172
1070
     1
1070
    73
1070
     0
1070
   272
1070
     2
1070
    77
1070
     3
1070
   173
1070
     1
1070
   147
1040
2.0
1070
    42
1040
6.0
1070
    44
1040
3.0
1070
    43
1040
14.0
1070
   271
1070
     0
1070
   178
1070
     4
1070
   177
1070
     4
1070
   176
1070
     4
1070
   141
1040
150.0
1070
     7
1000
_OPEN
1070
     6
1000
_OPEN
1070
    41
1040
7.0
1002
}
  0
DIMENSION
  5
A4D
330
1A
100
AcDbEntity
  8
SUNPOU
  6
CONTINUOUS
 62
     4
 48
5.0
100
AcDbDimension
  2
*D5
 10
324.0832588930216
 20
269.0011830950245
 30
0.0
 11
389.0833088930215
 21
274.0011830950245
 31
0.0
 12
-62.61714261925408
 22
-18.19895770939092
 32
0.0
 70
    32
  1
φ<>
  3
STANDARD
100
AcDbAlignedDimension
 13
454.0833588930215
 23
189.2539665254145
 33
0.0
 14
324.0832588930216
 24
189.2545665254145
 34
0.0
100
AcDbRotatedDimension
1001
ACAD
1000
DSTYLE
1002
{
1070
   140
1040
6.0
1070
    74
1070
     0
1070
   172
1070
     1
1070
    73
1070
     0
1070
   272
1070
     2
1070
    77
1070
     3
1070
   173
1070
     1
1070
   147
1040
2.0
1070
    42
1040
6.0
1070
    44
1040
3.0
1070
    43
1040
14.0
1070
   271
1070
     0
1070
   178
1070
     4
1070
   177
1070
     4
1070
   176
1070
     4
1070
   141
1040
150.0
1070
     7
1000
_OPEN
1070
     6
1000
_OPEN
1070
    41
1040
7.0
1002
}
  0
DIMENSION
  5
A5A
330
1A
100
AcDbEntity
  8
SUNPOU
  6
CONTINUOUS
 62
     4
 48
5.0
100
AcDbDimension
  2
*D6
 10
334.0830431603711
 20
125.3909840792566
 30
0.0
 11
389.0832397145477
 21
130.3909840792566
 31
0.0
 12
-62.61714261925408
 22
-18.19895770939092
 32
0.0
 70
    32
  1
φ<>
  3
STANDARD
100
AcDbAlignedDimension
 13
444.0834362687241
 23
154.2575079516189
 33
0.0
 14
334.0830431603711
 24
154.257666525487
 34
0.0
100
AcDbRotatedDimension
1001
ACAD
1000
DSTYLE
1002
{
1070
   140
1040
6.0
1070
    74
1070
     0
1070
   172
1070
     1
1070
    73
1070
     0
1070
   272
1070
     2
1070
    77
1070
     3
1070
   173
1070
     1
1070
   147
1040
2.0
1070
    42
1040
6.0
1070
    44
1040
3.0
1070
    43
1040
14.0
1070
   271
1070
     0
1070
   178
1070
     4
1070
   177
1070
     4
1070
   176
1070
     4
1070
   141
1040
150.0
1070
     7
1000
_OPEN
1070
     6
1000
_OPEN
1070
    41
1040
7.0
1002
}
  0
DIMENSION
  5
ACC
330
1A
100
AcDbEntity
  8
SUNPOU
  6
CONTINUOUS
 62
     4
 48
5.0
100
AcDbDimension
  2
*D7
 10
477.068051402376
 20
188.2539665254145
 30
0.0
 11
472.0680514023761
 21
208.2540665254145
 31
0.0
 12
-62.61714261925408
 22
-18.19895770939092
 32
0.0
 70
    32
  3
STANDARD
100
AcDbAlignedDimension
 13
450.0833588930215
 23
190.2540665254145
 33
0.0
 14
454.0832588930215
 24
188.2539665254145
 34
0.0
 50
90.0
100
AcDbRotatedDimension
1001
ACAD
1000
DSTYLE
1002
{
1070
   140
1040
6.0
1070
    74
1070
     0
1070
   172
1070
     1
1070
    73
1070
     0
1070
   272
1070
     2
1070
    77
1070
     3
1070
   173
1070
     1
1070
   280
1070
     1
1070
   147
1040
2.0
1070
    42
1040
6.0
1070
    44
1040
3.0
1070
    43
1040
14.0
1070
   271
1070
     0
1070
   178
1070
     4
1070
   177
1070
     4
1070
   176
1070
     4
1070
   141
1040
150.0
1070
     7
1000
_OPEN
1070
     6
1000
_OPEN
1070
    41
1040
7.0
1002
}
  0
DIMENSION
  5
AD9
330
1A
100
AcDbEntity
  8
SUNPOU
  6
CONTINUOUS
 62
     4
 48
5.0
100
AcDbDimension
  2
*D8
 10
496.6828923512621
 20
153.254166525487
 30
0.0
 11
491.6828923512621
 21
170.7540665254507
 31
0.0
 12
-62.61714261925408
 22
-18.19895770939092
 32
0.0
 70
    32
  3
STANDARD
100
AcDbAlignedDimension
 13
454.0832588930215
 23
188.2539665254145
 33
0.0
 14
441.9184333759304
 24
153.254166525487
 34
0.0
 50
90.0
100
AcDbRotatedDimension
1001
ACAD
1000
DSTYLE
1002
{
1070
   140
1040
6.0
1070
    74
1070
     0
1070
   172
1070
     1
1070
    73
1070
     0
1070
   272
1070
     2
1070
    77
1070
     3
1070
   173
1070
     1
1070
   147
1040
2.0
1070
    42
1040
6.0
1070
    44
1040
3.0
1070
    43
1040
14.0
1070
   271
1070
     0
1070
   178
1070
     4
1070
   177
1070
     4
1070
   176
1070
     4
1070
   141
1040
150.0
1070
     7
1000
_OPEN
1070
     6
1000
_OPEN
1070
    41
1040
7.0
1002
}
  0
DIMENSION
  5
AE6
330
1A
100
AcDbEntity
  8
SUNPOU
  6
CONTINUOUS
 62
     4
 48
5.0
100
AcDbDimension
  2
*D9
 10
516.7964163297824
 20
153.254166525487
 30
0.0
 11
511.7964163297824
 21
189.2541165254508
 31
0.0
 12
-62.61714261925408
 22
-18.19895770939092
 32
0.0
 70
    32
  3
STANDARD
100
AcDbAlignedDimension
 13
434.9999588930215
 23
225.2540665254145
 33
0.0
 14
441.9184333759304
 24
153.254166525487
 34
0.0
 50
90.0
100
AcDbRotatedDimension
1001
ACAD
1000
DSTYLE
1002
{
1070
   140
1040
6.0
1070
    74
1070
     0
1070
   172
1070
     1
1070
    73
1070
     0
1070
   272
1070
     2
1070
    77
1070
     3
1070
   173
1070
     1
1070
   147
1040
2.0
1070
    42
1040
6.0
1070
    44
1040
3.0
1070
    43
1040
14.0
1070
   271
1070
     0
1070
   178
1070
     4
1070
   177
1070
     4
1070
   176
1070
     4
1070
   141
1040
150.0
1070
     7
1000
_OPEN
1070
     6
1000
_OPEN
1070
    41
1040
7.0
1002
}
  0
DIMENSION
  5
B1C
330
1A
100
AcDbEntity
  8
SUNPOU
  6
CONTINUOUS
 62
     4
 48
5.0
100
AcDbDimension
  2
*D10
 10
601.0649207427643
 20
282.3142562825987
 30
0.0
 11
656.5649208046928
 21
287.3142562825987
 31
0.0
 12
0.0
 22
-10.0
 32
0.0
 70
    32
  1
穴径 φ<>
  3
STANDARD
100
AcDbAlignedDimension
 13
712.0649208666214
 23
335.0589538721814
 33
0.0
 14
601.0649207427643
 24
334.9482673525668
 34
0.0
100
AcDbRotatedDimension
1001
ACAD
1000
DSTYLE
1002
{
1070
   140
1040
6.0
1070
    74
1070
     0
1070
   172
1070
     1
1070
    73
1070
     0
1070
   272
1070
     2
1070
    77
1070
     3
1070
   173
1070
     1
1070
   147
1040
2.0
1070
    42
1040
6.0
1070
    44
1040
3.0
1070
    43
1040
14.0
1070
   271
1070
     0
1070
   178
1070
     4
1070
   177
1070
     4
1070
   176
1070
     4
1070
   141
1040
150.0
1070
     7
1000
_OPEN
1070
     6
1000
_OPEN
1070
    41
1040
7.0
1002
}
  0
LINE
  5
B54
330
1A
100
AcDbEntity
  8
NOKITOI
  6
CONTINUOUS
 62
     6
100
AcDbLine
 10
601.0646830860876
 20
341.7180100338787
 30
0.0
 11
574.0646830860876
 21
341.7181346492633
 31
0.0
  0
LINE
  5
B55
330
1A
100
AcDbEntity
  8
NOKITOI
  6
CONTINUOUS
 62
     6
100
AcDbLine
 10
601.0646830860876
 20
339.2180100338521
 30
0.0
 11
574.0646830860876
 21
339.2181346492366
 31
0.0
  0
LINE
  5
B56
330
1A
100
AcDbEntity
  8
NOKITOI
  6
CONTINUOUS
 62
     6
100
AcDbLine
 10
601.0646830860876
 20
341.7180100338788
 30
0.0
 11
601.0646830860876
 21
339.2180100338521
 31
0.0
  0
LINE
  5
B58
330
1A
100
AcDbEntity
  8
NOKITOI
  6
CONTINUOUS
 62
     6
 48
5.0
100
AcDbLine
 10
712.0651679496061
 20
339.2178858951474
 30
0.0
 11
739.0651679498173
 21
339.2179501189934
 31
0.0
  0
LINE
  5
B59
330
1A
100
AcDbEntity
  8
NOKITOI
  6
CONTINUOUS
 62
     6
 48
5.0
100
AcDbLine
 10
712.0651735414152
 20
341.7178858951678
 30
0.0
 11
739.0651735416264
 21
341.7179501190139
 31
0.0
  0
LINE
  5
B5A
330
1A
100
AcDbEntity
  8
NOKITOI
  6
CONTINUOUS
 62
     6
 48
5.0
100
AcDbLine
 10
712.0651735414152
 20
341.7178858951678
 30
0.0
 11
712.0651679496061
 21
339.2178858951474
 31
0.0
  0
DIMENSION
  5
B70
330
1A
100
AcDbEntity
  8
SUNPOU
  6
CONTINUOUS
 62
     4
 48
5.0
100
AcDbDimension
  2
*D11
 10
261.4743547623238
 20
162.0195500414858
 30
0.0
 11
256.4743547623238
 21
198.9197000415945
 31
0.0
 70
    32
  3
STANDARD
100
AcDbAlignedDimension
 13
239.1345253773435
 23
235.8198500417033
 33
0.0
 14
232.3342248212216
 24
162.0195500414858
 34
0.0
 50
90.0
100
AcDbRotatedDimension
1001
ACAD
1000
DSTYLE
1002
{
1070
   140
1040
6.0
1070
    74
1070
     0
1070
   172
1070
     1
1070
    73
1070
     0
1070
   272
1070
     2
1070
    77
1070
     3
1070
   173
1070
     1
1070
   147
1040
2.0
1070
    42
1040
6.0
1070
    44
1040
3.0
1070
    43
1040
14.0
1070
   271
1070
     0
1070
   178
1070
     4
1070
   177
1070
     4
1070
   176
1070
     4
1070
   141
1040
150.0
1070
     7
1000
_OPEN
1070
     6
1000
_OPEN
1070
    41
1040
7.0
1002
}
  0
VIEWPORT
  5
22
330
17
100
AcDbEntity
 67
     1
  8
0
100
AcDbViewport
 10
313.6808219178082
 20
148.5
 30
0.0
 40
627.3616438356165
 41
297.0
 68
     2
 69
     1
1001
ACAD
1000
MVIEW
1002
{
1070
    16
1010
0.0
1020
0.0
1030
0.0
1010
0.0
1020
0.0
1030
1.0
1040
0.0
1040
297.0
1040
313.6808219178082
1040
148.5
1040
50.0
1040
0.0
1040
0.0
1070
     0
1070
   100
1070
     1
1070
     0
1070
     0
1070
     0
1070
     0
1070
     0
1040
0.0
1040
0.0
1040
0.0
1040
1.0
1040
1.0
1040
10.0
1040
10.0
1070
     0
1002
{
1002
}
1002
}
  0
VIEWPORT
  5
64
330
17
100
AcDbEntity
 67
     1
  8
VIEWPORT
100
AcDbViewport
 10
210.0
 20
148.5
 30
0.0
 40
420.0
 41
297.0
 68
     1
 69
     2
1001
ACAD
1000
MVIEW
1002
{
1070
    16
1010
0.0
1020
0.0
1030
0.0
1010
0.0
1020
0.0
1030
1.0
1040
0.0
1040
605.8799999999998
1040
420.0
1040
297.0
1040
50.0
1040
0.0
1040
0.0
1070
     0
1070
   100
1070
     1
1070
     0
1070
     0
1070
     0
1070
     0
1070
     0
1040
0.0
1040
0.0
1040
0.0
1040
10.0
1040
10.0
1040
0.0
1040
0.0
1070
     0
1002
{
1002
}
1002
}
  0
ENDSEC
  0
SECTION
  2
OBJECTS
  0
DICTIONARY
  5
C
330
0
100
AcDbDictionary
  3
ACAD_GROUP
350
D
  3
ACAD_LAYOUT
350
B9A
  3
ACAD_MLINESTYLE
350
E
  3
ACAD_PLOTSETTINGS
350
B9B
1001
ACAD
1000
TREAT_AS_HARD
1070
     0
  0
DICTIONARY
  5
BC7
330
1A
100
AcDbDictionary
  3
ACAD_LAYOUTSELFREF
350
C0B
1001
ACAD
1000
TREAT_AS_HARD
1070
     1
  0
DICTIONARY
  5
BC5
330
17
100
AcDbDictionary
  3
ACAD_LAYOUTSELFREF
350
C0A
1001
ACAD
1000
TREAT_AS_HARD
1070
     1
  0
DICTIONARY
  5
D
102
{ACAD_REACTORS
330
C
102
}
330
C
100
AcDbDictionary
1001
ACAD
1000
TREAT_AS_HARD
1070
     0
  0
DICTIONARY
  5
B9A
102
{ACAD_REACTORS
330
C
102
}
330
C
100
AcDbDictionary
1001
ACAD
1000
TREAT_AS_HARD
1070
     0
  0
DICTIONARY
  5
E
102
{ACAD_REACTORS
330
C
102
}
330
C
100
AcDbDictionary
  3
STANDARD
350
13
1001
ACAD
1000
TREAT_AS_HARD
1070
     0
  0
DICTIONARY
  5
B9B
102
{ACAD_REACTORS
330
C
102
}
330
C
100
AcDbDictionary
1001
ACAD
1000
TREAT_AS_HARD
1070
     0
  0
XRECORD
  5
C0B
102
{ACAD_REACTORS
330
BC7
102
}
330
BC7
100
AcDbXrecord
340
1A
  0
XRECORD
  5
C0A
102
{ACAD_REACTORS
330
BC5
102
}
330
BC5
100
AcDbXrecord
340
17
  0
MLINESTYLE
  5
13
102
{ACAD_REACTORS
330
E
102
}
330
E
100
AcDbMlineStyle
  2
STANDARD
 70
     0
  3

 62
     0
 51
90.0
 52
90.0
 71
     2
 49
0.5
 62
   256
  6
BYLAYER
 49
-0.5
 62
   256
  6
BYLAYER
  0
ENDSEC
  0
EOF
