  0
SECTION
  2
HEADER
  9
$ACADVER
  1
AC1012
  9
$DWGCODEPAGE
  3
dos932
  9
$INSBASE
 10
0.0
 20
0.0
 30
0.0
  9
$EXTMIN
 10
10.05047808566086
 20
4.949376903717846
 30
0.0
  9
$EXTMAX
 10
806.2246110975902
 20
563.7825862828226
 30
0.0
  9
$LIMMIN
 10
0.0
 20
0.0
  9
$LIMMAX
 10
840.0
 20
594.0
  9
$ORTHOMODE
 70
     0
  9
$REGENMODE
 70
     1
  9
$FILLMODE
 70
     1
  9
$QTEXTMODE
 70
     0
  9
$MIRRTEXT
 70
     1
  9
$DRAGMODE
 70
     2
  9
$LTSCALE
 40
2.0
  9
$OSMODE
 70
    37
  9
$ATTMODE
 70
     1
  9
$TEXTSIZE
 40
5.0
  9
$TRACEWID
 40
1.0
  9
$TEXTSTYLE
  7
STANDARD
  9
$CLAYER
  8
SUNPOU
  9
$CELTYPE
  6
BYLAYER
  9
$CECOLOR
 62
   256
  9
$CELTSCALE
 40
1.0
  9
$DELOBJ
 70
     1
  9
$DISPSILH
 70
     0
  9
$DIMSCALE
 40
1.0
  9
$DIMASZ
 40
7.0
  9
$DIMEXO
 40
6.0
  9
$DIMDLI
 40
14.0
  9
$DIMRND
 40
0.0
  9
$DIMDLE
 40
0.0
  9
$DIMEXE
 40
3.0
  9
$DIMTP
 40
0.0
  9
$DIMTM
 40
0.0
  9
$DIMTXT
 40
6.0
  9
$DIMCEN
 40
150.0
  9
$DIMTSZ
 40
0.0
  9
$DIMTOL
 70
     0
  9
$DIMLIM
 70
     0
  9
$DIMTIH
 70
     0
  9
$DIMTOH
 70
     0
  9
$DIMSE1
 70
     0
  9
$DIMSE2
 70
     0
  9
$DIMTAD
 70
     3
  9
$DIMZIN
 70
     0
  9
$DIMBLK
  1

  9
$DIMASO
 70
     1
  9
$DIMSHO
 70
     1
  9
$DIMPOST
  1

  9
$DIMAPOST
  1

  9
$DIMALT
 70
     0
  9
$DIMALTD
 70
     2
  9
$DIMALTF
 40
25.4
  9
$DIMLFAC
 40
1.0
  9
$DIMTOFL
 70
     1
  9
$DIMTVP
 40
0.0
  9
$DIMTIX
 70
     0
  9
$DIMSOXD
 70
     0
  9
$DIMSAH
 70
     1
  9
$DIMBLK1
  1
OPEN
  9
$DIMBLK2
  1
OPEN
  9
$DIMSTYLE
  2
STANDARD
  9
$DIMCLRD
 70
   256
  9
$DIMCLRE
 70
   256
  9
$DIMCLRT
 70
   256
  9
$DIMTFAC
 40
1.0
  9
$DIMGAP
 40
2.0
  9
$DIMJUST
 70
     0
  9
$DIMSD1
 70
     0
  9
$DIMSD2
 70
     0
  9
$DIMTOLJ
 70
     1
  9
$DIMTZIN
 70
     0
  9
$DIMALTZ
 70
     0
  9
$DIMALTTZ
 70
     0
  9
$DIMFIT
 70
     3
  9
$DIMUPT
 70
     0
  9
$DIMUNIT
 70
     2
  9
$DIMDEC
 70
     0
  9
$DIMTDEC
 70
     0
  9
$DIMALTU
 70
     2
  9
$DIMALTTD
 70
     2
  9
$DIMTXSTY
  7
STANDARD
  9
$DIMAUNIT
 70
     0
  9
$LUNITS
 70
     2
  9
$LUPREC
 70
     4
  9
$SKETCHINC
 40
1.0
  9
$FILLETRAD
 40
20.0
  9
$AUNITS
 70
     0
  9
$AUPREC
 70
     0
  9
$MENU
  1
.
  9
$ELEVATION
 40
0.0
  9
$PELEVATION
 40
0.0
  9
$THICKNESS
 40
0.0
  9
$LIMCHECK
 70
     0
  9
$BLIPMODE
 70
     0
  9
$CHAMFERA
 40
20.0
  9
$CHAMFERB
 40
20.0
  9
$CHAMFERC
 40
40.0
  9
$CHAMFERD
 40
0.0
  9
$SKPOLY
 70
     0
  9
$TDCREATE
 40
2451274.683082292
  9
$TDUPDATE
 40
2452393.717566446
  9
$TDINDWG
 40
0.0348578356
  9
$TDUSRTIMER
 40
0.0348578356
  9
$USRTIMER
 70
     1
  9
$ANGBASE
 50
0.0
  9
$ANGDIR
 70
     0
  9
$PDMODE
 70
     0
  9
$PDSIZE
 40
0.0
  9
$PLINEWID
 40
0.0
  9
$COORDS
 70
     1
  9
$SPLFRAME
 70
     0
  9
$SPLINETYPE
 70
     6
  9
$SPLINESEGS
 70
     8
  9
$ATTDIA
 70
     0
  9
$ATTREQ
 70
     1
  9
$HANDLING
 70
 10241
  9
$HANDSEED
  5
B48
  9
$SURFTAB1
 70
     6
  9
$SURFTAB2
 70
     6
  9
$SURFTYPE
 70
     6
  9
$SURFU
 70
     6
  9
$SURFV
 70
     6
  9
$UCSNAME
  2

  9
$UCSORG
 10
0.0
 20
0.0
 30
0.0
  9
$UCSXDIR
 10
1.0
 20
0.0
 30
0.0
  9
$UCSYDIR
 10
0.0
 20
1.0
 30
0.0
  9
$PUCSNAME
  2

  9
$PUCSORG
 10
0.0
 20
0.0
 30
0.0
  9
$PUCSXDIR
 10
1.0
 20
0.0
 30
0.0
  9
$PUCSYDIR
 10
0.0
 20
1.0
 30
0.0
  9
$USERI1
 70
     0
  9
$USERI2
 70
     0
  9
$USERI3
 70
     0
  9
$USERI4
 70
     0
  9
$USERI5
 70
     0
  9
$USERR1
 40
0.0
  9
$USERR2
 40
0.0
  9
$USERR3
 40
0.0
  9
$USERR4
 40
0.0
  9
$USERR5
 40
0.0
  9
$WORLDVIEW
 70
     1
  9
$SHADEDGE
 70
     3
  9
$SHADEDIF
 70
    70
  9
$TILEMODE
 70
     1
  9
$MAXACTVP
 70
    16
  9
$PINSBASE
 10
0.0
 20
0.0
 30
0.0
  9
$PLIMCHECK
 70
     0
  9
$PEXTMIN
 10
0.0
 20
0.0
 30
0.0
  9
$PEXTMAX
 10
420.0
 20
297.0
 30
0.0
  9
$PLIMMIN
 10
0.0
 20
0.0
  9
$PLIMMAX
 10
420.0
 20
297.0
  9
$UNITMODE
 70
     0
  9
$VISRETAIN
 70
     0
  9
$PLINEGEN
 70
     0
  9
$PSLTSCALE
 70
     1
  9
$TREEDEPTH
 70
  3020
  9
$PICKSTYLE
 70
     1
  9
$CMLSTYLE
  2
STANDARD
  9
$CMLJUST
 70
     0
  9
$CMLSCALE
 40
1.0
  9
$SAVEIMAGES
 70
     1
  0
ENDSEC
  0
SECTION
  2
CLASSES
  0
CLASS
  1
ACDBDICTIONARYWDFLT
  2
AcDbDictionaryWithDefault
  3
AutoCAD 2000
 90
    32768
280
     0
281
     0
  0
CLASS
  1
ACDBPLACEHOLDER
  2
AcDbPlaceHolder
  3
AutoCAD 2000
 90
    32768
280
     0
281
     0
  0
CLASS
  1
LAYOUT
  2
AcDbLayout
  3
AutoCAD 2000
 90
    32768
280
     0
281
     0
  0
CLASS
  1
LONG_TRANSACTION
  2
AcDbLongTransaction
  3
AutoCAD 2000
 90
    32768
280
     0
281
     0
  0
CLASS
  1
LWPOLYLINE
  2
AcDbPolyline
  3
AutoCAD 2000
 90
    32768
280
     0
281
     1
  0
CLASS
  1
HATCH
  2
AcDbHatch
  3
AutoCAD 2000
 90
    32768
280
     0
281
     1
  0
CLASS
  1
XRECORD
  2
AcDbXrecord
  3
AutoCAD 2000
 90
    32768
280
     0
281
     0
  0
CLASS
  1
LONG_TRANSACTION
  2
AcDbLongTransaction
  3
AutoCAD 2000
 90
    32768
280
     0
281
     0
  0
CLASS
  1
LWPOLYLINE
  2
AcDbPolyline
  3
AutoCAD 2000
 90
    32768
280
     0
281
     1
  0
CLASS
  1
HATCH
  2
AcDbHatch
  3
AutoCAD 2000
 90
    32768
280
     0
281
     1
  0
CLASS
  1
XRECORD
  2
AcDbXrecord
  3
AutoCAD 2000
 90
    32768
280
     0
281
     0
  0
CLASS
  1
LONG_TRANSACTION
  2
AcDbLongTransaction
  3
AutoCAD 2000
 90
    32768
280
     0
281
     0
  0
CLASS
  1
LWPOLYLINE
  2
AcDbPolyline
  3
AutoCAD 2000
 90
    32768
280
     0
281
     1
  0
CLASS
  1
HATCH
  2
AcDbHatch
  3
AutoCAD 2000
 90
    32768
280
     0
281
     1
  0
CLASS
  1
XRECORD
  2
AcDbXrecord
  3
AutoCAD 2000
 90
    32768
280
     0
281
     0
  0
ENDSEC
  0
SECTION
  2
TABLES
  0
TABLE
  2
VPORT
  5
8
330
0
100
AcDbSymbolTable
 70
     2
  0
VPORT
  5
B45
330
8
100
AcDbSymbolTableRecord
100
AcDbViewportTableRecord
  2
*ACTIVE
 70
     0
 10
0.0
 20
0.0
 11
1.0
 21
1.0
 12
521.2644570068577
 22
284.3817126912649
 13
0.0
 23
0.0
 14
5.0
 24
5.0
 15
0.0
 25
0.0
 16
0.0
 26
0.0
 36
1.0
 17
0.0
 27
0.0
 37
0.0
 40
589.5610395116814
 41
2.169459962756052
 42
50.0
 43
0.0
 44
0.0
 50
0.0
 51
0.0
 71
     0
 72
   100
 73
     1
 74
     0
 75
     0
 76
     0
 77
     0
 78
     0
  0
ENDTAB
  0
TABLE
  2
LTYPE
  5
5
330
0
100
AcDbSymbolTable
 70
     2
  0
LTYPE
  5
14
330
5
100
AcDbSymbolTableRecord
100
AcDbLinetypeTableRecord
  2
BYBLOCK
 70
     0
  3

 72
    65
 73
     0
 40
0.0
  0
LTYPE
  5
15
330
5
100
AcDbSymbolTableRecord
100
AcDbLinetypeTableRecord
  2
BYLAYER
 70
     0
  3

 72
    65
 73
     0
 40
0.0
  0
LTYPE
  5
16
330
5
100
AcDbSymbolTableRecord
100
AcDbLinetypeTableRecord
  2
CONTINUOUS
 70
     0
  3
Solid line
 72
    65
 73
     0
 40
0.0
  0
LTYPE
  5
135
330
5
100
AcDbSymbolTableRecord
100
AcDbLinetypeTableRecord
  2
CENTER
 70
     0
  3
____ _ ____ _ ____ _ ____ _ ____ _ ____ _ ____ 
 72
    65
 73
     4
 40
2.0
 49
1.25
 74
     0
 49
-0.25
 74
     0
 49
0.25
 74
     0
 49
-0.25
 74
     0
  0
ENDTAB
  0
TABLE
  2
LAYER
  5
2
330
0
100
AcDbSymbolTable
 70
     8
  0
LAYER
  5
F
330
2
100
AcDbSymbolTableRecord
100
AcDbLayerTableRecord
  2
0
 70
     0
 62
     7
  6
CONTINUOUS
  0
LAYER
  5
62
330
2
100
AcDbSymbolTableRecord
100
AcDbLayerTableRecord
  2
VIEWPORT
 70
     0
 62
     7
  6
CONTINUOUS
  0
LAYER
  5
65
330
2
100
AcDbSymbolTableRecord
100
AcDbLayerTableRecord
  2
ZUWAKU
 70
     0
 62
     7
  6
CONTINUOUS
  0
LAYER
  5
143
330
2
100
AcDbSymbolTableRecord
100
AcDbLayerTableRecord
  2
SEIHIN
 70
     0
 62
     3
  6
CONTINUOUS
  0
LAYER
  5
144
330
2
100
AcDbSymbolTableRecord
100
AcDbLayerTableRecord
  2
SUNPOU
 70
     0
 62
     4
  6
CONTINUOUS
  0
LAYER
  5
145
330
2
100
AcDbSymbolTableRecord
100
AcDbLayerTableRecord
  2
CENTER_L
 70
     0
 62
     1
  6
CENTER
  0
LAYER
  5
903
330
2
100
AcDbSymbolTableRecord
100
AcDbLayerTableRecord
  2
NOKITOI
 70
     0
 62
     6
  6
CONTINUOUS
  0
LAYER
  5
90C
330
2
100
AcDbSymbolTableRecord
100
AcDbLayerTableRecord
  2
DEFPOINTS
 70
     0
 62
     7
  6
CONTINUOUS
  0
ENDTAB
  0
TABLE
  2
STYLE
  5
3
330
0
100
AcDbSymbolTable
 70
     1
  0
STYLE
  5
10
330
3
100
AcDbSymbolTableRecord
100
AcDbTextStyleTableRecord
  2
STANDARD
 70
     0
 40
0.0
 41
1.0
 50
0.0
 71
     0
 42
5.0
  3
TXT
  4
bigfont.shx
  0
ENDTAB
  0
TABLE
  2
VIEW
  5
6
330
0
100
AcDbSymbolTable
 70
     0
  0
ENDTAB
  0
TABLE
  2
UCS
  5
7
330
0
100
AcDbSymbolTable
 70
     0
  0
ENDTAB
  0
TABLE
  2
APPID
  5
9
330
0
100
AcDbSymbolTable
 70
     1
  0
APPID
  5
11
330
9
100
AcDbSymbolTableRecord
100
AcDbRegAppTableRecord
  2
ACAD
 70
     0
  0
ENDTAB
  0
TABLE
  2
DIMSTYLE
  5
A
330
0
100
AcDbSymbolTable
 70
     1
  0
DIMSTYLE
105
1D
102
{ACAD_REACTORS
330
911
330
91E
330
987
330
994
330
9A1
330
9B0
330
9BD
330
9CA
330
9F1
330
9FE
330
A7F
102
}
330
A
100
AcDbSymbolTableRecord
100
AcDbDimStyleTableRecord
  2
STANDARD
 70
     0
  3

  4

  5

  6

  7

 40
1.0
 41
0.18
 42
0.0625
 43
0.38
 44
0.18
 45
0.0
 46
0.0
 47
0.0
 48
0.0
140
0.18
141
0.09
142
0.0
143
25.4
144
1.0
145
0.0
146
1.0
147
0.09
 71
     0
 72
     0
 73
     1
 74
     1
 75
     0
 76
     0
 77
     0
 78
     0
170
     0
171
     2
172
     0
173
     0
174
     0
175
     0
176
     0
177
     0
178
     0
270
     2
271
     4
272
     4
273
     2
274
     2
340
10
275
     0
280
     0
281
     0
282
     0
283
     1
284
     0
285
     0
286
     0
287
     3
288
     0
  0
ENDTAB
  0
TABLE
  2
BLOCK_RECORD
  5
1
330
0
100
AcDbSymbolTable
 70
    12
  0
BLOCK_RECORD
  5
1A
102
{ACAD_XDICTIONARY
360
B03
102
}
330
1
100
AcDbSymbolTableRecord
100
AcDbBlockTableRecord
  2
*MODEL_SPACE
  0
BLOCK_RECORD
  5
17
102
{ACAD_XDICTIONARY
360
B01
102
}
330
1
100
AcDbSymbolTableRecord
100
AcDbBlockTableRecord
  2
*PAPER_SPACE
  0
BLOCK_RECORD
  5
6D
330
1
100
AcDbSymbolTableRecord
100
AcDbBlockTableRecord
  2
_OPEN
  0
BLOCK_RECORD
  5
904
330
1
100
AcDbSymbolTableRecord
100
AcDbBlockTableRecord
  2
*D1
  0
BLOCK_RECORD
  5
912
330
1
100
AcDbSymbolTableRecord
100
AcDbBlockTableRecord
  2
*D2
  0
BLOCK_RECORD
  5
97B
330
1
100
AcDbSymbolTableRecord
100
AcDbBlockTableRecord
  2
*D3
  0
BLOCK_RECORD
  5
988
330
1
100
AcDbSymbolTableRecord
100
AcDbBlockTableRecord
  2
*D4
  0
BLOCK_RECORD
  5
995
330
1
100
AcDbSymbolTableRecord
100
AcDbBlockTableRecord
  2
*D5
  0
BLOCK_RECORD
  5
9A2
330
1
100
AcDbSymbolTableRecord
100
AcDbBlockTableRecord
  2
*D6
  0
BLOCK_RECORD
  5
9B1
330
1
100
AcDbSymbolTableRecord
100
AcDbBlockTableRecord
  2
*D7
  0
BLOCK_RECORD
  5
9BE
330
1
100
AcDbSymbolTableRecord
100
AcDbBlockTableRecord
  2
*D8
  0
BLOCK_RECORD
  5
9E5
330
1
100
AcDbSymbolTableRecord
100
AcDbBlockTableRecord
  2
*D9
  0
BLOCK_RECORD
  5
9F2
330
1
100
AcDbSymbolTableRecord
100
AcDbBlockTableRecord
  2
*D10
  0
BLOCK_RECORD
  5
A73
330
1
100
AcDbSymbolTableRecord
100
AcDbBlockTableRecord
  2
*D11
  0
ENDTAB
  0
ENDSEC
  0
SECTION
  2
BLOCKS
  0
BLOCK
  5
1B
330
1A
100
AcDbEntity
  8
0
100
AcDbBlockBegin
  2
*MODEL_SPACE
 70
     0
 10
0.0
 20
0.0
 30
0.0
  3
*MODEL_SPACE
  1

  0
ENDBLK
  5
1C
330
1A
100
AcDbEntity
  8
0
100
AcDbBlockEnd
  0
BLOCK
  5
18
330
17
100
AcDbEntity
 67
     1
  8
0
100
AcDbBlockBegin
  2
*PAPER_SPACE
 70
     0
 10
0.0
 20
0.0
 30
0.0
  3
*PAPER_SPACE
  1

  0
ENDBLK
  5
19
330
17
100
AcDbEntity
 67
     1
  8
0
100
AcDbBlockEnd
  0
BLOCK
  5
6E
330
6D
100
AcDbEntity
  8
0
100
AcDbBlockBegin
  2
_OPEN
 70
     0
 10
0.0
 20
0.0
 30
0.0
  3
_OPEN
  1

  0
LINE
  5
6F
330
6D
100
AcDbEntity
  8
0
  6
BYBLOCK
 62
     0
100
AcDbLine
 10
-1.0
 20
0.1666666666666666
 30
0.0
 11
0.0
 21
0.0
 31
0.0
  0
LINE
  5
70
330
6D
100
AcDbEntity
  8
0
  6
BYBLOCK
 62
     0
100
AcDbLine
 10
0.0
 20
0.0
 30
0.0
 11
-1.0
 21
-0.1666666666666666
 31
0.0
  0
LINE
  5
71
330
6D
100
AcDbEntity
  8
0
  6
BYBLOCK
 62
     0
100
AcDbLine
 10
0.0
 20
0.0
 30
0.0
 11
-1.0
 21
0.0
 31
0.0
  0
ENDBLK
  5
72
330
6D
100
AcDbEntity
  8
0
100
AcDbBlockEnd
  0
BLOCK
  5
961
330
904
100
AcDbEntity
  8
0
100
AcDbBlockBegin
  2
*D1
 70
     1
 10
0.0
 20
0.0
 30
0.0
  3
*D1
  1

  0
LINE
  5
962
330
904
100
AcDbEntity
  8
0
  6
BYBLOCK
 62
     4
100
AcDbLine
 10
227.8575779068304
 20
219.9631001714777
 30
0.0
 11
227.8575779068304
 21
238.3684569879428
 31
0.0
  0
LINE
  5
963
330
904
100
AcDbEntity
  8
0
  6
BYBLOCK
 62
     4
100
AcDbLine
 10
57.85757790683035
 20
219.9637001714778
 30
0.0
 11
57.85757790683035
 21
238.3684569879428
 31
0.0
  0
LINE
  5
964
330
904
100
AcDbEntity
  8
0
  6
BYBLOCK
 62
     4
100
AcDbLine
 10
220.8575779068303
 20
235.3684569879428
 30
0.0
 11
64.85757790683035
 21
235.3684569879428
 31
0.0
  0
INSERT
  5
965
330
904
100
AcDbEntity
  8
0
  6
BYBLOCK
 62
     4
100
AcDbBlockReference
  2
_OPEN
 10
227.8575779068304
 20
235.3684569879428
 30
0.0
 41
7.0
 42
7.0
 43
7.0
  0
INSERT
  5
966
330
904
100
AcDbEntity
  8
0
  6
BYBLOCK
 62
     4
100
AcDbBlockReference
  2
_OPEN
 10
57.85757790683035
 20
235.3684569879428
 30
0.0
 41
7.0
 42
7.0
 43
7.0
 50
180.0
  0
MTEXT
  5
967
330
904
100
AcDbEntity
  8
0
  6
BYBLOCK
 62
     4
100
AcDbMText
 10
142.8575779068303
 20
240.3684569879428
 30
0.0
 40
6.0
 41
0.0
 71
     5
 72
     1
  1
\A1;φ170
1001
ACAD
1000
MTEXTBEGIN
1070
    73
1070
     1
1070
    44
1040
1.0
1070
    74
1070
     0
1000
MTEXTEND
1000
MTEXTBEGIN
1070
    73
1070
     1
1070
    44
1040
1.0
1070
    74
1070
     0
1000
MTEXTEND
1000
MTEXTBEGIN
1070
    73
1070
     1
1070
    44
1040
1.0
1070
    74
1070
     0
1000
MTEXTEND
  0
POINT
  5
968
330
904
100
AcDbEntity
  8
DEFPOINTS
  6
BYBLOCK
 62
     0
100
AcDbPoint
 10
227.8575779068304
 20
213.9631001714777
 30
0.0
  0
POINT
  5
969
330
904
100
AcDbEntity
  8
DEFPOINTS
  6
BYBLOCK
 62
     0
100
AcDbPoint
 10
57.85757790683035
 20
213.9637001714778
 30
0.0
  0
POINT
  5
96A
330
904
100
AcDbEntity
  8
DEFPOINTS
  6
BYBLOCK
 62
     0
100
AcDbPoint
 10
57.85757790683035
 20
235.3684569879428
 30
0.0
  0
ENDBLK
  5
96B
330
904
100
AcDbEntity
  8
0
100
AcDbBlockEnd
  0
BLOCK
  5
956
330
912
100
AcDbEntity
  8
0
100
AcDbBlockBegin
  2
*D2
 70
     1
 10
0.0
 20
0.0
 30
0.0
  3
*D2
  1

  0
LINE
  5
957
330
912
100
AcDbEntity
  8
0
  6
BYBLOCK
 62
     4
100
AcDbLine
 10
215.0071779068303
 20
120.9631001714777
 30
0.0
 11
215.0071779068303
 21
93.14419220129456
 31
0.0
  0
LINE
  5
958
330
912
100
AcDbEntity
  8
0
  6
BYBLOCK
 62
     4
100
AcDbLine
 10
70.70717790683033
 20
120.9637001714777
 30
0.0
 11
70.70717790683033
 21
93.14419220129456
 31
0.0
  0
LINE
  5
959
330
912
100
AcDbEntity
  8
0
  6
BYBLOCK
 62
     4
100
AcDbLine
 10
208.0071779068303
 20
96.14419220129457
 30
0.0
 11
77.70717790683034
 21
96.14419220129457
 31
0.0
  0
INSERT
  5
95A
330
912
100
AcDbEntity
  8
0
  6
BYBLOCK
 62
     4
100
AcDbBlockReference
  2
_OPEN
 10
215.0071779068303
 20
96.14419220129457
 30
0.0
 41
7.0
 42
7.0
 43
7.0
  0
INSERT
  5
95B
330
912
100
AcDbEntity
  8
0
  6
BYBLOCK
 62
     4
100
AcDbBlockReference
  2
_OPEN
 10
70.70717790683033
 20
96.14419220129457
 30
0.0
 41
7.0
 42
7.0
 43
7.0
 50
180.0
  0
MTEXT
  5
95C
330
912
100
AcDbEntity
  8
0
  6
BYBLOCK
 62
     4
100
AcDbMText
 10
142.8571779068303
 20
101.1441922012945
 30
0.0
 40
6.0
 41
0.0
 71
     5
 72
     1
  1
\A1;φ144
1001
ACAD
1000
MTEXTBEGIN
1070
    73
1070
     1
1070
    44
1040
1.0
1070
    74
1070
     0
1000
MTEXTEND
1000
MTEXTBEGIN
1070
    73
1070
     1
1070
    44
1040
1.0
1070
    74
1070
     0
1000
MTEXTEND
1000
MTEXTBEGIN
1070
    73
1070
     1
1070
    44
1040
1.0
1070
    74
1070
     0
1000
MTEXTEND
  0
POINT
  5
95D
330
912
100
AcDbEntity
  8
DEFPOINTS
  6
BYBLOCK
 62
     0
100
AcDbPoint
 10
215.0071779068303
 20
126.9631001714777
 30
0.0
  0
POINT
  5
95E
330
912
100
AcDbEntity
  8
DEFPOINTS
  6
BYBLOCK
 62
     0
100
AcDbPoint
 10
70.70717790683033
 20
126.9637001714777
 30
0.0
  0
POINT
  5
95F
330
912
100
AcDbEntity
  8
DEFPOINTS
  6
BYBLOCK
 62
     0
100
AcDbPoint
 10
70.70717790683033
 20
96.14419220129457
 30
0.0
  0
ENDBLK
  5
960
330
912
100
AcDbEntity
  8
0
100
AcDbBlockEnd
  0
BLOCK
  5
97C
330
97B
100
AcDbEntity
  8
0
100
AcDbBlockBegin
  2
*D3
 70
     1
 10
0.0
 20
0.0
 30
0.0
  3
*D3
  1

  0
LINE
  5
97D
330
97B
100
AcDbEntity
  8
0
  6
BYBLOCK
 62
     4
100
AcDbLine
 10
229.8575779068304
 20
210.9631001714777
 30
0.0
 11
250.9146346395091
 21
210.9631001714777
 31
0.0
  0
LINE
  5
97E
330
97B
100
AcDbEntity
  8
0
  6
BYBLOCK
 62
     4
100
AcDbLine
 10
221.0071779068303
 20
126.9631001714777
 30
0.0
 11
250.9146346395091
 21
126.9631001714777
 31
0.0
  0
LINE
  5
97F
330
97B
100
AcDbEntity
  8
0
  6
BYBLOCK
 62
     4
100
AcDbLine
 10
247.9146346395091
 20
203.9631001714777
 30
0.0
 11
247.9146346395091
 21
133.9631001714777
 31
0.0
  0
INSERT
  5
980
330
97B
100
AcDbEntity
  8
0
  6
BYBLOCK
 62
     4
100
AcDbBlockReference
  2
_OPEN
 10
247.9146346395091
 20
210.9631001714777
 30
0.0
 41
7.0
 42
7.0
 43
7.0
 50
90.0
  0
INSERT
  5
981
330
97B
100
AcDbEntity
  8
0
  6
BYBLOCK
 62
     4
100
AcDbBlockReference
  2
_OPEN
 10
247.9146346395091
 20
126.9631001714777
 30
0.0
 41
7.0
 42
7.0
 43
7.0
 50
270.0
  0
MTEXT
  5
982
330
97B
100
AcDbEntity
  8
0
  6
BYBLOCK
 62
     4
100
AcDbMText
 10
242.9146346395091
 20
168.9631001714777
 30
0.0
 40
6.0
 41
0.0
 71
     5
 72
     1
  1
\A1;84
 11
0.0
 21
1.0
 31
0.0
1001
ACAD
1000
MTEXTBEGIN
1070
    73
1070
     1
1070
    44
1040
1.0
1070
    74
1070
     0
1000
MTEXTEND
1000
MTEXTBEGIN
1070
    73
1070
     1
1070
    44
1040
1.0
1070
    74
1070
     0
1000
MTEXTEND
1000
MTEXTBEGIN
1070
    73
1070
     1
1070
    44
1040
1.0
1070
    74
1070
     0
1000
MTEXTEND
  0
POINT
  5
983
330
97B
100
AcDbEntity
  8
DEFPOINTS
  6
BYBLOCK
 62
     0
100
AcDbPoint
 10
223.8575779068304
 20
210.9631001714777
 30
0.0
  0
POINT
  5
984
330
97B
100
AcDbEntity
  8
DEFPOINTS
  6
BYBLOCK
 62
     0
100
AcDbPoint
 10
215.0071779068303
 20
126.9631001714777
 30
0.0
  0
POINT
  5
985
330
97B
100
AcDbEntity
  8
DEFPOINTS
  6
BYBLOCK
 62
     0
100
AcDbPoint
 10
247.9146346395091
 20
126.9631001714777
 30
0.0
  0
ENDBLK
  5
986
330
97B
100
AcDbEntity
  8
0
100
AcDbBlockEnd
  0
BLOCK
  5
989
330
988
100
AcDbEntity
  8
0
100
AcDbBlockBegin
  2
*D4
 70
     1
 10
0.0
 20
0.0
 30
0.0
  3
*D4
  1

  0
LINE
  5
98A
330
988
100
AcDbEntity
  8
0
  6
BYBLOCK
 62
     4
100
AcDbLine
 10
233.8575779068303
 20
213.9631001714777
 30
0.0
 11
269.0613821815263
 21
213.9631001714777
 31
0.0
  0
LINE
  5
98B
330
988
100
AcDbEntity
  8
0
  6
BYBLOCK
 62
     4
100
AcDbLine
 10
221.0071779068303
 20
126.9631001714777
 30
0.0
 11
269.0613821815263
 21
126.9631001714777
 31
0.0
  0
LINE
  5
98C
330
988
100
AcDbEntity
  8
0
  6
BYBLOCK
 62
     4
100
AcDbLine
 10
266.0613821815263
 20
206.9631001714777
 30
0.0
 11
266.0613821815263
 21
133.9631001714777
 31
0.0
  0
INSERT
  5
98D
330
988
100
AcDbEntity
  8
0
  6
BYBLOCK
 62
     4
100
AcDbBlockReference
  2
_OPEN
 10
266.0613821815263
 20
213.9631001714777
 30
0.0
 41
7.0
 42
7.0
 43
7.0
 50
90.0
  0
INSERT
  5
98E
330
988
100
AcDbEntity
  8
0
  6
BYBLOCK
 62
     4
100
AcDbBlockReference
  2
_OPEN
 10
266.0613821815263
 20
126.9631001714777
 30
0.0
 41
7.0
 42
7.0
 43
7.0
 50
270.0
  0
MTEXT
  5
98F
330
988
100
AcDbEntity
  8
0
  6
BYBLOCK
 62
     4
100
AcDbMText
 10
261.0613821815263
 20
170.4631001714777
 30
0.0
 40
6.0
 41
0.0
 71
     5
 72
     1
  1
\A1;87
 11
0.0
 21
1.0
 31
0.0
1001
ACAD
1000
MTEXTBEGIN
1070
    73
1070
     1
1070
    44
1040
1.0
1070
    74
1070
     0
1000
MTEXTEND
1000
MTEXTBEGIN
1070
    73
1070
     1
1070
    44
1040
1.0
1070
    74
1070
     0
1000
MTEXTEND
1000
MTEXTBEGIN
1070
    73
1070
     1
1070
    44
1040
1.0
1070
    74
1070
     0
1000
MTEXTEND
  0
POINT
  5
990
330
988
100
AcDbEntity
  8
DEFPOINTS
  6
BYBLOCK
 62
     0
100
AcDbPoint
 10
227.8575779068304
 20
213.9631001714777
 30
0.0
  0
POINT
  5
991
330
988
100
AcDbEntity
  8
DEFPOINTS
  6
BYBLOCK
 62
     0
100
AcDbPoint
 10
215.0071779068303
 20
126.9631001714777
 30
0.0
  0
POINT
  5
992
330
988
100
AcDbEntity
  8
DEFPOINTS
  6
BYBLOCK
 62
     0
100
AcDbPoint
 10
266.0613821815263
 20
126.9631001714777
 30
0.0
  0
ENDBLK
  5
993
330
988
100
AcDbEntity
  8
0
100
AcDbBlockEnd
  0
BLOCK
  5
A15
330
995
100
AcDbEntity
  8
0
100
AcDbBlockBegin
  2
*D5
 70
     1
 10
0.0
 20
0.0
 30
0.0
  3
*D5
  1

  0
LINE
  5
A16
330
995
100
AcDbEntity
  8
0
  6
BYBLOCK
 62
     4
100
AcDbLine
 10
457.4291629524592
 20
221.9631855508738
 30
0.0
 11
457.4291629524592
 21
251.6466736917611
 31
0.0
  0
LINE
  5
A17
330
995
100
AcDbEntity
  8
0
  6
BYBLOCK
 62
     4
100
AcDbLine
 10
334.9291505746025
 20
221.9638147913543
 30
0.0
 11
334.9291505746025
 21
251.6466736917611
 31
0.0
  0
LINE
  5
A18
330
995
100
AcDbEntity
  8
0
  6
BYBLOCK
 62
     4
100
AcDbLine
 10
450.4291629524591
 20
248.6466736917611
 30
0.0
 11
341.9291505746025
 21
248.6466736917611
 31
0.0
  0
INSERT
  5
A19
330
995
100
AcDbEntity
  8
0
  6
BYBLOCK
 62
     4
100
AcDbBlockReference
  2
_OPEN
 10
457.4291629524592
 20
248.6466736917611
 30
0.0
 41
7.0
 42
7.0
 43
7.0
  0
INSERT
  5
A1A
330
995
100
AcDbEntity
  8
0
  6
BYBLOCK
 62
     4
100
AcDbBlockReference
  2
_OPEN
 10
334.9291505746025
 20
248.6466736917611
 30
0.0
 41
7.0
 42
7.0
 43
7.0
 50
180.0
  0
MTEXT
  5
A1B
330
995
100
AcDbEntity
  8
0
  6
BYBLOCK
 62
     4
100
AcDbMText
 10
396.1791567635308
 20
253.6466736917611
 30
0.0
 40
6.0
 41
0.0
 71
     5
 72
     1
  1
\A1;φ123
1001
ACAD
1000
MTEXTBEGIN
1070
    73
1070
     1
1070
    44
1040
1.0
1070
    74
1070
     0
1000
MTEXTEND
1000
MTEXTBEGIN
1070
    73
1070
     1
1070
    44
1040
1.0
1070
    74
1070
     0
1000
MTEXTEND
1000
MTEXTBEGIN
1070
    73
1070
     1
1070
    44
1040
1.0
1070
    74
1070
     0
1000
MTEXTEND
  0
POINT
  5
A1C
330
995
100
AcDbEntity
  8
DEFPOINTS
  6
BYBLOCK
 62
     0
100
AcDbPoint
 10
457.4291629524592
 20
215.9631855508738
 30
0.0
  0
POINT
  5
A1D
330
995
100
AcDbEntity
  8
DEFPOINTS
  6
BYBLOCK
 62
     0
100
AcDbPoint
 10
334.9291505746025
 20
215.9638147913543
 30
0.0
  0
POINT
  5
A1E
330
995
100
AcDbEntity
  8
DEFPOINTS
  6
BYBLOCK
 62
     0
100
AcDbPoint
 10
334.9291505746025
 20
248.6466736917611
 30
0.0
  0
ENDBLK
  5
A1F
330
995
100
AcDbEntity
  8
0
100
AcDbBlockEnd
  0
BLOCK
  5
9D8
330
9A2
100
AcDbEntity
  8
0
100
AcDbBlockBegin
  2
*D6
 70
     1
 10
0.0
 20
0.0
 30
0.0
  3
*D6
  1

  0
LINE
  5
9D9
330
9A2
100
AcDbEntity
  8
0
  6
BYBLOCK
 62
     4
100
AcDbLine
 10
478.1789384030556
 20
177.9632001714777
 30
0.0
 11
495.1528773260315
 21
177.9632001714777
 31
0.0
  0
LINE
  5
9DA
330
9A2
100
AcDbEntity
  8
0
  6
BYBLOCK
 62
     4
100
AcDbLine
 10
482.1789384030556
 20
175.9631001714777
 30
0.0
 11
495.1528773260315
 21
175.9631001714777
 31
0.0
  0
LINE
  5
9DB
330
9A2
100
AcDbEntity
  8
0
  6
BYBLOCK
 62
     4
100
AcDbLine
 10
492.1528773260315
 20
168.9631001714777
 30
0.0
 11
492.1528773260315
 21
161.9631001714777
 31
0.0
  0
LINE
  5
9DC
330
9A2
100
AcDbEntity
  8
0
  6
BYBLOCK
 62
     4
100
AcDbLine
 10
492.1528773260315
 20
184.9632001714777
 30
0.0
 11
492.1528773260315
 21
199.9632001714777
 31
0.0
  0
LINE
  5
9DD
330
9A2
100
AcDbEntity
  8
0
  6
BYBLOCK
 62
     4
100
AcDbLine
 10
492.1528773260315
 20
175.9631001714777
 30
0.0
 11
492.1528773260315
 21
177.9632001714777
 31
0.0
  0
INSERT
  5
9DE
330
9A2
100
AcDbEntity
  8
0
  6
BYBLOCK
 62
     4
100
AcDbBlockReference
  2
_OPEN
 10
492.1528773260315
 20
175.9631001714777
 30
0.0
 41
7.0
 42
7.0
 43
7.0
 50
90.0
  0
INSERT
  5
9DF
330
9A2
100
AcDbEntity
  8
0
  6
BYBLOCK
 62
     4
100
AcDbBlockReference
  2
_OPEN
 10
492.1528773260315
 20
177.9632001714777
 30
0.0
 41
7.0
 42
7.0
 43
7.0
 50
270.0
  0
MTEXT
  5
9E0
330
9A2
100
AcDbEntity
  8
0
  6
BYBLOCK
 62
     4
100
AcDbMText
 10
487.1528773260315
 20
195.9632001714777
 30
0.0
 40
6.0
 41
0.0
 71
     5
 72
     1
  1
\A1;2
 11
0.0
 21
1.0
 31
0.0
1001
ACAD
1000
MTEXTBEGIN
1070
    73
1070
     1
1070
    44
1040
1.0
1070
    74
1070
     0
1000
MTEXTEND
1000
MTEXTBEGIN
1070
    73
1070
     1
1070
    44
1040
1.0
1070
    74
1070
     0
1000
MTEXTEND
1000
MTEXTBEGIN
1070
    73
1070
     1
1070
    44
1040
1.0
1070
    74
1070
     0
1000
MTEXTEND
  0
POINT
  5
9E1
330
9A2
100
AcDbEntity
  8
DEFPOINTS
  6
BYBLOCK
 62
     0
100
AcDbPoint
 10
472.1789384030556
 20
177.9632001714777
 30
0.0
  0
POINT
  5
9E2
330
9A2
100
AcDbEntity
  8
DEFPOINTS
  6
BYBLOCK
 62
     0
100
AcDbPoint
 10
476.1789384030556
 20
175.9631001714777
 30
0.0
  0
POINT
  5
9E3
330
9A2
100
AcDbEntity
  8
DEFPOINTS
  6
BYBLOCK
 62
     0
100
AcDbPoint
 10
492.1528773260315
 20
175.9631001714777
 30
0.0
  0
ENDBLK
  5
9E4
330
9A2
100
AcDbEntity
  8
0
100
AcDbBlockEnd
  0
BLOCK
  5
9B2
330
9B1
100
AcDbEntity
  8
0
100
AcDbBlockBegin
  2
*D7
 70
     1
 10
0.0
 20
0.0
 30
0.0
  3
*D7
  1

  0
LINE
  5
9B3
330
9B1
100
AcDbEntity
  8
0
  6
BYBLOCK
 62
     4
100
AcDbLine
 10
482.1789384030556
 20
175.9631001714777
 30
0.0
 11
514.1889354703021
 21
175.9631001714777
 31
0.0
  0
LINE
  5
9B4
330
9B1
100
AcDbEntity
  8
0
  6
BYBLOCK
 62
     4
100
AcDbLine
 10
467.5136344545274
 20
140.9632001715
 30
0.0
 11
514.1889354703021
 21
140.9632001715
 31
0.0
  0
LINE
  5
9B5
330
9B1
100
AcDbEntity
  8
0
  6
BYBLOCK
 62
     4
100
AcDbLine
 10
511.1889354703021
 20
168.9631001714777
 30
0.0
 11
511.1889354703021
 21
147.9632001715
 31
0.0
  0
INSERT
  5
9B6
330
9B1
100
AcDbEntity
  8
0
  6
BYBLOCK
 62
     4
100
AcDbBlockReference
  2
_OPEN
 10
511.1889354703021
 20
175.9631001714777
 30
0.0
 41
7.0
 42
7.0
 43
7.0
 50
90.0
  0
INSERT
  5
9B7
330
9B1
100
AcDbEntity
  8
0
  6
BYBLOCK
 62
     4
100
AcDbBlockReference
  2
_OPEN
 10
511.1889354703021
 20
140.9632001715
 30
0.0
 41
7.0
 42
7.0
 43
7.0
 50
270.0
  0
MTEXT
  5
9B8
330
9B1
100
AcDbEntity
  8
0
  6
BYBLOCK
 62
     4
100
AcDbMText
 10
506.1889354703021
 20
158.4631501714889
 30
0.0
 40
6.0
 41
0.0
 71
     5
 72
     1
  1
\A1;35
 11
0.0
 21
1.0
 31
0.0
1001
ACAD
1000
MTEXTBEGIN
1070
    73
1070
     1
1070
    44
1040
1.0
1070
    74
1070
     0
1000
MTEXTEND
1000
MTEXTBEGIN
1070
    73
1070
     1
1070
    44
1040
1.0
1070
    74
1070
     0
1000
MTEXTEND
1000
MTEXTBEGIN
1070
    73
1070
     1
1070
    44
1040
1.0
1070
    74
1070
     0
1000
MTEXTEND
  0
POINT
  5
9B9
330
9B1
100
AcDbEntity
  8
DEFPOINTS
  6
BYBLOCK
 62
     0
100
AcDbPoint
 10
476.1789384030556
 20
175.9631001714777
 30
0.0
  0
POINT
  5
9BA
330
9B1
100
AcDbEntity
  8
DEFPOINTS
  6
BYBLOCK
 62
     0
100
AcDbPoint
 10
461.5136344545274
 20
140.9632001715
 30
0.0
  0
POINT
  5
9BB
330
9B1
100
AcDbEntity
  8
DEFPOINTS
  6
BYBLOCK
 62
     0
100
AcDbPoint
 10
511.1889354703021
 20
140.9632001715
 30
0.0
  0
ENDBLK
  5
9BC
330
9B1
100
AcDbEntity
  8
0
100
AcDbBlockEnd
  0
BLOCK
  5
9BF
330
9BE
100
AcDbEntity
  8
0
100
AcDbBlockBegin
  2
*D8
 70
     1
 10
0.0
 20
0.0
 30
0.0
  3
*D8
  1

  0
LINE
  5
9C0
330
9BE
100
AcDbEntity
  8
0
  6
BYBLOCK
 62
     4
100
AcDbLine
 10
460.5828384030555
 20
215.9632001714777
 30
0.0
 11
534.1476359996408
 21
215.9632001714777
 31
0.0
  0
LINE
  5
9C1
330
9BE
100
AcDbEntity
  8
0
  6
BYBLOCK
 62
     4
100
AcDbLine
 10
467.5136344545274
 20
140.9632001715
 30
0.0
 11
534.1476359996408
 21
140.9632001715
 31
0.0
  0
LINE
  5
9C2
330
9BE
100
AcDbEntity
  8
0
  6
BYBLOCK
 62
     4
100
AcDbLine
 10
531.1476359996409
 20
208.9632001714777
 30
0.0
 11
531.1476359996409
 21
147.9632001715
 31
0.0
  0
INSERT
  5
9C3
330
9BE
100
AcDbEntity
  8
0
  6
BYBLOCK
 62
     4
100
AcDbBlockReference
  2
_OPEN
 10
531.1476359996409
 20
215.9632001714777
 30
0.0
 41
7.0
 42
7.0
 43
7.0
 50
90.0
  0
INSERT
  5
9C4
330
9BE
100
AcDbEntity
  8
0
  6
BYBLOCK
 62
     4
100
AcDbBlockReference
  2
_OPEN
 10
531.1476359996409
 20
140.9632001715
 30
0.0
 41
7.0
 42
7.0
 43
7.0
 50
270.0
  0
MTEXT
  5
9C5
330
9BE
100
AcDbEntity
  8
0
  6
BYBLOCK
 62
     4
100
AcDbMText
 10
526.1476359996408
 20
178.4632001714888
 30
0.0
 40
6.0
 41
0.0
 71
     5
 72
     1
  1
\A1;75
 11
0.0
 21
1.0
 31
0.0
1001
ACAD
1000
MTEXTBEGIN
1070
    73
1070
     1
1070
    44
1040
1.0
1070
    74
1070
     0
1000
MTEXTEND
1000
MTEXTBEGIN
1070
    73
1070
     1
1070
    44
1040
1.0
1070
    74
1070
     0
1000
MTEXTEND
1000
MTEXTBEGIN
1070
    73
1070
     1
1070
    44
1040
1.0
1070
    74
1070
     0
1000
MTEXTEND
  0
POINT
  5
9C6
330
9BE
100
AcDbEntity
  8
DEFPOINTS
  6
BYBLOCK
 62
     0
100
AcDbPoint
 10
454.5828384030555
 20
215.9632001714777
 30
0.0
  0
POINT
  5
9C7
330
9BE
100
AcDbEntity
  8
DEFPOINTS
  6
BYBLOCK
 62
     0
100
AcDbPoint
 10
461.5136344545274
 20
140.9632001715
 30
0.0
  0
POINT
  5
9C8
330
9BE
100
AcDbEntity
  8
DEFPOINTS
  6
BYBLOCK
 62
     0
100
AcDbPoint
 10
531.1476359996409
 20
140.9632001715
 30
0.0
  0
ENDBLK
  5
9C9
330
9BE
100
AcDbEntity
  8
0
100
AcDbBlockEnd
  0
BLOCK
  5
A57
330
9E5
100
AcDbEntity
  8
0
100
AcDbBlockBegin
  2
*D9
 70
     1
 10
0.0
 20
0.0
 30
0.0
  3
*D9
  1

  0
LINE
  5
A58
330
9E5
100
AcDbEntity
  8
0
  6
BYBLOCK
 62
     4
100
AcDbLine
 10
463.6787344545274
 20
135.9632001715
 30
0.0
 11
463.6787344545274
 21
109.3280499802153
 31
0.0
  0
LINE
  5
A59
330
9E5
100
AcDbEntity
  8
0
  6
BYBLOCK
 62
     4
100
AcDbLine
 10
328.6789925060572
 20
135.9634599470828
 30
0.0
 11
328.6789925060572
 21
109.3280499802153
 31
0.0
  0
LINE
  5
A5A
330
9E5
100
AcDbEntity
  8
0
  6
BYBLOCK
 62
     4
100
AcDbLine
 10
456.6787344545273
 20
112.3280499802153
 30
0.0
 11
335.6789925060572
 21
112.3280499802153
 31
0.0
  0
INSERT
  5
A5B
330
9E5
100
AcDbEntity
  8
0
  6
BYBLOCK
 62
     4
100
AcDbBlockReference
  2
_OPEN
 10
463.6787344545274
 20
112.3280499802153
 30
0.0
 41
7.0
 42
7.0
 43
7.0
  0
INSERT
  5
A5C
330
9E5
100
AcDbEntity
  8
0
  6
BYBLOCK
 62
     4
100
AcDbBlockReference
  2
_OPEN
 10
328.6789925060572
 20
112.3280499802153
 30
0.0
 41
7.0
 42
7.0
 43
7.0
 50
180.0
  0
MTEXT
  5
A5D
330
9E5
100
AcDbEntity
  8
0
  6
BYBLOCK
 62
     4
100
AcDbMText
 10
396.1788634802923
 20
117.3280499802153
 30
0.0
 40
6.0
 41
0.0
 71
     5
 72
     1
  1
\A1;φ135
1001
ACAD
1000
MTEXTBEGIN
1070
    73
1070
     1
1070
    44
1040
1.0
1070
    74
1070
     0
1000
MTEXTEND
1000
MTEXTBEGIN
1070
    73
1070
     1
1070
    44
1040
1.0
1070
    74
1070
     0
1000
MTEXTEND
1000
MTEXTBEGIN
1070
    73
1070
     1
1070
    44
1040
1.0
1070
    74
1070
     0
1000
MTEXTEND
  0
POINT
  5
A5E
330
9E5
100
AcDbEntity
  8
DEFPOINTS
  6
BYBLOCK
 62
     0
100
AcDbPoint
 10
463.6787344545274
 20
141.9632001715
 30
0.0
  0
POINT
  5
A5F
330
9E5
100
AcDbEntity
  8
DEFPOINTS
  6
BYBLOCK
 62
     0
100
AcDbPoint
 10
328.6789925060572
 20
141.9634599470828
 30
0.0
  0
POINT
  5
A60
330
9E5
100
AcDbEntity
  8
DEFPOINTS
  6
BYBLOCK
 62
     0
100
AcDbPoint
 10
328.6789925060572
 20
112.3280499802153
 30
0.0
  0
ENDBLK
  5
A61
330
9E5
100
AcDbEntity
  8
0
100
AcDbBlockEnd
  0
BLOCK
  5
A36
330
9F2
100
AcDbEntity
  8
0
100
AcDbBlockBegin
  2
*D10
 70
     1
 10
0.0
 20
0.0
 30
0.0
  3
*D10
  1

  0
LINE
  5
A37
330
9F2
100
AcDbEntity
  8
0
  6
BYBLOCK
 62
     4
100
AcDbLine
 10
476.1789384030556
 20
182.9631001714777
 30
0.0
 11
476.1789384030556
 21
273.9586258885044
 31
0.0
  0
LINE
  5
A38
330
9F2
100
AcDbEntity
  8
0
  6
BYBLOCK
 62
     4
100
AcDbLine
 10
316.1789384030555
 20
182.9639001714778
 30
0.0
 11
316.1789384030555
 21
273.9586258885044
 31
0.0
  0
LINE
  5
A39
330
9F2
100
AcDbEntity
  8
0
  6
BYBLOCK
 62
     4
100
AcDbLine
 10
469.1789384030555
 20
270.9586258885044
 30
0.0
 11
323.1789384030555
 21
270.9586258885044
 31
0.0
  0
INSERT
  5
A3A
330
9F2
100
AcDbEntity
  8
0
  6
BYBLOCK
 62
     4
100
AcDbBlockReference
  2
_OPEN
 10
476.1789384030556
 20
270.9586258885044
 30
0.0
 41
7.0
 42
7.0
 43
7.0
  0
INSERT
  5
A3B
330
9F2
100
AcDbEntity
  8
0
  6
BYBLOCK
 62
     4
100
AcDbBlockReference
  2
_OPEN
 10
316.1789384030555
 20
270.9586258885044
 30
0.0
 41
7.0
 42
7.0
 43
7.0
 50
180.0
  0
MTEXT
  5
A3C
330
9F2
100
AcDbEntity
  8
0
  6
BYBLOCK
 62
     4
100
AcDbMText
 10
396.1789384030555
 20
275.9586258885044
 30
0.0
 40
6.0
 41
0.0
 71
     5
 72
     1
  1
\A1;φ160
1001
ACAD
1000
MTEXTBEGIN
1070
    73
1070
     1
1070
    44
1040
1.0
1070
    74
1070
     0
1000
MTEXTEND
1000
MTEXTBEGIN
1070
    73
1070
     1
1070
    44
1040
1.0
1070
    74
1070
     0
1000
MTEXTEND
1000
MTEXTBEGIN
1070
    73
1070
     1
1070
    44
1040
1.0
1070
    74
1070
     0
1000
MTEXTEND
  0
POINT
  5
A3D
330
9F2
100
AcDbEntity
  8
DEFPOINTS
  6
BYBLOCK
 62
     0
100
AcDbPoint
 10
476.1789384030556
 20
176.9631001714777
 30
0.0
  0
POINT
  5
A3E
330
9F2
100
AcDbEntity
  8
DEFPOINTS
  6
BYBLOCK
 62
     0
100
AcDbPoint
 10
316.1789384030555
 20
176.9639001714778
 30
0.0
  0
POINT
  5
A3F
330
9F2
100
AcDbEntity
  8
DEFPOINTS
  6
BYBLOCK
 62
     0
100
AcDbPoint
 10
316.1789384030555
 20
270.9586258885044
 30
0.0
  0
ENDBLK
  5
A40
330
9F2
100
AcDbEntity
  8
0
100
AcDbBlockEnd
  0
BLOCK
  5
AB7
330
A73
100
AcDbEntity
  8
0
100
AcDbBlockBegin
  2
*D11
 70
     1
 10
0.0
 20
0.0
 30
0.0
  3
*D11
  1

  0
LINE
  5
AB8
330
A73
100
AcDbEntity
  8
0
  6
BYBLOCK
 62
     4
100
AcDbLine
 10
729.7156172178691
 20
372.5810146394103
 30
0.0
 11
729.7156172178691
 21
318.2402784146356
 31
0.0
  0
LINE
  5
AB9
330
A73
100
AcDbEntity
  8
0
  6
BYBLOCK
 62
     4
100
AcDbLine
 10
593.7156181226221
 20
372.9925138050404
 30
0.0
 11
593.7156181226221
 21
318.2402784146356
 31
0.0
  0
LINE
  5
ABA
330
A73
100
AcDbEntity
  8
0
  6
BYBLOCK
 62
     4
100
AcDbLine
 10
722.715617217869
 20
321.2402784146356
 30
0.0
 11
600.7156181226221
 21
321.2402784146356
 31
0.0
  0
INSERT
  5
ABB
330
A73
100
AcDbEntity
  8
0
  6
BYBLOCK
 62
     4
100
AcDbBlockReference
  2
_OPEN
 10
729.7156172178691
 20
321.2402784146356
 30
0.0
 41
7.0
 42
7.0
 43
7.0
  0
INSERT
  5
ABC
330
A73
100
AcDbEntity
  8
0
  6
BYBLOCK
 62
     4
100
AcDbBlockReference
  2
_OPEN
 10
593.7156181226221
 20
321.2402784146356
 30
0.0
 41
7.0
 42
7.0
 43
7.0
 50
180.0
  0
MTEXT
  5
ABD
330
A73
100
AcDbEntity
  8
0
  6
BYBLOCK
 62
     4
100
AcDbMText
 10
661.7156176702455
 20
326.2402784146356
 30
0.0
 40
6.0
 41
0.0
 71
     5
 72
     1
  1
\A1;穴径 φ136
1001
ACAD
1000
MTEXTBEGIN
1070
    73
1070
     1
1070
    44
1040
1.0
1070
    74
1070
     0
1000
MTEXTEND
1000
MTEXTBEGIN
1070
    73
1070
     1
1070
    44
1040
1.0
1070
    74
1070
     0
1000
MTEXTEND
1000
MTEXTBEGIN
1070
    73
1070
     1
1070
    44
1040
1.0
1070
    74
1070
     0
1000
MTEXTEND
  0
POINT
  5
ABE
330
A73
100
AcDbEntity
  8
DEFPOINTS
  6
BYBLOCK
 62
     0
100
AcDbPoint
 10
729.7156172178691
 20
378.5810146394103
 30
0.0
  0
POINT
  5
ABF
330
A73
100
AcDbEntity
  8
DEFPOINTS
  6
BYBLOCK
 62
     0
100
AcDbPoint
 10
593.7156181226221
 20
378.9925138050404
 30
0.0
  0
POINT
  5
AC0
330
A73
100
AcDbEntity
  8
DEFPOINTS
  6
BYBLOCK
 62
     0
100
AcDbPoint
 10
593.7156181226221
 20
321.2402784146356
 30
0.0
  0
ENDBLK
  5
AC1
330
A73
100
AcDbEntity
  8
0
100
AcDbBlockEnd
  0
ENDSEC
  0
SECTION
  2
ENTITIES
  0
TEXT
  5
11A
330
1A
100
AcDbEntity
  8
ZUWAKU
 62
     7
 48
10.0
100
AcDbText
 10
795.5579444309237
 20
4.974918402528146
 30
0.0
 40
8.0
  1
A1
100
AcDbText
  0
LINE
  5
11B
330
1A
100
AcDbEntity
  8
ZUWAKU
 62
     7
 48
10.0
100
AcDbLine
 10
10.05047808566086
 20
25.78258628282265
 30
0.0
 11
806.0504780856609
 21
25.78258628282253
 31
0.0
  0
LINE
  5
11C
330
1A
100
AcDbEntity
  8
ZUWAKU
  6
CONTINUOUS
 62
     7
100
AcDbLine
 10
806.0504780856609
 20
563.7825862828226
 30
0.0
 11
10.05047808566086
 21
563.7825862828226
 31
0.0
  0
LINE
  5
11D
330
1A
100
AcDbEntity
  8
ZUWAKU
  6
CONTINUOUS
 62
     7
100
AcDbLine
 10
806.0504780856609
 20
13.78258628282265
 30
0.0
 11
10.05047808566086
 21
13.78258628282265
 31
0.0
  0
LINE
  5
11E
330
1A
100
AcDbEntity
  8
ZUWAKU
  6
CONTINUOUS
 62
     7
100
AcDbLine
 10
10.05047808566086
 20
563.7825862828226
 30
0.0
 11
10.05047808566086
 21
13.78258628282265
 31
0.0
  0
LINE
  5
11F
330
1A
100
AcDbEntity
  8
ZUWAKU
 62
     7
 48
10.0
100
AcDbLine
 10
44.55797523147839
 20
13.78258628282265
 30
0.0
 11
44.5579752314784
 21
25.78258628282265
 31
0.0
  0
TEXT
  5
120
330
1A
100
AcDbEntity
  8
ZUWAKU
 62
     7
100
AcDbText
 10
16.05676551180931
 20
15.52294263804401
 30
0.0
 40
8.0
  1
品 種
100
AcDbText
  0
LINE
  5
121
330
1A
100
AcDbEntity
  8
ZUWAKU
 62
     7
 48
10.0
100
AcDbLine
 10
276.1028387068254
 20
13.78258628282265
 30
0.0
 11
276.1028387068254
 21
25.78258628282261
 31
0.0
  0
LINE
  5
122
330
1A
100
AcDbEntity
  8
ZUWAKU
 62
     7
 48
10.0
100
AcDbLine
 10
209.5138526425484
 20
13.78258628282265
 30
0.0
 11
209.5138526425485
 21
25.78258628282263
 31
0.0
  0
TEXT
  5
124
330
1A
100
AcDbEntity
  8
ZUWAKU
 62
     7
100
AcDbText
 10
215.4560837190756
 20
16.18358115302453
 30
0.0
 40
8.0
  1
品名・ｻ ｲ ｽﾞ
100
AcDbText
  0
LINE
  5
126
330
1A
100
AcDbEntity
  8
ZUWAKU
 62
     7
 48
10.0
100
AcDbLine
 10
768.7231079932794
 20
13.78258628282237
 30
0.0
 11
768.7231079932794
 21
25.78258628282254
 31
0.0
  0
LINE
  5
127
330
1A
100
AcDbEntity
  8
ZUWAKU
 62
     7
 48
10.0
100
AcDbLine
 10
733.8119002376948
 20
13.78258628282242
 30
0.0
 11
733.8119002376946
 21
25.78258628282254
 31
0.0
  0
TEXT
  5
128
330
1A
100
AcDbEntity
  8
ZUWAKU
 62
     7
100
AcDbText
 10
739.6955629973526
 20
15.24227755810852
 30
0.0
 40
8.0
  1
尺 度
100
AcDbText
  0
TEXT
  5
129
330
1A
100
AcDbEntity
  8
ZUWAKU
 62
     7
100
AcDbText
 10
779.7374630323229
 20
15.55488920081529
 30
0.0
 40
8.0
  1
1/2
100
AcDbText
  0
TEXT
  5
12B
330
1A
100
AcDbEntity
  8
ZUWAKU
 62
     7
100
AcDbText
 10
620.3363288383084
 20
15.6519090944263
 30
0.0
 40
8.0
  1
品 番
100
AcDbText
  0
LINE
  5
12C
330
1A
100
AcDbEntity
  8
ZUWAKU
 62
     7
 48
10.0
100
AcDbLine
 10
614.3351028194128
 20
13.78258628282232
 30
0.0
 11
614.3351028194128
 21
25.78258628282256
 31
0.0
  0
LINE
  5
12D
330
1A
100
AcDbEntity
  8
ZUWAKU
 62
     7
 48
10.0
100
AcDbLine
 10
648.7607587371021
 20
13.78258628282232
 30
0.0
 11
648.7607587371021
 21
25.78258628282255
 31
0.0
  0
TEXT
  5
12E
330
1A
100
AcDbEntity
  8
ZUWAKU
 62
     7
 48
10.0
100
AcDbText
 10
646.2758615931216
 20
4.949376903717848
 30
0.0
 40
8.0
  1
積水化学工業株式会社  建材
100
AcDbText
  0
LINE
  5
12F
330
1A
100
AcDbEntity
  8
ZUWAKU
  6
CONTINUOUS
 62
     7
100
AcDbLine
 10
806.0504780856609
 20
563.7825862828226
 30
0.0
 11
806.0504780856609
 21
13.78258628282265
 31
0.0
  0
TEXT
  5
3CC
330
1A
100
AcDbEntity
  8
ZUWAKU
 62
     7
100
AcDbText
 10
50.3519382305086
 20
16.10306189639755
 30
0.0
 40
8.0
  1
自在ドレン
100
AcDbText
  0
TEXT
  5
3D4
330
1A
100
AcDbEntity
  8
ZUWAKU
 62
     7
100
AcDbText
 10
282.3131429914078
 20
15.64241700452384
 30
0.0
 40
8.0
  1
ＶＵ・ＶＰ１２５
100
AcDbText
  0
LINE
  5
3E4
330
1A
100
AcDbEntity
  8
SEIHIN
  6
CONTINUOUS
100
AcDbLine
 10
57.85757790683035
 20
213.9637001714778
 30
0.0
 11
227.8575779068304
 21
213.9631001714777
 31
0.0
  0
LINE
  5
3E5
330
1A
100
AcDbEntity
  8
SEIHIN
  6
CONTINUOUS
100
AcDbLine
 10
57.88836933917247
 20
211.9637000628022
 30
0.0
 11
227.8575779068304
 21
211.9631001714777
 31
0.0
  0
LINE
  5
3E6
330
1A
100
AcDbEntity
  8
SEIHIN
  6
CONTINUOUS
100
AcDbLine
 10
61.85837192204553
 20
210.9637001677963
 30
0.0
 11
223.8575779068304
 21
210.9631001714777
 31
0.0
  0
LINE
  5
3EE
330
1A
100
AcDbEntity
  8
SEIHIN
  6
CONTINUOUS
100
AcDbLine
 10
70.40757790683034
 20
208.9637001714777
 30
0.0
 11
68.40757790683034
 21
210.9639001714778
 31
0.0
  0
LINE
  5
3EF
330
1A
100
AcDbEntity
  8
CENTER_L
 48
5.0
100
AcDbLine
 10
142.8575780306248
 20
220.963400171521
 30
0.0
 11
142.8573779068303
 21
116.9634001714777
 31
0.0
  0
LINE
  5
3F0
330
1A
100
AcDbEntity
  8
SEIHIN
  6
CONTINUOUS
100
AcDbLine
 10
70.70717790683033
 20
126.9637001714777
 30
0.0
 11
70.40757790683034
 21
208.9637001714777
 31
0.0
  0
LINE
  5
3FD
330
1A
100
AcDbEntity
  8
SEIHIN
  6
CONTINUOUS
100
AcDbLine
 10
57.85757790683035
 20
211.9640001714777
 30
0.0
 11
57.85757790683035
 21
213.9640001714777
 31
0.0
  0
LINE
  5
3FE
330
1A
100
AcDbEntity
  8
SEIHIN
  6
CONTINUOUS
100
AcDbLine
 10
57.88717790683034
 20
211.9640001714777
 30
0.0
 11
61.85757790683036
 21
210.9639001714778
 31
0.0
  0
LINE
  5
418
330
1A
100
AcDbEntity
  8
SEIHIN
  6
CONTINUOUS
100
AcDbLine
 10
217.3075779068303
 20
210.9632001714777
 30
0.0
 11
215.3075779068303
 21
208.9631001714777
 31
0.0
  0
LINE
  5
420
330
1A
100
AcDbEntity
  8
SEIHIN
  6
CONTINUOUS
100
AcDbLine
 10
215.3075779068303
 20
208.9631001714777
 30
0.0
 11
215.0071779068303
 21
126.9631001714777
 31
0.0
  0
LINE
  5
43E
330
1A
100
AcDbEntity
  8
SEIHIN
  6
CONTINUOUS
100
AcDbLine
 10
227.8575779068304
 20
211.9631001714777
 30
0.0
 11
223.8575779068304
 21
210.9631001714777
 31
0.0
  0
LINE
  5
441
330
1A
100
AcDbEntity
  8
SEIHIN
  6
CONTINUOUS
100
AcDbLine
 10
227.8575779068304
 20
213.9631001714777
 30
0.0
 11
227.8575779068304
 21
211.9631001714777
 31
0.0
  0
LINE
  5
45E
330
1A
100
AcDbEntity
  8
CENTER_L
 48
5.0
100
AcDbLine
 10
35.85816957960577
 20
399.7521805172956
 30
0.0
 11
249.8580779068081
 21
399.7516411187295
 31
0.0
  0
ARC
  5
45F
330
1A
100
AcDbEntity
  8
SEIHIN
  6
CONTINUOUS
100
AcDbCircle
 10
142.858077923488
 20
399.7517587626154
 30
0.0
 40
84.99999998340113
100
AcDbArc
 50
0.0000674067994426
 51
359.9999325932005
  0
LINE
  5
461
330
1A
100
AcDbEntity
  8
CENTER_L
 48
5.0
100
AcDbLine
 10
142.8582797879818
 20
506.7518649818399
 30
0.0
 11
142.857967698432
 21
292.7519566541852
 31
0.0
  0
TEXT
  5
4BB
330
1A
100
AcDbEntity
  8
ZUWAKU
 62
     7
100
AcDbText
 10
654.2531733678779
 20
15.90287984531518
 30
0.0
 40
8.0
  1
ＧＬ１０
100
AcDbText
  0
LINE
  5
4BE
330
1A
100
AcDbEntity
  8
CENTER_L
 48
5.0
100
AcDbLine
 10
661.7156358660452
 20
252.0751573434834
 30
0.0
 11
661.7154358660452
 21
142.5366573434834
 31
0.0
  0
LINE
  5
4C8
330
1A
100
AcDbEntity
  8
SEIHIN
  6
CONTINUOUS
100
AcDbLine
 10
594.2156358660452
 20
235.4146573434834
 30
0.0
 11
729.2157358660453
 21
235.4146573434834
 31
0.0
  0
LINE
  5
4C9
330
1A
100
AcDbEntity
  8
SEIHIN
  6
CONTINUOUS
100
AcDbLine
 10
661.7155358660452
 20
242.5366573434835
 30
0.0
 11
576.7155358660452
 21
242.5366573434835
 31
0.0
  0
LINE
  5
4CA
330
1A
100
AcDbEntity
  8
SEIHIN
  6
CONTINUOUS
100
AcDbLine
 10
594.2157358660451
 20
207.5365573434834
 30
0.0
 11
661.7157358660453
 21
207.5366573434834
 31
0.0
  0
LINE
  5
4CB
330
1A
100
AcDbEntity
  8
SEIHIN
  6
CONTINUOUS
100
AcDbLine
 10
661.7159358660453
 20
155.5366573434834
 30
0.0
 11
589.5656358660451
 21
155.5365573434834
 31
0.0
  0
LINE
  5
4CC
330
1A
100
AcDbEntity
  8
SEIHIN
  6
CONTINUOUS
100
AcDbLine
 10
601.3155358660451
 20
202.5365573434835
 30
0.0
 11
661.7157358660453
 21
202.5366573434834
 31
0.0
  0
LINE
  5
4CD
330
1A
100
AcDbEntity
  8
SEIHIN
  6
CONTINUOUS
100
AcDbLine
 10
579.7155358660452
 20
241.5366573434834
 30
0.0
 11
661.7155358660452
 21
241.5367573434834
 31
0.0
  0
LINE
  5
4CE
330
1A
100
AcDbEntity
  8
SEIHIN
  6
CONTINUOUS
100
AcDbLine
 10
587.2655358660451
 20
239.5366573434834
 30
0.0
 11
589.2655358660451
 21
237.5365573434834
 31
0.0
  0
LINE
  5
4CF
330
1A
100
AcDbEntity
  8
SEIHIN
  6
CONTINUOUS
100
AcDbLine
 10
594.2156358660452
 20
235.4146573434834
 30
0.0
 11
588.0939358660453
 21
241.5366573434834
 31
0.0
  0
LINE
  5
4D0
330
1A
100
AcDbEntity
  8
SEIHIN
  6
CONTINUOUS
100
AcDbLine
 10
592.0152358660452
 20
205.5364573434834
 30
0.0
 11
598.3155358660451
 21
205.5365573434834
 31
0.0
  0
LINE
  5
4D1
330
1A
100
AcDbEntity
  8
SEIHIN
  6
CONTINUOUS
100
AcDbLine
 10
592.0152358660452
 20
205.5364573434834
 30
0.0
 11
591.2654358660452
 21
155.5371573434834
 31
0.0
  0
LINE
  5
4D2
330
1A
100
AcDbEntity
  8
SEIHIN
  6
CONTINUOUS
100
AcDbLine
 10
589.2655358660451
 20
237.5365573434834
 30
0.0
 11
589.5656358660451
 21
155.5365573434834
 31
0.0
  0
LINE
  5
4D3
330
1A
100
AcDbEntity
  8
SEIHIN
  6
CONTINUOUS
100
AcDbLine
 10
594.2156358660452
 20
235.4146573434834
 30
0.0
 11
594.2156358660452
 21
207.5365573434834
 31
0.0
  0
LINE
  5
4D4
330
1A
100
AcDbEntity
  8
SEIHIN
  6
CONTINUOUS
100
AcDbLine
 10
633.5925358660452
 20
234.5365573434834
 30
0.0
 11
605.5013358660451
 21
232.0396573434834
 31
0.0
  0
LINE
  5
4D5
330
1A
100
AcDbEntity
  8
SEIHIN
  6
CONTINUOUS
100
AcDbLine
 10
639.2171358660452
 20
234.5365573434834
 30
0.0
 11
605.5013358660451
 21
231.5397573434834
 31
0.0
  0
LINE
  5
4D6
330
1A
100
AcDbEntity
  8
SEIHIN
  6
CONTINUOUS
100
AcDbLine
 10
605.5013358660451
 20
209.5365573434834
 30
0.0
 11
658.1495358660451
 21
209.5366573434835
 31
0.0
  0
LINE
  5
4D7
330
1A
100
AcDbEntity
  8
SEIHIN
  6
CONTINUOUS
100
AcDbLine
 10
606.7146358660452
 20
234.5365573434834
 30
0.0
 11
658.6761358660453
 21
234.5366573434835
 31
0.0
  0
LINE
  5
4D8
330
1A
100
AcDbEntity
  8
SEIHIN
  6
CONTINUOUS
100
AcDbLine
 10
657.4627358660452
 20
232.6584573434835
 30
0.0
 11
605.5013358660451
 21
228.0398573434834
 31
0.0
  0
LINE
  5
4D9
330
1A
100
AcDbEntity
  8
SEIHIN
  6
CONTINUOUS
100
AcDbLine
 10
658.6761358660453
 20
234.2086573434834
 30
0.0
 11
606.7146358660452
 21
229.5900573434834
 31
0.0
  0
LINE
  5
4DA
330
1A
100
AcDbEntity
  8
SEIHIN
  6
CONTINUOUS
100
AcDbLine
 10
651.1152358660451
 20
234.5366573434835
 30
0.0
 11
606.7146358660452
 21
230.5900573434834
 31
0.0
  0
LINE
  5
4DB
330
1A
100
AcDbEntity
  8
SEIHIN
  6
CONTINUOUS
100
AcDbLine
 10
657.4627358660452
 20
232.1584573434834
 30
0.0
 11
605.5013358660451
 21
227.5398573434834
 31
0.0
  0
LINE
  5
4DC
330
1A
100
AcDbEntity
  8
SEIHIN
  6
CONTINUOUS
100
AcDbLine
 10
657.4627358660452
 20
228.6585573434834
 30
0.0
 11
605.5013358660451
 21
224.0399573434834
 31
0.0
  0
LINE
  5
4DD
330
1A
100
AcDbEntity
  8
SEIHIN
  6
CONTINUOUS
100
AcDbLine
 10
658.6761358660453
 20
230.2087573434834
 30
0.0
 11
606.7146358660452
 21
225.5902573434834
 31
0.0
  0
LINE
  5
4DE
330
1A
100
AcDbEntity
  8
SEIHIN
  6
CONTINUOUS
100
AcDbLine
 10
658.6761358660453
 20
231.2087573434834
 30
0.0
 11
606.7146358660452
 21
226.5901573434834
 31
0.0
  0
LINE
  5
4DF
330
1A
100
AcDbEntity
  8
SEIHIN
  6
CONTINUOUS
100
AcDbLine
 10
657.4627358660452
 20
228.1585573434834
 30
0.0
 11
605.5013358660451
 21
223.5400573434835
 31
0.0
  0
LINE
  5
4E0
330
1A
100
AcDbEntity
  8
SEIHIN
  6
CONTINUOUS
100
AcDbLine
 10
657.4627358660452
 20
224.6586573434834
 30
0.0
 11
605.5013358660451
 21
220.0400573434834
 31
0.0
  0
LINE
  5
4E1
330
1A
100
AcDbEntity
  8
SEIHIN
  6
CONTINUOUS
100
AcDbLine
 10
658.6761358660453
 20
226.2089573434834
 30
0.0
 11
606.7146358660452
 21
221.5903573434834
 31
0.0
  0
LINE
  5
4E2
330
1A
100
AcDbEntity
  8
SEIHIN
  6
CONTINUOUS
100
AcDbLine
 10
658.6761358660453
 20
227.2089573434834
 30
0.0
 11
606.7146358660452
 21
222.5903573434834
 31
0.0
  0
LINE
  5
4E3
330
1A
100
AcDbEntity
  8
SEIHIN
  6
CONTINUOUS
100
AcDbLine
 10
657.4627358660452
 20
224.1587573434834
 30
0.0
 11
605.5013358660451
 21
219.5401573434835
 31
0.0
  0
LINE
  5
4E4
330
1A
100
AcDbEntity
  8
SEIHIN
  6
CONTINUOUS
100
AcDbLine
 10
657.4627358660452
 20
220.6587573434834
 30
0.0
 11
605.5013358660451
 21
216.0401573434834
 31
0.0
  0
LINE
  5
4E5
330
1A
100
AcDbEntity
  8
SEIHIN
  6
CONTINUOUS
100
AcDbLine
 10
658.6761358660453
 20
222.2090573434834
 30
0.0
 11
606.7146358660452
 21
217.5904573434834
 31
0.0
  0
LINE
  5
4E6
330
1A
100
AcDbEntity
  8
SEIHIN
  6
CONTINUOUS
100
AcDbLine
 10
658.6761358660453
 20
223.2090573434834
 30
0.0
 11
606.7146358660452
 21
218.5904573434835
 31
0.0
  0
LINE
  5
4E7
330
1A
100
AcDbEntity
  8
SEIHIN
  6
CONTINUOUS
100
AcDbLine
 10
657.4627358660452
 20
220.1588573434834
 30
0.0
 11
605.5013358660451
 21
215.5402573434834
 31
0.0
  0
LINE
  5
4E8
330
1A
100
AcDbEntity
  8
SEIHIN
  6
CONTINUOUS
100
AcDbLine
 10
657.4627358660452
 20
216.6588573434834
 30
0.0
 11
605.5013358660451
 21
212.0403573434834
 31
0.0
  0
LINE
  5
4E9
330
1A
100
AcDbEntity
  8
SEIHIN
  6
CONTINUOUS
100
AcDbLine
 10
658.6761358660453
 20
218.2091573434834
 30
0.0
 11
606.7146358660452
 21
213.5905573434834
 31
0.0
  0
LINE
  5
4EA
330
1A
100
AcDbEntity
  8
SEIHIN
  6
CONTINUOUS
100
AcDbLine
 10
658.6761358660453
 20
219.2091573434834
 30
0.0
 11
606.7146358660452
 21
214.5905573434834
 31
0.0
  0
LINE
  5
4EB
330
1A
100
AcDbEntity
  8
SEIHIN
  6
CONTINUOUS
100
AcDbLine
 10
657.4627358660452
 20
216.1589573434834
 30
0.0
 11
605.5013358660451
 21
211.5403573434834
 31
0.0
  0
LINE
  5
4EC
330
1A
100
AcDbEntity
  8
SEIHIN
  6
CONTINUOUS
100
AcDbLine
 10
657.4627358660452
 20
212.6590573434834
 30
0.0
 11
622.3336358660453
 21
209.5365573434834
 31
0.0
  0
LINE
  5
4ED
330
1A
100
AcDbEntity
  8
SEIHIN
  6
CONTINUOUS
100
AcDbLine
 10
658.6761358660453
 20
214.2092573434834
 30
0.0
 11
606.7146358660452
 21
209.5906573434834
 31
0.0
  0
LINE
  5
4EE
330
1A
100
AcDbEntity
  8
SEIHIN
  6
CONTINUOUS
100
AcDbLine
 10
658.6761358660453
 20
215.2092573434834
 30
0.0
 11
606.7146358660452
 21
210.5906573434834
 31
0.0
  0
LINE
  5
4EF
330
1A
100
AcDbEntity
  8
SEIHIN
  6
CONTINUOUS
100
AcDbLine
 10
606.7146358660452
 20
214.5905573434834
 30
0.0
 11
606.7146358660452
 21
213.5905573434834
 31
0.0
  0
LINE
  5
4F0
330
1A
100
AcDbEntity
  8
SEIHIN
  6
CONTINUOUS
100
AcDbLine
 10
605.5013358660451
 20
215.5402573434834
 30
0.0
 11
605.5013358660451
 21
212.0403573434834
 31
0.0
  0
LINE
  5
4F1
330
1A
100
AcDbEntity
  8
SEIHIN
  6
CONTINUOUS
100
AcDbLine
 10
601.8152358660452
 20
207.5366573434834
 30
0.0
 11
601.8152358660452
 21
202.5366573434834
 31
0.0
  0
ARC
  5
4F2
330
1A
100
AcDbEntity
  8
SEIHIN
  6
CONTINUOUS
100
AcDbCircle
 10
601.3155347454324
 20
204.0365562228707
 30
0.0
 40
1.499998879387639
100
AcDbArc
 50
179.9999571957128
 51
270.0000428042871
  0
LINE
  5
4F3
330
1A
100
AcDbEntity
  8
SEIHIN
  6
CONTINUOUS
100
AcDbLine
 10
599.8155358660451
 20
204.0365573434834
 30
0.0
 11
599.8155358660451
 21
204.0365573434834
 31
0.0
  0
ARC
  5
4F4
330
1A
100
AcDbEntity
  8
SEIHIN
  6
CONTINUOUS
100
AcDbCircle
 10
598.315536986658
 20
204.0365584640962
 30
0.0
 40
1.499998879387639
100
AcDbArc
 50
359.9999571957128
 51
90.00004280428713
  0
LINE
  5
4F5
330
1A
100
AcDbEntity
  8
SEIHIN
  6
CONTINUOUS
100
AcDbLine
 10
605.5013358660451
 20
211.5403573434834
 30
0.0
 11
605.5013358660451
 21
209.5365573434834
 31
0.0
  0
LINE
  5
4F6
330
1A
100
AcDbEntity
  8
SEIHIN
  6
CONTINUOUS
100
AcDbLine
 10
606.7146358660452
 20
213.5905573434834
 30
0.0
 11
605.5013358660451
 21
212.0403573434834
 31
0.0
  0
LINE
  5
4F7
330
1A
100
AcDbEntity
  8
SEIHIN
  6
CONTINUOUS
100
AcDbLine
 10
605.5013358660451
 20
211.5403573434834
 30
0.0
 11
606.7146358660452
 21
210.5906573434834
 31
0.0
  0
LINE
  5
4F8
330
1A
100
AcDbEntity
  8
SEIHIN
  6
CONTINUOUS
100
AcDbLine
 10
606.7146358660452
 20
210.5906573434834
 30
0.0
 11
606.7146358660452
 21
209.5906573434834
 31
0.0
  0
LINE
  5
4F9
330
1A
100
AcDbEntity
  8
SEIHIN
  6
CONTINUOUS
100
AcDbLine
 10
617.3644358660451
 20
234.5365573434834
 30
0.0
 11
606.7146358660452
 21
233.5899573434834
 31
0.0
  0
LINE
  5
4FA
330
1A
100
AcDbEntity
  8
SEIHIN
  6
CONTINUOUS
100
AcDbLine
 10
605.5013358660451
 20
227.5398573434834
 30
0.0
 11
605.5013358660451
 21
224.0399573434834
 31
0.0
  0
LINE
  5
4FB
330
1A
100
AcDbEntity
  8
SEIHIN
  6
CONTINUOUS
100
AcDbLine
 10
606.7146358660452
 20
226.5901573434834
 30
0.0
 11
606.7146358660452
 21
225.5902573434834
 31
0.0
  0
LINE
  5
4FC
330
1A
100
AcDbEntity
  8
SEIHIN
  6
CONTINUOUS
100
AcDbLine
 10
605.5013358660451
 20
223.5400573434835
 30
0.0
 11
605.5013358660451
 21
220.0400573434834
 31
0.0
  0
LINE
  5
4FD
330
1A
100
AcDbEntity
  8
SEIHIN
  6
CONTINUOUS
100
AcDbLine
 10
605.5013358660451
 20
219.5401573434835
 30
0.0
 11
605.5013358660451
 21
216.0401573434834
 31
0.0
  0
LINE
  5
4FE
330
1A
100
AcDbEntity
  8
SEIHIN
  6
CONTINUOUS
100
AcDbLine
 10
606.7146358660452
 20
225.5902573434834
 30
0.0
 11
605.5013358660451
 21
224.0399573434834
 31
0.0
  0
LINE
  5
4FF
330
1A
100
AcDbEntity
  8
SEIHIN
  6
CONTINUOUS
100
AcDbLine
 10
605.5013358660451
 20
223.5400573434835
 30
0.0
 11
606.7146358660452
 21
222.5903573434834
 31
0.0
  0
LINE
  5
500
330
1A
100
AcDbEntity
  8
SEIHIN
  6
CONTINUOUS
100
AcDbLine
 10
606.7146358660452
 20
222.5903573434834
 30
0.0
 11
606.7146358660452
 21
221.5903573434834
 31
0.0
  0
LINE
  5
501
330
1A
100
AcDbEntity
  8
SEIHIN
  6
CONTINUOUS
100
AcDbLine
 10
606.7146358660452
 20
221.5903573434834
 30
0.0
 11
605.5013358660451
 21
220.0400573434834
 31
0.0
  0
LINE
  5
502
330
1A
100
AcDbEntity
  8
SEIHIN
  6
CONTINUOUS
100
AcDbLine
 10
605.5013358660451
 20
219.5401573434835
 30
0.0
 11
606.7146358660452
 21
218.5904573434835
 31
0.0
  0
LINE
  5
503
330
1A
100
AcDbEntity
  8
SEIHIN
  6
CONTINUOUS
100
AcDbLine
 10
606.7146358660452
 20
218.5904573434835
 30
0.0
 11
606.7146358660452
 21
217.5904573434834
 31
0.0
  0
LINE
  5
504
330
1A
100
AcDbEntity
  8
SEIHIN
  6
CONTINUOUS
100
AcDbLine
 10
606.7146358660452
 20
217.5904573434834
 30
0.0
 11
605.5013358660451
 21
216.0401573434834
 31
0.0
  0
LINE
  5
505
330
1A
100
AcDbEntity
  8
SEIHIN
  6
CONTINUOUS
100
AcDbLine
 10
605.5013358660451
 20
215.5402573434834
 30
0.0
 11
606.7146358660452
 21
214.5905573434834
 31
0.0
  0
LINE
  5
506
330
1A
100
AcDbEntity
  8
SEIHIN
  6
CONTINUOUS
100
AcDbLine
 10
605.5013358660451
 20
235.5396573434834
 30
0.0
 11
605.5013358660451
 21
232.0396573434834
 31
0.0
  0
LINE
  5
507
330
1A
100
AcDbEntity
  8
SEIHIN
  6
CONTINUOUS
100
AcDbLine
 10
606.7146358660452
 20
234.5899573434834
 30
0.0
 11
606.7146358660452
 21
233.5899573434834
 31
0.0
  0
LINE
  5
508
330
1A
100
AcDbEntity
  8
SEIHIN
  6
CONTINUOUS
100
AcDbLine
 10
606.7146358660452
 20
233.5899573434834
 30
0.0
 11
605.5013358660451
 21
232.0396573434834
 31
0.0
  0
LINE
  5
509
330
1A
100
AcDbEntity
  8
SEIHIN
  6
CONTINUOUS
100
AcDbLine
 10
605.5013358660451
 20
231.5397573434834
 30
0.0
 11
605.5013358660451
 21
228.0398573434834
 31
0.0
  0
LINE
  5
50A
330
1A
100
AcDbEntity
  8
SEIHIN
  6
CONTINUOUS
100
AcDbLine
 10
605.5013358660451
 20
231.5397573434834
 30
0.0
 11
606.7146358660452
 21
230.5900573434834
 31
0.0
  0
LINE
  5
50B
330
1A
100
AcDbEntity
  8
SEIHIN
  6
CONTINUOUS
100
AcDbLine
 10
606.7146358660452
 20
230.5900573434834
 30
0.0
 11
606.7146358660452
 21
229.5900573434834
 31
0.0
  0
LINE
  5
50C
330
1A
100
AcDbEntity
  8
SEIHIN
  6
CONTINUOUS
100
AcDbLine
 10
606.7146358660452
 20
229.5900573434834
 30
0.0
 11
605.5013358660451
 21
228.0398573434834
 31
0.0
  0
LINE
  5
50D
330
1A
100
AcDbEntity
  8
SEIHIN
  6
CONTINUOUS
100
AcDbLine
 10
605.5013358660451
 20
227.5398573434834
 30
0.0
 11
606.7146358660452
 21
226.5901573434834
 31
0.0
  0
LINE
  5
50E
330
1A
100
AcDbEntity
  8
SEIHIN
  6
CONTINUOUS
100
AcDbLine
 10
658.6761358660453
 20
215.2092573434834
 30
0.0
 11
658.6761358660453
 21
214.2092573434834
 31
0.0
  0
LINE
  5
50F
330
1A
100
AcDbEntity
  8
SEIHIN
  6
CONTINUOUS
100
AcDbLine
 10
657.4627358660452
 20
212.1590573434835
 30
0.0
 11
627.9583358660452
 21
209.5365573434834
 31
0.0
  0
LINE
  5
510
330
1A
100
AcDbEntity
  8
SEIHIN
  6
CONTINUOUS
100
AcDbLine
 10
658.6761358660453
 20
211.2093573434834
 30
0.0
 11
639.8563358660453
 21
209.5365573434834
 31
0.0
  0
LINE
  5
511
330
1A
100
AcDbEntity
  8
SEIHIN
  6
CONTINUOUS
100
AcDbLine
 10
658.6761358660453
 20
210.2094573434834
 30
0.0
 11
651.1068358660452
 21
209.5366573434835
 31
0.0
  0
LINE
  5
512
330
1A
100
AcDbEntity
  8
SEIHIN
  6
CONTINUOUS
100
AcDbLine
 10
658.6761358660453
 20
214.2092573434834
 30
0.0
 11
657.4627358660452
 21
212.6590573434834
 31
0.0
  0
LINE
  5
513
330
1A
100
AcDbEntity
  8
SEIHIN
  6
CONTINUOUS
100
AcDbLine
 10
657.4627358660452
 20
212.1590573434835
 30
0.0
 11
658.6761358660453
 21
211.2093573434834
 31
0.0
  0
LINE
  5
514
330
1A
100
AcDbEntity
  8
SEIHIN
  6
CONTINUOUS
100
AcDbLine
 10
658.6761358660453
 20
210.2094573434834
 30
0.0
 11
658.1495358660451
 21
209.5366573434835
 31
0.0
  0
LINE
  5
515
330
1A
100
AcDbEntity
  8
SEIHIN
  6
CONTINUOUS
100
AcDbLine
 10
658.6761358660453
 20
211.2093573434834
 30
0.0
 11
658.6761358660453
 21
210.2094573434834
 31
0.0
  0
LINE
  5
516
330
1A
100
AcDbEntity
  8
SEIHIN
  6
CONTINUOUS
100
AcDbLine
 10
658.6761358660453
 20
226.2089573434834
 30
0.0
 11
657.4627358660452
 21
224.6586573434834
 31
0.0
  0
LINE
  5
517
330
1A
100
AcDbEntity
  8
SEIHIN
  6
CONTINUOUS
100
AcDbLine
 10
657.4627358660452
 20
224.1587573434834
 30
0.0
 11
658.6761358660453
 21
223.2090573434834
 31
0.0
  0
LINE
  5
518
330
1A
100
AcDbEntity
  8
SEIHIN
  6
CONTINUOUS
100
AcDbLine
 10
658.6761358660453
 20
222.2090573434834
 30
0.0
 11
657.4627358660452
 21
220.6587573434834
 31
0.0
  0
LINE
  5
519
330
1A
100
AcDbEntity
  8
SEIHIN
  6
CONTINUOUS
100
AcDbLine
 10
658.6761358660453
 20
223.2090573434834
 30
0.0
 11
658.6761358660453
 21
222.2090573434834
 31
0.0
  0
LINE
  5
51A
330
1A
100
AcDbEntity
  8
SEIHIN
  6
CONTINUOUS
100
AcDbLine
 10
657.4627358660452
 20
220.1588573434834
 30
0.0
 11
658.6761358660453
 21
219.2091573434834
 31
0.0
  0
LINE
  5
51B
330
1A
100
AcDbEntity
  8
SEIHIN
  6
CONTINUOUS
100
AcDbLine
 10
658.6761358660453
 20
218.2091573434834
 30
0.0
 11
657.4627358660452
 21
216.6588573434834
 31
0.0
  0
LINE
  5
51C
330
1A
100
AcDbEntity
  8
SEIHIN
  6
CONTINUOUS
100
AcDbLine
 10
658.6761358660453
 20
219.2091573434834
 30
0.0
 11
658.6761358660453
 21
218.2091573434834
 31
0.0
  0
LINE
  5
51D
330
1A
100
AcDbEntity
  8
SEIHIN
  6
CONTINUOUS
100
AcDbLine
 10
657.4627358660452
 20
216.1589573434834
 30
0.0
 11
658.6761358660453
 21
215.2092573434834
 31
0.0
  0
LINE
  5
51E
330
1A
100
AcDbEntity
  8
SEIHIN
  6
CONTINUOUS
100
AcDbLine
 10
658.6761358660453
 20
234.2086573434834
 30
0.0
 11
657.4627358660452
 21
232.6584573434835
 31
0.0
  0
LINE
  5
51F
330
1A
100
AcDbEntity
  8
SEIHIN
  6
CONTINUOUS
100
AcDbLine
 10
658.6761358660453
 20
234.5365573434834
 30
0.0
 11
658.6761358660453
 21
234.2086573434834
 31
0.0
  0
LINE
  5
520
330
1A
100
AcDbEntity
  8
SEIHIN
  6
CONTINUOUS
100
AcDbLine
 10
657.4627358660452
 20
232.1584573434834
 30
0.0
 11
658.6761358660453
 21
231.2087573434834
 31
0.0
  0
LINE
  5
521
330
1A
100
AcDbEntity
  8
SEIHIN
  6
CONTINUOUS
100
AcDbLine
 10
658.6761358660453
 20
230.2087573434834
 30
0.0
 11
657.4627358660452
 21
228.6585573434834
 31
0.0
  0
LINE
  5
522
330
1A
100
AcDbEntity
  8
SEIHIN
  6
CONTINUOUS
100
AcDbLine
 10
658.6761358660453
 20
231.2087573434834
 30
0.0
 11
658.6761358660453
 21
230.2087573434834
 31
0.0
  0
LINE
  5
523
330
1A
100
AcDbEntity
  8
SEIHIN
  6
CONTINUOUS
100
AcDbLine
 10
657.4627358660452
 20
228.1585573434834
 30
0.0
 11
658.6761358660453
 21
227.2089573434834
 31
0.0
  0
LINE
  5
524
330
1A
100
AcDbEntity
  8
SEIHIN
  6
CONTINUOUS
100
AcDbLine
 10
658.6761358660453
 20
227.2089573434834
 30
0.0
 11
658.6761358660453
 21
226.2089573434834
 31
0.0
  0
LINE
  5
525
330
1A
100
AcDbEntity
  8
SEIHIN
  6
CONTINUOUS
100
AcDbLine
 10
576.7155358660452
 20
240.5366573434835
 30
0.0
 11
580.7155358660452
 21
239.5366573434834
 31
0.0
  0
LINE
  5
526
330
1A
100
AcDbEntity
  8
SEIHIN
  6
CONTINUOUS
100
AcDbLine
 10
576.7155358660452
 20
242.5366573434835
 30
0.0
 11
576.7155358660452
 21
240.5366573434835
 31
0.0
  0
LINE
  5
527
330
1A
100
AcDbEntity
  8
SEIHIN
  6
CONTINUOUS
100
AcDbLine
 10
587.2655358660451
 20
239.5366573434834
 30
0.0
 11
580.7155358660452
 21
239.5366573434834
 31
0.0
  0
LINE
  5
528
330
1A
100
AcDbEntity
  8
SEIHIN
  6
CONTINUOUS
100
AcDbLine
 10
579.7155358660452
 20
241.5366573434834
 30
0.0
 11
579.7155358660452
 21
242.5366573434835
 31
0.0
  0
LINE
  5
529
330
1A
100
AcDbEntity
  8
SEIHIN
  6
CONTINUOUS
100
AcDbLine
 10
736.1656358660452
 20
239.5364573434834
 30
0.0
 11
734.1656358660452
 21
237.5363573434834
 31
0.0
  0
LINE
  5
52A
330
1A
100
AcDbEntity
  8
SEIHIN
  6
CONTINUOUS
100
AcDbLine
 10
729.2157358660453
 20
235.4146573434834
 30
0.0
 11
735.3372358660453
 21
241.5364573434835
 31
0.0
  0
LINE
  5
52C
330
1A
100
AcDbEntity
  8
SEIHIN
  6
CONTINUOUS
100
AcDbLine
 10
729.2154358660452
 20
234.5363573434834
 30
0.0
 11
721.3597358660454
 21
234.5363573434834
 31
0.0
  0
LINE
  5
52D
330
1A
100
AcDbEntity
  8
SEIHIN
  6
CONTINUOUS
100
AcDbLine
 10
727.0504358660453
 20
228.2864573434834
 30
0.0
 11
719.7556358660453
 21
227.6380573434834
 31
0.0
  0
LINE
  5
52E
330
1A
100
AcDbEntity
  8
SEIHIN
  6
CONTINUOUS
100
AcDbLine
 10
727.0504358660453
 20
229.2864573434834
 30
0.0
 11
719.7556358660453
 21
228.6380573434834
 31
0.0
  0
LINE
  5
52F
330
1A
100
AcDbEntity
  8
SEIHIN
  6
CONTINUOUS
100
AcDbLine
 10
729.2154358660452
 20
227.0364573434834
 30
0.0
 11
721.6155358660452
 21
226.3609573434834
 31
0.0
  0
LINE
  5
530
330
1A
100
AcDbEntity
  8
SEIHIN
  6
CONTINUOUS
100
AcDbLine
 10
729.2154358660452
 20
231.0363573434834
 30
0.0
 11
721.6155358660452
 21
230.3608573434834
 31
0.0
  0
LINE
  5
531
330
1A
100
AcDbEntity
  8
SEIHIN
  6
CONTINUOUS
100
AcDbLine
 10
727.0504358660453
 20
232.2863573434834
 30
0.0
 11
719.7556358660453
 21
231.6379573434834
 31
0.0
  0
LINE
  5
532
330
1A
100
AcDbEntity
  8
SEIHIN
  6
CONTINUOUS
100
AcDbLine
 10
727.0504358660453
 20
233.2863573434834
 30
0.0
 11
719.7556358660453
 21
232.6379573434834
 31
0.0
  0
LINE
  5
533
330
1A
100
AcDbEntity
  8
SEIHIN
  6
CONTINUOUS
100
AcDbLine
 10
729.2154358660452
 20
234.5363573434834
 30
0.0
 11
721.6155358660452
 21
233.8607573434834
 31
0.0
  0
LINE
  5
534
330
1A
100
AcDbEntity
  8
SEIHIN
  6
CONTINUOUS
100
AcDbLine
 10
729.2154358660452
 20
223.0366573434834
 30
0.0
 11
721.6155358660452
 21
222.3610573434835
 31
0.0
  0
LINE
  5
535
330
1A
100
AcDbEntity
  8
SEIHIN
  6
CONTINUOUS
100
AcDbLine
 10
727.0504358660453
 20
225.2865573434835
 30
0.0
 11
719.7556358660453
 21
224.6381573434834
 31
0.0
  0
LINE
  5
536
330
1A
100
AcDbEntity
  8
SEIHIN
  6
CONTINUOUS
100
AcDbLine
 10
727.0504358660453
 20
224.2866573434834
 30
0.0
 11
719.7556358660453
 21
223.6382573434834
 31
0.0
  0
LINE
  5
537
330
1A
100
AcDbEntity
  8
SEIHIN
  6
CONTINUOUS
100
AcDbLine
 10
729.2154358660452
 20
219.0367573434834
 30
0.0
 11
721.6155358660452
 21
218.3612573434834
 31
0.0
  0
LINE
  5
538
330
1A
100
AcDbEntity
  8
SEIHIN
  6
CONTINUOUS
100
AcDbLine
 10
727.0504358660453
 20
221.2867573434834
 30
0.0
 11
719.7556358660453
 21
220.6383573434834
 31
0.0
  0
LINE
  5
539
330
1A
100
AcDbEntity
  8
SEIHIN
  6
CONTINUOUS
100
AcDbLine
 10
727.0504358660453
 20
220.2867573434835
 30
0.0
 11
719.7556358660453
 21
219.6383573434834
 31
0.0
  0
LINE
  5
53A
330
1A
100
AcDbEntity
  8
SEIHIN
  6
CONTINUOUS
100
AcDbLine
 10
727.0504358660453
 20
217.2868573434834
 30
0.0
 11
719.7556358660453
 21
216.6384573434835
 31
0.0
  0
LINE
  5
53B
330
1A
100
AcDbEntity
  8
SEIHIN
  6
CONTINUOUS
100
AcDbLine
 10
727.0504358660453
 20
216.2868573434834
 30
0.0
 11
719.7556358660453
 21
215.6384573434834
 31
0.0
  0
LINE
  5
53C
330
1A
100
AcDbEntity
  8
SEIHIN
  6
CONTINUOUS
100
AcDbLine
 10
729.2154358660452
 20
230.5364573434834
 30
0.0
 11
721.6155358660452
 21
229.8609573434834
 31
0.0
  0
LINE
  5
53D
330
1A
100
AcDbEntity
  8
SEIHIN
  6
CONTINUOUS
100
AcDbLine
 10
729.2154358660452
 20
226.5365573434834
 30
0.0
 11
721.6155358660452
 21
225.8610573434834
 31
0.0
  0
LINE
  5
53E
330
1A
100
AcDbEntity
  8
SEIHIN
  6
CONTINUOUS
100
AcDbLine
 10
729.2154358660452
 20
222.5366573434834
 30
0.0
 11
721.6155358660452
 21
221.8611573434834
 31
0.0
  0
LINE
  5
53F
330
1A
100
AcDbEntity
  8
SEIHIN
  6
CONTINUOUS
100
AcDbLine
 10
729.2154358660452
 20
218.5367573434835
 30
0.0
 11
721.6155358660452
 21
217.8612573434834
 31
0.0
  0
LINE
  5
540
330
1A
100
AcDbEntity
  8
SEIHIN
  6
CONTINUOUS
100
AcDbLine
 10
729.2154358660452
 20
209.5363573434834
 30
0.0
 11
721.1209358660453
 21
209.5363573434834
 31
0.0
  0
LINE
  5
541
330
1A
100
AcDbEntity
  8
SEIHIN
  6
CONTINUOUS
100
AcDbLine
 10
731.4157358660452
 20
205.5363573434834
 30
0.0
 11
725.1155358660453
 21
205.5363573434834
 31
0.0
  0
LINE
  5
542
330
1A
100
AcDbEntity
  8
SEIHIN
  6
CONTINUOUS
100
AcDbLine
 10
729.2154358660452
 20
215.0368573434834
 30
0.0
 11
721.6155358660452
 21
214.3613573434834
 31
0.0
  0
LINE
  5
543
330
1A
100
AcDbEntity
  8
SEIHIN
  6
CONTINUOUS
100
AcDbLine
 10
729.2154358660452
 20
211.0369573434834
 30
0.0
 11
721.6155358660452
 21
210.3614573434834
 31
0.0
  0
LINE
  5
544
330
1A
100
AcDbEntity
  8
SEIHIN
  6
CONTINUOUS
100
AcDbLine
 10
727.0504358660453
 20
213.2869573434834
 30
0.0
 11
719.7556358660453
 21
212.6385573434834
 31
0.0
  0
LINE
  5
545
330
1A
100
AcDbEntity
  8
SEIHIN
  6
CONTINUOUS
100
AcDbLine
 10
727.0504358660453
 20
212.2869573434834
 30
0.0
 11
719.7556358660453
 21
211.6385573434834
 31
0.0
  0
LINE
  5
546
330
1A
100
AcDbEntity
  8
SEIHIN
  6
CONTINUOUS
100
AcDbLine
 10
729.2154358660452
 20
214.5369573434834
 30
0.0
 11
721.6155358660452
 21
213.8613573434834
 31
0.0
  0
LINE
  5
547
330
1A
100
AcDbEntity
  8
SEIHIN
  6
CONTINUOUS
100
AcDbLine
 10
729.2154358660452
 20
210.5370573434834
 30
0.0
 11
721.6155358660452
 21
209.8615573434834
 31
0.0
  0
LINE
  5
548
330
1A
100
AcDbEntity
  8
SEIHIN
  6
CONTINUOUS
100
AcDbLine
 10
729.2154358660452
 20
207.5363573434834
 30
0.0
 11
661.7152358660453
 21
207.5366573434834
 31
0.0
  0
LINE
  5
549
330
1A
100
AcDbEntity
  8
SEIHIN
  6
CONTINUOUS
100
AcDbLine
 10
661.7150358660453
 20
155.5366573434834
 30
0.0
 11
733.8652358660453
 21
155.5363573434834
 31
0.0
  0
LINE
  5
54A
330
1A
100
AcDbEntity
  8
SEIHIN
  6
CONTINUOUS
100
AcDbLine
 10
722.1155358660453
 20
202.5363573434834
 30
0.0
 11
661.7152358660453
 21
202.5366573434834
 31
0.0
  0
LINE
  5
54B
330
1A
100
AcDbEntity
  8
SEIHIN
  6
CONTINUOUS
100
AcDbLine
 10
719.7556358660453
 20
215.6384573434834
 30
0.0
 11
721.6155358660452
 21
214.3613573434834
 31
0.0
  0
ARC
  5
54C
330
1A
100
AcDbEntity
  8
SEIHIN
  6
CONTINUOUS
100
AcDbCircle
 10
722.115536986658
 20
204.0363562228706
 30
0.0
 40
1.499998879387639
100
AcDbArc
 50
269.9999571957117
 51
0.0000428042871323
  0
LINE
  5
54D
330
1A
100
AcDbEntity
  8
SEIHIN
  6
CONTINUOUS
100
AcDbLine
 10
721.6158358660452
 20
207.5362573434834
 30
0.0
 11
721.6158358660452
 21
202.5363573434834
 31
0.0
  0
LINE
  5
54E
330
1A
100
AcDbEntity
  8
SEIHIN
  6
CONTINUOUS
100
AcDbLine
 10
721.6155358660452
 20
213.8613573434834
 30
0.0
 11
719.7556358660453
 21
212.6385573434834
 31
0.0
  0
LINE
  5
54F
330
1A
100
AcDbEntity
  8
SEIHIN
  6
CONTINUOUS
100
AcDbLine
 10
719.7556358660453
 20
212.6385573434834
 30
0.0
 11
719.7556358660453
 21
211.6385573434834
 31
0.0
  0
LINE
  5
550
330
1A
100
AcDbEntity
  8
SEIHIN
  6
CONTINUOUS
100
AcDbLine
 10
719.7556358660453
 20
211.6385573434834
 30
0.0
 11
721.6155358660452
 21
210.3614573434834
 31
0.0
  0
LINE
  5
551
330
1A
100
AcDbEntity
  8
SEIHIN
  6
CONTINUOUS
100
AcDbLine
 10
721.6155358660452
 20
209.8615573434834
 30
0.0
 11
721.1209358660453
 21
209.5363573434834
 31
0.0
  0
LINE
  5
552
330
1A
100
AcDbEntity
  8
SEIHIN
  6
CONTINUOUS
100
AcDbLine
 10
721.6155358660452
 20
214.3613573434834
 30
0.0
 11
721.6155358660452
 21
213.8613573434834
 31
0.0
  0
LINE
  5
553
330
1A
100
AcDbEntity
  8
SEIHIN
  6
CONTINUOUS
100
AcDbLine
 10
721.6155358660452
 20
210.3614573434834
 30
0.0
 11
721.6155358660452
 21
209.8615573434834
 31
0.0
  0
LINE
  5
554
330
1A
100
AcDbEntity
  8
SEIHIN
  6
CONTINUOUS
100
AcDbLine
 10
723.6155358660453
 20
204.0363573434834
 30
0.0
 11
723.6155358660453
 21
204.0363573434834
 31
0.0
  0
ARC
  5
555
330
1A
100
AcDbEntity
  8
SEIHIN
  6
CONTINUOUS
100
AcDbCircle
 10
725.1155347454323
 20
204.0363584640962
 30
0.0
 40
1.499998879387639
100
AcDbArc
 50
89.99995719571177
 51
180.0000428042871
  0
LINE
  5
556
330
1A
100
AcDbEntity
  8
SEIHIN
  6
CONTINUOUS
100
AcDbLine
 10
721.6155358660452
 20
226.3609573434834
 30
0.0
 11
721.6155358660452
 21
225.8610573434834
 31
0.0
  0
LINE
  5
557
330
1A
100
AcDbEntity
  8
SEIHIN
  6
CONTINUOUS
100
AcDbLine
 10
721.6155358660452
 20
225.8610573434834
 30
0.0
 11
719.7556358660453
 21
224.6381573434834
 31
0.0
  0
LINE
  5
558
330
1A
100
AcDbEntity
  8
SEIHIN
  6
CONTINUOUS
100
AcDbLine
 10
719.7556358660453
 20
224.6381573434834
 30
0.0
 11
719.7556358660453
 21
223.6382573434834
 31
0.0
  0
LINE
  5
559
330
1A
100
AcDbEntity
  8
SEIHIN
  6
CONTINUOUS
100
AcDbLine
 10
719.7556358660453
 20
223.6382573434834
 30
0.0
 11
721.6155358660452
 21
222.3610573434835
 31
0.0
  0
LINE
  5
55A
330
1A
100
AcDbEntity
  8
SEIHIN
  6
CONTINUOUS
100
AcDbLine
 10
721.6155358660452
 20
221.8611573434834
 30
0.0
 11
719.7556358660453
 21
220.6383573434834
 31
0.0
  0
LINE
  5
55B
330
1A
100
AcDbEntity
  8
SEIHIN
  6
CONTINUOUS
100
AcDbLine
 10
719.7556358660453
 20
220.6383573434834
 30
0.0
 11
719.7556358660453
 21
219.6383573434834
 31
0.0
  0
LINE
  5
55C
330
1A
100
AcDbEntity
  8
SEIHIN
  6
CONTINUOUS
100
AcDbLine
 10
719.7556358660453
 20
219.6383573434834
 30
0.0
 11
721.6155358660452
 21
218.3612573434834
 31
0.0
  0
LINE
  5
55D
330
1A
100
AcDbEntity
  8
SEIHIN
  6
CONTINUOUS
100
AcDbLine
 10
721.6155358660452
 20
217.8612573434834
 30
0.0
 11
719.7556358660453
 21
216.6384573434835
 31
0.0
  0
LINE
  5
55E
330
1A
100
AcDbEntity
  8
SEIHIN
  6
CONTINUOUS
100
AcDbLine
 10
719.7556358660453
 20
216.6384573434835
 30
0.0
 11
719.7556358660453
 21
215.6384573434834
 31
0.0
  0
LINE
  5
55F
330
1A
100
AcDbEntity
  8
SEIHIN
  6
CONTINUOUS
100
AcDbLine
 10
721.6155358660452
 20
222.3610573434835
 30
0.0
 11
721.6155358660452
 21
221.8611573434834
 31
0.0
  0
LINE
  5
560
330
1A
100
AcDbEntity
  8
SEIHIN
  6
CONTINUOUS
100
AcDbLine
 10
721.6155358660452
 20
218.3612573434834
 30
0.0
 11
721.6155358660452
 21
217.8612573434834
 31
0.0
  0
LINE
  5
561
330
1A
100
AcDbEntity
  8
SEIHIN
  6
CONTINUOUS
100
AcDbLine
 10
721.3597358660454
 20
234.5363573434834
 30
0.0
 11
721.6155358660452
 21
234.3607573434834
 31
0.0
  0
LINE
  5
562
330
1A
100
AcDbEntity
  8
SEIHIN
  6
CONTINUOUS
100
AcDbLine
 10
723.5912358660453
 20
234.5363573434834
 30
0.0
 11
721.6155358660452
 21
234.3607573434834
 31
0.0
  0
LINE
  5
563
330
1A
100
AcDbEntity
  8
SEIHIN
  6
CONTINUOUS
100
AcDbLine
 10
719.7556358660453
 20
227.6380573434834
 30
0.0
 11
721.6155358660452
 21
226.3609573434834
 31
0.0
  0
LINE
  5
564
330
1A
100
AcDbEntity
  8
SEIHIN
  6
CONTINUOUS
100
AcDbLine
 10
719.7556358660453
 20
228.6380573434834
 30
0.0
 11
719.7556358660453
 21
227.6380573434834
 31
0.0
  0
LINE
  5
565
330
1A
100
AcDbEntity
  8
SEIHIN
  6
CONTINUOUS
100
AcDbLine
 10
721.6155358660452
 20
229.8609573434834
 30
0.0
 11
719.7556358660453
 21
228.6380573434834
 31
0.0
  0
LINE
  5
566
330
1A
100
AcDbEntity
  8
SEIHIN
  6
CONTINUOUS
100
AcDbLine
 10
719.7556358660453
 20
231.6379573434834
 30
0.0
 11
721.6155358660452
 21
230.3608573434834
 31
0.0
  0
LINE
  5
567
330
1A
100
AcDbEntity
  8
SEIHIN
  6
CONTINUOUS
100
AcDbLine
 10
719.7556358660453
 20
232.6379573434834
 30
0.0
 11
719.7556358660453
 21
231.6379573434834
 31
0.0
  0
LINE
  5
568
330
1A
100
AcDbEntity
  8
SEIHIN
  6
CONTINUOUS
100
AcDbLine
 10
721.6155358660452
 20
233.8607573434834
 30
0.0
 11
719.7556358660453
 21
232.6379573434834
 31
0.0
  0
LINE
  5
569
330
1A
100
AcDbEntity
  8
SEIHIN
  6
CONTINUOUS
100
AcDbLine
 10
721.6155358660452
 20
234.3607573434834
 30
0.0
 11
721.6155358660452
 21
233.8607573434834
 31
0.0
  0
LINE
  5
56A
330
1A
100
AcDbEntity
  8
SEIHIN
  6
CONTINUOUS
100
AcDbLine
 10
721.6155358660452
 20
230.3608573434834
 30
0.0
 11
721.6155358660452
 21
229.8609573434834
 31
0.0
  0
LINE
  5
56B
330
1A
100
AcDbEntity
  8
SEIHIN
  6
CONTINUOUS
100
AcDbLine
 10
731.4157358660452
 20
205.5363573434834
 30
0.0
 11
732.1654358660452
 21
155.5369573434834
 31
0.0
  0
LINE
  5
56C
330
1A
100
AcDbEntity
  8
SEIHIN
  6
CONTINUOUS
100
AcDbLine
 10
734.1656358660452
 20
237.5363573434834
 30
0.0
 11
733.8652358660453
 21
155.5363573434834
 31
0.0
  0
LINE
  5
574
330
1A
100
AcDbEntity
  8
SEIHIN
  6
CONTINUOUS
100
AcDbLine
 10
729.2154358660452
 20
214.5369573434834
 30
0.0
 11
727.0504358660453
 21
213.2869573434834
 31
0.0
  0
LINE
  5
575
330
1A
100
AcDbEntity
  8
SEIHIN
  6
CONTINUOUS
100
AcDbLine
 10
727.0504358660453
 20
212.2869573434834
 30
0.0
 11
729.2154358660452
 21
211.0369573434834
 31
0.0
  0
LINE
  5
576
330
1A
100
AcDbEntity
  8
SEIHIN
  6
CONTINUOUS
100
AcDbLine
 10
727.0504358660453
 20
213.2869573434834
 30
0.0
 11
727.0504358660453
 21
212.2869573434834
 31
0.0
  0
LINE
  5
577
330
1A
100
AcDbEntity
  8
SEIHIN
  6
CONTINUOUS
100
AcDbLine
 10
729.2154358660452
 20
210.5370573434834
 30
0.0
 11
727.4821358660453
 21
209.5363573434834
 31
0.0
  0
LINE
  5
578
330
1A
100
AcDbEntity
  8
SEIHIN
  6
CONTINUOUS
100
AcDbLine
 10
729.2154358660452
 20
211.0369573434834
 30
0.0
 11
729.2154358660452
 21
210.5370573434834
 31
0.0
  0
LINE
  5
579
330
1A
100
AcDbEntity
  8
SEIHIN
  6
CONTINUOUS
100
AcDbLine
 10
729.2154358660452
 20
209.5363573434834
 30
0.0
 11
729.2154358660452
 21
207.5362573434834
 31
0.0
  0
LINE
  5
57A
330
1A
100
AcDbEntity
  8
SEIHIN
  6
CONTINUOUS
100
AcDbLine
 10
729.2154358660452
 20
226.5365573434834
 30
0.0
 11
727.0504358660453
 21
225.2865573434835
 31
0.0
  0
LINE
  5
57B
330
1A
100
AcDbEntity
  8
SEIHIN
  6
CONTINUOUS
100
AcDbLine
 10
727.0504358660453
 20
224.2866573434834
 30
0.0
 11
729.2154358660452
 21
223.0366573434834
 31
0.0
  0
LINE
  5
57C
330
1A
100
AcDbEntity
  8
SEIHIN
  6
CONTINUOUS
100
AcDbLine
 10
727.0504358660453
 20
225.2865573434835
 30
0.0
 11
727.0504358660453
 21
224.2866573434834
 31
0.0
  0
LINE
  5
57D
330
1A
100
AcDbEntity
  8
SEIHIN
  6
CONTINUOUS
100
AcDbLine
 10
727.0504358660453
 20
220.2867573434835
 30
0.0
 11
729.2154358660452
 21
219.0367573434834
 31
0.0
  0
LINE
  5
57E
330
1A
100
AcDbEntity
  8
SEIHIN
  6
CONTINUOUS
100
AcDbLine
 10
727.0504358660453
 20
221.2867573434834
 30
0.0
 11
727.0504358660453
 21
220.2867573434835
 31
0.0
  0
LINE
  5
57F
330
1A
100
AcDbEntity
  8
SEIHIN
  6
CONTINUOUS
100
AcDbLine
 10
729.2154358660452
 20
222.5366573434834
 30
0.0
 11
727.0504358660453
 21
221.2867573434834
 31
0.0
  0
LINE
  5
580
330
1A
100
AcDbEntity
  8
SEIHIN
  6
CONTINUOUS
100
AcDbLine
 10
727.0504358660453
 20
217.2868573434834
 30
0.0
 11
727.0504358660453
 21
216.2868573434834
 31
0.0
  0
LINE
  5
581
330
1A
100
AcDbEntity
  8
SEIHIN
  6
CONTINUOUS
100
AcDbLine
 10
729.2154358660452
 20
218.5367573434835
 30
0.0
 11
727.0504358660453
 21
217.2868573434834
 31
0.0
  0
LINE
  5
582
330
1A
100
AcDbEntity
  8
SEIHIN
  6
CONTINUOUS
100
AcDbLine
 10
729.2154358660452
 20
223.0366573434834
 30
0.0
 11
729.2154358660452
 21
222.5366573434834
 31
0.0
  0
LINE
  5
583
330
1A
100
AcDbEntity
  8
SEIHIN
  6
CONTINUOUS
100
AcDbLine
 10
729.2154358660452
 20
219.0367573434834
 30
0.0
 11
729.2154358660452
 21
218.5367573434835
 31
0.0
  0
LINE
  5
584
330
1A
100
AcDbEntity
  8
SEIHIN
  6
CONTINUOUS
100
AcDbLine
 10
729.2154358660452
 20
215.0368573434834
 30
0.0
 11
729.2154358660452
 21
214.5369573434834
 31
0.0
  0
LINE
  5
585
330
1A
100
AcDbEntity
  8
SEIHIN
  6
CONTINUOUS
100
AcDbLine
 10
727.0504358660453
 20
216.2868573434834
 30
0.0
 11
729.2154358660452
 21
215.0368573434834
 31
0.0
  0
LINE
  5
586
330
1A
100
AcDbEntity
  8
SEIHIN
  6
CONTINUOUS
100
AcDbLine
 10
727.0504358660453
 20
233.2863573434834
 30
0.0
 11
727.0504358660453
 21
232.2863573434834
 31
0.0
  0
LINE
  5
587
330
1A
100
AcDbEntity
  8
SEIHIN
  6
CONTINUOUS
100
AcDbLine
 10
729.2154358660452
 20
234.5363573434834
 30
0.0
 11
727.0504358660453
 21
233.2863573434834
 31
0.0
  0
LINE
  5
588
330
1A
100
AcDbEntity
  8
SEIHIN
  6
CONTINUOUS
100
AcDbLine
 10
727.0504358660453
 20
228.2864573434834
 30
0.0
 11
729.2154358660452
 21
227.0364573434834
 31
0.0
  0
LINE
  5
589
330
1A
100
AcDbEntity
  8
SEIHIN
  6
CONTINUOUS
100
AcDbLine
 10
729.2154358660452
 20
230.5364573434834
 30
0.0
 11
727.0504358660453
 21
229.2864573434834
 31
0.0
  0
LINE
  5
58A
330
1A
100
AcDbEntity
  8
SEIHIN
  6
CONTINUOUS
100
AcDbLine
 10
727.0504358660453
 20
229.2864573434834
 30
0.0
 11
727.0504358660453
 21
228.2864573434834
 31
0.0
  0
LINE
  5
58B
330
1A
100
AcDbEntity
  8
SEIHIN
  6
CONTINUOUS
100
AcDbLine
 10
729.2154358660452
 20
234.5363573434834
 30
0.0
 11
729.2154358660452
 21
235.4146573434834
 31
0.0
  0
LINE
  5
58C
330
1A
100
AcDbEntity
  8
SEIHIN
  6
CONTINUOUS
100
AcDbLine
 10
729.2154358660452
 20
231.0363573434834
 30
0.0
 11
729.2154358660452
 21
230.5364573434834
 31
0.0
  0
LINE
  5
58D
330
1A
100
AcDbEntity
  8
SEIHIN
  6
CONTINUOUS
100
AcDbLine
 10
727.0504358660453
 20
232.2863573434834
 30
0.0
 11
729.2154358660452
 21
231.0363573434834
 31
0.0
  0
LINE
  5
58E
330
1A
100
AcDbEntity
  8
SEIHIN
  6
CONTINUOUS
100
AcDbLine
 10
729.2154358660452
 20
227.0364573434834
 30
0.0
 11
729.2154358660452
 21
226.5365573434834
 31
0.0
  0
LINE
  5
594
330
1A
100
AcDbEntity
  8
SEIHIN
  6
CONTINUOUS
100
AcDbLine
 10
743.7156358660452
 20
241.5363573434834
 30
0.0
 11
661.7156358660452
 21
241.5367573434834
 31
0.0
  0
LINE
  5
595
330
1A
100
AcDbEntity
  8
SEIHIN
  6
CONTINUOUS
100
AcDbLine
 10
661.7156358660452
 20
242.5366573434835
 30
0.0
 11
746.7156358660452
 21
242.5363573434834
 31
0.0
  0
LINE
  5
597
330
1A
100
AcDbEntity
  8
SEIHIN
  6
CONTINUOUS
100
AcDbLine
 10
736.1656358660452
 20
239.5364573434834
 30
0.0
 11
742.7156358660452
 21
239.5363573434834
 31
0.0
  0
LINE
  5
598
330
1A
100
AcDbEntity
  8
SEIHIN
  6
CONTINUOUS
100
AcDbLine
 10
746.7156358660452
 20
240.5363573434834
 30
0.0
 11
742.7156358660452
 21
239.5363573434834
 31
0.0
  0
LINE
  5
599
330
1A
100
AcDbEntity
  8
SEIHIN
  6
CONTINUOUS
100
AcDbLine
 10
746.7156358660452
 20
242.5363573434834
 30
0.0
 11
746.7156358660452
 21
240.5363573434834
 31
0.0
  0
LINE
  5
59A
330
1A
100
AcDbEntity
  8
SEIHIN
  6
CONTINUOUS
100
AcDbLine
 10
743.7156358660452
 20
241.5363573434834
 30
0.0
 11
743.7156358660452
 21
242.5363573434834
 31
0.0
  0
LINE
  5
59D
330
1A
100
AcDbEntity
  8
SEIHIN
  6
CONTINUOUS
100
AcDbLine
 10
727.0503358660453
 20
357.2872573434834
 30
0.0
 11
651.1035358660453
 21
350.5368573434835
 31
0.0
  0
LINE
  5
59E
330
1A
100
AcDbEntity
  8
SEIHIN
  6
CONTINUOUS
100
AcDbLine
 10
662.3673358660453
 20
382.5367573434834
 30
0.0
 11
596.380835866045
 21
376.6714573434835
 31
0.0
  0
LINE
  5
59F
330
1A
100
AcDbEntity
  8
SEIHIN
  6
CONTINUOUS
100
AcDbLine
 10
661.7158358660454
 20
424.5367573434834
 30
0.0
 11
603.3120358660453
 21
424.5370573434835
 31
0.0
  0
LINE
  5
5A0
330
1A
100
AcDbEntity
  8
SEIHIN
  6
CONTINUOUS
100
AcDbLine
 10
596.1665358660452
 20
386.5370573434834
 30
0.0
 11
661.7156358660452
 21
386.5367573434834
 31
0.0
  0
LINE
  5
5A1
330
1A
100
AcDbEntity
  8
SEIHIN
  6
CONTINUOUS
100
AcDbLine
 10
741.7156358660451
 20
384.5363573434835
 30
0.0
 11
581.7156358660452
 21
384.5372573434834
 31
0.0
  0
LINE
  5
5A2
330
1A
100
AcDbEntity
  8
SEIHIN
  6
CONTINUOUS
100
AcDbLine
 10
741.7156358660451
 20
385.5363573434835
 30
0.0
 11
581.7156358660452
 21
385.5368573434835
 31
0.0
  0
LINE
  5
5A3
330
1A
100
AcDbEntity
  8
SEIHIN
  6
CONTINUOUS
100
AcDbLine
 10
678.5919358660453
 20
382.5367573434834
 30
0.0
 11
594.2156358660452
 21
375.0371573434834
 31
0.0
  0
LINE
  5
5A4
330
1A
100
AcDbEntity
  8
SEIHIN
  6
CONTINUOUS
100
AcDbLine
 10
707.3644358660454
 20
382.5365573434834
 30
0.0
 11
596.380835866045
 21
372.6715573434834
 31
0.0
  0
LINE
  5
5A5
330
1A
100
AcDbEntity
  8
SEIHIN
  6
CONTINUOUS
100
AcDbLine
 10
696.1136358660453
 20
382.5366573434834
 30
0.0
 11
596.380835866045
 21
373.6720573434834
 31
0.0
  0
LINE
  5
5A6
330
1A
100
AcDbEntity
  8
SEIHIN
  6
CONTINUOUS
100
AcDbLine
 10
684.2163358660452
 20
382.5366573434834
 30
0.0
 11
594.2156358660452
 21
374.5371573434834
 31
0.0
  0
LINE
  5
5A7
330
1A
100
AcDbEntity
  8
SEIHIN
  6
CONTINUOUS
100
AcDbLine
 10
723.5910358660453
 20
382.5364573434835
 30
0.0
 11
594.2156358660452
 21
371.0372573434834
 31
0.0
  0
LINE
  5
5A8
330
1A
100
AcDbEntity
  8
SEIHIN
  6
CONTINUOUS
100
AcDbLine
 10
727.0503358660453
 20
380.2865573434834
 30
0.0
 11
596.380835866045
 21
368.6717573434834
 31
0.0
  0
LINE
  5
5A9
330
1A
100
AcDbEntity
  8
SEIHIN
  6
CONTINUOUS
100
AcDbLine
 10
727.0503358660453
 20
381.2864573434834
 30
0.0
 11
596.380835866045
 21
369.6722573434835
 31
0.0
  0
LINE
  5
5AA
330
1A
100
AcDbEntity
  8
SEIHIN
  6
CONTINUOUS
100
AcDbLine
 10
729.2154358660452
 20
382.5364573434835
 30
0.0
 11
594.2156358660452
 21
370.5373573434834
 31
0.0
  0
LINE
  5
5AB
330
1A
100
AcDbEntity
  8
SEIHIN
  6
CONTINUOUS
100
AcDbLine
 10
729.2154358660452
 20
379.0365573434834
 30
0.0
 11
594.2156358660452
 21
367.0373573434835
 31
0.0
  0
LINE
  5
5AC
330
1A
100
AcDbEntity
  8
SEIHIN
  6
CONTINUOUS
100
AcDbLine
 10
727.0503358660453
 20
376.2866573434834
 30
0.0
 11
596.380835866045
 21
364.6718573434835
 31
0.0
  0
LINE
  5
5AD
330
1A
100
AcDbEntity
  8
SEIHIN
  6
CONTINUOUS
100
AcDbLine
 10
727.0503358660453
 20
377.2866573434834
 30
0.0
 11
596.380835866045
 21
365.6723573434835
 31
0.0
  0
LINE
  5
5AE
330
1A
100
AcDbEntity
  8
SEIHIN
  6
CONTINUOUS
100
AcDbLine
 10
729.2154358660452
 20
378.5365573434834
 30
0.0
 11
594.2156358660452
 21
366.5374573434835
 31
0.0
  0
LINE
  5
5AF
330
1A
100
AcDbEntity
  8
SEIHIN
  6
CONTINUOUS
100
AcDbLine
 10
729.2154358660452
 20
375.0366573434834
 30
0.0
 11
594.2156358660452
 21
363.0374573434834
 31
0.0
  0
LINE
  5
5B0
330
1A
100
AcDbEntity
  8
SEIHIN
  6
CONTINUOUS
100
AcDbLine
 10
727.0503358660453
 20
372.2867573434834
 30
0.0
 11
596.380835866045
 21
360.6719573434834
 31
0.0
  0
LINE
  5
5B1
330
1A
100
AcDbEntity
  8
SEIHIN
  6
CONTINUOUS
100
AcDbLine
 10
727.0503358660453
 20
373.2867573434834
 30
0.0
 11
596.380835866045
 21
361.6724573434834
 31
0.0
  0
LINE
  5
5B2
330
1A
100
AcDbEntity
  8
SEIHIN
  6
CONTINUOUS
100
AcDbLine
 10
729.2154358660452
 20
374.5366573434834
 30
0.0
 11
594.2156358660452
 21
362.5375573434834
 31
0.0
  0
LINE
  5
5B3
330
1A
100
AcDbEntity
  8
SEIHIN
  6
CONTINUOUS
100
AcDbLine
 10
727.0503358660453
 20
349.5364573434835
 30
0.0
 11
596.380835866045
 21
349.5371573434834
 31
0.0
  0
LINE
  5
5B4
330
1A
100
AcDbEntity
  8
SEIHIN
  6
CONTINUOUS
100
AcDbLine
 10
729.2154358660452
 20
350.5364573434835
 30
0.0
 11
594.2444358660452
 21
350.5371573434834
 31
0.0
  0
LINE
  5
5B5
330
1A
100
AcDbEntity
  8
SEIHIN
  6
CONTINUOUS
100
AcDbLine
 10
729.2154358660452
 20
382.5364573434835
 30
0.0
 11
594.2156358660452
 21
382.5371573434834
 31
0.0
  0
LINE
  5
5B6
330
1A
100
AcDbEntity
  8
SEIHIN
  6
CONTINUOUS
100
AcDbLine
 10
729.2154358660452
 20
366.5369573434834
 30
0.0
 11
594.2156358660452
 21
354.5377573434835
 31
0.0
  0
LINE
  5
5B7
330
1A
100
AcDbEntity
  8
SEIHIN
  6
CONTINUOUS
100
AcDbLine
 10
727.0503358660453
 20
365.2869573434835
 30
0.0
 11
596.380835866045
 21
353.6727573434835
 31
0.0
  0
LINE
  5
5B8
330
1A
100
AcDbEntity
  8
SEIHIN
  6
CONTINUOUS
100
AcDbLine
 10
727.0503358660453
 20
364.2869573434834
 30
0.0
 11
596.380835866045
 21
352.6721573434834
 31
0.0
  0
LINE
  5
5B9
330
1A
100
AcDbEntity
  8
SEIHIN
  6
CONTINUOUS
100
AcDbLine
 10
729.2154358660452
 20
367.0368573434835
 30
0.0
 11
594.2156358660452
 21
355.0377573434835
 31
0.0
  0
LINE
  5
5BA
330
1A
100
AcDbEntity
  8
SEIHIN
  6
CONTINUOUS
100
AcDbLine
 10
729.2154358660452
 20
370.5368573434835
 30
0.0
 11
594.2156358660452
 21
358.5376573434834
 31
0.0
  0
LINE
  5
5BB
330
1A
100
AcDbEntity
  8
SEIHIN
  6
CONTINUOUS
100
AcDbLine
 10
727.0503358660453
 20
369.2868573434835
 30
0.0
 11
596.380835866045
 21
357.6725573434834
 31
0.0
  0
LINE
  5
5BC
330
1A
100
AcDbEntity
  8
SEIHIN
  6
CONTINUOUS
100
AcDbLine
 10
727.0503358660453
 20
368.2868573434835
 30
0.0
 11
596.380835866045
 21
356.6720573434834
 31
0.0
  0
LINE
  5
5BD
330
1A
100
AcDbEntity
  8
SEIHIN
  6
CONTINUOUS
100
AcDbLine
 10
729.2154358660452
 20
371.0367573434834
 30
0.0
 11
594.2156358660452
 21
359.0376573434834
 31
0.0
  0
LINE
  5
5BE
330
1A
100
AcDbEntity
  8
SEIHIN
  6
CONTINUOUS
100
AcDbLine
 10
729.2154358660452
 20
363.0369573434835
 30
0.0
 11
594.2156358660452
 21
351.0378573434834
 31
0.0
  0
LINE
  5
5BF
330
1A
100
AcDbEntity
  8
SEIHIN
  6
CONTINUOUS
100
AcDbLine
 10
727.0503358660453
 20
360.2871573434834
 30
0.0
 11
617.3593358660452
 21
350.5370573434834
 31
0.0
  0
LINE
  5
5C0
330
1A
100
AcDbEntity
  8
SEIHIN
  6
CONTINUOUS
100
AcDbLine
 10
727.0503358660453
 20
361.2870573434834
 30
0.0
 11
606.1043358660452
 21
350.5370573434834
 31
0.0
  0
LINE
  5
5C1
330
1A
100
AcDbEntity
  8
SEIHIN
  6
CONTINUOUS
100
AcDbLine
 10
729.2154358660452
 20
362.5370573434834
 30
0.0
 11
594.2156358660452
 21
350.5379573434834
 31
0.0
  0
LINE
  5
5C2
330
1A
100
AcDbEntity
  8
SEIHIN
  6
CONTINUOUS
100
AcDbLine
 10
729.2154358660452
 20
359.0371573434834
 30
0.0
 11
633.5818358660451
 21
350.5369573434835
 31
0.0
  0
LINE
  5
5C3
330
1A
100
AcDbEntity
  8
SEIHIN
  6
CONTINUOUS
100
AcDbLine
 10
729.2154358660452
 20
358.5371573434834
 30
0.0
 11
639.2062358660453
 21
350.5369573434835
 31
0.0
  0
LINE
  5
5C6
330
1A
100
AcDbEntity
  8
SEIHIN
  6
CONTINUOUS
100
AcDbLine
 10
596.380835866045
 20
364.6718573434835
 30
0.0
 11
594.2156358660452
 21
363.0374573434834
 31
0.0
  0
LINE
  5
5C7
330
1A
100
AcDbEntity
  8
SEIHIN
  6
CONTINUOUS
100
AcDbLine
 10
594.2156358660452
 20
362.5375573434834
 30
0.0
 11
596.380835866045
 21
361.6724573434834
 31
0.0
  0
LINE
  5
5C8
330
1A
100
AcDbEntity
  8
SEIHIN
  6
CONTINUOUS
100
AcDbLine
 10
596.380835866045
 20
360.6719573434834
 30
0.0
 11
594.2156358660452
 21
359.0376573434834
 31
0.0
  0
LINE
  5
5C9
330
1A
100
AcDbEntity
  8
SEIHIN
  6
CONTINUOUS
100
AcDbLine
 10
594.2156358660452
 20
354.5377573434835
 30
0.0
 11
596.380835866045
 21
353.6727573434835
 31
0.0
  0
LINE
  5
5CA
330
1A
100
AcDbEntity
  8
SEIHIN
  6
CONTINUOUS
100
AcDbLine
 10
596.380835866045
 20
356.6720573434834
 30
0.0
 11
594.2156358660452
 21
355.0377573434835
 31
0.0
  0
LINE
  5
5CB
330
1A
100
AcDbEntity
  8
SEIHIN
  6
CONTINUOUS
100
AcDbLine
 10
594.2156358660452
 20
358.5376573434834
 30
0.0
 11
596.380835866045
 21
357.6725573434834
 31
0.0
  0
LINE
  5
5CC
330
1A
100
AcDbEntity
  8
SEIHIN
  6
CONTINUOUS
100
AcDbLine
 10
596.380835866045
 20
352.6721573434834
 30
0.0
 11
594.2156358660452
 21
351.0378573434834
 31
0.0
  0
LINE
  5
5D0
330
1A
100
AcDbEntity
  8
SEIHIN
  6
CONTINUOUS
100
AcDbLine
 10
594.2156358660452
 20
351.0378573434834
 30
0.0
 11
594.2156358660452
 21
350.5379573434834
 31
0.0
  0
LINE
  5
5D1
330
1A
100
AcDbEntity
  8
SEIHIN
  6
CONTINUOUS
100
AcDbLine
 10
594.2156358660452
 20
363.0374573434834
 30
0.0
 11
594.2156358660452
 21
362.5375573434834
 31
0.0
  0
LINE
  5
5D2
330
1A
100
AcDbEntity
  8
SEIHIN
  6
CONTINUOUS
100
AcDbLine
 10
594.2156358660452
 20
359.0376573434834
 30
0.0
 11
594.2156358660452
 21
358.5376573434834
 31
0.0
  0
LINE
  5
5D3
330
1A
100
AcDbEntity
  8
SEIHIN
  6
CONTINUOUS
100
AcDbLine
 10
594.2156358660452
 20
355.0377573434835
 30
0.0
 11
594.2156358660452
 21
354.5377573434835
 31
0.0
  0
LINE
  5
5D4
330
1A
100
AcDbEntity
  8
SEIHIN
  6
CONTINUOUS
100
AcDbLine
 10
596.380835866045
 20
350.5363573434835
 30
0.0
 11
596.380835866045
 21
349.5363573434835
 31
0.0
  0
LINE
  5
5D5
330
1A
100
AcDbEntity
  8
SEIHIN
  6
CONTINUOUS
100
AcDbLine
 10
596.380835866045
 20
361.6724573434834
 30
0.0
 11
596.380835866045
 21
360.6719573434834
 31
0.0
  0
LINE
  5
5D6
330
1A
100
AcDbEntity
  8
SEIHIN
  6
CONTINUOUS
100
AcDbLine
 10
596.380835866045
 20
357.6725573434834
 30
0.0
 11
596.380835866045
 21
356.6720573434834
 31
0.0
  0
LINE
  5
5D7
330
1A
100
AcDbEntity
  8
SEIHIN
  6
CONTINUOUS
100
AcDbLine
 10
596.380835866045
 20
353.6727573434835
 30
0.0
 11
596.380835866045
 21
352.6721573434834
 31
0.0
  0
LINE
  5
5D8
330
1A
100
AcDbEntity
  8
SEIHIN
  6
CONTINUOUS
100
AcDbLine
 10
596.380835866045
 20
380.6713573434835
 30
0.0
 11
594.2156358660452
 21
379.0369573434834
 31
0.0
  0
LINE
  5
5D9
330
1A
100
AcDbEntity
  8
SEIHIN
  6
CONTINUOUS
100
AcDbLine
 10
594.2156358660452
 20
382.5369573434834
 30
0.0
 11
596.380835866045
 21
381.6718573434835
 31
0.0
  0
LINE
  5
5DA
330
1A
100
AcDbEntity
  8
SEIHIN
  6
CONTINUOUS
100
AcDbLine
 10
594.2156358660452
 20
378.5370573434834
 30
0.0
 11
596.380835866045
 21
377.6719573434835
 31
0.0
  0
LINE
  5
5DB
330
1A
100
AcDbEntity
  8
SEIHIN
  6
CONTINUOUS
100
AcDbLine
 10
594.2156358660452
 20
374.5371573434834
 30
0.0
 11
596.380835866045
 21
373.6720573434834
 31
0.0
  0
LINE
  5
5DC
330
1A
100
AcDbEntity
  8
SEIHIN
  6
CONTINUOUS
100
AcDbLine
 10
596.380835866045
 20
372.6715573434834
 30
0.0
 11
594.2156358660452
 21
371.0372573434834
 31
0.0
  0
LINE
  5
5DD
330
1A
100
AcDbEntity
  8
SEIHIN
  6
CONTINUOUS
100
AcDbLine
 10
594.2156358660452
 20
370.5373573434834
 30
0.0
 11
596.380835866045
 21
369.6722573434835
 31
0.0
  0
LINE
  5
5DE
330
1A
100
AcDbEntity
  8
SEIHIN
  6
CONTINUOUS
100
AcDbLine
 10
596.380835866045
 20
368.6717573434834
 30
0.0
 11
594.2156358660452
 21
367.0373573434835
 31
0.0
  0
LINE
  5
5DF
330
1A
100
AcDbEntity
  8
SEIHIN
  6
CONTINUOUS
100
AcDbLine
 10
594.2156358660452
 20
366.5374573434835
 30
0.0
 11
596.380835866045
 21
365.6723573434835
 31
0.0
  0
LINE
  5
5E0
330
1A
100
AcDbEntity
  8
SEIHIN
  6
CONTINUOUS
100
AcDbLine
 10
596.380835866045
 20
376.6714573434835
 30
0.0
 11
594.2156358660452
 21
375.0371573434834
 31
0.0
  0
LINE
  5
5E1
330
1A
100
AcDbEntity
  8
SEIHIN
  6
CONTINUOUS
100
AcDbLine
 10
633.5928358660453
 20
382.5369573434834
 30
0.0
 11
594.2156358660452
 21
379.0369573434834
 31
0.0
  0
LINE
  5
5E2
330
1A
100
AcDbEntity
  8
SEIHIN
  6
CONTINUOUS
100
AcDbLine
 10
639.2171358660452
 20
382.5369573434834
 30
0.0
 11
594.2156358660452
 21
378.5370573434834
 31
0.0
  0
LINE
  5
5E3
330
1A
100
AcDbEntity
  8
SEIHIN
  6
CONTINUOUS
100
AcDbLine
 10
585.7156358660452
 20
386.5371573434834
 30
0.0
 11
595.6194358660452
 21
386.5370573434834
 31
0.0
  0
LINE
  5
5E4
330
1A
100
AcDbEntity
  8
SEIHIN
  6
CONTINUOUS
100
AcDbLine
 10
581.7156358660452
 20
385.5371573434834
 30
0.0
 11
585.7156358660452
 21
386.5371573434834
 31
0.0
  0
LINE
  5
5E5
330
1A
100
AcDbEntity
  8
SEIHIN
  6
CONTINUOUS
100
AcDbLine
 10
594.2156358660452
 20
375.0371573434834
 30
0.0
 11
594.2156358660452
 21
374.5371573434834
 31
0.0
  0
LINE
  5
5E6
330
1A
100
AcDbEntity
  8
SEIHIN
  6
CONTINUOUS
100
AcDbLine
 10
594.2156358660452
 20
371.0372573434834
 30
0.0
 11
594.2156358660452
 21
370.5373573434834
 31
0.0
  0
LINE
  5
5E7
330
1A
100
AcDbEntity
  8
SEIHIN
  6
CONTINUOUS
100
AcDbLine
 10
594.2156358660452
 20
367.0373573434835
 30
0.0
 11
594.2156358660452
 21
366.5374573434835
 31
0.0
  0
LINE
  5
5E8
330
1A
100
AcDbEntity
  8
SEIHIN
  6
CONTINUOUS
100
AcDbLine
 10
581.7156358660452
 20
384.5371573434834
 30
0.0
 11
581.7156358660452
 21
385.5371573434834
 31
0.0
  0
LINE
  5
5E9
330
1A
100
AcDbEntity
  8
SEIHIN
  6
CONTINUOUS
100
AcDbLine
 10
594.2156358660452
 20
379.0369573434834
 30
0.0
 11
594.2156358660452
 21
378.5370573434834
 31
0.0
  0
LINE
  5
5EA
330
1A
100
AcDbEntity
  8
SEIHIN
  6
CONTINUOUS
100
AcDbLine
 10
659.7156358660452
 20
386.5368573434835
 30
0.0
 11
659.7158358660453
 21
421.5368573434835
 31
0.0
  0
LINE
  5
5EB
330
1A
100
AcDbEntity
  8
SEIHIN
  6
CONTINUOUS
100
AcDbLine
 10
598.6152358660452
 20
389.3793573434834
 30
0.0
 11
600.3162358660452
 21
421.6947573434834
 31
0.0
  0
LINE
  5
5EC
330
1A
100
AcDbEntity
  8
SEIHIN
  6
CONTINUOUS
100
AcDbLine
 10
607.7156358660452
 20
386.5371573434834
 30
0.0
 11
607.7158358660451
 21
421.5371573434834
 31
0.0
  0
LINE
  5
5ED
330
1A
100
AcDbEntity
  8
SEIHIN
  6
CONTINUOUS
100
AcDbLine
 10
609.7156358660452
 20
386.5371573434834
 30
0.0
 11
609.7158358660451
 21
421.5371573434834
 31
0.0
  0
LINE
  5
5EE
330
1A
100
AcDbEntity
  8
SEIHIN
  6
CONTINUOUS
100
AcDbLine
 10
611.3155358660451
 20
386.5370573434834
 30
0.0
 11
611.3158358660452
 21
421.5371573434834
 31
0.0
  0
LINE
  5
5EF
330
1A
100
AcDbEntity
  8
SEIHIN
  6
CONTINUOUS
100
AcDbLine
 10
629.4156358660452
 20
386.5370573434834
 30
0.0
 11
629.4158358660451
 21
421.5369573434834
 31
0.0
  0
LINE
  5
5F0
330
1A
100
AcDbEntity
  8
SEIHIN
  6
CONTINUOUS
100
AcDbLine
 10
632.8156358660453
 20
386.5369573434835
 30
0.0
 11
632.8158358660452
 21
421.5369573434834
 31
0.0
  0
LINE
  5
5F1
330
1A
100
AcDbEntity
  8
SEIHIN
  6
CONTINUOUS
100
AcDbLine
 10
633.6156358660453
 20
386.5369573434835
 30
0.0
 11
633.6158358660452
 21
421.5369573434834
 31
0.0
  0
LINE
  5
5F2
330
1A
100
AcDbEntity
  8
SEIHIN
  6
CONTINUOUS
100
AcDbLine
 10
602.3134358660452
 20
421.5895573434834
 30
0.0
 11
600.4684358660451
 21
386.5370573434834
 31
0.0
  0
LINE
  5
5F3
330
1A
100
AcDbEntity
  8
SEIHIN
  6
CONTINUOUS
100
AcDbLine
 10
651.1145358660453
 20
382.5368573434835
 30
0.0
 11
596.380835866045
 21
377.6719573434835
 31
0.0
  0
ARC
  5
5F4
330
1A
100
AcDbEntity
  8
SEIHIN
  6
CONTINUOUS
100
AcDbCircle
 10
595.6194066487817
 20
389.5370330652854
 30
0.0
 40
2.999975721944249
100
AcDbArc
 50
270.0005580131437
 51
356.9872029626784
  0
LINE
  5
5F5
330
1A
100
AcDbEntity
  8
SEIHIN
  6
CONTINUOUS
100
AcDbLine
 10
617.3703358660453
 20
382.5370573434834
 30
0.0
 11
596.380835866045
 21
380.6713573434835
 31
0.0
  0
LINE
  5
5F6
330
1A
100
AcDbEntity
  8
SEIHIN
  6
CONTINUOUS
100
AcDbLine
 10
596.380835866045
 20
373.6720573434834
 30
0.0
 11
596.380835866045
 21
372.6715573434834
 31
0.0
  0
LINE
  5
5F7
330
1A
100
AcDbEntity
  8
SEIHIN
  6
CONTINUOUS
100
AcDbLine
 10
596.380835866045
 20
369.6722573434835
 30
0.0
 11
596.380835866045
 21
368.6717573434834
 31
0.0
  0
LINE
  5
5F8
330
1A
100
AcDbEntity
  8
SEIHIN
  6
CONTINUOUS
100
AcDbLine
 10
596.380835866045
 20
365.6723573434835
 30
0.0
 11
596.380835866045
 21
364.6718573434835
 31
0.0
  0
LINE
  5
5F9
330
1A
100
AcDbEntity
  8
SEIHIN
  6
CONTINUOUS
100
AcDbLine
 10
606.1153358660451
 20
382.5370573434834
 30
0.0
 11
596.380835866045
 21
381.6718573434835
 31
0.0
  0
LINE
  5
5FA
330
1A
100
AcDbEntity
  8
SEIHIN
  6
CONTINUOUS
100
AcDbLine
 10
596.380835866045
 20
381.6718573434835
 30
0.0
 11
596.380835866045
 21
380.6713573434835
 31
0.0
  0
LINE
  5
5FB
330
1A
100
AcDbEntity
  8
SEIHIN
  6
CONTINUOUS
100
AcDbLine
 10
596.380835866045
 20
377.6719573434835
 30
0.0
 11
596.380835866045
 21
376.6714573434835
 31
0.0
  0
LINE
  5
5FC
330
1A
100
AcDbEntity
  8
SEIHIN
  6
CONTINUOUS
100
AcDbLine
 10
596.380835866045
 20
382.5364573434835
 30
0.0
 11
596.380835866045
 21
384.5364573434835
 31
0.0
  0
LINE
  5
5FD
330
1A
100
AcDbEntity
  8
SEIHIN
  6
CONTINUOUS
100
AcDbLine
 10
629.4157358660452
 20
421.5369573434834
 30
0.0
 11
611.3157358660453
 21
421.5370573434834
 31
0.0
  0
LINE
  5
5FE
330
1A
100
AcDbEntity
  8
SEIHIN
  6
CONTINUOUS
100
AcDbLine
 10
611.3157358660453
 20
421.5370573434834
 30
0.0
 11
609.7158358660451
 21
421.5370573434834
 31
0.0
  0
LINE
  5
5FF
330
1A
100
AcDbEntity
  8
SEIHIN
  6
CONTINUOUS
100
AcDbLine
 10
607.7158358660451
 20
421.5370573434834
 30
0.0
 11
602.3107358660451
 21
421.5370573434834
 31
0.0
  0
ARC
  5
600
330
1A
100
AcDbEntity
  8
SEIHIN
  6
CONTINUOUS
100
AcDbCircle
 10
603.3120650833086
 20
421.5370816216815
 30
0.0
 40
2.999975721944306
100
AcDbArc
 50
90.0005580131437
 51
176.9872029626785
  0
LINE
  5
601
330
1A
100
AcDbEntity
  8
SEIHIN
  6
CONTINUOUS
100
AcDbLine
 10
659.7157358660454
 20
421.5367573434834
 30
0.0
 11
633.6157358660452
 21
421.5368573434835
 31
0.0
  0
LINE
  5
602
330
1A
100
AcDbEntity
  8
SEIHIN
  6
CONTINUOUS
100
AcDbLine
 10
633.6157358660452
 20
421.5368573434835
 30
0.0
 11
632.8158358660452
 21
421.5368573434835
 31
0.0
  0
LINE
  5
603
330
1A
100
AcDbEntity
  8
SEIHIN
  6
CONTINUOUS
100
AcDbLine
 10
727.0503358660453
 20
364.2869573434834
 30
0.0
 11
729.2154358660452
 21
363.0369573434835
 31
0.0
  0
LINE
  5
606
330
1A
100
AcDbEntity
  8
CENTER_L
 48
5.0
100
AcDbLine
 10
661.7157358660453
 20
432.5249573434834
 30
0.0
 11
661.7155358660452
 21
341.5941573434834
 31
0.0
  0
LINE
  5
607
330
1A
100
AcDbEntity
  8
SEIHIN
  6
CONTINUOUS
100
AcDbLine
 10
729.2154358660452
 20
351.0373573434835
 30
0.0
 11
723.5801358660453
 21
350.5364573434835
 31
0.0
  0
LINE
  5
608
330
1A
100
AcDbEntity
  8
SEIHIN
  6
CONTINUOUS
100
AcDbLine
 10
727.0503358660453
 20
352.2873573434835
 30
0.0
 11
707.3534358660453
 21
350.5365573434835
 31
0.0
  0
LINE
  5
609
330
1A
100
AcDbEntity
  8
SEIHIN
  6
CONTINUOUS
100
AcDbLine
 10
727.0503358660453
 20
353.2873573434835
 30
0.0
 11
696.1026358660453
 21
350.5366573434834
 31
0.0
  0
LINE
  5
60A
330
1A
100
AcDbEntity
  8
SEIHIN
  6
CONTINUOUS
100
AcDbLine
 10
729.2154358660452
 20
355.0372573434834
 30
0.0
 11
678.5809358660453
 21
350.5367573434834
 31
0.0
  0
LINE
  5
60B
330
1A
100
AcDbEntity
  8
SEIHIN
  6
CONTINUOUS
100
AcDbLine
 10
727.0503358660453
 20
356.2872573434834
 30
0.0
 11
662.3564358660453
 21
350.5367573434834
 31
0.0
  0
LINE
  5
60C
330
1A
100
AcDbEntity
  8
SEIHIN
  6
CONTINUOUS
100
AcDbLine
 10
729.2154358660452
 20
354.5373573434835
 30
0.0
 11
684.2053358660453
 21
350.5366573434834
 31
0.0
  0
LINE
  5
611
330
1A
100
AcDbEntity
  8
SEIHIN
  6
CONTINUOUS
100
AcDbLine
 10
727.0503358660453
 20
352.2873573434835
 30
0.0
 11
729.2154358660452
 21
351.0373573434835
 31
0.0
  0
LINE
  5
612
330
1A
100
AcDbEntity
  8
SEIHIN
  6
CONTINUOUS
100
AcDbLine
 10
729.2154358660452
 20
351.0373573434835
 30
0.0
 11
729.2154358660452
 21
350.5374573434834
 31
0.0
  0
LINE
  5
613
330
1A
100
AcDbEntity
  8
SEIHIN
  6
CONTINUOUS
100
AcDbLine
 10
727.0503358660453
 20
350.5363573434835
 30
0.0
 11
727.0503358660453
 21
349.5364573434835
 31
0.0
  0
LINE
  5
614
330
1A
100
AcDbEntity
  8
SEIHIN
  6
CONTINUOUS
100
AcDbLine
 10
729.2154358660452
 20
363.0369573434835
 30
0.0
 11
729.2154358660452
 21
362.5370573434834
 31
0.0
  0
LINE
  5
615
330
1A
100
AcDbEntity
  8
SEIHIN
  6
CONTINUOUS
100
AcDbLine
 10
729.2154358660452
 20
362.5370573434834
 30
0.0
 11
727.0503358660453
 21
361.2870573434834
 31
0.0
  0
LINE
  5
616
330
1A
100
AcDbEntity
  8
SEIHIN
  6
CONTINUOUS
100
AcDbLine
 10
727.0503358660453
 20
361.2870573434834
 30
0.0
 11
727.0503358660453
 21
360.2871573434834
 31
0.0
  0
LINE
  5
617
330
1A
100
AcDbEntity
  8
SEIHIN
  6
CONTINUOUS
100
AcDbLine
 10
727.0503358660453
 20
360.2871573434834
 30
0.0
 11
729.2154358660452
 21
359.0371573434834
 31
0.0
  0
LINE
  5
618
330
1A
100
AcDbEntity
  8
SEIHIN
  6
CONTINUOUS
100
AcDbLine
 10
729.2154358660452
 20
359.0371573434834
 30
0.0
 11
729.2154358660452
 21
358.5371573434834
 31
0.0
  0
LINE
  5
619
330
1A
100
AcDbEntity
  8
SEIHIN
  6
CONTINUOUS
100
AcDbLine
 10
729.2154358660452
 20
358.5371573434834
 30
0.0
 11
727.0503358660453
 21
357.2872573434834
 31
0.0
  0
LINE
  5
61A
330
1A
100
AcDbEntity
  8
SEIHIN
  6
CONTINUOUS
100
AcDbLine
 10
727.0503358660453
 20
357.2872573434834
 30
0.0
 11
727.0503358660453
 21
356.2872573434834
 31
0.0
  0
LINE
  5
61B
330
1A
100
AcDbEntity
  8
SEIHIN
  6
CONTINUOUS
100
AcDbLine
 10
727.0503358660453
 20
356.2872573434834
 30
0.0
 11
729.2154358660452
 21
355.0372573434834
 31
0.0
  0
LINE
  5
61C
330
1A
100
AcDbEntity
  8
SEIHIN
  6
CONTINUOUS
100
AcDbLine
 10
729.2154358660452
 20
355.0372573434834
 30
0.0
 11
729.2154358660452
 21
354.5373573434835
 31
0.0
  0
LINE
  5
61D
330
1A
100
AcDbEntity
  8
SEIHIN
  6
CONTINUOUS
100
AcDbLine
 10
727.0503358660453
 20
353.2873573434835
 30
0.0
 11
727.0503358660453
 21
352.2873573434835
 31
0.0
  0
LINE
  5
61E
330
1A
100
AcDbEntity
  8
SEIHIN
  6
CONTINUOUS
100
AcDbLine
 10
729.2154358660452
 20
354.5373573434835
 30
0.0
 11
727.0503358660453
 21
353.2873573434835
 31
0.0
  0
ARC
  5
621
330
1A
100
AcDbEntity
  8
SEIHIN
  6
CONTINUOUS
100
AcDbCircle
 10
727.8119099069449
 20
389.5364803104929
 30
0.0
 40
3.000022967121867
100
AcDbArc
 50
183.0136531065035
 51
270.0004957785012
  0
LINE
  5
622
330
1A
100
AcDbEntity
  8
SEIHIN
  6
CONTINUOUS
100
AcDbLine
 10
727.2647358660454
 20
386.5364573434835
 30
0.0
 11
661.7156358660452
 21
386.5367573434834
 31
0.0
  0
LINE
  5
623
330
1A
100
AcDbEntity
  8
SEIHIN
  6
CONTINUOUS
100
AcDbLine
 10
724.8160358660452
 20
389.3787573434835
 30
0.0
 11
723.1154358660453
 21
421.6941573434835
 31
0.0
  0
LINE
  5
624
330
1A
100
AcDbEntity
  8
SEIHIN
  6
CONTINUOUS
100
AcDbLine
 10
712.1156358660453
 20
386.5366573434834
 30
0.0
 11
712.1158358660452
 21
421.5366573434834
 31
0.0
  0
LINE
  5
625
330
1A
100
AcDbEntity
  8
SEIHIN
  6
CONTINUOUS
100
AcDbLine
 10
713.7156358660452
 20
386.5366573434834
 30
0.0
 11
713.7158358660453
 21
421.5366573434834
 31
0.0
  0
LINE
  5
626
330
1A
100
AcDbEntity
  8
SEIHIN
  6
CONTINUOUS
100
AcDbLine
 10
715.7156358660452
 20
386.5366573434834
 30
0.0
 11
715.7158358660454
 21
421.5366573434834
 31
0.0
  0
LINE
  5
627
330
1A
100
AcDbEntity
  8
SEIHIN
  6
CONTINUOUS
100
AcDbLine
 10
722.9629358660452
 20
386.5364573434835
 30
0.0
 11
721.1182358660453
 21
421.5890573434834
 31
0.0
  0
LINE
  5
628
330
1A
100
AcDbEntity
  8
SEIHIN
  6
CONTINUOUS
100
AcDbLine
 10
689.8156358660453
 20
386.5367573434834
 30
0.0
 11
689.8158358660452
 21
421.5366573434834
 31
0.0
  0
LINE
  5
629
330
1A
100
AcDbEntity
  8
SEIHIN
  6
CONTINUOUS
100
AcDbLine
 10
690.6156358660453
 20
386.5367573434834
 30
0.0
 11
690.6158358660452
 21
421.5366573434834
 31
0.0
  0
LINE
  5
62A
330
1A
100
AcDbEntity
  8
SEIHIN
  6
CONTINUOUS
100
AcDbLine
 10
694.0156358660454
 20
386.5366573434834
 30
0.0
 11
694.0158358660453
 21
421.5366573434834
 31
0.0
  0
LINE
  5
62B
330
1A
100
AcDbEntity
  8
SEIHIN
  6
CONTINUOUS
100
AcDbLine
 10
663.7156358660452
 20
386.5368573434835
 30
0.0
 11
663.7158358660453
 21
421.5368573434835
 31
0.0
  0
LINE
  5
62C
330
1A
100
AcDbEntity
  8
SEIHIN
  6
CONTINUOUS
100
AcDbLine
 10
661.7158358660454
 20
424.5367573434834
 30
0.0
 11
720.1195358660452
 21
424.5364573434835
 31
0.0
  0
LINE
  5
62D
330
1A
100
AcDbEntity
  8
SEIHIN
  6
CONTINUOUS
100
AcDbLine
 10
663.7158358660453
 20
421.5367573434834
 30
0.0
 11
689.8158358660452
 21
421.5366573434834
 31
0.0
  0
LINE
  5
62E
330
1A
100
AcDbEntity
  8
SEIHIN
  6
CONTINUOUS
100
AcDbLine
 10
689.8158358660452
 20
421.5366573434834
 30
0.0
 11
690.6158358660452
 21
421.5366573434834
 31
0.0
  0
LINE
  5
62F
330
1A
100
AcDbEntity
  8
SEIHIN
  6
CONTINUOUS
100
AcDbLine
 10
694.0158358660453
 20
421.5366573434834
 30
0.0
 11
712.1159358660452
 21
421.5365573434834
 31
0.0
  0
LINE
  5
630
330
1A
100
AcDbEntity
  8
SEIHIN
  6
CONTINUOUS
100
AcDbLine
 10
715.7159358660453
 20
421.5365573434834
 30
0.0
 11
721.1209358660453
 21
421.5364573434834
 31
0.0
  0
LINE
  5
631
330
1A
100
AcDbEntity
  8
SEIHIN
  6
CONTINUOUS
100
AcDbLine
 10
712.1159358660452
 20
421.5365573434834
 30
0.0
 11
713.7158358660453
 21
421.5365573434834
 31
0.0
  0
ARC
  5
632
330
1A
100
AcDbEntity
  8
SEIHIN
  6
CONTINUOUS
100
AcDbCircle
 10
720.1195618251456
 20
421.5364343764738
 30
0.0
 40
3.000022967121867
100
AcDbArc
 50
3.013653106503561
 51
90.00049577850125
  0
LINE
  5
634
330
1A
100
AcDbEntity
  8
SEIHIN
  6
CONTINUOUS
100
AcDbLine
 10
741.7156358660451
 20
385.5363573434835
 30
0.0
 11
737.7156358660451
 21
386.5364573434835
 31
0.0
  0
LINE
  5
635
330
1A
100
AcDbEntity
  8
SEIHIN
  6
CONTINUOUS
100
AcDbLine
 10
729.2154358660452
 20
375.0366573434834
 30
0.0
 11
729.2154358660452
 21
374.5366573434834
 31
0.0
  0
LINE
  5
636
330
1A
100
AcDbEntity
  8
SEIHIN
  6
CONTINUOUS
100
AcDbLine
 10
729.2154358660452
 20
374.5366573434834
 30
0.0
 11
727.0503358660453
 21
373.2867573434834
 31
0.0
  0
LINE
  5
637
330
1A
100
AcDbEntity
  8
SEIHIN
  6
CONTINUOUS
100
AcDbLine
 10
727.0503358660453
 20
373.2867573434834
 30
0.0
 11
727.0503358660453
 21
372.2867573434834
 31
0.0
  0
LINE
  5
638
330
1A
100
AcDbEntity
  8
SEIHIN
  6
CONTINUOUS
100
AcDbLine
 10
727.0503358660453
 20
372.2867573434834
 30
0.0
 11
729.2154358660452
 21
371.0367573434834
 31
0.0
  0
LINE
  5
639
330
1A
100
AcDbEntity
  8
SEIHIN
  6
CONTINUOUS
100
AcDbLine
 10
729.2154358660452
 20
371.0367573434834
 30
0.0
 11
729.2154358660452
 21
370.5368573434835
 31
0.0
  0
LINE
  5
63A
330
1A
100
AcDbEntity
  8
SEIHIN
  6
CONTINUOUS
100
AcDbLine
 10
729.2154358660452
 20
370.5368573434835
 30
0.0
 11
727.0503358660453
 21
369.2868573434835
 31
0.0
  0
LINE
  5
63B
330
1A
100
AcDbEntity
  8
SEIHIN
  6
CONTINUOUS
100
AcDbLine
 10
727.0503358660453
 20
369.2868573434835
 30
0.0
 11
727.0503358660453
 21
368.2868573434835
 31
0.0
  0
LINE
  5
63C
330
1A
100
AcDbEntity
  8
SEIHIN
  6
CONTINUOUS
100
AcDbLine
 10
727.0503358660453
 20
368.2868573434835
 30
0.0
 11
729.2154358660452
 21
367.0368573434835
 31
0.0
  0
LINE
  5
63D
330
1A
100
AcDbEntity
  8
SEIHIN
  6
CONTINUOUS
100
AcDbLine
 10
729.2154358660452
 20
367.0368573434835
 30
0.0
 11
729.2154358660452
 21
366.5369573434834
 31
0.0
  0
LINE
  5
63E
330
1A
100
AcDbEntity
  8
SEIHIN
  6
CONTINUOUS
100
AcDbLine
 10
729.2154358660452
 20
366.5369573434834
 30
0.0
 11
727.0503358660453
 21
365.2869573434835
 31
0.0
  0
LINE
  5
63F
330
1A
100
AcDbEntity
  8
SEIHIN
  6
CONTINUOUS
100
AcDbLine
 10
727.0503358660453
 20
365.2869573434835
 30
0.0
 11
727.0503358660453
 21
364.2869573434834
 31
0.0
  0
LINE
  5
640
330
1A
100
AcDbEntity
  8
SEIHIN
  6
CONTINUOUS
100
AcDbLine
 10
727.0503358660453
 20
381.2864573434834
 30
0.0
 11
727.0503358660453
 21
380.2865573434834
 31
0.0
  0
LINE
  5
641
330
1A
100
AcDbEntity
  8
SEIHIN
  6
CONTINUOUS
100
AcDbLine
 10
729.2154358660452
 20
382.5364573434835
 30
0.0
 11
727.0503358660453
 21
381.2864573434834
 31
0.0
  0
LINE
  5
642
330
1A
100
AcDbEntity
  8
SEIHIN
  6
CONTINUOUS
100
AcDbLine
 10
729.2154358660452
 20
379.0365573434834
 30
0.0
 11
729.2154358660452
 21
378.5365573434834
 31
0.0
  0
LINE
  5
643
330
1A
100
AcDbEntity
  8
SEIHIN
  6
CONTINUOUS
100
AcDbLine
 10
727.0503358660453
 20
380.2865573434834
 30
0.0
 11
729.2154358660452
 21
379.0365573434834
 31
0.0
  0
LINE
  5
644
330
1A
100
AcDbEntity
  8
SEIHIN
  6
CONTINUOUS
100
AcDbLine
 10
727.0503358660453
 20
377.2866573434834
 30
0.0
 11
727.0503358660453
 21
376.2866573434834
 31
0.0
  0
LINE
  5
645
330
1A
100
AcDbEntity
  8
SEIHIN
  6
CONTINUOUS
100
AcDbLine
 10
729.2154358660452
 20
378.5365573434834
 30
0.0
 11
727.0503358660453
 21
377.2866573434834
 31
0.0
  0
LINE
  5
646
330
1A
100
AcDbEntity
  8
SEIHIN
  6
CONTINUOUS
100
AcDbLine
 10
727.0503358660453
 20
382.5363573434835
 30
0.0
 11
727.0503358660453
 21
384.5363573434835
 31
0.0
  0
LINE
  5
647
330
1A
100
AcDbEntity
  8
SEIHIN
  6
CONTINUOUS
100
AcDbLine
 10
727.0503358660453
 20
376.2866573434834
 30
0.0
 11
729.2154358660452
 21
375.0366573434834
 31
0.0
  0
LINE
  5
648
330
1A
100
AcDbEntity
  8
SEIHIN
  6
CONTINUOUS
100
AcDbLine
 10
741.7156358660451
 20
384.5364573434835
 30
0.0
 11
741.7156358660451
 21
385.5363573434835
 31
0.0
  0
LINE
  5
649
330
1A
100
AcDbEntity
  8
SEIHIN
  6
CONTINUOUS
100
AcDbLine
 10
737.7156358660451
 20
386.5364573434835
 30
0.0
 11
727.8119358660453
 21
386.5364573434835
 31
0.0
  0
LINE
  5
64C
330
1A
100
AcDbEntity
  8
SEIHIN
  6
CONTINUOUS
100
AcDbLine
 10
398.1791384030555
 20
197.9635001714777
 30
0.0
 11
424.2791384030556
 21
197.9634001714778
 31
0.0
  0
LINE
  5
652
330
1A
100
AcDbEntity
  8
SEIHIN
  6
CONTINUOUS
100
AcDbLine
 10
396.1791384030555
 20
200.9635001714777
 30
0.0
 11
454.5828384030555
 21
200.9632001714777
 31
0.0
  0
LINE
  5
653
330
1A
100
AcDbEntity
  8
SEIHIN
  6
CONTINUOUS
100
AcDbLine
 10
461.7280384030555
 20
162.9632001714777
 30
0.0
 11
320.1787297303265
 21
162.9638480032955
 31
0.0
  0
LINE
  5
654
330
1A
100
AcDbEntity
  8
SEIHIN
  6
CONTINUOUS
100
AcDbLine
 10
476.1789384030556
 20
160.9631001714777
 30
0.0
 11
316.1789384030555
 21
160.9640001714777
 31
0.0
  0
LINE
  5
655
330
1A
100
AcDbEntity
  8
SEIHIN
  6
CONTINUOUS
100
AcDbLine
 10
476.1789384030556
 20
161.9631001714777
 30
0.0
 11
316.1789384030555
 21
161.9636001714777
 31
0.0
  0
LINE
  5
656
330
1A
100
AcDbEntity
  8
CENTER_L
 48
5.0
100
AcDbLine
 10
396.1790384030555
 20
217.8669001714777
 30
0.0
 11
396.1788480865777
 21
118.9635501715944
 31
0.0
  0
LINE
  5
658
330
1A
100
AcDbEntity
  8
SEIHIN
  6
CONTINUOUS
100
AcDbLine
 10
345.7790384030555
 20
197.9638001714777
 30
0.0
 11
344.1791384030555
 21
197.9638001714777
 31
0.0
  0
LINE
  5
65C
330
1A
100
AcDbEntity
  8
SEIHIN
  6
CONTINUOUS
100
AcDbLine
 10
396.1791384030555
 20
200.9635001714777
 30
0.0
 11
337.7753384030555
 21
200.9638001714777
 31
0.0
  0
LINE
  5
65E
330
1A
100
AcDbEntity
  8
SEIHIN
  6
CONTINUOUS
100
AcDbLine
 10
333.0785384030555
 20
165.8061001714777
 30
0.0
 11
334.7795384030555
 21
198.1215001714778
 31
0.0
  0
LINE
  5
65F
330
1A
100
AcDbEntity
  8
SEIHIN
  6
CONTINUOUS
100
AcDbLine
 10
342.1789384030555
 20
162.9639001714778
 30
0.0
 11
342.1791384030555
 21
197.9639001714778
 31
0.0
  0
LINE
  5
660
330
1A
100
AcDbEntity
  8
SEIHIN
  6
CONTINUOUS
100
AcDbLine
 10
344.1789384030555
 20
162.9639001714778
 30
0.0
 11
344.1791384030555
 21
197.9639001714778
 31
0.0
  0
LINE
  5
661
330
1A
100
AcDbEntity
  8
SEIHIN
  6
CONTINUOUS
100
AcDbLine
 10
336.7767384030555
 20
198.0163001714777
 30
0.0
 11
334.9317384030555
 21
162.9638001714777
 31
0.0
  0
LINE
  5
666
330
1A
100
AcDbEntity
  8
SEIHIN
  6
CONTINUOUS
100
AcDbLine
 10
316.1789384030555
 20
160.9639001714778
 30
0.0
 11
316.1789384030555
 21
161.9639001714778
 31
0.0
  0
LINE
  5
667
330
1A
100
AcDbEntity
  8
SEIHIN
  6
CONTINUOUS
100
AcDbLine
 10
316.1789384030555
 20
161.9639001714778
 30
0.0
 11
320.1789384030555
 21
162.9639001714778
 31
0.0
  0
ARC
  5
668
330
1A
100
AcDbEntity
  8
SEIHIN
  6
CONTINUOUS
100
AcDbCircle
 10
330.0827091857921
 20
165.9637758932797
 30
0.0
 40
2.999975721944285
100
AcDbArc
 50
270.0005580131439
 51
356.9872029626783
  0
LINE
  5
669
330
1A
100
AcDbEntity
  8
SEIHIN
  6
CONTINUOUS
100
AcDbLine
 10
342.1791384030555
 20
197.9638001714777
 30
0.0
 11
336.7740384030555
 21
197.9638001714777
 31
0.0
  0
ARC
  5
66A
330
1A
100
AcDbEntity
  8
SEIHIN
  6
CONTINUOUS
100
AcDbCircle
 10
337.775367620319
 20
197.9638244496757
 30
0.0
 40
2.999975721944283
100
AcDbArc
 50
90.00055801314395
 51
176.9872029626783
  0
LINE
  5
66B
330
1A
100
AcDbEntity
  8
SEIHIN
  6
CONTINUOUS
100
AcDbLine
 10
398.1789384030555
 20
162.9636001714777
 30
0.0
 11
398.1791384030555
 21
197.9636001714777
 31
0.0
  0
LINE
  5
66C
330
1A
100
AcDbEntity
  8
SEIHIN
  6
CONTINUOUS
100
AcDbLine
 10
394.1789384030555
 20
162.9636001714777
 30
0.0
 11
394.1791384030555
 21
197.9636001714777
 31
0.0
  0
LINE
  5
66D
330
1A
100
AcDbEntity
  8
SEIHIN
  6
CONTINUOUS
100
AcDbLine
 10
368.0789384030555
 20
162.9637001714777
 30
0.0
 11
368.0791384030555
 21
197.9637001714777
 31
0.0
  0
LINE
  5
66E
330
1A
100
AcDbEntity
  8
SEIHIN
  6
CONTINUOUS
100
AcDbLine
 10
345.7789384030555
 20
162.9638001714777
 30
0.0
 11
345.7791384030555
 21
197.9639001714778
 31
0.0
  0
LINE
  5
66F
330
1A
100
AcDbEntity
  8
SEIHIN
  6
CONTINUOUS
100
AcDbLine
 10
363.8789384030555
 20
162.9638001714777
 30
0.0
 11
363.8791384030555
 21
197.9637001714777
 31
0.0
  0
LINE
  5
670
330
1A
100
AcDbEntity
  8
SEIHIN
  6
CONTINUOUS
100
AcDbLine
 10
367.2789384030555
 20
162.9637001714777
 30
0.0
 11
367.2791384030555
 21
197.9637001714777
 31
0.0
  0
LINE
  5
671
330
1A
100
AcDbEntity
  8
SEIHIN
  6
CONTINUOUS
100
AcDbLine
 10
394.1790384030555
 20
197.9635001714777
 30
0.0
 11
368.0790384030555
 21
197.9636001714777
 31
0.0
  0
LINE
  5
672
330
1A
100
AcDbEntity
  8
SEIHIN
  6
CONTINUOUS
100
AcDbLine
 10
363.8790384030555
 20
197.9637001714777
 30
0.0
 11
345.7790384030555
 21
197.9638001714777
 31
0.0
  0
LINE
  5
673
330
1A
100
AcDbEntity
  8
SEIHIN
  6
CONTINUOUS
100
AcDbLine
 10
368.0790384030555
 20
197.9636001714777
 30
0.0
 11
367.2791384030555
 21
197.9636001714777
 31
0.0
  0
LINE
  5
675
330
1A
100
AcDbEntity
  8
SEIHIN
  6
CONTINUOUS
100
AcDbLine
 10
459.2793384030555
 20
165.8055001714777
 30
0.0
 11
457.5787384030554
 21
198.1209001714777
 31
0.0
  0
LINE
  5
676
330
1A
100
AcDbEntity
  8
SEIHIN
  6
CONTINUOUS
100
AcDbLine
 10
446.5789384030555
 20
162.9634001714778
 30
0.0
 11
446.5791384030555
 21
197.9634001714778
 31
0.0
  0
LINE
  5
677
330
1A
100
AcDbEntity
  8
SEIHIN
  6
CONTINUOUS
100
AcDbLine
 10
448.1789384030555
 20
162.9633001714777
 30
0.0
 11
448.1791384030556
 21
197.9634001714778
 31
0.0
  0
LINE
  5
678
330
1A
100
AcDbEntity
  8
SEIHIN
  6
CONTINUOUS
100
AcDbLine
 10
450.1789384030556
 20
162.9633001714777
 30
0.0
 11
450.1791384030555
 21
197.9633001714777
 31
0.0
  0
LINE
  5
679
330
1A
100
AcDbEntity
  8
SEIHIN
  6
CONTINUOUS
100
AcDbLine
 10
457.4261384030555
 20
162.9632001714777
 30
0.0
 11
455.5815384030556
 21
198.0158001714777
 31
0.0
  0
LINE
  5
67A
330
1A
100
AcDbEntity
  8
SEIHIN
  6
CONTINUOUS
100
AcDbLine
 10
424.2789384030556
 20
162.9635001714778
 30
0.0
 11
424.2791384030556
 21
197.9634001714778
 31
0.0
  0
LINE
  5
67B
330
1A
100
AcDbEntity
  8
SEIHIN
  6
CONTINUOUS
100
AcDbLine
 10
425.0789384030555
 20
162.9635001714778
 30
0.0
 11
425.0791384030555
 21
197.9634001714778
 31
0.0
  0
LINE
  5
67C
330
1A
100
AcDbEntity
  8
SEIHIN
  6
CONTINUOUS
100
AcDbLine
 10
428.4789384030555
 20
162.9634001714778
 30
0.0
 11
428.4791384030555
 21
197.9634001714778
 31
0.0
  0
ARC
  5
67E
330
1A
100
AcDbEntity
  8
SEIHIN
  6
CONTINUOUS
100
AcDbCircle
 10
462.2752124439552
 20
165.9632231384873
 30
0.0
 40
3.00002296712185
100
AcDbArc
 50
183.0136531065038
 51
270.0004957785015
  0
LINE
  5
67F
330
1A
100
AcDbEntity
  8
SEIHIN
  6
CONTINUOUS
100
AcDbLine
 10
472.1789384030556
 20
162.9632001714777
 30
0.0
 11
462.2752384030555
 21
162.9632001714777
 31
0.0
  0
LINE
  5
680
330
1A
100
AcDbEntity
  8
SEIHIN
  6
CONTINUOUS
100
AcDbLine
 10
476.1789384030556
 20
160.9632001714777
 30
0.0
 11
476.1789384030556
 21
161.9631001714777
 31
0.0
  0
LINE
  5
681
330
1A
100
AcDbEntity
  8
SEIHIN
  6
CONTINUOUS
100
AcDbLine
 10
476.1789384030556
 20
161.9631001714777
 30
0.0
 11
472.1789384030556
 21
162.9632001714777
 31
0.0
  0
LINE
  5
682
330
1A
100
AcDbEntity
  8
SEIHIN
  6
CONTINUOUS
100
AcDbLine
 10
428.4791384030555
 20
197.9633001714777
 30
0.0
 11
446.5791384030555
 21
197.9633001714777
 31
0.0
  0
LINE
  5
683
330
1A
100
AcDbEntity
  8
SEIHIN
  6
CONTINUOUS
100
AcDbLine
 10
424.2791384030556
 20
197.9634001714778
 30
0.0
 11
425.0791384030555
 21
197.9634001714778
 31
0.0
  0
LINE
  5
684
330
1A
100
AcDbEntity
  8
SEIHIN
  6
CONTINUOUS
100
AcDbLine
 10
450.1792384030555
 20
197.9632001714777
 30
0.0
 11
455.5842384030555
 21
197.9632001714777
 31
0.0
  0
LINE
  5
685
330
1A
100
AcDbEntity
  8
SEIHIN
  6
CONTINUOUS
100
AcDbLine
 10
446.5791384030555
 20
197.9633001714777
 30
0.0
 11
448.1791384030556
 21
197.9633001714777
 31
0.0
  0
ARC
  5
686
330
1A
100
AcDbEntity
  8
SEIHIN
  6
CONTINUOUS
100
AcDbCircle
 10
454.5828643621559
 20
197.9631772044682
 30
0.0
 40
3.000022967121849
100
AcDbArc
 50
3.013653106503749
 51
90.00049577850157
  0
ARC
  5
689
330
1A
100
AcDbEntity
  8
SEIHIN
  6
CONTINUOUS
100
AcDbCircle
 10
396.179610934453
 20
399.751979980055
 30
0.0
 40
58.24987878281596
100
AcDbArc
 50
66.74352757904769
 51
90.00016970543311
  0
LINE
  5
68A
330
1A
100
AcDbEntity
  8
SEIHIN
  6
CONTINUOUS
100
AcDbLine
 10
396.1795384030555
 20
426.7518587626154
 30
0.0
 11
419.1795384030555
 21
426.7518587626154
 31
0.0
  0
LINE
  5
68B
330
1A
100
AcDbEntity
  8
SEIHIN
  6
CONTINUOUS
100
AcDbLine
 10
396.1795384030555
 20
422.7518587626154
 30
0.0
 11
419.1795384030555
 21
422.7518587626154
 31
0.0
  0
LINE
  5
68C
330
1A
100
AcDbEntity
  8
SEIHIN
  6
CONTINUOUS
100
AcDbLine
 10
396.1794384030555
 20
376.7518587626154
 30
0.0
 11
419.1794384030556
 21
376.7518587626154
 31
0.0
  0
LINE
  5
68D
330
1A
100
AcDbEntity
  8
SEIHIN
  6
CONTINUOUS
100
AcDbLine
 10
396.1794384030555
 20
372.7518587626154
 30
0.0
 11
419.1794384030556
 21
372.7518587626154
 31
0.0
  0
ARC
  5
68E
330
1A
100
AcDbEntity
  8
SEIHIN
  6
CONTINUOUS
100
AcDbCircle
 10
396.1792679632409
 20
399.7517875451758
 30
0.0
 40
58.24992878260302
100
AcDbArc
 50
270.0000692859917
 51
293.2567114123772
  0
ARC
  5
690
330
1A
100
AcDbEntity
  8
SEIHIN
  6
CONTINUOUS
100
AcDbCircle
 10
396.1794384258311
 20
399.7517587626154
 30
0.0
 40
79.99999997728697
100
AcDbArc
 50
0.0000716197244141
 51
359.9999283802755
  0
ARC
  5
691
330
1A
100
AcDbEntity
  8
SEIHIN
  6
CONTINUOUS
100
AcDbCircle
 10
396.1794383770535
 20
399.7518087626154
 30
0.0
 40
61.00000002602248
100
AcDbArc
 50
0.0000469637536941
 51
359.9999530362463
  0
LINE
  5
692
330
1A
100
AcDbEntity
  8
CENTER_L
 48
5.0
100
AcDbLine
 10
309.1794384493366
 20
399.752130106424
 30
0.0
 11
483.1794384030921
 21
399.7516915298321
 31
0.0
  0
LINE
  5
693
330
1A
100
AcDbEntity
  8
CENTER_L
 48
5.0
100
AcDbLine
 10
396.179611116792
 20
486.751758739731
 30
0.0
 11
396.1793573616288
 21
312.7517587853662
 31
0.0
  0
ARC
  5
694
330
1A
100
AcDbEntity
  8
SEIHIN
  6
CONTINUOUS
100
AcDbCircle
 10
396.1795300926019
 20
399.7518670730691
 30
0.0
 40
58.25007318898832
100
AcDbArc
 50
117.6145006936372
 51
152.3854993063628
  0
LINE
  5
695
330
1A
100
AcDbEntity
  8
SEIHIN
  6
CONTINUOUS
100
AcDbLine
 10
369.1795384030555
 20
426.7519587626154
 30
0.0
 11
369.1796384030556
 21
451.3665587626154
 31
0.0
  0
LINE
  5
696
330
1A
100
AcDbEntity
  8
SEIHIN
  6
CONTINUOUS
100
AcDbLine
 10
373.1795384030555
 20
426.7519587626154
 30
0.0
 11
373.1796384030555
 21
453.2688587626155
 31
0.0
  0
LINE
  5
697
330
1A
100
AcDbEntity
  8
SEIHIN
  6
CONTINUOUS
100
AcDbLine
 10
369.1793384030555
 20
372.7519587626153
 30
0.0
 11
369.1792384030556
 21
348.1373587626154
 31
0.0
  0
LINE
  5
698
330
1A
100
AcDbEntity
  8
SEIHIN
  6
CONTINUOUS
100
AcDbLine
 10
373.1793384030555
 20
372.7519587626153
 30
0.0
 11
373.1792384030555
 21
346.2350587626154
 31
0.0
  0
ARC
  5
699
330
1A
100
AcDbEntity
  8
SEIHIN
  6
CONTINUOUS
100
AcDbCircle
 10
396.1793203855869
 20
399.7517310544266
 30
0.0
 40
58.24982793223261
100
AcDbArc
 50
207.614272333598
 51
242.3854948944052
  0
ARC
  5
69A
330
1A
100
AcDbEntity
  8
SEIHIN
  6
CONTINUOUS
100
AcDbCircle
 10
396.1794741489892
 20
399.7521048894459
 30
0.0
 40
58.25024612730754
100
AcDbArc
 50
246.7433528217587
 51
269.9997681169104
  0
ARC
  5
69B
330
1A
100
AcDbEntity
  8
SEIHIN
  6
CONTINUOUS
100
AcDbCircle
 10
396.179835469073
 20
399.752747963311
 30
0.0
 40
63.25090001397423
100
AcDbArc
 50
238.1879885577896
 51
241.8119883070581
  0
LINE
  5
69C
330
1A
100
AcDbEntity
  8
SEIHIN
  6
CONTINUOUS
100
AcDbLine
 10
362.8380384030555
 20
346.0033587626154
 30
0.0
 11
363.9635384030555
 21
347.9529587626154
 31
0.0
  0
LINE
  5
69D
330
1A
100
AcDbEntity
  8
SEIHIN
  6
CONTINUOUS
100
AcDbLine
 10
366.3020384030555
 20
344.0032587626154
 30
0.0
 11
367.4277384030555
 21
345.9528587626154
 31
0.0
  0
ARC
  5
69E
330
1A
100
AcDbEntity
  8
SEIHIN
  6
CONTINUOUS
100
AcDbCircle
 10
396.1793384030555
 20
399.7528528946503
 30
0.0
 40
63.25092213203491
100
AcDbArc
 50
268.1880001253657
 51
271.8119998746342
  0
LINE
  5
69F
330
1A
100
AcDbEntity
  8
SEIHIN
  6
CONTINUOUS
100
AcDbLine
 10
394.1793384030555
 20
336.5335587626154
 30
0.0
 11
394.1793384030555
 21
338.7846587626154
 31
0.0
  0
LINE
  5
6A0
330
1A
100
AcDbEntity
  8
SEIHIN
  6
CONTINUOUS
100
AcDbLine
 10
398.1793384030556
 20
336.5335587626154
 30
0.0
 11
398.1793384030556
 21
338.7846587626154
 31
0.0
  0
LINE
  5
6A1
330
1A
100
AcDbEntity
  8
SEIHIN
  6
CONTINUOUS
100
AcDbLine
 10
369.1795384030555
 20
426.7519587626154
 30
0.0
 11
344.5649384030555
 21
426.7520587626155
 31
0.0
  0
LINE
  5
6A2
330
1A
100
AcDbEntity
  8
SEIHIN
  6
CONTINUOUS
100
AcDbLine
 10
369.1795384030555
 20
422.7519587626153
 30
0.0
 11
342.6626384030555
 21
422.7520587626155
 31
0.0
  0
LINE
  5
6A3
330
1A
100
AcDbEntity
  8
SEIHIN
  6
CONTINUOUS
100
AcDbLine
 10
369.1793384030555
 20
372.7519587626153
 30
0.0
 11
344.5648384030555
 21
372.7520587626155
 31
0.0
  0
LINE
  5
6A4
330
1A
100
AcDbEntity
  8
SEIHIN
  6
CONTINUOUS
100
AcDbLine
 10
369.1793384030555
 20
376.7519587626154
 30
0.0
 11
342.6624384030556
 21
376.7520587626155
 31
0.0
  0
ARC
  5
6A5
330
1A
100
AcDbEntity
  8
SEIHIN
  6
CONTINUOUS
100
AcDbCircle
 10
396.179317185616
 20
399.7517862312179
 30
0.0
 40
58.24987878281596
100
AcDbArc
 50
179.9998302945669
 51
203.2564724209516
  0
LINE
  5
6A6
330
1A
100
AcDbEntity
  8
SEIHIN
  6
CONTINUOUS
100
AcDbLine
 10
340.4306384030555
 20
369.8749587626154
 30
0.0
 11
342.3802384030556
 21
371.0005587626154
 31
0.0
  0
ARC
  5
6A7
330
1A
100
AcDbEntity
  8
SEIHIN
  6
CONTINUOUS
100
AcDbCircle
 10
396.1801776037507
 20
399.7508753462795
 30
0.0
 40
63.25010939199533
100
AcDbArc
 50
208.186771187132
 51
211.8107709364004
  0
LINE
  5
6A8
330
1A
100
AcDbEntity
  8
SEIHIN
  6
CONTINUOUS
100
AcDbLine
 10
342.4306384030555
 20
366.4108587626154
 30
0.0
 11
344.3801384030555
 21
367.5364587626154
 31
0.0
  0
ARC
  5
6A9
330
1A
100
AcDbEntity
  8
SEIHIN
  6
CONTINUOUS
100
AcDbCircle
 10
396.179367185616
 20
399.7518883228007
 30
0.0
 40
58.24992878260303
100
AcDbArc
 50
156.7432885876234
 51
179.9999307140081
  0
ARC
  5
6AA
330
1A
100
AcDbEntity
  8
SEIHIN
  6
CONTINUOUS
100
AcDbCircle
 10
396.1803325350905
 20
399.7519587626154
 30
0.0
 40
63.25092213203491
100
AcDbArc
 50
178.1880001253657
 51
181.8119998746342
  0
LINE
  5
6AB
330
1A
100
AcDbEntity
  8
SEIHIN
  6
CONTINUOUS
100
AcDbLine
 10
332.9610384030555
 20
397.7520587626155
 30
0.0
 11
335.2122384030556
 21
397.7520587626155
 31
0.0
  0
LINE
  5
6AC
330
1A
100
AcDbEntity
  8
SEIHIN
  6
CONTINUOUS
100
AcDbLine
 10
332.9610384030555
 20
401.7520587626155
 30
0.0
 11
335.2122384030556
 21
401.7520587626155
 31
0.0
  0
ARC
  5
6AD
330
1A
100
AcDbEntity
  8
SEIHIN
  6
CONTINUOUS
100
AcDbCircle
 10
396.1802276037507
 20
399.751461696598
 30
0.0
 40
63.25090001397385
100
AcDbArc
 50
148.1879885577894
 51
151.8119883070579
  0
LINE
  5
6AE
330
1A
100
AcDbEntity
  8
SEIHIN
  6
CONTINUOUS
100
AcDbLine
 10
340.4308384030555
 20
429.6291587626154
 30
0.0
 11
342.3804384030555
 21
428.5036587626154
 31
0.0
  0
LINE
  5
6AF
330
1A
100
AcDbEntity
  8
SEIHIN
  6
CONTINUOUS
100
AcDbLine
 10
342.4308384030555
 20
433.0932587626154
 30
0.0
 11
344.3804384030555
 21
431.9676587626155
 31
0.0
  0
LINE
  5
6B0
330
1A
100
AcDbEntity
  8
SEIHIN
  6
CONTINUOUS
100
AcDbLine
 10
373.1794384030555
 20
399.7519587626154
 30
0.0
 11
373.1793384030555
 21
376.7519587626154
 31
0.0
  0
LINE
  5
6B1
330
1A
100
AcDbEntity
  8
SEIHIN
  6
CONTINUOUS
100
AcDbLine
 10
369.1794384030555
 20
399.7519587626154
 30
0.0
 11
369.1793384030555
 21
376.7519587626154
 31
0.0
  0
LINE
  5
6B2
330
1A
100
AcDbEntity
  8
SEIHIN
  6
CONTINUOUS
100
AcDbLine
 10
396.1793384030555
 20
376.7518587626154
 30
0.0
 11
373.1793384030555
 21
376.7519587626154
 31
0.0
  0
LINE
  5
6B3
330
1A
100
AcDbEntity
  8
SEIHIN
  6
CONTINUOUS
100
AcDbLine
 10
396.1793384030555
 20
372.7518587626154
 30
0.0
 11
373.1793384030555
 21
372.7519587626153
 31
0.0
  0
LINE
  5
6B4
330
1A
100
AcDbEntity
  8
SEIHIN
  6
CONTINUOUS
100
AcDbLine
 10
396.1795384030555
 20
426.7518587626154
 30
0.0
 11
373.1795384030555
 21
426.7519587626154
 31
0.0
  0
LINE
  5
6B5
330
1A
100
AcDbEntity
  8
SEIHIN
  6
CONTINUOUS
100
AcDbLine
 10
396.1795384030555
 20
422.7518587626154
 30
0.0
 11
373.1795384030555
 21
422.7519587626153
 31
0.0
  0
LINE
  5
6B6
330
1A
100
AcDbEntity
  8
SEIHIN
  6
CONTINUOUS
100
AcDbLine
 10
373.1794384030555
 20
399.7519587626154
 30
0.0
 11
373.1795384030555
 21
422.7519587626153
 31
0.0
  0
LINE
  5
6B7
330
1A
100
AcDbEntity
  8
SEIHIN
  6
CONTINUOUS
100
AcDbLine
 10
369.1794384030555
 20
399.7519587626154
 30
0.0
 11
369.1795384030555
 21
422.7519587626153
 31
0.0
  0
ARC
  5
6B8
330
1A
100
AcDbEntity
  8
SEIHIN
  6
CONTINUOUS
100
AcDbCircle
 10
396.1792658716581
 20
399.751979980055
 30
0.0
 40
58.24987878281596
100
AcDbArc
 50
89.99983029456689
 51
113.2564724209523
  0
ARC
  5
6B9
330
1A
100
AcDbEntity
  8
SEIHIN
  6
CONTINUOUS
100
AcDbCircle
 10
396.179935469073
 20
399.7511695619203
 30
0.0
 40
63.25090001397384
100
AcDbArc
 50
118.188011692942
 51
121.8120114422105
  0
LINE
  5
6BA
330
1A
100
AcDbEntity
  8
SEIHIN
  6
CONTINUOUS
100
AcDbLine
 10
366.3024384030555
 20
455.5007587626154
 30
0.0
 11
367.4280384030555
 21
453.5511587626154
 31
0.0
  0
LINE
  5
6BB
330
1A
100
AcDbEntity
  8
SEIHIN
  6
CONTINUOUS
100
AcDbLine
 10
362.8383384030555
 20
453.5007587626155
 30
0.0
 11
363.9639384030555
 21
451.5511587626154
 31
0.0
  0
ARC
  5
6BC
330
1A
100
AcDbEntity
  8
SEIHIN
  6
CONTINUOUS
100
AcDbCircle
 10
396.1794384030555
 20
399.7509646305805
 30
0.0
 40
63.25092213203491
100
AcDbArc
 50
88.18800012536575
 51
91.81199987463426
  0
LINE
  5
6BD
330
1A
100
AcDbEntity
  8
SEIHIN
  6
CONTINUOUS
100
AcDbLine
 10
394.1796384030556
 20
462.9702587626153
 30
0.0
 11
394.1796384030556
 21
460.7190587626154
 31
0.0
  0
LINE
  5
6BE
330
1A
100
AcDbEntity
  8
SEIHIN
  6
CONTINUOUS
100
AcDbLine
 10
398.1796384030556
 20
462.9702587626153
 30
0.0
 11
398.1796384030556
 21
460.7190587626154
 31
0.0
  0
ARC
  5
6BF
330
1A
100
AcDbEntity
  8
SEIHIN
  6
CONTINUOUS
100
AcDbCircle
 10
396.1795064205242
 20
399.7519267800841
 30
0.0
 40
58.24994625608734
100
AcDbArc
 50
27.6143887195964
 51
62.38561128040358
  0
LINE
  5
6C0
330
1A
100
AcDbEntity
  8
SEIHIN
  6
CONTINUOUS
100
AcDbLine
 10
423.1795384030555
 20
426.7518587626154
 30
0.0
 11
423.1795384030555
 21
451.3663587626154
 31
0.0
  0
LINE
  5
6C1
330
1A
100
AcDbEntity
  8
SEIHIN
  6
CONTINUOUS
100
AcDbLine
 10
419.1795384030555
 20
426.7518587626154
 30
0.0
 11
419.1795384030555
 21
453.2687587626154
 31
0.0
  0
LINE
  5
6C2
330
1A
100
AcDbEntity
  8
SEIHIN
  6
CONTINUOUS
100
AcDbLine
 10
423.1794384030555
 20
372.7518587626154
 30
0.0
 11
423.1793384030556
 21
348.1372587626154
 31
0.0
  0
LINE
  5
6C3
330
1A
100
AcDbEntity
  8
SEIHIN
  6
CONTINUOUS
100
AcDbLine
 10
419.1794384030556
 20
372.7518587626154
 30
0.0
 11
419.1793384030556
 21
346.2349587626154
 31
0.0
  0
ARC
  5
6C4
330
1A
100
AcDbEntity
  8
SEIHIN
  6
CONTINUOUS
100
AcDbCircle
 10
396.1795661112444
 20
399.7517407451468
 30
0.0
 40
58.24982793223262
100
AcDbArc
 50
297.614272333598
 51
332.3854948944051
  0
ARC
  5
6C5
330
1A
100
AcDbEntity
  8
SEIHIN
  6
CONTINUOUS
100
AcDbCircle
 10
396.178841337038
 20
399.752647963311
 30
0.0
 40
63.25090001397423
100
AcDbArc
 50
298.1880116929418
 51
301.8120114422103
  0
LINE
  5
6C6
330
1A
100
AcDbEntity
  8
SEIHIN
  6
CONTINUOUS
100
AcDbLine
 10
426.0565384030556
 20
344.0031587626154
 30
0.0
 11
424.9309384030556
 21
345.9526587626153
 31
0.0
  0
LINE
  5
6C7
330
1A
100
AcDbEntity
  8
SEIHIN
  6
CONTINUOUS
100
AcDbLine
 10
429.5206384030556
 20
346.0030587626154
 30
0.0
 11
428.3950384030555
 21
347.9526587626153
 31
0.0
  0
ARC
  5
6C8
330
1A
100
AcDbEntity
  8
SEIHIN
  6
CONTINUOUS
100
AcDbCircle
 10
396.1795096204951
 20
399.7518292024299
 30
0.0
 40
58.24992878260301
100
AcDbArc
 50
336.7432885876235
 51
359.9999307140082
  0
LINE
  5
6C9
330
1A
100
AcDbEntity
  8
SEIHIN
  6
CONTINUOUS
100
AcDbLine
 10
419.1794384030556
 20
399.7518587626154
 30
0.0
 11
419.1794384030556
 21
376.7518587626154
 31
0.0
  0
LINE
  5
6CA
330
1A
100
AcDbEntity
  8
SEIHIN
  6
CONTINUOUS
100
AcDbLine
 10
423.1794384030555
 20
399.7518587626154
 30
0.0
 11
423.1794384030555
 21
376.7518587626154
 31
0.0
  0
LINE
  5
6CB
330
1A
100
AcDbEntity
  8
SEIHIN
  6
CONTINUOUS
100
AcDbLine
 10
423.1794384030555
 20
372.7518587626154
 30
0.0
 11
447.7939384030555
 21
372.7518587626154
 31
0.0
  0
LINE
  5
6CC
330
1A
100
AcDbEntity
  8
SEIHIN
  6
CONTINUOUS
100
AcDbLine
 10
423.1794384030555
 20
376.7518587626154
 30
0.0
 11
449.6963384030555
 21
376.7518587626154
 31
0.0
  0
LINE
  5
6CD
330
1A
100
AcDbEntity
  8
SEIHIN
  6
CONTINUOUS
100
AcDbLine
 10
451.9281384030556
 20
369.8746587626155
 30
0.0
 11
449.9785384030555
 21
371.0002587626155
 31
0.0
  0
ARC
  5
6CE
330
1A
100
AcDbEntity
  8
SEIHIN
  6
CONTINUOUS
100
AcDbCircle
 10
396.1786492023595
 20
399.7522558286329
 30
0.0
 40
63.25090001397462
100
AcDbArc
 50
328.1879885577898
 51
331.8119883070583
  0
LINE
  5
6CF
330
1A
100
AcDbEntity
  8
SEIHIN
  6
CONTINUOUS
100
AcDbLine
 10
449.9281384030555
 20
366.4105587626155
 30
0.0
 11
447.9785384030555
 21
367.5361587626154
 31
0.0
  0
LINE
  5
6D0
330
1A
100
AcDbEntity
  8
SEIHIN
  6
CONTINUOUS
100
AcDbLine
 10
423.1795384030555
 20
426.7518587626154
 30
0.0
 11
447.7940384030556
 21
426.7518587626154
 31
0.0
  0
LINE
  5
6D1
330
1A
100
AcDbEntity
  8
SEIHIN
  6
CONTINUOUS
100
AcDbLine
 10
423.1795384030555
 20
422.7518587626154
 30
0.0
 11
449.6964384030555
 21
422.7518587626154
 31
0.0
  0
LINE
  5
6D2
330
1A
100
AcDbEntity
  8
SEIHIN
  6
CONTINUOUS
100
AcDbLine
 10
423.1794384030555
 20
399.7518587626154
 30
0.0
 11
423.1795384030555
 21
422.7518587626154
 31
0.0
  0
LINE
  5
6D3
330
1A
100
AcDbEntity
  8
SEIHIN
  6
CONTINUOUS
100
AcDbLine
 10
419.1794384030556
 20
399.7518587626154
 30
0.0
 11
419.1795384030555
 21
422.7518587626154
 31
0.0
  0
ARC
  5
6D4
330
1A
100
AcDbEntity
  8
SEIHIN
  6
CONTINUOUS
100
AcDbCircle
 10
396.1795096204951
 20
399.7517883228009
 30
0.0
 40
58.24992878260302
100
AcDbArc
 50
0.0000692859917494
 51
23.25671141237649
  0
ARC
  5
6D5
330
1A
100
AcDbEntity
  8
SEIHIN
  6
CONTINUOUS
100
AcDbCircle
 10
396.1785442710206
 20
399.7517587626154
 30
0.0
 40
63.25092213203491
100
AcDbArc
 50
358.1880001253657
 51
1.811999874634233
  0
LINE
  5
6D6
330
1A
100
AcDbEntity
  8
SEIHIN
  6
CONTINUOUS
100
AcDbLine
 10
459.3978384030555
 20
401.7517587626154
 30
0.0
 11
457.1466384030555
 21
401.7517587626154
 31
0.0
  0
LINE
  5
6D7
330
1A
100
AcDbEntity
  8
SEIHIN
  6
CONTINUOUS
100
AcDbLine
 10
459.3978384030555
 20
397.7517587626154
 30
0.0
 11
457.1466384030555
 21
397.7517587626154
 31
0.0
  0
ARC
  5
6D8
330
1A
100
AcDbEntity
  8
SEIHIN
  6
CONTINUOUS
100
AcDbCircle
 10
396.1786492023604
 20
399.751461696598
 30
0.0
 40
63.25090001397384
100
AcDbArc
 50
28.18801169294209
 51
31.81201144221055
  0
LINE
  5
6D9
330
1A
100
AcDbEntity
  8
SEIHIN
  6
CONTINUOUS
100
AcDbLine
 10
451.9281384030556
 20
429.6289587626154
 30
0.0
 11
449.9786384030555
 21
428.5033587626154
 31
0.0
  0
LINE
  5
6DA
330
1A
100
AcDbEntity
  8
SEIHIN
  6
CONTINUOUS
100
AcDbLine
 10
449.9281384030555
 20
433.0930587626155
 30
0.0
 11
447.9786384030555
 21
431.9674587626153
 31
0.0
  0
ARC
  5
6DB
330
1A
100
AcDbEntity
  8
SEIHIN
  6
CONTINUOUS
100
AcDbCircle
 10
396.1789913370381
 20
399.7527500442727
 30
0.0
 40
63.24953059644133
100
AcDbArc
 50
58.18727234453859
 51
61.81127209380706
  0
LINE
  5
6DC
330
1A
100
AcDbEntity
  8
SEIHIN
  6
CONTINUOUS
100
AcDbLine
 10
426.0567384030555
 20
455.5005587626154
 30
0.0
 11
424.9311384030556
 21
453.5509587626155
 31
0.0
  0
LINE
  5
6DD
330
1A
100
AcDbEntity
  8
SEIHIN
  6
CONTINUOUS
100
AcDbLine
 10
429.5208384030556
 20
453.5005587626153
 30
0.0
 11
428.3952384030555
 21
451.5509587626154
 31
0.0
  0
LINE
  5
6F0
330
1A
100
AcDbEntity
  8
SEIHIN
  6
CONTINUOUS
100
AcDbLine
 10
461.5136344545274
 20
125.9632001715
 30
0.0
 11
330.8441344545272
 21
125.9639001714999
 31
0.0
  0
LINE
  5
6F1
330
1A
100
AcDbEntity
  8
SEIHIN
  6
CONTINUOUS
100
AcDbLine
 10
463.6787344545274
 20
126.9632001715
 30
0.0
 11
328.7077344545274
 21
126.9639001714999
 31
0.0
  0
LINE
  5
6F2
330
1A
100
AcDbEntity
  8
SEIHIN
  6
CONTINUOUS
100
AcDbLine
 10
463.6787344545274
 20
158.9632001715
 30
0.0
 11
328.6789344545273
 21
158.9639001714999
 31
0.0
  0
LINE
  5
703
330
1A
100
AcDbEntity
  8
SEIHIN
  6
CONTINUOUS
100
AcDbLine
 10
330.8441344545272
 20
126.9631001715
 30
0.0
 11
330.8441344545272
 21
125.9631001715
 31
0.0
  0
LINE
  5
731
330
1A
100
AcDbEntity
  8
SEIHIN
  6
CONTINUOUS
100
AcDbLine
 10
461.5136344545274
 20
126.9631001715
 30
0.0
 11
461.5136344545274
 21
125.9632001715
 31
0.0
  0
LINE
  5
73D
330
1A
100
AcDbEntity
  8
SEIHIN
  6
CONTINUOUS
100
AcDbLine
 10
463.6787344545274
 20
158.9632001715
 30
0.0
 11
463.6787344545274
 21
126.9632001715
 31
0.0
  0
LINE
  5
748
330
1A
100
AcDbEntity
  8
SEIHIN
  6
CONTINUOUS
 62
     4
100
AcDbLine
 10
461.5136344545275
 20
158.9632113979611
 30
0.0
 11
461.5136344545265
 21
126.9632114003566
 31
0.0
  0
LINE
  5
74E
330
1A
100
AcDbEntity
  8
SEIHIN
  6
CONTINUOUS
100
AcDbLine
 10
461.5136344545274
 20
158.9631001715
 30
0.0
 11
461.5136344545274
 21
160.9631001715
 31
0.0
  0
LINE
  5
74F
330
1A
100
AcDbEntity
  8
SEIHIN
  6
CONTINUOUS
100
AcDbLine
 10
330.8441344545272
 20
158.9632001715
 30
0.0
 11
330.8441344545272
 21
160.9632001715
 31
0.0
  0
LINE
  5
750
330
1A
100
AcDbEntity
  8
SEIHIN
  6
CONTINUOUS
100
AcDbLine
 10
328.6791156591615
 20
158.9634599468459
 30
0.0
 11
328.6789925060572
 21
126.9634599470828
 31
0.0
  0
LINE
  5
751
330
1A
100
AcDbEntity
  8
SEIHIN
  6
CONTINUOUS
 62
     4
100
AcDbLine
 10
330.8442156591886
 20
158.9634628408449
 30
0.0
 11
330.8440925060851
 21
126.9634628434773
 31
0.0
  0
CIRCLE
  5
753
330
1A
100
AcDbEntity
  8
SEIHIN
  6
CONTINUOUS
100
AcDbCircle
 10
396.1794842394322
 20
399.7519108180126
 30
0.0
 40
75.99945416386481
  0
CIRCLE
  5
8E6
330
1A
100
AcDbEntity
  8
SEIHIN
  6
CONTINUOUS
100
AcDbCircle
 10
142.8581237432069
 20
399.7519108180126
 30
0.0
 40
73.62076479727277
  0
CIRCLE
  5
8E7
330
1A
100
AcDbEntity
  8
SEIHIN
  6
CONTINUOUS
100
AcDbCircle
 10
142.8581237432069
 20
399.7519108180126
 30
0.0
 40
67.49896479725319
  0
CIRCLE
  5
8E8
330
1A
100
AcDbEntity
  8
SEIHIN
  6
CONTINUOUS
100
AcDbCircle
 10
142.8581237432069
 20
399.7519108180126
 30
0.0
 40
67.49896479725319
  0
CIRCLE
  5
8E9
330
1A
100
AcDbEntity
  8
SEIHIN
  6
CONTINUOUS
100
AcDbCircle
 10
142.8581237432069
 20
399.7519108180126
 30
0.0
 40
99.99995416394106
  0
ARC
  5
8EA
330
1A
100
AcDbEntity
  8
SEIHIN
  6
CONTINUOUS
100
AcDbCircle
 10
142.8581237432069
 20
399.7519108180126
 30
0.0
 40
65.33396479724635
100
AcDbArc
 50
93.6131322032069
 51
146.3905121012554
  0
LINE
  5
8EF
330
1A
100
AcDbEntity
  8
SEIHIN
  6
CONTINUOUS
100
AcDbLine
 10
138.6043885402457
 20
467.1167086394557
 30
0.0
 11
138.7408252506768
 21
464.9560119869669
 31
0.0
  0
LINE
  5
8F0
330
1A
100
AcDbEntity
  8
SEIHIN
  6
CONTINUOUS
100
AcDbLine
 10
86.6429885402456
 20
437.1145769810904
 30
0.0
 11
88.44606460341728
 21
435.9161856800343
 31
0.0
  0
LINE
  5
8F1
330
1A
100
AcDbEntity
  8
SEIHIN
  6
CONTINUOUS
100
AcDbLine
 10
86.64536511051517
 20
362.3856691605544
 30
0.0
 11
88.44836494622695
 21
363.5841751440409
 31
0.0
  0
LINE
  5
8F2
330
1A
100
AcDbEntity
  8
SEIHIN
  6
CONTINUOUS
100
AcDbLine
 10
138.608673294345
 20
332.3868425735323
 30
0.0
 11
138.744972573148
 21
334.5475478997226
 31
0.0
  0
LINE
  5
8F3
330
1A
100
AcDbEntity
  8
SEIHIN
  6
CONTINUOUS
100
AcDbLine
 10
203.32461757886
 20
369.7533546540276
 30
0.0
 11
201.3851810327171
 21
370.7155453230299
 31
0.0
  0
LINE
  5
8F4
330
1A
100
AcDbEntity
  8
SEIHIN
  6
CONTINUOUS
100
AcDbLine
 10
203.3227093950303
 20
429.7543128994151
 30
0.0
 11
201.3833340530556
 21
428.7919988742808
 31
0.0
  0
ARC
  5
8F5
330
1A
100
AcDbEntity
  8
SEIHIN
  6
CONTINUOUS
100
AcDbCircle
 10
142.8581237432069
 20
399.7519108180126
 30
0.0
 40
65.33396479724635
100
AcDbArc
 50
213.6131322032068
 51
266.3905121012554
  0
ARC
  5
8F6
330
1A
100
AcDbEntity
  8
SEIHIN
  6
CONTINUOUS
100
AcDbCircle
 10
142.8581237432069
 20
399.7519108180126
 30
0.0
 40
65.33396479724635
100
AcDbArc
 50
333.6131322032172
 51
26.39051210124495
  0
CIRCLE
  5
8F8
330
1A
100
AcDbEntity
  8
SEIHIN
  6
CONTINUOUS
100
AcDbCircle
 10
142.8581237432069
 20
399.7519108180126
 30
0.0
 40
59.89936479722905
  0
LINE
  5
8FB
330
1A
100
AcDbEntity
  8
SEIHIN
  6
CONTINUOUS
100
AcDbLine
 10
215.3075779068303
 20
208.9631001714777
 30
0.0
 11
70.40757790683034
 21
208.9637001714777
 31
0.0
  0
LINE
  5
8FD
330
1A
100
AcDbEntity
  8
SEIHIN
  6
CONTINUOUS
100
AcDbLine
 10
215.0071779068303
 20
126.9631001714777
 30
0.0
 11
70.70717790683033
 21
126.9637001714777
 31
0.0
  0
DIMENSION
  5
911
330
1A
100
AcDbEntity
  8
SUNPOU
  6
CONTINUOUS
100
AcDbDimension
  2
*D1
 10
57.85757790683035
 20
235.3684569879428
 30
0.0
 11
142.8575779068303
 21
240.3684569879428
 31
0.0
 70
    32
  1
φ<>
  3
STANDARD
100
AcDbAlignedDimension
 13
227.8575779068304
 23
213.9631001714777
 33
0.0
 14
57.85757790683035
 24
213.9637001714778
 34
0.0
100
AcDbRotatedDimension
1001
ACAD
1000
DSTYLE
1002
{
1070
   140
1040
6.0
1070
    74
1070
     0
1070
   172
1070
     1
1070
    73
1070
     0
1070
   272
1070
     2
1070
    77
1070
     3
1070
   173
1070
     1
1070
   147
1040
2.0
1070
    42
1040
6.0
1070
    44
1040
3.0
1070
    43
1040
14.0
1070
   271
1070
     0
1070
   178
1070
     4
1070
   177
1070
     4
1070
   176
1070
     4
1070
   141
1040
150.0
1070
     7
1000
_OPEN
1070
     6
1000
_OPEN
1070
    41
1040
7.0
1002
}
  0
DIMENSION
  5
91E
330
1A
100
AcDbEntity
  8
SUNPOU
  6
CONTINUOUS
100
AcDbDimension
  2
*D2
 10
70.70717790683033
 20
96.14419220129457
 30
0.0
 11
142.8571779068303
 21
101.1441922012945
 31
0.0
 70
    32
  1
φ<>
  3
STANDARD
100
AcDbAlignedDimension
 13
215.0071779068303
 23
126.9631001714777
 33
0.0
 14
70.70717790683033
 24
126.9637001714777
 34
0.0
100
AcDbRotatedDimension
1001
ACAD
1000
DSTYLE
1002
{
1070
   140
1040
6.0
1070
    74
1070
     0
1070
   172
1070
     1
1070
    73
1070
     0
1070
   272
1070
     2
1070
    77
1070
     3
1070
   173
1070
     1
1070
   147
1040
2.0
1070
    42
1040
6.0
1070
    44
1040
3.0
1070
    43
1040
14.0
1070
   271
1070
     0
1070
   178
1070
     4
1070
   177
1070
     4
1070
   176
1070
     4
1070
   141
1040
150.0
1070
     7
1000
_OPEN
1070
     6
1000
_OPEN
1070
    41
1040
7.0
1002
}
  0
DIMENSION
  5
987
330
1A
100
AcDbEntity
  8
SUNPOU
  6
CONTINUOUS
100
AcDbDimension
  2
*D3
 10
247.9146346395091
 20
126.9631001714777
 30
0.0
 11
242.9146346395091
 21
168.9631001714777
 31
0.0
 70
    32
  3
STANDARD
100
AcDbAlignedDimension
 13
223.8575779068304
 23
210.9631001714777
 33
0.0
 14
215.0071779068303
 24
126.9631001714777
 34
0.0
 50
90.0
100
AcDbRotatedDimension
1001
ACAD
1000
DSTYLE
1002
{
1070
   140
1040
6.0
1070
    74
1070
     0
1070
   172
1070
     1
1070
    73
1070
     0
1070
   272
1070
     2
1070
    77
1070
     3
1070
   173
1070
     1
1070
   147
1040
2.0
1070
    42
1040
6.0
1070
    44
1040
3.0
1070
    43
1040
14.0
1070
   271
1070
     0
1070
   178
1070
     4
1070
   177
1070
     4
1070
   176
1070
     4
1070
   141
1040
150.0
1070
     7
1000
_OPEN
1070
     6
1000
_OPEN
1070
    41
1040
7.0
1002
}
  0
DIMENSION
  5
994
330
1A
100
AcDbEntity
  8
SUNPOU
  6
CONTINUOUS
100
AcDbDimension
  2
*D4
 10
266.0613821815263
 20
126.9631001714777
 30
0.0
 11
261.0613821815263
 21
170.4631001714777
 31
0.0
 70
    32
  3
STANDARD
100
AcDbAlignedDimension
 13
227.8575779068304
 23
213.9631001714777
 33
0.0
 14
215.0071779068303
 24
126.9631001714777
 34
0.0
 50
90.0
100
AcDbRotatedDimension
1001
ACAD
1000
DSTYLE
1002
{
1070
   140
1040
6.0
1070
    74
1070
     0
1070
   172
1070
     1
1070
    73
1070
     0
1070
   272
1070
     2
1070
    77
1070
     3
1070
   173
1070
     1
1070
   147
1040
2.0
1070
    42
1040
6.0
1070
    44
1040
3.0
1070
    43
1040
14.0
1070
   271
1070
     0
1070
   178
1070
     4
1070
   177
1070
     4
1070
   176
1070
     4
1070
   141
1040
150.0
1070
     7
1000
_OPEN
1070
     6
1000
_OPEN
1070
    41
1040
7.0
1002
}
  0
DIMENSION
  5
9A1
330
1A
100
AcDbEntity
  8
SUNPOU
  6
CONTINUOUS
100
AcDbDimension
  2
*D5
 10
334.9291505746025
 20
233.6466736917611
 30
0.0
 11
396.1791567635308
 21
238.6466736917611
 31
0.0
 12
0.0
 22
-15.0
 32
0.0
 70
    32
  1
φ<>
  3
STANDARD
100
AcDbAlignedDimension
 13
457.4291629524592
 23
200.9631855508738
 33
0.0
 14
334.9291505746025
 24
200.9638147913543
 34
0.0
100
AcDbRotatedDimension
1001
ACAD
1000
DSTYLE
1002
{
1070
   140
1040
6.0
1070
    74
1070
     0
1070
   172
1070
     1
1070
    73
1070
     0
1070
   272
1070
     2
1070
    77
1070
     3
1070
   173
1070
     1
1070
   147
1040
2.0
1070
    42
1040
6.0
1070
    44
1040
3.0
1070
    43
1040
14.0
1070
   271
1070
     0
1070
   178
1070
     4
1070
   177
1070
     4
1070
   176
1070
     4
1070
   141
1040
150.0
1070
     7
1000
_OPEN
1070
     6
1000
_OPEN
1070
    41
1040
7.0
1002
}
  0
DIMENSION
  5
9B0
330
1A
100
AcDbEntity
  8
SUNPOU
  6
CONTINUOUS
100
AcDbDimension
  2
*D6
 10
492.1528773260315
 20
160.9631001714777
 30
0.0
 11
487.1528773260315
 21
180.9632001714777
 31
0.0
 12
0.0
 22
-15.0
 32
0.0
 70
    32
  3
STANDARD
100
AcDbAlignedDimension
 13
472.1789384030556
 23
162.9632001714777
 33
0.0
 14
476.1789384030556
 24
160.9631001714777
 34
0.0
 50
90.0
100
AcDbRotatedDimension
1001
ACAD
1000
DSTYLE
1002
{
1070
   140
1040
6.0
1070
    74
1070
     0
1070
   172
1070
     1
1070
    73
1070
     0
1070
   272
1070
     2
1070
    77
1070
     3
1070
   173
1070
     1
1070
   280
1070
     1
1070
   147
1040
2.0
1070
    42
1040
6.0
1070
    44
1040
3.0
1070
    43
1040
14.0
1070
   271
1070
     0
1070
   178
1070
     4
1070
   177
1070
     4
1070
   176
1070
     4
1070
   141
1040
150.0
1070
     7
1000
_OPEN
1070
     6
1000
_OPEN
1070
    41
1040
7.0
1002
}
  0
DIMENSION
  5
9BD
330
1A
100
AcDbEntity
  8
SUNPOU
  6
CONTINUOUS
100
AcDbDimension
  2
*D7
 10
511.1889354703021
 20
125.9632001715
 30
0.0
 11
506.1889354703021
 21
143.4631501714889
 31
0.0
 12
0.0
 22
-15.0
 32
0.0
 70
    32
  3
STANDARD
100
AcDbAlignedDimension
 13
476.1789384030556
 23
160.9631001714777
 33
0.0
 14
461.5136344545274
 24
125.9632001715
 34
0.0
 50
90.0
100
AcDbRotatedDimension
1001
ACAD
1000
DSTYLE
1002
{
1070
   140
1040
6.0
1070
    74
1070
     0
1070
   172
1070
     1
1070
    73
1070
     0
1070
   272
1070
     2
1070
    77
1070
     3
1070
   173
1070
     1
1070
   147
1040
2.0
1070
    42
1040
6.0
1070
    44
1040
3.0
1070
    43
1040
14.0
1070
   271
1070
     0
1070
   178
1070
     4
1070
   177
1070
     4
1070
   176
1070
     4
1070
   141
1040
150.0
1070
     7
1000
_OPEN
1070
     6
1000
_OPEN
1070
    41
1040
7.0
1002
}
  0
DIMENSION
  5
9CA
330
1A
100
AcDbEntity
  8
SUNPOU
  6
CONTINUOUS
100
AcDbDimension
  2
*D8
 10
531.1476359996409
 20
125.9632001715
 30
0.0
 11
526.1476359996408
 21
163.4632001714888
 31
0.0
 12
0.0
 22
-15.0
 32
0.0
 70
    32
  3
STANDARD
100
AcDbAlignedDimension
 13
454.5828384030555
 23
200.9632001714777
 33
0.0
 14
461.5136344545274
 24
125.9632001715
 34
0.0
 50
90.0
100
AcDbRotatedDimension
1001
ACAD
1000
DSTYLE
1002
{
1070
   140
1040
6.0
1070
    74
1070
     0
1070
   172
1070
     1
1070
    73
1070
     0
1070
   272
1070
     2
1070
    77
1070
     3
1070
   173
1070
     1
1070
   147
1040
2.0
1070
    42
1040
6.0
1070
    44
1040
3.0
1070
    43
1040
14.0
1070
   271
1070
     0
1070
   178
1070
     4
1070
   177
1070
     4
1070
   176
1070
     4
1070
   141
1040
150.0
1070
     7
1000
_OPEN
1070
     6
1000
_OPEN
1070
    41
1040
7.0
1002
}
  0
DIMENSION
  5
9F1
330
1A
100
AcDbEntity
  8
SUNPOU
  6
CONTINUOUS
100
AcDbDimension
  2
*D9
 10
328.6789925060572
 20
97.32804998021538
 30
0.0
 11
396.1788634802923
 21
102.3280499802153
 31
0.0
 12
0.0
 22
-15.0
 32
0.0
 70
    32
  1
φ<>
  3
STANDARD
100
AcDbAlignedDimension
 13
463.6787344545274
 23
126.9632001715
 33
0.0
 14
328.6789925060572
 24
126.9634599470828
 34
0.0
100
AcDbRotatedDimension
1001
ACAD
1000
DSTYLE
1002
{
1070
   140
1040
6.0
1070
    74
1070
     0
1070
   172
1070
     1
1070
    73
1070
     0
1070
   272
1070
     2
1070
    77
1070
     3
1070
   173
1070
     1
1070
   147
1040
2.0
1070
    42
1040
6.0
1070
    44
1040
3.0
1070
    43
1040
14.0
1070
   271
1070
     0
1070
   178
1070
     4
1070
   177
1070
     4
1070
   176
1070
     4
1070
   141
1040
150.0
1070
     7
1000
_OPEN
1070
     6
1000
_OPEN
1070
    41
1040
7.0
1002
}
  0
DIMENSION
  5
9FE
330
1A
100
AcDbEntity
  8
SUNPOU
  6
CONTINUOUS
100
AcDbDimension
  2
*D10
 10
316.1789384030555
 20
255.9586258885044
 30
0.0
 11
396.1789384030555
 21
260.9586258885044
 31
0.0
 12
0.0
 22
-15.0
 32
0.0
 70
    32
  1
φ<>
  3
STANDARD
100
AcDbAlignedDimension
 13
476.1789384030556
 23
161.9631001714777
 33
0.0
 14
316.1789384030555
 24
161.9639001714778
 34
0.0
100
AcDbRotatedDimension
1001
ACAD
1000
DSTYLE
1002
{
1070
   140
1040
6.0
1070
    74
1070
     0
1070
   172
1070
     1
1070
    73
1070
     0
1070
   272
1070
     2
1070
    77
1070
     3
1070
   173
1070
     1
1070
   147
1040
2.0
1070
    42
1040
6.0
1070
    44
1040
3.0
1070
    43
1040
14.0
1070
   271
1070
     0
1070
   178
1070
     4
1070
   177
1070
     4
1070
   176
1070
     4
1070
   141
1040
150.0
1070
     7
1000
_OPEN
1070
     6
1000
_OPEN
1070
    41
1040
7.0
1002
}
  0
DIMENSION
  5
A7F
330
1A
100
AcDbEntity
  8
SUNPOU
  6
CONTINUOUS
100
AcDbDimension
  2
*D11
 10
593.7156181226221
 20
321.2402784146356
 30
0.0
 11
661.7156176702455
 21
326.2402784146356
 31
0.0
 70
    32
  1
穴径 φ<>
  3
STANDARD
100
AcDbAlignedDimension
 13
729.7156172178691
 23
378.5810146394103
 33
0.0
 14
593.7156181226221
 24
378.9925138050404
 34
0.0
100
AcDbRotatedDimension
1001
ACAD
1000
DSTYLE
1002
{
1070
   140
1040
6.0
1070
    74
1070
     0
1070
   172
1070
     1
1070
    73
1070
     0
1070
   272
1070
     2
1070
    77
1070
     3
1070
   173
1070
     1
1070
   147
1040
2.0
1070
    42
1040
6.0
1070
    44
1040
3.0
1070
    43
1040
14.0
1070
   271
1070
     0
1070
   178
1070
     4
1070
   177
1070
     4
1070
   176
1070
     4
1070
   141
1040
150.0
1070
     7
1000
_OPEN
1070
     6
1000
_OPEN
1070
    41
1040
7.0
1002
}
  0
LINE
  5
AC7
330
1A
100
AcDbEntity
  8
NOKITOI
  6
CONTINUOUS
 62
     6
100
AcDbLine
 10
593.7156358660453
 20
384.2371898434786
 30
0.0
 11
566.7156358660451
 21
384.2373417184786
 31
0.0
  0
LINE
  5
AC8
330
1A
100
AcDbEntity
  8
NOKITOI
  6
CONTINUOUS
 62
     6
100
AcDbLine
 10
593.7156358660452
 20
381.7371898434391
 30
0.0
 11
566.7156358660451
 21
381.737341718439
 31
0.0
  0
LINE
  5
AC9
330
1A
100
AcDbEntity
  8
NOKITOI
  6
CONTINUOUS
 62
     6
100
AcDbLine
 10
593.7156358660452
 20
384.2371898434786
 30
0.0
 11
593.7156358660452
 21
381.7371898434391
 31
0.0
  0
LINE
  5
ACB
330
1A
100
AcDbEntity
  8
NOKITOI
  6
CONTINUOUS
 62
     6
100
AcDbLine
 10
729.7156234499351
 20
384.2368907149377
 30
0.0
 11
756.7156234503421
 21
384.2369238183001
 31
0.0
  0
LINE
  5
ACC
330
1A
100
AcDbEntity
  8
NOKITOI
  6
CONTINUOUS
 62
     6
100
AcDbLine
 10
729.7156124525614
 20
381.7368907149223
 30
0.0
 11
756.7156124529683
 21
381.7369238182848
 31
0.0
  0
LINE
  5
ACD
330
1A
100
AcDbEntity
  8
NOKITOI
  6
CONTINUOUS
 62
     6
100
AcDbLine
 10
729.7156234499352
 20
384.2368907149377
 30
0.0
 11
729.7156124525614
 21
381.7368907149223
 31
0.0
  0
VIEWPORT
  5
22
330
17
100
AcDbEntity
 67
     1
  8
0
100
AcDbViewport
 10
313.6808219178082
 20
148.5
 30
0.0
 40
627.3616438356165
 41
297.0
 68
     2
 69
     1
1001
ACAD
1000
MVIEW
1002
{
1070
    16
1010
0.0
1020
0.0
1030
0.0
1010
0.0
1020
0.0
1030
1.0
1040
0.0
1040
297.0
1040
313.6808219178082
1040
148.5
1040
50.0
1040
0.0
1040
0.0
1070
     0
1070
   100
1070
     1
1070
     0
1070
     0
1070
     0
1070
     0
1070
     0
1040
0.0
1040
0.0
1040
0.0
1040
1.0
1040
1.0
1040
10.0
1040
10.0
1070
     0
1002
{
1002
}
1002
}
  0
VIEWPORT
  5
64
330
17
100
AcDbEntity
 67
     1
  8
VIEWPORT
100
AcDbViewport
 10
210.0
 20
148.5
 30
0.0
 40
420.0
 41
297.0
 68
     1
 69
     2
1001
ACAD
1000
MVIEW
1002
{
1070
    16
1010
0.0
1020
0.0
1030
0.0
1010
0.0
1020
0.0
1030
1.0
1040
0.0
1040
605.8799999999998
1040
420.0
1040
297.0
1040
50.0
1040
0.0
1040
0.0
1070
     0
1070
   100
1070
     1
1070
     0
1070
     0
1070
     0
1070
     0
1070
     0
1040
0.0
1040
0.0
1040
0.0
1040
10.0
1040
10.0
1040
0.0
1040
0.0
1070
     0
1002
{
1002
}
1002
}
  0
ENDSEC
  0
SECTION
  2
OBJECTS
  0
DICTIONARY
  5
C
330
0
100
AcDbDictionary
  3
ACAD_GROUP
350
D
  3
ACAD_LAYOUT
350
AD6
  3
ACAD_MLINESTYLE
350
E
  3
ACAD_PLOTSETTINGS
350
AD7
1001
ACAD
1000
TREAT_AS_HARD
1070
     0
  0
DICTIONARY
  5
B03
330
1A
100
AcDbDictionary
  3
ACAD_LAYOUTSELFREF
350
B47
1001
ACAD
1000
TREAT_AS_HARD
1070
     1
  0
DICTIONARY
  5
B01
330
17
100
AcDbDictionary
  3
ACAD_LAYOUTSELFREF
350
B46
1001
ACAD
1000
TREAT_AS_HARD
1070
     1
  0
DICTIONARY
  5
D
102
{ACAD_REACTORS
330
C
102
}
330
C
100
AcDbDictionary
1001
ACAD
1000
TREAT_AS_HARD
1070
     0
  0
DICTIONARY
  5
AD6
102
{ACAD_REACTORS
330
C
102
}
330
C
100
AcDbDictionary
1001
ACAD
1000
TREAT_AS_HARD
1070
     0
  0
DICTIONARY
  5
E
102
{ACAD_REACTORS
330
C
102
}
330
C
100
AcDbDictionary
  3
STANDARD
350
13
1001
ACAD
1000
TREAT_AS_HARD
1070
     0
  0
DICTIONARY
  5
AD7
102
{ACAD_REACTORS
330
C
102
}
330
C
100
AcDbDictionary
1001
ACAD
1000
TREAT_AS_HARD
1070
     0
  0
XRECORD
  5
B47
102
{ACAD_REACTORS
330
B03
102
}
330
B03
100
AcDbXrecord
340
1A
  0
XRECORD
  5
B46
102
{ACAD_REACTORS
330
B01
102
}
330
B01
100
AcDbXrecord
340
17
  0
MLINESTYLE
  5
13
102
{ACAD_REACTORS
330
E
102
}
330
E
100
AcDbMlineStyle
  2
STANDARD
 70
     0
  3

 62
     0
 51
90.0
 52
90.0
 71
     2
 49
0.5
 62
   256
  6
BYLAYER
 49
-0.5
 62
   256
  6
BYLAYER
  0
ENDSEC
  0
EOF
