  0
SECTION
  2
HEADER
  9
$ACADVER
  1
AC1012
  9
$DWGCODEPAGE
  3
dos932
  9
$INSBASE
 10
0.0
 20
0.0
 30
0.0
  9
$EXTMIN
 10
10.05047808566086
 20
4.949376903717846
 30
0.0
  9
$EXTMAX
 10
806.2246110975902
 20
563.7825862828226
 30
0.0
  9
$LIMMIN
 10
0.0
 20
0.0
  9
$LIMMAX
 10
840.0
 20
594.0
  9
$ORTHOMODE
 70
     0
  9
$REGENMODE
 70
     1
  9
$FILLMODE
 70
     1
  9
$QTEXTMODE
 70
     0
  9
$MIRRTEXT
 70
     1
  9
$DRAGMODE
 70
     2
  9
$LTSCALE
 40
2.0
  9
$OSMODE
 70
   319
  9
$ATTMODE
 70
     1
  9
$TEXTSIZE
 40
5.0
  9
$TRACEWID
 40
1.0
  9
$TEXTSTYLE
  7
STANDARD
  9
$CLAYER
  8
NOKITOI
  9
$CELTYPE
  6
BYLAYER
  9
$CECOLOR
 62
   256
  9
$CELTSCALE
 40
1.0
  9
$DELOBJ
 70
     1
  9
$DISPSILH
 70
     0
  9
$DIMSCALE
 40
1.0
  9
$DIMASZ
 40
7.0
  9
$DIMEXO
 40
6.0
  9
$DIMDLI
 40
14.0
  9
$DIMRND
 40
0.0
  9
$DIMDLE
 40
0.0
  9
$DIMEXE
 40
3.0
  9
$DIMTP
 40
0.0
  9
$DIMTM
 40
0.0
  9
$DIMTXT
 40
6.0
  9
$DIMCEN
 40
150.0
  9
$DIMTSZ
 40
0.0
  9
$DIMTOL
 70
     0
  9
$DIMLIM
 70
     0
  9
$DIMTIH
 70
     0
  9
$DIMTOH
 70
     0
  9
$DIMSE1
 70
     0
  9
$DIMSE2
 70
     0
  9
$DIMTAD
 70
     3
  9
$DIMZIN
 70
     0
  9
$DIMBLK
  1

  9
$DIMASO
 70
     1
  9
$DIMSHO
 70
     1
  9
$DIMPOST
  1

  9
$DIMAPOST
  1

  9
$DIMALT
 70
     0
  9
$DIMALTD
 70
     2
  9
$DIMALTF
 40
25.4
  9
$DIMLFAC
 40
1.0
  9
$DIMTOFL
 70
     1
  9
$DIMTVP
 40
0.0
  9
$DIMTIX
 70
     0
  9
$DIMSOXD
 70
     0
  9
$DIMSAH
 70
     1
  9
$DIMBLK1
  1
OPEN
  9
$DIMBLK2
  1
OPEN
  9
$DIMSTYLE
  2
STANDARD
  9
$DIMCLRD
 70
   256
  9
$DIMCLRE
 70
   256
  9
$DIMCLRT
 70
   256
  9
$DIMTFAC
 40
1.0
  9
$DIMGAP
 40
2.0
  9
$DIMJUST
 70
     0
  9
$DIMSD1
 70
     0
  9
$DIMSD2
 70
     0
  9
$DIMTOLJ
 70
     1
  9
$DIMTZIN
 70
     0
  9
$DIMALTZ
 70
     0
  9
$DIMALTTZ
 70
     0
  9
$DIMFIT
 70
     3
  9
$DIMUPT
 70
     0
  9
$DIMUNIT
 70
     2
  9
$DIMDEC
 70
     0
  9
$DIMTDEC
 70
     0
  9
$DIMALTU
 70
     2
  9
$DIMALTTD
 70
     2
  9
$DIMTXSTY
  7
STANDARD
  9
$DIMAUNIT
 70
     0
  9
$LUNITS
 70
     2
  9
$LUPREC
 70
     4
  9
$SKETCHINC
 40
1.0
  9
$FILLETRAD
 40
20.0
  9
$AUNITS
 70
     0
  9
$AUPREC
 70
     0
  9
$MENU
  1
.
  9
$ELEVATION
 40
0.0
  9
$PELEVATION
 40
0.0
  9
$THICKNESS
 40
0.0
  9
$LIMCHECK
 70
     0
  9
$BLIPMODE
 70
     0
  9
$CHAMFERA
 40
20.0
  9
$CHAMFERB
 40
20.0
  9
$CHAMFERC
 40
40.0
  9
$CHAMFERD
 40
0.0
  9
$SKPOLY
 70
     0
  9
$TDCREATE
 40
2451185.668325000
  9
$TDUPDATE
 40
2452422.702753240
  9
$TDINDWG
 40
0.0048839120
  9
$TDUSRTIMER
 40
0.0048839120
  9
$USRTIMER
 70
     1
  9
$ANGBASE
 50
0.0
  9
$ANGDIR
 70
     0
  9
$PDMODE
 70
     0
  9
$PDSIZE
 40
0.0
  9
$PLINEWID
 40
0.0
  9
$COORDS
 70
     1
  9
$SPLFRAME
 70
     0
  9
$SPLINETYPE
 70
     6
  9
$SPLINESEGS
 70
     8
  9
$ATTDIA
 70
     0
  9
$ATTREQ
 70
     1
  9
$HANDLING
 70
 10241
  9
$HANDSEED
  5
6DC
  9
$SURFTAB1
 70
     6
  9
$SURFTAB2
 70
     6
  9
$SURFTYPE
 70
     6
  9
$SURFU
 70
     6
  9
$SURFV
 70
     6
  9
$UCSNAME
  2

  9
$UCSORG
 10
0.0
 20
0.0
 30
0.0
  9
$UCSXDIR
 10
1.0
 20
0.0
 30
0.0
  9
$UCSYDIR
 10
0.0
 20
1.0
 30
0.0
  9
$PUCSNAME
  2

  9
$PUCSORG
 10
0.0
 20
0.0
 30
0.0
  9
$PUCSXDIR
 10
1.0
 20
0.0
 30
0.0
  9
$PUCSYDIR
 10
0.0
 20
1.0
 30
0.0
  9
$USERI1
 70
     0
  9
$USERI2
 70
     0
  9
$USERI3
 70
     0
  9
$USERI4
 70
     0
  9
$USERI5
 70
     0
  9
$USERR1
 40
0.0
  9
$USERR2
 40
0.0
  9
$USERR3
 40
0.0
  9
$USERR4
 40
0.0
  9
$USERR5
 40
0.0
  9
$WORLDVIEW
 70
     1
  9
$SHADEDGE
 70
     3
  9
$SHADEDIF
 70
    70
  9
$TILEMODE
 70
     1
  9
$MAXACTVP
 70
    16
  9
$PINSBASE
 10
0.0
 20
0.0
 30
0.0
  9
$PLIMCHECK
 70
     0
  9
$PEXTMIN
 10
0.0
 20
0.0
 30
0.0
  9
$PEXTMAX
 10
420.0
 20
297.0
 30
0.0
  9
$PLIMMIN
 10
0.0
 20
0.0
  9
$PLIMMAX
 10
420.0
 20
297.0
  9
$UNITMODE
 70
     0
  9
$VISRETAIN
 70
     0
  9
$PLINEGEN
 70
     0
  9
$PSLTSCALE
 70
     1
  9
$TREEDEPTH
 70
  3020
  9
$PICKSTYLE
 70
     1
  9
$CMLSTYLE
  2
STANDARD
  9
$CMLJUST
 70
     0
  9
$CMLSCALE
 40
1.0
  9
$SAVEIMAGES
 70
     1
  0
ENDSEC
  0
SECTION
  2
CLASSES
  0
CLASS
  1
ACDBDICTIONARYWDFLT
  2
AcDbDictionaryWithDefault
  3
AutoCAD 2000
 90
    32768
280
     0
281
     0
  0
CLASS
  1
ACDBPLACEHOLDER
  2
AcDbPlaceHolder
  3
AutoCAD 2000
 90
    32768
280
     0
281
     0
  0
CLASS
  1
LAYOUT
  2
AcDbLayout
  3
AutoCAD 2000
 90
    32768
280
     0
281
     0
  0
CLASS
  1
LONG_TRANSACTION
  2
AcDbLongTransaction
  3
AutoCAD 2000
 90
    32768
280
     0
281
     0
  0
CLASS
  1
LWPOLYLINE
  2
AcDbPolyline
  3
AutoCAD 2000
 90
    32768
280
     0
281
     1
  0
CLASS
  1
HATCH
  2
AcDbHatch
  3
AutoCAD 2000
 90
    32768
280
     0
281
     1
  0
CLASS
  1
XRECORD
  2
AcDbXrecord
  3
AutoCAD 2000
 90
    32768
280
     0
281
     0
  0
CLASS
  1
LONG_TRANSACTION
  2
AcDbLongTransaction
  3
AutoCAD 2000
 90
    32768
280
     0
281
     0
  0
CLASS
  1
LWPOLYLINE
  2
AcDbPolyline
  3
AutoCAD 2000
 90
    32768
280
     0
281
     1
  0
CLASS
  1
HATCH
  2
AcDbHatch
  3
AutoCAD 2000
 90
    32768
280
     0
281
     1
  0
CLASS
  1
XRECORD
  2
AcDbXrecord
  3
AutoCAD 2000
 90
    32768
280
     0
281
     0
  0
ENDSEC
  0
SECTION
  2
TABLES
  0
TABLE
  2
VPORT
  5
8
330
0
100
AcDbSymbolTable
 70
     2
  0
VPORT
  5
6D9
330
8
100
AcDbSymbolTableRecord
100
AcDbViewportTableRecord
  2
*ACTIVE
 70
     0
 10
0.0
 20
0.0
 11
1.0
 21
1.0
 12
421.2400866429706
 22
305.0113789825029
 13
0.0
 23
0.0
 14
5.0
 24
5.0
 15
0.0
 25
0.0
 16
0.0
 26
0.0
 36
1.0
 17
0.0
 27
0.0
 37
0.0
 40
620.1712200990181
 41
1.709909909909909
 42
50.0
 43
0.0
 44
0.0
 50
0.0
 51
0.0
 71
     0
 72
   100
 73
     1
 74
     0
 75
     0
 76
     0
 77
     0
 78
     0
  0
ENDTAB
  0
TABLE
  2
LTYPE
  5
5
330
0
100
AcDbSymbolTable
 70
     3
  0
LTYPE
  5
14
330
5
100
AcDbSymbolTableRecord
100
AcDbLinetypeTableRecord
  2
BYBLOCK
 70
     0
  3

 72
    65
 73
     0
 40
0.0
  0
LTYPE
  5
15
330
5
100
AcDbSymbolTableRecord
100
AcDbLinetypeTableRecord
  2
BYLAYER
 70
     0
  3

 72
    65
 73
     0
 40
0.0
  0
LTYPE
  5
16
330
5
100
AcDbSymbolTableRecord
100
AcDbLinetypeTableRecord
  2
CONTINUOUS
 70
     0
  3
Solid line
 72
    65
 73
     0
 40
0.0
  0
LTYPE
  5
115
330
5
100
AcDbSymbolTableRecord
100
AcDbLinetypeTableRecord
  2
PHANTOM
 70
     0
  3
______  __  __  ______  __  __  ______  __  __ 
 72
    65
 73
     6
 40
2.5
 49
1.25
 74
     0
 49
-0.25
 74
     0
 49
0.25
 74
     0
 49
-0.25
 74
     0
 49
0.25
 74
     0
 49
-0.25
 74
     0
  0
LTYPE
  5
135
330
5
100
AcDbSymbolTableRecord
100
AcDbLinetypeTableRecord
  2
CENTER
 70
     0
  3
____ _ ____ _ ____ _ ____ _ ____ _ ____ _ ____ 
 72
    65
 73
     4
 40
2.0
 49
1.25
 74
     0
 49
-0.25
 74
     0
 49
0.25
 74
     0
 49
-0.25
 74
     0
  0
ENDTAB
  0
TABLE
  2
LAYER
  5
2
330
0
100
AcDbSymbolTable
 70
     8
  0
LAYER
  5
F
330
2
100
AcDbSymbolTableRecord
100
AcDbLayerTableRecord
  2
0
 70
     0
 62
     7
  6
CONTINUOUS
  0
LAYER
  5
62
330
2
100
AcDbSymbolTableRecord
100
AcDbLayerTableRecord
  2
VIEWPORT
 70
     0
 62
     7
  6
CONTINUOUS
  0
LAYER
  5
65
330
2
100
AcDbSymbolTableRecord
100
AcDbLayerTableRecord
  2
ZUWAKU
 70
     0
 62
     7
  6
CONTINUOUS
  0
LAYER
  5
1CA
330
2
100
AcDbSymbolTableRecord
100
AcDbLayerTableRecord
  2
SEIHIN
 70
     0
 62
     3
  6
CONTINUOUS
  0
LAYER
  5
1CB
330
2
100
AcDbSymbolTableRecord
100
AcDbLayerTableRecord
  2
SUNPOU
 70
     0
 62
     4
  6
CONTINUOUS
  0
LAYER
  5
1CC
330
2
100
AcDbSymbolTableRecord
100
AcDbLayerTableRecord
  2
CENTER_L
 70
     0
 62
     1
  6
CENTER
  0
LAYER
  5
1CD
330
2
100
AcDbSymbolTableRecord
100
AcDbLayerTableRecord
  2
NOKITOI
 70
     0
 62
     8
  6
PHANTOM
  0
LAYER
  5
1CE
330
2
100
AcDbSymbolTableRecord
100
AcDbLayerTableRecord
  2
DEFPOINTS
 70
     0
 62
     7
  6
CONTINUOUS
  0
ENDTAB
  0
TABLE
  2
STYLE
  5
3
330
0
100
AcDbSymbolTable
 70
     1
  0
STYLE
  5
10
330
3
100
AcDbSymbolTableRecord
100
AcDbTextStyleTableRecord
  2
STANDARD
 70
     0
 40
0.0
 41
1.0
 50
0.0
 71
     0
 42
5.0
  3
TXT
  4
bigfont.shx
  0
ENDTAB
  0
TABLE
  2
VIEW
  5
6
330
0
100
AcDbSymbolTable
 70
     0
  0
ENDTAB
  0
TABLE
  2
UCS
  5
7
330
0
100
AcDbSymbolTable
 70
     0
  0
ENDTAB
  0
TABLE
  2
APPID
  5
9
330
0
100
AcDbSymbolTable
 70
     1
  0
APPID
  5
11
330
9
100
AcDbSymbolTableRecord
100
AcDbRegAppTableRecord
  2
ACAD
 70
     0
  0
ENDTAB
  0
TABLE
  2
DIMSTYLE
  5
A
330
0
100
AcDbSymbolTable
 70
     1
  0
DIMSTYLE
105
1D
102
{ACAD_REACTORS
330
37A
330
37B
330
37C
330
445
330
446
330
4D0
330
4ED
330
4F5
330
4F6
330
4F7
102
}
330
A
100
AcDbSymbolTableRecord
100
AcDbDimStyleTableRecord
  2
STANDARD
 70
     0
  3

  4

  5

  6

  7

 40
1.0
 41
0.18
 42
0.0625
 43
0.38
 44
0.18
 45
0.0
 46
0.0
 47
0.0
 48
0.0
140
0.18
141
0.09
142
0.0
143
25.4
144
1.0
145
0.0
146
1.0
147
0.09
 71
     0
 72
     0
 73
     1
 74
     1
 75
     0
 76
     0
 77
     0
 78
     0
170
     0
171
     2
172
     0
173
     0
174
     0
175
     0
176
     0
177
     0
178
     0
270
     2
271
     4
272
     4
273
     2
274
     2
340
10
275
     0
280
     0
281
     0
282
     0
283
     1
284
     0
285
     0
286
     0
287
     3
288
     0
  0
ENDTAB
  0
TABLE
  2
BLOCK_RECORD
  5
1
330
0
100
AcDbSymbolTable
 70
    11
  0
BLOCK_RECORD
  5
1A
102
{ACAD_XDICTIONARY
360
6CB
102
}
330
1
100
AcDbSymbolTableRecord
100
AcDbBlockTableRecord
  2
*MODEL_SPACE
  0
BLOCK_RECORD
  5
17
102
{ACAD_XDICTIONARY
360
6C9
102
}
330
1
100
AcDbSymbolTableRecord
100
AcDbBlockTableRecord
  2
*PAPER_SPACE
  0
BLOCK_RECORD
  5
6D
330
1
100
AcDbSymbolTableRecord
100
AcDbBlockTableRecord
  2
_OPEN
  0
BLOCK_RECORD
  5
521
330
1
100
AcDbSymbolTableRecord
100
AcDbBlockTableRecord
  2
*D1
  0
BLOCK_RECORD
  5
52E
330
1
100
AcDbSymbolTableRecord
100
AcDbBlockTableRecord
  2
*D2
  0
BLOCK_RECORD
  5
53A
330
1
100
AcDbSymbolTableRecord
100
AcDbBlockTableRecord
  2
*D3
  0
BLOCK_RECORD
  5
546
330
1
100
AcDbSymbolTableRecord
100
AcDbBlockTableRecord
  2
*D4
  0
BLOCK_RECORD
  5
552
330
1
100
AcDbSymbolTableRecord
100
AcDbBlockTableRecord
  2
*D5
  0
BLOCK_RECORD
  5
56A
330
1
100
AcDbSymbolTableRecord
100
AcDbBlockTableRecord
  2
*D6
  0
BLOCK_RECORD
  5
576
330
1
100
AcDbSymbolTableRecord
100
AcDbBlockTableRecord
  2
*D7
  0
BLOCK_RECORD
  5
584
330
1
100
AcDbSymbolTableRecord
100
AcDbBlockTableRecord
  2
*D8
  0
BLOCK_RECORD
  5
590
330
1
100
AcDbSymbolTableRecord
100
AcDbBlockTableRecord
  2
*D9
  0
BLOCK_RECORD
  5
59C
330
1
100
AcDbSymbolTableRecord
100
AcDbBlockTableRecord
  2
*D10
  0
ENDTAB
  0
ENDSEC
  0
SECTION
  2
BLOCKS
  0
BLOCK
  5
1B
330
1A
100
AcDbEntity
  8
0
100
AcDbBlockBegin
  2
*MODEL_SPACE
 70
     0
 10
0.0
 20
0.0
 30
0.0
  3
*MODEL_SPACE
  1

  0
ENDBLK
  5
1C
330
1A
100
AcDbEntity
  8
0
100
AcDbBlockEnd
  0
BLOCK
  5
18
330
17
100
AcDbEntity
 67
     1
  8
0
100
AcDbBlockBegin
  2
*PAPER_SPACE
 70
     0
 10
0.0
 20
0.0
 30
0.0
  3
*PAPER_SPACE
  1

  0
ENDBLK
  5
19
330
17
100
AcDbEntity
 67
     1
  8
0
100
AcDbBlockEnd
  0
BLOCK
  5
6E
330
6D
100
AcDbEntity
  8
0
100
AcDbBlockBegin
  2
_OPEN
 70
     0
 10
0.0
 20
0.0
 30
0.0
  3
_OPEN
  1

  0
LINE
  5
6F
330
6D
100
AcDbEntity
  8
0
  6
BYBLOCK
 62
     0
100
AcDbLine
 10
-1.0
 20
0.1666666666666666
 30
0.0
 11
0.0
 21
0.0
 31
0.0
  0
LINE
  5
70
330
6D
100
AcDbEntity
  8
0
  6
BYBLOCK
 62
     0
100
AcDbLine
 10
0.0
 20
0.0
 30
0.0
 11
-1.0
 21
-0.1666666666666666
 31
0.0
  0
LINE
  5
71
330
6D
100
AcDbEntity
  8
0
  6
BYBLOCK
 62
     0
100
AcDbLine
 10
0.0
 20
0.0
 30
0.0
 11
-1.0
 21
0.0
 31
0.0
  0
ENDBLK
  5
72
330
6D
100
AcDbEntity
  8
0
100
AcDbBlockEnd
  0
BLOCK
  5
643
330
521
100
AcDbEntity
  8
0
100
AcDbBlockBegin
  2
*D1
 70
     1
 10
0.0
 20
0.0
 30
0.0
  3
*D1
  1

  0
LINE
  5
644
330
521
100
AcDbEntity
  8
0
  6
BYBLOCK
 62
     4
100
AcDbLine
 10
520.5663187540962
 20
217.6743382145136
 30
0.0
 11
415.3324379112901
 21
217.6743382145136
 31
0.0
  0
LINE
  5
645
330
521
100
AcDbEntity
  8
0
  6
BYBLOCK
 62
     4
100
AcDbLine
 10
418.3324379112901
 20
247.6742382145137
 30
0.0
 11
418.3324379112901
 21
254.6742382145137
 31
0.0
  0
LINE
  5
646
330
521
100
AcDbEntity
  8
0
  6
BYBLOCK
 62
     4
100
AcDbLine
 10
418.3324379112901
 20
210.6743382145137
 30
0.0
 11
418.3324379112901
 21
203.6743382145137
 31
0.0
  0
LINE
  5
647
330
521
100
AcDbEntity
  8
0
  6
BYBLOCK
 62
     4
100
AcDbLine
 10
418.3324379112901
 20
240.6742382145138
 30
0.0
 11
418.3324379112901
 21
217.6743382145136
 31
0.0
  0
INSERT
  5
648
330
521
100
AcDbEntity
  8
0
  6
BYBLOCK
 62
     4
100
AcDbBlockReference
  2
_OPEN
 10
418.3324379112901
 20
240.6742382145138
 30
0.0
 41
7.0
 42
7.0
 43
7.0
 50
270.0
  0
INSERT
  5
649
330
521
100
AcDbEntity
  8
0
  6
BYBLOCK
 62
     4
100
AcDbBlockReference
  2
_OPEN
 10
418.3324379112901
 20
217.6743382145136
 30
0.0
 41
7.0
 42
7.0
 43
7.0
 50
90.0
  0
MTEXT
  5
64A
330
521
100
AcDbEntity
  8
0
  6
BYBLOCK
 62
     4
100
AcDbMText
 10
413.3324379112901
 20
229.1742882145137
 30
0.0
 40
6.0
 41
0.0
 71
     5
 72
     1
  1
\A1;23
 11
0.0
 21
1.0
 31
0.0
1001
ACAD
1000
MTEXTBEGIN
1070
    73
1070
     1
1070
    44
1040
1.0
1070
    74
1070
     0
1000
MTEXTEND
1000
MTEXTBEGIN
1070
    73
1070
     1
1070
    44
1040
1.0
1070
    74
1070
     0
1000
MTEXTEND
  0
POINT
  5
64B
330
521
100
AcDbEntity
  8
DEFPOINTS
  6
BYBLOCK
 62
     0
100
AcDbPoint
 10
528.7164187540961
 20
240.6742382145138
 30
0.0
  0
POINT
  5
64C
330
521
100
AcDbEntity
  8
DEFPOINTS
  6
BYBLOCK
 62
     0
100
AcDbPoint
 10
526.5663187540963
 20
217.6743382145136
 30
0.0
  0
POINT
  5
64D
330
521
100
AcDbEntity
  8
DEFPOINTS
  6
BYBLOCK
 62
     0
100
AcDbPoint
 10
418.3324379112901
 20
217.6743382145136
 30
0.0
  0
ENDBLK
  5
64E
330
521
100
AcDbEntity
  8
0
100
AcDbBlockEnd
  0
BLOCK
  5
638
330
52E
100
AcDbEntity
  8
0
100
AcDbBlockBegin
  2
*D2
 70
     1
 10
0.0
 20
0.0
 30
0.0
  3
*D2
  1

  0
LINE
  5
639
330
52E
100
AcDbEntity
  8
0
  6
BYBLOCK
 62
     4
100
AcDbLine
 10
446.4669187540961
 20
412.6747382145136
 30
0.0
 11
415.3324379112901
 21
412.6747382145136
 31
0.0
  0
LINE
  5
63A
330
52E
100
AcDbEntity
  8
0
  6
BYBLOCK
 62
     4
100
AcDbLine
 10
522.7164187540961
 20
240.6742382145138
 30
0.0
 11
415.3324379112901
 21
240.6742382145138
 31
0.0
  0
LINE
  5
63B
330
52E
100
AcDbEntity
  8
0
  6
BYBLOCK
 62
     4
100
AcDbLine
 10
418.3324379112901
 20
405.6747382145136
 30
0.0
 11
418.3324379112901
 21
247.6742382145137
 31
0.0
  0
INSERT
  5
63C
330
52E
100
AcDbEntity
  8
0
  6
BYBLOCK
 62
     4
100
AcDbBlockReference
  2
_OPEN
 10
418.3324379112901
 20
412.6747382145136
 30
0.0
 41
7.0
 42
7.0
 43
7.0
 50
90.0
  0
INSERT
  5
63D
330
52E
100
AcDbEntity
  8
0
  6
BYBLOCK
 62
     4
100
AcDbBlockReference
  2
_OPEN
 10
418.3324379112901
 20
240.6742382145138
 30
0.0
 41
7.0
 42
7.0
 43
7.0
 50
270.0
  0
MTEXT
  5
63E
330
52E
100
AcDbEntity
  8
0
  6
BYBLOCK
 62
     4
100
AcDbMText
 10
413.3324379112901
 20
326.6744882145137
 30
0.0
 40
6.0
 41
0.0
 71
     5
 72
     1
  1
\A1;172
 11
0.0
 21
1.0
 31
0.0
1001
ACAD
1000
MTEXTBEGIN
1070
    73
1070
     1
1070
    44
1040
1.0
1070
    74
1070
     0
1000
MTEXTEND
1000
MTEXTBEGIN
1070
    73
1070
     1
1070
    44
1040
1.0
1070
    74
1070
     0
1000
MTEXTEND
  0
POINT
  5
63F
330
52E
100
AcDbEntity
  8
DEFPOINTS
  6
BYBLOCK
 62
     0
100
AcDbPoint
 10
452.466918754096
 20
412.6747382145136
 30
0.0
  0
POINT
  5
640
330
52E
100
AcDbEntity
  8
DEFPOINTS
  6
BYBLOCK
 62
     0
100
AcDbPoint
 10
528.7164187540961
 20
240.6742382145138
 30
0.0
  0
POINT
  5
641
330
52E
100
AcDbEntity
  8
DEFPOINTS
  6
BYBLOCK
 62
     0
100
AcDbPoint
 10
418.3324379112901
 20
240.6742382145138
 30
0.0
  0
ENDBLK
  5
642
330
52E
100
AcDbEntity
  8
0
100
AcDbBlockEnd
  0
BLOCK
  5
62D
330
53A
100
AcDbEntity
  8
0
100
AcDbBlockBegin
  2
*D3
 70
     1
 10
0.0
 20
0.0
 30
0.0
  3
*D3
  1

  0
LINE
  5
62E
330
53A
100
AcDbEntity
  8
0
  6
BYBLOCK
 62
     4
100
AcDbLine
 10
446.4669187540961
 20
412.6747382145136
 30
0.0
 11
395.207551029539
 21
412.6747382145136
 31
0.0
  0
LINE
  5
62F
330
53A
100
AcDbEntity
  8
0
  6
BYBLOCK
 62
     4
100
AcDbLine
 10
525.2662187540961
 20
204.6743382145137
 30
0.0
 11
395.207551029539
 21
204.6743382145137
 31
0.0
  0
LINE
  5
630
330
53A
100
AcDbEntity
  8
0
  6
BYBLOCK
 62
     4
100
AcDbLine
 10
398.207551029539
 20
405.6747382145136
 30
0.0
 11
398.207551029539
 21
211.6743382145137
 31
0.0
  0
INSERT
  5
631
330
53A
100
AcDbEntity
  8
0
  6
BYBLOCK
 62
     4
100
AcDbBlockReference
  2
_OPEN
 10
398.207551029539
 20
412.6747382145136
 30
0.0
 41
7.0
 42
7.0
 43
7.0
 50
90.0
  0
INSERT
  5
632
330
53A
100
AcDbEntity
  8
0
  6
BYBLOCK
 62
     4
100
AcDbBlockReference
  2
_OPEN
 10
398.207551029539
 20
204.6743382145137
 30
0.0
 41
7.0
 42
7.0
 43
7.0
 50
270.0
  0
MTEXT
  5
633
330
53A
100
AcDbEntity
  8
0
  6
BYBLOCK
 62
     4
100
AcDbMText
 10
393.207551029539
 20
308.6745382145136
 30
0.0
 40
6.0
 41
0.0
 71
     5
 72
     1
  1
\A1;208
 11
0.0
 21
1.0
 31
0.0
1001
ACAD
1000
MTEXTBEGIN
1070
    73
1070
     1
1070
    44
1040
1.0
1070
    74
1070
     0
1000
MTEXTEND
1000
MTEXTBEGIN
1070
    73
1070
     1
1070
    44
1040
1.0
1070
    74
1070
     0
1000
MTEXTEND
  0
POINT
  5
634
330
53A
100
AcDbEntity
  8
DEFPOINTS
  6
BYBLOCK
 62
     0
100
AcDbPoint
 10
452.466918754096
 20
412.6747382145136
 30
0.0
  0
POINT
  5
635
330
53A
100
AcDbEntity
  8
DEFPOINTS
  6
BYBLOCK
 62
     0
100
AcDbPoint
 10
531.2662187540961
 20
204.6743382145137
 30
0.0
  0
POINT
  5
636
330
53A
100
AcDbEntity
  8
DEFPOINTS
  6
BYBLOCK
 62
     0
100
AcDbPoint
 10
398.207551029539
 20
204.6743382145137
 30
0.0
  0
ENDBLK
  5
637
330
53A
100
AcDbEntity
  8
0
100
AcDbBlockEnd
  0
BLOCK
  5
65A
330
546
100
AcDbEntity
  8
0
100
AcDbBlockBegin
  2
*D4
 70
     1
 10
0.0
 20
0.0
 30
0.0
  3
*D4
  1

  0
LINE
  5
65B
330
546
100
AcDbEntity
  8
0
  6
BYBLOCK
 62
     4
100
AcDbLine
 10
232.3063526905911
 20
418.6749282148822
 30
0.0
 11
232.3063526905911
 21
452.8055381704755
 31
0.0
  0
LINE
  5
65C
330
546
100
AcDbEntity
  8
0
  6
BYBLOCK
 62
     4
100
AcDbLine
 10
292.3063526905241
 20
418.6748382145138
 30
0.0
 11
292.3063526905241
 21
452.8055381704755
 31
0.0
  0
LINE
  5
65D
330
546
100
AcDbEntity
  8
0
  6
BYBLOCK
 62
     4
100
AcDbLine
 10
239.3063526905911
 20
449.8055381704755
 30
0.0
 11
285.3063526905241
 21
449.8055381704755
 31
0.0
  0
INSERT
  5
65E
330
546
100
AcDbEntity
  8
0
  6
BYBLOCK
 62
     4
100
AcDbBlockReference
  2
_OPEN
 10
232.3063526905911
 20
449.8055381704755
 30
0.0
 41
7.0
 42
7.0
 43
7.0
 50
180.0
  0
INSERT
  5
65F
330
546
100
AcDbEntity
  8
0
  6
BYBLOCK
 62
     4
100
AcDbBlockReference
  2
_OPEN
 10
292.3063526905241
 20
449.8055381704755
 30
0.0
 41
7.0
 42
7.0
 43
7.0
  0
MTEXT
  5
660
330
546
100
AcDbEntity
  8
0
  6
BYBLOCK
 62
     4
100
AcDbMText
 10
262.3063526905576
 20
454.8055381704755
 30
0.0
 40
6.0
 41
0.0
 71
     5
 72
     1
  1
\A1;※a60
1001
ACAD
1000
MTEXTBEGIN
1070
    73
1070
     1
1070
    44
1040
1.0
1070
    74
1070
     0
1000
MTEXTEND
1000
MTEXTBEGIN
1070
    73
1070
     1
1070
    44
1040
1.0
1070
    74
1070
     0
1000
MTEXTEND
  0
POINT
  5
661
330
546
100
AcDbEntity
  8
DEFPOINTS
  6
BYBLOCK
 62
     0
100
AcDbPoint
 10
232.3063526905911
 20
412.6749282148822
 30
0.0
  0
POINT
  5
662
330
546
100
AcDbEntity
  8
DEFPOINTS
  6
BYBLOCK
 62
     0
100
AcDbPoint
 10
292.3063526905241
 20
412.6748382145138
 30
0.0
  0
POINT
  5
663
330
546
100
AcDbEntity
  8
DEFPOINTS
  6
BYBLOCK
 62
     0
100
AcDbPoint
 10
292.3063526905241
 20
449.8055381704755
 30
0.0
  0
ENDBLK
  5
664
330
546
100
AcDbEntity
  8
0
100
AcDbBlockEnd
  0
BLOCK
  5
665
330
552
100
AcDbEntity
  8
0
100
AcDbBlockBegin
  2
*D5
 70
     1
 10
0.0
 20
0.0
 30
0.0
  3
*D5
  1

  0
LINE
  5
666
330
552
100
AcDbEntity
  8
0
  6
BYBLOCK
 62
     4
100
AcDbLine
 10
162.306475489796
 20
418.6751382145137
 30
0.0
 11
162.306475489796
 21
471.9600059377267
 31
0.0
  0
LINE
  5
667
330
552
100
AcDbEntity
  8
0
  6
BYBLOCK
 62
     4
100
AcDbLine
 10
362.306275489796
 20
418.6748382145138
 30
0.0
 11
362.306275489796
 21
471.9600059377267
 31
0.0
  0
LINE
  5
668
330
552
100
AcDbEntity
  8
0
  6
BYBLOCK
 62
     4
100
AcDbLine
 10
169.306475489796
 20
468.9600059377267
 30
0.0
 11
355.306275489796
 21
468.9600059377267
 31
0.0
  0
INSERT
  5
669
330
552
100
AcDbEntity
  8
0
  6
BYBLOCK
 62
     4
100
AcDbBlockReference
  2
_OPEN
 10
162.306475489796
 20
468.9600059377267
 30
0.0
 41
7.0
 42
7.0
 43
7.0
 50
180.0
  0
INSERT
  5
66A
330
552
100
AcDbEntity
  8
0
  6
BYBLOCK
 62
     4
100
AcDbBlockReference
  2
_OPEN
 10
362.306275489796
 20
468.9600059377267
 30
0.0
 41
7.0
 42
7.0
 43
7.0
  0
MTEXT
  5
66B
330
552
100
AcDbEntity
  8
0
  6
BYBLOCK
 62
     4
100
AcDbMText
 10
262.3063754897959
 20
473.9600059377266
 30
0.0
 40
6.0
 41
0.0
 71
     5
 72
     1
  1
\A1;200
1001
ACAD
1000
MTEXTBEGIN
1070
    73
1070
     1
1070
    44
1040
1.0
1070
    74
1070
     0
1000
MTEXTEND
1000
MTEXTBEGIN
1070
    73
1070
     1
1070
    44
1040
1.0
1070
    74
1070
     0
1000
MTEXTEND
  0
POINT
  5
66C
330
552
100
AcDbEntity
  8
DEFPOINTS
  6
BYBLOCK
 62
     0
100
AcDbPoint
 10
162.306475489796
 20
412.6751382145137
 30
0.0
  0
POINT
  5
66D
330
552
100
AcDbEntity
  8
DEFPOINTS
  6
BYBLOCK
 62
     0
100
AcDbPoint
 10
362.306275489796
 20
412.6748382145138
 30
0.0
  0
POINT
  5
66E
330
552
100
AcDbEntity
  8
DEFPOINTS
  6
BYBLOCK
 62
     0
100
AcDbPoint
 10
362.306275489796
 20
468.9600059377267
 30
0.0
  0
ENDBLK
  5
66F
330
552
100
AcDbEntity
  8
0
100
AcDbBlockEnd
  0
BLOCK
  5
5EB
330
56A
100
AcDbEntity
  8
0
100
AcDbBlockBegin
  2
*D6
 70
     1
 10
0.0
 20
0.0
 30
0.0
  3
*D6
  1

  0
LINE
  5
5EC
330
56A
100
AcDbEntity
  8
0
  6
BYBLOCK
 62
     4
100
AcDbLine
 10
589.6663187540959
 20
198.6742382145137
 30
0.0
 11
589.6663187540959
 21
166.2435668341817
 31
0.0
  0
LINE
  5
5ED
330
56A
100
AcDbEntity
  8
0
  6
BYBLOCK
 62
     4
100
AcDbLine
 10
531.2662187540961
 20
198.6743382145137
 30
0.0
 11
531.2662187540961
 21
166.2435668341817
 31
0.0
  0
LINE
  5
5EE
330
56A
100
AcDbEntity
  8
0
  6
BYBLOCK
 62
     4
100
AcDbLine
 10
582.6663187540959
 20
169.2435668341818
 30
0.0
 11
538.2662187540961
 21
169.2435668341818
 31
0.0
  0
INSERT
  5
5EF
330
56A
100
AcDbEntity
  8
0
  6
BYBLOCK
 62
     4
100
AcDbBlockReference
  2
_OPEN
 10
589.6663187540959
 20
169.2435668341818
 30
0.0
 41
7.0
 42
7.0
 43
7.0
  0
INSERT
  5
5F0
330
56A
100
AcDbEntity
  8
0
  6
BYBLOCK
 62
     4
100
AcDbBlockReference
  2
_OPEN
 10
531.2662187540961
 20
169.2435668341818
 30
0.0
 41
7.0
 42
7.0
 43
7.0
 50
180.0
  0
MTEXT
  5
5F1
330
56A
100
AcDbEntity
  8
0
  6
BYBLOCK
 62
     4
100
AcDbMText
 10
560.466268754096
 20
174.2435668341817
 30
0.0
 40
6.0
 41
0.0
 71
     5
 72
     1
  1
\A1;φ58
1001
ACAD
1000
MTEXTBEGIN
1070
    73
1070
     1
1070
    44
1040
1.0
1070
    74
1070
     0
1000
MTEXTEND
1000
MTEXTBEGIN
1070
    73
1070
     1
1070
    44
1040
1.0
1070
    74
1070
     0
1000
MTEXTEND
  0
POINT
  5
5F2
330
56A
100
AcDbEntity
  8
DEFPOINTS
  6
BYBLOCK
 62
     0
100
AcDbPoint
 10
589.6663187540959
 20
204.6742382145136
 30
0.0
  0
POINT
  5
5F3
330
56A
100
AcDbEntity
  8
DEFPOINTS
  6
BYBLOCK
 62
     0
100
AcDbPoint
 10
531.2662187540961
 20
204.6743382145137
 30
0.0
  0
POINT
  5
5F4
330
56A
100
AcDbEntity
  8
DEFPOINTS
  6
BYBLOCK
 62
     0
100
AcDbPoint
 10
531.2662187540961
 20
169.2435668341818
 30
0.0
  0
ENDBLK
  5
5F5
330
56A
100
AcDbEntity
  8
0
100
AcDbBlockEnd
  0
BLOCK
  5
5F6
330
576
100
AcDbEntity
  8
0
100
AcDbBlockBegin
  2
*D7
 70
     1
 10
0.0
 20
0.0
 30
0.0
  3
*D7
  1

  0
LINE
  5
5F7
330
576
100
AcDbEntity
  8
0
  6
BYBLOCK
 62
     4
100
AcDbLine
 10
600.3663187540962
 20
217.6742382145138
 30
0.0
 11
635.6981492770891
 21
217.6742382145138
 31
0.0
  0
LINE
  5
5F8
330
576
100
AcDbEntity
  8
0
  6
BYBLOCK
 62
     4
100
AcDbLine
 10
603.3164187540962
 20
229.6742295122061
 30
0.0
 11
635.6981492770891
 21
229.6742295122061
 31
0.0
  0
LINE
  5
5F9
330
576
100
AcDbEntity
  8
0
  6
BYBLOCK
 62
     4
100
AcDbLine
 10
632.6981492770892
 20
210.6742382145137
 30
0.0
 11
632.6981492770892
 21
203.6742382145138
 31
0.0
  0
LINE
  5
5FA
330
576
100
AcDbEntity
  8
0
  6
BYBLOCK
 62
     4
100
AcDbLine
 10
632.6981492770892
 20
236.6742295122061
 30
0.0
 11
632.6981492770892
 21
272.4742295122061
 31
0.0
  0
LINE
  5
5FB
330
576
100
AcDbEntity
  8
0
  6
BYBLOCK
 62
     4
100
AcDbLine
 10
632.6981492770892
 20
217.6742382145138
 30
0.0
 11
632.6981492770892
 21
229.6742295122061
 31
0.0
  0
INSERT
  5
5FC
330
576
100
AcDbEntity
  8
0
  6
BYBLOCK
 62
     4
100
AcDbBlockReference
  2
_OPEN
 10
632.6981492770892
 20
217.6742382145138
 30
0.0
 41
7.0
 42
7.0
 43
7.0
 50
90.0
  0
INSERT
  5
5FD
330
576
100
AcDbEntity
  8
0
  6
BYBLOCK
 62
     4
100
AcDbBlockReference
  2
_OPEN
 10
632.6981492770892
 20
229.6742295122061
 30
0.0
 41
7.0
 42
7.0
 43
7.0
 50
270.0
  0
MTEXT
  5
5FE
330
576
100
AcDbEntity
  8
0
  6
BYBLOCK
 62
     4
100
AcDbMText
 10
627.6981492770892
 20
258.074229512206
 30
0.0
 40
6.0
 41
0.0
 71
     5
 72
     1
  1
\A1;※b 12
 11
0.0
 21
1.0
 31
0.0
1001
ACAD
1000
MTEXTBEGIN
1070
    73
1070
     1
1070
    44
1040
1.0
1070
    74
1070
     0
1000
MTEXTEND
1000
MTEXTBEGIN
1070
    73
1070
     1
1070
    44
1040
1.0
1070
    74
1070
     0
1000
MTEXTEND
  0
POINT
  5
5FF
330
576
100
AcDbEntity
  8
DEFPOINTS
  6
BYBLOCK
 62
     0
100
AcDbPoint
 10
594.3663187540962
 20
217.6742382145138
 30
0.0
  0
POINT
  5
600
330
576
100
AcDbEntity
  8
DEFPOINTS
  6
BYBLOCK
 62
     0
100
AcDbPoint
 10
597.3164187540962
 20
229.6742295122061
 30
0.0
  0
POINT
  5
601
330
576
100
AcDbEntity
  8
DEFPOINTS
  6
BYBLOCK
 62
     0
100
AcDbPoint
 10
632.6981492770892
 20
229.6742295122061
 30
0.0
  0
ENDBLK
  5
602
330
576
100
AcDbEntity
  8
0
100
AcDbBlockEnd
  0
BLOCK
  5
670
330
584
100
AcDbEntity
  8
0
100
AcDbBlockBegin
  2
*D8
 70
     1
 10
0.0
 20
0.0
 30
0.0
  3
*D8
  1

  0
LINE
  5
671
330
584
100
AcDbEntity
  8
0
  6
BYBLOCK
 62
     4
100
AcDbLine
 10
622.7167187540962
 20
396.6742382145136
 30
0.0
 11
622.7167187540962
 21
472.2107673592736
 31
0.0
  0
LINE
  5
672
330
584
100
AcDbEntity
  8
0
  6
BYBLOCK
 62
     4
100
AcDbLine
 10
452.466918754096
 20
418.6747382145136
 30
0.0
 11
452.466918754096
 21
472.2107673592736
 31
0.0
  0
LINE
  5
673
330
584
100
AcDbEntity
  8
0
  6
BYBLOCK
 62
     4
100
AcDbLine
 10
615.7167187540963
 20
469.2107673592736
 30
0.0
 11
459.4669187540961
 21
469.2107673592736
 31
0.0
  0
INSERT
  5
674
330
584
100
AcDbEntity
  8
0
  6
BYBLOCK
 62
     4
100
AcDbBlockReference
  2
_OPEN
 10
622.7167187540962
 20
469.2107673592736
 30
0.0
 41
7.0
 42
7.0
 43
7.0
  0
INSERT
  5
675
330
584
100
AcDbEntity
  8
0
  6
BYBLOCK
 62
     4
100
AcDbBlockReference
  2
_OPEN
 10
452.466918754096
 20
469.2107673592736
 30
0.0
 41
7.0
 42
7.0
 43
7.0
 50
180.0
  0
MTEXT
  5
676
330
584
100
AcDbEntity
  8
0
  6
BYBLOCK
 62
     4
100
AcDbMText
 10
537.5918187540961
 20
474.2107673592736
 30
0.0
 40
6.0
 41
0.0
 71
     5
 72
     1
  1
\A1;170
1001
ACAD
1000
MTEXTBEGIN
1070
    73
1070
     1
1070
    44
1040
1.0
1070
    74
1070
     0
1000
MTEXTEND
1000
MTEXTBEGIN
1070
    73
1070
     1
1070
    44
1040
1.0
1070
    74
1070
     0
1000
MTEXTEND
  0
POINT
  5
677
330
584
100
AcDbEntity
  8
DEFPOINTS
  6
BYBLOCK
 62
     0
100
AcDbPoint
 10
622.7167187540962
 20
390.6742382145136
 30
0.0
  0
POINT
  5
678
330
584
100
AcDbEntity
  8
DEFPOINTS
  6
BYBLOCK
 62
     0
100
AcDbPoint
 10
452.466918754096
 20
412.6747382145136
 30
0.0
  0
POINT
  5
679
330
584
100
AcDbEntity
  8
DEFPOINTS
  6
BYBLOCK
 62
     0
100
AcDbPoint
 10
452.466918754096
 20
469.2107673592736
 30
0.0
  0
ENDBLK
  5
67A
330
584
100
AcDbEntity
  8
0
100
AcDbBlockEnd
  0
BLOCK
  5
67B
330
590
100
AcDbEntity
  8
0
100
AcDbBlockBegin
  2
*D9
 70
     1
 10
0.0
 20
0.0
 30
0.0
  3
*D9
  1

  0
LINE
  5
67C
330
590
100
AcDbEntity
  8
0
  6
BYBLOCK
 62
     4
100
AcDbLine
 10
622.7167187540962
 20
396.6742382145136
 30
0.0
 11
622.7167187540962
 21
453.0144531127705
 31
0.0
  0
LINE
  5
67D
330
590
100
AcDbEntity
  8
0
  6
BYBLOCK
 62
     4
100
AcDbLine
 10
560.4666187540961
 20
388.3743382145136
 30
0.0
 11
560.4666187540961
 21
453.0144531127705
 31
0.0
  0
LINE
  5
67E
330
590
100
AcDbEntity
  8
0
  6
BYBLOCK
 62
     4
100
AcDbLine
 10
615.7167187540963
 20
450.0144531127705
 30
0.0
 11
567.466618754096
 21
450.0144531127705
 31
0.0
  0
INSERT
  5
67F
330
590
100
AcDbEntity
  8
0
  6
BYBLOCK
 62
     4
100
AcDbBlockReference
  2
_OPEN
 10
622.7167187540962
 20
450.0144531127705
 30
0.0
 41
7.0
 42
7.0
 43
7.0
  0
INSERT
  5
680
330
590
100
AcDbEntity
  8
0
  6
BYBLOCK
 62
     4
100
AcDbBlockReference
  2
_OPEN
 10
560.4666187540961
 20
450.0144531127705
 30
0.0
 41
7.0
 42
7.0
 43
7.0
 50
180.0
  0
MTEXT
  5
681
330
590
100
AcDbEntity
  8
0
  6
BYBLOCK
 62
     4
100
AcDbMText
 10
591.5916687540962
 20
455.0144531127705
 30
0.0
 40
6.0
 41
0.0
 71
     5
 72
     1
  1
\A1;62
1001
ACAD
1000
MTEXTBEGIN
1070
    73
1070
     1
1070
    44
1040
1.0
1070
    74
1070
     0
1000
MTEXTEND
1000
MTEXTBEGIN
1070
    73
1070
     1
1070
    44
1040
1.0
1070
    74
1070
     0
1000
MTEXTEND
  0
POINT
  5
682
330
590
100
AcDbEntity
  8
DEFPOINTS
  6
BYBLOCK
 62
     0
100
AcDbPoint
 10
622.7167187540962
 20
390.6742382145136
 30
0.0
  0
POINT
  5
683
330
590
100
AcDbEntity
  8
DEFPOINTS
  6
BYBLOCK
 62
     0
100
AcDbPoint
 10
560.4666187540961
 20
382.3743382145136
 30
0.0
  0
POINT
  5
684
330
590
100
AcDbEntity
  8
DEFPOINTS
  6
BYBLOCK
 62
     0
100
AcDbPoint
 10
560.4666187540961
 20
450.0144531127705
 30
0.0
  0
ENDBLK
  5
685
330
590
100
AcDbEntity
  8
0
100
AcDbBlockEnd
  0
BLOCK
  5
64F
330
59C
100
AcDbEntity
  8
0
100
AcDbBlockBegin
  2
*D10
 70
     1
 10
0.0
 20
0.0
 30
0.0
  3
*D10
  1

  0
LINE
  5
650
330
59C
100
AcDbEntity
  8
0
  6
BYBLOCK
 62
     4
100
AcDbLine
 10
628.7167187540963
 20
390.6742382145136
 30
0.0
 11
668.1339813998056
 21
390.6742382145136
 31
0.0
  0
LINE
  5
651
330
59C
100
AcDbEntity
  8
0
  6
BYBLOCK
 62
     4
100
AcDbLine
 10
566.4666187540963
 20
332.3743382145137
 30
0.0
 11
668.1339813998056
 21
332.3743382145137
 31
0.0
  0
LINE
  5
652
330
59C
100
AcDbEntity
  8
0
  6
BYBLOCK
 62
     4
100
AcDbLine
 10
665.1339813998056
 20
383.6742382145136
 30
0.0
 11
665.1339813998056
 21
339.3743382145137
 31
0.0
  0
INSERT
  5
653
330
59C
100
AcDbEntity
  8
0
  6
BYBLOCK
 62
     4
100
AcDbBlockReference
  2
_OPEN
 10
665.1339813998056
 20
390.6742382145136
 30
0.0
 41
7.0
 42
7.0
 43
7.0
 50
90.0
  0
INSERT
  5
654
330
59C
100
AcDbEntity
  8
0
  6
BYBLOCK
 62
     4
100
AcDbBlockReference
  2
_OPEN
 10
665.1339813998056
 20
332.3743382145137
 30
0.0
 41
7.0
 42
7.0
 43
7.0
 50
270.0
  0
MTEXT
  5
655
330
59C
100
AcDbEntity
  8
0
  6
BYBLOCK
 62
     4
100
AcDbMText
 10
660.1339813998056
 20
361.5242882145137
 30
0.0
 40
6.0
 41
0.0
 71
     5
 72
     1
  1
\A1;58
 11
0.0
 21
1.0
 31
0.0
1001
ACAD
1000
MTEXTBEGIN
1070
    73
1070
     1
1070
    44
1040
1.0
1070
    74
1070
     0
1000
MTEXTEND
1000
MTEXTBEGIN
1070
    73
1070
     1
1070
    44
1040
1.0
1070
    74
1070
     0
1000
MTEXTEND
  0
POINT
  5
656
330
59C
100
AcDbEntity
  8
DEFPOINTS
  6
BYBLOCK
 62
     0
100
AcDbPoint
 10
622.7167187540962
 20
390.6742382145136
 30
0.0
  0
POINT
  5
657
330
59C
100
AcDbEntity
  8
DEFPOINTS
  6
BYBLOCK
 62
     0
100
AcDbPoint
 10
560.4666187540963
 20
332.3743382145137
 30
0.0
  0
POINT
  5
658
330
59C
100
AcDbEntity
  8
DEFPOINTS
  6
BYBLOCK
 62
     0
100
AcDbPoint
 10
665.1339813998056
 20
332.3743382145137
 30
0.0
  0
ENDBLK
  5
659
330
59C
100
AcDbEntity
  8
0
100
AcDbBlockEnd
  0
ENDSEC
  0
SECTION
  2
ENTITIES
  0
TEXT
  5
11A
330
1A
100
AcDbEntity
  8
ZUWAKU
 62
     7
 48
10.0
100
AcDbText
 10
795.5579444309237
 20
4.974918402528146
 30
0.0
 40
8.0
  1
A1
100
AcDbText
  0
LINE
  5
11B
330
1A
100
AcDbEntity
  8
ZUWAKU
 62
     7
 48
10.0
100
AcDbLine
 10
10.05047808566086
 20
25.78258628282265
 30
0.0
 11
806.0504780856609
 21
25.78258628282253
 31
0.0
  0
LINE
  5
11C
330
1A
100
AcDbEntity
  8
ZUWAKU
  6
CONTINUOUS
 62
     7
100
AcDbLine
 10
806.0504780856609
 20
563.7825862828226
 30
0.0
 11
10.05047808566086
 21
563.7825862828226
 31
0.0
  0
LINE
  5
11D
330
1A
100
AcDbEntity
  8
ZUWAKU
  6
CONTINUOUS
 62
     7
100
AcDbLine
 10
806.0504780856609
 20
13.78258628282265
 30
0.0
 11
10.05047808566086
 21
13.78258628282265
 31
0.0
  0
LINE
  5
11E
330
1A
100
AcDbEntity
  8
ZUWAKU
  6
CONTINUOUS
 62
     7
100
AcDbLine
 10
10.05047808566086
 20
563.7825862828226
 30
0.0
 11
10.05047808566086
 21
13.78258628282265
 31
0.0
  0
LINE
  5
11F
330
1A
100
AcDbEntity
  8
ZUWAKU
 62
     7
 48
10.0
100
AcDbLine
 10
44.55797523147839
 20
13.78258628282265
 30
0.0
 11
44.5579752314784
 21
25.78258628282265
 31
0.0
  0
TEXT
  5
120
330
1A
100
AcDbEntity
  8
ZUWAKU
 62
     7
100
AcDbText
 10
16.05676551180931
 20
15.52294263804401
 30
0.0
 40
8.0
  1
品 種
100
AcDbText
  0
LINE
  5
121
330
1A
100
AcDbEntity
  8
ZUWAKU
 62
     7
 48
10.0
100
AcDbLine
 10
276.1028387068254
 20
13.78258628282265
 30
0.0
 11
276.1028387068254
 21
25.78258628282261
 31
0.0
  0
LINE
  5
122
330
1A
100
AcDbEntity
  8
ZUWAKU
 62
     7
 48
10.0
100
AcDbLine
 10
209.5138526425484
 20
13.78258628282265
 30
0.0
 11
209.5138526425485
 21
25.78258628282263
 31
0.0
  0
TEXT
  5
124
330
1A
100
AcDbEntity
  8
ZUWAKU
 62
     7
100
AcDbText
 10
215.4560837190756
 20
16.18358115302453
 30
0.0
 40
8.0
  1
品名・ｻ ｲ ｽﾞ
100
AcDbText
  0
LINE
  5
126
330
1A
100
AcDbEntity
  8
ZUWAKU
 62
     7
 48
10.0
100
AcDbLine
 10
768.7231079932794
 20
13.78258628282237
 30
0.0
 11
768.7231079932794
 21
25.78258628282254
 31
0.0
  0
LINE
  5
127
330
1A
100
AcDbEntity
  8
ZUWAKU
 62
     7
 48
10.0
100
AcDbLine
 10
733.8119002376948
 20
13.78258628282242
 30
0.0
 11
733.8119002376946
 21
25.78258628282254
 31
0.0
  0
TEXT
  5
128
330
1A
100
AcDbEntity
  8
ZUWAKU
 62
     7
100
AcDbText
 10
739.6955629973526
 20
15.24227755810852
 30
0.0
 40
8.0
  1
尺 度
100
AcDbText
  0
TEXT
  5
129
330
1A
100
AcDbEntity
  8
ZUWAKU
 62
     7
100
AcDbText
 10
779.7374630323229
 20
15.55488920081529
 30
0.0
 40
8.0
  1
1/2
100
AcDbText
  0
TEXT
  5
12B
330
1A
100
AcDbEntity
  8
ZUWAKU
 62
     7
100
AcDbText
 10
620.3363288383084
 20
15.6519090944263
 30
0.0
 40
8.0
  1
品 番
100
AcDbText
  0
LINE
  5
12C
330
1A
100
AcDbEntity
  8
ZUWAKU
 62
     7
 48
10.0
100
AcDbLine
 10
614.3351028194128
 20
13.78258628282232
 30
0.0
 11
614.3351028194128
 21
25.78258628282256
 31
0.0
  0
LINE
  5
12D
330
1A
100
AcDbEntity
  8
ZUWAKU
 62
     7
 48
10.0
100
AcDbLine
 10
648.7607587371021
 20
13.78258628282232
 30
0.0
 11
648.7607587371021
 21
25.78258628282255
 31
0.0
  0
TEXT
  5
12E
330
1A
100
AcDbEntity
  8
ZUWAKU
 62
     7
 48
10.0
100
AcDbText
 10
646.2758615931216
 20
4.949376903717848
 30
0.0
 40
8.0
  1
積水化学工業株式会社  建材
100
AcDbText
  0
LINE
  5
12F
330
1A
100
AcDbEntity
  8
ZUWAKU
  6
CONTINUOUS
 62
     7
100
AcDbLine
 10
806.0504780856609
 20
563.7825862828226
 30
0.0
 11
806.0504780856609
 21
13.78258628282265
 31
0.0
  0
DIMENSION
  5
37A
330
1A
100
AcDbEntity
  8
SUNPOU
  6
CONTINUOUS
100
AcDbDimension
  2
*D1
 10
417.1976849063908
 20
194.9980594835431
 30
0.0
 11
412.1976849063909
 21
206.4980094835431
 31
0.0
 12
-1.134753004899266
 22
-22.67627873097058
 32
0.0
 70
    32
  3
STANDARD
100
AcDbAlignedDimension
 13
527.5816657491969
 23
217.9979594835432
 33
0.0
 14
525.431565749197
 24
194.9980594835431
 34
0.0
 50
90.0
100
AcDbRotatedDimension
1001
ACAD
1000
DSTYLE
1002
{
1070
   140
1040
6.0
1070
    74
1070
     0
1070
   172
1070
     1
1070
    73
1070
     0
1070
   272
1070
     2
1070
    77
1070
     3
1070
    75
1070
     1
1070
   173
1070
     1
1070
   147
1040
2.0
1070
    42
1040
6.0
1070
    44
1040
3.0
1070
    43
1040
14.0
1070
   271
1070
     0
1070
   178
1070
     4
1070
   177
1070
     4
1070
   176
1070
     4
1070
   141
1040
150.0
1070
     7
1000
_OPEN
1070
     6
1000
_OPEN
1070
    41
1040
7.0
1002
}
  0
DIMENSION
  5
37B
330
1A
100
AcDbEntity
  8
SUNPOU
  6
CONTINUOUS
100
AcDbDimension
  2
*D2
 10
417.1976849063908
 20
217.9979594835432
 30
0.0
 11
412.1976849063909
 21
303.9982094835431
 31
0.0
 12
-1.134753004899266
 22
-22.67627873097058
 32
0.0
 70
    32
  3
STANDARD
100
AcDbAlignedDimension
 13
451.3321657491967
 23
389.998459483543
 33
0.0
 14
527.5816657491969
 24
217.9979594835432
 34
0.0
 50
90.0
100
AcDbRotatedDimension
1001
ACAD
1000
DSTYLE
1002
{
1070
   140
1040
6.0
1070
    74
1070
     0
1070
   172
1070
     1
1070
    73
1070
     0
1070
   272
1070
     2
1070
    77
1070
     3
1070
   173
1070
     1
1070
   147
1040
2.0
1070
    42
1040
6.0
1070
    44
1040
3.0
1070
    43
1040
14.0
1070
   271
1070
     0
1070
   178
1070
     4
1070
   177
1070
     4
1070
   176
1070
     4
1070
   141
1040
150.0
1070
     7
1000
_OPEN
1070
     6
1000
_OPEN
1070
    41
1040
7.0
1002
}
  0
DIMENSION
  5
37C
330
1A
100
AcDbEntity
  8
SUNPOU
  6
CONTINUOUS
100
AcDbDimension
  2
*D3
 10
397.0727980246397
 20
181.9980594835431
 30
0.0
 11
392.0727980246397
 21
285.9982594835431
 31
0.0
 12
-1.134753004899266
 22
-22.67627873097058
 32
0.0
 70
    32
  3
STANDARD
100
AcDbAlignedDimension
 13
451.3321657491967
 23
389.998459483543
 33
0.0
 14
530.1314657491968
 24
181.9980594835431
 34
0.0
 50
90.0
100
AcDbRotatedDimension
1001
ACAD
1000
DSTYLE
1002
{
1070
   140
1040
6.0
1070
    74
1070
     0
1070
   172
1070
     1
1070
    73
1070
     0
1070
   272
1070
     2
1070
    77
1070
     3
1070
   173
1070
     1
1070
   147
1040
2.0
1070
    42
1040
6.0
1070
    44
1040
3.0
1070
    43
1040
14.0
1070
   271
1070
     0
1070
   178
1070
     4
1070
   177
1070
     4
1070
   176
1070
     4
1070
   141
1040
150.0
1070
     7
1000
_OPEN
1070
     6
1000
_OPEN
1070
    41
1040
7.0
1002
}
  0
LINE
  5
37D
330
1A
100
AcDbEntity
  8
CENTER_L
  6
CENTER
 62
     1
 48
5.0
100
AcDbLine
 10
261.1716110815778
 20
396.9985594835432
 30
0.0
 11
261.1712496659677
 21
174.9986594837515
 31
0.0
  0
LINE
  5
37E
330
1A
100
AcDbEntity
  8
SEIHIN
  6
CONTINUOUS
 62
     3
 48
16.0
100
AcDbLine
 10
300.1706224848966
 20
309.0396594835431
 30
0.0
 11
304.1459224848967
 21
306.7446594835432
 31
0.0
  0
ARC
  5
37F
330
1A
100
AcDbEntity
  8
SEIHIN
  6
CONTINUOUS
 62
     3
 48
16.0
100
AcDbCircle
 10
244.1713068445679
 20
304.9987090377265
 30
0.0
 40
60.00001564051515
100
AcDbArc
 50
359.9998571863121
 51
11.94040156144004
  0
LINE
  5
380
330
1A
100
AcDbEntity
  8
SEIHIN
  6
CONTINUOUS
 62
     3
 48
16.0
100
AcDbLine
 10
290.1706224848967
 20
306.7307594835432
 30
0.0
 11
290.1706224848967
 21
314.8132594835432
 31
0.0
  0
LINE
  5
381
330
1A
100
AcDbEntity
  8
SEIHIN
  6
CONTINUOUS
 62
     3
 48
16.0
100
AcDbLine
 10
284.1713224848966
 20
306.7307594835432
 30
0.0
 11
284.1713224848966
 21
314.8132594835432
 31
0.0
  0
LINE
  5
382
330
1A
100
AcDbEntity
  8
SEIHIN
  6
CONTINUOUS
 62
     3
 48
16.0
100
AcDbLine
 10
293.1710224848967
 20
304.9984594835431
 30
0.0
 11
300.1706224848966
 21
309.0396594835431
 31
0.0
  0
LINE
  5
383
330
1A
100
AcDbEntity
  8
SEIHIN
  6
CONTINUOUS
 62
     3
 48
16.0
100
AcDbLine
 10
300.1706224848966
 20
309.0396594835431
 30
0.0
 11
293.1710224848967
 21
304.9984594835431
 31
0.0
  0
LINE
  5
384
330
1A
100
AcDbEntity
  8
SEIHIN
  6
CONTINUOUS
 62
     3
 48
16.0
100
AcDbLine
 10
325.1715224848967
 20
346.9985594835431
 30
0.0
 11
321.1715224848967
 21
301.9985594835432
 31
0.0
  0
LINE
  5
385
330
1A
100
AcDbEntity
  8
SEIHIN
  6
CONTINUOUS
 62
     3
 48
16.0
100
AcDbLine
 10
336.1715224848967
 20
346.9985594835431
 30
0.0
 11
332.1715224848967
 21
301.9985594835432
 31
0.0
  0
ARC
  5
386
330
1A
100
AcDbEntity
  8
SEIHIN
  6
CONTINUOUS
 62
     3
 48
16.0
100
AcDbCircle
 10
251.1713016900289
 20
304.9987126223801
 30
0.0
 40
60.00002079506314
100
AcDbArc
 50
359.9998537632334
 51
15.46575364730973
  0
ARC
  5
387
330
1A
100
AcDbEntity
  8
SEIHIN
  6
CONTINUOUS
 62
     3
 48
16.0
100
AcDbCircle
 10
247.6713050628189
 20
304.9987049595809
 30
0.0
 40
60.00001742225414
100
AcDbArc
 50
359.9998610806573
 51
13.6581930279111
  0
LINE
  5
388
330
1A
100
AcDbEntity
  8
SEIHIN
  6
CONTINUOUS
 62
     3
 48
16.0
100
AcDbLine
 10
267.1716224848967
 20
304.9985594835431
 30
0.0
 11
274.1713224848967
 21
309.0397594835432
 31
0.0
  0
LINE
  5
389
330
1A
100
AcDbEntity
  8
SEIHIN
  6
CONTINUOUS
 62
     3
 48
16.0
100
AcDbLine
 10
274.1713224848967
 20
309.0397594835432
 30
0.0
 11
267.1716224848967
 21
304.9985594835431
 31
0.0
  0
LINE
  5
38A
330
1A
100
AcDbEntity
  8
SEIHIN
  6
CONTINUOUS
 62
     3
 48
16.0
100
AcDbLine
 10
274.1713224848967
 20
309.0397594835432
 30
0.0
 11
281.1710224848967
 21
304.9984594835431
 31
0.0
  0
LINE
  5
38B
330
1A
100
AcDbEntity
  8
SEIHIN
  6
CONTINUOUS
 62
     3
 48
16.0
100
AcDbLine
 10
258.1716224848967
 20
306.7307594835432
 30
0.0
 11
258.1717224848967
 21
314.8133594835432
 31
0.0
  0
LINE
  5
38C
330
1A
100
AcDbEntity
  8
SEIHIN
  6
CONTINUOUS
 62
     3
 48
16.0
100
AcDbLine
 10
264.1713224848967
 20
306.7307594835432
 30
0.0
 11
264.1713224848967
 21
314.8133594835432
 31
0.0
  0
LINE
  5
38D
330
1A
100
AcDbEntity
  8
SEIHIN
  6
CONTINUOUS
 62
     3
 48
16.0
100
AcDbLine
 10
238.1716224848967
 20
306.7307594835432
 30
0.0
 11
238.1717224848966
 21
314.8132594835432
 31
0.0
  0
LINE
  5
38E
330
1A
100
AcDbEntity
  8
SEIHIN
  6
CONTINUOUS
 62
     3
 48
16.0
100
AcDbLine
 10
248.1716224848966
 20
309.0398594835432
 30
0.0
 11
241.1719224848967
 21
304.9985594835431
 31
0.0
  0
LINE
  5
38F
330
1A
100
AcDbEntity
  8
SEIHIN
  6
CONTINUOUS
 62
     3
 48
16.0
100
AcDbLine
 10
232.1723224848966
 20
306.7307594835432
 30
0.0
 11
232.1723224848966
 21
314.8132594835432
 31
0.0
  0
LINE
  5
390
330
1A
100
AcDbEntity
  8
SEIHIN
  6
CONTINUOUS
 62
     3
 48
16.0
100
AcDbLine
 10
222.1723224848966
 20
309.0398594835432
 30
0.0
 11
229.1719224848966
 21
304.9985594835431
 31
0.0
  0
LINE
  5
391
330
1A
100
AcDbEntity
  8
SEIHIN
  6
CONTINUOUS
 62
     3
 48
16.0
100
AcDbLine
 10
229.1719224848966
 20
304.9985594835431
 30
0.0
 11
222.1723224848966
 21
309.0398594835432
 31
0.0
  0
LINE
  5
392
330
1A
100
AcDbEntity
  8
SEIHIN
  6
CONTINUOUS
 62
     3
 48
16.0
100
AcDbLine
 10
248.1716224848966
 20
309.0398594835432
 30
0.0
 11
255.1713224848966
 21
304.9985594835431
 31
0.0
  0
LINE
  5
393
330
1A
100
AcDbEntity
  8
SEIHIN
  6
CONTINUOUS
 62
     3
 48
16.0
100
AcDbLine
 10
255.1713224848966
 20
304.9985594835431
 30
0.0
 11
248.1716224848966
 21
309.0398594835432
 31
0.0
  0
LINE
  5
394
330
1A
100
AcDbEntity
  8
SEIHIN
  6
CONTINUOUS
 62
     3
 48
16.0
100
AcDbLine
 10
186.1716224848967
 20
346.9987594835432
 30
0.0
 11
190.1714224848967
 21
301.9987594835432
 31
0.0
  0
LINE
  5
395
330
1A
100
AcDbEntity
  8
SEIHIN
  6
CONTINUOUS
 62
     3
 48
16.0
100
AcDbLine
 10
197.1716224848967
 20
346.9987594835432
 30
0.0
 11
201.1714224848967
 21
301.9987594835432
 31
0.0
  0
ARC
  5
396
330
1A
100
AcDbEntity
  8
SEIHIN
  6
CONTINUOUS
 62
     3
 48
16.0
100
AcDbCircle
 10
274.6716399069744
 20
304.9987049595816
 30
0.0
 40
60.00001742225405
100
AcDbArc
 50
166.3418069720895
 51
180.0001389193432
  0
ARC
  5
397
330
1A
100
AcDbEntity
  8
SEIHIN
  6
CONTINUOUS
 62
     3
 48
16.0
100
AcDbCircle
 10
271.1716432797644
 20
304.99871262238
 30
0.0
 40
60.00002079506316
100
AcDbArc
 50
164.5342463526901
 51
180.0001462367664
  0
LINE
  5
398
330
1A
100
AcDbEntity
  8
SEIHIN
  6
CONTINUOUS
 62
     3
 48
16.0
100
AcDbLine
 10
222.1723224848966
 20
309.0398594835432
 30
0.0
 11
218.1970224848967
 21
306.7447594835432
 31
0.0
  0
ARC
  5
399
330
1A
100
AcDbEntity
  8
SEIHIN
  6
CONTINUOUS
 62
     3
 48
16.0
100
AcDbCircle
 10
278.1716381252254
 20
304.9987090377271
 30
0.0
 40
60.00001564051508
100
AcDbArc
 50
168.0595984385606
 51
180.0001428136885
  0
TEXT
  5
39A
330
1A
100
AcDbEntity
  8
ZUWAKU
 62
     7
100
AcDbText
 10
50.3519382305086
 20
16.10306189639755
 30
0.0
 40
8.0
  1
丸トップ　のきとい
100
AcDbText
  0
TEXT
  5
39C
330
1A
100
AcDbEntity
  8
ZUWAKU
 62
     7
100
AcDbText
 10
282.3131429914078
 20
15.64241700452384
 30
0.0
 40
8.0
  1
華頭じょうご　１０５－ＵＴ６０
100
AcDbText
  0
LINE
  5
3A0
330
1A
100
AcDbEntity
  8
SEIHIN
  6
CONTINUOUS
 62
     3
 48
16.0
100
AcDbLine
 10
287.1710224848967
 20
301.534459483543
 30
0.0
 11
294.1707224848966
 21
297.4930594835432
 31
0.0
  0
LINE
  5
3A1
330
1A
100
AcDbEntity
  8
SEIHIN
  6
CONTINUOUS
 62
     3
 48
16.0
100
AcDbLine
 10
290.1706224848967
 20
306.7307594835432
 30
0.0
 11
297.1710224848967
 21
302.6890594835431
 31
0.0
  0
ARC
  5
3A2
330
1A
100
AcDbEntity
  8
SEIHIN
  6
CONTINUOUS
 62
     3
 48
16.0
100
AcDbCircle
 10
281.629020320801
 20
284.4340574603398
 30
0.0
 40
8.999952880154609
100
AcDbArc
 50
280.0192435762212
 51
346.1265141750784
  0
LINE
  5
3A3
330
1A
100
AcDbEntity
  8
SEIHIN
  6
CONTINUOUS
 62
     3
 48
16.0
100
AcDbLine
 10
287.1710224848967
 20
286.5236594835432
 30
0.0
 11
293.6847224848967
 21
282.7628594835431
 31
0.0
  0
LINE
  5
3A4
330
1A
100
AcDbEntity
  8
SEIHIN
  6
CONTINUOUS
 62
     3
 48
16.0
100
AcDbLine
 10
290.1706224848967
 20
291.7199594835432
 30
0.0
 11
297.1710224848967
 21
287.6782594835431
 31
0.0
  0
ARC
  5
3A5
330
1A
100
AcDbEntity
  8
SEIHIN
  6
CONTINUOUS
 62
     3
 48
16.0
100
AcDbCircle
 10
290.1544181146568
 20
295.2743559408498
 30
0.0
 40
12.99999645730741
100
AcDbArc
 50
270.0000192612586
 51
348.0592667555338
  0
LINE
  5
3A6
330
1A
100
AcDbEntity
  8
SEIHIN
  6
CONTINUOUS
 62
     3
 48
16.0
100
AcDbLine
 10
297.1710224848967
 20
299.2253594835431
 30
0.0
 11
290.1706224848967
 21
295.1836594835431
 31
0.0
  0
LINE
  5
3A7
330
1A
100
AcDbEntity
  8
SEIHIN
  6
CONTINUOUS
 62
     3
 48
16.0
100
AcDbLine
 10
290.1706224848967
 20
295.1837594835432
 30
0.0
 11
297.1710224848967
 21
299.2253594835431
 31
0.0
  0
LINE
  5
3A8
330
1A
100
AcDbEntity
  8
SEIHIN
  6
CONTINUOUS
 62
     3
 48
16.0
100
AcDbLine
 10
261.1714224848966
 20
197.9986594835432
 30
0.0
 11
298.0214224848967
 21
197.9984594835431
 31
0.0
  0
LINE
  5
3A9
330
1A
100
AcDbEntity
  8
SEIHIN
  6
CONTINUOUS
 62
     3
 48
16.0
100
AcDbLine
 10
261.1715224848967
 20
244.4986594835431
 30
0.0
 11
317.1712224848967
 21
244.4986594835431
 31
0.0
  0
LINE
  5
3AA
330
1A
100
AcDbEntity
  8
SEIHIN
  6
CONTINUOUS
 62
     3
 48
16.0
100
AcDbLine
 10
261.1715224848967
 20
217.9986594835432
 30
0.0
 11
298.1212224848967
 21
217.9986594835432
 31
0.0
  0
LINE
  5
3AB
330
1A
100
AcDbEntity
  8
SEIHIN
  6
CONTINUOUS
 62
     3
 48
16.0
100
AcDbLine
 10
261.1715224848967
 20
247.9986594835431
 30
0.0
 11
318.3038224848967
 21
247.9986594835431
 31
0.0
  0
LINE
  5
3AC
330
1A
100
AcDbEntity
  8
SEIHIN
  6
CONTINUOUS
 62
     3
 48
16.0
100
AcDbLine
 10
261.1715224848967
 20
254.9985594835431
 30
0.0
 11
306.0056224848966
 21
254.9985594835431
 31
0.0
  0
LINE
  5
3AD
330
1A
100
AcDbEntity
  8
SEIHIN
  6
CONTINUOUS
 62
     3
 48
16.0
100
AcDbLine
 10
261.1714224848966
 20
194.9986594835431
 30
0.0
 11
295.0714224848967
 21
194.9985594835432
 31
0.0
  0
ARC
  5
3AE
330
1A
100
AcDbEntity
  8
SEIHIN
  6
CONTINUOUS
 62
     3
 48
16.0
100
AcDbCircle
 10
262.374365216778
 20
525.1003594828683
 30
0.0
 40
299.9999992179782
100
AcDbArc
 50
263.6084438724591
 51
276.3912129964062
  0
ARC
  5
3AF
330
1A
100
AcDbEntity
  8
SEIHIN
  6
CONTINUOUS
 62
     3
 48
16.0
100
AcDbCircle
 10
285.1713571438154
 20
280.0198928200861
 30
0.0
 40
11.00000002230548
100
AcDbArc
 50
277.9855945949438
 51
349.7857040420532
  0
ARC
  5
3B0
330
1A
100
AcDbEntity
  8
SEIHIN
  6
CONTINUOUS
 62
     3
 48
16.0
100
AcDbCircle
 10
283.400124549038
 20
282.2444614409541
 30
0.0
 40
9.999989651744757
100
AcDbArc
 50
278.9916170912438
 51
347.9678563304077
  0
LINE
  5
3B1
330
1A
100
AcDbEntity
  8
SEIHIN
  6
CONTINUOUS
 62
     3
 48
16.0
100
AcDbLine
 10
224.3212224848967
 20
217.9986594835432
 30
0.0
 11
224.3212224848967
 21
197.9986594835432
 31
0.0
  0
LINE
  5
3B2
330
1A
100
AcDbEntity
  8
SEIHIN
  6
CONTINUOUS
 62
     3
 48
16.0
100
AcDbLine
 10
261.1712224848967
 20
197.9986594835432
 30
0.0
 11
224.3212224848967
 21
197.9986594835432
 31
0.0
  0
LINE
  5
3B3
330
1A
100
AcDbEntity
  8
SEIHIN
  6
CONTINUOUS
 62
     3
 48
16.0
100
AcDbLine
 10
261.1712224848967
 20
194.9986594835431
 30
0.0
 11
227.2711224848967
 21
194.9986594835431
 31
0.0
  0
LINE
  5
3B4
330
1A
100
AcDbEntity
  8
SEIHIN
  6
CONTINUOUS
 62
     3
 48
16.0
100
AcDbLine
 10
261.1712224848967
 20
181.9986594835432
 30
0.0
 11
231.9712224848966
 21
181.9986594835432
 31
0.0
  0
LINE
  5
3B5
330
1A
100
AcDbEntity
  8
SEIHIN
  6
CONTINUOUS
 62
     3
 48
16.0
100
AcDbLine
 10
231.9712224848966
 20
181.9987594835431
 30
0.0
 11
231.9712224848966
 21
194.9986594835431
 31
0.0
  0
LINE
  5
3B6
330
1A
100
AcDbEntity
  8
SEIHIN
  6
CONTINUOUS
 62
     3
 48
16.0
100
AcDbLine
 10
224.3212224848967
 20
197.9986594835432
 30
0.0
 11
227.2711224848967
 21
194.9986594835431
 31
0.0
  0
LINE
  5
3B7
330
1A
100
AcDbEntity
  8
SEIHIN
  6
CONTINUOUS
 62
     3
 48
16.0
100
AcDbLine
 10
290.3714224848967
 20
181.9986594835432
 30
0.0
 11
290.3714224848967
 21
194.9986594835431
 31
0.0
  0
LINE
  5
3B8
330
1A
100
AcDbEntity
  8
SEIHIN
  6
CONTINUOUS
 62
     3
 48
16.0
100
AcDbLine
 10
261.1713224848966
 20
181.9986594835432
 30
0.0
 11
290.3714224848967
 21
181.9985594835431
 31
0.0
  0
LINE
  5
3B9
330
1A
100
AcDbEntity
  8
SEIHIN
  6
CONTINUOUS
 62
     3
 48
16.0
100
AcDbLine
 10
222.1723224848966
 20
294.0291594835431
 30
0.0
 11
229.1719224848966
 21
289.9877594835432
 31
0.0
  0
LINE
  5
3BA
330
1A
100
AcDbEntity
  8
SEIHIN
  6
CONTINUOUS
 62
     3
 48
16.0
100
AcDbLine
 10
229.1719224848966
 20
289.9877594835432
 30
0.0
 11
222.1723224848966
 21
294.0291594835431
 31
0.0
  0
ARC
  5
3BB
330
1A
100
AcDbEntity
  8
SEIHIN
  6
CONTINUOUS
 62
     3
 48
16.0
100
AcDbCircle
 10
229.9724592949601
 20
294.1365287826243
 30
0.0
 40
14.0000231787548
100
AcDbArc
 50
193.6580051754079
 51
266.6830322570122
  0
ARC
  5
3BC
330
1A
100
AcDbEntity
  8
SEIHIN
  6
CONTINUOUS
 62
     3
 48
16.0
100
AcDbCircle
 10
227.8010304490177
 20
292.9985527888159
 30
0.0
 40
14.99994809874485
100
AcDbArc
 50
195.4656419489796
 51
264.4327394400109
  0
ARC
  5
3BD
330
1A
100
AcDbEntity
  8
SEIHIN
  6
CONTINUOUS
 62
     3
 48
16.0
100
AcDbCircle
 10
232.1885268551366
 20
295.2744559408498
 30
0.0
 40
12.9999964573075
100
AcDbArc
 50
191.9407332444652
 51
269.9999807387406
  0
LINE
  5
3BE
330
1A
100
AcDbEntity
  8
SEIHIN
  6
CONTINUOUS
 62
     3
 48
16.0
100
AcDbLine
 10
261.1713224848966
 20
247.9986594835431
 30
0.0
 11
204.0390224848967
 21
247.9987594835431
 31
0.0
  0
LINE
  5
3BF
330
1A
100
AcDbEntity
  8
SEIHIN
  6
CONTINUOUS
 62
     3
 48
16.0
100
AcDbLine
 10
261.1713224848966
 20
254.9985594835431
 30
0.0
 11
216.3371224848966
 21
254.9986594835431
 31
0.0
  0
LINE
  5
3C0
330
1A
100
AcDbEntity
  8
SEIHIN
  6
CONTINUOUS
 62
     3
 48
16.0
100
AcDbLine
 10
261.1712224848967
 20
244.4986594835431
 30
0.0
 11
205.1715224848967
 21
244.4987594835432
 31
0.0
  0
ARC
  5
3C1
330
1A
100
AcDbEntity
  8
SEIHIN
  6
CONTINUOUS
 62
     3
 48
16.0
100
AcDbCircle
 10
216.2260408215088
 20
218.2670411645847
 30
0.0
 40
7.999981380600402
100
AcDbArc
 50
358.078209194987
 51
91.97723274034292
  0
ARC
  5
3C2
330
1A
100
AcDbEntity
  8
SEIHIN
  6
CONTINUOUS
 62
     3
 48
16.0
100
AcDbCircle
 10
212.653632794391
 20
262.9987494914971
 30
0.0
 40
4.999997297007525
100
AcDbArc
 50
192.5879576325366
 51
259.2034502201842
  0
ARC
  5
3C3
330
1A
100
AcDbEntity
  8
SEIHIN
  6
CONTINUOUS
 62
     3
 48
16.0
100
AcDbCircle
 10
548.1217085489411
 20
340.360380287956
 30
0.0
 40
360.0000046677565
100
AcDbArc
 50
186.117167581259
 51
194.2463438135231
  0
ARC
  5
3C4
330
1A
100
AcDbEntity
  8
SEIHIN
  6
CONTINUOUS
 62
     3
 48
16.0
100
AcDbCircle
 10
184.3299573249033
 20
222.9203934069319
 30
0.0
 40
29.99994534752515
100
AcDbArc
 50
9.607579112233132
 51
45.99508266672541
  0
ARC
  5
3C5
330
1A
100
AcDbEntity
  8
SEIHIN
  6
CONTINUOUS
 62
     3
 48
16.0
100
AcDbCircle
 10
215.8810446062471
 20
228.261041436975
 30
0.0
 40
1.99997181107843
100
AcDbArc
 50
189.6072394962826
 51
271.9764904933634
  0
ARC
  5
3C6
330
1A
100
AcDbEntity
  8
SEIHIN
  6
CONTINUOUS
 62
     3
 48
16.0
100
AcDbCircle
 10
204.0390363255059
 20
252.9987487180199
 30
0.0
 40
4.999989234495975
100
AcDbArc
 50
194.2467536660251
 51
269.9998413979599
  0
LINE
  5
3C7
330
1A
100
AcDbEntity
  8
SEIHIN
  6
CONTINUOUS
 62
     3
 48
16.0
100
AcDbLine
 10
205.1715224848967
 20
244.4987594835432
 30
0.0
 11
205.1716224848966
 21
247.9987594835431
 31
0.0
  0
ARC
  5
3C8
330
1A
100
AcDbEntity
  8
SEIHIN
  6
CONTINUOUS
 62
     3
 48
16.0
100
AcDbCircle
 10
216.3371164794798
 20
259.9987634980399
 30
0.0
 40
5.000004014500351
100
AcDbArc
 50
202.4762536595763
 51
270.0000688169527
  0
ARC
  5
3C9
330
1A
100
AcDbEntity
  8
SEIHIN
  6
CONTINUOUS
 62
     3
 48
16.0
100
AcDbCircle
 10
559.121604800101
 20
340.3609668650988
 30
0.0
 40
359.9999640169806
100
AcDbArc
 50
186.1172621659197
 51
192.5870920712788
  0
ARC
  5
3CA
330
1A
100
AcDbEntity
  8
SEIHIN
  6
CONTINUOUS
 62
     3
 48
16.0
100
AcDbCircle
 10
274.6716281004378
 20
304.9984125929096
 30
0.0
 40
60.00000561555942
100
AcDbArc
 50
179.9999552227476
 51
193.6581943774886
  0
ARC
  5
3CB
330
1A
100
AcDbEntity
  8
SEIHIN
  6
CONTINUOUS
 62
     3
 48
16.0
100
AcDbCircle
 10
271.171643279764
 20
304.9983063447062
 30
0.0
 40
60.00002079506273
100
AcDbArc
 50
179.9998537632335
 51
195.4657536473098
  0
ARC
  5
3CC
330
1A
100
AcDbEntity
  8
SEIHIN
  6
CONTINUOUS
 62
     3
 48
16.0
100
AcDbCircle
 10
278.1716277804374
 20
304.9984088467199
 30
0.0
 40
60.00000529556204
100
AcDbArc
 50
179.9999516454
 51
191.9404025937767
  0
LINE
  5
3CD
330
1A
100
AcDbEntity
  8
SEIHIN
  6
CONTINUOUS
 62
     3
 48
16.0
100
AcDbLine
 10
222.1723224848966
 20
294.0291594835431
 30
0.0
 11
219.4920224848967
 21
292.4816594835431
 31
0.0
  0
LINE
  5
3CE
330
1A
100
AcDbEntity
  8
SEIHIN
  6
CONTINUOUS
 62
     3
 48
16.0
100
AcDbLine
 10
219.1726224848967
 20
299.2254594835431
 30
0.0
 11
219.1726224848967
 21
307.307959483543
 31
0.0
  0
LINE
  5
3CF
330
1A
100
AcDbEntity
  8
SEIHIN
  6
CONTINUOUS
 62
     3
 48
16.0
100
AcDbLine
 10
219.1726224848967
 20
299.2254594835431
 30
0.0
 11
218.4894224848967
 21
298.8309594835432
 31
0.0
  0
LINE
  5
3D0
330
1A
100
AcDbEntity
  8
SEIHIN
  6
CONTINUOUS
 62
     3
 48
16.0
100
AcDbLine
 10
261.1712224848967
 20
217.9986594835432
 30
0.0
 11
224.2215224848966
 21
217.9986594835432
 31
0.0
  0
LINE
  5
3D1
330
1A
100
AcDbEntity
  8
SEIHIN
  6
CONTINUOUS
 62
     3
 48
16.0
100
AcDbLine
 10
261.1713224848966
 20
301.5343594835432
 30
0.0
 11
254.1715224848967
 21
297.493159483543
 31
0.0
  0
LINE
  5
3D2
330
1A
100
AcDbEntity
  8
SEIHIN
  6
CONTINUOUS
 62
     3
 48
16.0
100
AcDbLine
 10
258.1716224848967
 20
306.7307594835432
 30
0.0
 11
251.1713224848967
 21
302.6890594835431
 31
0.0
  0
LINE
  5
3D3
330
1A
100
AcDbEntity
  8
SEIHIN
  6
CONTINUOUS
 62
     3
 48
16.0
100
AcDbLine
 10
258.1716224848967
 20
291.720059483543
 30
0.0
 11
251.1712224848967
 21
287.6783594835432
 31
0.0
  0
LINE
  5
3D4
330
1A
100
AcDbEntity
  8
SEIHIN
  6
CONTINUOUS
 62
     3
 48
16.0
100
AcDbLine
 10
251.1712224848967
 20
284.2145594835431
 30
0.0
 11
258.1716224848967
 21
280.1729594835432
 31
0.0
  0
LINE
  5
3D5
330
1A
100
AcDbEntity
  8
SEIHIN
  6
CONTINUOUS
 62
     3
 48
16.0
100
AcDbLine
 10
258.1716224848967
 20
280.1729594835432
 30
0.0
 11
251.1712224848967
 21
284.2145594835431
 31
0.0
  0
LINE
  5
3D6
330
1A
100
AcDbEntity
  8
SEIHIN
  6
CONTINUOUS
 62
     3
 48
16.0
100
AcDbLine
 10
261.1712224848967
 20
286.5236594835432
 30
0.0
 11
254.1715224848967
 21
282.482359483543
 31
0.0
  0
LINE
  5
3D7
330
1A
100
AcDbEntity
  8
SEIHIN
  6
CONTINUOUS
 62
     3
 48
16.0
100
AcDbLine
 10
258.1716224848967
 20
295.1837594835432
 30
0.0
 11
251.1713224848967
 21
299.2253594835431
 31
0.0
  0
LINE
  5
3D8
330
1A
100
AcDbEntity
  8
SEIHIN
  6
CONTINUOUS
 62
     3
 48
16.0
100
AcDbLine
 10
251.1713224848967
 20
299.2253594835431
 30
0.0
 11
258.1716224848967
 21
295.1837594835432
 31
0.0
  0
ARC
  5
3D9
330
1A
100
AcDbEntity
  8
SEIHIN
  6
CONTINUOUS
 62
     3
 48
16.0
100
AcDbCircle
 10
221.7506010896295
 20
173.5962790468789
 30
0.0
 40
100.0000463441468
100
AcDbArc
 50
66.78372156932647
 51
81.0084301160001
  0
ARC
  5
3DA
330
1A
100
AcDbEntity
  8
SEIHIN
  6
CONTINUOUS
 62
     3
 48
16.0
100
AcDbCircle
 10
221.7504863448713
 20
170.0963137296225
 30
0.0
 40
100.0000597026971
100
AcDbArc
 50
66.78365331567936
 51
82.01433847493646
  0
LINE
  5
3DB
330
1A
100
AcDbEntity
  8
SEIHIN
  6
CONTINUOUS
 62
     3
 48
16.0
100
AcDbLine
 10
258.1715224848966
 20
276.7092594835431
 30
0.0
 11
251.1712224848967
 21
272.6675594835431
 31
0.0
  0
ARC
  5
3DC
330
1A
100
AcDbEntity
  8
SEIHIN
  6
CONTINUOUS
 62
     3
 48
16.0
100
AcDbCircle
 10
221.7503107680785
 20
177.0963629804293
 30
0.0
 40
99.9999917511252
100
AcDbArc
 50
66.78352715358326
 51
79.98097737912148
  0
LINE
  5
3DD
330
1A
100
AcDbEntity
  8
SEIHIN
  6
CONTINUOUS
 62
     3
 48
16.0
100
AcDbLine
 10
251.1712224848967
 20
284.2145594835431
 30
0.0
 11
251.1712224848967
 21
292.2971594835432
 31
0.0
  0
LINE
  5
3DE
330
1A
100
AcDbEntity
  8
SEIHIN
  6
CONTINUOUS
 62
     3
 48
16.0
100
AcDbLine
 10
242.1716224848967
 20
282.4824594835432
 30
0.0
 11
235.1719224848967
 21
286.5236594835432
 31
0.0
  0
LINE
  5
3DF
330
1A
100
AcDbEntity
  8
SEIHIN
  6
CONTINUOUS
 62
     3
 48
16.0
100
AcDbLine
 10
235.1719224848967
 20
286.5236594835432
 30
0.0
 11
242.1716224848967
 21
282.4824594835432
 31
0.0
  0
LINE
  5
3E0
330
1A
100
AcDbEntity
  8
SEIHIN
  6
CONTINUOUS
 62
     3
 48
16.0
100
AcDbLine
 10
245.1719224848967
 20
284.2146594835432
 30
0.0
 11
245.1719224848967
 21
292.2972594835432
 31
0.0
  0
LINE
  5
3E1
330
1A
100
AcDbEntity
  8
SEIHIN
  6
CONTINUOUS
 62
     3
 48
16.0
100
AcDbLine
 10
225.1719224848967
 20
284.2146594835432
 30
0.0
 11
225.1719224848967
 21
292.2972594835432
 31
0.0
  0
LINE
  5
3E2
330
1A
100
AcDbEntity
  8
SEIHIN
  6
CONTINUOUS
 62
     3
 48
16.0
100
AcDbLine
 10
235.1719224848967
 20
286.5236594835432
 30
0.0
 11
228.6581224848967
 21
282.7629594835432
 31
0.0
  0
LINE
  5
3E3
330
1A
100
AcDbEntity
  8
SEIHIN
  6
CONTINUOUS
 62
     3
 48
16.0
100
AcDbLine
 10
238.1715224848967
 20
276.7092594835431
 30
0.0
 11
240.6088224848966
 21
275.3021594835432
 31
0.0
  0
LINE
  5
3E4
330
1A
100
AcDbEntity
  8
SEIHIN
  6
CONTINUOUS
 62
     3
 48
16.0
100
AcDbLine
 10
245.1719224848967
 20
284.2146594835432
 30
0.0
 11
238.1716224848967
 21
280.1729594835432
 31
0.0
  0
ARC
  5
3E5
330
1A
100
AcDbEntity
  8
SEIHIN
  6
CONTINUOUS
 62
     3
 48
16.0
100
AcDbCircle
 10
238.9427337771634
 20
282.2444487750598
 30
0.0
 40
9.999979228982756
100
AcDbArc
 50
192.0314963691911
 51
261.0082959804151
  0
ARC
  5
3E6
330
1A
100
AcDbEntity
  8
SEIHIN
  6
CONTINUOUS
 62
     3
 48
16.0
100
AcDbCircle
 10
237.1715963641314
 20
280.0199846079236
 30
0.0
 40
11.00000696888
100
AcDbArc
 50
190.214245974783
 51
262.0138396016249
  0
LINE
  5
3E7
330
1A
100
AcDbEntity
  8
SEIHIN
  6
CONTINUOUS
 62
     3
 48
16.0
100
AcDbLine
 10
226.1715224848967
 20
277.9986594835431
 30
0.0
 11
226.2727224848967
 21
278.0767594835432
 31
0.0
  0
LINE
  5
3E8
330
1A
100
AcDbEntity
  8
SEIHIN
  6
CONTINUOUS
 62
     3
 48
16.0
100
AcDbLine
 10
238.1715224848967
 20
276.7092594835431
 30
0.0
 11
238.1716224848967
 21
284.7917594835432
 31
0.0
  0
LINE
  5
3E9
330
1A
100
AcDbEntity
  8
SEIHIN
  6
CONTINUOUS
 62
     3
 48
16.0
100
AcDbLine
 10
232.1722224848967
 20
281.5984594835431
 30
0.0
 11
232.1722224848967
 21
284.7917594835432
 31
0.0
  0
ARC
  5
3EA
330
1A
100
AcDbEntity
  8
SEIHIN
  6
CONTINUOUS
 62
     3
 48
16.0
100
AcDbCircle
 10
240.7139255812529
 20
284.4341565887718
 30
0.0
 40
9.00005065902455
100
AcDbArc
 50
193.8733263681026
 51
259.9808603718421
  0
LINE
  5
3EB
330
1A
100
AcDbEntity
  8
SEIHIN
  6
CONTINUOUS
 62
     3
 48
16.0
100
AcDbLine
 10
248.1716224848966
 20
279.0183594835432
 30
0.0
 11
241.1718224848967
 21
274.9769594835433
 31
0.0
  0
LINE
  5
3EC
330
1A
100
AcDbEntity
  8
SEIHIN
  6
CONTINUOUS
 62
     3
 48
16.0
100
AcDbLine
 10
255.1712224848967
 20
274.9769594835433
 30
0.0
 11
248.1716224848966
 21
279.0183594835432
 31
0.0
  0
LINE
  5
3ED
330
1A
100
AcDbEntity
  8
SEIHIN
  6
CONTINUOUS
 62
     3
 48
16.0
100
AcDbLine
 10
248.1716224848966
 20
279.0183594835432
 30
0.0
 11
255.1712224848967
 21
274.9769594835433
 31
0.0
  0
LINE
  5
3EE
330
1A
100
AcDbEntity
  8
SEIHIN
  6
CONTINUOUS
 62
     3
 48
16.0
100
AcDbLine
 10
235.1719224848967
 20
301.534459483543
 30
0.0
 11
242.1716224848967
 21
297.493159483543
 31
0.0
  0
LINE
  5
3EF
330
1A
100
AcDbEntity
  8
SEIHIN
  6
CONTINUOUS
 62
     3
 48
16.0
100
AcDbLine
 10
242.1716224848967
 20
297.493159483543
 30
0.0
 11
235.1719224848967
 21
301.534459483543
 31
0.0
  0
LINE
  5
3F0
330
1A
100
AcDbEntity
  8
SEIHIN
  6
CONTINUOUS
 62
     3
 48
16.0
100
AcDbLine
 10
245.1719224848967
 20
302.6891594835432
 30
0.0
 11
238.1716224848967
 21
306.7308594835432
 31
0.0
  0
LINE
  5
3F1
330
1A
100
AcDbEntity
  8
SEIHIN
  6
CONTINUOUS
 62
     3
 48
16.0
100
AcDbLine
 10
238.1716224848967
 20
306.7307594835432
 30
0.0
 11
245.1719224848967
 21
302.6890594835431
 31
0.0
  0
LINE
  5
3F2
330
1A
100
AcDbEntity
  8
SEIHIN
  6
CONTINUOUS
 62
     3
 48
16.0
100
AcDbLine
 10
245.1719224848967
 20
287.6783594835432
 30
0.0
 11
238.1716224848967
 21
291.720059483543
 31
0.0
  0
LINE
  5
3F3
330
1A
100
AcDbEntity
  8
SEIHIN
  6
CONTINUOUS
 62
     3
 48
16.0
100
AcDbLine
 10
238.1716224848967
 20
291.720059483543
 30
0.0
 11
245.1719224848967
 21
287.6783594835432
 31
0.0
  0
LINE
  5
3F4
330
1A
100
AcDbEntity
  8
SEIHIN
  6
CONTINUOUS
 62
     3
 48
16.0
100
AcDbLine
 10
245.1719224848967
 20
299.2253594835431
 30
0.0
 11
238.1716224848967
 21
295.1837594835432
 31
0.0
  0
LINE
  5
3F5
330
1A
100
AcDbEntity
  8
SEIHIN
  6
CONTINUOUS
 62
     3
 48
16.0
100
AcDbLine
 10
232.1723224848966
 20
295.1837594835432
 30
0.0
 11
225.1719224848967
 21
299.2254594835431
 31
0.0
  0
LINE
  5
3F6
330
1A
100
AcDbEntity
  8
SEIHIN
  6
CONTINUOUS
 62
     3
 48
16.0
100
AcDbLine
 10
225.1719224848967
 20
299.2254594835431
 30
0.0
 11
232.1723224848966
 21
295.1836594835431
 31
0.0
  0
LINE
  5
3F7
330
1A
100
AcDbEntity
  8
SEIHIN
  6
CONTINUOUS
 62
     3
 48
16.0
100
AcDbLine
 10
232.1722224848967
 20
291.720059483543
 30
0.0
 11
232.1723224848966
 21
299.8026594835432
 31
0.0
  0
LINE
  5
3F8
330
1A
100
AcDbEntity
  8
SEIHIN
  6
CONTINUOUS
 62
     3
 48
16.0
100
AcDbLine
 10
238.1716224848967
 20
291.720059483543
 30
0.0
 11
238.1716224848967
 21
299.8026594835432
 31
0.0
  0
LINE
  5
3F9
330
1A
100
AcDbEntity
  8
SEIHIN
  6
CONTINUOUS
 62
     3
 48
16.0
100
AcDbLine
 10
232.1722224848967
 20
291.720059483543
 30
0.0
 11
225.1719224848967
 21
287.6783594835432
 31
0.0
  0
LINE
  5
3FA
330
1A
100
AcDbEntity
  8
SEIHIN
  6
CONTINUOUS
 62
     3
 48
16.0
100
AcDbLine
 10
232.1723224848966
 20
306.7307594835432
 30
0.0
 11
225.1719224848967
 21
302.6891594835432
 31
0.0
  0
LINE
  5
3FB
330
1A
100
AcDbEntity
  8
SEIHIN
  6
CONTINUOUS
 62
     3
 48
16.0
100
AcDbLine
 10
235.1719224848967
 20
301.534459483543
 30
0.0
 11
228.1722224848967
 21
297.493159483543
 31
0.0
  0
LINE
  5
3FC
330
1A
100
AcDbEntity
  8
SEIHIN
  6
CONTINUOUS
 62
     3
 48
16.0
100
AcDbLine
 10
225.1719224848967
 20
299.2254594835431
 30
0.0
 11
225.1719224848967
 21
307.307959483543
 31
0.0
  0
LINE
  5
3FD
330
1A
100
AcDbEntity
  8
SEIHIN
  6
CONTINUOUS
 62
     3
 48
16.0
100
AcDbLine
 10
248.1716224848966
 20
294.0291594835431
 30
0.0
 11
241.1718224848967
 21
289.9877594835432
 31
0.0
  0
LINE
  5
3FE
330
1A
100
AcDbEntity
  8
SEIHIN
  6
CONTINUOUS
 62
     3
 48
16.0
100
AcDbLine
 10
248.1716224848966
 20
294.0291594835431
 30
0.0
 11
255.1712224848967
 21
289.9877594835432
 31
0.0
  0
LINE
  5
3FF
330
1A
100
AcDbEntity
  8
SEIHIN
  6
CONTINUOUS
 62
     3
 48
16.0
100
AcDbLine
 10
255.1712224848967
 20
289.9877594835432
 30
0.0
 11
248.1716224848966
 21
294.0291594835431
 31
0.0
  0
LINE
  5
400
330
1A
100
AcDbEntity
  8
SEIHIN
  6
CONTINUOUS
 62
     3
 48
16.0
100
AcDbLine
 10
245.1719224848967
 20
299.2253594835431
 30
0.0
 11
245.1719224848967
 21
307.307959483543
 31
0.0
  0
LINE
  5
401
330
1A
100
AcDbEntity
  8
SEIHIN
  6
CONTINUOUS
 62
     3
 48
16.0
100
AcDbLine
 10
251.1713224848967
 20
299.2253594835431
 30
0.0
 11
251.1713224848967
 21
307.307959483543
 31
0.0
  0
LINE
  5
402
330
1A
100
AcDbEntity
  8
SEIHIN
  6
CONTINUOUS
 62
     3
 48
16.0
100
AcDbLine
 10
277.1710224848967
 20
284.2145594835431
 30
0.0
 11
277.1710224848967
 21
292.2971594835432
 31
0.0
  0
LINE
  5
403
330
1A
100
AcDbEntity
  8
SEIHIN
  6
CONTINUOUS
 62
     3
 48
16.0
100
AcDbLine
 10
271.1716224848966
 20
284.2145594835431
 30
0.0
 11
271.1716224848966
 21
292.2971594835432
 31
0.0
  0
LINE
  5
404
330
1A
100
AcDbEntity
  8
SEIHIN
  6
CONTINUOUS
 62
     3
 48
16.0
100
AcDbLine
 10
261.1716224848967
 20
286.5236594835432
 30
0.0
 11
268.1713224848967
 21
282.482359483543
 31
0.0
  0
LINE
  5
405
330
1A
100
AcDbEntity
  8
SEIHIN
  6
CONTINUOUS
 62
     3
 48
16.0
100
AcDbLine
 10
280.1713224848966
 20
282.482359483543
 30
0.0
 11
287.1710224848967
 21
286.5236594835432
 31
0.0
  0
LINE
  5
406
330
1A
100
AcDbEntity
  8
SEIHIN
  6
CONTINUOUS
 62
     3
 48
16.0
100
AcDbLine
 10
287.1710224848967
 20
286.5236594835432
 30
0.0
 11
280.1713224848966
 21
282.482359483543
 31
0.0
  0
LINE
  5
407
330
1A
100
AcDbEntity
  8
SEIHIN
  6
CONTINUOUS
 62
     3
 48
16.0
100
AcDbLine
 10
267.1716224848967
 20
274.9769594835433
 30
0.0
 11
274.1713224848967
 21
279.0182594835432
 31
0.0
  0
LINE
  5
408
330
1A
100
AcDbEntity
  8
SEIHIN
  6
CONTINUOUS
 62
     3
 48
16.0
100
AcDbLine
 10
274.1713224848967
 20
279.0182594835432
 30
0.0
 11
267.1716224848967
 21
274.9769594835433
 31
0.0
  0
ARC
  5
409
330
1A
100
AcDbEntity
  8
SEIHIN
  6
CONTINUOUS
 62
     3
 48
16.0
100
AcDbCircle
 10
300.5924853606911
 20
170.0963328850124
 30
0.0
 40
99.99998709520898
100
AcDbArc
 50
97.98585640010374
 51
113.2165682297197
  0
ARC
  5
40A
330
1A
100
AcDbEntity
  8
SEIHIN
  6
CONTINUOUS
 62
     3
 48
16.0
100
AcDbCircle
 10
300.5923927485153
 20
173.5963086406354
 30
0.0
 40
99.99997286792389
100
AcDbArc
 50
98.99177891930063
 51
113.2165139878538
  0
ARC
  5
40B
330
1A
100
AcDbEntity
  8
SEIHIN
  6
CONTINUOUS
 62
     3
 48
16.0
100
AcDbCircle
 10
300.5918703193178
 20
177.0961543803092
 30
0.0
 40
100.0000005952327
100
AcDbArc
 50
100.0186936417288
 51
113.2161814689624
  0
LINE
  5
40C
330
1A
100
AcDbEntity
  8
SEIHIN
  6
CONTINUOUS
 62
     3
 48
16.0
100
AcDbLine
 10
264.1713224848967
 20
276.7092594835431
 30
0.0
 11
271.1716224848966
 21
272.6675594835431
 31
0.0
  0
LINE
  5
40D
330
1A
100
AcDbEntity
  8
SEIHIN
  6
CONTINUOUS
 62
     3
 48
16.0
100
AcDbLine
 10
261.1716224848967
 20
271.5129594835432
 30
0.0
 11
263.7111224848967
 21
270.0467594835432
 31
0.0
  0
LINE
  5
40E
330
1A
100
AcDbEntity
  8
SEIHIN
  6
CONTINUOUS
 62
     3
 48
16.0
100
AcDbLine
 10
261.1712224848967
 20
271.5129594835432
 30
0.0
 11
258.6317224848968
 21
270.0467594835432
 31
0.0
  0
LINE
  5
40F
330
1A
100
AcDbEntity
  8
SEIHIN
  6
CONTINUOUS
 62
     3
 48
16.0
100
AcDbLine
 10
271.1716224848966
 20
284.2145594835431
 30
0.0
 11
264.1713224848967
 21
280.1729594835432
 31
0.0
  0
LINE
  5
410
330
1A
100
AcDbEntity
  8
SEIHIN
  6
CONTINUOUS
 62
     3
 48
16.0
100
AcDbLine
 10
264.1713224848967
 20
280.1729594835432
 30
0.0
 11
271.1716224848966
 21
284.2146594835432
 31
0.0
  0
LINE
  5
411
330
1A
100
AcDbEntity
  8
SEIHIN
  6
CONTINUOUS
 62
     3
 48
16.0
100
AcDbLine
 10
264.1713224848967
 20
276.7092594835431
 30
0.0
 11
264.1713224848967
 21
284.7917594835432
 31
0.0
  0
LINE
  5
412
330
1A
100
AcDbEntity
  8
SEIHIN
  6
CONTINUOUS
 62
     3
 48
16.0
100
AcDbLine
 10
258.1715224848966
 20
276.7092594835431
 30
0.0
 11
258.1716224848967
 21
284.7917594835432
 31
0.0
  0
LINE
  5
413
330
1A
100
AcDbEntity
  8
SEIHIN
  6
CONTINUOUS
 62
     3
 48
16.0
100
AcDbLine
 10
284.1713224848966
 20
276.7092594835431
 30
0.0
 11
281.7340224848967
 21
275.3020594835431
 31
0.0
  0
LINE
  5
414
330
1A
100
AcDbEntity
  8
SEIHIN
  6
CONTINUOUS
 62
     3
 48
16.0
100
AcDbLine
 10
277.1710224848967
 20
284.2145594835431
 30
0.0
 11
284.1713224848966
 21
280.1729594835432
 31
0.0
  0
LINE
  5
415
330
1A
100
AcDbEntity
  8
SEIHIN
  6
CONTINUOUS
 62
     3
 48
16.0
100
AcDbLine
 10
274.1713224848967
 20
279.0182594835432
 30
0.0
 11
281.1710224848967
 21
274.9769594835433
 31
0.0
  0
LINE
  5
416
330
1A
100
AcDbEntity
  8
SEIHIN
  6
CONTINUOUS
 62
     3
 48
16.0
100
AcDbLine
 10
290.1706224848967
 20
281.5984594835431
 30
0.0
 11
290.1706224848967
 21
284.7917594835432
 31
0.0
  0
LINE
  5
417
330
1A
100
AcDbEntity
  8
SEIHIN
  6
CONTINUOUS
 62
     3
 48
16.0
100
AcDbLine
 10
284.1713224848966
 20
276.7092594835431
 30
0.0
 11
284.1713224848966
 21
284.7917594835432
 31
0.0
  0
LINE
  5
418
330
1A
100
AcDbEntity
  8
SEIHIN
  6
CONTINUOUS
 62
     3
 48
16.0
100
AcDbLine
 10
267.1716224848967
 20
289.9877594835432
 30
0.0
 11
274.1713224848967
 21
294.0290594835433
 31
0.0
  0
LINE
  5
419
330
1A
100
AcDbEntity
  8
SEIHIN
  6
CONTINUOUS
 62
     3
 48
16.0
100
AcDbLine
 10
274.1713224848967
 20
294.0290594835433
 30
0.0
 11
267.1716224848967
 21
289.9877594835432
 31
0.0
  0
LINE
  5
41A
330
1A
100
AcDbEntity
  8
SEIHIN
  6
CONTINUOUS
 62
     3
 48
16.0
100
AcDbLine
 10
271.1716224848966
 20
299.2253594835431
 30
0.0
 11
264.1713224848967
 21
295.1837594835432
 31
0.0
  0
LINE
  5
41B
330
1A
100
AcDbEntity
  8
SEIHIN
  6
CONTINUOUS
 62
     3
 48
16.0
100
AcDbLine
 10
264.1713224848967
 20
295.1837594835432
 30
0.0
 11
271.1716224848966
 21
299.2253594835431
 31
0.0
  0
LINE
  5
41C
330
1A
100
AcDbEntity
  8
SEIHIN
  6
CONTINUOUS
 62
     3
 48
16.0
100
AcDbLine
 10
264.1713224848967
 20
291.720059483543
 30
0.0
 11
264.1713224848967
 21
299.8026594835432
 31
0.0
  0
LINE
  5
41D
330
1A
100
AcDbEntity
  8
SEIHIN
  6
CONTINUOUS
 62
     3
 48
16.0
100
AcDbLine
 10
258.1716224848967
 20
291.720059483543
 30
0.0
 11
258.1716224848967
 21
299.8026594835432
 31
0.0
  0
LINE
  5
41E
330
1A
100
AcDbEntity
  8
SEIHIN
  6
CONTINUOUS
 62
     3
 48
16.0
100
AcDbLine
 10
264.1713224848967
 20
291.720059483543
 30
0.0
 11
271.1716224848966
 21
287.6783594835432
 31
0.0
  0
LINE
  5
41F
330
1A
100
AcDbEntity
  8
SEIHIN
  6
CONTINUOUS
 62
     3
 48
16.0
100
AcDbLine
 10
264.1713224848967
 20
306.7307594835432
 30
0.0
 11
271.1716224848966
 21
302.6890594835431
 31
0.0
  0
LINE
  5
420
330
1A
100
AcDbEntity
  8
SEIHIN
  6
CONTINUOUS
 62
     3
 48
16.0
100
AcDbLine
 10
261.1716224848967
 20
301.534459483543
 30
0.0
 11
268.1713224848967
 21
297.493159483543
 31
0.0
  0
LINE
  5
421
330
1A
100
AcDbEntity
  8
SEIHIN
  6
CONTINUOUS
 62
     3
 48
16.0
100
AcDbLine
 10
271.1716224848966
 20
299.2253594835431
 30
0.0
 11
271.1716224848966
 21
307.307959483543
 31
0.0
  0
LINE
  5
422
330
1A
100
AcDbEntity
  8
SEIHIN
  6
CONTINUOUS
 62
     3
 48
16.0
100
AcDbLine
 10
290.1706224848967
 20
291.7199594835432
 30
0.0
 11
290.1706224848967
 21
299.802559483543
 31
0.0
  0
LINE
  5
423
330
1A
100
AcDbEntity
  8
SEIHIN
  6
CONTINUOUS
 62
     3
 48
16.0
100
AcDbLine
 10
284.1713224848966
 20
291.7199594835432
 30
0.0
 11
284.1713224848966
 21
299.802559483543
 31
0.0
  0
LINE
  5
424
330
1A
100
AcDbEntity
  8
SEIHIN
  6
CONTINUOUS
 62
     3
 48
16.0
100
AcDbLine
 10
277.1710224848967
 20
299.2253594835431
 30
0.0
 11
284.1713224848966
 21
295.1837594835432
 31
0.0
  0
LINE
  5
425
330
1A
100
AcDbEntity
  8
SEIHIN
  6
CONTINUOUS
 62
     3
 48
16.0
100
AcDbLine
 10
284.1713224848966
 20
291.7199594835432
 30
0.0
 11
277.1710224848967
 21
287.6782594835431
 31
0.0
  0
LINE
  5
426
330
1A
100
AcDbEntity
  8
SEIHIN
  6
CONTINUOUS
 62
     3
 48
16.0
100
AcDbLine
 10
277.1710224848967
 20
287.6783594835432
 30
0.0
 11
284.1713224848966
 21
291.7199594835432
 31
0.0
  0
LINE
  5
427
330
1A
100
AcDbEntity
  8
SEIHIN
  6
CONTINUOUS
 62
     3
 48
16.0
100
AcDbLine
 10
274.1713224848967
 20
294.0290594835433
 30
0.0
 11
281.1710224848967
 21
289.9877594835432
 31
0.0
  0
LINE
  5
428
330
1A
100
AcDbEntity
  8
SEIHIN
  6
CONTINUOUS
 62
     3
 48
16.0
100
AcDbLine
 10
284.1713224848966
 20
306.7307594835432
 30
0.0
 11
277.1710224848967
 21
302.6890594835431
 31
0.0
  0
LINE
  5
429
330
1A
100
AcDbEntity
  8
SEIHIN
  6
CONTINUOUS
 62
     3
 48
16.0
100
AcDbLine
 10
277.1710224848967
 20
302.6890594835431
 30
0.0
 11
284.1713224848966
 21
306.7307594835432
 31
0.0
  0
LINE
  5
42A
330
1A
100
AcDbEntity
  8
SEIHIN
  6
CONTINUOUS
 62
     3
 48
16.0
100
AcDbLine
 10
280.1713224848966
 20
297.4930594835432
 30
0.0
 11
287.1710224848967
 21
301.534459483543
 31
0.0
  0
LINE
  5
42B
330
1A
100
AcDbEntity
  8
SEIHIN
  6
CONTINUOUS
 62
     3
 48
16.0
100
AcDbLine
 10
287.1710224848967
 20
301.534459483543
 30
0.0
 11
280.1713224848966
 21
297.4930594835432
 31
0.0
  0
LINE
  5
42C
330
1A
100
AcDbEntity
  8
SEIHIN
  6
CONTINUOUS
 62
     3
 48
16.0
100
AcDbLine
 10
277.1710224848967
 20
299.2253594835431
 30
0.0
 11
277.1710224848967
 21
307.307959483543
 31
0.0
  0
LINE
  5
42D
330
1A
100
AcDbEntity
  8
SEIHIN
  6
CONTINUOUS
 62
     3
 48
16.0
100
AcDbLine
 10
298.0214224848967
 20
217.9986594835432
 30
0.0
 11
298.0214224848967
 21
197.9986594835432
 31
0.0
  0
LINE
  5
42E
330
1A
100
AcDbEntity
  8
SEIHIN
  6
CONTINUOUS
 62
     3
 48
16.0
100
AcDbLine
 10
298.0214224848967
 20
197.9984594835431
 30
0.0
 11
295.0714224848967
 21
194.9985594835432
 31
0.0
  0
ARC
  5
42F
330
1A
100
AcDbEntity
  8
SEIHIN
  6
CONTINUOUS
 62
     3
 48
16.0
100
AcDbCircle
 10
309.6891979271629
 20
262.9985356815223
 30
0.0
 40
4.999986400527955
100
AcDbArc
 50
280.7967398068157
 51
347.4133507718531
  0
ARC
  5
430
330
1A
100
AcDbEntity
  8
SEIHIN
  6
CONTINUOUS
 62
     3
 48
16.0
100
AcDbCircle
 10
-25.77867761850808
 20
340.361436196002
 30
0.0
 40
359.9999642568391
100
AcDbArc
 50
345.7534319067578
 51
353.8826146941326
  0
ARC
  5
431
330
1A
100
AcDbEntity
  8
SEIHIN
  6
CONTINUOUS
 62
     3
 48
16.0
100
AcDbCircle
 10
338.0128289017262
 20
222.9202716534448
 30
0.0
 40
29.99998965633429
100
AcDbArc
 50
134.004945145877
 51
170.3923930751632
  0
ARC
  5
432
330
1A
100
AcDbEntity
  8
SEIHIN
  6
CONTINUOUS
 62
     3
 48
16.0
100
AcDbCircle
 10
306.4616583744661
 20
228.2609887624552
 30
0.0
 40
2.000021109959757
100
AcDbArc
 50
268.0218953818605
 51
350.3916245111168
  0
ARC
  5
433
330
1A
100
AcDbEntity
  8
SEIHIN
  6
CONTINUOUS
 62
     3
 48
16.0
100
AcDbCircle
 10
306.1167041482846
 20
218.2669411645847
 30
0.0
 40
7.999981380600479
100
AcDbArc
 50
88.022767259657
 51
181.9217908050131
  0
ARC
  5
434
330
1A
100
AcDbEntity
  8
SEIHIN
  6
CONTINUOUS
 62
     3
 48
16.0
100
AcDbCircle
 10
306.0056284903134
 20
259.9985634980399
 30
0.0
 40
5.000004014500323
100
AcDbArc
 50
269.9999311830479
 51
337.5237463404244
  0
ARC
  5
435
330
1A
100
AcDbEntity
  8
SEIHIN
  6
CONTINUOUS
 62
     3
 48
16.0
100
AcDbCircle
 10
318.3038086442874
 20
252.9986487180199
 30
0.0
 40
4.999989234495908
100
AcDbArc
 50
270.0001586020408
 51
345.7532463339756
  0
LINE
  5
436
330
1A
100
AcDbEntity
  8
SEIHIN
  6
CONTINUOUS
 62
     3
 48
16.0
100
AcDbLine
 10
317.1712224848967
 20
244.4986594835431
 30
0.0
 11
317.1712224848967
 21
247.9986594835431
 31
0.0
  0
LINE
  5
437
330
1A
100
AcDbEntity
  8
SEIHIN
  6
CONTINUOUS
 62
     3
 48
16.0
100
AcDbLine
 10
297.1710224848967
 20
284.2145594835431
 30
0.0
 11
297.1710224848967
 21
292.2971594835432
 31
0.0
  0
ARC
  5
438
330
1A
100
AcDbEntity
  8
SEIHIN
  6
CONTINUOUS
 62
     3
 48
16.0
100
AcDbCircle
 10
294.5417652648727
 20
292.9985113841098
 30
0.0
 40
15.0000111962294
100
AcDbArc
 50
275.5674261026023
 51
344.5341925084075
  0
ARC
  5
439
330
1A
100
AcDbEntity
  8
SEIHIN
  6
CONTINUOUS
 62
     3
 48
16.0
100
AcDbCircle
 10
292.3705538345108
 20
294.1364856300721
 30
0.0
 40
13.99997036980736
100
AcDbArc
 50
273.3162909099032
 51
346.341702884737
  0
ARC
  5
43A
330
1A
100
AcDbEntity
  8
SEIHIN
  6
CONTINUOUS
 62
     3
 48
16.0
100
AcDbCircle
 10
-36.77862800010962
 20
340.3617172572267
 30
0.0
 40
359.9999448726062
100
AcDbArc
 50
347.4127522637816
 51
353.8825693750122
  0
LINE
  5
43B
330
1A
100
AcDbEntity
  8
SEIHIN
  6
CONTINUOUS
 62
     3
 48
16.0
100
AcDbLine
 10
296.1713224848967
 20
277.9985594835431
 30
0.0
 11
296.0701224848967
 21
278.0765594835431
 31
0.0
  0
ARC
  5
43C
330
1A
100
AcDbEntity
  8
SEIHIN
  6
CONTINUOUS
 62
     3
 48
16.0
100
AcDbCircle
 10
247.6713050626171
 20
304.9983140068555
 30
0.0
 40
60.00001742229678
100
AcDbArc
 50
346.3418069727373
 51
0.0000434270252093
  0
ARC
  5
43D
330
1A
100
AcDbEntity
  8
SEIHIN
  6
CONTINUOUS
 62
     3
 48
16.0
100
AcDbCircle
 10
244.171296499327
 20
304.9982110112358
 30
0.0
 40
60.00002598575334
100
AcDbArc
 50
348.0595994716995
 51
0.0001417805483932
  0
LINE
  5
43E
330
1A
100
AcDbEntity
  8
SEIHIN
  6
CONTINUOUS
 62
     3
 48
16.0
100
AcDbLine
 10
293.1710224848967
 20
289.9877594835432
 30
0.0
 11
300.1706224848966
 21
294.028959483543
 31
0.0
  0
LINE
  5
43F
330
1A
100
AcDbEntity
  8
SEIHIN
  6
CONTINUOUS
 62
     3
 48
16.0
100
AcDbLine
 10
300.1706224848966
 20
294.028959483543
 30
0.0
 11
293.1710224848967
 21
289.9877594835432
 31
0.0
  0
LINE
  5
440
330
1A
100
AcDbEntity
  8
SEIHIN
  6
CONTINUOUS
 62
     3
 48
16.0
100
AcDbLine
 10
300.1706224848966
 20
294.028959483543
 30
0.0
 11
302.8509224848967
 21
292.4815594835432
 31
0.0
  0
LINE
  5
441
330
1A
100
AcDbEntity
  8
SEIHIN
  6
CONTINUOUS
 62
     3
 48
16.0
100
AcDbLine
 10
297.1710224848967
 20
299.2253594835431
 30
0.0
 11
297.1710224848967
 21
307.3078594835432
 31
0.0
  0
LINE
  5
442
330
1A
100
AcDbEntity
  8
SEIHIN
  6
CONTINUOUS
 62
     3
 48
16.0
100
AcDbLine
 10
303.1703224848967
 20
299.2253594835431
 30
0.0
 11
303.8535224848967
 21
298.8308594835432
 31
0.0
  0
LINE
  5
443
330
1A
100
AcDbEntity
  8
SEIHIN
  6
CONTINUOUS
 62
     3
 48
16.0
100
AcDbLine
 10
303.1703224848967
 20
299.2253594835431
 30
0.0
 11
303.1703224848967
 21
307.3078594835432
 31
0.0
  0
ARC
  5
444
330
1A
100
AcDbEntity
  8
SEIHIN
  6
CONTINUOUS
 62
     3
 48
16.0
100
AcDbCircle
 10
251.1713365464054
 20
304.9985630347249
 30
0.0
 40
59.99998593883645
100
AcDbArc
 50
344.5338837320125
 51
359.9998056228939
  0
DIMENSION
  5
445
330
1A
100
AcDbEntity
  8
SUNPOU
  6
CONTINUOUS
100
AcDbDimension
  2
*D4
 10
291.1715996856248
 20
427.1292594395049
 30
0.0
 11
261.1715996856583
 21
432.1292594395049
 31
0.0
 12
-1.134753004899266
 22
-22.67627873097058
 32
0.0
 70
    32
  1
※a<>
  3
STANDARD
100
AcDbAlignedDimension
 13
231.1715996856918
 23
389.9986494839116
 33
0.0
 14
291.1715996856248
 24
389.9985594835432
 34
0.0
100
AcDbRotatedDimension
1001
ACAD
1000
DSTYLE
1002
{
1070
   140
1040
6.0
1070
    74
1070
     0
1070
   172
1070
     1
1070
    73
1070
     0
1070
   272
1070
     2
1070
    77
1070
     3
1070
   173
1070
     1
1070
   147
1040
2.0
1070
    42
1040
6.0
1070
    44
1040
3.0
1070
    43
1040
14.0
1070
   271
1070
     0
1070
   178
1070
     4
1070
   177
1070
     4
1070
   176
1070
     4
1070
   141
1040
150.0
1070
     7
1000
_OPEN
1070
     6
1000
_OPEN
1070
    41
1040
7.0
1002
}
  0
DIMENSION
  5
446
330
1A
100
AcDbEntity
  8
SUNPOU
  6
CONTINUOUS
100
AcDbDimension
  2
*D5
 10
361.1715224848967
 20
446.283727206756
 30
0.0
 11
261.1716224848967
 21
451.2837272067561
 31
0.0
 12
-1.134753004899266
 22
-22.67627873097058
 32
0.0
 70
    32
  3
STANDARD
100
AcDbAlignedDimension
 13
161.1717224848967
 23
389.9988594835432
 33
0.0
 14
361.1715224848967
 24
389.9985594835432
 34
0.0
100
AcDbRotatedDimension
1001
ACAD
1000
DSTYLE
1002
{
1070
   140
1040
6.0
1070
    74
1070
     0
1070
   172
1070
     1
1070
    73
1070
     0
1070
   272
1070
     2
1070
    77
1070
     3
1070
   173
1070
     1
1070
   147
1040
2.0
1070
    42
1040
6.0
1070
    44
1040
3.0
1070
    43
1040
14.0
1070
   271
1070
     0
1070
   178
1070
     4
1070
   177
1070
     4
1070
   176
1070
     4
1070
   141
1040
150.0
1070
     7
1000
_OPEN
1070
     6
1000
_OPEN
1070
    41
1040
7.0
1002
}
  0
ARC
  5
447
330
1A
100
AcDbEntity
  8
SEIHIN
  6
CONTINUOUS
 62
     3
 48
16.0
100
AcDbCircle
 10
283.4001145345909
 20
327.7525670228378
 30
0.0
 40
9.999997466501795
100
AcDbArc
 50
12.03207849169354
 51
81.00775181424465
  0
LINE
  5
448
330
1A
100
AcDbEntity
  8
SEIHIN
  6
CONTINUOUS
 62
     3
 48
16.0
100
AcDbLine
 10
290.1706224848967
 20
325.2052594835432
 30
0.0
 11
293.6848224848967
 21
327.2341594835431
 31
0.0
  0
LINE
  5
449
330
1A
100
AcDbEntity
  8
SEIHIN
  6
CONTINUOUS
 62
     3
 48
16.0
100
AcDbLine
 10
293.6849224848966
 20
327.2341594835431
 30
0.0
 11
290.1706224848967
 21
325.205159483543
 31
0.0
  0
ARC
  5
44A
330
1A
100
AcDbEntity
  8
SEIHIN
  6
CONTINUOUS
 62
     3
 48
16.0
100
AcDbCircle
 10
281.628938321805
 20
325.5631381679339
 30
0.0
 40
8.99999012945994
100
AcDbArc
 50
13.87226880286073
 51
79.98026821228187
  0
LINE
  5
44B
330
1A
100
AcDbEntity
  8
SEIHIN
  6
CONTINUOUS
 62
     3
 48
16.0
100
AcDbLine
 10
290.1706224848967
 20
321.7414594835432
 30
0.0
 11
297.1710224848967
 21
317.6998594835432
 31
0.0
  0
ARC
  5
44C
330
1A
100
AcDbEntity
  8
SEIHIN
  6
CONTINUOUS
 62
     3
 48
16.0
100
AcDbCircle
 10
285.1713571438153
 20
329.9772261470002
 30
0.0
 40
11.00000002230552
100
AcDbArc
 50
10.21429595794655
 51
82.01440540505595
  0
LINE
  5
44D
330
1A
100
AcDbEntity
  8
SEIHIN
  6
CONTINUOUS
 62
     3
 48
16.0
100
AcDbLine
 10
287.1710224848967
 20
316.5451594835432
 30
0.0
 11
294.1707224848966
 21
312.5038594835432
 31
0.0
  0
LINE
  5
44E
330
1A
100
AcDbEntity
  8
SEIHIN
  6
CONTINUOUS
 62
     3
 48
16.0
100
AcDbLine
 10
297.1710224848967
 20
314.2360594835432
 30
0.0
 11
290.1706224848967
 21
310.1943594835432
 31
0.0
  0
LINE
  5
44F
330
1A
100
AcDbEntity
  8
SEIHIN
  6
CONTINUOUS
 62
     3
 48
16.0
100
AcDbLine
 10
290.1706224848967
 20
310.1944594835432
 30
0.0
 11
297.1710224848967
 21
314.2360594835432
 31
0.0
  0
ARC
  5
450
330
1A
100
AcDbEntity
  8
SEIHIN
  6
CONTINUOUS
 62
     3
 48
16.0
100
AcDbCircle
 10
290.1544053534943
 20
314.7227733710579
 30
0.0
 40
12.99998611249645
100
AcDbArc
 50
11.94024580019926
 51
89.99992449553076
  0
LINE
  5
451
330
1A
100
AcDbEntity
  8
SEIHIN
  6
CONTINUOUS
 62
     3
 48
16.0
100
AcDbLine
 10
261.1715224848967
 20
352.998559483543
 30
0.0
 11
312.1715224848966
 21
352.998559483543
 31
0.0
  0
LINE
  5
452
330
1A
100
AcDbEntity
  8
SEIHIN
  6
CONTINUOUS
 62
     3
 48
16.0
100
AcDbLine
 10
261.1715224848967
 20
389.9985594835432
 30
0.0
 11
361.1715224848967
 21
389.9985594835432
 31
0.0
  0
LINE
  5
453
330
1A
100
AcDbEntity
  8
SEIHIN
  6
CONTINUOUS
 62
     3
 48
16.0
100
AcDbLine
 10
261.1715224848967
 20
382.9985594835432
 30
0.0
 11
361.1715224848967
 21
382.9985594835432
 31
0.0
  0
LINE
  5
454
330
1A
100
AcDbEntity
  8
SEIHIN
  6
CONTINUOUS
 62
     3
 48
16.0
100
AcDbLine
 10
261.1715224848967
 20
359.9985594835432
 30
0.0
 11
342.1715224848967
 21
359.9985594835432
 31
0.0
  0
LINE
  5
455
330
1A
100
AcDbEntity
  8
SEIHIN
  6
CONTINUOUS
 62
     3
 48
16.0
100
AcDbLine
 10
261.1717224848966
 20
389.9985594835432
 30
0.0
 11
161.1717224848967
 21
389.9988594835432
 31
0.0
  0
LINE
  5
456
330
1A
100
AcDbEntity
  8
SEIHIN
  6
CONTINUOUS
 62
     3
 48
16.0
100
AcDbLine
 10
261.1717224848966
 20
382.9985594835432
 30
0.0
 11
161.1717224848967
 21
382.998859483543
 31
0.0
  0
LINE
  5
457
330
1A
100
AcDbEntity
  8
SEIHIN
  6
CONTINUOUS
 62
     3
 48
16.0
100
AcDbLine
 10
261.1716224848967
 20
359.9985594835432
 30
0.0
 11
180.1716224848966
 21
359.998859483543
 31
0.0
  0
LINE
  5
458
330
1A
100
AcDbEntity
  8
SEIHIN
  6
CONTINUOUS
 62
     3
 48
16.0
100
AcDbLine
 10
261.1716224848967
 20
352.998559483543
 30
0.0
 11
210.1716224848967
 21
352.9987594835432
 31
0.0
  0
ARC
  5
459
330
1A
100
AcDbEntity
  8
SEIHIN
  6
CONTINUOUS
 62
     3
 48
16.0
100
AcDbCircle
 10
227.8011731468022
 20
316.9986020699031
 30
0.0
 40
15.00000634571775
100
AcDbArc
 50
95.56701895775864
 51
164.5341655325995
  0
ARC
  5
45A
330
1A
100
AcDbEntity
  8
SEIHIN
  6
CONTINUOUS
 62
     3
 48
16.0
100
AcDbCircle
 10
232.1885665102117
 20
314.7227141081245
 30
0.0
 40
13.00004537553904
100
AcDbArc
 50
89.99975329984494
 51
168.0590919819699
  0
ARC
  5
45B
330
1A
100
AcDbEntity
  8
SEIHIN
  6
CONTINUOUS
 62
     3
 48
16.0
100
AcDbCircle
 10
229.9724948687775
 20
315.8607364506953
 30
0.0
 40
13.9999732624879
100
AcDbArc
 50
93.31671547204647
 51
166.3417188752986
  0
LINE
  5
45C
330
1A
100
AcDbEntity
  8
SEIHIN
  6
CONTINUOUS
 62
     3
 48
16.0
100
AcDbLine
 10
180.1716224848966
 20
359.9987594835432
 30
0.0
 11
180.1716224848966
 21
346.9987594835432
 31
0.0
  0
LINE
  5
45D
330
1A
100
AcDbEntity
  8
SEIHIN
  6
CONTINUOUS
 62
     3
 48
16.0
100
AcDbLine
 10
200.3736224848967
 20
346.9987594835432
 30
0.0
 11
180.1716224848966
 21
346.9988594835431
 31
0.0
  0
LINE
  5
45E
330
1A
100
AcDbEntity
  8
SEIHIN
  6
CONTINUOUS
 62
     3
 48
16.0
100
AcDbLine
 10
219.1727224848966
 20
314.2361594835431
 30
0.0
 11
218.8591224848966
 21
314.0551594835431
 31
0.0
  0
ARC
  5
45F
330
1A
100
AcDbEntity
  8
SEIHIN
  6
CONTINUOUS
 62
     3
 48
16.0
100
AcDbCircle
 10
210.171634502825
 20
343.9987668429937
 30
0.0
 40
8.999992640557559
100
AcDbArc
 50
90.00007650856998
 51
152.9644018760848
  0
ARC
  5
460
330
1A
100
AcDbEntity
  8
SEIHIN
  6
CONTINUOUS
 62
     3
 48
16.0
100
AcDbCircle
 10
200.3735916143992
 20
348.9987405796145
 30
0.0
 40
1.999981096309572
100
AcDbArc
 50
270.0008843829677
 51
332.9643474631199
  0
ARC
  5
461
330
1A
100
AcDbEntity
  8
SEIHIN
  6
CONTINUOUS
 62
     3
 48
16.0
100
AcDbCircle
 10
154.1859224848968
 20
370.8662594835431
 30
0.0
 40
13.99999954464274
100
AcDbArc
 50
2.589832615411162
 51
60.06755312019766
  0
ARC
  5
462
330
1A
100
AcDbEntity
  8
SEIHIN
  6
CONTINUOUS
 62
     3
 48
16.0
100
AcDbCircle
 10
181.9671650354209
 20
373.8832187058941
 30
0.0
 40
13.99997871662766
100
AcDbArc
 50
189.8059384842427
 51
262.6313349512128
  0
LINE
  5
463
330
1A
100
AcDbEntity
  8
SEIHIN
  6
CONTINUOUS
 62
     3
 48
16.0
100
AcDbLine
 10
161.1717224848967
 20
389.9988594835432
 30
0.0
 11
161.1717224848967
 21
382.998859483543
 31
0.0
  0
LINE
  5
464
330
1A
100
AcDbEntity
  8
SEIHIN
  6
CONTINUOUS
 62
     3
 48
16.0
100
AcDbLine
 10
258.1717224848967
 20
336.7523594835432
 30
0.0
 11
251.1713224848967
 21
332.7106594835433
 31
0.0
  0
LINE
  5
465
330
1A
100
AcDbEntity
  8
SEIHIN
  6
CONTINUOUS
 62
     3
 48
16.0
100
AcDbLine
 10
258.1717224848967
 20
321.7415594835431
 30
0.0
 11
251.1713224848967
 21
317.6998594835432
 31
0.0
  0
LINE
  5
466
330
1A
100
AcDbEntity
  8
SEIHIN
  6
CONTINUOUS
 62
     3
 48
16.0
100
AcDbLine
 10
261.1713224848966
 20
331.5559594835431
 30
0.0
 11
254.1716224848966
 21
327.5146594835431
 31
0.0
  0
LINE
  5
467
330
1A
100
AcDbEntity
  8
SEIHIN
  6
CONTINUOUS
 62
     3
 48
16.0
100
AcDbLine
 10
251.1713224848967
 20
329.2468594835431
 30
0.0
 11
258.1717224848967
 21
325.205159483543
 31
0.0
  0
LINE
  5
468
330
1A
100
AcDbEntity
  8
SEIHIN
  6
CONTINUOUS
 62
     3
 48
16.0
100
AcDbLine
 10
258.1717224848967
 20
325.2052594835432
 30
0.0
 11
251.1713224848967
 21
329.2469594835432
 31
0.0
  0
ARC
  5
469
330
1A
100
AcDbEntity
  8
SEIHIN
  6
CONTINUOUS
 62
     3
 48
16.0
100
AcDbCircle
 10
221.7513828291062
 20
432.9009371825722
 30
0.0
 40
99.99997218608122
100
AcDbArc
 50
280.0186917587483
 51
293.2161833519428
  0
ARC
  5
46A
330
1A
100
AcDbEntity
  8
SEIHIN
  6
CONTINUOUS
 62
     3
 48
16.0
100
AcDbCircle
 10
221.7512771145112
 20
436.4009041266414
 30
0.0
 40
99.99998347979968
100
AcDbArc
 50
278.9914734737351
 51
293.2162464832798
  0
ARC
  5
46B
330
1A
100
AcDbEntity
  8
SEIHIN
  6
CONTINUOUS
 62
     3
 48
16.0
100
AcDbCircle
 10
221.7510503251447
 20
439.9008393347942
 30
0.0
 40
100.0000133357762
100
AcDbArc
 50
277.9857439486248
 51
293.2163805358418
  0
LINE
  5
46C
330
1A
100
AcDbEntity
  8
SEIHIN
  6
CONTINUOUS
 62
     3
 48
16.0
100
AcDbLine
 10
261.1713224848966
 20
316.545259483543
 30
0.0
 11
254.1716224848966
 21
312.5038594835432
 31
0.0
  0
LINE
  5
46D
330
1A
100
AcDbEntity
  8
SEIHIN
  6
CONTINUOUS
 62
     3
 48
16.0
100
AcDbLine
 10
251.1713224848967
 20
314.2361594835431
 30
0.0
 11
258.1717224848967
 21
310.1943594835432
 31
0.0
  0
LINE
  5
46E
330
1A
100
AcDbEntity
  8
SEIHIN
  6
CONTINUOUS
 62
     3
 48
16.0
100
AcDbLine
 10
258.1717224848967
 20
310.1945594835431
 30
0.0
 11
251.1713224848967
 21
314.2361594835431
 31
0.0
  0
LINE
  5
46F
330
1A
100
AcDbEntity
  8
SEIHIN
  6
CONTINUOUS
 62
     3
 48
16.0
100
AcDbLine
 10
251.1713224848967
 20
329.2468594835431
 30
0.0
 11
251.1713224848967
 21
337.3294594835432
 31
0.0
  0
LINE
  5
470
330
1A
100
AcDbEntity
  8
SEIHIN
  6
CONTINUOUS
 62
     3
 48
16.0
100
AcDbLine
 10
245.1720224848966
 20
329.2469594835432
 30
0.0
 11
245.1720224848966
 21
335.6823594835432
 31
0.0
  0
LINE
  5
471
330
1A
100
AcDbEntity
  8
SEIHIN
  6
CONTINUOUS
 62
     3
 48
16.0
100
AcDbLine
 10
245.1720224848966
 20
332.7106594835433
 30
0.0
 11
241.4490224848967
 21
334.8601594835432
 31
0.0
  0
LINE
  5
472
330
1A
100
AcDbEntity
  8
SEIHIN
  6
CONTINUOUS
 62
     3
 48
16.0
100
AcDbLine
 10
241.4490224848967
 20
334.8601594835432
 30
0.0
 11
245.1720224848966
 21
332.7106594835433
 31
0.0
  0
ARC
  5
473
330
1A
100
AcDbEntity
  8
SEIHIN
  6
CONTINUOUS
 62
     3
 48
16.0
100
AcDbCircle
 10
240.7140255812528
 20
325.5630623783146
 30
0.0
 40
9.000050659024486
100
AcDbArc
 50
100.0191396281583
 51
166.1266736318981
  0
ARC
  5
474
330
1A
100
AcDbEntity
  8
SEIHIN
  6
CONTINUOUS
 62
     3
 48
16.0
100
AcDbCircle
 10
238.9428204207552
 20
327.7526575261321
 30
0.0
 40
9.999989651744755
100
AcDbArc
 50
98.99161709124379
 51
167.9678563304076
  0
ARC
  5
475
330
1A
100
AcDbEntity
  8
SEIHIN
  6
CONTINUOUS
 62
     3
 48
16.0
100
AcDbCircle
 10
237.1717486859556
 20
329.9772846848956
 30
0.0
 40
11.00004953740721
100
AcDbArc
 50
97.98587851890889
 51
169.7860603288867
  0
LINE
  5
476
330
1A
100
AcDbEntity
  8
SEIHIN
  6
CONTINUOUS
 62
     3
 48
16.0
100
AcDbLine
 10
245.1720224848966
 20
317.6999594835431
 30
0.0
 11
238.1717224848966
 21
321.7415594835431
 31
0.0
  0
LINE
  5
477
330
1A
100
AcDbEntity
  8
SEIHIN
  6
CONTINUOUS
 62
     3
 48
16.0
100
AcDbLine
 10
238.1717224848966
 20
321.7414594835432
 30
0.0
 11
245.1720224848966
 21
317.6998594835432
 31
0.0
  0
LINE
  5
478
330
1A
100
AcDbEntity
  8
SEIHIN
  6
CONTINUOUS
 62
     3
 48
16.0
100
AcDbLine
 10
245.1720224848966
 20
329.2469594835432
 30
0.0
 11
238.1717224848966
 21
325.2052594835432
 31
0.0
  0
LINE
  5
479
330
1A
100
AcDbEntity
  8
SEIHIN
  6
CONTINUOUS
 62
     3
 48
16.0
100
AcDbLine
 10
235.1720224848967
 20
331.5559594835431
 30
0.0
 11
242.1717224848967
 21
327.5146594835431
 31
0.0
  0
LINE
  5
47A
330
1A
100
AcDbEntity
  8
SEIHIN
  6
CONTINUOUS
 62
     3
 48
16.0
100
AcDbLine
 10
242.1717224848967
 20
327.5146594835431
 30
0.0
 11
235.1720224848967
 21
331.5559594835431
 31
0.0
  0
LINE
  5
47B
330
1A
100
AcDbEntity
  8
SEIHIN
  6
CONTINUOUS
 62
     3
 48
16.0
100
AcDbLine
 10
235.1720224848967
 20
316.5451594835432
 30
0.0
 11
242.1717224848967
 21
312.5038594835432
 31
0.0
  0
LINE
  5
47C
330
1A
100
AcDbEntity
  8
SEIHIN
  6
CONTINUOUS
 62
     3
 48
16.0
100
AcDbLine
 10
242.1717224848967
 20
312.5038594835432
 30
0.0
 11
235.1720224848967
 21
316.5451594835432
 31
0.0
  0
LINE
  5
47D
330
1A
100
AcDbEntity
  8
SEIHIN
  6
CONTINUOUS
 62
     3
 48
16.0
100
AcDbLine
 10
245.1720224848966
 20
314.2361594835431
 30
0.0
 11
238.1717224848966
 21
310.1945594835431
 31
0.0
  0
LINE
  5
47E
330
1A
100
AcDbEntity
  8
SEIHIN
  6
CONTINUOUS
 62
     3
 48
16.0
100
AcDbLine
 10
232.1723224848966
 20
321.7414594835432
 30
0.0
 11
225.1720224848966
 21
317.6999594835431
 31
0.0
  0
LINE
  5
47F
330
1A
100
AcDbEntity
  8
SEIHIN
  6
CONTINUOUS
 62
     3
 48
16.0
100
AcDbLine
 10
229.1720224848967
 20
320.0092594835431
 30
0.0
 11
222.7837224848967
 21
323.6976594835431
 31
0.0
  0
LINE
  5
480
330
1A
100
AcDbEntity
  8
SEIHIN
  6
CONTINUOUS
 62
     3
 48
16.0
100
AcDbLine
 10
222.7837224848967
 20
323.6976594835431
 30
0.0
 11
229.1720224848967
 21
320.0092594835431
 31
0.0
  0
LINE
  5
481
330
1A
100
AcDbEntity
  8
SEIHIN
  6
CONTINUOUS
 62
     3
 48
16.0
100
AcDbLine
 10
225.1720224848966
 20
314.2361594835431
 30
0.0
 11
225.1720224848966
 21
322.3187594835432
 31
0.0
  0
LINE
  5
482
330
1A
100
AcDbEntity
  8
SEIHIN
  6
CONTINUOUS
 62
     3
 48
16.0
100
AcDbLine
 10
225.1720224848966
 20
314.2361594835431
 30
0.0
 11
232.1723224848966
 21
310.1944594835432
 31
0.0
  0
LINE
  5
483
330
1A
100
AcDbEntity
  8
SEIHIN
  6
CONTINUOUS
 62
     3
 48
16.0
100
AcDbLine
 10
232.1723224848966
 20
310.1945594835431
 30
0.0
 11
225.1720224848966
 21
314.2361594835431
 31
0.0
  0
LINE
  5
484
330
1A
100
AcDbEntity
  8
SEIHIN
  6
CONTINUOUS
 62
     3
 48
16.0
100
AcDbLine
 10
235.1720224848967
 20
316.5451594835432
 30
0.0
 11
228.1723224848966
 21
312.5038594835432
 31
0.0
  0
LINE
  5
485
330
1A
100
AcDbEntity
  8
SEIHIN
  6
CONTINUOUS
 62
     3
 48
16.0
100
AcDbLine
 10
228.6581224848967
 20
327.2341594835431
 30
0.0
 11
232.1723224848966
 21
325.2052594835432
 31
0.0
  0
LINE
  5
486
330
1A
100
AcDbEntity
  8
SEIHIN
  6
CONTINUOUS
 62
     3
 48
16.0
100
AcDbLine
 10
232.1723224848966
 20
325.2053594835432
 30
0.0
 11
228.6581224848967
 21
327.2342594835432
 31
0.0
  0
LINE
  5
487
330
1A
100
AcDbEntity
  8
SEIHIN
  6
CONTINUOUS
 62
     3
 48
16.0
100
AcDbLine
 10
226.1717224848967
 20
331.998659483543
 30
0.0
 11
226.2728224848966
 21
331.9205594835431
 31
0.0
  0
LINE
  5
488
330
1A
100
AcDbEntity
  8
SEIHIN
  6
CONTINUOUS
 62
     3
 48
16.0
100
AcDbLine
 10
238.1717224848966
 20
321.7414594835432
 30
0.0
 11
238.1717224848966
 21
329.8240594835431
 31
0.0
  0
LINE
  5
489
330
1A
100
AcDbEntity
  8
SEIHIN
  6
CONTINUOUS
 62
     3
 48
16.0
100
AcDbLine
 10
232.1723224848966
 20
321.7414594835432
 30
0.0
 11
232.1724224848967
 21
328.3986594835432
 31
0.0
  0
LINE
  5
48A
330
1A
100
AcDbEntity
  8
SEIHIN
  6
CONTINUOUS
 62
     3
 48
16.0
100
AcDbLine
 10
235.1720224848967
 20
331.5559594835431
 30
0.0
 11
233.0980224848967
 21
330.3585594835432
 31
0.0
  0
LINE
  5
48B
330
1A
100
AcDbEntity
  8
SEIHIN
  6
CONTINUOUS
 62
     3
 48
16.0
100
AcDbLine
 10
248.1717224848967
 20
324.0506594835431
 30
0.0
 11
241.1719224848967
 21
320.0093594835432
 31
0.0
  0
LINE
  5
48C
330
1A
100
AcDbEntity
  8
SEIHIN
  6
CONTINUOUS
 62
     3
 48
16.0
100
AcDbLine
 10
248.1717224848967
 20
324.0506594835431
 30
0.0
 11
255.1713224848966
 21
320.0092594835431
 31
0.0
  0
LINE
  5
48D
330
1A
100
AcDbEntity
  8
SEIHIN
  6
CONTINUOUS
 62
     3
 48
16.0
100
AcDbLine
 10
255.1713224848966
 20
320.0092594835431
 30
0.0
 11
248.1717224848967
 21
324.0506594835431
 31
0.0
  0
LINE
  5
48E
330
1A
100
AcDbEntity
  8
SEIHIN
  6
CONTINUOUS
 62
     3
 48
16.0
100
AcDbLine
 10
245.1720224848966
 20
314.2361594835431
 30
0.0
 11
245.1720224848966
 21
322.3187594835432
 31
0.0
  0
LINE
  5
48F
330
1A
100
AcDbEntity
  8
SEIHIN
  6
CONTINUOUS
 62
     3
 48
16.0
100
AcDbLine
 10
251.1713224848967
 20
314.2361594835431
 30
0.0
 11
251.1713224848967
 21
322.3186594835431
 31
0.0
  0
LINE
  5
490
330
1A
100
AcDbEntity
  8
SEIHIN
  6
CONTINUOUS
 62
     3
 48
16.0
100
AcDbLine
 10
277.1710224848967
 20
329.2468594835431
 30
0.0
 11
277.1710224848967
 21
335.6822594835431
 31
0.0
  0
LINE
  5
491
330
1A
100
AcDbEntity
  8
SEIHIN
  6
CONTINUOUS
 62
     3
 48
16.0
100
AcDbLine
 10
280.8940224848967
 20
334.860059483543
 30
0.0
 11
277.1710224848967
 21
332.7105594835432
 31
0.0
  0
LINE
  5
492
330
1A
100
AcDbEntity
  8
SEIHIN
  6
CONTINUOUS
 62
     3
 48
16.0
100
AcDbLine
 10
277.1710224848967
 20
332.7106594835433
 30
0.0
 11
280.8939224848966
 21
334.860059483543
 31
0.0
  0
LINE
  5
493
330
1A
100
AcDbEntity
  8
SEIHIN
  6
CONTINUOUS
 62
     3
 48
16.0
100
AcDbLine
 10
271.1716224848966
 20
329.2468594835431
 30
0.0
 11
271.1716224848966
 21
337.3294594835432
 31
0.0
  0
LINE
  5
494
330
1A
100
AcDbEntity
  8
SEIHIN
  6
CONTINUOUS
 62
     3
 48
16.0
100
AcDbLine
 10
264.1713224848967
 20
336.7523594835432
 30
0.0
 11
271.1716224848966
 21
332.7106594835433
 31
0.0
  0
LINE
  5
495
330
1A
100
AcDbEntity
  8
SEIHIN
  6
CONTINUOUS
 62
     3
 48
16.0
100
AcDbLine
 10
267.1716224848967
 20
320.0092594835431
 30
0.0
 11
274.1713224848967
 21
324.0505594835432
 31
0.0
  0
LINE
  5
496
330
1A
100
AcDbEntity
  8
SEIHIN
  6
CONTINUOUS
 62
     3
 48
16.0
100
AcDbLine
 10
274.1713224848967
 20
324.0505594835432
 30
0.0
 11
267.1716224848967
 21
320.0092594835431
 31
0.0
  0
LINE
  5
497
330
1A
100
AcDbEntity
  8
SEIHIN
  6
CONTINUOUS
 62
     3
 48
16.0
100
AcDbLine
 10
264.1713224848967
 20
321.7415594835431
 30
0.0
 11
271.1716224848966
 21
317.6998594835432
 31
0.0
  0
LINE
  5
498
330
1A
100
AcDbEntity
  8
SEIHIN
  6
CONTINUOUS
 62
     3
 48
16.0
100
AcDbLine
 10
271.1716224848966
 20
314.2361594835431
 30
0.0
 11
271.1716224848966
 21
322.3186594835431
 31
0.0
  0
LINE
  5
499
330
1A
100
AcDbEntity
  8
SEIHIN
  6
CONTINUOUS
 62
     3
 48
16.0
100
AcDbLine
 10
264.1713224848967
 20
310.1945594835431
 30
0.0
 11
271.1716224848966
 21
314.2361594835431
 31
0.0
  0
LINE
  5
49A
330
1A
100
AcDbEntity
  8
SEIHIN
  6
CONTINUOUS
 62
     3
 48
16.0
100
AcDbLine
 10
271.1716224848966
 20
314.2361594835431
 30
0.0
 11
264.1713224848967
 21
310.1944594835432
 31
0.0
  0
LINE
  5
49B
330
1A
100
AcDbEntity
  8
SEIHIN
  6
CONTINUOUS
 62
     3
 48
16.0
100
AcDbLine
 10
261.1716224848967
 20
316.545259483543
 30
0.0
 11
268.1713224848967
 21
312.5038594835432
 31
0.0
  0
LINE
  5
49C
330
1A
100
AcDbEntity
  8
SEIHIN
  6
CONTINUOUS
 62
     3
 48
16.0
100
AcDbLine
 10
264.1713224848967
 20
325.2052594835432
 30
0.0
 11
271.1716224848966
 21
329.2469594835432
 31
0.0
  0
LINE
  5
49D
330
1A
100
AcDbEntity
  8
SEIHIN
  6
CONTINUOUS
 62
     3
 48
16.0
100
AcDbLine
 10
271.1716224848966
 20
329.2468594835431
 30
0.0
 11
264.1713224848967
 21
325.205159483543
 31
0.0
  0
LINE
  5
49E
330
1A
100
AcDbEntity
  8
SEIHIN
  6
CONTINUOUS
 62
     3
 48
16.0
100
AcDbLine
 10
261.1716224848967
 20
331.5559594835431
 30
0.0
 11
268.1713224848967
 21
327.5146594835431
 31
0.0
  0
LINE
  5
49F
330
1A
100
AcDbEntity
  8
SEIHIN
  6
CONTINUOUS
 62
     3
 48
16.0
100
AcDbLine
 10
258.1717224848967
 20
321.7415594835431
 30
0.0
 11
258.1717224848967
 21
329.8240594835431
 31
0.0
  0
LINE
  5
4A0
330
1A
100
AcDbEntity
  8
SEIHIN
  6
CONTINUOUS
 62
     3
 48
16.0
100
AcDbLine
 10
264.1713224848967
 20
321.7415594835431
 30
0.0
 11
264.1713224848967
 21
329.8240594835431
 31
0.0
  0
LINE
  5
4A1
330
1A
100
AcDbEntity
  8
SEIHIN
  6
CONTINUOUS
 62
     3
 48
16.0
100
AcDbLine
 10
274.1713224848967
 20
324.0505594835432
 30
0.0
 11
281.1710224848967
 21
320.0092594835431
 31
0.0
  0
LINE
  5
4A2
330
1A
100
AcDbEntity
  8
SEIHIN
  6
CONTINUOUS
 62
     3
 48
16.0
100
AcDbLine
 10
277.1710224848967
 20
314.2361594835431
 30
0.0
 11
277.1710224848967
 21
322.3186594835431
 31
0.0
  0
LINE
  5
4A3
330
1A
100
AcDbEntity
  8
SEIHIN
  6
CONTINUOUS
 62
     3
 48
16.0
100
AcDbLine
 10
284.1713224848966
 20
321.7414594835432
 30
0.0
 11
277.1710224848967
 21
317.6998594835432
 31
0.0
  0
LINE
  5
4A4
330
1A
100
AcDbEntity
  8
SEIHIN
  6
CONTINUOUS
 62
     3
 48
16.0
100
AcDbLine
 10
277.1710224848967
 20
317.6998594835432
 30
0.0
 11
284.1713224848966
 21
321.7415594835431
 31
0.0
  0
LINE
  5
4A5
330
1A
100
AcDbEntity
  8
SEIHIN
  6
CONTINUOUS
 62
     3
 48
16.0
100
AcDbLine
 10
277.1710224848967
 20
314.2361594835431
 30
0.0
 11
284.1713224848966
 21
310.1944594835432
 31
0.0
  0
LINE
  5
4A6
330
1A
100
AcDbEntity
  8
SEIHIN
  6
CONTINUOUS
 62
     3
 48
16.0
100
AcDbLine
 10
280.1713224848966
 20
312.5038594835432
 30
0.0
 11
287.1710224848967
 21
316.5451594835432
 31
0.0
  0
LINE
  5
4A7
330
1A
100
AcDbEntity
  8
SEIHIN
  6
CONTINUOUS
 62
     3
 48
16.0
100
AcDbLine
 10
287.1710224848967
 20
316.5451594835432
 30
0.0
 11
280.1713224848966
 21
312.5038594835432
 31
0.0
  0
LINE
  5
4A8
330
1A
100
AcDbEntity
  8
SEIHIN
  6
CONTINUOUS
 62
     3
 48
16.0
100
AcDbLine
 10
277.1710224848967
 20
329.2468594835431
 30
0.0
 11
284.1713224848966
 21
325.205159483543
 31
0.0
  0
LINE
  5
4A9
330
1A
100
AcDbEntity
  8
SEIHIN
  6
CONTINUOUS
 62
     3
 48
16.0
100
AcDbLine
 10
280.1713224848966
 20
327.5146594835431
 30
0.0
 11
287.1710224848967
 21
331.5558594835432
 31
0.0
  0
LINE
  5
4AA
330
1A
100
AcDbEntity
  8
SEIHIN
  6
CONTINUOUS
 62
     3
 48
16.0
100
AcDbLine
 10
287.1710224848967
 20
331.5558594835432
 30
0.0
 11
280.1713224848966
 21
327.5146594835431
 31
0.0
  0
LINE
  5
4AB
330
1A
100
AcDbEntity
  8
SEIHIN
  6
CONTINUOUS
 62
     3
 48
16.0
100
AcDbLine
 10
287.1710224848967
 20
331.5558594835432
 30
0.0
 11
289.2450224848967
 21
330.3584594835431
 31
0.0
  0
LINE
  5
4AC
330
1A
100
AcDbEntity
  8
SEIHIN
  6
CONTINUOUS
 62
     3
 48
16.0
100
AcDbLine
 10
290.1706224848967
 20
321.7414594835432
 30
0.0
 11
290.1706224848967
 21
328.3986594835432
 31
0.0
  0
LINE
  5
4AD
330
1A
100
AcDbEntity
  8
SEIHIN
  6
CONTINUOUS
 62
     3
 48
16.0
100
AcDbLine
 10
284.1713224848966
 20
321.7414594835432
 30
0.0
 11
284.1713224848966
 21
329.8240594835431
 31
0.0
  0
ARC
  5
4AE
330
1A
100
AcDbEntity
  8
SEIHIN
  6
CONTINUOUS
 62
     3
 48
16.0
100
AcDbCircle
 10
300.5922998262751
 20
439.9008378877445
 30
0.0
 40
100.0000404081728
100
AcDbArc
 50
246.7834358543287
 51
262.0141395158485
  0
ARC
  5
4AF
330
1A
100
AcDbEntity
  8
SEIHIN
  6
CONTINUOUS
 62
     3
 48
16.0
100
AcDbCircle
 10
300.5922081368261
 20
436.4008636260279
 30
0.0
 40
100.000027917572
100
AcDbArc
 50
246.7834899477141
 51
261.0082171451317
  0
ARC
  5
4B0
330
1A
100
AcDbEntity
  8
SEIHIN
  6
CONTINUOUS
 62
     3
 48
16.0
100
AcDbCircle
 10
300.5921423804881
 20
432.9008833907974
 30
0.0
 40
100.0000201602568
100
AcDbArc
 50
246.7835290365558
 51
259.9809754961485
  0
LINE
  5
4B1
330
1A
100
AcDbEntity
  8
SEIHIN
  6
CONTINUOUS
 62
     3
 48
16.0
100
AcDbLine
 10
258.1717224848967
 20
336.7523594835432
 30
0.0
 11
258.1717224848967
 21
339.769059483543
 31
0.0
  0
LINE
  5
4B2
330
1A
100
AcDbEntity
  8
SEIHIN
  6
CONTINUOUS
 62
     3
 48
16.0
100
AcDbLine
 10
264.1713224848967
 20
336.7523594835432
 30
0.0
 11
264.1713224848967
 21
339.769059483543
 31
0.0
  0
ARC
  5
4B3
330
1A
100
AcDbEntity
  8
SEIHIN
  6
CONTINUOUS
 62
     3
 48
16.0
100
AcDbCircle
 10
368.1572200415291
 20
370.8659554694712
 30
0.0
 40
14.00000180410758
100
AcDbArc
 50
119.9324300168655
 51
177.4097416842148
  0
LINE
  5
4B4
330
1A
100
AcDbEntity
  8
SEIHIN
  6
CONTINUOUS
 62
     3
 48
16.0
100
AcDbLine
 10
342.1715224848967
 20
359.9985594835432
 30
0.0
 11
342.1715224848967
 21
346.9985594835431
 31
0.0
  0
LINE
  5
4B5
330
1A
100
AcDbEntity
  8
SEIHIN
  6
CONTINUOUS
 62
     3
 48
16.0
100
AcDbLine
 10
321.9694224848966
 20
346.9985594835431
 30
0.0
 11
342.1715224848967
 21
346.9985594835431
 31
0.0
  0
ARC
  5
4B6
330
1A
100
AcDbEntity
  8
SEIHIN
  6
CONTINUOUS
 62
     3
 48
16.0
100
AcDbCircle
 10
294.5418796740294
 20
316.9985114096452
 30
0.0
 40
14.99999628839968
100
AcDbArc
 50
15.46580808093153
 51
84.43300742871057
  0
LINE
  5
4B7
330
1A
100
AcDbEntity
  8
SEIHIN
  6
CONTINUOUS
 62
     3
 48
16.0
100
AcDbLine
 10
299.5593224848966
 20
323.6975594835432
 30
0.0
 11
293.1710224848967
 21
320.0091594835432
 31
0.0
  0
LINE
  5
4B8
330
1A
100
AcDbEntity
  8
SEIHIN
  6
CONTINUOUS
 62
     3
 48
16.0
100
AcDbLine
 10
293.1710224848967
 20
320.0091594835432
 30
0.0
 11
299.5593224848966
 21
323.6975594835432
 31
0.0
  0
ARC
  5
4B9
330
1A
100
AcDbEntity
  8
SEIHIN
  6
CONTINUOUS
 62
     3
 48
16.0
100
AcDbCircle
 10
292.3704894084198
 20
315.8606870703164
 30
0.0
 40
14.00002028607608
100
AcDbArc
 50
13.65802116779107
 51
86.68345681807329
  0
LINE
  5
4BA
330
1A
100
AcDbEntity
  8
SEIHIN
  6
CONTINUOUS
 62
     3
 48
16.0
100
AcDbLine
 10
297.1710224848967
 20
314.2360594835432
 30
0.0
 11
297.1710224848967
 21
322.3186594835431
 31
0.0
  0
LINE
  5
4BB
330
1A
100
AcDbEntity
  8
SEIHIN
  6
CONTINUOUS
 62
     3
 48
16.0
100
AcDbLine
 10
303.1703224848967
 20
314.2360594835432
 30
0.0
 11
303.4839224848967
 21
314.0549594835432
 31
0.0
  0
LINE
  5
4BC
330
1A
100
AcDbEntity
  8
SEIHIN
  6
CONTINUOUS
 62
     3
 48
16.0
100
AcDbLine
 10
296.1713224848967
 20
331.9985594835431
 30
0.0
 11
296.0701224848967
 21
331.9204594835432
 31
0.0
  0
ARC
  5
4BD
330
1A
100
AcDbEntity
  8
SEIHIN
  6
CONTINUOUS
 62
     3
 48
16.0
100
AcDbCircle
 10
312.1715104669684
 20
343.9985668429935
 30
0.0
 40
8.999992640557531
100
AcDbArc
 50
27.03559812391546
 51
89.99992349143033
  0
ARC
  5
4BE
330
1A
100
AcDbEntity
  8
SEIHIN
  6
CONTINUOUS
 62
     3
 48
16.0
100
AcDbCircle
 10
321.9694533553941
 20
348.9985405796143
 30
0.0
 40
1.999981096309585
100
AcDbArc
 50
207.0356525368785
 51
269.9991156170307
  0
ARC
  5
4BF
330
1A
100
AcDbEntity
  8
SEIHIN
  6
CONTINUOUS
 62
     3
 48
16.0
100
AcDbCircle
 10
340.3759877336733
 20
373.882926180472
 30
0.0
 40
13.99997230428279
100
AcDbArc
 50
277.3682235934518
 51
350.1940259362856
  0
LINE
  5
4C0
330
1A
100
AcDbEntity
  8
SEIHIN
  6
CONTINUOUS
 62
     3
 48
16.0
100
AcDbLine
 10
361.1715224848967
 20
389.9985594835432
 30
0.0
 11
361.1715224848967
 21
382.9985594835432
 31
0.0
  0
LINE
  5
4C1
330
1A
100
AcDbEntity
  8
CENTER_L
  6
CENTER
 62
     1
 48
5.0
100
AcDbLine
 10
559.331865749197
 20
174.9976731858524
 30
0.0
 11
559.3318657491968
 21
359.698059483543
 31
0.0
  0
ARC
  5
4C2
330
1A
100
AcDbEntity
  8
SEIHIN
  6
CONTINUOUS
 62
     3
 48
16.0
100
AcDbCircle
 10
559.3319934037533
 20
359.9980818212516
 30
0.0
 40
50.30002233787055
100
AcDbArc
 50
269.9998545911713
 51
347.8585195285106
  0
LINE
  5
4C3
330
1A
100
AcDbEntity
  8
SEIHIN
  6
CONTINUOUS
 62
     3
 48
16.0
100
AcDbLine
 10
469.8719657491969
 20
343.527159483543
 30
0.0
 11
476.331765749197
 21
301.9982594835433
 31
0.0
  0
LINE
  5
4C4
330
1A
100
AcDbEntity
  8
SEIHIN
  6
CONTINUOUS
 62
     3
 48
16.0
100
AcDbLine
 10
477.331965749197
 20
346.9983594835432
 30
0.0
 11
484.331765749197
 21
301.9982594835433
 31
0.0
  0
LINE
  5
4C5
330
1A
100
AcDbEntity
  8
SEIHIN
  6
CONTINUOUS
 62
     3
 48
16.0
100
AcDbLine
 10
474.8319657491967
 20
346.9983594835432
 30
0.0
 11
481.8317657491969
 21
301.9982594835433
 31
0.0
  0
LINE
  5
4C6
330
1A
100
AcDbEntity
  8
SEIHIN
  6
CONTINUOUS
 62
     3
 48
16.0
100
AcDbLine
 10
473.8319657491969
 20
346.9983594835432
 30
0.0
 11
480.8317657491969
 21
301.9982594835433
 31
0.0
  0
ARC
  5
4C7
330
1A
100
AcDbEntity
  8
SEIHIN
  6
CONTINUOUS
 62
     3
 48
16.0
100
AcDbCircle
 10
559.3319511139595
 20
359.9980713050903
 30
0.0
 40
50.30001182161961
100
AcDbArc
 50
192.1413542814301
 51
269.9999027626345
  0
LINE
  5
4C8
330
1A
100
AcDbEntity
  8
SEIHIN
  6
CONTINUOUS
 62
     3
 48
16.0
100
AcDbLine
 10
621.5818657491968
 20
346.9979594835431
 30
0.0
 11
606.5771657491969
 21
227.8300594835432
 31
0.0
  0
TEXT
  5
4C9
330
1A
100
AcDbEntity
  8
SUNPOU
 62
     4
100
AcDbText
 10
600.4846399175619
 20
66.24675306066642
 30
0.0
 40
8.0
  1
※a　のきといの縁切り間隔寸法を示す。　
100
AcDbText
  0
TEXT
  5
4CA
330
1A
100
AcDbEntity
  8
SUNPOU
 62
     4
100
AcDbText
 10
600.4846399175619
 20
53.51239554210319
 30
0.0
 40
8.0
  1
※b　エルボの差込み寸法を示す。　
100
AcDbText
  0
TEXT
  5
4CE
330
1A
100
AcDbEntity
  8
ZUWAKU
 62
     7
100
AcDbText
 10
654.2531733678779
 20
15.90287984531518
 30
0.0
 40
8.0
  1
ＧＬ１４
100
AcDbText
  0
DIMENSION
  5
4D0
330
1A
100
AcDbEntity
  8
SUNPOU
  6
CONTINUOUS
100
AcDbDimension
  2
*D6
 10
530.1314657491968
 20
146.5672881032112
 30
0.0
 11
559.3315157491968
 21
151.5672881032112
 31
0.0
 12
-1.134753004899266
 22
-22.67627873097058
 32
0.0
 70
    32
  1
φ<>
  3
STANDARD
100
AcDbAlignedDimension
 13
588.5315657491966
 23
181.9979594835431
 33
0.0
 14
530.1314657491968
 24
181.9980594835431
 34
0.0
100
AcDbRotatedDimension
1001
ACAD
1000
DSTYLE
1002
{
1070
   140
1040
6.0
1070
    74
1070
     0
1070
   172
1070
     1
1070
    73
1070
     0
1070
   272
1070
     2
1070
    77
1070
     3
1070
   173
1070
     1
1070
   147
1040
2.0
1070
    42
1040
6.0
1070
    44
1040
3.0
1070
    43
1040
14.0
1070
   271
1070
     0
1070
   178
1070
     4
1070
   177
1070
     4
1070
   176
1070
     4
1070
   141
1040
150.0
1070
     7
1000
_OPEN
1070
     6
1000
_OPEN
1070
    41
1040
7.0
1002
}
  0
LINE
  5
4D1
330
1A
100
AcDbEntity
  8
SEIHIN
  6
CONTINUOUS
 62
     3
 48
16.0
100
AcDbLine
 10
559.3316657491969
 20
217.9980594835432
 30
0.0
 11
596.1816657491969
 21
217.9978594835432
 31
0.0
  0
LINE
  5
4D2
330
1A
100
AcDbEntity
  8
SEIHIN
  6
CONTINUOUS
 62
     3
 48
16.0
100
AcDbLine
 10
559.3315657491968
 20
194.9980594835431
 30
0.0
 11
593.231565749197
 21
194.9979594835432
 31
0.0
  0
LINE
  5
4D3
330
1A
100
AcDbEntity
  8
SEIHIN
  6
CONTINUOUS
 62
     3
 48
16.0
100
AcDbLine
 10
559.3315657491968
 20
197.9980594835431
 30
0.0
 11
596.1815657491968
 21
197.9978594835431
 31
0.0
  0
LINE
  5
4D4
330
1A
100
AcDbEntity
  8
SEIHIN
  6
CONTINUOUS
 62
     3
 48
16.0
100
AcDbLine
 10
559.3315657491968
 20
181.9980594835431
 30
0.0
 11
588.5315657491966
 21
181.9979594835431
 31
0.0
  0
LINE
  5
4D5
330
1A
100
AcDbEntity
  8
SEIHIN
  6
CONTINUOUS
 62
     3
 48
16.0
100
AcDbLine
 10
606.4204657491968
 20
247.998059483543
 30
0.0
 11
501.9185657491968
 21
247.9982594835431
 31
0.0
  0
LINE
  5
4D6
330
1A
100
AcDbEntity
  8
SEIHIN
  6
CONTINUOUS
 62
     3
 48
16.0
100
AcDbLine
 10
591.0816657491968
 20
217.9979594835432
 30
0.0
 11
527.5816657491969
 21
217.9979594835432
 31
0.0
  0
ARC
  5
4D7
330
1A
100
AcDbEntity
  8
SEIHIN
  6
CONTINUOUS
 62
     3
 48
16.0
100
AcDbCircle
 10
558.0223657491969
 20
381.3718594836063
 30
0.0
 40
155.3793427198067
100
AcDbArc
 50
257.6726821002272
 51
282.3273178997727
  0
LINE
  5
4D8
330
1A
100
AcDbEntity
  8
SEIHIN
  6
CONTINUOUS
 62
     3
 48
16.0
100
AcDbLine
 10
522.4815657491969
 20
217.9980594835432
 30
0.0
 11
522.4815657491969
 21
197.9980594835431
 31
0.0
  0
LINE
  5
4D9
330
1A
100
AcDbEntity
  8
SEIHIN
  6
CONTINUOUS
 62
     3
 48
16.0
100
AcDbLine
 10
559.3315657491968
 20
181.9980594835431
 30
0.0
 11
530.1314657491968
 21
181.9980594835431
 31
0.0
  0
LINE
  5
4DA
330
1A
100
AcDbEntity
  8
SEIHIN
  6
CONTINUOUS
 62
     3
 48
16.0
100
AcDbLine
 10
559.3316657491969
 20
197.9980594835431
 30
0.0
 11
522.4815657491969
 21
197.9980594835431
 31
0.0
  0
LINE
  5
4DB
330
1A
100
AcDbEntity
  8
SEIHIN
  6
CONTINUOUS
 62
     3
 48
16.0
100
AcDbLine
 10
559.3316657491969
 20
194.9980594835431
 30
0.0
 11
525.431565749197
 21
194.9980594835431
 31
0.0
  0
LINE
  5
4DC
330
1A
100
AcDbEntity
  8
SEIHIN
  6
CONTINUOUS
 62
     3
 48
16.0
100
AcDbLine
 10
530.1315657491968
 20
181.9981594835431
 30
0.0
 11
530.1316657491971
 21
194.9981594835431
 31
0.0
  0
LINE
  5
4DD
330
1A
100
AcDbEntity
  8
SEIHIN
  6
CONTINUOUS
 62
     3
 48
16.0
100
AcDbLine
 10
522.4815657491969
 20
197.9980594835431
 30
0.0
 11
525.431565749197
 21
194.9980594835431
 31
0.0
  0
ARC
  5
4DE
330
1A
100
AcDbEntity
  8
SEIHIN
  6
CONTINUOUS
 62
     3
 48
16.0
100
AcDbCircle
 10
482.4901094362127
 20
222.919876290871
 30
0.0
 40
29.99995151257897
100
AcDbArc
 50
9.415898094852899
 51
45.99511753002209
  0
ARC
  5
4DF
330
1A
100
AcDbEntity
  8
SEIHIN
  6
CONTINUOUS
 62
     3
 48
16.0
100
AcDbCircle
 10
838.7632081966424
 20
365.0725799833715
 30
0.0
 40
360.0000198528745
100
AcDbArc
 50
190.0908494582474
 51
198.4033983988732
  0
ARC
  5
4E0
330
1A
100
AcDbEntity
  8
SEIHIN
  6
CONTINUOUS
 62
     3
 48
16.0
100
AcDbCircle
 10
836.2632172310163
 20
365.0725574947526
 30
0.0
 40
360.0000248072785
100
AcDbArc
 50
190.0908456825108
 51
197.8041924497265
  0
ARC
  5
4E1
330
1A
100
AcDbEntity
  8
SEIHIN
  6
CONTINUOUS
 62
     3
 48
16.0
100
AcDbCircle
 10
501.918540758568
 20
252.9982775059781
 30
0.0
 40
5.000018022497371
100
AcDbArc
 50
198.4044339361556
 51
270.0002863704798
  0
LINE
  5
4E2
330
1A
100
AcDbEntity
  8
SEIHIN
  6
CONTINUOUS
 62
     3
 48
16.0
100
AcDbLine
 10
503.3317657491967
 20
247.9982594835431
 30
0.0
 11
503.3317657491967
 21
244.4982594835431
 31
0.0
  0
LINE
  5
4E3
330
1A
100
AcDbEntity
  8
SEIHIN
  6
CONTINUOUS
 62
     3
 48
16.0
100
AcDbLine
 10
496.0043657491969
 20
254.9982594835432
 30
0.0
 11
493.5043657491968
 21
254.9982594835432
 31
0.0
  0
LINE
  5
4E4
330
1A
100
AcDbEntity
  8
SEIHIN
  6
CONTINUOUS
 62
     3
 48
16.0
100
AcDbLine
 10
495.055365749197
 20
257.9982594835432
 30
0.0
 11
492.555365749197
 21
257.9982594835432
 31
0.0
  0
ARC
  5
4E5
330
1A
100
AcDbEntity
  8
SEIHIN
  6
CONTINUOUS
 62
     3
 48
16.0
100
AcDbCircle
 10
830.763154662465
 20
365.0728717979113
 30
0.0
 40
360.0000182756074
100
AcDbArc
 50
190.0908966763667
 51
195.964531553007
  0
ARC
  5
4E6
330
1A
100
AcDbEntity
  8
SEIHIN
  6
CONTINUOUS
 62
     3
 48
16.0
100
AcDbCircle
 10
835.2633144567546
 20
365.0724544281851
 30
0.0
 40
360.0000782782814
100
AcDbArc
 50
190.0907143478981
 51
196.6333112542448
  0
LINE
  5
4E7
330
1A
100
AcDbEntity
  8
SEIHIN
  6
CONTINUOUS
 62
     3
 48
16.0
100
AcDbLine
 10
484.7323657491968
 20
265.9982594835432
 30
0.0
 11
490.363865749197
 21
261.9982594835432
 31
0.0
  0
LINE
  5
4E8
330
1A
100
AcDbEntity
  8
SEIHIN
  6
CONTINUOUS
 62
     3
 48
16.0
100
AcDbLine
 10
491.3346657491969
 20
261.9982594835432
 30
0.0
 11
490.334665749197
 21
261.9982594835432
 31
0.0
  0
LINE
  5
4E9
330
1A
100
AcDbEntity
  8
SEIHIN
  6
CONTINUOUS
 62
     3
 48
16.0
100
AcDbLine
 10
559.3316657491969
 20
217.9980594835432
 30
0.0
 11
522.4815657491969
 21
217.9981594835431
 31
0.0
  0
ARC
  5
4EA
330
1A
100
AcDbEntity
  8
SEIHIN
  6
CONTINUOUS
 62
     3
 48
16.0
100
AcDbCircle
 10
514.3861689709599
 20
218.2664562580306
 30
0.0
 40
7.999996993124349
100
AcDbArc
 50
358.078104787172
 51
91.8552988400847
  0
LINE
  5
4EB
330
1A
100
AcDbEntity
  8
SEIHIN
  6
CONTINUOUS
 62
     3
 48
16.0
100
AcDbLine
 10
522.381665749197
 20
217.9981594835431
 30
0.0
 11
527.5816657491969
 21
217.9981594835431
 31
0.0
  0
ARC
  5
4EC
330
1A
100
AcDbEntity
  8
SEIHIN
  6
CONTINUOUS
 62
     3
 48
16.0
100
AcDbCircle
 10
514.0435239888581
 20
228.2413885487453
 30
0.0
 40
1.999977853651893
100
AcDbArc
 50
191.2486196141889
 51
279.0776351133878
  0
DIMENSION
  5
4ED
330
1A
100
AcDbEntity
  8
SUNPOU
  6
CONTINUOUS
 62
     4
100
AcDbDimension
  2
*D7
 10
631.5633962721899
 20
206.9979507812355
 30
0.0
 11
626.5633962721899
 21
235.3979507812355
 31
0.0
 12
-1.134753004899266
 22
-22.67627873097058
 32
0.0
 70
    32
  1
※b <>
  3
STANDARD
100
AcDbAlignedDimension
 13
593.231565749197
 23
194.9979594835432
 33
0.0
 14
596.1816657491969
 24
206.9979507812355
 34
0.0
 50
90.0
100
AcDbRotatedDimension
1001
ACAD
1000
DSTYLE
1002
{
1070
   140
1040
6.0
1070
    74
1070
     0
1070
   172
1070
     1
1070
    73
1070
     0
1070
   272
1070
     2
1070
    77
1070
     3
1070
   173
1070
     1
1070
   147
1040
2.0
1070
    42
1040
6.0
1070
    44
1040
3.0
1070
    43
1040
14.0
1070
   271
1070
     0
1070
   178
1070
     4
1070
   177
1070
     4
1070
   176
1070
     4
1070
   141
1040
150.0
1070
     7
1000
_OPEN
1070
     6
1000
_OPEN
1070
    41
1040
7.0
1002
}
  0
LINE
  5
4EE
330
1A
100
AcDbEntity
  8
SEIHIN
  6
CONTINUOUS
 62
     3
 48
16.0
100
AcDbLine
 10
596.1816657491969
 20
217.9980594835432
 30
0.0
 11
596.1816657491969
 21
197.9980594835431
 31
0.0
  0
LINE
  5
4EF
330
1A
100
AcDbEntity
  8
SEIHIN
  6
CONTINUOUS
 62
     3
 48
16.0
100
AcDbLine
 10
588.5315657491966
 20
181.9980594835431
 30
0.0
 11
588.5315657491966
 21
194.9980594835431
 31
0.0
  0
LINE
  5
4F0
330
1A
100
AcDbEntity
  8
SEIHIN
  6
CONTINUOUS
 62
     3
 48
16.0
100
AcDbLine
 10
596.1815657491968
 20
197.9978594835431
 30
0.0
 11
593.231565749197
 21
194.9979594835432
 31
0.0
  0
LINE
  5
4F1
330
1A
100
AcDbEntity
  8
SEIHIN
  6
CONTINUOUS
 62
     3
 48
16.0
100
AcDbLine
 10
596.2816657491966
 20
217.9979594835432
 30
0.0
 11
591.0816657491968
 21
217.9979594835432
 31
0.0
  0
ARC
  5
4F2
330
1A
100
AcDbEntity
  8
SEIHIN
  6
CONTINUOUS
 62
     3
 48
16.0
100
AcDbCircle
 10
604.2771508394835
 20
218.2662450514766
 30
0.0
 40
7.999984935920752
100
AcDbArc
 50
86.21274255986232
 51
181.9218178041497
  0
ARC
  5
4F3
330
1A
100
AcDbEntity
  8
SEIHIN
  6
CONTINUOUS
 62
     3
 48
16.0
100
AcDbCircle
 10
604.6198516837925
 20
228.2411496951489
 30
0.0
 40
1.99994645678609
100
AcDbArc
 50
260.9209395864602
 51
348.7494154115119
  0
DIMENSION
  5
4F5
330
1A
100
AcDbEntity
  8
SUNPOU
  6
CONTINUOUS
 62
     4
100
AcDbDimension
  2
*D8
 10
451.3321657491967
 20
446.534488628303
 30
0.0
 11
536.4570657491968
 21
451.534488628303
 31
0.0
 12
-1.134753004899266
 22
-22.67627873097058
 32
0.0
 70
    32
  3
STANDARD
100
AcDbAlignedDimension
 13
621.5819657491969
 23
367.997959483543
 33
0.0
 14
451.3321657491967
 24
389.998459483543
 34
0.0
100
AcDbRotatedDimension
1001
ACAD
1000
DSTYLE
1002
{
1070
   140
1040
6.0
1070
    74
1070
     0
1070
   172
1070
     1
1070
    73
1070
     0
1070
   272
1070
     2
1070
    77
1070
     3
1070
   173
1070
     1
1070
   147
1040
2.0
1070
    42
1040
6.0
1070
    44
1040
3.0
1070
    43
1040
14.0
1070
   271
1070
     0
1070
   178
1070
     4
1070
   177
1070
     4
1070
   176
1070
     4
1070
   141
1040
150.0
1070
     7
1000
_OPEN
1070
     6
1000
_OPEN
1070
    41
1040
7.0
1002
}
  0
DIMENSION
  5
4F6
330
1A
100
AcDbEntity
  8
SUNPOU
  6
CONTINUOUS
 62
     4
100
AcDbDimension
  2
*D9
 10
559.3318657491968
 20
427.3381743817999
 30
0.0
 11
590.4569157491969
 21
432.3381743817999
 31
0.0
 12
-1.134753004899266
 22
-22.67627873097058
 32
0.0
 70
    32
  3
STANDARD
100
AcDbAlignedDimension
 13
621.5819657491969
 23
367.997959483543
 33
0.0
 14
559.3318657491968
 24
359.698059483543
 34
0.0
100
AcDbRotatedDimension
1001
ACAD
1000
DSTYLE
1002
{
1070
   140
1040
6.0
1070
    74
1070
     0
1070
   172
1070
     1
1070
    73
1070
     0
1070
   272
1070
     2
1070
    77
1070
     3
1070
   173
1070
     1
1070
   147
1040
2.0
1070
    42
1040
6.0
1070
    44
1040
3.0
1070
    43
1040
14.0
1070
   271
1070
     0
1070
   178
1070
     4
1070
   177
1070
     4
1070
   176
1070
     4
1070
   141
1040
150.0
1070
     7
1000
_OPEN
1070
     6
1000
_OPEN
1070
    41
1040
7.0
1002
}
  0
DIMENSION
  5
4F7
330
1A
100
AcDbEntity
  8
SUNPOU
  6
CONTINUOUS
 62
     4
100
AcDbDimension
  2
*D10
 10
663.9992283949063
 20
309.6980594835431
 30
0.0
 11
658.9992283949063
 21
338.8480094835431
 31
0.0
 12
-1.134753004899266
 22
-22.67627873097058
 32
0.0
 70
    32
  3
STANDARD
100
AcDbAlignedDimension
 13
621.5819657491969
 23
367.997959483543
 33
0.0
 14
559.331865749197
 24
309.6980594835431
 34
0.0
 50
90.0
100
AcDbRotatedDimension
1001
ACAD
1000
DSTYLE
1002
{
1070
   140
1040
6.0
1070
    74
1070
     0
1070
   172
1070
     1
1070
    73
1070
     0
1070
   272
1070
     2
1070
    77
1070
     3
1070
   173
1070
     1
1070
   147
1040
2.0
1070
    42
1040
6.0
1070
    44
1040
3.0
1070
    43
1040
14.0
1070
   271
1070
     0
1070
   178
1070
     4
1070
   177
1070
     4
1070
   176
1070
     4
1070
   141
1040
150.0
1070
     7
1000
_OPEN
1070
     6
1000
_OPEN
1070
    41
1040
7.0
1002
}
  0
ARC
  5
4F8
330
1A
100
AcDbEntity
  8
NOKITOI
  6
PHANTOM
 62
     8
 48
2.0
100
AcDbCircle
 10
559.331865749197
 20
359.9980714835431
 30
0.0
 40
50.300012
100
AcDbArc
 50
188.6764639999999
 51
351.2914929999999
  0
ARC
  5
4F9
330
1A
100
AcDbEntity
  8
NOKITOI
  6
PHANTOM
 62
     8
 48
2.0
100
AcDbCircle
 10
559.331865749197
 20
359.9980714835431
 30
0.0
 40
49.00000099999999
100
AcDbArc
 50
185.413376
 51
354.5863799999999
  0
ARC
  5
4FA
330
1A
100
AcDbEntity
  8
NOKITOI
  6
PHANTOM
 62
     8
 48
2.0
100
AcDbCircle
 10
506.5702657491969
 20
354.9981714835432
 30
0.0
 40
3.999994
100
AcDbArc
 50
5.413986
 51
185.413851
  0
CIRCLE
  5
4FB
330
1A
100
AcDbEntity
  8
NOKITOI
  6
PHANTOM
 62
     8
 48
2.0
100
AcDbCircle
 10
506.5702657491969
 20
354.9981714835432
 30
0.0
 40
2.7
  0
ARC
  5
4FC
330
1A
100
AcDbEntity
  8
NOKITOI
  6
PHANTOM
 62
     8
 48
2.0
100
AcDbCircle
 10
506.5702657491969
 20
354.9981714835432
 30
0.0
 40
4.000029
100
AcDbArc
 50
185.413851
 51
319.252818
  0
ARC
  5
4FD
330
1A
100
AcDbEntity
  8
SEIHIN
  6
CONTINUOUS
 62
     3
 48
16.0
100
AcDbCircle
 10
501.618450507376
 20
379.9982697163035
 30
0.0
 40
9.99998976725125
100
AcDbArc
 50
22.24818908640873
 51
89.99991267071013
  0
ARC
  5
4FE
330
1A
100
AcDbEntity
  8
SEIHIN
  6
CONTINUOUS
 62
     3
 48
16.0
100
AcDbCircle
 10
507.332065749197
 20
374.9982594835432
 30
0.0
 40
3.0
100
AcDbArc
 50
0.0
 51
180.0
  0
ARC
  5
4FF
330
1A
100
AcDbEntity
  8
SEIHIN
  6
CONTINUOUS
 62
     3
 48
16.0
100
AcDbCircle
 10
507.332065749197
 20
374.9982594835432
 30
0.0
 40
3.0
100
AcDbArc
 50
180.0
 51
0.0
  0
LINE
  5
500
330
1A
100
AcDbEntity
  8
SEIHIN
  6
CONTINUOUS
 62
     3
 48
16.0
100
AcDbLine
 10
451.332065749197
 20
382.998459483543
 30
0.0
 11
511.1955657491969
 21
382.9982594835432
 31
0.0
  0
LINE
  5
501
330
1A
100
AcDbEntity
  8
SEIHIN
  6
CONTINUOUS
 62
     3
 48
16.0
100
AcDbLine
 10
505.5819657491969
 20
359.9981594835432
 30
0.0
 11
509.0819657491969
 21
359.9981594835432
 31
0.0
  0
LINE
  5
502
330
1A
100
AcDbEntity
  8
SEIHIN
  6
CONTINUOUS
 62
     3
 48
16.0
100
AcDbLine
 10
508.2018657491969
 20
350.998159483543
 30
0.0
 11
505.5819657491969
 21
350.998159483543
 31
0.0
  0
LINE
  5
503
330
1A
100
AcDbEntity
  8
SEIHIN
  6
CONTINUOUS
 62
     3
 48
16.0
100
AcDbLine
 10
470.3319657491969
 20
359.9983594835431
 30
0.0
 11
514.2130657491968
 21
359.9982594835432
 31
0.0
  0
LINE
  5
504
330
1A
100
AcDbEntity
  8
SEIHIN
  6
CONTINUOUS
 62
     3
 48
16.0
100
AcDbLine
 10
470.3319657491969
 20
346.9983594835432
 30
0.0
 11
510.7408657491967
 21
346.9982594835431
 31
0.0
  0
ARC
  5
505
330
1A
100
AcDbEntity
  8
SEIHIN
  6
CONTINUOUS
 62
     3
 48
16.0
100
AcDbCircle
 10
505.5819657491968
 20
356.4981594835431
 30
0.0
 40
3.500000000000085
100
AcDbArc
 50
89.99999999999859
 51
179.9999999999986
  0
LINE
  5
506
330
1A
100
AcDbEntity
  8
SEIHIN
  6
CONTINUOUS
 62
     3
 48
16.0
100
AcDbLine
 10
470.3319657491969
 20
359.9983594835431
 30
0.0
 11
470.3319657491969
 21
346.9983594835432
 31
0.0
  0
LINE
  5
507
330
1A
100
AcDbEntity
  8
SEIHIN
  6
CONTINUOUS
 62
     3
 48
16.0
100
AcDbLine
 10
472.0634657491969
 20
346.9983594835432
 30
0.0
 11
469.8719657491969
 21
343.527159483543
 31
0.0
  0
LINE
  5
508
330
1A
100
AcDbEntity
  8
SEIHIN
  6
CONTINUOUS
 62
     3
 48
16.0
100
AcDbLine
 10
502.0819657491967
 20
354.4981594835432
 30
0.0
 11
502.0819657491967
 21
356.4981594835432
 31
0.0
  0
ARC
  5
509
330
1A
100
AcDbEntity
  8
SEIHIN
  6
CONTINUOUS
 62
     3
 48
16.0
100
AcDbCircle
 10
505.5819657491969
 20
354.4981594835432
 30
0.0
 40
3.50000000000017
100
AcDbArc
 50
180.0
 51
270.0
  0
LINE
  5
50A
330
1A
100
AcDbEntity
  8
SEIHIN
  6
CONTINUOUS
 62
     3
 48
16.0
100
AcDbLine
 10
451.3321657491967
 20
389.998459483543
 30
0.0
 11
501.6184657491968
 21
389.9982594835432
 31
0.0
  0
ARC
  5
50B
330
1A
100
AcDbEntity
  8
SEIHIN
  6
CONTINUOUS
 62
     3
 48
16.0
100
AcDbCircle
 10
444.3463657491969
 20
370.865859483543
 30
0.0
 40
13.99999954464285
100
AcDbArc
 50
2.589832615410909
 51
60.06755312019737
  0
ARC
  5
50C
330
1A
100
AcDbEntity
  8
SEIHIN
  6
CONTINUOUS
 62
     3
 48
16.0
100
AcDbCircle
 10
472.1275082997213
 20
373.882718705894
 30
0.0
 40
13.99997871662768
100
AcDbArc
 50
189.8059384842424
 51
262.6313349512126
  0
LINE
  5
50D
330
1A
100
AcDbEntity
  8
SEIHIN
  6
CONTINUOUS
 62
     3
 48
16.0
100
AcDbLine
 10
451.3321657491967
 20
389.998459483543
 30
0.0
 11
451.332065749197
 21
382.998459483543
 31
0.0
  0
ARC
  5
50E
330
1A
100
AcDbEntity
  8
SEIHIN
  6
CONTINUOUS
 62
     3
 48
16.0
100
AcDbCircle
 10
507.3578758831388
 20
367.2788756961872
 30
0.0
 40
10.00002693746918
100
AcDbArc
 50
291.8642007149553
 51
4.119573346708672
  0
ARC
  5
50F
330
1A
100
AcDbEntity
  8
SEIHIN
  6
CONTINUOUS
 62
     3
 48
16.0
100
AcDbCircle
 10
508.2018341056054
 20
348.9981850426197
 30
0.0
 40
1.999974441173698
100
AcDbArc
 50
12.14227248764812
 51
89.9990934662914
  0
LINE
  5
510
330
1A
100
AcDbEntity
  8
SEIHIN
  6
CONTINUOUS
 62
     3
 48
16.0
100
AcDbLine
 10
517.3320657491967
 20
367.997259483543
 30
0.0
 11
510.8739657491969
 21
383.7844594835431
 31
0.0
  0
ARC
  5
511
330
1A
100
AcDbEntity
  8
SEIHIN
  6
CONTINUOUS
 62
     3
 48
16.0
100
AcDbCircle
 10
509.0819657491969
 20
357.9981594835432
 30
0.0
 40
1.999999999999914
100
AcDbArc
 50
359.9999999999975
 51
89.99999999999756
  0
ARC
  5
512
330
1A
100
AcDbEntity
  8
NOKITOI
  6
PHANTOM
 62
     8
 48
2.0
100
AcDbCircle
 10
612.0934657491968
 20
354.9979714835431
 30
0.0
 40
3.999958
100
AcDbArc
 50
121.784767
 51
174.584588
  0
CIRCLE
  5
513
330
1A
100
AcDbEntity
  8
NOKITOI
  6
PHANTOM
 62
     8
 48
2.0
100
AcDbCircle
 10
612.0934657491968
 20
354.9979714835431
 30
0.0
 40
2.7
  0
ARC
  5
514
330
1A
100
AcDbEntity
  8
NOKITOI
  6
PHANTOM
 62
     8
 48
2.0
100
AcDbCircle
 10
612.0934657491968
 20
354.9979714835431
 30
0.0
 40
3.999994
100
AcDbArc
 50
220.269583
 51
121.7840119999999
  0
ARC
  5
515
330
1A
100
AcDbEntity
  8
SEIHIN
  6
CONTINUOUS
 62
     3
 48
16.0
100
AcDbCircle
 10
613.0819657491969
 20
356.497959483543
 30
0.0
 40
3.5
100
AcDbArc
 50
0.0
 51
90.0
  0
LINE
  5
516
330
1A
100
AcDbEntity
  8
SEIHIN
  6
CONTINUOUS
 62
     3
 48
16.0
100
AcDbLine
 10
621.5819657491969
 20
367.997959483543
 30
0.0
 11
621.5818657491968
 21
346.9979594835431
 31
0.0
  0
ARC
  5
517
330
1A
100
AcDbEntity
  8
SEIHIN
  6
CONTINUOUS
 62
     3
 48
16.0
100
AcDbCircle
 10
607.4980559069124
 20
363.9973676856379
 30
0.0
 40
5.999993572082064
100
AcDbArc
 50
189.5873787683692
 51
270.8003519262483
  0
ARC
  5
518
330
1A
100
AcDbEntity
  8
SEIHIN
  6
CONTINUOUS
 62
     3
 48
16.0
100
AcDbCircle
 10
610.4620973927885
 20
348.9979850426198
 30
0.0
 40
1.999974441173685
100
AcDbArc
 50
90.00090653370943
 51
167.857727512352
  0
LINE
  5
519
330
1A
100
AcDbEntity
  8
SEIHIN
  6
CONTINUOUS
 62
     3
 48
16.0
100
AcDbLine
 10
621.5818657491968
 20
346.9979594835431
 30
0.0
 11
607.9230657491969
 21
346.9979594835431
 31
0.0
  0
ARC
  5
51A
330
1A
100
AcDbEntity
  8
SEIHIN
  6
CONTINUOUS
 62
     3
 48
16.0
100
AcDbCircle
 10
613.0819657491969
 20
354.4979594835432
 30
0.0
 40
3.499999999999943
100
AcDbArc
 50
269.999999999999
 51
359.999999999999
  0
LINE
  5
51B
330
1A
100
AcDbEntity
  8
SEIHIN
  6
CONTINUOUS
 62
     3
 48
16.0
100
AcDbLine
 10
616.581965749197
 20
354.497959483543
 30
0.0
 11
616.581965749197
 21
356.497959483543
 31
0.0
  0
LINE
  5
51C
330
1A
100
AcDbEntity
  8
SEIHIN
  6
CONTINUOUS
 62
     3
 48
16.0
100
AcDbLine
 10
610.4620657491969
 20
350.9979594835431
 30
0.0
 11
613.0818657491968
 21
350.9979594835431
 31
0.0
  0
LINE
  5
51D
330
1A
100
AcDbEntity
  8
SEIHIN
  6
CONTINUOUS
 62
     3
 48
16.0
100
AcDbLine
 10
606.581965749197
 20
367.9980594835432
 30
0.0
 11
621.5819657491969
 21
367.997959483543
 31
0.0
  0
ARC
  5
51E
330
1A
100
AcDbEntity
  8
SEIHIN
  6
CONTINUOUS
 62
     3
 48
16.0
100
AcDbCircle
 10
609.581965749197
 20
357.997959483543
 30
0.0
 40
2.000000000000056
100
AcDbArc
 50
89.99999999999836
 51
179.9999999999983
  0
ARC
  5
51F
330
1A
100
AcDbEntity
  8
SEIHIN
  6
CONTINUOUS
 62
     3
 48
16.0
100
AcDbCircle
 10
606.581965749197
 20
362.9980594835432
 30
0.0
 40
5.0
100
AcDbArc
 50
90.0
 51
180.0
  0
LINE
  5
520
330
1A
100
AcDbEntity
  8
SEIHIN
  6
CONTINUOUS
 62
     3
 48
16.0
100
AcDbLine
 10
613.0819657491969
 20
359.997959483543
 30
0.0
 11
609.581965749197
 21
359.997959483543
 31
0.0
  0
LINE
  5
624
330
1A
100
AcDbEntity
  8
SUNPOU
 62
     4
100
AcDbLine
 10
596.1816657491969
 20
191.9980594835431
 30
0.0
 11
596.1816657491969
 21
122.4827002323254
 31
0.0
  0
LINE
  5
625
330
1A
100
AcDbEntity
  8
SUNPOU
 62
     4
100
AcDbLine
 10
522.4815657491969
 20
191.9980594835431
 30
0.0
 11
522.4815657491969
 21
122.4827002323254
 31
0.0
  0
LINE
  5
626
330
1A
100
AcDbEntity
  8
SUNPOU
 62
     4
100
AcDbLine
 10
589.181665749197
 20
125.4827002323254
 30
0.0
 11
529.481565749197
 21
125.4827002323254
 31
0.0
  0
INSERT
  5
627
330
1A
100
AcDbEntity
  8
SUNPOU
 62
     4
100
AcDbBlockReference
  2
_OPEN
 10
596.1816657491969
 20
125.4827002323254
 30
0.0
 41
7.0
 42
7.0
 43
7.0
  0
INSERT
  5
628
330
1A
100
AcDbEntity
  8
SUNPOU
 62
     4
100
AcDbBlockReference
  2
_OPEN
 10
522.4815657491969
 20
125.4827002323254
 30
0.0
 41
7.0
 42
7.0
 43
7.0
 50
180.0
  0
MTEXT
  5
629
330
1A
100
AcDbEntity
  8
SUNPOU
 62
     4
100
AcDbMText
 10
559.331615749197
 20
130.4827002323254
 30
0.0
 40
6.0
 41
0.0
 71
     5
 72
     1
  1
\A1;φ74
1001
ACAD
1000
MTEXTBEGIN
1070
    73
1070
     1
1070
    44
1040
1.0
1070
    74
1070
     0
1000
MTEXTEND
1000
MTEXTBEGIN
1070
    73
1070
     1
1070
    44
1040
1.0
1070
    74
1070
     0
1000
MTEXTEND
  0
POINT
  5
62A
330
1A
100
AcDbEntity
  8
SUNPOU
 62
     4
100
AcDbPoint
 10
596.1816657491969
 20
197.9980594835431
 30
0.0
  0
POINT
  5
62B
330
1A
100
AcDbEntity
  8
SUNPOU
 62
     4
100
AcDbPoint
 10
522.4815657491969
 20
197.9980594835431
 30
0.0
  0
POINT
  5
62C
330
1A
100
AcDbEntity
  8
SUNPOU
 62
     4
100
AcDbPoint
 10
522.4815657491969
 20
125.4827002323254
 30
0.0
  0
VIEWPORT
  5
22
330
17
100
AcDbEntity
 67
     1
  8
0
100
AcDbViewport
 10
313.6808219178082
 20
148.5
 30
0.0
 40
627.3616438356165
 41
297.0
 68
     2
 69
     1
1001
ACAD
1000
MVIEW
1002
{
1070
    16
1010
0.0
1020
0.0
1030
0.0
1010
0.0
1020
0.0
1030
1.0
1040
0.0
1040
297.0
1040
313.6808219178082
1040
148.5
1040
50.0
1040
0.0
1040
0.0
1070
     0
1070
   100
1070
     1
1070
     0
1070
     0
1070
     0
1070
     0
1070
     0
1040
0.0
1040
0.0
1040
0.0
1040
1.0
1040
1.0
1040
10.0
1040
10.0
1070
     0
1002
{
1002
}
1002
}
  0
VIEWPORT
  5
64
330
17
100
AcDbEntity
 67
     1
  8
VIEWPORT
100
AcDbViewport
 10
210.0
 20
148.5
 30
0.0
 40
420.0
 41
297.0
 68
     1
 69
     2
1001
ACAD
1000
MVIEW
1002
{
1070
    16
1010
0.0
1020
0.0
1030
0.0
1010
0.0
1020
0.0
1030
1.0
1040
0.0
1040
605.8799999999998
1040
420.0
1040
297.0
1040
50.0
1040
0.0
1040
0.0
1070
     0
1070
   100
1070
     1
1070
     0
1070
     0
1070
     0
1070
     0
1070
     0
1040
0.0
1040
0.0
1040
0.0
1040
10.0
1040
10.0
1040
0.0
1040
0.0
1070
     0
1002
{
1002
}
1002
}
  0
ENDSEC
  0
SECTION
  2
OBJECTS
  0
DICTIONARY
  5
C
330
0
100
AcDbDictionary
  3
ACAD_GROUP
350
D
  3
ACAD_LAYOUT
350
69C
  3
ACAD_MLINESTYLE
350
E
  3
ACAD_PLOTSETTINGS
350
69D
1001
ACAD
1000
TREAT_AS_HARD
1070
     0
  0
DICTIONARY
  5
6CB
330
1A
100
AcDbDictionary
  3
ACAD_LAYOUTSELFREF
350
6DB
1001
ACAD
1000
TREAT_AS_HARD
1070
     1
  0
DICTIONARY
  5
6C9
330
17
100
AcDbDictionary
  3
ACAD_LAYOUTSELFREF
350
6DA
1001
ACAD
1000
TREAT_AS_HARD
1070
     1
  0
DICTIONARY
  5
D
102
{ACAD_REACTORS
330
C
102
}
330
C
100
AcDbDictionary
1001
ACAD
1000
TREAT_AS_HARD
1070
     0
  0
DICTIONARY
  5
69C
102
{ACAD_REACTORS
330
C
102
}
330
C
100
AcDbDictionary
1001
ACAD
1000
TREAT_AS_HARD
1070
     0
  0
DICTIONARY
  5
E
102
{ACAD_REACTORS
330
C
102
}
330
C
100
AcDbDictionary
  3
STANDARD
350
13
1001
ACAD
1000
TREAT_AS_HARD
1070
     0
  0
DICTIONARY
  5
69D
102
{ACAD_REACTORS
330
C
102
}
330
C
100
AcDbDictionary
1001
ACAD
1000
TREAT_AS_HARD
1070
     0
  0
XRECORD
  5
6DB
102
{ACAD_REACTORS
330
6CB
102
}
330
6CB
100
AcDbXrecord
340
1A
  0
XRECORD
  5
6DA
102
{ACAD_REACTORS
330
6C9
102
}
330
6C9
100
AcDbXrecord
340
17
  0
MLINESTYLE
  5
13
102
{ACAD_REACTORS
330
E
102
}
330
E
100
AcDbMlineStyle
  2
STANDARD
 70
     0
  3

 62
     0
 51
90.0
 52
90.0
 71
     2
 49
0.5
 62
   256
  6
BYLAYER
 49
-0.5
 62
   256
  6
BYLAYER
  0
ENDSEC
  0
EOF
