  0
SECTION
  2
HEADER
  9
$ACADVER
  1
AC1012
  9
$DWGCODEPAGE
  3
dos932
  9
$INSBASE
 10
0.0
 20
0.0
 30
0.0
  9
$EXTMIN
 10
19.90074647074652
 20
5.798621502208327
 30
0.0
  9
$EXTMAX
 10
1611.900746470746
 20
1124.166900699545
 30
0.0
  9
$LIMMIN
 10
0.0
 20
0.0
  9
$LIMMAX
 10
1682.0
 20
1188.0
  9
$ORTHOMODE
 70
     0
  9
$REGENMODE
 70
     1
  9
$FILLMODE
 70
     1
  9
$QTEXTMODE
 70
     0
  9
$MIRRTEXT
 70
     1
  9
$DRAGMODE
 70
     2
  9
$LTSCALE
 40
5.657142857142857
  9
$OSMODE
 70
    37
  9
$ATTMODE
 70
     1
  9
$TEXTSIZE
 40
19.8
  9
$TRACEWID
 40
0.05
  9
$TEXTSTYLE
  7
STANDARD
  9
$CLAYER
  8
SUNPOU
  9
$CELTYPE
  6
BYLAYER
  9
$CECOLOR
 62
   256
  9
$CELTSCALE
 40
1.0
  9
$DELOBJ
 70
     1
  9
$DISPSILH
 70
     0
  9
$DIMSCALE
 40
1.0
  9
$DIMASZ
 40
14.0
  9
$DIMEXO
 40
12.0
  9
$DIMDLI
 40
28.0
  9
$DIMRND
 40
0.0
  9
$DIMDLE
 40
0.0
  9
$DIMEXE
 40
6.0
  9
$DIMTP
 40
0.0
  9
$DIMTM
 40
0.0
  9
$DIMTXT
 40
12.0
  9
$DIMCEN
 40
150.0
  9
$DIMTSZ
 40
0.0
  9
$DIMTOL
 70
     0
  9
$DIMLIM
 70
     0
  9
$DIMTIH
 70
     0
  9
$DIMTOH
 70
     0
  9
$DIMSE1
 70
     0
  9
$DIMSE2
 70
     0
  9
$DIMTAD
 70
     3
  9
$DIMZIN
 70
     0
  9
$DIMBLK
  1

  9
$DIMASO
 70
     1
  9
$DIMSHO
 70
     1
  9
$DIMPOST
  1

  9
$DIMAPOST
  1

  9
$DIMALT
 70
     0
  9
$DIMALTD
 70
     2
  9
$DIMALTF
 40
0.03937
  9
$DIMLFAC
 40
1.0
  9
$DIMTOFL
 70
     1
  9
$DIMTVP
 40
0.0
  9
$DIMTIX
 70
     0
  9
$DIMSOXD
 70
     0
  9
$DIMSAH
 70
     1
  9
$DIMBLK1
  1
OPEN
  9
$DIMBLK2
  1
OPEN
  9
$DIMSTYLE
  2
STANDARD
  9
$DIMCLRD
 70
   256
  9
$DIMCLRE
 70
   256
  9
$DIMCLRT
 70
   256
  9
$DIMTFAC
 40
1.0
  9
$DIMGAP
 40
4.0
  9
$DIMJUST
 70
     0
  9
$DIMSD1
 70
     0
  9
$DIMSD2
 70
     0
  9
$DIMTOLJ
 70
     1
  9
$DIMTZIN
 70
     0
  9
$DIMALTZ
 70
     0
  9
$DIMALTTZ
 70
     0
  9
$DIMFIT
 70
     3
  9
$DIMUPT
 70
     0
  9
$DIMUNIT
 70
     2
  9
$DIMDEC
 70
     0
  9
$DIMTDEC
 70
     0
  9
$DIMALTU
 70
     2
  9
$DIMALTTD
 70
     2
  9
$DIMTXSTY
  7
STANDARD
  9
$DIMAUNIT
 70
     0
  9
$LUNITS
 70
     2
  9
$LUPREC
 70
     4
  9
$SKETCHINC
 40
0.1
  9
$FILLETRAD
 40
56.57142857142858
  9
$AUNITS
 70
     0
  9
$AUPREC
 70
     0
  9
$MENU
  1
acad
  9
$ELEVATION
 40
0.0
  9
$PELEVATION
 40
0.0
  9
$THICKNESS
 40
0.0
  9
$LIMCHECK
 70
     0
  9
$BLIPMODE
 70
     0
  9
$CHAMFERA
 40
56.57142857142858
  9
$CHAMFERB
 40
56.57142857142858
  9
$CHAMFERC
 40
113.1428571428571
  9
$CHAMFERD
 40
0.0
  9
$SKPOLY
 70
     0
  9
$TDCREATE
 40
2450994.355304167
  9
$TDUPDATE
 40
2452393.709342117
  9
$TDINDWG
 40
0.0183390972
  9
$TDUSRTIMER
 40
0.0183390972
  9
$USRTIMER
 70
     1
  9
$ANGBASE
 50
0.0
  9
$ANGDIR
 70
     0
  9
$PDMODE
 70
     1
  9
$PDSIZE
 40
0.0
  9
$PLINEWID
 40
0.0
  9
$COORDS
 70
     1
  9
$SPLFRAME
 70
     0
  9
$SPLINETYPE
 70
     6
  9
$SPLINESEGS
 70
     8
  9
$ATTDIA
 70
     0
  9
$ATTREQ
 70
     1
  9
$HANDLING
 70
 10241
  9
$HANDSEED
  5
826
  9
$SURFTAB1
 70
     6
  9
$SURFTAB2
 70
     6
  9
$SURFTYPE
 70
     6
  9
$SURFU
 70
     6
  9
$SURFV
 70
     6
  9
$UCSNAME
  2

  9
$UCSORG
 10
0.0
 20
0.0
 30
0.0
  9
$UCSXDIR
 10
1.0
 20
0.0
 30
0.0
  9
$UCSYDIR
 10
0.0
 20
1.0
 30
0.0
  9
$PUCSNAME
  2

  9
$PUCSORG
 10
0.0
 20
0.0
 30
0.0
  9
$PUCSXDIR
 10
1.0
 20
0.0
 30
0.0
  9
$PUCSYDIR
 10
0.0
 20
1.0
 30
0.0
  9
$USERI1
 70
     0
  9
$USERI2
 70
     0
  9
$USERI3
 70
     0
  9
$USERI4
 70
     0
  9
$USERI5
 70
     0
  9
$USERR1
 40
0.0
  9
$USERR2
 40
0.0
  9
$USERR3
 40
0.0
  9
$USERR4
 40
0.0
  9
$USERR5
 40
0.0
  9
$WORLDVIEW
 70
     1
  9
$SHADEDGE
 70
     3
  9
$SHADEDIF
 70
    70
  9
$TILEMODE
 70
     1
  9
$MAXACTVP
 70
    16
  9
$PINSBASE
 10
0.0
 20
0.0
 30
0.0
  9
$PLIMCHECK
 70
     0
  9
$PEXTMIN
 10
0.0
 20
0.0
 30
0.0
  9
$PEXTMAX
 10
420.0
 20
297.0
 30
0.0
  9
$PLIMMIN
 10
0.0
 20
0.0
  9
$PLIMMAX
 10
420.0
 20
297.0
  9
$UNITMODE
 70
     0
  9
$VISRETAIN
 70
     0
  9
$PLINEGEN
 70
     0
  9
$PSLTSCALE
 70
     1
  9
$TREEDEPTH
 70
  3020
  9
$PICKSTYLE
 70
     1
  9
$CMLSTYLE
  2
STANDARD
  9
$CMLJUST
 70
     0
  9
$CMLSCALE
 40
20.0
  9
$SAVEIMAGES
 70
     1
  0
ENDSEC
  0
SECTION
  2
CLASSES
  0
CLASS
  1
ACDBDICTIONARYWDFLT
  2
AcDbDictionaryWithDefault
  3
AutoCAD 2000
 90
    32768
280
     0
281
     0
  0
CLASS
  1
ACDBPLACEHOLDER
  2
AcDbPlaceHolder
  3
AutoCAD 2000
 90
    32768
280
     0
281
     0
  0
CLASS
  1
LAYOUT
  2
AcDbLayout
  3
AutoCAD 2000
 90
    32768
280
     0
281
     0
  0
CLASS
  1
LONG_TRANSACTION
  2
AcDbLongTransaction
  3
AutoCAD 2000
 90
    32768
280
     0
281
     0
  0
CLASS
  1
LWPOLYLINE
  2
AcDbPolyline
  3
AutoCAD 2000
 90
    32768
280
     0
281
     1
  0
CLASS
  1
HATCH
  2
AcDbHatch
  3
AutoCAD 2000
 90
    32768
280
     0
281
     1
  0
CLASS
  1
XRECORD
  2
AcDbXrecord
  3
AutoCAD 2000
 90
    32768
280
     0
281
     0
  0
CLASS
  1
LONG_TRANSACTION
  2
AcDbLongTransaction
  3
AutoCAD 2000
 90
    32768
280
     0
281
     0
  0
CLASS
  1
LWPOLYLINE
  2
AcDbPolyline
  3
AutoCAD 2000
 90
    32768
280
     0
281
     1
  0
CLASS
  1
HATCH
  2
AcDbHatch
  3
AutoCAD 2000
 90
    32768
280
     0
281
     1
  0
CLASS
  1
XRECORD
  2
AcDbXrecord
  3
AutoCAD 2000
 90
    32768
280
     0
281
     0
  0
CLASS
  1
LONG_TRANSACTION
  2
AcDbLongTransaction
  3
AutoCAD 2000
 90
    32768
280
     0
281
     0
  0
CLASS
  1
LWPOLYLINE
  2
AcDbPolyline
  3
AutoCAD 2000
 90
    32768
280
     0
281
     1
  0
CLASS
  1
HATCH
  2
AcDbHatch
  3
AutoCAD 2000
 90
    32768
280
     0
281
     1
  0
CLASS
  1
XRECORD
  2
AcDbXrecord
  3
AutoCAD 2000
 90
    32768
280
     0
281
     0
  0
ENDSEC
  0
SECTION
  2
TABLES
  0
TABLE
  2
VPORT
  5
8
330
0
100
AcDbSymbolTable
 70
     2
  0
VPORT
  5
823
330
8
100
AcDbSymbolTableRecord
100
AcDbViewportTableRecord
  2
*ACTIVE
 70
     0
 10
0.0
 20
0.0
 11
1.0
 21
1.0
 12
1040.332259053018
 22
585.0158133036806
 13
0.0
 23
0.0
 14
10.0
 24
10.0
 15
10.0
 25
10.0
 16
0.0
 26
0.0
 36
1.0
 17
0.0
 27
0.0
 37
0.0
 40
1186.553915287629
 41
2.169459962756052
 42
50.0
 43
0.0
 44
0.0
 50
0.0
 51
0.0
 71
     0
 72
   100
 73
     1
 74
     0
 75
     0
 76
     0
 77
     0
 78
     0
  0
ENDTAB
  0
TABLE
  2
LTYPE
  5
5
330
0
100
AcDbSymbolTable
 70
     2
  0
LTYPE
  5
13
330
5
100
AcDbSymbolTableRecord
100
AcDbLinetypeTableRecord
  2
BYBLOCK
 70
     0
  3

 72
    65
 73
     0
 40
0.0
  0
LTYPE
  5
14
330
5
100
AcDbSymbolTableRecord
100
AcDbLinetypeTableRecord
  2
BYLAYER
 70
     0
  3

 72
    65
 73
     0
 40
0.0
  0
LTYPE
  5
15
330
5
100
AcDbSymbolTableRecord
100
AcDbLinetypeTableRecord
  2
CONTINUOUS
 70
     0
  3
Solid line
 72
    65
 73
     0
 40
0.0
  0
LTYPE
  5
11C
330
5
100
AcDbSymbolTableRecord
100
AcDbLinetypeTableRecord
  2
CENTER
 70
     0
  3
____ _ ____ _ ____ _ ____ _ ____ _ ____ _ ____ 
 72
    65
 73
     4
 40
2.0
 49
1.25
 74
     0
 49
-0.25
 74
     0
 49
0.25
 74
     0
 49
-0.25
 74
     0
  0
ENDTAB
  0
TABLE
  2
LAYER
  5
2
330
0
100
AcDbSymbolTable
 70
     7
  0
LAYER
  5
F
330
2
100
AcDbSymbolTableRecord
100
AcDbLayerTableRecord
  2
0
 70
     0
 62
     7
  6
CONTINUOUS
  0
LAYER
  5
23
330
2
100
AcDbSymbolTableRecord
100
AcDbLayerTableRecord
  2
VIEWPORT
 70
     0
 62
     7
  6
CONTINUOUS
  0
LAYER
  5
2D
330
2
100
AcDbSymbolTableRecord
100
AcDbLayerTableRecord
  2
ZUWAKU
 70
     0
 62
     7
  6
CONTINUOUS
  0
LAYER
  5
A6
330
2
100
AcDbSymbolTableRecord
100
AcDbLayerTableRecord
  2
DEFPOINTS
 70
     0
 62
     7
  6
CONTINUOUS
  0
LAYER
  5
219
330
2
100
AcDbSymbolTableRecord
100
AcDbLayerTableRecord
  2
SEIHIN
 70
     0
 62
     3
  6
CONTINUOUS
  0
LAYER
  5
21A
330
2
100
AcDbSymbolTableRecord
100
AcDbLayerTableRecord
  2
SUNPOU
 70
     0
 62
     4
  6
CONTINUOUS
  0
LAYER
  5
21B
330
2
100
AcDbSymbolTableRecord
100
AcDbLayerTableRecord
  2
CENTER_L
 70
     0
 62
     1
  6
CENTER
  0
ENDTAB
  0
TABLE
  2
STYLE
  5
3
330
0
100
AcDbSymbolTable
 70
     1
  0
STYLE
  5
10
330
3
100
AcDbSymbolTableRecord
100
AcDbTextStyleTableRecord
  2
STANDARD
 70
     0
 40
0.0
 41
1.0
 50
0.0
 71
     0
 42
19.8
  3
txt
  4
bigfont.shx
  0
ENDTAB
  0
TABLE
  2
VIEW
  5
6
330
0
100
AcDbSymbolTable
 70
     0
  0
ENDTAB
  0
TABLE
  2
UCS
  5
7
330
0
100
AcDbSymbolTable
 70
     0
  0
ENDTAB
  0
TABLE
  2
APPID
  5
9
330
0
100
AcDbSymbolTable
 70
     1
  0
APPID
  5
11
330
9
100
AcDbSymbolTableRecord
100
AcDbRegAppTableRecord
  2
ACAD
 70
     0
  0
ENDTAB
  0
TABLE
  2
DIMSTYLE
  5
A
330
0
100
AcDbSymbolTable
 70
     1
  0
DIMSTYLE
105
1D
102
{ACAD_REACTORS
330
32B
330
353
330
3EF
330
405
330
606
330
67E
330
6BC
330
6C9
330
6D7
330
6E4
330
720
330
76B
330
77A
330
787
330
794
102
}
330
A
100
AcDbSymbolTableRecord
100
AcDbDimStyleTableRecord
  2
STANDARD
 70
     0
  3

  4

  5

  6

  7

 40
1.0
 41
0.18
 42
0.0625
 43
0.38
 44
0.18
 45
0.0
 46
0.0
 47
0.0
 48
0.0
140
0.18
141
0.09
142
0.0
143
25.4
144
1.0
145
0.0
146
1.0
147
0.09
 71
     0
 72
     0
 73
     1
 74
     1
 75
     0
 76
     0
 77
     0
 78
     0
170
     0
171
     2
172
     0
173
     0
174
     0
175
     0
176
     0
177
     0
178
     0
270
     2
271
     4
272
     4
273
     2
274
     2
340
10
275
     0
280
     0
281
     0
282
     0
283
     1
284
     0
285
     0
286
     0
287
     3
288
     0
  0
ENDTAB
  0
TABLE
  2
BLOCK_RECORD
  5
1
330
0
100
AcDbSymbolTable
 70
    16
  0
BLOCK_RECORD
  5
19
102
{ACAD_XDICTIONARY
360
7E1
102
}
330
1
100
AcDbSymbolTableRecord
100
AcDbBlockTableRecord
  2
*MODEL_SPACE
  0
BLOCK_RECORD
  5
16
102
{ACAD_XDICTIONARY
360
7DF
102
}
330
1
100
AcDbSymbolTableRecord
100
AcDbBlockTableRecord
  2
*PAPER_SPACE
  0
BLOCK_RECORD
  5
27
330
1
100
AcDbSymbolTableRecord
100
AcDbBlockTableRecord
  2
_OPEN
  0
BLOCK_RECORD
  5
439
330
1
100
AcDbSymbolTableRecord
100
AcDbBlockTableRecord
  2
*D1
  0
BLOCK_RECORD
  5
476
330
1
100
AcDbSymbolTableRecord
100
AcDbBlockTableRecord
  2
*D2
  0
BLOCK_RECORD
  5
4C0
330
1
100
AcDbSymbolTableRecord
100
AcDbBlockTableRecord
  2
*D3
  0
BLOCK_RECORD
  5
4CC
330
1
100
AcDbSymbolTableRecord
100
AcDbBlockTableRecord
  2
*D4
  0
BLOCK_RECORD
  5
5FA
330
1
100
AcDbSymbolTableRecord
100
AcDbBlockTableRecord
  2
*D5
  0
BLOCK_RECORD
  5
670
330
1
100
AcDbSymbolTableRecord
100
AcDbBlockTableRecord
  2
*D6
  0
BLOCK_RECORD
  5
6B0
330
1
100
AcDbSymbolTableRecord
100
AcDbBlockTableRecord
  2
*D7
  0
BLOCK_RECORD
  5
6BD
330
1
100
AcDbSymbolTableRecord
100
AcDbBlockTableRecord
  2
*D8
  0
BLOCK_RECORD
  5
6CA
330
1
100
AcDbSymbolTableRecord
100
AcDbBlockTableRecord
  2
*D9
  0
BLOCK_RECORD
  5
6D8
330
1
100
AcDbSymbolTableRecord
100
AcDbBlockTableRecord
  2
*D10
  0
BLOCK_RECORD
  5
713
330
1
100
AcDbSymbolTableRecord
100
AcDbBlockTableRecord
  2
*D11
  0
BLOCK_RECORD
  5
75D
330
1
100
AcDbSymbolTableRecord
100
AcDbBlockTableRecord
  2
*D12
  0
BLOCK_RECORD
  5
76C
330
1
100
AcDbSymbolTableRecord
100
AcDbBlockTableRecord
  2
*D13
  0
BLOCK_RECORD
  5
77B
330
1
100
AcDbSymbolTableRecord
100
AcDbBlockTableRecord
  2
*D14
  0
BLOCK_RECORD
  5
788
330
1
100
AcDbSymbolTableRecord
100
AcDbBlockTableRecord
  2
*D15
  0
ENDTAB
  0
ENDSEC
  0
SECTION
  2
BLOCKS
  0
BLOCK
  5
1A
330
19
100
AcDbEntity
  8
0
100
AcDbBlockBegin
  2
*MODEL_SPACE
 70
     0
 10
0.0
 20
0.0
 30
0.0
  3
*MODEL_SPACE
  1

  0
ENDBLK
  5
1B
330
19
100
AcDbEntity
  8
0
100
AcDbBlockEnd
  0
BLOCK
  5
17
330
16
100
AcDbEntity
 67
     1
  8
0
100
AcDbBlockBegin
  2
*PAPER_SPACE
 70
     0
 10
0.0
 20
0.0
 30
0.0
  3
*PAPER_SPACE
  1

  0
ENDBLK
  5
18
330
16
100
AcDbEntity
 67
     1
  8
0
100
AcDbBlockEnd
  0
BLOCK
  5
28
330
27
100
AcDbEntity
  8
0
100
AcDbBlockBegin
  2
_OPEN
 70
     0
 10
0.0
 20
0.0
 30
0.0
  3
_OPEN
  1

  0
LINE
  5
29
330
27
100
AcDbEntity
  8
0
  6
BYBLOCK
 62
     0
100
AcDbLine
 10
-1.0
 20
0.1666666666666666
 30
0.0
 11
0.0
 21
0.0
 31
0.0
  0
LINE
  5
2A
330
27
100
AcDbEntity
  8
0
  6
BYBLOCK
 62
     0
100
AcDbLine
 10
0.0
 20
0.0
 30
0.0
 11
-1.0
 21
-0.1666666666666666
 31
0.0
  0
LINE
  5
2B
330
27
100
AcDbEntity
  8
0
  6
BYBLOCK
 62
     0
100
AcDbLine
 10
0.0
 20
0.0
 30
0.0
 11
-1.0
 21
0.0
 31
0.0
  0
ENDBLK
  5
2C
330
27
100
AcDbEntity
  8
0
100
AcDbBlockEnd
  0
BLOCK
  5
745
330
439
100
AcDbEntity
  8
0
100
AcDbBlockBegin
  2
*D1
 70
     1
 10
0.0
 20
0.0
 30
0.0
  3
*D1
  1

  0
LINE
  5
746
330
439
100
AcDbEntity
  8
0
  6
BYBLOCK
 62
     4
100
AcDbLine
 10
528.1405506800206
 20
274.751398805692
 30
0.0
 11
528.1405506800206
 21
164.6182676098364
 31
0.0
  0
LINE
  5
747
330
439
100
AcDbEntity
  8
0
  6
BYBLOCK
 62
     4
100
AcDbLine
 10
307.2737687267081
 20
274.751398805692
 30
0.0
 11
307.2737687267081
 21
164.6182676098364
 31
0.0
  0
LINE
  5
748
330
439
100
AcDbEntity
  8
0
  6
BYBLOCK
 62
     4
100
AcDbLine
 10
516.1405506800206
 20
172.6182676098364
 30
0.0
 11
319.2737687267081
 21
172.6182676098364
 31
0.0
  0
INSERT
  5
749
330
439
100
AcDbEntity
  8
0
  6
BYBLOCK
 62
     4
100
AcDbBlockReference
  2
_OPEN
 10
528.1405506800206
 20
172.6182676098364
 30
0.0
 41
12.0
 42
12.0
 43
12.0
  0
INSERT
  5
74A
330
439
100
AcDbEntity
  8
0
  6
BYBLOCK
 62
     4
100
AcDbBlockReference
  2
_OPEN
 10
307.2737687267081
 20
172.6182676098364
 30
0.0
 41
12.0
 42
12.0
 43
12.0
 50
180.0
  0
MTEXT
  5
74B
330
439
100
AcDbEntity
  8
0
  6
BYBLOCK
 62
     4
100
AcDbMText
 10
417.7071597033643
 20
182.6182676098365
 30
0.0
 40
12.0
 41
0.0
 71
     5
 72
     1
  1
\A1;221
1001
ACAD
1000
MTEXTBEGIN
1070
    73
1070
     1
1070
    44
1040
1.0
1070
    74
1070
     0
1000
MTEXTEND
1000
MTEXTBEGIN
1070
    73
1070
     1
1070
    44
1040
1.0
1070
    74
1070
     0
1000
MTEXTEND
1000
MTEXTBEGIN
1070
    73
1070
     1
1070
    44
1040
1.0
1070
    74
1070
     0
1000
MTEXTEND
  0
POINT
  5
74C
330
439
100
AcDbEntity
  8
DEFPOINTS
  6
BYBLOCK
 62
     0
100
AcDbPoint
 10
528.1405506800206
 20
294.751398805692
 30
0.0
  0
POINT
  5
74D
330
439
100
AcDbEntity
  8
DEFPOINTS
  6
BYBLOCK
 62
     0
100
AcDbPoint
 10
307.2737687267081
 20
294.751398805692
 30
0.0
  0
POINT
  5
74E
330
439
100
AcDbEntity
  8
DEFPOINTS
  6
BYBLOCK
 62
     0
100
AcDbPoint
 10
307.2737687267081
 20
172.6182676098364
 30
0.0
  0
ENDBLK
  5
74F
330
439
100
AcDbEntity
  8
0
100
AcDbBlockEnd
  0
BLOCK
  5
5E4
330
476
100
AcDbEntity
  8
0
100
AcDbBlockBegin
  2
*D2
 70
     1
 10
0.0
 20
0.0
 30
0.0
  3
*D2
  1

  0
LINE
  5
5E5
330
476
100
AcDbEntity
  8
0
  6
BYBLOCK
 62
     4
100
AcDbLine
 10
770.772212045389
 20
610.3430282484847
 30
0.0
 11
770.772212045389
 21
644.2939600613658
 31
0.0
  0
LINE
  5
5E6
330
476
100
AcDbEntity
  8
0
  6
BYBLOCK
 62
     4
100
AcDbLine
 10
498.7729120453891
 20
610.3430282484847
 30
0.0
 11
498.7729120453891
 21
644.2939600613658
 31
0.0
  0
LINE
  5
5E7
330
476
100
AcDbEntity
  8
0
  6
BYBLOCK
 62
     4
100
AcDbLine
 10
758.772212045389
 20
636.2939600613658
 30
0.0
 11
510.7729120453891
 21
636.2939600613658
 31
0.0
  0
INSERT
  5
5E8
330
476
100
AcDbEntity
  8
0
  6
BYBLOCK
 62
     4
100
AcDbBlockReference
  2
_OPEN
 10
770.772212045389
 20
636.2939600613658
 30
0.0
 41
12.0
 42
12.0
 43
12.0
  0
INSERT
  5
5E9
330
476
100
AcDbEntity
  8
0
  6
BYBLOCK
 62
     4
100
AcDbBlockReference
  2
_OPEN
 10
498.7729120453891
 20
636.2939600613658
 30
0.0
 41
12.0
 42
12.0
 43
12.0
 50
180.0
  0
MTEXT
  5
5EA
330
476
100
AcDbEntity
  8
0
  6
BYBLOCK
 62
     4
100
AcDbMText
 10
634.7725620453891
 20
646.2939600613658
 30
0.0
 40
12.0
 41
0.0
 71
     5
 72
     1
  1
\A1;272
1001
ACAD
1000
MTEXTBEGIN
1070
    73
1070
     1
1070
    44
1040
1.0
1070
    74
1070
     0
1000
MTEXTEND
1000
MTEXTBEGIN
1070
    73
1070
     1
1070
    44
1040
1.0
1070
    74
1070
     0
1000
MTEXTEND
1000
MTEXTBEGIN
1070
    73
1070
     1
1070
    44
1040
1.0
1070
    74
1070
     0
1000
MTEXTEND
  0
POINT
  5
5EB
330
476
100
AcDbEntity
  8
DEFPOINTS
  6
BYBLOCK
 62
     0
100
AcDbPoint
 10
770.772212045389
 20
590.3430282484847
 30
0.0
  0
POINT
  5
5EC
330
476
100
AcDbEntity
  8
DEFPOINTS
  6
BYBLOCK
 62
     0
100
AcDbPoint
 10
498.7729120453891
 20
590.3430282484847
 30
0.0
  0
POINT
  5
5ED
330
476
100
AcDbEntity
  8
DEFPOINTS
  6
BYBLOCK
 62
     0
100
AcDbPoint
 10
498.7729120453891
 20
636.2939600613658
 30
0.0
  0
ENDBLK
  5
5EE
330
476
100
AcDbEntity
  8
0
100
AcDbBlockEnd
  0
BLOCK
  5
6FD
330
4C0
100
AcDbEntity
  8
0
100
AcDbBlockBegin
  2
*D3
 70
     1
 10
0.0
 20
0.0
 30
0.0
  3
*D3
  1

  0
LINE
  5
6FE
330
4C0
100
AcDbEntity
  8
0
  6
BYBLOCK
 62
     4
100
AcDbLine
 10
741.9256359639957
 20
274.751398805692
 30
0.0
 11
741.9256359639957
 21
80.02064192361377
 31
0.0
  0
LINE
  5
6FF
330
4C0
100
AcDbEntity
  8
0
  6
BYBLOCK
 62
     4
100
AcDbLine
 10
983.925674213577
 20
274.751398805692
 30
0.0
 11
983.925674213577
 21
80.02064192361377
 31
0.0
  0
LINE
  5
700
330
4C0
100
AcDbEntity
  8
0
  6
BYBLOCK
 62
     4
100
AcDbLine
 10
753.9256359639957
 20
88.02064192361376
 30
0.0
 11
971.9256742135769
 21
88.02064192361376
 31
0.0
  0
INSERT
  5
701
330
4C0
100
AcDbEntity
  8
0
  6
BYBLOCK
 62
     4
100
AcDbBlockReference
  2
_OPEN
 10
741.9256359639957
 20
88.02064192361376
 30
0.0
 41
12.0
 42
12.0
 43
12.0
 50
180.0
  0
INSERT
  5
702
330
4C0
100
AcDbEntity
  8
0
  6
BYBLOCK
 62
     4
100
AcDbBlockReference
  2
_OPEN
 10
983.925674213577
 20
88.02064192361376
 30
0.0
 41
12.0
 42
12.0
 43
12.0
  0
MTEXT
  5
703
330
4C0
100
AcDbEntity
  8
0
  6
BYBLOCK
 62
     4
100
AcDbMText
 10
862.9256550887863
 20
98.02064192361378
 30
0.0
 40
12.0
 41
0.0
 71
     5
 72
     1
  1
\A1;242
1001
ACAD
1000
MTEXTBEGIN
1070
    73
1070
     1
1070
    44
1040
1.0
1070
    74
1070
     0
1000
MTEXTEND
1000
MTEXTBEGIN
1070
    73
1070
     1
1070
    44
1040
1.0
1070
    74
1070
     0
1000
MTEXTEND
1000
MTEXTBEGIN
1070
    73
1070
     1
1070
    44
1040
1.0
1070
    74
1070
     0
1000
MTEXTEND
  0
POINT
  5
704
330
4C0
100
AcDbEntity
  8
DEFPOINTS
  6
BYBLOCK
 62
     0
100
AcDbPoint
 10
741.9256359639957
 20
294.751398805692
 30
0.0
  0
POINT
  5
705
330
4C0
100
AcDbEntity
  8
DEFPOINTS
  6
BYBLOCK
 62
     0
100
AcDbPoint
 10
983.925674213577
 20
294.751398805692
 30
0.0
  0
POINT
  5
706
330
4C0
100
AcDbEntity
  8
DEFPOINTS
  6
BYBLOCK
 62
     0
100
AcDbPoint
 10
983.925674213577
 20
88.02064192361376
 30
0.0
  0
ENDBLK
  5
707
330
4C0
100
AcDbEntity
  8
0
100
AcDbBlockEnd
  0
BLOCK
  5
5EF
330
4CC
100
AcDbEntity
  8
0
100
AcDbBlockBegin
  2
*D4
 70
     1
 10
0.0
 20
0.0
 30
0.0
  3
*D4
  1

  0
LINE
  5
5F0
330
4CC
100
AcDbEntity
  8
0
  6
BYBLOCK
 62
     4
100
AcDbLine
 10
1153.991512045389
 20
610.3430282484847
 30
0.0
 11
1153.991512045389
 21
643.9989942919756
 31
0.0
  0
LINE
  5
5F1
330
4CC
100
AcDbEntity
  8
0
  6
BYBLOCK
 62
     4
100
AcDbLine
 10
882.9909120453892
 20
610.3430282484847
 30
0.0
 11
882.9909120453892
 21
643.9989942919756
 31
0.0
  0
LINE
  5
5F2
330
4CC
100
AcDbEntity
  8
0
  6
BYBLOCK
 62
     4
100
AcDbLine
 10
1141.991512045389
 20
635.9989942919756
 30
0.0
 11
894.9909120453892
 21
635.9989942919756
 31
0.0
  0
INSERT
  5
5F3
330
4CC
100
AcDbEntity
  8
0
  6
BYBLOCK
 62
     4
100
AcDbBlockReference
  2
_OPEN
 10
1153.991512045389
 20
635.9989942919756
 30
0.0
 41
12.0
 42
12.0
 43
12.0
  0
INSERT
  5
5F4
330
4CC
100
AcDbEntity
  8
0
  6
BYBLOCK
 62
     4
100
AcDbBlockReference
  2
_OPEN
 10
882.9909120453892
 20
635.9989942919756
 30
0.0
 41
12.0
 42
12.0
 43
12.0
 50
180.0
  0
MTEXT
  5
5F5
330
4CC
100
AcDbEntity
  8
0
  6
BYBLOCK
 62
     4
100
AcDbMText
 10
1018.491212045389
 20
645.9989942919755
 30
0.0
 40
12.0
 41
0.0
 71
     5
 72
     1
  1
\A1;271
1001
ACAD
1000
MTEXTBEGIN
1070
    73
1070
     1
1070
    44
1040
1.0
1070
    74
1070
     0
1000
MTEXTEND
1000
MTEXTBEGIN
1070
    73
1070
     1
1070
    44
1040
1.0
1070
    74
1070
     0
1000
MTEXTEND
1000
MTEXTBEGIN
1070
    73
1070
     1
1070
    44
1040
1.0
1070
    74
1070
     0
1000
MTEXTEND
  0
POINT
  5
5F6
330
4CC
100
AcDbEntity
  8
DEFPOINTS
  6
BYBLOCK
 62
     0
100
AcDbPoint
 10
1153.991512045389
 20
590.3430282484847
 30
0.0
  0
POINT
  5
5F7
330
4CC
100
AcDbEntity
  8
DEFPOINTS
  6
BYBLOCK
 62
     0
100
AcDbPoint
 10
882.9909120453892
 20
590.3430282484847
 30
0.0
  0
POINT
  5
5F8
330
4CC
100
AcDbEntity
  8
DEFPOINTS
  6
BYBLOCK
 62
     0
100
AcDbPoint
 10
882.9909120453892
 20
635.9989942919756
 30
0.0
  0
ENDBLK
  5
5F9
330
4CC
100
AcDbEntity
  8
0
100
AcDbBlockEnd
  0
BLOCK
  5
708
330
5FA
100
AcDbEntity
  8
0
100
AcDbBlockBegin
  2
*D5
 70
     1
 10
0.0
 20
0.0
 30
0.0
  3
*D5
  1

  0
LINE
  5
709
330
5FA
100
AcDbEntity
  8
0
  6
BYBLOCK
 62
     4
100
AcDbLine
 10
983.9256742135766
 20
282.751398805692
 30
0.0
 11
983.9256742135766
 21
125.2106843876554
 31
0.0
  0
LINE
  5
70A
330
5FA
100
AcDbEntity
  8
0
  6
BYBLOCK
 62
     4
100
AcDbLine
 10
868.9257097033644
 20
193.7089988056919
 30
0.0
 11
868.9257097033644
 21
125.2106843876554
 31
0.0
  0
LINE
  5
70B
330
5FA
100
AcDbEntity
  8
0
  6
BYBLOCK
 62
     4
100
AcDbLine
 10
969.9256742135768
 20
131.2106843876554
 30
0.0
 11
882.9257097033645
 21
131.2106843876554
 31
0.0
  0
INSERT
  5
70C
330
5FA
100
AcDbEntity
  8
0
  6
BYBLOCK
 62
     4
100
AcDbBlockReference
  2
_OPEN
 10
983.9256742135766
 20
131.2106843876554
 30
0.0
 41
14.0
 42
14.0
 43
14.0
  0
INSERT
  5
70D
330
5FA
100
AcDbEntity
  8
0
  6
BYBLOCK
 62
     4
100
AcDbBlockReference
  2
_OPEN
 10
868.9257097033644
 20
131.2106843876554
 30
0.0
 41
14.0
 42
14.0
 43
14.0
 50
180.0
  0
MTEXT
  5
70E
330
5FA
100
AcDbEntity
  8
0
  6
BYBLOCK
 62
     4
100
AcDbMText
 10
926.4256919584706
 20
141.2106843876554
 30
0.0
 40
12.0
 41
0.0
 71
     5
 72
     1
  1
\A1;115
1001
ACAD
1000
MTEXTBEGIN
1070
    73
1070
     1
1070
    44
1040
1.0
1070
    74
1070
     0
1000
MTEXTEND
1000
MTEXTBEGIN
1070
    73
1070
     1
1070
    44
1040
1.0
1070
    74
1070
     0
1000
MTEXTEND
1000
MTEXTBEGIN
1070
    73
1070
     1
1070
    44
1040
1.0
1070
    74
1070
     0
1000
MTEXTEND
  0
POINT
  5
70F
330
5FA
100
AcDbEntity
  8
DEFPOINTS
  6
BYBLOCK
 62
     0
100
AcDbPoint
 10
983.9256742135766
 20
294.751398805692
 30
0.0
  0
POINT
  5
710
330
5FA
100
AcDbEntity
  8
DEFPOINTS
  6
BYBLOCK
 62
     0
100
AcDbPoint
 10
868.9257097033644
 20
205.7089988056919
 30
0.0
  0
POINT
  5
711
330
5FA
100
AcDbEntity
  8
DEFPOINTS
  6
BYBLOCK
 62
     0
100
AcDbPoint
 10
868.9257097033644
 20
131.2106843876554
 30
0.0
  0
ENDBLK
  5
712
330
5FA
100
AcDbEntity
  8
0
100
AcDbBlockEnd
  0
BLOCK
  5
7A2
330
670
100
AcDbEntity
  8
0
100
AcDbBlockBegin
  2
*D6
 70
     1
 10
0.0
 20
0.0
 30
0.0
  3
*D6
  1

  0
LINE
  5
7A3
330
670
100
AcDbEntity
  8
0
  6
BYBLOCK
 62
     4
100
AcDbLine
 10
1191.207109703364
 20
576.251298805692
 30
0.0
 11
1191.207109703364
 21
610.0019577084794
 31
0.0
  0
LINE
  5
7A4
330
670
100
AcDbEntity
  8
0
  6
BYBLOCK
 62
     4
100
AcDbLine
 10
1184.207109703364
 20
576.251298805692
 30
0.0
 11
1184.207109703364
 21
610.0019577084794
 31
0.0
  0
LINE
  5
7A5
330
670
100
AcDbEntity
  8
0
  6
BYBLOCK
 62
     4
100
AcDbLine
 10
1170.207109703364
 20
604.0019577084795
 30
0.0
 11
1156.207109703364
 21
604.0019577084795
 31
0.0
  0
LINE
  5
7A6
330
670
100
AcDbEntity
  8
0
  6
BYBLOCK
 62
     4
100
AcDbLine
 10
1205.207109703364
 20
604.0019577084795
 30
0.0
 11
1235.207109703364
 21
604.0019577084795
 31
0.0
  0
LINE
  5
7A7
330
670
100
AcDbEntity
  8
0
  6
BYBLOCK
 62
     4
100
AcDbLine
 10
1184.207109703364
 20
604.0019577084795
 30
0.0
 11
1191.207109703364
 21
604.0019577084795
 31
0.0
  0
INSERT
  5
7A8
330
670
100
AcDbEntity
  8
0
  6
BYBLOCK
 62
     4
100
AcDbBlockReference
  2
_OPEN
 10
1184.207109703364
 20
604.0019577084795
 30
0.0
 41
14.0
 42
14.0
 43
14.0
  0
INSERT
  5
7A9
330
670
100
AcDbEntity
  8
0
  6
BYBLOCK
 62
     4
100
AcDbBlockReference
  2
_OPEN
 10
1191.207109703364
 20
604.0019577084795
 30
0.0
 41
14.0
 42
14.0
 43
14.0
 50
180.0
  0
MTEXT
  5
7AA
330
670
100
AcDbEntity
  8
0
  6
BYBLOCK
 62
     4
100
AcDbMText
 10
1227.207109703364
 20
614.0019577084794
 30
0.0
 40
12.0
 41
0.0
 71
     5
 72
     1
  1
\A1;7
1001
ACAD
1000
MTEXTBEGIN
1070
    73
1070
     1
1070
    44
1040
1.0
1070
    74
1070
     0
1000
MTEXTEND
1000
MTEXTBEGIN
1070
    73
1070
     1
1070
    44
1040
1.0
1070
    74
1070
     0
1000
MTEXTEND
1000
MTEXTBEGIN
1070
    73
1070
     1
1070
    44
1040
1.0
1070
    74
1070
     0
1000
MTEXTEND
  0
POINT
  5
7AB
330
670
100
AcDbEntity
  8
DEFPOINTS
  6
BYBLOCK
 62
     0
100
AcDbPoint
 10
1191.207109703364
 20
564.251298805692
 30
0.0
  0
POINT
  5
7AC
330
670
100
AcDbEntity
  8
DEFPOINTS
  6
BYBLOCK
 62
     0
100
AcDbPoint
 10
1184.207109703364
 20
564.251298805692
 30
0.0
  0
POINT
  5
7AD
330
670
100
AcDbEntity
  8
DEFPOINTS
  6
BYBLOCK
 62
     0
100
AcDbPoint
 10
1184.207109703364
 20
604.0019577084795
 30
0.0
  0
ENDBLK
  5
7AE
330
670
100
AcDbEntity
  8
0
100
AcDbBlockEnd
  0
BLOCK
  5
6B1
330
6B0
100
AcDbEntity
  8
0
100
AcDbBlockBegin
  2
*D7
 70
     1
 10
0.0
 20
0.0
 30
0.0
  3
*D7
  1

  0
LINE
  5
6B2
330
6B0
100
AcDbEntity
  8
0
  6
BYBLOCK
 62
     4
100
AcDbLine
 10
994.83989114287
 20
1021.727117237869
 30
0.0
 11
1050.175491498906
 21
1021.727117237869
 31
0.0
  0
LINE
  5
6B3
330
6B0
100
AcDbEntity
  8
0
  6
BYBLOCK
 62
     4
100
AcDbLine
 10
994.83889114287
 20
749.7277172378694
 30
0.0
 11
1050.175491498906
 21
749.7277172378694
 31
0.0
  0
LINE
  5
6B4
330
6B0
100
AcDbEntity
  8
0
  6
BYBLOCK
 62
     4
100
AcDbLine
 10
1044.175491498906
 20
1007.727117237869
 30
0.0
 11
1044.175491498906
 21
763.7277172378694
 31
0.0
  0
INSERT
  5
6B5
330
6B0
100
AcDbEntity
  8
0
  6
BYBLOCK
 62
     4
100
AcDbBlockReference
  2
_OPEN
 10
1044.175491498906
 20
1021.727117237869
 30
0.0
 41
14.0
 42
14.0
 43
14.0
 50
90.0
  0
INSERT
  5
6B6
330
6B0
100
AcDbEntity
  8
0
  6
BYBLOCK
 62
     4
100
AcDbBlockReference
  2
_OPEN
 10
1044.175491498906
 20
749.7277172378694
 30
0.0
 41
14.0
 42
14.0
 43
14.0
 50
270.0
  0
MTEXT
  5
6B7
330
6B0
100
AcDbEntity
  8
0
  6
BYBLOCK
 62
     4
100
AcDbMText
 10
1034.175491498906
 20
885.7274172378694
 30
0.0
 40
12.0
 41
0.0
 71
     5
 72
     1
  1
\A1;272
 11
0.0
 21
1.0
 31
0.0
1001
ACAD
1000
MTEXTBEGIN
1070
    73
1070
     1
1070
    44
1040
1.0
1070
    74
1070
     0
1000
MTEXTEND
1000
MTEXTBEGIN
1070
    73
1070
     1
1070
    44
1040
1.0
1070
    74
1070
     0
1000
MTEXTEND
1000
MTEXTBEGIN
1070
    73
1070
     1
1070
    44
1040
1.0
1070
    74
1070
     0
1000
MTEXTEND
  0
POINT
  5
6B8
330
6B0
100
AcDbEntity
  8
DEFPOINTS
  6
BYBLOCK
 62
     0
100
AcDbPoint
 10
982.8398911428699
 20
1021.727117237869
 30
0.0
  0
POINT
  5
6B9
330
6B0
100
AcDbEntity
  8
DEFPOINTS
  6
BYBLOCK
 62
     0
100
AcDbPoint
 10
982.8388911428699
 20
749.7277172378694
 30
0.0
  0
POINT
  5
6BA
330
6B0
100
AcDbEntity
  8
DEFPOINTS
  6
BYBLOCK
 62
     0
100
AcDbPoint
 10
1044.175491498906
 20
749.7277172378694
 30
0.0
  0
ENDBLK
  5
6BB
330
6B0
100
AcDbEntity
  8
0
100
AcDbBlockEnd
  0
BLOCK
  5
6BE
330
6BD
100
AcDbEntity
  8
0
100
AcDbBlockBegin
  2
*D8
 70
     1
 10
0.0
 20
0.0
 30
0.0
  3
*D8
  1

  0
LINE
  5
6BF
330
6BD
100
AcDbEntity
  8
0
  6
BYBLOCK
 62
     4
100
AcDbLine
 10
703.9255097033644
 20
584.751298805692
 30
0.0
 11
669.4259014383751
 21
584.751298805692
 31
0.0
  0
LINE
  5
6C0
330
6BD
100
AcDbEntity
  8
0
  6
BYBLOCK
 62
     4
100
AcDbLine
 10
735.5007097033644
 20
294.751398805692
 30
0.0
 11
669.4259014383751
 21
294.751398805692
 31
0.0
  0
LINE
  5
6C1
330
6BD
100
AcDbEntity
  8
0
  6
BYBLOCK
 62
     4
100
AcDbLine
 10
675.4259014383751
 20
570.751298805692
 30
0.0
 11
675.4259014383751
 21
308.751398805692
 31
0.0
  0
INSERT
  5
6C2
330
6BD
100
AcDbEntity
  8
0
  6
BYBLOCK
 62
     4
100
AcDbBlockReference
  2
_OPEN
 10
675.4259014383751
 20
584.751298805692
 30
0.0
 41
14.0
 42
14.0
 43
14.0
 50
90.0
  0
INSERT
  5
6C3
330
6BD
100
AcDbEntity
  8
0
  6
BYBLOCK
 62
     4
100
AcDbBlockReference
  2
_OPEN
 10
675.4259014383751
 20
294.751398805692
 30
0.0
 41
14.0
 42
14.0
 43
14.0
 50
270.0
  0
MTEXT
  5
6C4
330
6BD
100
AcDbEntity
  8
0
  6
BYBLOCK
 62
     4
100
AcDbMText
 10
665.4259014383751
 20
439.751348805692
 30
0.0
 40
12.0
 41
0.0
 71
     5
 72
     1
  1
\A1;290
 11
0.0
 21
1.0
 31
0.0
1001
ACAD
1000
MTEXTBEGIN
1070
    73
1070
     1
1070
    44
1040
1.0
1070
    74
1070
     0
1000
MTEXTEND
1000
MTEXTBEGIN
1070
    73
1070
     1
1070
    44
1040
1.0
1070
    74
1070
     0
1000
MTEXTEND
1000
MTEXTBEGIN
1070
    73
1070
     1
1070
    44
1040
1.0
1070
    74
1070
     0
1000
MTEXTEND
  0
POINT
  5
6C5
330
6BD
100
AcDbEntity
  8
DEFPOINTS
  6
BYBLOCK
 62
     0
100
AcDbPoint
 10
715.9255097033645
 20
584.751298805692
 30
0.0
  0
POINT
  5
6C6
330
6BD
100
AcDbEntity
  8
DEFPOINTS
  6
BYBLOCK
 62
     0
100
AcDbPoint
 10
747.5007097033644
 20
294.751398805692
 30
0.0
  0
POINT
  5
6C7
330
6BD
100
AcDbEntity
  8
DEFPOINTS
  6
BYBLOCK
 62
     0
100
AcDbPoint
 10
675.4259014383751
 20
294.751398805692
 30
0.0
  0
ENDBLK
  5
6C8
330
6BD
100
AcDbEntity
  8
0
100
AcDbBlockEnd
  0
BLOCK
  5
6F1
330
6CA
100
AcDbEntity
  8
0
100
AcDbBlockBegin
  2
*D9
 70
     1
 10
0.0
 20
0.0
 30
0.0
  3
*D9
  1

  0
LINE
  5
6F2
330
6CA
100
AcDbEntity
  8
0
  6
BYBLOCK
 62
     4
100
AcDbLine
 10
811.7321097033643
 20
244.7514988056919
 30
0.0
 11
669.4259014383751
 21
244.7514988056919
 31
0.0
  0
LINE
  5
6F3
330
6CA
100
AcDbEntity
  8
0
  6
BYBLOCK
 62
     4
100
AcDbLine
 10
675.4259014383751
 20
308.751398805692
 30
0.0
 11
675.4259014383751
 21
322.751398805692
 31
0.0
  0
LINE
  5
6F4
330
6CA
100
AcDbEntity
  8
0
  6
BYBLOCK
 62
     4
100
AcDbLine
 10
675.4259014383751
 20
230.7514988056919
 30
0.0
 11
675.4259014383751
 21
216.7514988056919
 31
0.0
  0
LINE
  5
6F5
330
6CA
100
AcDbEntity
  8
0
  6
BYBLOCK
 62
     4
100
AcDbLine
 10
675.4259014383751
 20
294.751398805692
 30
0.0
 11
675.4259014383751
 21
244.7514988056919
 31
0.0
  0
INSERT
  5
6F6
330
6CA
100
AcDbEntity
  8
0
  6
BYBLOCK
 62
     4
100
AcDbBlockReference
  2
_OPEN
 10
675.4259014383751
 20
294.751398805692
 30
0.0
 41
14.0
 42
14.0
 43
14.0
 50
270.0
  0
INSERT
  5
6F7
330
6CA
100
AcDbEntity
  8
0
  6
BYBLOCK
 62
     4
100
AcDbBlockReference
  2
_OPEN
 10
675.4259014383751
 20
244.7514988056919
 30
0.0
 41
14.0
 42
14.0
 43
14.0
 50
90.0
  0
MTEXT
  5
6F8
330
6CA
100
AcDbEntity
  8
0
  6
BYBLOCK
 62
     4
100
AcDbMText
 10
665.4259014383751
 20
269.751448805692
 30
0.0
 40
12.0
 41
0.0
 71
     5
 72
     1
  1
\A1;50
 11
0.0
 21
1.0
 31
0.0
1001
ACAD
1000
MTEXTBEGIN
1070
    73
1070
     1
1070
    44
1040
1.0
1070
    74
1070
     0
1000
MTEXTEND
1000
MTEXTBEGIN
1070
    73
1070
     1
1070
    44
1040
1.0
1070
    74
1070
     0
1000
MTEXTEND
1000
MTEXTBEGIN
1070
    73
1070
     1
1070
    44
1040
1.0
1070
    74
1070
     0
1000
MTEXTEND
  0
POINT
  5
6F9
330
6CA
100
AcDbEntity
  8
DEFPOINTS
  6
BYBLOCK
 62
     0
100
AcDbPoint
 10
747.5007097033644
 20
294.751398805692
 30
0.0
  0
POINT
  5
6FA
330
6CA
100
AcDbEntity
  8
DEFPOINTS
  6
BYBLOCK
 62
     0
100
AcDbPoint
 10
823.7321097033643
 20
244.7514988056919
 30
0.0
  0
POINT
  5
6FB
330
6CA
100
AcDbEntity
  8
DEFPOINTS
  6
BYBLOCK
 62
     0
100
AcDbPoint
 10
675.4259014383751
 20
244.7514988056919
 30
0.0
  0
ENDBLK
  5
6FC
330
6CA
100
AcDbEntity
  8
0
100
AcDbBlockEnd
  0
BLOCK
  5
6D9
330
6D8
100
AcDbEntity
  8
0
100
AcDbBlockBegin
  2
*D10
 70
     1
 10
0.0
 20
0.0
 30
0.0
  3
*D10
  1

  0
LINE
  5
6DA
330
6D8
100
AcDbEntity
  8
0
  6
BYBLOCK
 62
     4
100
AcDbLine
 10
703.9255097033644
 20
584.751298805692
 30
0.0
 11
628.5591403428634
 21
584.751298805692
 31
0.0
  0
LINE
  5
6DB
330
6D8
100
AcDbEntity
  8
0
  6
BYBLOCK
 62
     4
100
AcDbLine
 10
819.6757097033644
 20
224.7513988056919
 30
0.0
 11
628.5591403428634
 21
224.7513988056919
 31
0.0
  0
LINE
  5
6DC
330
6D8
100
AcDbEntity
  8
0
  6
BYBLOCK
 62
     4
100
AcDbLine
 10
634.5591403428634
 20
570.751298805692
 30
0.0
 11
634.5591403428634
 21
238.7513988056919
 31
0.0
  0
INSERT
  5
6DD
330
6D8
100
AcDbEntity
  8
0
  6
BYBLOCK
 62
     4
100
AcDbBlockReference
  2
_OPEN
 10
634.5591403428634
 20
584.751298805692
 30
0.0
 41
14.0
 42
14.0
 43
14.0
 50
90.0
  0
INSERT
  5
6DE
330
6D8
100
AcDbEntity
  8
0
  6
BYBLOCK
 62
     4
100
AcDbBlockReference
  2
_OPEN
 10
634.5591403428634
 20
224.7513988056919
 30
0.0
 41
14.0
 42
14.0
 43
14.0
 50
270.0
  0
MTEXT
  5
6DF
330
6D8
100
AcDbEntity
  8
0
  6
BYBLOCK
 62
     4
100
AcDbMText
 10
624.5591403428634
 20
404.751348805692
 30
0.0
 40
12.0
 41
0.0
 71
     5
 72
     1
  1
\A1;360
 11
0.0
 21
1.0
 31
0.0
1001
ACAD
1000
MTEXTBEGIN
1070
    73
1070
     1
1070
    44
1040
1.0
1070
    74
1070
     0
1000
MTEXTEND
1000
MTEXTBEGIN
1070
    73
1070
     1
1070
    44
1040
1.0
1070
    74
1070
     0
1000
MTEXTEND
1000
MTEXTBEGIN
1070
    73
1070
     1
1070
    44
1040
1.0
1070
    74
1070
     0
1000
MTEXTEND
  0
POINT
  5
6E0
330
6D8
100
AcDbEntity
  8
DEFPOINTS
  6
BYBLOCK
 62
     0
100
AcDbPoint
 10
715.9255097033645
 20
584.751298805692
 30
0.0
  0
POINT
  5
6E1
330
6D8
100
AcDbEntity
  8
DEFPOINTS
  6
BYBLOCK
 62
     0
100
AcDbPoint
 10
831.6757097033644
 20
224.7513988056919
 30
0.0
  0
POINT
  5
6E2
330
6D8
100
AcDbEntity
  8
DEFPOINTS
  6
BYBLOCK
 62
     0
100
AcDbPoint
 10
634.5591403428634
 20
224.7513988056919
 30
0.0
  0
ENDBLK
  5
6E3
330
6D8
100
AcDbEntity
  8
0
100
AcDbBlockEnd
  0
BLOCK
  5
739
330
713
100
AcDbEntity
  8
0
100
AcDbBlockBegin
  2
*D11
 70
     1
 10
0.0
 20
0.0
 30
0.0
  3
*D11
  1

  0
LINE
  5
73A
330
713
100
AcDbEntity
  8
0
  6
BYBLOCK
 62
     4
100
AcDbLine
 10
916.7251097033645
 20
236.7514988056919
 30
0.0
 11
916.7251097033645
 21
166.9544403961922
 31
0.0
  0
LINE
  5
73B
330
713
100
AcDbEntity
  8
0
  6
BYBLOCK
 62
     4
100
AcDbLine
 10
821.1257097033644
 20
236.7514988056919
 30
0.0
 11
821.1257097033644
 21
166.9544403961922
 31
0.0
  0
LINE
  5
73C
330
713
100
AcDbEntity
  8
0
  6
BYBLOCK
 62
     4
100
AcDbLine
 10
835.1257097033645
 20
172.9544403961922
 30
0.0
 11
902.7251097033644
 21
172.9544403961922
 31
0.0
  0
LINE
  5
73D
330
713
100
AcDbEntity
  8
0
  6
BYBLOCK
 62
     4
100
AcDbLine
 10
916.7251097033645
 20
172.9544403961922
 30
0.0
 11
963.1251097033645
 21
172.9544403961922
 31
0.0
  0
INSERT
  5
73E
330
713
100
AcDbEntity
  8
0
  6
BYBLOCK
 62
     4
100
AcDbBlockReference
  2
_OPEN
 10
821.1257097033644
 20
172.9544403961922
 30
0.0
 41
14.0
 42
14.0
 43
14.0
 50
180.0
  0
INSERT
  5
73F
330
713
100
AcDbEntity
  8
0
  6
BYBLOCK
 62
     4
100
AcDbBlockReference
  2
_OPEN
 10
916.7251097033645
 20
172.9544403961922
 30
0.0
 41
14.0
 42
14.0
 43
14.0
  0
MTEXT
  5
740
330
713
100
AcDbEntity
  8
0
  6
BYBLOCK
 62
     4
100
AcDbMText
 10
941.9251097033646
 20
182.9544403961922
 30
0.0
 40
12.0
 41
0.0
 71
     5
 72
     1
  1
\A1;φ96
1001
ACAD
1000
MTEXTBEGIN
1070
    73
1070
     1
1070
    44
1040
1.0
1070
    74
1070
     0
1000
MTEXTEND
1000
MTEXTBEGIN
1070
    73
1070
     1
1070
    44
1040
1.0
1070
    74
1070
     0
1000
MTEXTEND
1000
MTEXTBEGIN
1070
    73
1070
     1
1070
    44
1040
1.0
1070
    74
1070
     0
1000
MTEXTEND
  0
POINT
  5
741
330
713
100
AcDbEntity
  8
DEFPOINTS
  6
BYBLOCK
 62
     0
100
AcDbPoint
 10
916.7251097033645
 20
248.7514988056919
 30
0.0
  0
POINT
  5
742
330
713
100
AcDbEntity
  8
DEFPOINTS
  6
BYBLOCK
 62
     0
100
AcDbPoint
 10
821.1257097033644
 20
248.7514988056919
 30
0.0
  0
POINT
  5
743
330
713
100
AcDbEntity
  8
DEFPOINTS
  6
BYBLOCK
 62
     0
100
AcDbPoint
 10
821.1257097033644
 20
172.9544403961922
 30
0.0
  0
ENDBLK
  5
744
330
713
100
AcDbEntity
  8
0
100
AcDbBlockEnd
  0
BLOCK
  5
75E
330
75D
100
AcDbEntity
  8
0
100
AcDbBlockBegin
  2
*D12
 70
     1
 10
0.0
 20
0.0
 30
0.0
  3
*D12
  1

  0
LINE
  5
75F
330
75D
100
AcDbEntity
  8
0
  6
BYBLOCK
 62
     4
100
AcDbLine
 10
1175.707109703364
 20
567.751298805692
 30
0.0
 11
1115.894124337156
 21
567.751298805692
 31
0.0
  0
LINE
  5
760
330
75D
100
AcDbEntity
  8
0
  6
BYBLOCK
 62
     4
100
AcDbLine
 10
1175.707109703364
 20
551.751298805692
 30
0.0
 11
1115.894124337156
 21
551.751298805692
 31
0.0
  0
LINE
  5
761
330
75D
100
AcDbEntity
  8
0
  6
BYBLOCK
 62
     4
100
AcDbLine
 10
1121.894124337156
 20
581.751298805692
 30
0.0
 11
1121.894124337156
 21
595.751298805692
 31
0.0
  0
LINE
  5
762
330
75D
100
AcDbEntity
  8
0
  6
BYBLOCK
 62
     4
100
AcDbLine
 10
1121.894124337156
 20
537.751298805692
 30
0.0
 11
1121.894124337156
 21
499.751298805692
 31
0.0
  0
LINE
  5
763
330
75D
100
AcDbEntity
  8
0
  6
BYBLOCK
 62
     4
100
AcDbLine
 10
1121.894124337156
 20
567.751298805692
 30
0.0
 11
1121.894124337156
 21
551.751298805692
 31
0.0
  0
INSERT
  5
764
330
75D
100
AcDbEntity
  8
0
  6
BYBLOCK
 62
     4
100
AcDbBlockReference
  2
_OPEN
 10
1121.894124337156
 20
567.751298805692
 30
0.0
 41
14.0
 42
14.0
 43
14.0
 50
270.0
  0
INSERT
  5
765
330
75D
100
AcDbEntity
  8
0
  6
BYBLOCK
 62
     4
100
AcDbBlockReference
  2
_OPEN
 10
1121.894124337156
 20
551.751298805692
 30
0.0
 41
14.0
 42
14.0
 43
14.0
 50
90.0
  0
MTEXT
  5
766
330
75D
100
AcDbEntity
  8
0
  6
BYBLOCK
 62
     4
100
AcDbMText
 10
1111.894124337156
 20
511.751298805692
 30
0.0
 40
12.0
 41
0.0
 71
     5
 72
     1
  1
\A1;16
 11
0.0
 21
1.0
 31
0.0
1001
ACAD
1000
MTEXTBEGIN
1070
    73
1070
     1
1070
    44
1040
1.0
1070
    74
1070
     0
1000
MTEXTEND
1000
MTEXTBEGIN
1070
    73
1070
     1
1070
    44
1040
1.0
1070
    74
1070
     0
1000
MTEXTEND
1000
MTEXTBEGIN
1070
    73
1070
     1
1070
    44
1040
1.0
1070
    74
1070
     0
1000
MTEXTEND
  0
POINT
  5
767
330
75D
100
AcDbEntity
  8
DEFPOINTS
  6
BYBLOCK
 62
     0
100
AcDbPoint
 10
1187.707109703364
 20
567.751298805692
 30
0.0
  0
POINT
  5
768
330
75D
100
AcDbEntity
  8
DEFPOINTS
  6
BYBLOCK
 62
     0
100
AcDbPoint
 10
1187.707109703364
 20
551.751298805692
 30
0.0
  0
POINT
  5
769
330
75D
100
AcDbEntity
  8
DEFPOINTS
  6
BYBLOCK
 62
     0
100
AcDbPoint
 10
1121.894124337156
 20
551.751298805692
 30
0.0
  0
ENDBLK
  5
76A
330
75D
100
AcDbEntity
  8
0
100
AcDbBlockEnd
  0
BLOCK
  5
76D
330
76C
100
AcDbEntity
  8
0
100
AcDbBlockBegin
  2
*D13
 70
     1
 10
0.0
 20
0.0
 30
0.0
  3
*D13
  1

  0
LINE
  5
76E
330
76C
100
AcDbEntity
  8
0
  6
BYBLOCK
 62
     4
100
AcDbLine
 10
1139.707509703364
 20
584.751298805692
 30
0.0
 11
1074.996812007331
 21
584.751298805692
 31
0.0
  0
LINE
  5
76F
330
76C
100
AcDbEntity
  8
0
  6
BYBLOCK
 62
     4
100
AcDbLine
 10
1164.107709703364
 20
559.751298805692
 30
0.0
 11
1074.996812007331
 21
559.751298805692
 31
0.0
  0
LINE
  5
770
330
76C
100
AcDbEntity
  8
0
  6
BYBLOCK
 62
     4
100
AcDbLine
 10
1080.996812007331
 20
598.751298805692
 30
0.0
 11
1080.996812007331
 21
612.7512988056921
 31
0.0
  0
LINE
  5
771
330
76C
100
AcDbEntity
  8
0
  6
BYBLOCK
 62
     4
100
AcDbLine
 10
1080.996812007331
 20
545.751298805692
 30
0.0
 11
1080.996812007331
 21
503.751298805692
 31
0.0
  0
LINE
  5
772
330
76C
100
AcDbEntity
  8
0
  6
BYBLOCK
 62
     4
100
AcDbLine
 10
1080.996812007331
 20
584.751298805692
 30
0.0
 11
1080.996812007331
 21
559.751298805692
 31
0.0
  0
INSERT
  5
773
330
76C
100
AcDbEntity
  8
0
  6
BYBLOCK
 62
     4
100
AcDbBlockReference
  2
_OPEN
 10
1080.996812007331
 20
584.751298805692
 30
0.0
 41
14.0
 42
14.0
 43
14.0
 50
270.0
  0
INSERT
  5
774
330
76C
100
AcDbEntity
  8
0
  6
BYBLOCK
 62
     4
100
AcDbBlockReference
  2
_OPEN
 10
1080.996812007331
 20
559.751298805692
 30
0.0
 41
14.0
 42
14.0
 43
14.0
 50
90.0
  0
MTEXT
  5
775
330
76C
100
AcDbEntity
  8
0
  6
BYBLOCK
 62
     4
100
AcDbMText
 10
1070.996812007331
 20
517.751298805692
 30
0.0
 40
12.0
 41
0.0
 71
     5
 72
     1
  1
\A1;25
 11
0.0
 21
1.0
 31
0.0
1001
ACAD
1000
MTEXTBEGIN
1070
    73
1070
     1
1070
    44
1040
1.0
1070
    74
1070
     0
1000
MTEXTEND
1000
MTEXTBEGIN
1070
    73
1070
     1
1070
    44
1040
1.0
1070
    74
1070
     0
1000
MTEXTEND
1000
MTEXTBEGIN
1070
    73
1070
     1
1070
    44
1040
1.0
1070
    74
1070
     0
1000
MTEXTEND
  0
POINT
  5
776
330
76C
100
AcDbEntity
  8
DEFPOINTS
  6
BYBLOCK
 62
     0
100
AcDbPoint
 10
1151.707509703364
 20
584.751298805692
 30
0.0
  0
POINT
  5
777
330
76C
100
AcDbEntity
  8
DEFPOINTS
  6
BYBLOCK
 62
     0
100
AcDbPoint
 10
1176.107709703364
 20
559.751298805692
 30
0.0
  0
POINT
  5
778
330
76C
100
AcDbEntity
  8
DEFPOINTS
  6
BYBLOCK
 62
     0
100
AcDbPoint
 10
1080.996812007331
 20
559.751298805692
 30
0.0
  0
ENDBLK
  5
779
330
76C
100
AcDbEntity
  8
0
100
AcDbBlockEnd
  0
BLOCK
  5
77C
330
77B
100
AcDbEntity
  8
0
100
AcDbBlockBegin
  2
*D14
 70
     1
 10
0.0
 20
0.0
 30
0.0
  3
*D14
  1

  0
LINE
  5
77D
330
77B
100
AcDbEntity
  8
0
  6
BYBLOCK
 62
     4
100
AcDbLine
 10
1387.707109703364
 20
583.294798805692
 30
0.0
 11
1387.707109703364
 21
635.9151741697501
 31
0.0
  0
LINE
  5
77E
330
77B
100
AcDbEntity
  8
0
  6
BYBLOCK
 62
     4
100
AcDbLine
 10
1187.707109703364
 20
583.294798805692
 30
0.0
 11
1187.707109703364
 21
635.9151741697501
 31
0.0
  0
LINE
  5
77F
330
77B
100
AcDbEntity
  8
0
  6
BYBLOCK
 62
     4
100
AcDbLine
 10
1373.707109703364
 20
629.91517416975
 30
0.0
 11
1201.707109703364
 21
629.91517416975
 31
0.0
  0
INSERT
  5
780
330
77B
100
AcDbEntity
  8
0
  6
BYBLOCK
 62
     4
100
AcDbBlockReference
  2
_OPEN
 10
1387.707109703364
 20
629.91517416975
 30
0.0
 41
14.0
 42
14.0
 43
14.0
  0
INSERT
  5
781
330
77B
100
AcDbEntity
  8
0
  6
BYBLOCK
 62
     4
100
AcDbBlockReference
  2
_OPEN
 10
1187.707109703364
 20
629.91517416975
 30
0.0
 41
14.0
 42
14.0
 43
14.0
 50
180.0
  0
MTEXT
  5
782
330
77B
100
AcDbEntity
  8
0
  6
BYBLOCK
 62
     4
100
AcDbMText
 10
1287.707109703364
 20
639.9151741697501
 30
0.0
 40
12.0
 41
0.0
 71
     5
 72
     1
  1
\A1;200
1001
ACAD
1000
MTEXTBEGIN
1070
    73
1070
     1
1070
    44
1040
1.0
1070
    74
1070
     0
1000
MTEXTEND
1000
MTEXTBEGIN
1070
    73
1070
     1
1070
    44
1040
1.0
1070
    74
1070
     0
1000
MTEXTEND
1000
MTEXTBEGIN
1070
    73
1070
     1
1070
    44
1040
1.0
1070
    74
1070
     0
1000
MTEXTEND
  0
POINT
  5
783
330
77B
100
AcDbEntity
  8
DEFPOINTS
  6
BYBLOCK
 62
     0
100
AcDbPoint
 10
1387.707109703364
 20
571.294798805692
 30
0.0
  0
POINT
  5
784
330
77B
100
AcDbEntity
  8
DEFPOINTS
  6
BYBLOCK
 62
     0
100
AcDbPoint
 10
1187.707109703364
 20
571.294798805692
 30
0.0
  0
POINT
  5
785
330
77B
100
AcDbEntity
  8
DEFPOINTS
  6
BYBLOCK
 62
     0
100
AcDbPoint
 10
1187.707109703364
 20
629.91517416975
 30
0.0
  0
ENDBLK
  5
786
330
77B
100
AcDbEntity
  8
0
100
AcDbBlockEnd
  0
BLOCK
  5
789
330
788
100
AcDbEntity
  8
0
100
AcDbBlockBegin
  2
*D15
 70
     1
 10
0.0
 20
0.0
 30
0.0
  3
*D15
  1

  0
LINE
  5
78A
330
788
100
AcDbEntity
  8
0
  6
BYBLOCK
 62
     4
100
AcDbLine
 10
1423.706809703364
 20
596.751298805692
 30
0.0
 11
1423.706809703364
 21
671.2292809958621
 31
0.0
  0
LINE
  5
78B
330
788
100
AcDbEntity
  8
0
  6
BYBLOCK
 62
     4
100
AcDbLine
 10
1151.707509703364
 20
596.751298805692
 30
0.0
 11
1151.707509703364
 21
671.2292809958621
 31
0.0
  0
LINE
  5
78C
330
788
100
AcDbEntity
  8
0
  6
BYBLOCK
 62
     4
100
AcDbLine
 10
1409.706809703364
 20
665.2292809958622
 30
0.0
 11
1165.707509703364
 21
665.2292809958622
 31
0.0
  0
INSERT
  5
78D
330
788
100
AcDbEntity
  8
0
  6
BYBLOCK
 62
     4
100
AcDbBlockReference
  2
_OPEN
 10
1423.706809703364
 20
665.2292809958622
 30
0.0
 41
14.0
 42
14.0
 43
14.0
  0
INSERT
  5
78E
330
788
100
AcDbEntity
  8
0
  6
BYBLOCK
 62
     4
100
AcDbBlockReference
  2
_OPEN
 10
1151.707509703364
 20
665.2292809958622
 30
0.0
 41
14.0
 42
14.0
 43
14.0
 50
180.0
  0
MTEXT
  5
78F
330
788
100
AcDbEntity
  8
0
  6
BYBLOCK
 62
     4
100
AcDbMText
 10
1287.707159703364
 20
675.2292809958621
 30
0.0
 40
12.0
 41
0.0
 71
     5
 72
     1
  1
\A1;272
1001
ACAD
1000
MTEXTBEGIN
1070
    73
1070
     1
1070
    44
1040
1.0
1070
    74
1070
     0
1000
MTEXTEND
1000
MTEXTBEGIN
1070
    73
1070
     1
1070
    44
1040
1.0
1070
    74
1070
     0
1000
MTEXTEND
1000
MTEXTBEGIN
1070
    73
1070
     1
1070
    44
1040
1.0
1070
    74
1070
     0
1000
MTEXTEND
  0
POINT
  5
790
330
788
100
AcDbEntity
  8
DEFPOINTS
  6
BYBLOCK
 62
     0
100
AcDbPoint
 10
1423.706809703364
 20
584.751298805692
 30
0.0
  0
POINT
  5
791
330
788
100
AcDbEntity
  8
DEFPOINTS
  6
BYBLOCK
 62
     0
100
AcDbPoint
 10
1151.707509703364
 20
584.751298805692
 30
0.0
  0
POINT
  5
792
330
788
100
AcDbEntity
  8
DEFPOINTS
  6
BYBLOCK
 62
     0
100
AcDbPoint
 10
1151.707509703364
 20
665.2292809958622
 30
0.0
  0
ENDBLK
  5
793
330
788
100
AcDbEntity
  8
0
100
AcDbBlockEnd
  0
ENDSEC
  0
SECTION
  2
ENTITIES
  0
LINE
  5
121
330
19
100
AcDbEntity
  8
ZUWAKU
 62
     7
 48
10.0
100
AcDbLine
 10
19.90074647074652
 20
48.1669006995453
 30
0.0
 11
1611.900746470746
 21
48.16690069954507
 31
0.0
  0
LINE
  5
122
330
19
100
AcDbEntity
  8
ZUWAKU
  6
CONTINUOUS
 62
     7
100
AcDbLine
 10
1611.900746470746
 20
1124.166900699545
 30
0.0
 11
19.90074647074652
 21
1124.166900699545
 31
0.0
  0
LINE
  5
123
330
19
100
AcDbEntity
  8
ZUWAKU
  6
CONTINUOUS
 62
     7
100
AcDbLine
 10
1611.900746470746
 20
24.16690069954529
 30
0.0
 11
19.90074647074652
 21
24.16690069954529
 31
0.0
  0
LINE
  5
124
330
19
100
AcDbEntity
  8
ZUWAKU
  6
CONTINUOUS
 62
     7
100
AcDbLine
 10
19.90074647074652
 20
1124.166900699545
 30
0.0
 11
19.90074647074652
 21
24.16690069954529
 31
0.0
  0
LINE
  5
125
330
19
100
AcDbEntity
  8
ZUWAKU
 62
     7
 48
10.0
100
AcDbLine
 10
88.91574076238157
 20
24.16690069954529
 30
0.0
 11
88.91574076238157
 21
48.1669006995453
 31
0.0
  0
TEXT
  5
126
330
19
100
AcDbEntity
  8
ZUWAKU
 62
     7
100
AcDbText
 10
31.91332132304342
 20
27.64761340998802
 30
0.0
 40
16.0
  1
品 種
100
AcDbText
  0
LINE
  5
127
330
19
100
AcDbEntity
  8
ZUWAKU
 62
     7
 48
10.0
100
AcDbLine
 10
552.0054677130756
 20
24.16690069954529
 30
0.0
 11
552.0054677130756
 21
48.16690069954521
 31
0.0
  0
LINE
  5
128
330
19
100
AcDbEntity
  8
ZUWAKU
 62
     7
 48
10.0
100
AcDbLine
 10
418.8274955845217
 20
24.16690069954529
 30
0.0
 11
418.8274955845218
 21
48.16690069954525
 31
0.0
  0
TEXT
  5
129
330
19
100
AcDbEntity
  8
ZUWAKU
 62
     7
100
AcDbText
 10
564.4260762822405
 20
27.88656214294769
 30
0.0
 40
16.0
  1
Ｂ型　ＶＵ．ＶＰ７５
100
AcDbText
  0
TEXT
  5
12A
330
19
100
AcDbEntity
  8
ZUWAKU
 62
     7
100
AcDbText
 10
430.711957737576
 20
28.96889043994906
 30
0.0
 40
16.0
  1
品名・ｻ ｲ ｽﾞ
100
AcDbText
  0
TEXT
  5
12B
330
19
100
AcDbEntity
  8
ZUWAKU
 62
     7
100
AcDbText
 10
100.503666760442
 20
28.80785192669509
 30
0.0
 40
16.0
  1
ビルマス
100
AcDbText
  0
LINE
  5
12C
330
19
100
AcDbEntity
  8
ZUWAKU
 62
     7
 48
10.0
100
AcDbLine
 10
1537.246006285983
 20
24.16690069954474
 30
0.0
 11
1537.246006285983
 21
48.16690069954507
 31
0.0
  0
LINE
  5
12D
330
19
100
AcDbEntity
  8
ZUWAKU
 62
     7
 48
10.0
100
AcDbLine
 10
1467.423590774814
 20
24.16690069954483
 30
0.0
 11
1467.423590774814
 21
48.16690069954509
 31
0.0
  0
TEXT
  5
12E
330
19
100
AcDbEntity
  8
ZUWAKU
 62
     7
100
AcDbText
 10
1479.19091629413
 20
27.08628325011705
 30
0.0
 40
16.0
  1
尺 度
100
AcDbText
  0
TEXT
  5
12F
330
19
100
AcDbEntity
  8
ZUWAKU
 62
     7
100
AcDbText
 10
1559.27471636407
 20
27.71150653553059
 30
0.0
 40
16.0
  1
1/4
100
AcDbText
  0
TEXT
  5
130
330
19
100
AcDbEntity
  8
ZUWAKU
 62
     7
100
AcDbText
 10
1308.30613703518
 20
28.40748782453036
 30
0.0
 40
16.0
  1
ＧＬ１６
100
AcDbText
  0
TEXT
  5
131
330
19
100
AcDbEntity
  8
ZUWAKU
 62
     7
100
AcDbText
 10
1240.472447976041
 20
27.90554632275259
 30
0.0
 40
16.0
  1
品 番
100
AcDbText
  0
LINE
  5
132
330
19
100
AcDbEntity
  8
ZUWAKU
 62
     7
 48
10.0
100
AcDbLine
 10
1228.46999593825
 20
24.16690069954464
 30
0.0
 11
1228.46999593825
 21
48.16690069954512
 31
0.0
  0
LINE
  5
133
330
19
100
AcDbEntity
  8
ZUWAKU
 62
     7
 48
10.0
100
AcDbLine
 10
1297.321307773629
 20
24.16690069954464
 30
0.0
 11
1297.321307773629
 21
48.1669006995451
 31
0.0
  0
TEXT
  5
134
330
19
100
AcDbEntity
  8
ZUWAKU
 62
     7
 48
10.0
100
AcDbText
 10
1292.407013373002
 20
5.798621502208334
 30
0.0
 40
16.0
  1
積水化学工業株式会社  建材
100
AcDbText
  0
LINE
  5
135
330
19
100
AcDbEntity
  8
ZUWAKU
  6
CONTINUOUS
 62
     7
100
AcDbLine
 10
1611.900746470746
 20
1124.166900699545
 30
0.0
 11
1611.900746470746
 21
24.16690069954529
 31
0.0
  0
LINE
  5
323
330
19
100
AcDbEntity
  8
CENTER_L
  6
CENTER
 62
     1
 48
5.0
100
AcDbLine
 10
410.8294851777293
 20
228.5067544215931
 30
0.0
 11
410.8294851777293
 21
618.4483544215932
 31
0.0
  0
LINE
  5
324
330
19
100
AcDbEntity
  8
SEIHIN
  6
CONTINUOUS
 62
     3
100
AcDbLine
 10
490.6273851777293
 20
318.1432544215931
 30
0.0
 11
509.8284851777293
 21
585.0764544215932
 31
0.0
  0
LINE
  5
325
330
19
100
AcDbEntity
  8
SEIHIN
  6
CONTINUOUS
 62
     3
100
AcDbLine
 10
521.6273851777294
 20
318.1432544215931
 30
0.0
 11
540.8284851777294
 21
585.0764544215932
 31
0.0
  0
LINE
  5
326
330
19
100
AcDbEntity
  8
SEIHIN
  6
CONTINUOUS
 62
     3
100
AcDbLine
 10
300.0316851777295
 20
318.1432544215931
 30
0.0
 11
280.8305851777295
 21
585.0764544215932
 31
0.0
  0
LINE
  5
327
330
19
100
AcDbEntity
  8
SEIHIN
  6
CONTINUOUS
 62
     3
100
AcDbLine
 10
331.0316851777295
 20
318.1432544215931
 30
0.0
 11
311.8305851777295
 21
585.0764544215932
 31
0.0
  0
DIMENSION
  5
32B
330
19
100
AcDbEntity
  8
SUNPOU
  6
CONTINUOUS
 62
     4
100
AcDbDimension
  2
*D1
 10
300.3961442010731
 20
190.9434232257376
 30
0.0
 11
410.8295351777294
 21
200.9434232257376
 31
0.0
 12
-6.877624525634928
 22
18.32515561590116
 32
0.0
 70
    32
  3
STANDARD
100
AcDbAlignedDimension
 13
521.2629261543857
 23
313.0765544215932
 33
0.0
 14
300.3961442010731
 24
313.0765544215932
 34
0.0
100
AcDbRotatedDimension
1001
ACAD
1000
DSTYLE
1002
{
1070
   140
1040
12.0
1070
    74
1070
     0
1070
    73
1070
     0
1070
   272
1070
     0
1070
    77
1070
     3
1070
   173
1070
     1
1070
   147
1040
4.0
1070
    42
1040
20.0
1070
    44
1040
8.0
1070
    43
1040
32.0
1070
   271
1070
     0
1070
   178
1070
     4
1070
   177
1070
     4
1070
   176
1070
     4
1070
   141
1040
12.0
1070
     7
1000
_OPEN
1070
     6
1000
_OPEN
1070
    41
1040
12.0
1002
}
  0
LINE
  5
330
330
19
100
AcDbEntity
  8
SEIHIN
  6
CONTINUOUS
 62
     3
100
AcDbLine
 10
305.9585851777294
 20
313.0765544215932
 30
0.0
 11
410.8294851777293
 21
313.0765544215932
 31
0.0
  0
ARC
  5
331
330
19
100
AcDbEntity
  8
SEIHIN
  6
CONTINUOUS
 62
     3
100
AcDbCircle
 10
305.9585851777294
 20
319.0765544215931
 30
0.0
 40
5.999966
100
AcDbArc
 50
188.9487969999999
 51
270.0
  0
ARC
  5
332
330
19
100
AcDbEntity
  8
SEIHIN
  6
CONTINUOUS
 62
     3
100
AcDbCircle
 10
336.9586851777294
 20
319.0765544215931
 30
0.0
 40
5.999966
100
AcDbArc
 50
188.9487969999999
 51
270.0
  0
LINE
  5
333
330
19
100
AcDbEntity
  8
SEIHIN
  6
CONTINUOUS
 62
     3
100
AcDbLine
 10
515.7004851777294
 20
313.0765544215932
 30
0.0
 11
410.8294851777293
 21
313.0765544215932
 31
0.0
  0
LINE
  5
334
330
19
100
AcDbEntity
  8
SEIHIN
  6
CONTINUOUS
 62
     3
100
AcDbLine
 10
363.0295851777293
 20
267.0766544215931
 30
0.0
 11
363.0296851777293
 21
307.0765544215932
 31
0.0
  0
LINE
  5
335
330
19
100
AcDbEntity
  8
SEIHIN
  6
CONTINUOUS
 62
     3
100
AcDbLine
 10
458.6294851777295
 20
267.0766544215931
 30
0.0
 11
458.6293851777295
 21
307.0765544215932
 31
0.0
  0
LINE
  5
336
330
19
100
AcDbEntity
  8
SEIHIN
  6
CONTINUOUS
 62
     3
100
AcDbLine
 10
365.6359851777295
 20
263.0766544215931
 30
0.0
 11
410.8294851777293
 21
263.0766544215931
 31
0.0
  0
LINE
  5
337
330
19
100
AcDbEntity
  8
SEIHIN
  6
CONTINUOUS
 62
     3
100
AcDbLine
 10
363.0295851777293
 20
267.0766544215931
 30
0.0
 11
410.8294851777293
 21
267.0766544215931
 31
0.0
  0
LINE
  5
338
330
19
100
AcDbEntity
  8
SEIHIN
  6
CONTINUOUS
 62
     3
100
AcDbLine
 10
373.5795851777295
 20
243.0765544215931
 30
0.0
 11
410.8294851777293
 21
243.0765544215931
 31
0.0
  0
LINE
  5
339
330
19
100
AcDbEntity
  8
SEIHIN
  6
CONTINUOUS
 62
     3
100
AcDbLine
 10
373.5795851777295
 20
243.0765544215931
 30
0.0
 11
373.5795851777295
 21
263.0766544215931
 31
0.0
  0
LINE
  5
33A
330
19
100
AcDbEntity
  8
SEIHIN
  6
CONTINUOUS
 62
     3
100
AcDbLine
 10
363.7040851777294
 20
264.5589544215931
 30
0.0
 11
363.0295851777293
 21
267.0766544215931
 31
0.0
  0
ARC
  5
33B
330
19
100
AcDbEntity
  8
SEIHIN
  6
CONTINUOUS
 62
     3
100
AcDbCircle
 10
365.6359851777295
 20
265.0766544215931
 30
0.0
 40
1.999983
100
AcDbArc
 50
195.0020959999999
 51
270.0
  0
LINE
  5
33C
330
19
100
AcDbEntity
  8
SEIHIN
  6
CONTINUOUS
 62
     3
100
AcDbLine
 10
448.0795851777295
 20
243.0765544215931
 30
0.0
 11
448.0795851777295
 21
263.0766544215931
 31
0.0
  0
LINE
  5
33D
330
19
100
AcDbEntity
  8
SEIHIN
  6
CONTINUOUS
 62
     3
100
AcDbLine
 10
448.0795851777295
 20
243.0765544215931
 30
0.0
 11
410.8293851777293
 21
243.0765544215931
 31
0.0
  0
LINE
  5
33E
330
19
100
AcDbEntity
  8
SEIHIN
  6
CONTINUOUS
 62
     3
100
AcDbLine
 10
456.0230851777293
 20
263.0766544215931
 30
0.0
 11
410.8294851777293
 21
263.0766544215931
 31
0.0
  0
LINE
  5
33F
330
19
100
AcDbEntity
  8
SEIHIN
  6
CONTINUOUS
 62
     3
100
AcDbLine
 10
458.6294851777295
 20
267.0766544215931
 30
0.0
 11
410.8294851777293
 21
267.0766544215931
 31
0.0
  0
LINE
  5
340
330
19
100
AcDbEntity
  8
SEIHIN
  6
CONTINUOUS
 62
     3
100
AcDbLine
 10
457.9549851777294
 20
264.5589544215931
 30
0.0
 11
458.6294851777295
 21
267.0766544215931
 31
0.0
  0
ARC
  5
341
330
19
100
AcDbEntity
  8
SEIHIN
  6
CONTINUOUS
 62
     3
100
AcDbCircle
 10
456.0230851777293
 20
265.0766544215931
 30
0.0
 40
1.999983
100
AcDbArc
 50
270.0
 51
344.997904
  0
ARC
  5
342
330
19
100
AcDbEntity
  8
SEIHIN
  6
CONTINUOUS
 62
     3
100
AcDbCircle
 10
357.6861851777294
 20
307.0765544215932
 30
0.0
 40
6.0
100
AcDbArc
 50
0.0
 51
90.0
  0
ARC
  5
343
330
19
100
AcDbEntity
  8
SEIHIN
  6
CONTINUOUS
 62
     3
100
AcDbCircle
 10
463.9728851777294
 20
307.0765544215932
 30
0.0
 40
6.0
100
AcDbArc
 50
90.0
 51
180.0
  0
ARC
  5
344
330
19
100
AcDbEntity
  8
SEIHIN
  6
CONTINUOUS
 62
     3
100
AcDbCircle
 10
484.7004851777294
 20
319.0765544215931
 30
0.0
 40
5.999973999999999
100
AcDbArc
 50
270.0
 51
351.05026
  0
ARC
  5
345
330
19
100
AcDbEntity
  8
SEIHIN
  6
CONTINUOUS
 62
     3
100
AcDbCircle
 10
515.7004851777294
 20
319.0765544215931
 30
0.0
 40
5.999973999999999
100
AcDbArc
 50
270.0
 51
351.05026
  0
LINE
  5
346
330
19
100
AcDbEntity
  8
CENTER_L
  6
CENTER
 62
     1
 48
5.0
100
AcDbLine
 10
697.298966617235
 20
889.0527728537707
 30
0.0
 11
993.0002666172351
 21
889.0526728537706
 31
0.0
  0
LINE
  5
347
330
19
100
AcDbEntity
  8
SEIHIN
  6
CONTINUOUS
 62
     3
100
AcDbLine
 10
940.959866617235
 20
1025.05227285377
 30
0.0
 11
720.282766617235
 21
990.9568728537706
 31
0.0
  0
LINE
  5
348
330
19
100
AcDbEntity
  8
SEIHIN
  6
CONTINUOUS
 62
     3
100
AcDbLine
 10
720.746766617235
 20
987.9929728537707
 30
0.0
 11
941.147366617235
 21
1022.04567285377
 31
0.0
  0
LINE
  5
349
330
19
100
AcDbEntity
  8
SEIHIN
  6
CONTINUOUS
 62
     3
100
AcDbLine
 10
941.584966617235
 20
1016.17117285377
 30
0.0
 11
728.962466617235
 21
983.3202728537706
 31
0.0
  0
LINE
  5
34A
330
19
100
AcDbEntity
  8
SEIHIN
  6
CONTINUOUS
 62
     3
100
AcDbLine
 10
943.099366617235
 20
996.6939728537706
 30
0.0
 11
742.291066617235
 21
965.6683728537707
 31
0.0
  0
LINE
  5
34B
330
19
100
AcDbEntity
  8
SEIHIN
  6
CONTINUOUS
 62
     3
100
AcDbLine
 10
728.962466617235
 20
988.3694728537706
 30
0.0
 11
941.2153666172351
 21
1021.16327285377
 31
0.0
  0
LINE
  5
34C
330
19
100
AcDbEntity
  8
SEIHIN
  6
CONTINUOUS
 62
     3
100
AcDbLine
 10
943.099266617235
 20
781.4112728537707
 30
0.0
 11
742.2909666172349
 21
812.4371728537708
 31
0.0
  0
LINE
  5
34D
330
19
100
AcDbEntity
  8
SEIHIN
  6
CONTINUOUS
 62
     3
100
AcDbLine
 10
940.959766617235
 20
753.0528728537706
 30
0.0
 11
720.282666617235
 21
787.1485728537707
 31
0.0
  0
LINE
  5
34E
330
19
100
AcDbEntity
  8
SEIHIN
  6
CONTINUOUS
 62
     3
100
AcDbLine
 10
720.746766617235
 20
790.1124728537706
 30
0.0
 11
941.1471666172349
 21
756.0594728537708
 31
0.0
  0
LINE
  5
34F
330
19
100
AcDbEntity
  8
SEIHIN
  6
CONTINUOUS
 62
     3
100
AcDbLine
 10
728.962466617235
 20
789.7359728537706
 30
0.0
 11
941.2150666172349
 21
756.9420728537707
 31
0.0
  0
LINE
  5
350
330
19
100
AcDbEntity
  8
SEIHIN
  6
CONTINUOUS
 62
     3
100
AcDbLine
 10
941.5848666172349
 20
761.9339728537706
 30
0.0
 11
728.962466617235
 21
794.7853728537706
 31
0.0
  0
ARC
  5
351
330
19
100
AcDbEntity
  8
SEIHIN
  6
CONTINUOUS
 62
     3
100
AcDbCircle
 10
863.9613666172349
 20
889.0530728537708
 30
0.0
 40
32.5
100
AcDbArc
 50
270.0
 51
269.999824
  0
ARC
  5
352
330
19
100
AcDbEntity
  8
SEIHIN
  6
CONTINUOUS
 62
     3
100
AcDbCircle
 10
863.9613666172349
 20
889.0530728537708
 30
0.0
 40
34.25
100
AcDbArc
 50
270.0
 51
269.999833
  0
DIMENSION
  5
353
330
19
100
AcDbEntity
  8
SUNPOU
  6
CONTINUOUS
 62
     4
100
AcDbDimension
  2
*D2
 10
274.8298851777294
 20
649.0273862344743
 30
0.0
 11
410.8295351777294
 21
659.0273862344742
 31
0.0
 12
-223.9430268676597
 22
12.73342617310845
 32
0.0
 70
    32
  3
STANDARD
100
AcDbAlignedDimension
 13
546.8291851777293
 23
603.0764544215932
 33
0.0
 14
274.8298851777294
 24
603.0764544215932
 34
0.0
100
AcDbRotatedDimension
1001
ACAD
1000
DSTYLE
1002
{
1070
   140
1040
12.0
1070
    74
1070
     0
1070
    73
1070
     0
1070
   272
1070
     0
1070
    77
1070
     3
1070
   173
1070
     1
1070
   147
1040
4.0
1070
    42
1040
20.0
1070
    44
1040
8.0
1070
    43
1040
32.0
1070
   271
1070
     0
1070
   178
1070
     4
1070
   177
1070
     4
1070
   176
1070
     4
1070
   141
1040
12.0
1070
     7
1000
_OPEN
1070
     6
1000
_OPEN
1070
    41
1040
12.0
1002
}
  0
LINE
  5
355
330
19
100
AcDbEntity
  8
SEIHIN
  6
CONTINUOUS
 62
     3
100
AcDbLine
 10
410.8294851777293
 20
603.0764544215932
 30
0.0
 11
274.8298851777294
 21
603.0764544215932
 31
0.0
  0
LINE
  5
356
330
19
100
AcDbEntity
  8
SEIHIN
  6
CONTINUOUS
 62
     3
100
AcDbLine
 10
275.8299851777294
 20
588.0764544215931
 30
0.0
 11
410.8294851777293
 21
588.0764544215931
 31
0.0
  0
LINE
  5
357
330
19
100
AcDbEntity
  8
SEIHIN
  6
CONTINUOUS
 62
     3
100
AcDbLine
 10
280.8305851777295
 20
585.0764544215932
 30
0.0
 11
410.8294851777293
 21
585.0764544215932
 31
0.0
  0
LINE
  5
358
330
19
100
AcDbEntity
  8
SEIHIN
  6
CONTINUOUS
 62
     3
100
AcDbLine
 10
719.839166617235
 20
889.0522728537707
 30
0.0
 11
719.839366617235
 21
979.3386728537708
 31
0.0
  0
LINE
  5
359
330
19
100
AcDbEntity
  8
SEIHIN
  6
CONTINUOUS
 62
     3
100
AcDbLine
 10
739.748966617235
 20
889.0521728537708
 30
0.0
 11
739.7491666172349
 21
962.7035728537707
 31
0.0
  0
LINE
  5
35A
330
19
100
AcDbEntity
  8
SEIHIN
  6
CONTINUOUS
 62
     3
100
AcDbLine
 10
714.850366617235
 20
889.0522728537707
 30
0.0
 11
714.850566617235
 21
979.3302728537705
 31
0.0
  0
LINE
  5
35B
330
19
100
AcDbEntity
  8
SEIHIN
  6
CONTINUOUS
 62
     3
100
AcDbLine
 10
710.9620666172349
 20
889.0522728537707
 30
0.0
 11
710.962266617235
 21
980.0858728537708
 31
0.0
  0
LINE
  5
35C
330
19
100
AcDbEntity
  8
SEIHIN
  6
CONTINUOUS
 62
     3
100
AcDbLine
 10
713.9680666172351
 20
889.0522728537707
 30
0.0
 11
713.968266617235
 21
980.0868728537707
 31
0.0
  0
LINE
  5
35D
330
19
100
AcDbEntity
  8
SEIHIN
  6
CONTINUOUS
 62
     3
100
AcDbLine
 10
280.8305851777295
 20
585.0764544215932
 30
0.0
 11
275.8299851777294
 21
588.0764544215931
 31
0.0
  0
LINE
  5
35E
330
19
100
AcDbEntity
  8
SEIHIN
  6
CONTINUOUS
 62
     3
100
AcDbLine
 10
275.8299851777294
 20
588.0764544215931
 30
0.0
 11
274.8298851777294
 21
603.0764544215932
 31
0.0
  0
LINE
  5
368
330
19
100
AcDbEntity
  8
SEIHIN
  6
CONTINUOUS
 62
     3
100
AcDbLine
 10
300.1676851777294
 20
585.0764544215932
 30
0.0
 11
295.1670851777294
 21
588.0764544215931
 31
0.0
  0
ARC
  5
369
330
19
100
AcDbEntity
  8
SEIHIN
  6
CONTINUOUS
 62
     3
100
AcDbCircle
 10
297.5332851777295
 20
596.1564544215931
 30
0.0
 40
2.920035999999999
100
AcDbArc
 50
3.815249999999999
 51
90.0
  0
LINE
  5
36A
330
19
100
AcDbEntity
  8
SEIHIN
  6
CONTINUOUS
 62
     3
100
AcDbLine
 10
297.1058851777295
 20
599.0764544215932
 30
0.0
 11
297.5332851777295
 21
599.0764544215932
 31
0.0
  0
LINE
  5
36B
330
19
100
AcDbEntity
  8
SEIHIN
  6
CONTINUOUS
 62
     3
100
AcDbLine
 10
295.1670851777294
 20
588.0764544215931
 30
0.0
 11
294.6114851777295
 21
596.4101544215931
 31
0.0
  0
ARC
  5
36C
330
19
100
AcDbEntity
  8
SEIHIN
  6
CONTINUOUS
 62
     3
100
AcDbCircle
 10
297.1058851777295
 20
596.5764544215931
 30
0.0
 40
2.500018999999999
100
AcDbArc
 50
90.0
 51
183.814075
  0
LINE
  5
36D
330
19
100
AcDbEntity
  8
SEIHIN
  6
CONTINUOUS
 62
     3
100
AcDbLine
 10
306.8299851777294
 20
588.0764544215931
 30
0.0
 11
305.8298851777294
 21
603.0764544215932
 31
0.0
  0
LINE
  5
36E
330
19
100
AcDbEntity
  8
SEIHIN
  6
CONTINUOUS
 62
     3
100
AcDbLine
 10
311.8305851777295
 20
585.0764544215932
 30
0.0
 11
306.8299851777294
 21
588.0764544215931
 31
0.0
  0
LINE
  5
36F
330
19
100
AcDbEntity
  8
SEIHIN
  6
CONTINUOUS
 62
     3
100
AcDbLine
 10
300.9985851777294
 20
588.0764544215931
 30
0.0
 11
300.4468851777294
 21
596.3507544215931
 31
0.0
  0
LINE
  5
370
330
19
100
AcDbEntity
  8
SEIHIN
  6
CONTINUOUS
 62
     3
100
AcDbLine
 10
300.9985851777294
 20
588.0764544215931
 30
0.0
 11
305.9991851777295
 21
585.0764544215932
 31
0.0
  0
ARC
  5
376
330
19
100
AcDbEntity
  8
SEIHIN
  6
CONTINUOUS
 62
     3
100
AcDbCircle
 10
721.962266617235
 20
980.0858728537708
 30
0.0
 40
10.999993
100
AcDbArc
 50
98.78291200000001
 51
180.0
  0
LINE
  5
377
330
19
100
AcDbEntity
  8
SEIHIN
  6
CONTINUOUS
 62
     3
100
AcDbLine
 10
722.9622666172351
 20
988.3352728537706
 30
0.0
 11
722.9622666172351
 21
982.2616728537708
 31
0.0
  0
LINE
  5
378
330
19
100
AcDbEntity
  8
SEIHIN
  6
CONTINUOUS
 62
     3
100
AcDbLine
 10
728.962466617235
 20
989.2622728537705
 30
0.0
 11
728.962466617235
 21
983.1886728537707
 31
0.0
  0
ARC
  5
379
330
19
100
AcDbEntity
  8
SEIHIN
  6
CONTINUOUS
 62
     3
100
AcDbCircle
 10
722.850566617235
 20
979.3301728537706
 30
0.0
 40
7.999952
100
AcDbArc
 50
98.78280900000001
 51
180.0
  0
ARC
  5
37A
330
19
100
AcDbEntity
  8
SEIHIN
  6
CONTINUOUS
 62
     3
100
AcDbCircle
 10
721.968266617235
 20
980.0866728537707
 30
0.0
 40
8.000002
100
AcDbArc
 50
98.78269900000002
 51
179.999284
  0
LINE
  5
37B
330
19
100
AcDbEntity
  8
SEIHIN
  6
CONTINUOUS
 62
     3
100
AcDbLine
 10
721.629066617235
 20
987.2363728537706
 30
0.0
 11
722.9622666172351
 21
987.4422728537707
 31
0.0
  0
LINE
  5
37C
330
19
100
AcDbEntity
  8
SEIHIN
  6
CONTINUOUS
 62
     3
100
AcDbLine
 10
722.9622666172351
 20
985.3073728537706
 30
0.0
 11
728.962466617235
 21
986.2343728537707
 31
0.0
  0
LINE
  5
37D
330
19
100
AcDbEntity
  8
SEIHIN
  6
CONTINUOUS
 62
     3
100
AcDbLine
 10
721.8254666172351
 20
980.2512728537706
 30
0.0
 11
739.7491666172349
 21
965.2756728537706
 31
0.0
  0
LINE
  5
37E
330
19
100
AcDbEntity
  8
SEIHIN
  6
CONTINUOUS
 62
     3
100
AcDbLine
 10
722.9622666172351
 20
982.2616728537708
 30
0.0
 11
728.962466617235
 21
983.1886728537707
 31
0.0
  0
LINE
  5
37F
330
19
100
AcDbEntity
  8
SEIHIN
  6
CONTINUOUS
 62
     3
100
AcDbLine
 10
722.9622666172351
 20
982.3932728537707
 30
0.0
 11
722.3813666172349
 21
982.3033728537707
 31
0.0
  0
ARC
  5
380
330
19
100
AcDbEntity
  8
SEIHIN
  6
CONTINUOUS
 62
     3
100
AcDbCircle
 10
722.8393666172349
 20
979.3385728537707
 30
0.0
 40
2.999990999999999
100
AcDbArc
 50
98.78348000000002
 51
180.0
  0
ARC
  5
381
330
19
100
AcDbEntity
  8
SEIHIN
  6
CONTINUOUS
 62
     3
100
AcDbCircle
 10
742.749166617235
 20
962.7035728537707
 30
0.0
 40
2.999990999999999
100
AcDbArc
 50
98.78348000000002
 51
180.0
  0
LINE
  5
382
330
19
100
AcDbEntity
  8
SEIHIN
  6
CONTINUOUS
 62
     3
100
AcDbLine
 10
410.8294851777293
 20
603.0764544215932
 30
0.0
 11
546.8291851777293
 21
603.0764544215932
 31
0.0
  0
LINE
  5
383
330
19
100
AcDbEntity
  8
SEIHIN
  6
CONTINUOUS
 62
     3
100
AcDbLine
 10
545.8290851777294
 20
588.0764544215931
 30
0.0
 11
410.8294851777293
 21
588.0764544215931
 31
0.0
  0
LINE
  5
384
330
19
100
AcDbEntity
  8
SEIHIN
  6
CONTINUOUS
 62
     3
100
AcDbLine
 10
540.8284851777294
 20
585.0764544215932
 30
0.0
 11
410.8294851777293
 21
585.0764544215932
 31
0.0
  0
LINE
  5
38E
330
19
100
AcDbEntity
  8
SEIHIN
  6
CONTINUOUS
 62
     3
100
AcDbLine
 10
520.6604851777294
 20
588.0764544215931
 30
0.0
 11
515.6598851777293
 21
585.0764544215932
 31
0.0
  0
LINE
  5
38F
330
19
100
AcDbEntity
  8
SEIHIN
  6
CONTINUOUS
 62
     3
100
AcDbLine
 10
514.8290851777294
 20
588.0764544215931
 30
0.0
 11
515.8291851777294
 21
603.0764544215932
 31
0.0
  0
LINE
  5
390
330
19
100
AcDbEntity
  8
SEIHIN
  6
CONTINUOUS
 62
     3
100
AcDbLine
 10
509.8284851777293
 20
585.0764544215932
 30
0.0
 11
514.8290851777294
 21
588.0764544215931
 31
0.0
  0
LINE
  5
396
330
19
100
AcDbEntity
  8
SEIHIN
  6
CONTINUOUS
 62
     3
100
AcDbLine
 10
521.4913851777294
 20
585.0764544215932
 30
0.0
 11
526.4919851777294
 21
588.0764544215931
 31
0.0
  0
LINE
  5
397
330
19
100
AcDbEntity
  8
SEIHIN
  6
CONTINUOUS
 62
     3
100
AcDbLine
 10
520.6604851777294
 20
588.0764544215931
 30
0.0
 11
521.2121851777294
 21
596.3507544215931
 31
0.0
  0
LINE
  5
398
330
19
100
AcDbEntity
  8
SEIHIN
  6
CONTINUOUS
 62
     3
100
AcDbLine
 10
526.4919851777294
 20
588.0764544215931
 30
0.0
 11
527.0475851777294
 21
596.4101544215931
 31
0.0
  0
LINE
  5
399
330
19
100
AcDbEntity
  8
SEIHIN
  6
CONTINUOUS
 62
     3
100
AcDbLine
 10
524.5531851777293
 20
599.0764544215932
 30
0.0
 11
524.1257851777295
 21
599.0764544215932
 31
0.0
  0
ARC
  5
39A
330
19
100
AcDbEntity
  8
SEIHIN
  6
CONTINUOUS
 62
     3
100
AcDbCircle
 10
524.1257851777295
 20
596.1564544215931
 30
0.0
 40
2.920035999999999
100
AcDbArc
 50
90.0
 51
176.18475
  0
ARC
  5
39B
330
19
100
AcDbEntity
  8
SEIHIN
  6
CONTINUOUS
 62
     3
100
AcDbCircle
 10
524.5531851777293
 20
596.5764544215931
 30
0.0
 40
2.499968999999999
100
AcDbArc
 50
356.1857729999999
 51
90.0
  0
LINE
  5
39C
330
19
100
AcDbEntity
  8
SEIHIN
  6
CONTINUOUS
 62
     3
100
AcDbLine
 10
540.8284851777294
 20
585.0764544215932
 30
0.0
 11
545.8290851777294
 21
588.0764544215931
 31
0.0
  0
LINE
  5
39D
330
19
100
AcDbEntity
  8
SEIHIN
  6
CONTINUOUS
 62
     3
100
AcDbLine
 10
545.8290851777294
 20
588.0764544215931
 30
0.0
 11
546.8291851777293
 21
603.0764544215932
 31
0.0
  0
LINE
  5
39E
330
19
100
AcDbEntity
  8
SEIHIN
  6
CONTINUOUS
 62
     3
100
AcDbLine
 10
739.748966617235
 20
889.0532728537706
 30
0.0
 11
739.7491666172349
 21
815.4020728537707
 31
0.0
  0
LINE
  5
39F
330
19
100
AcDbEntity
  8
SEIHIN
  6
CONTINUOUS
 62
     3
100
AcDbLine
 10
719.839166617235
 20
889.0532728537706
 30
0.0
 11
719.839266617235
 21
798.7667728537705
 31
0.0
  0
LINE
  5
3A0
330
19
100
AcDbEntity
  8
SEIHIN
  6
CONTINUOUS
 62
     3
100
AcDbLine
 10
710.962166617235
 20
889.0533728537707
 30
0.0
 11
710.962266617235
 21
798.0196728537707
 31
0.0
  0
LINE
  5
3A1
330
19
100
AcDbEntity
  8
SEIHIN
  6
CONTINUOUS
 62
     3
100
AcDbLine
 10
713.968166617235
 20
889.0533728537707
 30
0.0
 11
713.968166617235
 21
798.0186728537708
 31
0.0
  0
LINE
  5
3A2
330
19
100
AcDbEntity
  8
SEIHIN
  6
CONTINUOUS
 62
     3
100
AcDbLine
 10
714.850466617235
 20
889.0533728537707
 30
0.0
 11
714.850566617235
 21
798.7752728537707
 31
0.0
  0
ARC
  5
3A3
330
19
100
AcDbEntity
  8
SEIHIN
  6
CONTINUOUS
 62
     3
100
AcDbCircle
 10
721.9621666172351
 20
798.0196728537707
 30
0.0
 40
10.999993
100
AcDbArc
 50
180.0
 51
261.2170879999999
  0
ARC
  5
3A4
330
19
100
AcDbEntity
  8
SEIHIN
  6
CONTINUOUS
 62
     3
100
AcDbCircle
 10
722.8393666172349
 20
798.7669728537707
 30
0.0
 40
2.999990999999999
100
AcDbArc
 50
180.0
 51
261.21652
  0
ARC
  5
3A5
330
19
100
AcDbEntity
  8
SEIHIN
  6
CONTINUOUS
 62
     3
100
AcDbCircle
 10
721.968266617235
 20
798.0186728537708
 30
0.0
 40
7.999952
100
AcDbArc
 50
180.0
 51
261.217191
  0
ARC
  5
3A6
330
19
100
AcDbEntity
  8
SEIHIN
  6
CONTINUOUS
 62
     3
100
AcDbCircle
 10
722.850566617235
 20
798.7752728537707
 30
0.0
 40
7.999952
100
AcDbArc
 50
180.0
 51
261.217191
  0
LINE
  5
3A7
330
19
100
AcDbEntity
  8
SEIHIN
  6
CONTINUOUS
 62
     3
100
AcDbLine
 10
721.8254666172351
 20
797.8541728537707
 30
0.0
 11
739.7491666172349
 21
812.8297728537706
 31
0.0
  0
ARC
  5
3A8
330
19
100
AcDbEntity
  8
SEIHIN
  6
CONTINUOUS
 62
     3
100
AcDbCircle
 10
742.749066617235
 20
815.4020728537707
 30
0.0
 40
3.000040999999999
100
AcDbArc
 50
180.0
 51
261.216812
  0
LINE
  5
3A9
330
19
100
AcDbEntity
  8
SEIHIN
  6
CONTINUOUS
 62
     3
100
AcDbLine
 10
721.629066617235
 20
790.8690728537708
 30
0.0
 11
722.9622666172351
 21
790.6632728537706
 31
0.0
  0
LINE
  5
3AA
330
19
100
AcDbEntity
  8
SEIHIN
  6
CONTINUOUS
 62
     3
100
AcDbLine
 10
722.9622666172351
 20
795.7123728537705
 30
0.0
 11
722.3813666172349
 21
795.8021728537707
 31
0.0
  0
LINE
  5
3AB
330
19
100
AcDbEntity
  8
SEIHIN
  6
CONTINUOUS
 62
     3
100
AcDbLine
 10
722.9622666172351
 20
795.8438728537708
 30
0.0
 11
728.962466617235
 21
794.9168728537706
 31
0.0
  0
LINE
  5
3AC
330
19
100
AcDbEntity
  8
SEIHIN
  6
CONTINUOUS
 62
     3
100
AcDbLine
 10
722.9622666172351
 20
792.7979728537707
 30
0.0
 11
728.962466617235
 21
791.8709728537708
 31
0.0
  0
LINE
  5
3AD
330
19
100
AcDbEntity
  8
SEIHIN
  6
CONTINUOUS
 62
     3
100
AcDbLine
 10
728.962466617235
 20
788.8431728537707
 30
0.0
 11
728.962466617235
 21
794.9168728537706
 31
0.0
  0
LINE
  5
3AE
330
19
100
AcDbEntity
  8
SEIHIN
  6
CONTINUOUS
 62
     3
100
AcDbLine
 10
722.9622666172351
 20
789.7701728537706
 30
0.0
 11
722.9622666172351
 21
795.8438728537708
 31
0.0
  0
LINE
  5
3AF
330
19
100
AcDbEntity
  8
SEIHIN
  6
CONTINUOUS
 62
     3
100
AcDbLine
 10
981.961266617235
 20
889.0519728537706
 30
0.0
 11
981.962266617235
 21
1019.05227285377
 31
0.0
  0
LINE
  5
3B0
330
19
100
AcDbEntity
  8
SEIHIN
  6
CONTINUOUS
 62
     3
100
AcDbLine
 10
975.4922666172349
 20
889.0519728537706
 30
0.0
 11
975.4922666172349
 21
993.6939728537707
 31
0.0
  0
LINE
  5
3B1
330
19
100
AcDbEntity
  8
SEIHIN
  6
CONTINUOUS
 62
     3
100
AcDbLine
 10
978.461266617235
 20
889.0519728537706
 30
0.0
 11
978.461266617235
 21
1019.04567285377
 31
0.0
  0
LINE
  5
3B2
330
19
100
AcDbEntity
  8
SEIHIN
  6
CONTINUOUS
 62
     3
100
AcDbLine
 10
941.584966617235
 20
1016.17117285377
 30
0.0
 11
943.099366617235
 21
996.6939728537706
 31
0.0
  0
ARC
  5
3B3
330
19
100
AcDbEntity
  8
SEIHIN
  6
CONTINUOUS
 62
     3
100
AcDbCircle
 10
975.461266617235
 20
1013.17117285377
 30
0.0
 40
3.0
100
AcDbArc
 50
0.0
 51
90.0
  0
LINE
  5
3B4
330
19
100
AcDbEntity
  8
SEIHIN
  6
CONTINUOUS
 62
     3
100
AcDbLine
 10
940.959866617235
 20
1025.05227285377
 30
0.0
 11
975.9622666172351
 21
1025.05227285377
 31
0.0
  0
LINE
  5
3B5
330
19
100
AcDbEntity
  8
SEIHIN
  6
CONTINUOUS
 62
     3
100
AcDbLine
 10
941.147366617235
 20
1022.04567285377
 30
0.0
 11
975.461266617235
 21
1022.04567285377
 31
0.0
  0
LINE
  5
3B6
330
19
100
AcDbEntity
  8
SEIHIN
  6
CONTINUOUS
 62
     3
100
AcDbLine
 10
941.2153666172351
 20
1021.16327285377
 30
0.0
 11
975.461266617235
 21
1021.16327285377
 31
0.0
  0
LINE
  5
3B7
330
19
100
AcDbEntity
  8
SEIHIN
  6
CONTINUOUS
 62
     3
100
AcDbLine
 10
969.962266617235
 20
1016.17117285377
 30
0.0
 11
975.461266617235
 21
1016.17117285377
 31
0.0
  0
LINE
  5
3B8
330
19
100
AcDbEntity
  8
SEIHIN
  6
CONTINUOUS
 62
     3
100
AcDbLine
 10
941.584966617235
 20
1016.17117285377
 30
0.0
 11
959.961866617235
 21
1016.17117285377
 31
0.0
  0
LINE
  5
3B9
330
19
100
AcDbEntity
  8
SEIHIN
  6
CONTINUOUS
 62
     3
100
AcDbLine
 10
959.961866617235
 20
1016.90707285377
 30
0.0
 11
969.962266617235
 21
1016.90707285377
 31
0.0
  0
LINE
  5
3BA
330
19
100
AcDbEntity
  8
SEIHIN
  6
CONTINUOUS
 62
     3
100
AcDbLine
 10
961.961866617235
 20
1019.91467285377
 30
0.0
 11
967.9622666172351
 21
1019.91467285377
 31
0.0
  0
LINE
  5
3BB
330
19
100
AcDbEntity
  8
SEIHIN
  6
CONTINUOUS
 62
     3
100
AcDbLine
 10
969.962266617235
 20
1017.91467285377
 30
0.0
 11
969.962266617235
 21
1016.17117285377
 31
0.0
  0
LINE
  5
3BC
330
19
100
AcDbEntity
  8
SEIHIN
  6
CONTINUOUS
 62
     3
100
AcDbLine
 10
959.961866617235
 20
1017.91467285377
 30
0.0
 11
959.961866617235
 21
1016.17127285377
 31
0.0
  0
ARC
  5
3BD
330
19
100
AcDbEntity
  8
SEIHIN
  6
CONTINUOUS
 62
     3
100
AcDbCircle
 10
967.9622666172351
 20
1017.91467285377
 30
0.0
 40
2.0
100
AcDbArc
 50
0.0
 51
90.0
  0
ARC
  5
3BE
330
19
100
AcDbEntity
  8
SEIHIN
  6
CONTINUOUS
 62
     3
100
AcDbCircle
 10
961.961866617235
 20
1017.91467285377
 30
0.0
 40
2.0
100
AcDbArc
 50
90.0
 51
180.0
  0
ARC
  5
3BF
330
19
100
AcDbEntity
  8
SEIHIN
  6
CONTINUOUS
 62
     3
100
AcDbCircle
 10
975.461266617235
 20
1018.16327285377
 30
0.0
 40
3.0
100
AcDbArc
 50
0.0
 51
90.0
  0
ARC
  5
3C0
330
19
100
AcDbEntity
  8
SEIHIN
  6
CONTINUOUS
 62
     3
100
AcDbCircle
 10
975.461266617235
 20
1019.04567285377
 30
0.0
 40
3.0
100
AcDbArc
 50
0.0
 51
90.0
  0
ARC
  5
3C1
330
19
100
AcDbEntity
  8
SEIHIN
  6
CONTINUOUS
 62
     3
100
AcDbCircle
 10
975.9622666172351
 20
1019.05227285377
 30
0.0
 40
6.0
100
AcDbArc
 50
0.0
 51
90.0
  0
ARC
  5
3C2
330
19
100
AcDbEntity
  8
SEIHIN
  6
CONTINUOUS
 62
     3
100
AcDbCircle
 10
972.492266617235
 20
993.6939728537707
 30
0.0
 40
3.0
100
AcDbArc
 50
0.0
 51
90.0
  0
LINE
  5
3C3
330
19
100
AcDbEntity
  8
SEIHIN
  6
CONTINUOUS
 62
     3
100
AcDbLine
 10
943.099366617235
 20
996.6939728537706
 30
0.0
 11
972.492266617235
 21
996.6939728537706
 31
0.0
  0
LINE
  5
3C4
330
19
100
AcDbEntity
  8
SEIHIN
  6
CONTINUOUS
 62
     3
100
AcDbLine
 10
977.753266617235
 20
1011.52497285377
 30
0.0
 11
975.4922666172349
 21
996.6938728537707
 31
0.0
  0
LINE
  5
3C5
330
19
100
AcDbEntity
  8
SEIHIN
  6
CONTINUOUS
 62
     3
100
AcDbLine
 10
981.961266617235
 20
953.5526728537707
 30
0.0
 11
978.461266617235
 21
953.5526728537707
 31
0.0
  0
LINE
  5
3C6
330
19
100
AcDbEntity
  8
SEIHIN
  6
CONTINUOUS
 62
     3
100
AcDbLine
 10
981.961266617235
 20
966.0526728537707
 30
0.0
 11
978.461266617235
 21
966.0526728537707
 31
0.0
  0
LINE
  5
3C7
330
19
100
AcDbEntity
  8
SEIHIN
  6
CONTINUOUS
 62
     3
100
AcDbLine
 10
981.961266617235
 20
962.0526728537706
 30
0.0
 11
978.461266617235
 21
962.0526728537706
 31
0.0
  0
LINE
  5
3C8
330
19
100
AcDbEntity
  8
SEIHIN
  6
CONTINUOUS
 62
     3
100
AcDbLine
 10
975.4922666172349
 20
889.0532728537706
 30
0.0
 11
975.4922666172349
 21
784.4112728537707
 31
0.0
  0
LINE
  5
3C9
330
19
100
AcDbEntity
  8
SEIHIN
  6
CONTINUOUS
 62
     3
100
AcDbLine
 10
981.961266617235
 20
889.0533728537707
 30
0.0
 11
981.962266617235
 21
759.0528728537706
 31
0.0
  0
LINE
  5
3CA
330
19
100
AcDbEntity
  8
SEIHIN
  6
CONTINUOUS
 62
     3
100
AcDbLine
 10
978.461266617235
 20
889.0532728537706
 30
0.0
 11
978.461266617235
 21
759.0594728537707
 31
0.0
  0
LINE
  5
3CB
330
19
100
AcDbEntity
  8
CENTER_L
  6
CENTER
 62
     1
 48
5.0
100
AcDbLine
 10
863.961566617235
 20
840.3733728537707
 30
0.0
 11
863.9616666172349
 21
938.3636728537705
 31
0.0
  0
LINE
  5
3CC
330
19
100
AcDbEntity
  8
SEIHIN
  6
CONTINUOUS
 62
     3
100
AcDbLine
 10
981.961266617235
 20
941.0526728537707
 30
0.0
 11
978.461266617235
 21
941.0526728537707
 31
0.0
  0
LINE
  5
3CD
330
19
100
AcDbEntity
  8
SEIHIN
  6
CONTINUOUS
 62
     3
100
AcDbLine
 10
981.961266617235
 20
949.5526728537706
 30
0.0
 11
978.461266617235
 21
949.5526728537706
 31
0.0
  0
LINE
  5
3CE
330
19
100
AcDbEntity
  8
SEIHIN
  6
CONTINUOUS
 62
     3
100
AcDbLine
 10
981.961266617235
 20
937.0526728537706
 30
0.0
 11
978.461266617235
 21
937.0526728537706
 31
0.0
  0
LINE
  5
3CF
330
19
100
AcDbEntity
  8
SEIHIN
  6
CONTINUOUS
 62
     3
100
AcDbLine
 10
981.961266617235
 20
828.5526728537707
 30
0.0
 11
978.461266617235
 21
828.5526728537707
 31
0.0
  0
LINE
  5
3D0
330
19
100
AcDbEntity
  8
SEIHIN
  6
CONTINUOUS
 62
     3
100
AcDbLine
 10
981.961266617235
 20
837.0526728537706
 30
0.0
 11
978.461266617235
 21
837.0526728537706
 31
0.0
  0
LINE
  5
3D1
330
19
100
AcDbEntity
  8
SEIHIN
  6
CONTINUOUS
 62
     3
100
AcDbLine
 10
981.961266617235
 20
841.0526728537707
 30
0.0
 11
978.461266617235
 21
841.0526728537707
 31
0.0
  0
LINE
  5
3D2
330
19
100
AcDbEntity
  8
SEIHIN
  6
CONTINUOUS
 62
     3
100
AcDbLine
 10
941.5848666172349
 20
761.9339728537706
 30
0.0
 11
943.099266617235
 21
781.4112728537707
 31
0.0
  0
ARC
  5
3D3
330
19
100
AcDbEntity
  8
SEIHIN
  6
CONTINUOUS
 62
     3
100
AcDbCircle
 10
972.492266617235
 20
784.4112728537707
 30
0.0
 40
3.0
100
AcDbArc
 50
270.0
 51
0.0
  0
LINE
  5
3D4
330
19
100
AcDbEntity
  8
SEIHIN
  6
CONTINUOUS
 62
     3
100
AcDbLine
 10
943.099266617235
 20
781.4112728537707
 30
0.0
 11
972.492266617235
 21
781.4112728537707
 31
0.0
  0
LINE
  5
3D5
330
19
100
AcDbEntity
  8
SEIHIN
  6
CONTINUOUS
 62
     3
100
AcDbLine
 10
981.961266617235
 20
816.0526728537707
 30
0.0
 11
978.461266617235
 21
816.0526728537707
 31
0.0
  0
LINE
  5
3D6
330
19
100
AcDbEntity
  8
SEIHIN
  6
CONTINUOUS
 62
     3
100
AcDbLine
 10
981.961266617235
 20
824.5526728537706
 30
0.0
 11
978.461266617235
 21
824.5526728537706
 31
0.0
  0
LINE
  5
3D7
330
19
100
AcDbEntity
  8
SEIHIN
  6
CONTINUOUS
 62
     3
100
AcDbLine
 10
981.961266617235
 20
812.0526728537706
 30
0.0
 11
978.461266617235
 21
812.0526728537706
 31
0.0
  0
LINE
  5
3D8
330
19
100
AcDbEntity
  8
SEIHIN
  6
CONTINUOUS
 62
     3
100
AcDbLine
 10
977.753266617235
 20
766.5802728537707
 30
0.0
 11
975.4922666172349
 21
781.4112728537707
 31
0.0
  0
LINE
  5
3D9
330
19
100
AcDbEntity
  8
SEIHIN
  6
CONTINUOUS
 62
     3
100
AcDbLine
 10
941.2150666172349
 20
756.9420728537707
 30
0.0
 11
975.461266617235
 21
756.9420728537707
 31
0.0
  0
LINE
  5
3DA
330
19
100
AcDbEntity
  8
SEIHIN
  6
CONTINUOUS
 62
     3
100
AcDbLine
 10
941.1471666172349
 20
756.0594728537708
 30
0.0
 11
975.461266617235
 21
756.0594728537708
 31
0.0
  0
LINE
  5
3DB
330
19
100
AcDbEntity
  8
SEIHIN
  6
CONTINUOUS
 62
     3
100
AcDbLine
 10
940.959766617235
 20
753.0528728537706
 30
0.0
 11
975.9612666172351
 21
753.0528728537706
 31
0.0
  0
LINE
  5
3DC
330
19
100
AcDbEntity
  8
SEIHIN
  6
CONTINUOUS
 62
     3
100
AcDbLine
 10
969.9612666172351
 20
761.9339728537706
 30
0.0
 11
975.461266617235
 21
761.9339728537706
 31
0.0
  0
LINE
  5
3DD
330
19
100
AcDbEntity
  8
SEIHIN
  6
CONTINUOUS
 62
     3
100
AcDbLine
 10
941.5848666172349
 20
761.9339728537706
 30
0.0
 11
959.9615666172351
 21
761.9339728537706
 31
0.0
  0
LINE
  5
3DE
330
19
100
AcDbEntity
  8
SEIHIN
  6
CONTINUOUS
 62
     3
100
AcDbLine
 10
961.961566617235
 20
758.1905728537706
 30
0.0
 11
967.9612666172351
 21
758.1905728537706
 31
0.0
  0
LINE
  5
3DF
330
19
100
AcDbEntity
  8
SEIHIN
  6
CONTINUOUS
 62
     3
100
AcDbLine
 10
959.9615666172351
 20
761.1981728537707
 30
0.0
 11
969.9612666172351
 21
761.1981728537707
 31
0.0
  0
LINE
  5
3E0
330
19
100
AcDbEntity
  8
SEIHIN
  6
CONTINUOUS
 62
     3
100
AcDbLine
 10
969.9612666172351
 20
760.1905728537706
 30
0.0
 11
969.9612666172351
 21
761.9339728537706
 31
0.0
  0
LINE
  5
3E1
330
19
100
AcDbEntity
  8
SEIHIN
  6
CONTINUOUS
 62
     3
100
AcDbLine
 10
959.9615666172351
 20
760.1905728537706
 30
0.0
 11
959.9615666172351
 21
761.9339728537706
 31
0.0
  0
ARC
  5
3E2
330
19
100
AcDbEntity
  8
SEIHIN
  6
CONTINUOUS
 62
     3
100
AcDbCircle
 10
967.9612666172351
 20
760.1905728537706
 30
0.0
 40
2.0
100
AcDbArc
 50
270.0
 51
0.0
  0
ARC
  5
3E3
330
19
100
AcDbEntity
  8
SEIHIN
  6
CONTINUOUS
 62
     3
100
AcDbCircle
 10
961.961566617235
 20
760.1905728537706
 30
0.0
 40
2.0
100
AcDbArc
 50
180.0
 51
270.0
  0
ARC
  5
3E4
330
19
100
AcDbEntity
  8
SEIHIN
  6
CONTINUOUS
 62
     3
100
AcDbCircle
 10
975.461266617235
 20
764.9339728537706
 30
0.0
 40
3.0
100
AcDbArc
 50
270.0
 51
0.0
  0
ARC
  5
3E5
330
19
100
AcDbEntity
  8
SEIHIN
  6
CONTINUOUS
 62
     3
100
AcDbCircle
 10
975.461266617235
 20
759.9420728537706
 30
0.0
 40
3.0
100
AcDbArc
 50
270.0
 51
0.0
  0
ARC
  5
3E6
330
19
100
AcDbEntity
  8
SEIHIN
  6
CONTINUOUS
 62
     3
100
AcDbCircle
 10
975.461266617235
 20
759.0594728537707
 30
0.0
 40
3.0
100
AcDbArc
 50
270.0
 51
0.0
  0
ARC
  5
3E7
330
19
100
AcDbEntity
  8
SEIHIN
  6
CONTINUOUS
 62
     3
100
AcDbCircle
 10
975.9612666172351
 20
759.0528728537706
 30
0.0
 40
6.0
100
AcDbArc
 50
270.0
 51
0.0
  0
LINE
  5
3EC
330
19
100
AcDbEntity
  8
SEIHIN
  6
CONTINUOUS
 62
     3
100
AcDbLine
 10
980.0484851777296
 20
603.0764544215932
 30
0.0
 11
977.1094851777293
 21
319.0144544215931
 31
0.0
  0
LINE
  5
3ED
330
19
100
AcDbEntity
  8
SEIHIN
  6
CONTINUOUS
 62
     3
100
AcDbLine
 10
734.6391851777293
 20
318.6365544215931
 30
0.0
 11
715.0478851777295
 21
585.0764544215932
 31
0.0
  0
LINE
  5
3EE
330
19
100
AcDbEntity
  8
SEIHIN
  6
CONTINUOUS
 62
     3
100
AcDbLine
 10
942.0770886864703
 20
316.0765544215931
 30
0.0
 11
944.8292121880303
 21
582.0764544215932
 31
0.0
  0
DIMENSION
  5
3EF
330
19
100
AcDbEntity
  8
SUNPOU
  6
CONTINUOUS
 62
     4
100
AcDbDimension
  2
*D3
 10
977.048049687942
 20
106.3457975395149
 30
0.0
 11
856.0480305631514
 21
116.3457975395149
 31
0.0
 12
-6.877624525634928
 22
18.32515561590116
 32
0.0
 70
    32
  3
STANDARD
100
AcDbAlignedDimension
 13
735.0480114383608
 23
313.0765544215932
 33
0.0
 14
977.048049687942
 24
313.0765544215932
 34
0.0
100
AcDbRotatedDimension
1001
ACAD
1000
DSTYLE
1002
{
1070
   140
1040
12.0
1070
    74
1070
     0
1070
    73
1070
     0
1070
   272
1070
     0
1070
    77
1070
     3
1070
   173
1070
     1
1070
   147
1040
4.0
1070
    42
1040
20.0
1070
    44
1040
8.0
1070
    43
1040
32.0
1070
   271
1070
     0
1070
   178
1070
     4
1070
   177
1070
     4
1070
   176
1070
     4
1070
   141
1040
12.0
1070
     7
1000
_OPEN
1070
     6
1000
_OPEN
1070
    41
1040
12.0
1002
}
  0
LINE
  5
3F0
330
19
100
AcDbEntity
  8
SEIHIN
  6
CONTINUOUS
 62
     3
100
AcDbLine
 10
740.6230851777295
 20
313.0765544215932
 30
0.0
 11
971.1094851777293
 21
313.0765544215932
 31
0.0
  0
LINE
  5
3F1
330
19
100
AcDbEntity
  8
SEIHIN
  6
CONTINUOUS
 62
     3
100
AcDbLine
 10
909.8474851777295
 20
267.0766544215931
 30
0.0
 11
862.0480851777294
 21
267.0766544215931
 31
0.0
  0
LINE
  5
3F2
330
19
100
AcDbEntity
  8
SEIHIN
  6
CONTINUOUS
 62
     3
100
AcDbLine
 10
907.2414851777294
 20
263.0766544215931
 30
0.0
 11
862.0480851777294
 21
263.0766544215931
 31
0.0
  0
LINE
  5
3F3
330
19
100
AcDbEntity
  8
SEIHIN
  6
CONTINUOUS
 62
     3
100
AcDbLine
 10
899.2984851777295
 20
243.0765544215931
 30
0.0
 11
862.0478851777296
 21
243.0765544215931
 31
0.0
  0
ARC
  5
3F4
330
19
100
AcDbEntity
  8
SEIHIN
  6
CONTINUOUS
 62
     3
100
AcDbCircle
 10
740.6230851777295
 20
319.0765544215931
 30
0.0
 40
6.000026999999999
100
AcDbArc
 50
184.205427
 51
270.0
  0
LINE
  5
3F5
330
19
100
AcDbEntity
  8
SEIHIN
  6
CONTINUOUS
 62
     3
100
AcDbLine
 10
814.2480851777294
 20
267.0766544215931
 30
0.0
 11
814.2481851777295
 21
307.0765544215932
 31
0.0
  0
LINE
  5
3F6
330
19
100
AcDbEntity
  8
CENTER_L
  6
CENTER
 62
     1
 48
5.0
100
AcDbLine
 10
862.0480851777294
 20
224.0341544215931
 30
0.0
 11
862.0480851777294
 21
619.396361303563
 31
0.0
  0
LINE
  5
3F7
330
19
100
AcDbEntity
  8
SEIHIN
  6
CONTINUOUS
 62
     3
100
AcDbLine
 10
816.8544851777294
 20
263.0766544215931
 30
0.0
 11
862.0480851777294
 21
263.0766544215931
 31
0.0
  0
LINE
  5
3F8
330
19
100
AcDbEntity
  8
SEIHIN
  6
CONTINUOUS
 62
     3
100
AcDbLine
 10
814.2480851777294
 20
267.0766544215931
 30
0.0
 11
862.0480851777294
 21
267.0766544215931
 31
0.0
  0
LINE
  5
3F9
330
19
100
AcDbEntity
  8
SEIHIN
  6
CONTINUOUS
 62
     3
100
AcDbLine
 10
824.7980851777295
 20
243.0765544215931
 30
0.0
 11
862.0480851777294
 21
243.0765544215931
 31
0.0
  0
LINE
  5
3FA
330
19
100
AcDbEntity
  8
SEIHIN
  6
CONTINUOUS
 62
     3
100
AcDbLine
 10
824.7980851777295
 20
243.0765544215931
 30
0.0
 11
824.7980851777295
 21
263.0766544215931
 31
0.0
  0
LINE
  5
3FB
330
19
100
AcDbEntity
  8
SEIHIN
  6
CONTINUOUS
 62
     3
100
AcDbLine
 10
814.9225851777293
 20
264.5589544215931
 30
0.0
 11
814.2480851777294
 21
267.0766544215931
 31
0.0
  0
ARC
  5
3FC
330
19
100
AcDbEntity
  8
SEIHIN
  6
CONTINUOUS
 62
     3
100
AcDbCircle
 10
816.8544851777294
 20
265.0766544215931
 30
0.0
 40
1.999983
100
AcDbArc
 50
195.0020959999999
 51
270.0
  0
ARC
  5
3FD
330
19
100
AcDbEntity
  8
SEIHIN
  6
CONTINUOUS
 62
     3
100
AcDbCircle
 10
808.9046851777293
 20
307.0765544215932
 30
0.0
 40
6.0
100
AcDbArc
 50
0.0
 51
90.0
  0
LINE
  5
3FE
330
19
100
AcDbEntity
  8
SEIHIN
  6
CONTINUOUS
 62
     3
100
AcDbLine
 10
909.8474851777295
 20
267.0766544215931
 30
0.0
 11
909.8474851777295
 21
307.0765544215932
 31
0.0
  0
LINE
  5
3FF
330
19
100
AcDbEntity
  8
SEIHIN
  6
CONTINUOUS
 62
     3
100
AcDbLine
 10
899.2984851777295
 20
243.0765544215931
 30
0.0
 11
899.2984851777295
 21
263.0766544215931
 31
0.0
  0
LINE
  5
400
330
19
100
AcDbEntity
  8
SEIHIN
  6
CONTINUOUS
 62
     3
100
AcDbLine
 10
909.1734851777296
 20
264.5589544215931
 30
0.0
 11
909.8474851777295
 21
267.0766544215931
 31
0.0
  0
ARC
  5
401
330
19
100
AcDbEntity
  8
SEIHIN
  6
CONTINUOUS
 62
     3
100
AcDbCircle
 10
907.2414851777294
 20
265.0766544215931
 30
0.0
 40
2.00008
100
AcDbArc
 50
270.0
 51
344.999387
  0
ARC
  5
402
330
19
100
AcDbEntity
  8
SEIHIN
  6
CONTINUOUS
 62
     3
100
AcDbCircle
 10
915.1914851777297
 20
307.0765544215932
 30
0.0
 40
6.0
100
AcDbArc
 50
90.0
 51
180.0
  0
ARC
  5
404
330
19
100
AcDbEntity
  8
SEIHIN
  6
CONTINUOUS
 62
     3
100
AcDbCircle
 10
971.1094851777293
 20
319.0765544215931
 30
0.0
 40
6.000161
100
AcDbArc
 50
270.0
 51
359.40701
  0
DIMENSION
  5
405
330
19
100
AcDbEntity
  8
SUNPOU
  6
CONTINUOUS
 62
     4
100
AcDbDimension
  2
*D4
 10
709.0478851777295
 20
648.732420465084
 30
0.0
 11
844.5481851777296
 21
658.732420465084
 31
0.0
 12
-173.9430268676596
 22
12.73342617310845
 32
0.0
 70
    32
  3
STANDARD
100
AcDbAlignedDimension
 13
980.0484851777296
 23
603.0764544215932
 33
0.0
 14
709.0478851777295
 24
603.0764544215932
 34
0.0
100
AcDbRotatedDimension
1001
ACAD
1000
DSTYLE
1002
{
1070
   140
1040
12.0
1070
    74
1070
     0
1070
    73
1070
     0
1070
   272
1070
     0
1070
    77
1070
     3
1070
   173
1070
     1
1070
   147
1040
4.0
1070
    42
1040
20.0
1070
    44
1040
8.0
1070
    43
1040
32.0
1070
   271
1070
     0
1070
   178
1070
     4
1070
   177
1070
     4
1070
   176
1070
     4
1070
   141
1040
12.0
1070
     7
1000
_OPEN
1070
     6
1000
_OPEN
1070
    41
1040
12.0
1002
}
  0
LINE
  5
406
330
19
100
AcDbEntity
  8
SEIHIN
  6
CONTINUOUS
 62
     3
100
AcDbLine
 10
709.0478851777295
 20
603.0764544215932
 30
0.0
 11
980.0484851777296
 21
603.0764544215932
 31
0.0
  0
LINE
  5
407
330
19
100
AcDbEntity
  8
SEIHIN
  6
CONTINUOUS
 62
     3
100
AcDbLine
 10
727.0480851777294
 20
588.0764544215931
 30
0.0
 11
980.0484851777296
 21
588.0764544215931
 31
0.0
  0
LINE
  5
408
330
19
100
AcDbEntity
  8
SEIHIN
  6
CONTINUOUS
 62
     3
100
AcDbLine
 10
727.0480851777294
 20
585.0764544215932
 30
0.0
 11
980.0484851777296
 21
585.0764544215932
 31
0.0
  0
LINE
  5
409
330
19
100
AcDbEntity
  8
SEIHIN
  6
CONTINUOUS
 62
     3
100
AcDbLine
 10
715.0478851777295
 20
585.0764544215932
 30
0.0
 11
727.0480851777294
 21
585.0764544215932
 31
0.0
  0
ARC
  5
40A
330
19
100
AcDbEntity
  8
SEIHIN
  6
CONTINUOUS
 62
     3
100
AcDbCircle
 10
724.0479851777295
 20
596.0764544215932
 30
0.0
 40
3.0
100
AcDbArc
 50
0.0
 51
90.0
  0
LINE
  5
40B
330
19
100
AcDbEntity
  8
SEIHIN
  6
CONTINUOUS
 62
     3
100
AcDbLine
 10
710.0479851777294
 20
588.0764544215931
 30
0.0
 11
721.0480851777295
 21
588.0764544215931
 31
0.0
  0
LINE
  5
40C
330
19
100
AcDbEntity
  8
SEIHIN
  6
CONTINUOUS
 62
     3
100
AcDbLine
 10
721.0479851777295
 20
585.0764544215932
 30
0.0
 11
721.0479851777295
 21
596.0764544215932
 31
0.0
  0
LINE
  5
40D
330
19
100
AcDbEntity
  8
SEIHIN
  6
CONTINUOUS
 62
     3
100
AcDbLine
 10
709.0478851777295
 20
603.0764544215932
 30
0.0
 11
710.0479851777294
 21
588.0764544215931
 31
0.0
  0
LINE
  5
40E
330
19
100
AcDbEntity
  8
SEIHIN
  6
CONTINUOUS
 62
     3
100
AcDbLine
 10
710.0479851777294
 20
588.0764544215931
 30
0.0
 11
715.0478851777295
 21
585.0764544215932
 31
0.0
  0
ARC
  5
40F
330
19
100
AcDbEntity
  8
SEIHIN
  6
CONTINUOUS
 62
     3
100
AcDbCircle
 10
724.0479851777295
 20
596.0764544215932
 30
0.0
 40
3.0
100
AcDbArc
 50
90.0
 51
180.0
  0
LINE
  5
410
330
19
100
AcDbEntity
  8
SEIHIN
  6
CONTINUOUS
 62
     3
100
AcDbLine
 10
727.0479851777295
 20
585.0764544215932
 30
0.0
 11
727.0479851777295
 21
596.0764544215932
 31
0.0
  0
LINE
  5
411
330
19
100
AcDbEntity
  8
CENTER_L
  6
CENTER
 62
     1
 48
5.0
100
AcDbLine
 10
994.643027899686
 20
578.0764544215932
 30
0.0
 11
959.3907356124674
 21
578.0764544215932
 31
0.0
  0
DIMENSION
  5
606
330
19
100
AcDbEntity
  8
SUNPOU
  6
CONTINUOUS
 62
     4
100
AcDbDimension
  2
*D5
 10
862.0480851777294
 20
149.5358400035565
 30
0.0
 11
919.5480674328356
 21
159.5358400035565
 31
0.0
 12
-6.877624525634928
 22
18.32515561590116
 32
0.0
 70
    32
  3
STANDARD
100
AcDbAlignedDimension
 13
977.0480496879418
 23
313.0765544215932
 33
0.0
 14
862.0480851777294
 24
224.0341544215931
 34
0.0
100
AcDbRotatedDimension
1001
ACAD
1000
DSTYLE
1002
{
1070
   140
1040
12.0
1070
    74
1070
     0
1070
   172
1070
     1
1070
    73
1070
     0
1070
   272
1070
     2
1070
    77
1070
     3
1070
   173
1070
     1
1070
   147
1040
4.0
1070
    42
1040
12.0
1070
    44
1040
6.0
1070
    43
1040
28.0
1070
   271
1070
     0
1070
   178
1070
     4
1070
   177
1070
     4
1070
   176
1070
     4
1070
   141
1040
150.0
1070
     7
1000
_OPEN
1070
     6
1000
_OPEN
1070
    41
1040
14.0
1070
   143
1040
0.03937
1002
}
  0
LINE
  5
61D
330
19
100
AcDbEntity
  8
CENTER_L
  6
CENTER
 62
     1
 48
5.0
100
AcDbLine
 10
1300.829485177729
 20
228.5067544215931
 30
0.0
 11
1300.829485177729
 21
618.4483544215932
 31
0.0
  0
LINE
  5
620
330
19
100
AcDbEntity
  8
SEIHIN
  6
CONTINUOUS
 62
     3
100
AcDbLine
 10
1190.031685177729
 20
318.1432544215931
 30
0.0
 11
1170.830585177729
 21
585.0764544215932
 31
0.0
  0
LINE
  5
621
330
19
100
AcDbEntity
  8
SEIHIN
  6
CONTINUOUS
 62
     3
100
AcDbLine
 10
1300.829485177729
 20
603.0764544215932
 30
0.0
 11
1164.829885177729
 21
603.0764544215932
 31
0.0
  0
LINE
  5
625
330
19
100
AcDbEntity
  8
SEIHIN
  6
CONTINUOUS
 62
     3
100
AcDbLine
 10
1165.829985177729
 20
588.0764544215931
 30
0.0
 11
1164.829885177729
 21
603.0764544215932
 31
0.0
  0
LINE
  5
626
330
19
100
AcDbEntity
  8
SEIHIN
  6
CONTINUOUS
 62
     3
100
AcDbLine
 10
1170.830585177729
 20
585.0764544215932
 30
0.0
 11
1165.829985177729
 21
588.0764544215931
 31
0.0
  0
LINE
  5
62A
330
19
100
AcDbEntity
  8
SEIHIN
  6
CONTINUOUS
 62
     3
100
AcDbLine
 10
1411.627385177729
 20
318.1432544215931
 30
0.0
 11
1430.828485177729
 21
585.0764544215932
 31
0.0
  0
LINE
  5
62C
330
19
100
AcDbEntity
  8
SEIHIN
  6
CONTINUOUS
 62
     3
100
AcDbLine
 10
1338.079585177729
 20
243.0765544215931
 30
0.0
 11
1300.829385177729
 21
243.0765544215931
 31
0.0
  0
LINE
  5
62D
330
19
100
AcDbEntity
  8
SEIHIN
  6
CONTINUOUS
 62
     3
100
AcDbLine
 10
1346.023085177729
 20
263.0766544215931
 30
0.0
 11
1300.829485177729
 21
263.0766544215931
 31
0.0
  0
LINE
  5
62E
330
19
100
AcDbEntity
  8
SEIHIN
  6
CONTINUOUS
 62
     3
100
AcDbLine
 10
1348.629485177729
 20
267.0766544215931
 30
0.0
 11
1300.829485177729
 21
267.0766544215931
 31
0.0
  0
LINE
  5
62F
330
19
100
AcDbEntity
  8
SEIHIN
  6
CONTINUOUS
 62
     3
100
AcDbLine
 10
1405.700485177729
 20
313.0765544215932
 30
0.0
 11
1300.829485177729
 21
313.0765544215932
 31
0.0
  0
ARC
  5
630
330
19
100
AcDbEntity
  8
SEIHIN
  6
CONTINUOUS
 62
     3
100
AcDbCircle
 10
1247.686185177729
 20
307.0765544215932
 30
0.0
 40
6.0
100
AcDbArc
 50
0.0
 51
90.0
  0
ARC
  5
631
330
19
100
AcDbEntity
  8
SEIHIN
  6
CONTINUOUS
 62
     3
100
AcDbCircle
 10
1255.635985177729
 20
265.0766544215931
 30
0.0
 40
1.999983
100
AcDbArc
 50
195.0020959999999
 51
270.0
  0
LINE
  5
632
330
19
100
AcDbEntity
  8
SEIHIN
  6
CONTINUOUS
 62
     3
100
AcDbLine
 10
1253.029585177729
 20
267.0766544215931
 30
0.0
 11
1300.829485177729
 21
267.0766544215931
 31
0.0
  0
LINE
  5
633
330
19
100
AcDbEntity
  8
SEIHIN
  6
CONTINUOUS
 62
     3
100
AcDbLine
 10
1195.958585177729
 20
313.0765544215932
 30
0.0
 11
1300.829485177729
 21
313.0765544215932
 31
0.0
  0
LINE
  5
634
330
19
100
AcDbEntity
  8
SEIHIN
  6
CONTINUOUS
 62
     3
100
AcDbLine
 10
1253.029585177729
 20
267.0766544215931
 30
0.0
 11
1253.029685177729
 21
307.0765544215932
 31
0.0
  0
LINE
  5
635
330
19
100
AcDbEntity
  8
SEIHIN
  6
CONTINUOUS
 62
     3
100
AcDbLine
 10
1253.704085177729
 20
264.5589544215931
 30
0.0
 11
1253.029585177729
 21
267.0766544215931
 31
0.0
  0
ARC
  5
637
330
19
100
AcDbEntity
  8
SEIHIN
  6
CONTINUOUS
 62
     3
100
AcDbCircle
 10
1195.958585177729
 20
319.0765544215931
 30
0.0
 40
5.999966
100
AcDbArc
 50
188.9487969999999
 51
270.0
  0
LINE
  5
638
330
19
100
AcDbEntity
  8
SEIHIN
  6
CONTINUOUS
 62
     3
100
AcDbLine
 10
1255.635985177729
 20
263.0766544215931
 30
0.0
 11
1300.829485177729
 21
263.0766544215931
 31
0.0
  0
LINE
  5
639
330
19
100
AcDbEntity
  8
SEIHIN
  6
CONTINUOUS
 62
     3
100
AcDbLine
 10
1263.579585177729
 20
243.0765544215931
 30
0.0
 11
1300.829485177729
 21
243.0765544215931
 31
0.0
  0
LINE
  5
63A
330
19
100
AcDbEntity
  8
SEIHIN
  6
CONTINUOUS
 62
     3
100
AcDbLine
 10
1263.579585177729
 20
243.0765544215931
 30
0.0
 11
1263.579585177729
 21
263.0766544215931
 31
0.0
  0
LINE
  5
63B
330
19
100
AcDbEntity
  8
SEIHIN
  6
CONTINUOUS
 62
     3
100
AcDbLine
 10
1348.629485177729
 20
267.0766544215931
 30
0.0
 11
1348.629385177729
 21
307.0765544215932
 31
0.0
  0
ARC
  5
63C
330
19
100
AcDbEntity
  8
SEIHIN
  6
CONTINUOUS
 62
     3
100
AcDbCircle
 10
1346.023085177729
 20
265.0766544215931
 30
0.0
 40
1.999983
100
AcDbArc
 50
270.0
 51
344.997904
  0
LINE
  5
63D
330
19
100
AcDbEntity
  8
SEIHIN
  6
CONTINUOUS
 62
     3
100
AcDbLine
 10
1338.079585177729
 20
243.0765544215931
 30
0.0
 11
1338.079585177729
 21
263.0766544215931
 31
0.0
  0
LINE
  5
63E
330
19
100
AcDbEntity
  8
SEIHIN
  6
CONTINUOUS
 62
     3
100
AcDbLine
 10
1347.954985177729
 20
264.5589544215931
 30
0.0
 11
1348.629485177729
 21
267.0766544215931
 31
0.0
  0
ARC
  5
63F
330
19
100
AcDbEntity
  8
SEIHIN
  6
CONTINUOUS
 62
     3
100
AcDbCircle
 10
1353.972885177729
 20
307.0765544215932
 30
0.0
 40
6.0
100
AcDbArc
 50
90.0
 51
180.0
  0
ARC
  5
641
330
19
100
AcDbEntity
  8
SEIHIN
  6
CONTINUOUS
 62
     3
100
AcDbCircle
 10
1405.700485177729
 20
319.0765544215931
 30
0.0
 40
5.999973999999999
100
AcDbArc
 50
270.0
 51
351.05026
  0
LINE
  5
642
330
19
100
AcDbEntity
  8
SEIHIN
  6
CONTINUOUS
 62
     3
100
AcDbLine
 10
1300.829485177729
 20
603.0764544215932
 30
0.0
 11
1436.829185177729
 21
603.0764544215932
 31
0.0
  0
LINE
  5
647
330
19
100
AcDbEntity
  8
CENTER_L
  6
CENTER
 62
     1
 48
5.0
100
AcDbLine
 10
1200.829485177729
 20
566.4892544215931
 30
0.0
 11
1200.829485177729
 21
589.6199544215932
 31
0.0
  0
LINE
  5
648
330
19
100
AcDbEntity
  8
SEIHIN
  6
CONTINUOUS
 62
     3
100
AcDbLine
 10
1204.329485177729
 20
574.5764544215932
 30
0.0
 11
1205.329485177729
 21
574.5764544215932
 31
0.0
  0
LINE
  5
649
330
19
100
AcDbEntity
  8
SEIHIN
  6
CONTINUOUS
 62
     3
100
AcDbLine
 10
1204.329485177729
 20
581.5764544215932
 30
0.0
 11
1205.329485177729
 21
581.5764544215932
 31
0.0
  0
LINE
  5
64A
330
19
100
AcDbEntity
  8
CENTER_L
  6
CENTER
 62
     1
 48
5.0
100
AcDbLine
 10
1189.230085177729
 20
578.0764544215932
 30
0.0
 11
1213.092585177729
 21
578.0764544215932
 31
0.0
  0
LINE
  5
64D
330
19
100
AcDbEntity
  8
SEIHIN
  6
CONTINUOUS
 62
     3
100
AcDbLine
 10
1197.329485177729
 20
574.5764544215932
 30
0.0
 11
1197.329485177729
 21
573.5764544215932
 31
0.0
  0
LINE
  5
64E
330
19
100
AcDbEntity
  8
SEIHIN
  6
CONTINUOUS
 62
     3
100
AcDbLine
 10
1204.329485177729
 20
574.5764544215932
 30
0.0
 11
1204.329485177729
 21
573.5764544215932
 31
0.0
  0
LINE
  5
64F
330
19
100
AcDbEntity
  8
SEIHIN
  6
CONTINUOUS
 62
     3
100
AcDbLine
 10
1197.329485177729
 20
574.5764544215932
 30
0.0
 11
1196.329485177729
 21
574.5764544215932
 31
0.0
  0
ARC
  5
650
330
19
100
AcDbEntity
  8
SEIHIN
  6
CONTINUOUS
 62
     3
100
AcDbCircle
 10
1200.829485177729
 20
573.5764544215932
 30
0.0
 40
3.5
100
AcDbArc
 50
180.0
 51
0.0
  0
LINE
  5
651
330
19
100
AcDbEntity
  8
SEIHIN
  6
CONTINUOUS
 62
     3
100
AcDbLine
 10
1197.329485177729
 20
581.5764544215932
 30
0.0
 11
1196.329485177729
 21
581.5764544215932
 31
0.0
  0
LINE
  5
652
330
19
100
AcDbEntity
  8
SEIHIN
  6
CONTINUOUS
 62
     3
100
AcDbLine
 10
1197.329485177729
 20
581.5764544215932
 30
0.0
 11
1197.329485177729
 21
582.5764544215932
 31
0.0
  0
LINE
  5
653
330
19
100
AcDbEntity
  8
SEIHIN
  6
CONTINUOUS
 62
     3
100
AcDbLine
 10
1204.329485177729
 20
581.5764544215932
 30
0.0
 11
1204.329485177729
 21
582.5764544215932
 31
0.0
  0
ARC
  5
654
330
19
100
AcDbEntity
  8
SEIHIN
  6
CONTINUOUS
 62
     3
100
AcDbCircle
 10
1196.329485177729
 20
578.0764544215932
 30
0.0
 40
3.5
100
AcDbArc
 50
90.0
 51
270.0
  0
ARC
  5
655
330
19
100
AcDbEntity
  8
SEIHIN
  6
CONTINUOUS
 62
     3
100
AcDbCircle
 10
1200.829485177729
 20
582.5764544215932
 30
0.0
 40
3.5
100
AcDbArc
 50
0.0
 51
180.0
  0
ARC
  5
656
330
19
100
AcDbEntity
  8
SEIHIN
  6
CONTINUOUS
 62
     3
100
AcDbCircle
 10
1205.329485177729
 20
578.0764544215932
 30
0.0
 40
3.5
100
AcDbArc
 50
270.0
 51
90.0
  0
LINE
  5
65A
330
19
100
AcDbEntity
  8
CENTER_L
  6
CENTER
 62
     1
 48
5.0
100
AcDbLine
 10
1400.829485177729
 20
566.4892544215931
 30
0.0
 11
1400.829485177729
 21
589.6199544215932
 31
0.0
  0
ARC
  5
65C
330
19
100
AcDbEntity
  8
SEIHIN
  6
CONTINUOUS
 62
     3
100
AcDbCircle
 10
1400.829485177729
 20
573.5764544215932
 30
0.0
 40
3.5
100
AcDbArc
 50
180.0
 51
0.0
  0
ARC
  5
65D
330
19
100
AcDbEntity
  8
SEIHIN
  6
CONTINUOUS
 62
     3
100
AcDbCircle
 10
1400.829485177729
 20
582.5764544215932
 30
0.0
 40
3.5
100
AcDbArc
 50
0.0
 51
180.0
  0
LINE
  5
65E
330
19
100
AcDbEntity
  8
CENTER_L
  6
CENTER
 62
     1
 48
5.0
100
AcDbLine
 10
1389.230085177729
 20
578.0764544215932
 30
0.0
 11
1413.092585177729
 21
578.0764544215932
 31
0.0
  0
ARC
  5
65F
330
19
100
AcDbEntity
  8
SEIHIN
  6
CONTINUOUS
 62
     3
100
AcDbCircle
 10
1396.329485177729
 20
578.0764544215932
 30
0.0
 40
3.5
100
AcDbArc
 50
90.0
 51
270.0
  0
LINE
  5
660
330
19
100
AcDbEntity
  8
SEIHIN
  6
CONTINUOUS
 62
     3
100
AcDbLine
 10
1397.329485177729
 20
574.5764544215932
 30
0.0
 11
1397.329485177729
 21
573.5764544215932
 31
0.0
  0
LINE
  5
661
330
19
100
AcDbEntity
  8
SEIHIN
  6
CONTINUOUS
 62
     3
100
AcDbLine
 10
1397.329485177729
 20
574.5764544215932
 30
0.0
 11
1396.329485177729
 21
574.5764544215932
 31
0.0
  0
LINE
  5
662
330
19
100
AcDbEntity
  8
SEIHIN
  6
CONTINUOUS
 62
     3
100
AcDbLine
 10
1397.329485177729
 20
581.5764544215932
 30
0.0
 11
1396.329485177729
 21
581.5764544215932
 31
0.0
  0
LINE
  5
663
330
19
100
AcDbEntity
  8
SEIHIN
  6
CONTINUOUS
 62
     3
100
AcDbLine
 10
1397.329485177729
 20
581.5764544215932
 30
0.0
 11
1397.329485177729
 21
582.5764544215932
 31
0.0
  0
LINE
  5
665
330
19
100
AcDbEntity
  8
SEIHIN
  6
CONTINUOUS
 62
     3
100
AcDbLine
 10
1404.329485177729
 20
574.5764544215932
 30
0.0
 11
1404.329485177729
 21
573.5764544215932
 31
0.0
  0
LINE
  5
666
330
19
100
AcDbEntity
  8
SEIHIN
  6
CONTINUOUS
 62
     3
100
AcDbLine
 10
1404.329485177729
 20
574.5764544215932
 30
0.0
 11
1405.329485177729
 21
574.5764544215932
 31
0.0
  0
LINE
  5
667
330
19
100
AcDbEntity
  8
SEIHIN
  6
CONTINUOUS
 62
     3
100
AcDbLine
 10
1404.329485177729
 20
581.5764544215932
 30
0.0
 11
1404.329485177729
 21
582.5764544215932
 31
0.0
  0
LINE
  5
668
330
19
100
AcDbEntity
  8
SEIHIN
  6
CONTINUOUS
 62
     3
100
AcDbLine
 10
1404.329485177729
 20
581.5764544215932
 30
0.0
 11
1405.329485177729
 21
581.5764544215932
 31
0.0
  0
ARC
  5
669
330
19
100
AcDbEntity
  8
SEIHIN
  6
CONTINUOUS
 62
     3
100
AcDbCircle
 10
1405.329485177729
 20
578.0764544215932
 30
0.0
 40
3.5
100
AcDbArc
 50
270.0
 51
90.0
  0
LINE
  5
66E
330
19
100
AcDbEntity
  8
SEIHIN
  6
CONTINUOUS
 62
     3
100
AcDbLine
 10
1435.829085177729
 20
588.0764544215931
 30
0.0
 11
1436.829185177729
 21
603.0764544215932
 31
0.0
  0
LINE
  5
66F
330
19
100
AcDbEntity
  8
SEIHIN
  6
CONTINUOUS
 62
     3
100
AcDbLine
 10
1430.828485177729
 20
585.0764544215932
 30
0.0
 11
1435.829085177729
 21
588.0764544215931
 31
0.0
  0
DIMENSION
  5
67E
330
19
100
AcDbEntity
  8
SUNPOU
  6
CONTINUOUS
 62
     4
100
AcDbDimension
  2
*D6
 10
1197.329485177729
 20
622.3271133243806
 30
0.0
 11
1240.329485177729
 21
632.3271133243807
 31
0.0
 12
13.12237547436507
 22
18.32515561590116
 32
0.0
 70
    32
  3
STANDARD
100
AcDbAlignedDimension
 13
1204.329485177729
 23
582.5764544215932
 33
0.0
 14
1197.329485177729
 24
582.5764544215932
 34
0.0
100
AcDbRotatedDimension
1001
ACAD
1000
DSTYLE
1002
{
1070
   140
1040
12.0
1070
    74
1070
     0
1070
   172
1070
     1
1070
    73
1070
     0
1070
   272
1070
     2
1070
    77
1070
     3
1070
   173
1070
     1
1070
   280
1070
     1
1070
   147
1040
4.0
1070
    42
1040
12.0
1070
    44
1040
6.0
1070
    43
1040
28.0
1070
   271
1070
     0
1070
   178
1070
     4
1070
   177
1070
     4
1070
   176
1070
     4
1070
   141
1040
150.0
1070
     7
1000
_OPEN
1070
     6
1000
_OPEN
1070
    41
1040
14.0
1070
   143
1040
0.03937
1002
}
  0
LINE
  5
699
330
19
100
AcDbEntity
  8
CENTER_L
  6
CENTER
 62
     1
 48
5.0
100
AcDbLine
 10
994.6430278996858
 20
989.0525515428066
 30
0.0
 11
959.3907356124672
 21
989.0525515428068
 31
0.0
  0
LINE
  5
69A
330
19
100
AcDbEntity
  8
CENTER_L
  6
CENTER
 62
     1
 48
5.0
100
AcDbLine
 10
994.6430278996858
 20
789.0525515428069
 30
0.0
 11
959.3907356124672
 21
789.052551542807
 31
0.0
  0
LINE
  5
6AE
330
19
100
AcDbEntity
  8
SEIHIN
  6
CONTINUOUS
 62
     3
100
AcDbLine
 10
944.9223291836156
 20
591.0764544215932
 30
0.0
 11
945.0154461792012
 21
600.0764544215932
 31
0.0
  0
DIMENSION
  5
6BC
330
19
100
AcDbEntity
  8
SUNPOU
  6
CONTINUOUS
100
AcDbDimension
  2
*D7
 10
1037.297866973272
 20
753.0528728537706
 30
0.0
 11
1027.297866973272
 21
889.0525728537706
 31
0.0
 12
-6.877624525634928
 22
3.325155615901167
 32
0.0
 70
    32
  3
STANDARD
100
AcDbAlignedDimension
 13
975.9622666172351
 23
1025.05227285377
 33
0.0
 14
975.9612666172351
 24
753.0528728537706
 34
0.0
 50
90.0
100
AcDbRotatedDimension
1001
ACAD
1000
DSTYLE
1002
{
1070
   140
1040
12.0
1070
    74
1070
     0
1070
   172
1070
     1
1070
    73
1070
     0
1070
   272
1070
     2
1070
    77
1070
     3
1070
   173
1070
     1
1070
   147
1040
4.0
1070
    42
1040
12.0
1070
    44
1040
6.0
1070
    43
1040
28.0
1070
   271
1070
     0
1070
   178
1070
     4
1070
   177
1070
     4
1070
   176
1070
     4
1070
   141
1040
150.0
1070
     7
1000
_OPEN
1070
     6
1000
_OPEN
1070
    41
1040
14.0
1070
   143
1040
0.03937
1002
}
  0
DIMENSION
  5
6C9
330
19
100
AcDbEntity
  8
SUNPOU
  6
CONTINUOUS
100
AcDbDimension
  2
*D8
 10
668.5482769127402
 20
313.0765544215932
 30
0.0
 11
658.5482769127402
 21
458.0765044215931
 31
0.0
 12
-6.877624525634928
 22
18.32515561590116
 32
0.0
 70
    32
  3
STANDARD
100
AcDbAlignedDimension
 13
709.0478851777295
 23
603.0764544215932
 33
0.0
 14
740.6230851777295
 24
313.0765544215932
 34
0.0
 50
90.0
100
AcDbRotatedDimension
1001
ACAD
1000
DSTYLE
1002
{
1070
   140
1040
12.0
1070
    74
1070
     0
1070
   172
1070
     1
1070
    73
1070
     0
1070
   272
1070
     2
1070
    77
1070
     3
1070
   173
1070
     1
1070
   147
1040
4.0
1070
    42
1040
12.0
1070
    44
1040
6.0
1070
    43
1040
28.0
1070
   271
1070
     0
1070
   178
1070
     4
1070
   177
1070
     4
1070
   176
1070
     4
1070
   141
1040
150.0
1070
     7
1000
_OPEN
1070
     6
1000
_OPEN
1070
    41
1040
14.0
1070
   143
1040
0.03937
1002
}
  0
DIMENSION
  5
6D7
330
19
100
AcDbEntity
  8
SUNPOU
  6
CONTINUOUS
100
AcDbDimension
  2
*D9
 10
668.5482769127402
 20
263.0766544215931
 30
0.0
 11
658.5482769127402
 21
288.0766044215931
 31
0.0
 12
-6.877624525634928
 22
18.32515561590116
 32
0.0
 70
    32
  3
STANDARD
100
AcDbAlignedDimension
 13
740.6230851777295
 23
313.0765544215932
 33
0.0
 14
816.8544851777294
 24
263.0766544215931
 34
0.0
 50
90.0
100
AcDbRotatedDimension
1001
ACAD
1000
DSTYLE
1002
{
1070
   140
1040
12.0
1070
    74
1070
     0
1070
   172
1070
     1
1070
    73
1070
     0
1070
   272
1070
     2
1070
    77
1070
     3
1070
    75
1070
     1
1070
   173
1070
     1
1070
   147
1040
4.0
1070
    42
1040
12.0
1070
    44
1040
6.0
1070
    43
1040
28.0
1070
   271
1070
     0
1070
   178
1070
     4
1070
   177
1070
     4
1070
   176
1070
     4
1070
   141
1040
150.0
1070
     7
1000
_OPEN
1070
     6
1000
_OPEN
1070
    41
1040
14.0
1070
   143
1040
0.03937
1002
}
  0
DIMENSION
  5
6E4
330
19
100
AcDbEntity
  8
SUNPOU
  6
CONTINUOUS
100
AcDbDimension
  2
*D10
 10
627.6815158172285
 20
243.0765544215931
 30
0.0
 11
617.6815158172285
 21
423.0765044215932
 31
0.0
 12
-6.877624525634928
 22
18.32515561590116
 32
0.0
 70
    32
  3
STANDARD
100
AcDbAlignedDimension
 13
709.0478851777295
 23
603.0764544215932
 33
0.0
 14
824.7980851777295
 24
243.0765544215931
 34
0.0
 50
90.0
100
AcDbRotatedDimension
1001
ACAD
1000
DSTYLE
1002
{
1070
   140
1040
12.0
1070
    74
1070
     0
1070
   172
1070
     1
1070
    73
1070
     0
1070
   272
1070
     2
1070
    77
1070
     3
1070
   173
1070
     1
1070
   147
1040
4.0
1070
    42
1040
12.0
1070
    44
1040
6.0
1070
    43
1040
28.0
1070
   271
1070
     0
1070
   178
1070
     4
1070
   177
1070
     4
1070
   176
1070
     4
1070
   141
1040
150.0
1070
     7
1000
_OPEN
1070
     6
1000
_OPEN
1070
    41
1040
14.0
1070
   143
1040
0.03937
1002
}
  0
DIMENSION
  5
720
330
19
100
AcDbEntity
  8
SUNPOU
  6
CONTINUOUS
100
AcDbDimension
  2
*D11
 10
814.2480851777294
 20
191.2795960120934
 30
0.0
 11
935.0474851777295
 21
191.2795960120934
 31
0.0
 12
-6.877624525634928
 22
18.32515561590116
 32
0.0
 70
   160
  1
φ<>
  3
STANDARD
100
AcDbAlignedDimension
 13
909.8474851777295
 23
267.0766544215931
 33
0.0
 14
814.2480851777294
 24
267.0766544215931
 34
0.0
100
AcDbRotatedDimension
1001
ACAD
1000
DSTYLE
1002
{
1070
   288
1070
     1
1070
   140
1040
12.0
1070
    74
1070
     0
1070
   172
1070
     1
1070
    73
1070
     0
1070
   272
1070
     2
1070
    77
1070
     3
1070
   173
1070
     1
1070
   147
1040
4.0
1070
    42
1040
12.0
1070
    44
1040
6.0
1070
    43
1040
28.0
1070
   271
1070
     0
1070
   178
1070
     4
1070
   177
1070
     4
1070
   176
1070
     4
1070
   141
1040
150.0
1070
     7
1000
_OPEN
1070
     6
1000
_OPEN
1070
    41
1040
14.0
1070
   143
1040
0.03937
1002
}
  0
DIMENSION
  5
76B
330
19
100
AcDbEntity
  8
SUNPOU
  6
CONTINUOUS
100
AcDbDimension
  2
*D12
 10
1135.016499811521
 20
570.0764544215932
 30
0.0
 11
1125.016499811521
 21
530.0764544215931
 31
0.0
 12
13.12237547436507
 22
18.32515561590116
 32
0.0
 70
    32
  3
STANDARD
100
AcDbAlignedDimension
 13
1200.829485177729
 23
586.0764544215932
 33
0.0
 14
1200.829485177729
 24
570.0764544215932
 34
0.0
 50
90.0
100
AcDbRotatedDimension
1001
ACAD
1000
DSTYLE
1002
{
1070
   140
1040
12.0
1070
    74
1070
     0
1070
   172
1070
     1
1070
    73
1070
     0
1070
   272
1070
     2
1070
    77
1070
     3
1070
   173
1070
     1
1070
   147
1040
4.0
1070
    42
1040
12.0
1070
    44
1040
6.0
1070
    43
1040
28.0
1070
   271
1070
     0
1070
   178
1070
     4
1070
   177
1070
     4
1070
   176
1070
     4
1070
   141
1040
150.0
1070
     7
1000
_OPEN
1070
     6
1000
_OPEN
1070
    41
1040
14.0
1070
   143
1040
0.03937
1002
}
  0
DIMENSION
  5
77A
330
19
100
AcDbEntity
  8
SUNPOU
  6
CONTINUOUS
100
AcDbDimension
  2
*D13
 10
1094.119187481696
 20
578.0764544215932
 30
0.0
 11
1084.119187481696
 21
536.0764544215932
 31
0.0
 12
13.12237547436507
 22
18.32515561590116
 32
0.0
 70
    32
  3
STANDARD
100
AcDbAlignedDimension
 13
1164.829885177729
 23
603.0764544215932
 33
0.0
 14
1189.230085177729
 24
578.0764544215932
 34
0.0
 50
90.0
100
AcDbRotatedDimension
1001
ACAD
1000
DSTYLE
1002
{
1070
   140
1040
12.0
1070
    74
1070
     0
1070
   172
1070
     1
1070
    73
1070
     0
1070
   272
1070
     2
1070
    77
1070
     3
1070
   173
1070
     1
1070
   147
1040
4.0
1070
    42
1040
12.0
1070
    44
1040
6.0
1070
    43
1040
28.0
1070
   271
1070
     0
1070
   178
1070
     4
1070
   177
1070
     4
1070
   176
1070
     4
1070
   141
1040
150.0
1070
     7
1000
_OPEN
1070
     6
1000
_OPEN
1070
    41
1040
14.0
1070
   143
1040
0.03937
1002
}
  0
DIMENSION
  5
787
330
19
100
AcDbEntity
  8
SUNPOU
  6
CONTINUOUS
100
AcDbDimension
  2
*D14
 10
1200.829485177729
 20
648.2403297856513
 30
0.0
 11
1300.829485177729
 21
658.2403297856513
 31
0.0
 12
13.12237547436507
 22
18.32515561590116
 32
0.0
 70
    32
  3
STANDARD
100
AcDbAlignedDimension
 13
1400.829485177729
 23
589.6199544215932
 33
0.0
 14
1200.829485177729
 24
589.6199544215932
 34
0.0
100
AcDbRotatedDimension
1001
ACAD
1000
DSTYLE
1002
{
1070
   140
1040
12.0
1070
    74
1070
     0
1070
   172
1070
     1
1070
    73
1070
     0
1070
   272
1070
     2
1070
    77
1070
     3
1070
   173
1070
     1
1070
   147
1040
4.0
1070
    42
1040
12.0
1070
    44
1040
6.0
1070
    43
1040
28.0
1070
   271
1070
     0
1070
   178
1070
     4
1070
   177
1070
     4
1070
   176
1070
     4
1070
   141
1040
150.0
1070
     7
1000
_OPEN
1070
     6
1000
_OPEN
1070
    41
1040
14.0
1070
   143
1040
0.03937
1002
}
  0
DIMENSION
  5
794
330
19
100
AcDbEntity
  8
SUNPOU
  6
CONTINUOUS
100
AcDbDimension
  2
*D15
 10
1164.829885177729
 20
683.5544366117633
 30
0.0
 11
1300.829535177729
 21
693.5544366117633
 31
0.0
 12
13.12237547436507
 22
18.32515561590116
 32
0.0
 70
    32
  3
STANDARD
100
AcDbAlignedDimension
 13
1436.829185177729
 23
603.0764544215932
 33
0.0
 14
1164.829885177729
 24
603.0764544215932
 34
0.0
100
AcDbRotatedDimension
1001
ACAD
1000
DSTYLE
1002
{
1070
   140
1040
12.0
1070
    74
1070
     0
1070
   172
1070
     1
1070
    73
1070
     0
1070
   272
1070
     2
1070
    77
1070
     3
1070
   173
1070
     1
1070
   147
1040
4.0
1070
    42
1040
12.0
1070
    44
1040
6.0
1070
    43
1040
28.0
1070
   271
1070
     0
1070
   178
1070
     4
1070
   177
1070
     4
1070
   176
1070
     4
1070
   141
1040
150.0
1070
     7
1000
_OPEN
1070
     6
1000
_OPEN
1070
    41
1040
14.0
1070
   143
1040
0.03937
1002
}
  0
VIEWPORT
  5
22
330
16
100
AcDbEntity
 67
     1
  8
0
100
AcDbViewport
 10
313.6808219178082
 20
148.5
 30
0.0
 40
627.3616438356165
 41
297.0
 68
     2
 69
     1
1001
ACAD
1000
MVIEW
1002
{
1070
    16
1010
0.0
1020
0.0
1030
0.0
1010
0.0
1020
0.0
1030
1.0
1040
0.0
1040
297.0
1040
313.6808219178082
1040
148.5
1040
50.0
1040
0.0
1040
0.0
1070
     0
1070
   100
1070
     1
1070
     0
1070
     0
1070
     0
1070
     0
1070
     0
1040
0.0
1040
0.0
1040
0.0
1040
10.0
1040
10.0
1040
10.0
1040
10.0
1070
     0
1002
{
1002
}
1002
}
  0
VIEWPORT
  5
25
330
16
100
AcDbEntity
 67
     1
  8
VIEWPORT
100
AcDbViewport
 10
210.0
 20
148.5
 30
0.0
 40
420.0
 41
297.0
 68
     1
 69
     2
1001
ACAD
1000
MVIEW
1002
{
1070
    16
1010
0.0
1020
0.0
1030
0.0
1010
0.0
1020
0.0
1030
1.0
1040
0.0
1040
1212.607689320388
1040
841.0
1040
594.0
1040
50.0
1040
0.0
1040
0.0
1070
     0
1070
   100
1070
     1
1070
     0
1070
     0
1070
     0
1070
     0
1070
     0
1040
0.0
1040
0.0
1040
0.0
1040
57.0
1040
57.0
1040
57.0
1040
57.0
1070
     0
1002
{
1002
}
1002
}
  0
ENDSEC
  0
SECTION
  2
OBJECTS
  0
DICTIONARY
  5
C
330
0
100
AcDbDictionary
  3
ACAD_GROUP
350
D
  3
ACAD_LAYOUT
350
7B4
  3
ACAD_MLINESTYLE
350
E
  3
ACAD_PLOTSETTINGS
350
7B5
1001
ACAD
1000
TREAT_AS_HARD
1070
     0
  0
DICTIONARY
  5
7E1
330
19
100
AcDbDictionary
  3
ACAD_LAYOUTSELFREF
350
825
1001
ACAD
1000
TREAT_AS_HARD
1070
     1
  0
DICTIONARY
  5
7DF
330
16
100
AcDbDictionary
  3
ACAD_LAYOUTSELFREF
350
824
1001
ACAD
1000
TREAT_AS_HARD
1070
     1
  0
DICTIONARY
  5
D
102
{ACAD_REACTORS
330
C
102
}
330
C
100
AcDbDictionary
1001
ACAD
1000
TREAT_AS_HARD
1070
     0
  0
DICTIONARY
  5
7B4
102
{ACAD_REACTORS
330
C
102
}
330
C
100
AcDbDictionary
1001
ACAD
1000
TREAT_AS_HARD
1070
     0
  0
DICTIONARY
  5
E
102
{ACAD_REACTORS
330
C
102
}
330
C
100
AcDbDictionary
  3
STANDARD
350
1C
1001
ACAD
1000
TREAT_AS_HARD
1070
     0
  0
DICTIONARY
  5
7B5
102
{ACAD_REACTORS
330
C
102
}
330
C
100
AcDbDictionary
1001
ACAD
1000
TREAT_AS_HARD
1070
     0
  0
XRECORD
  5
825
102
{ACAD_REACTORS
330
7E1
102
}
330
7E1
100
AcDbXrecord
340
19
  0
XRECORD
  5
824
102
{ACAD_REACTORS
330
7DF
102
}
330
7DF
100
AcDbXrecord
340
16
  0
MLINESTYLE
  5
1C
102
{ACAD_REACTORS
330
E
102
}
330
E
100
AcDbMlineStyle
  2
STANDARD
 70
     0
  3

 62
     0
 51
90.0
 52
90.0
 71
     2
 49
0.5
 62
   256
  6
BYLAYER
 49
-0.5
 62
   256
  6
BYLAYER
  0
ENDSEC
  0
EOF
