  0
SECTION
  2
HEADER
  9
$ACADVER
  1
AC1012
  9
$DWGCODEPAGE
  3
dos932
  9
$INSBASE
 10
0.0
 20
0.0
 30
0.0
  9
$EXTMIN
 10
19.90074647074652
 20
5.798621502208327
 30
0.0
  9
$EXTMAX
 10
1611.900746470746
 20
1124.166900699545
 30
0.0
  9
$LIMMIN
 10
0.0
 20
0.0
  9
$LIMMAX
 10
1682.0
 20
1188.0
  9
$ORTHOMODE
 70
     0
  9
$REGENMODE
 70
     1
  9
$FILLMODE
 70
     1
  9
$QTEXTMODE
 70
     0
  9
$MIRRTEXT
 70
     1
  9
$DRAGMODE
 70
     2
  9
$LTSCALE
 40
5.657142857142857
  9
$OSMODE
 70
    37
  9
$ATTMODE
 70
     1
  9
$TEXTSIZE
 40
19.8
  9
$TRACEWID
 40
0.05
  9
$TEXTSTYLE
  7
STANDARD
  9
$CLAYER
  8
CENTER_L
  9
$CELTYPE
  6
BYLAYER
  9
$CECOLOR
 62
   256
  9
$CELTSCALE
 40
1.0
  9
$DELOBJ
 70
     1
  9
$DISPSILH
 70
     0
  9
$DIMSCALE
 40
1.0
  9
$DIMASZ
 40
14.0
  9
$DIMEXO
 40
12.0
  9
$DIMDLI
 40
28.0
  9
$DIMRND
 40
0.0
  9
$DIMDLE
 40
0.0
  9
$DIMEXE
 40
6.0
  9
$DIMTP
 40
0.0
  9
$DIMTM
 40
0.0
  9
$DIMTXT
 40
12.0
  9
$DIMCEN
 40
150.0
  9
$DIMTSZ
 40
0.0
  9
$DIMTOL
 70
     0
  9
$DIMLIM
 70
     0
  9
$DIMTIH
 70
     0
  9
$DIMTOH
 70
     0
  9
$DIMSE1
 70
     0
  9
$DIMSE2
 70
     0
  9
$DIMTAD
 70
     3
  9
$DIMZIN
 70
     0
  9
$DIMBLK
  1

  9
$DIMASO
 70
     1
  9
$DIMSHO
 70
     1
  9
$DIMPOST
  1

  9
$DIMAPOST
  1

  9
$DIMALT
 70
     0
  9
$DIMALTD
 70
     2
  9
$DIMALTF
 40
0.03937
  9
$DIMLFAC
 40
1.0
  9
$DIMTOFL
 70
     1
  9
$DIMTVP
 40
0.0
  9
$DIMTIX
 70
     0
  9
$DIMSOXD
 70
     0
  9
$DIMSAH
 70
     1
  9
$DIMBLK1
  1
OPEN
  9
$DIMBLK2
  1
OPEN
  9
$DIMSTYLE
  2
STANDARD
  9
$DIMCLRD
 70
   256
  9
$DIMCLRE
 70
   256
  9
$DIMCLRT
 70
   256
  9
$DIMTFAC
 40
1.0
  9
$DIMGAP
 40
4.0
  9
$DIMJUST
 70
     0
  9
$DIMSD1
 70
     0
  9
$DIMSD2
 70
     0
  9
$DIMTOLJ
 70
     1
  9
$DIMTZIN
 70
     0
  9
$DIMALTZ
 70
     0
  9
$DIMALTTZ
 70
     0
  9
$DIMFIT
 70
     3
  9
$DIMUPT
 70
     0
  9
$DIMUNIT
 70
     2
  9
$DIMDEC
 70
     0
  9
$DIMTDEC
 70
     0
  9
$DIMALTU
 70
     2
  9
$DIMALTTD
 70
     2
  9
$DIMTXSTY
  7
STANDARD
  9
$DIMAUNIT
 70
     0
  9
$LUNITS
 70
     2
  9
$LUPREC
 70
     4
  9
$SKETCHINC
 40
0.1
  9
$FILLETRAD
 40
56.57142857142858
  9
$AUNITS
 70
     0
  9
$AUPREC
 70
     0
  9
$MENU
  1
acad
  9
$ELEVATION
 40
0.0
  9
$PELEVATION
 40
0.0
  9
$THICKNESS
 40
0.0
  9
$LIMCHECK
 70
     0
  9
$BLIPMODE
 70
     0
  9
$CHAMFERA
 40
56.57142857142858
  9
$CHAMFERB
 40
56.57142857142858
  9
$CHAMFERC
 40
113.1428571428571
  9
$CHAMFERD
 40
0.0
  9
$SKPOLY
 70
     0
  9
$TDCREATE
 40
2450994.355304167
  9
$TDUPDATE
 40
2452393.709006562
  9
$TDINDWG
 40
0.0264233333
  9
$TDUSRTIMER
 40
0.0264233333
  9
$USRTIMER
 70
     1
  9
$ANGBASE
 50
0.0
  9
$ANGDIR
 70
     0
  9
$PDMODE
 70
     1
  9
$PDSIZE
 40
0.0
  9
$PLINEWID
 40
0.0
  9
$COORDS
 70
     1
  9
$SPLFRAME
 70
     0
  9
$SPLINETYPE
 70
     6
  9
$SPLINESEGS
 70
     8
  9
$ATTDIA
 70
     0
  9
$ATTREQ
 70
     1
  9
$HANDLING
 70
 10241
  9
$HANDSEED
  5
8F0
  9
$SURFTAB1
 70
     6
  9
$SURFTAB2
 70
     6
  9
$SURFTYPE
 70
     6
  9
$SURFU
 70
     6
  9
$SURFV
 70
     6
  9
$UCSNAME
  2

  9
$UCSORG
 10
0.0
 20
0.0
 30
0.0
  9
$UCSXDIR
 10
1.0
 20
0.0
 30
0.0
  9
$UCSYDIR
 10
0.0
 20
1.0
 30
0.0
  9
$PUCSNAME
  2

  9
$PUCSORG
 10
0.0
 20
0.0
 30
0.0
  9
$PUCSXDIR
 10
1.0
 20
0.0
 30
0.0
  9
$PUCSYDIR
 10
0.0
 20
1.0
 30
0.0
  9
$USERI1
 70
     0
  9
$USERI2
 70
     0
  9
$USERI3
 70
     0
  9
$USERI4
 70
     0
  9
$USERI5
 70
     0
  9
$USERR1
 40
0.0
  9
$USERR2
 40
0.0
  9
$USERR3
 40
0.0
  9
$USERR4
 40
0.0
  9
$USERR5
 40
0.0
  9
$WORLDVIEW
 70
     1
  9
$SHADEDGE
 70
     3
  9
$SHADEDIF
 70
    70
  9
$TILEMODE
 70
     1
  9
$MAXACTVP
 70
    16
  9
$PINSBASE
 10
0.0
 20
0.0
 30
0.0
  9
$PLIMCHECK
 70
     0
  9
$PEXTMIN
 10
0.0
 20
0.0
 30
0.0
  9
$PEXTMAX
 10
420.0
 20
297.0
 30
0.0
  9
$PLIMMIN
 10
0.0
 20
0.0
  9
$PLIMMAX
 10
420.0
 20
297.0
  9
$UNITMODE
 70
     0
  9
$VISRETAIN
 70
     0
  9
$PLINEGEN
 70
     0
  9
$PSLTSCALE
 70
     1
  9
$TREEDEPTH
 70
  3020
  9
$PICKSTYLE
 70
     1
  9
$CMLSTYLE
  2
STANDARD
  9
$CMLJUST
 70
     0
  9
$CMLSCALE
 40
20.0
  9
$SAVEIMAGES
 70
     1
  0
ENDSEC
  0
SECTION
  2
CLASSES
  0
CLASS
  1
ACDBDICTIONARYWDFLT
  2
AcDbDictionaryWithDefault
  3
AutoCAD 2000
 90
    32768
280
     0
281
     0
  0
CLASS
  1
ACDBPLACEHOLDER
  2
AcDbPlaceHolder
  3
AutoCAD 2000
 90
    32768
280
     0
281
     0
  0
CLASS
  1
LAYOUT
  2
AcDbLayout
  3
AutoCAD 2000
 90
    32768
280
     0
281
     0
  0
CLASS
  1
LONG_TRANSACTION
  2
AcDbLongTransaction
  3
AutoCAD 2000
 90
    32768
280
     0
281
     0
  0
CLASS
  1
LWPOLYLINE
  2
AcDbPolyline
  3
AutoCAD 2000
 90
    32768
280
     0
281
     1
  0
CLASS
  1
HATCH
  2
AcDbHatch
  3
AutoCAD 2000
 90
    32768
280
     0
281
     1
  0
CLASS
  1
XRECORD
  2
AcDbXrecord
  3
AutoCAD 2000
 90
    32768
280
     0
281
     0
  0
CLASS
  1
LONG_TRANSACTION
  2
AcDbLongTransaction
  3
AutoCAD 2000
 90
    32768
280
     0
281
     0
  0
CLASS
  1
LWPOLYLINE
  2
AcDbPolyline
  3
AutoCAD 2000
 90
    32768
280
     0
281
     1
  0
CLASS
  1
HATCH
  2
AcDbHatch
  3
AutoCAD 2000
 90
    32768
280
     0
281
     1
  0
CLASS
  1
XRECORD
  2
AcDbXrecord
  3
AutoCAD 2000
 90
    32768
280
     0
281
     0
  0
CLASS
  1
LONG_TRANSACTION
  2
AcDbLongTransaction
  3
AutoCAD 2000
 90
    32768
280
     0
281
     0
  0
CLASS
  1
LWPOLYLINE
  2
AcDbPolyline
  3
AutoCAD 2000
 90
    32768
280
     0
281
     1
  0
CLASS
  1
HATCH
  2
AcDbHatch
  3
AutoCAD 2000
 90
    32768
280
     0
281
     1
  0
CLASS
  1
XRECORD
  2
AcDbXrecord
  3
AutoCAD 2000
 90
    32768
280
     0
281
     0
  0
ENDSEC
  0
SECTION
  2
TABLES
  0
TABLE
  2
VPORT
  5
8
330
0
100
AcDbSymbolTable
 70
     3
  0
VPORT
  5
8ED
330
8
100
AcDbSymbolTableRecord
100
AcDbViewportTableRecord
  2
*ACTIVE
 70
     0
 10
0.0
 20
0.0
 11
1.0
 21
1.0
 12
1092.358333003991
 22
594.0
 13
0.0
 23
0.0
 14
10.0
 24
10.0
 15
10.0
 25
10.0
 16
0.0
 26
0.0
 36
1.0
 17
0.0
 27
0.0
 37
0.0
 40
1201.127071823204
 41
2.169459962756052
 42
50.0
 43
0.0
 44
0.0
 50
0.0
 51
0.0
 71
     0
 72
   100
 73
     1
 74
     0
 75
     0
 76
     0
 77
     0
 78
     0
  0
ENDTAB
  0
TABLE
  2
LTYPE
  5
5
330
0
100
AcDbSymbolTable
 70
     2
  0
LTYPE
  5
13
330
5
100
AcDbSymbolTableRecord
100
AcDbLinetypeTableRecord
  2
BYBLOCK
 70
     0
  3

 72
    65
 73
     0
 40
0.0
  0
LTYPE
  5
14
330
5
100
AcDbSymbolTableRecord
100
AcDbLinetypeTableRecord
  2
BYLAYER
 70
     0
  3

 72
    65
 73
     0
 40
0.0
  0
LTYPE
  5
15
330
5
100
AcDbSymbolTableRecord
100
AcDbLinetypeTableRecord
  2
CONTINUOUS
 70
     0
  3
Solid line
 72
    65
 73
     0
 40
0.0
  0
LTYPE
  5
11C
330
5
100
AcDbSymbolTableRecord
100
AcDbLinetypeTableRecord
  2
CENTER
 70
     0
  3
____ _ ____ _ ____ _ ____ _ ____ _ ____ _ ____ 
 72
    65
 73
     4
 40
2.0
 49
1.25
 74
     0
 49
-0.25
 74
     0
 49
0.25
 74
     0
 49
-0.25
 74
     0
  0
ENDTAB
  0
TABLE
  2
LAYER
  5
2
330
0
100
AcDbSymbolTable
 70
     7
  0
LAYER
  5
F
330
2
100
AcDbSymbolTableRecord
100
AcDbLayerTableRecord
  2
0
 70
     0
 62
     7
  6
CONTINUOUS
  0
LAYER
  5
23
330
2
100
AcDbSymbolTableRecord
100
AcDbLayerTableRecord
  2
VIEWPORT
 70
     0
 62
     7
  6
CONTINUOUS
  0
LAYER
  5
2D
330
2
100
AcDbSymbolTableRecord
100
AcDbLayerTableRecord
  2
ZUWAKU
 70
     0
 62
     7
  6
CONTINUOUS
  0
LAYER
  5
A6
330
2
100
AcDbSymbolTableRecord
100
AcDbLayerTableRecord
  2
DEFPOINTS
 70
     0
 62
     7
  6
CONTINUOUS
  0
LAYER
  5
219
330
2
100
AcDbSymbolTableRecord
100
AcDbLayerTableRecord
  2
SEIHIN
 70
     0
 62
     3
  6
CONTINUOUS
  0
LAYER
  5
21A
330
2
100
AcDbSymbolTableRecord
100
AcDbLayerTableRecord
  2
SUNPOU
 70
     0
 62
     4
  6
CONTINUOUS
  0
LAYER
  5
21B
330
2
100
AcDbSymbolTableRecord
100
AcDbLayerTableRecord
  2
CENTER_L
 70
     0
 62
     1
  6
CENTER
  0
ENDTAB
  0
TABLE
  2
STYLE
  5
3
330
0
100
AcDbSymbolTable
 70
     1
  0
STYLE
  5
10
330
3
100
AcDbSymbolTableRecord
100
AcDbTextStyleTableRecord
  2
STANDARD
 70
     0
 40
0.0
 41
1.0
 50
0.0
 71
     0
 42
19.8
  3
txt
  4
bigfont.shx
  0
ENDTAB
  0
TABLE
  2
VIEW
  5
6
330
0
100
AcDbSymbolTable
 70
     0
  0
ENDTAB
  0
TABLE
  2
UCS
  5
7
330
0
100
AcDbSymbolTable
 70
     0
  0
ENDTAB
  0
TABLE
  2
APPID
  5
9
330
0
100
AcDbSymbolTable
 70
     1
  0
APPID
  5
11
330
9
100
AcDbSymbolTableRecord
100
AcDbRegAppTableRecord
  2
ACAD
 70
     0
  0
ENDTAB
  0
TABLE
  2
DIMSTYLE
  5
A
330
0
100
AcDbSymbolTable
 70
     1
  0
DIMSTYLE
105
1D
102
{ACAD_REACTORS
330
32A
330
354
330
3EF
330
406
330
640
330
6A2
330
6CF
330
6DC
330
6EA
330
6F7
330
77C
330
7DB
330
7E8
330
7F7
330
824
102
}
330
A
100
AcDbSymbolTableRecord
100
AcDbDimStyleTableRecord
  2
STANDARD
 70
     0
  3

  4

  5

  6

  7

 40
1.0
 41
0.18
 42
0.0625
 43
0.38
 44
0.18
 45
0.0
 46
0.0
 47
0.0
 48
0.0
140
0.18
141
0.09
142
0.0
143
25.4
144
1.0
145
0.0
146
1.0
147
0.09
 71
     0
 72
     0
 73
     1
 74
     1
 75
     0
 76
     0
 77
     0
 78
     0
170
     0
171
     2
172
     0
173
     0
174
     0
175
     0
176
     0
177
     0
178
     0
270
     2
271
     4
272
     4
273
     2
274
     2
340
10
275
     0
280
     0
281
     0
282
     0
283
     1
284
     0
285
     0
286
     0
287
     3
288
     0
  0
ENDTAB
  0
TABLE
  2
BLOCK_RECORD
  5
1
330
0
100
AcDbSymbolTable
 70
    16
  0
BLOCK_RECORD
  5
19
102
{ACAD_XDICTIONARY
360
87D
102
}
330
1
100
AcDbSymbolTableRecord
100
AcDbBlockTableRecord
  2
*MODEL_SPACE
  0
BLOCK_RECORD
  5
16
102
{ACAD_XDICTIONARY
360
87B
102
}
330
1
100
AcDbSymbolTableRecord
100
AcDbBlockTableRecord
  2
*PAPER_SPACE
  0
BLOCK_RECORD
  5
27
330
1
100
AcDbSymbolTableRecord
100
AcDbBlockTableRecord
  2
_OPEN
  0
BLOCK_RECORD
  5
43B
330
1
100
AcDbSymbolTableRecord
100
AcDbBlockTableRecord
  2
*D1
  0
BLOCK_RECORD
  5
478
330
1
100
AcDbSymbolTableRecord
100
AcDbBlockTableRecord
  2
*D2
  0
BLOCK_RECORD
  5
4B5
330
1
100
AcDbSymbolTableRecord
100
AcDbBlockTableRecord
  2
*D3
  0
BLOCK_RECORD
  5
4CE
330
1
100
AcDbSymbolTableRecord
100
AcDbBlockTableRecord
  2
*D4
  0
BLOCK_RECORD
  5
634
330
1
100
AcDbSymbolTableRecord
100
AcDbBlockTableRecord
  2
*D5
  0
BLOCK_RECORD
  5
694
330
1
100
AcDbSymbolTableRecord
100
AcDbBlockTableRecord
  2
*D6
  0
BLOCK_RECORD
  5
6C3
330
1
100
AcDbSymbolTableRecord
100
AcDbBlockTableRecord
  2
*D7
  0
BLOCK_RECORD
  5
6D0
330
1
100
AcDbSymbolTableRecord
100
AcDbBlockTableRecord
  2
*D8
  0
BLOCK_RECORD
  5
6DD
330
1
100
AcDbSymbolTableRecord
100
AcDbBlockTableRecord
  2
*D9
  0
BLOCK_RECORD
  5
6EB
330
1
100
AcDbSymbolTableRecord
100
AcDbBlockTableRecord
  2
*D10
  0
BLOCK_RECORD
  5
770
330
1
100
AcDbSymbolTableRecord
100
AcDbBlockTableRecord
  2
*D11
  0
BLOCK_RECORD
  5
7CF
330
1
100
AcDbSymbolTableRecord
100
AcDbBlockTableRecord
  2
*D12
  0
BLOCK_RECORD
  5
7DC
330
1
100
AcDbSymbolTableRecord
100
AcDbBlockTableRecord
  2
*D13
  0
BLOCK_RECORD
  5
7E9
330
1
100
AcDbSymbolTableRecord
100
AcDbBlockTableRecord
  2
*D14
  0
BLOCK_RECORD
  5
816
330
1
100
AcDbSymbolTableRecord
100
AcDbBlockTableRecord
  2
*D15
  0
ENDTAB
  0
ENDSEC
  0
SECTION
  2
BLOCKS
  0
BLOCK
  5
1A
330
19
100
AcDbEntity
  8
0
100
AcDbBlockBegin
  2
*MODEL_SPACE
 70
     0
 10
0.0
 20
0.0
 30
0.0
  3
*MODEL_SPACE
  1

  0
ENDBLK
  5
1B
330
19
100
AcDbEntity
  8
0
100
AcDbBlockEnd
  0
BLOCK
  5
17
330
16
100
AcDbEntity
 67
     1
  8
0
100
AcDbBlockBegin
  2
*PAPER_SPACE
 70
     0
 10
0.0
 20
0.0
 30
0.0
  3
*PAPER_SPACE
  1

  0
ENDBLK
  5
18
330
16
100
AcDbEntity
 67
     1
  8
0
100
AcDbBlockEnd
  0
BLOCK
  5
28
330
27
100
AcDbEntity
  8
0
100
AcDbBlockBegin
  2
_OPEN
 70
     0
 10
0.0
 20
0.0
 30
0.0
  3
_OPEN
  1

  0
LINE
  5
29
330
27
100
AcDbEntity
  8
0
  6
BYBLOCK
 62
     0
100
AcDbLine
 10
-1.0
 20
0.1666666666666666
 30
0.0
 11
0.0
 21
0.0
 31
0.0
  0
LINE
  5
2A
330
27
100
AcDbEntity
  8
0
  6
BYBLOCK
 62
     0
100
AcDbLine
 10
0.0
 20
0.0
 30
0.0
 11
-1.0
 21
-0.1666666666666666
 31
0.0
  0
LINE
  5
2B
330
27
100
AcDbEntity
  8
0
  6
BYBLOCK
 62
     0
100
AcDbLine
 10
0.0
 20
0.0
 30
0.0
 11
-1.0
 21
0.0
 31
0.0
  0
ENDBLK
  5
2C
330
27
100
AcDbEntity
  8
0
100
AcDbBlockEnd
  0
BLOCK
  5
7BF
330
43B
100
AcDbEntity
  8
0
100
AcDbBlockBegin
  2
*D1
 70
     1
 10
0.0
 20
0.0
 30
0.0
  3
*D1
  1

  0
LINE
  5
7C0
330
43B
100
AcDbEntity
  8
0
  6
BYBLOCK
 62
     4
100
AcDbLine
 10
533.7626430595324
 20
306.8766247097568
 30
0.0
 11
533.7626430595324
 21
188.3419505347693
 31
0.0
  0
LINE
  5
7C1
330
43B
100
AcDbEntity
  8
0
  6
BYBLOCK
 62
     4
100
AcDbLine
 10
312.8958586619635
 20
306.8766247097568
 30
0.0
 11
312.8958586619635
 21
188.3419505347693
 31
0.0
  0
LINE
  5
7C2
330
43B
100
AcDbEntity
  8
0
  6
BYBLOCK
 62
     4
100
AcDbLine
 10
521.7626430595323
 20
196.3419505347694
 30
0.0
 11
324.8958586619635
 21
196.3419505347694
 31
0.0
  0
INSERT
  5
7C3
330
43B
100
AcDbEntity
  8
0
  6
BYBLOCK
 62
     4
100
AcDbBlockReference
  2
_OPEN
 10
533.7626430595324
 20
196.3419505347694
 30
0.0
 41
12.0
 42
12.0
 43
12.0
  0
INSERT
  5
7C4
330
43B
100
AcDbEntity
  8
0
  6
BYBLOCK
 62
     4
100
AcDbBlockReference
  2
_OPEN
 10
312.8958586619635
 20
196.3419505347694
 30
0.0
 41
12.0
 42
12.0
 43
12.0
 50
180.0
  0
MTEXT
  5
7C5
330
43B
100
AcDbEntity
  8
0
  6
BYBLOCK
 62
     4
100
AcDbMText
 10
423.3292508607479
 20
206.3419505347694
 30
0.0
 40
12.0
 41
0.0
 71
     5
 72
     1
  1
\A1;{220}
1001
ACAD
1000
MTEXTBEGIN
1070
    73
1070
     1
1070
    44
1040
1.0
1070
    74
1070
     0
1000
MTEXTEND
1000
MTEXTBEGIN
1070
    73
1070
     1
1070
    44
1040
1.0
1070
    74
1070
     0
1000
MTEXTEND
1000
MTEXTBEGIN
1070
    73
1070
     1
1070
    44
1040
1.0
1070
    74
1070
     0
1000
MTEXTEND
  0
POINT
  5
7C6
330
43B
100
AcDbEntity
  8
DEFPOINTS
  6
BYBLOCK
 62
     0
100
AcDbPoint
 10
533.7626430595324
 20
326.8766247097568
 30
0.0
  0
POINT
  5
7C7
330
43B
100
AcDbEntity
  8
DEFPOINTS
  6
BYBLOCK
 62
     0
100
AcDbPoint
 10
312.8958586619635
 20
326.8766247097568
 30
0.0
  0
POINT
  5
7C8
330
43B
100
AcDbEntity
  8
DEFPOINTS
  6
BYBLOCK
 62
     0
100
AcDbPoint
 10
312.8958586619635
 20
196.3419505347694
 30
0.0
  0
ENDBLK
  5
7C9
330
43B
100
AcDbEntity
  8
0
100
AcDbBlockEnd
  0
BLOCK
  5
5C6
330
478
100
AcDbEntity
  8
0
100
AcDbBlockBegin
  2
*D2
 70
     1
 10
0.0
 20
0.0
 30
0.0
  3
*D2
  1

  0
LINE
  5
5C7
330
478
100
AcDbEntity
  8
0
  6
BYBLOCK
 62
     4
100
AcDbLine
 10
788.0203278797973
 20
636.8767247097568
 30
0.0
 11
788.0203278797973
 21
671.6370843043606
 31
0.0
  0
LINE
  5
5C8
330
478
100
AcDbEntity
  8
0
  6
BYBLOCK
 62
     4
100
AcDbLine
 10
516.0211278797974
 20
636.8767247097568
 30
0.0
 11
516.0211278797974
 21
671.6370843043606
 31
0.0
  0
LINE
  5
5C9
330
478
100
AcDbEntity
  8
0
  6
BYBLOCK
 62
     4
100
AcDbLine
 10
776.0203278797973
 20
663.6370843043606
 30
0.0
 11
528.0211278797974
 21
663.6370843043606
 31
0.0
  0
INSERT
  5
5CA
330
478
100
AcDbEntity
  8
0
  6
BYBLOCK
 62
     4
100
AcDbBlockReference
  2
_OPEN
 10
788.0203278797973
 20
663.6370843043606
 30
0.0
 41
12.0
 42
12.0
 43
12.0
  0
INSERT
  5
5CB
330
478
100
AcDbEntity
  8
0
  6
BYBLOCK
 62
     4
100
AcDbBlockReference
  2
_OPEN
 10
516.0211278797974
 20
663.6370843043606
 30
0.0
 41
12.0
 42
12.0
 43
12.0
 50
180.0
  0
MTEXT
  5
5CC
330
478
100
AcDbEntity
  8
0
  6
BYBLOCK
 62
     4
100
AcDbMText
 10
652.0207278797974
 20
673.6370843043606
 30
0.0
 40
12.0
 41
0.0
 71
     5
 72
     1
  1
\A1;272
1001
ACAD
1000
MTEXTBEGIN
1070
    73
1070
     1
1070
    44
1040
1.0
1070
    74
1070
     0
1000
MTEXTEND
1000
MTEXTBEGIN
1070
    73
1070
     1
1070
    44
1040
1.0
1070
    74
1070
     0
1000
MTEXTEND
1000
MTEXTBEGIN
1070
    73
1070
     1
1070
    44
1040
1.0
1070
    74
1070
     0
1000
MTEXTEND
  0
POINT
  5
5CD
330
478
100
AcDbEntity
  8
DEFPOINTS
  6
BYBLOCK
 62
     0
100
AcDbPoint
 10
788.0203278797973
 20
616.8767247097568
 30
0.0
  0
POINT
  5
5CE
330
478
100
AcDbEntity
  8
DEFPOINTS
  6
BYBLOCK
 62
     0
100
AcDbPoint
 10
516.0211278797974
 20
616.8767247097568
 30
0.0
  0
POINT
  5
5CF
330
478
100
AcDbEntity
  8
DEFPOINTS
  6
BYBLOCK
 62
     0
100
AcDbPoint
 10
516.0211278797974
 20
663.6370843043606
 30
0.0
  0
ENDBLK
  5
5D0
330
478
100
AcDbEntity
  8
0
100
AcDbBlockEnd
  0
BLOCK
  5
710
330
4B5
100
AcDbEntity
  8
0
100
AcDbBlockBegin
  2
*D3
 70
     1
 10
0.0
 20
0.0
 30
0.0
  3
*D3
  1

  0
LINE
  5
711
330
4B5
100
AcDbEntity
  8
0
  6
BYBLOCK
 62
     4
100
AcDbLine
 10
747.5478352699838
 20
306.8766247097568
 30
0.0
 11
747.5478352699838
 21
101.4901647430712
 31
0.0
  0
LINE
  5
712
330
4B5
100
AcDbEntity
  8
0
  6
BYBLOCK
 62
     4
100
AcDbLine
 10
989.5472653070122
 20
306.8766247097566
 30
0.0
 11
989.5472653070122
 21
101.4901647430712
 31
0.0
  0
LINE
  5
713
330
4B5
100
AcDbEntity
  8
0
  6
BYBLOCK
 62
     4
100
AcDbLine
 10
759.5478352699838
 20
109.4901647430712
 30
0.0
 11
977.5472653070121
 21
109.4901647430712
 31
0.0
  0
INSERT
  5
714
330
4B5
100
AcDbEntity
  8
0
  6
BYBLOCK
 62
     4
100
AcDbBlockReference
  2
_OPEN
 10
747.5478352699838
 20
109.4901647430712
 30
0.0
 41
12.0
 42
12.0
 43
12.0
 50
180.0
  0
INSERT
  5
715
330
4B5
100
AcDbEntity
  8
0
  6
BYBLOCK
 62
     4
100
AcDbBlockReference
  2
_OPEN
 10
989.5472653070122
 20
109.4901647430712
 30
0.0
 41
12.0
 42
12.0
 43
12.0
  0
MTEXT
  5
716
330
4B5
100
AcDbEntity
  8
0
  6
BYBLOCK
 62
     4
100
AcDbMText
 10
868.547550288498
 20
119.4901647430712
 30
0.0
 40
12.0
 41
0.0
 71
     5
 72
     1
  1
\A1;242
1001
ACAD
1000
MTEXTBEGIN
1070
    73
1070
     1
1070
    44
1040
1.0
1070
    74
1070
     0
1000
MTEXTEND
1000
MTEXTBEGIN
1070
    73
1070
     1
1070
    44
1040
1.0
1070
    74
1070
     0
1000
MTEXTEND
1000
MTEXTBEGIN
1070
    73
1070
     1
1070
    44
1040
1.0
1070
    74
1070
     0
1000
MTEXTEND
  0
POINT
  5
717
330
4B5
100
AcDbEntity
  8
DEFPOINTS
  6
BYBLOCK
 62
     0
100
AcDbPoint
 10
747.5478352699838
 20
326.8766247097568
 30
0.0
  0
POINT
  5
718
330
4B5
100
AcDbEntity
  8
DEFPOINTS
  6
BYBLOCK
 62
     0
100
AcDbPoint
 10
989.5472653070122
 20
326.8766247097567
 30
0.0
  0
POINT
  5
719
330
4B5
100
AcDbEntity
  8
DEFPOINTS
  6
BYBLOCK
 62
     0
100
AcDbPoint
 10
989.5472653070122
 20
109.4901647430712
 30
0.0
  0
ENDBLK
  5
71A
330
4B5
100
AcDbEntity
  8
0
100
AcDbBlockEnd
  0
BLOCK
  5
5D1
330
4CE
100
AcDbEntity
  8
0
100
AcDbBlockBegin
  2
*D4
 70
     1
 10
0.0
 20
0.0
 30
0.0
  3
*D4
  1

  0
LINE
  5
5D2
330
4CE
100
AcDbEntity
  8
0
  6
BYBLOCK
 62
     4
100
AcDbLine
 10
1171.239127879797
 20
636.8767247097568
 30
0.0
 11
1171.239127879797
 21
670.6699446693098
 31
0.0
  0
LINE
  5
5D3
330
4CE
100
AcDbEntity
  8
0
  6
BYBLOCK
 62
     4
100
AcDbLine
 10
900.2391278797974
 20
636.8767247097568
 30
0.0
 11
900.2391278797974
 21
670.6699446693098
 31
0.0
  0
LINE
  5
5D4
330
4CE
100
AcDbEntity
  8
0
  6
BYBLOCK
 62
     4
100
AcDbLine
 10
1159.239127879797
 20
662.6699446693097
 30
0.0
 11
912.2391278797975
 21
662.6699446693097
 31
0.0
  0
INSERT
  5
5D5
330
4CE
100
AcDbEntity
  8
0
  6
BYBLOCK
 62
     4
100
AcDbBlockReference
  2
_OPEN
 10
1171.239127879797
 20
662.6699446693097
 30
0.0
 41
12.0
 42
12.0
 43
12.0
  0
INSERT
  5
5D6
330
4CE
100
AcDbEntity
  8
0
  6
BYBLOCK
 62
     4
100
AcDbBlockReference
  2
_OPEN
 10
900.2391278797974
 20
662.6699446693097
 30
0.0
 41
12.0
 42
12.0
 43
12.0
 50
180.0
  0
MTEXT
  5
5D7
330
4CE
100
AcDbEntity
  8
0
  6
BYBLOCK
 62
     4
100
AcDbMText
 10
1035.739127879797
 20
672.6699446693097
 30
0.0
 40
12.0
 41
0.0
 71
     5
 72
     1
  1
\A1;271
1001
ACAD
1000
MTEXTBEGIN
1070
    73
1070
     1
1070
    44
1040
1.0
1070
    74
1070
     0
1000
MTEXTEND
1000
MTEXTBEGIN
1070
    73
1070
     1
1070
    44
1040
1.0
1070
    74
1070
     0
1000
MTEXTEND
1000
MTEXTBEGIN
1070
    73
1070
     1
1070
    44
1040
1.0
1070
    74
1070
     0
1000
MTEXTEND
  0
POINT
  5
5D8
330
4CE
100
AcDbEntity
  8
DEFPOINTS
  6
BYBLOCK
 62
     0
100
AcDbPoint
 10
1171.239127879797
 20
616.8767247097568
 30
0.0
  0
POINT
  5
5D9
330
4CE
100
AcDbEntity
  8
DEFPOINTS
  6
BYBLOCK
 62
     0
100
AcDbPoint
 10
900.2391278797974
 20
616.8767247097568
 30
0.0
  0
POINT
  5
5DA
330
4CE
100
AcDbEntity
  8
DEFPOINTS
  6
BYBLOCK
 62
     0
100
AcDbPoint
 10
900.2391278797974
 20
662.6699446693097
 30
0.0
  0
ENDBLK
  5
5DB
330
4CE
100
AcDbEntity
  8
0
100
AcDbBlockEnd
  0
BLOCK
  5
71B
330
634
100
AcDbEntity
  8
0
100
AcDbBlockBegin
  2
*D5
 70
     1
 10
0.0
 20
0.0
 30
0.0
  3
*D5
  1

  0
LINE
  5
71C
330
634
100
AcDbEntity
  8
0
  6
BYBLOCK
 62
     4
100
AcDbLine
 10
989.5472653070118
 20
314.8766247097568
 30
0.0
 11
989.5472653070118
 21
148.1857714262
 31
0.0
  0
LINE
  5
71D
330
634
100
AcDbEntity
  8
0
  6
BYBLOCK
 62
     4
100
AcDbLine
 10
852.5477018098051
 20
223.5826247097568
 30
0.0
 11
852.5477018098051
 21
148.1857714262
 31
0.0
  0
LINE
  5
71E
330
634
100
AcDbEntity
  8
0
  6
BYBLOCK
 62
     4
100
AcDbLine
 10
975.5472653070119
 20
154.1857714262
 30
0.0
 11
866.5477018098052
 21
154.1857714262
 31
0.0
  0
INSERT
  5
71F
330
634
100
AcDbEntity
  8
0
  6
BYBLOCK
 62
     4
100
AcDbBlockReference
  2
_OPEN
 10
989.5472653070118
 20
154.1857714262
 30
0.0
 41
14.0
 42
14.0
 43
14.0
  0
INSERT
  5
720
330
634
100
AcDbEntity
  8
0
  6
BYBLOCK
 62
     4
100
AcDbBlockReference
  2
_OPEN
 10
852.5477018098051
 20
154.1857714262
 30
0.0
 41
14.0
 42
14.0
 43
14.0
 50
180.0
  0
MTEXT
  5
721
330
634
100
AcDbEntity
  8
0
  6
BYBLOCK
 62
     4
100
AcDbMText
 10
921.0474835584085
 20
164.1857714262
 30
0.0
 40
12.0
 41
0.0
 71
     5
 72
     1
  1
\A1;137
1001
ACAD
1000
MTEXTBEGIN
1070
    73
1070
     1
1070
    44
1040
1.0
1070
    74
1070
     0
1000
MTEXTEND
1000
MTEXTBEGIN
1070
    73
1070
     1
1070
    44
1040
1.0
1070
    74
1070
     0
1000
MTEXTEND
1000
MTEXTBEGIN
1070
    73
1070
     1
1070
    44
1040
1.0
1070
    74
1070
     0
1000
MTEXTEND
  0
POINT
  5
722
330
634
100
AcDbEntity
  8
DEFPOINTS
  6
BYBLOCK
 62
     0
100
AcDbPoint
 10
989.5472653070118
 20
326.8766247097568
 30
0.0
  0
POINT
  5
723
330
634
100
AcDbEntity
  8
DEFPOINTS
  6
BYBLOCK
 62
     0
100
AcDbPoint
 10
852.5477018098051
 20
235.5826247097568
 30
0.0
  0
POINT
  5
724
330
634
100
AcDbEntity
  8
DEFPOINTS
  6
BYBLOCK
 62
     0
100
AcDbPoint
 10
852.5477018098051
 20
154.1857714262
 30
0.0
  0
ENDBLK
  5
725
330
634
100
AcDbEntity
  8
0
100
AcDbBlockEnd
  0
BLOCK
  5
83F
330
694
100
AcDbEntity
  8
0
100
AcDbBlockBegin
  2
*D6
 70
     1
 10
0.0
 20
0.0
 30
0.0
  3
*D6
  1

  0
LINE
  5
840
330
694
100
AcDbEntity
  8
0
  6
BYBLOCK
 62
     4
100
AcDbLine
 10
1186.829301809805
 20
608.3768247097567
 30
0.0
 11
1186.829301809805
 21
640.1971552203763
 31
0.0
  0
LINE
  5
841
330
694
100
AcDbEntity
  8
0
  6
BYBLOCK
 62
     4
100
AcDbLine
 10
1179.829301809805
 20
608.3768247097567
 30
0.0
 11
1179.829301809805
 21
640.1971552203763
 31
0.0
  0
LINE
  5
842
330
694
100
AcDbEntity
  8
0
  6
BYBLOCK
 62
     4
100
AcDbLine
 10
1165.829301809804
 20
634.1971552203763
 30
0.0
 11
1151.829301809804
 21
634.1971552203763
 31
0.0
  0
LINE
  5
843
330
694
100
AcDbEntity
  8
0
  6
BYBLOCK
 62
     4
100
AcDbLine
 10
1200.829301809805
 20
634.1971552203763
 30
0.0
 11
1235.139737324222
 21
634.1971552203763
 31
0.0
  0
LINE
  5
844
330
694
100
AcDbEntity
  8
0
  6
BYBLOCK
 62
     4
100
AcDbLine
 10
1179.829301809805
 20
634.1971552203763
 30
0.0
 11
1186.829301809805
 21
634.1971552203763
 31
0.0
  0
INSERT
  5
845
330
694
100
AcDbEntity
  8
0
  6
BYBLOCK
 62
     4
100
AcDbBlockReference
  2
_OPEN
 10
1179.829301809805
 20
634.1971552203763
 30
0.0
 41
14.0
 42
14.0
 43
14.0
  0
INSERT
  5
846
330
694
100
AcDbEntity
  8
0
  6
BYBLOCK
 62
     4
100
AcDbBlockReference
  2
_OPEN
 10
1186.829301809805
 20
634.1971552203763
 30
0.0
 41
14.0
 42
14.0
 43
14.0
 50
180.0
  0
MTEXT
  5
847
330
694
100
AcDbEntity
  8
0
  6
BYBLOCK
 62
     4
100
AcDbMText
 10
1227.139737324222
 20
644.1971552203763
 30
0.0
 40
12.0
 41
0.0
 71
     5
 72
     1
  1
\A1;7
1001
ACAD
1000
MTEXTBEGIN
1070
    73
1070
     1
1070
    44
1040
1.0
1070
    74
1070
     0
1000
MTEXTEND
1000
MTEXTBEGIN
1070
    73
1070
     1
1070
    44
1040
1.0
1070
    74
1070
     0
1000
MTEXTEND
1000
MTEXTBEGIN
1070
    73
1070
     1
1070
    44
1040
1.0
1070
    74
1070
     0
1000
MTEXTEND
  0
POINT
  5
848
330
694
100
AcDbEntity
  8
DEFPOINTS
  6
BYBLOCK
 62
     0
100
AcDbPoint
 10
1186.829301809805
 20
596.3768247097568
 30
0.0
  0
POINT
  5
849
330
694
100
AcDbEntity
  8
DEFPOINTS
  6
BYBLOCK
 62
     0
100
AcDbPoint
 10
1179.829301809805
 20
596.3768247097568
 30
0.0
  0
POINT
  5
84A
330
694
100
AcDbEntity
  8
DEFPOINTS
  6
BYBLOCK
 62
     0
100
AcDbPoint
 10
1179.829301809805
 20
634.1971552203763
 30
0.0
  0
ENDBLK
  5
84B
330
694
100
AcDbEntity
  8
0
100
AcDbBlockEnd
  0
BLOCK
  5
6C4
330
6C3
100
AcDbEntity
  8
0
100
AcDbBlockBegin
  2
*D7
 70
     1
 10
0.0
 20
0.0
 30
0.0
  3
*D7
  1

  0
LINE
  5
6C5
330
6C3
100
AcDbEntity
  8
0
  6
BYBLOCK
 62
     4
100
AcDbLine
 10
1001.368208341655
 20
1025.485811085884
 30
0.0
 11
1055.531387645103
 21
1025.485811085884
 31
0.0
  0
LINE
  5
6C6
330
6C3
100
AcDbEntity
  8
0
  6
BYBLOCK
 62
     4
100
AcDbLine
 10
1001.367208341655
 20
753.4864110858846
 30
0.0
 11
1055.531387645103
 21
753.4864110858846
 31
0.0
  0
LINE
  5
6C7
330
6C3
100
AcDbEntity
  8
0
  6
BYBLOCK
 62
     4
100
AcDbLine
 10
1049.531387645103
 20
1011.485811085884
 30
0.0
 11
1049.531387645103
 21
767.4864110858846
 31
0.0
  0
INSERT
  5
6C8
330
6C3
100
AcDbEntity
  8
0
  6
BYBLOCK
 62
     4
100
AcDbBlockReference
  2
_OPEN
 10
1049.531387645103
 20
1025.485811085884
 30
0.0
 41
14.0
 42
14.0
 43
14.0
 50
90.0
  0
INSERT
  5
6C9
330
6C3
100
AcDbEntity
  8
0
  6
BYBLOCK
 62
     4
100
AcDbBlockReference
  2
_OPEN
 10
1049.531387645103
 20
753.4864110858846
 30
0.0
 41
14.0
 42
14.0
 43
14.0
 50
270.0
  0
MTEXT
  5
6CA
330
6C3
100
AcDbEntity
  8
0
  6
BYBLOCK
 62
     4
100
AcDbMText
 10
1039.531387645103
 20
889.4861110858846
 30
0.0
 40
12.0
 41
0.0
 71
     5
 72
     1
  1
\A1;272
 11
0.0
 21
1.0
 31
0.0
1001
ACAD
1000
MTEXTBEGIN
1070
    73
1070
     1
1070
    44
1040
1.0
1070
    74
1070
     0
1000
MTEXTEND
1000
MTEXTBEGIN
1070
    73
1070
     1
1070
    44
1040
1.0
1070
    74
1070
     0
1000
MTEXTEND
1000
MTEXTBEGIN
1070
    73
1070
     1
1070
    44
1040
1.0
1070
    74
1070
     0
1000
MTEXTEND
  0
POINT
  5
6CB
330
6C3
100
AcDbEntity
  8
DEFPOINTS
  6
BYBLOCK
 62
     0
100
AcDbPoint
 10
989.3682083416553
 20
1025.485811085884
 30
0.0
  0
POINT
  5
6CC
330
6C3
100
AcDbEntity
  8
DEFPOINTS
  6
BYBLOCK
 62
     0
100
AcDbPoint
 10
989.367208341655
 20
753.4864110858846
 30
0.0
  0
POINT
  5
6CD
330
6C3
100
AcDbEntity
  8
DEFPOINTS
  6
BYBLOCK
 62
     0
100
AcDbPoint
 10
1049.531387645103
 20
753.4864110858846
 30
0.0
  0
ENDBLK
  5
6CE
330
6C3
100
AcDbEntity
  8
0
100
AcDbBlockEnd
  0
BLOCK
  5
6D1
330
6D0
100
AcDbEntity
  8
0
100
AcDbBlockBegin
  2
*D8
 70
     1
 10
0.0
 20
0.0
 30
0.0
  3
*D8
  1

  0
LINE
  5
6D2
330
6D0
100
AcDbEntity
  8
0
  6
BYBLOCK
 62
     4
100
AcDbLine
 10
709.5477018098051
 20
616.8767247097568
 30
0.0
 11
677.538209684365
 21
616.8767247097568
 31
0.0
  0
LINE
  5
6D3
330
6D0
100
AcDbEntity
  8
0
  6
BYBLOCK
 62
     4
100
AcDbLine
 10
741.1228018098049
 20
326.8766247097568
 30
0.0
 11
677.538209684365
 21
326.8766247097568
 31
0.0
  0
LINE
  5
6D4
330
6D0
100
AcDbEntity
  8
0
  6
BYBLOCK
 62
     4
100
AcDbLine
 10
683.538209684365
 20
602.8767247097568
 30
0.0
 11
683.538209684365
 21
340.8766247097568
 31
0.0
  0
INSERT
  5
6D5
330
6D0
100
AcDbEntity
  8
0
  6
BYBLOCK
 62
     4
100
AcDbBlockReference
  2
_OPEN
 10
683.538209684365
 20
616.8767247097568
 30
0.0
 41
14.0
 42
14.0
 43
14.0
 50
90.0
  0
INSERT
  5
6D6
330
6D0
100
AcDbEntity
  8
0
  6
BYBLOCK
 62
     4
100
AcDbBlockReference
  2
_OPEN
 10
683.538209684365
 20
326.8766247097568
 30
0.0
 41
14.0
 42
14.0
 43
14.0
 50
270.0
  0
MTEXT
  5
6D7
330
6D0
100
AcDbEntity
  8
0
  6
BYBLOCK
 62
     4
100
AcDbMText
 10
673.538209684365
 20
471.8766747097568
 30
0.0
 40
12.0
 41
0.0
 71
     5
 72
     1
  1
\A1;290
 11
0.0
 21
1.0
 31
0.0
1001
ACAD
1000
MTEXTBEGIN
1070
    73
1070
     1
1070
    44
1040
1.0
1070
    74
1070
     0
1000
MTEXTEND
1000
MTEXTBEGIN
1070
    73
1070
     1
1070
    44
1040
1.0
1070
    74
1070
     0
1000
MTEXTEND
1000
MTEXTBEGIN
1070
    73
1070
     1
1070
    44
1040
1.0
1070
    74
1070
     0
1000
MTEXTEND
  0
POINT
  5
6D8
330
6D0
100
AcDbEntity
  8
DEFPOINTS
  6
BYBLOCK
 62
     0
100
AcDbPoint
 10
721.5477018098051
 20
616.8767247097568
 30
0.0
  0
POINT
  5
6D9
330
6D0
100
AcDbEntity
  8
DEFPOINTS
  6
BYBLOCK
 62
     0
100
AcDbPoint
 10
753.1228018098049
 20
326.8766247097568
 30
0.0
  0
POINT
  5
6DA
330
6D0
100
AcDbEntity
  8
DEFPOINTS
  6
BYBLOCK
 62
     0
100
AcDbPoint
 10
683.538209684365
 20
326.8766247097568
 30
0.0
  0
ENDBLK
  5
6DB
330
6D0
100
AcDbEntity
  8
0
100
AcDbBlockEnd
  0
BLOCK
  5
704
330
6DD
100
AcDbEntity
  8
0
100
AcDbBlockBegin
  2
*D9
 70
     1
 10
0.0
 20
0.0
 30
0.0
  3
*D9
  1

  0
LINE
  5
705
330
6DD
100
AcDbEntity
  8
0
  6
BYBLOCK
 62
     4
100
AcDbLine
 10
769.704101809805
 20
276.8767247097567
 30
0.0
 11
677.538209684365
 21
276.8767247097567
 31
0.0
  0
LINE
  5
706
330
6DD
100
AcDbEntity
  8
0
  6
BYBLOCK
 62
     4
100
AcDbLine
 10
683.538209684365
 20
340.8766247097568
 30
0.0
 11
683.538209684365
 21
354.8766247097568
 31
0.0
  0
LINE
  5
707
330
6DD
100
AcDbEntity
  8
0
  6
BYBLOCK
 62
     4
100
AcDbLine
 10
683.538209684365
 20
262.8767247097568
 30
0.0
 11
683.538209684365
 21
248.8767247097567
 31
0.0
  0
LINE
  5
708
330
6DD
100
AcDbEntity
  8
0
  6
BYBLOCK
 62
     4
100
AcDbLine
 10
683.538209684365
 20
326.8766247097568
 30
0.0
 11
683.538209684365
 21
276.8767247097567
 31
0.0
  0
INSERT
  5
709
330
6DD
100
AcDbEntity
  8
0
  6
BYBLOCK
 62
     4
100
AcDbBlockReference
  2
_OPEN
 10
683.538209684365
 20
326.8766247097568
 30
0.0
 41
14.0
 42
14.0
 43
14.0
 50
270.0
  0
INSERT
  5
70A
330
6DD
100
AcDbEntity
  8
0
  6
BYBLOCK
 62
     4
100
AcDbBlockReference
  2
_OPEN
 10
683.538209684365
 20
276.8767247097567
 30
0.0
 41
14.0
 42
14.0
 43
14.0
 50
90.0
  0
MTEXT
  5
70B
330
6DD
100
AcDbEntity
  8
0
  6
BYBLOCK
 62
     4
100
AcDbMText
 10
673.538209684365
 20
301.8766747097568
 30
0.0
 40
12.0
 41
0.0
 71
     5
 72
     1
  1
\A1;50
 11
0.0
 21
1.0
 31
0.0
1001
ACAD
1000
MTEXTBEGIN
1070
    73
1070
     1
1070
    44
1040
1.0
1070
    74
1070
     0
1000
MTEXTEND
1000
MTEXTBEGIN
1070
    73
1070
     1
1070
    44
1040
1.0
1070
    74
1070
     0
1000
MTEXTEND
1000
MTEXTBEGIN
1070
    73
1070
     1
1070
    44
1040
1.0
1070
    74
1070
     0
1000
MTEXTEND
  0
POINT
  5
70C
330
6DD
100
AcDbEntity
  8
DEFPOINTS
  6
BYBLOCK
 62
     0
100
AcDbPoint
 10
753.1228018098049
 20
326.8766247097568
 30
0.0
  0
POINT
  5
70D
330
6DD
100
AcDbEntity
  8
DEFPOINTS
  6
BYBLOCK
 62
     0
100
AcDbPoint
 10
781.704101809805
 20
276.8767247097567
 30
0.0
  0
POINT
  5
70E
330
6DD
100
AcDbEntity
  8
DEFPOINTS
  6
BYBLOCK
 62
     0
100
AcDbPoint
 10
683.538209684365
 20
276.8767247097567
 30
0.0
  0
ENDBLK
  5
70F
330
6DD
100
AcDbEntity
  8
0
100
AcDbBlockEnd
  0
BLOCK
  5
6EC
330
6EB
100
AcDbEntity
  8
0
100
AcDbBlockBegin
  2
*D10
 70
     1
 10
0.0
 20
0.0
 30
0.0
  3
*D10
  1

  0
LINE
  5
6ED
330
6EB
100
AcDbEntity
  8
0
  6
BYBLOCK
 62
     4
100
AcDbLine
 10
709.5477018098051
 20
616.8767247097568
 30
0.0
 11
640.2186137599547
 21
616.8767247097568
 31
0.0
  0
LINE
  5
6EE
330
6EB
100
AcDbEntity
  8
0
  6
BYBLOCK
 62
     4
100
AcDbLine
 10
779.6476018098051
 20
256.8767247097567
 30
0.0
 11
640.2186137599547
 21
256.8767247097567
 31
0.0
  0
LINE
  5
6EF
330
6EB
100
AcDbEntity
  8
0
  6
BYBLOCK
 62
     4
100
AcDbLine
 10
646.2186137599546
 20
602.8767247097568
 30
0.0
 11
646.2186137599546
 21
270.8767247097568
 31
0.0
  0
INSERT
  5
6F0
330
6EB
100
AcDbEntity
  8
0
  6
BYBLOCK
 62
     4
100
AcDbBlockReference
  2
_OPEN
 10
646.2186137599546
 20
616.8767247097568
 30
0.0
 41
14.0
 42
14.0
 43
14.0
 50
90.0
  0
INSERT
  5
6F1
330
6EB
100
AcDbEntity
  8
0
  6
BYBLOCK
 62
     4
100
AcDbBlockReference
  2
_OPEN
 10
646.2186137599546
 20
256.8767247097567
 30
0.0
 41
14.0
 42
14.0
 43
14.0
 50
270.0
  0
MTEXT
  5
6F2
330
6EB
100
AcDbEntity
  8
0
  6
BYBLOCK
 62
     4
100
AcDbMText
 10
636.2186137599547
 20
436.8767247097568
 30
0.0
 40
12.0
 41
0.0
 71
     5
 72
     1
  1
\A1;360
 11
0.0
 21
1.0
 31
0.0
1001
ACAD
1000
MTEXTBEGIN
1070
    73
1070
     1
1070
    44
1040
1.0
1070
    74
1070
     0
1000
MTEXTEND
1000
MTEXTBEGIN
1070
    73
1070
     1
1070
    44
1040
1.0
1070
    74
1070
     0
1000
MTEXTEND
1000
MTEXTBEGIN
1070
    73
1070
     1
1070
    44
1040
1.0
1070
    74
1070
     0
1000
MTEXTEND
  0
POINT
  5
6F3
330
6EB
100
AcDbEntity
  8
DEFPOINTS
  6
BYBLOCK
 62
     0
100
AcDbPoint
 10
721.5477018098051
 20
616.8767247097568
 30
0.0
  0
POINT
  5
6F4
330
6EB
100
AcDbEntity
  8
DEFPOINTS
  6
BYBLOCK
 62
     0
100
AcDbPoint
 10
791.6476018098051
 20
256.8767247097567
 30
0.0
  0
POINT
  5
6F5
330
6EB
100
AcDbEntity
  8
DEFPOINTS
  6
BYBLOCK
 62
     0
100
AcDbPoint
 10
646.2186137599546
 20
256.8767247097567
 30
0.0
  0
ENDBLK
  5
6F6
330
6EB
100
AcDbEntity
  8
0
100
AcDbBlockEnd
  0
BLOCK
  5
7B4
330
770
100
AcDbEntity
  8
0
100
AcDbBlockBegin
  2
*D11
 70
     1
 10
0.0
 20
0.0
 30
0.0
  3
*D11
  1

  0
LINE
  5
7B5
330
770
100
AcDbEntity
  8
0
  6
BYBLOCK
 62
     4
100
AcDbLine
 10
925.997701809805
 20
268.8767247097568
 30
0.0
 11
925.997701809805
 21
190.8518730138789
 31
0.0
  0
LINE
  5
7B6
330
770
100
AcDbEntity
  8
0
  6
BYBLOCK
 62
     4
100
AcDbLine
 10
779.0977018098051
 20
268.8767247097568
 30
0.0
 11
779.0977018098051
 21
190.8518730138789
 31
0.0
  0
LINE
  5
7B7
330
770
100
AcDbEntity
  8
0
  6
BYBLOCK
 62
     4
100
AcDbLine
 10
793.0977018098051
 20
196.8518730138789
 30
0.0
 11
911.9977018098049
 21
196.8518730138789
 31
0.0
  0
INSERT
  5
7B8
330
770
100
AcDbEntity
  8
0
  6
BYBLOCK
 62
     4
100
AcDbBlockReference
  2
_OPEN
 10
779.0977018098051
 20
196.8518730138789
 30
0.0
 41
14.0
 42
14.0
 43
14.0
 50
180.0
  0
INSERT
  5
7B9
330
770
100
AcDbEntity
  8
0
  6
BYBLOCK
 62
     4
100
AcDbBlockReference
  2
_OPEN
 10
925.997701809805
 20
196.8518730138789
 30
0.0
 41
14.0
 42
14.0
 43
14.0
  0
MTEXT
  5
7BA
330
770
100
AcDbEntity
  8
0
  6
BYBLOCK
 62
     4
100
AcDbMText
 10
882.7977018098049
 20
206.8518730138789
 30
0.0
 40
12.0
 41
0.0
 71
     5
 72
     1
  1
\A1;φ147
1001
ACAD
1000
MTEXTBEGIN
1070
    73
1070
     1
1070
    44
1040
1.0
1070
    74
1070
     0
1000
MTEXTEND
1000
MTEXTBEGIN
1070
    73
1070
     1
1070
    44
1040
1.0
1070
    74
1070
     0
1000
MTEXTEND
1000
MTEXTBEGIN
1070
    73
1070
     1
1070
    44
1040
1.0
1070
    74
1070
     0
1000
MTEXTEND
  0
POINT
  5
7BB
330
770
100
AcDbEntity
  8
DEFPOINTS
  6
BYBLOCK
 62
     0
100
AcDbPoint
 10
925.997701809805
 20
280.8767247097567
 30
0.0
  0
POINT
  5
7BC
330
770
100
AcDbEntity
  8
DEFPOINTS
  6
BYBLOCK
 62
     0
100
AcDbPoint
 10
779.0977018098051
 20
280.8767247097567
 30
0.0
  0
POINT
  5
7BD
330
770
100
AcDbEntity
  8
DEFPOINTS
  6
BYBLOCK
 62
     0
100
AcDbPoint
 10
779.0977018098051
 20
196.8518730138789
 30
0.0
  0
ENDBLK
  5
7BE
330
770
100
AcDbEntity
  8
0
100
AcDbBlockEnd
  0
BLOCK
  5
7D0
330
7CF
100
AcDbEntity
  8
0
100
AcDbBlockBegin
  2
*D12
 70
     1
 10
0.0
 20
0.0
 30
0.0
  3
*D12
  1

  0
LINE
  5
7D1
330
7CF
100
AcDbEntity
  8
0
  6
BYBLOCK
 62
     4
100
AcDbLine
 10
1383.329301809805
 20
615.4202247097567
 30
0.0
 11
1383.329301809805
 21
668.7072185961042
 31
0.0
  0
LINE
  5
7D2
330
7CF
100
AcDbEntity
  8
0
  6
BYBLOCK
 62
     4
100
AcDbLine
 10
1183.329301809805
 20
615.4202247097567
 30
0.0
 11
1183.329301809805
 21
668.7072185961042
 31
0.0
  0
LINE
  5
7D3
330
7CF
100
AcDbEntity
  8
0
  6
BYBLOCK
 62
     4
100
AcDbLine
 10
1369.329301809805
 20
662.7072185961042
 30
0.0
 11
1197.329301809805
 21
662.7072185961042
 31
0.0
  0
INSERT
  5
7D4
330
7CF
100
AcDbEntity
  8
0
  6
BYBLOCK
 62
     4
100
AcDbBlockReference
  2
_OPEN
 10
1383.329301809805
 20
662.7072185961042
 30
0.0
 41
14.0
 42
14.0
 43
14.0
  0
INSERT
  5
7D5
330
7CF
100
AcDbEntity
  8
0
  6
BYBLOCK
 62
     4
100
AcDbBlockReference
  2
_OPEN
 10
1183.329301809805
 20
662.7072185961042
 30
0.0
 41
14.0
 42
14.0
 43
14.0
 50
180.0
  0
MTEXT
  5
7D6
330
7CF
100
AcDbEntity
  8
0
  6
BYBLOCK
 62
     4
100
AcDbMText
 10
1283.329301809805
 20
672.7072185961041
 30
0.0
 40
12.0
 41
0.0
 71
     5
 72
     1
  1
\A1;200
1001
ACAD
1000
MTEXTBEGIN
1070
    73
1070
     1
1070
    44
1040
1.0
1070
    74
1070
     0
1000
MTEXTEND
1000
MTEXTBEGIN
1070
    73
1070
     1
1070
    44
1040
1.0
1070
    74
1070
     0
1000
MTEXTEND
1000
MTEXTBEGIN
1070
    73
1070
     1
1070
    44
1040
1.0
1070
    74
1070
     0
1000
MTEXTEND
  0
POINT
  5
7D7
330
7CF
100
AcDbEntity
  8
DEFPOINTS
  6
BYBLOCK
 62
     0
100
AcDbPoint
 10
1383.329301809805
 20
603.4202247097567
 30
0.0
  0
POINT
  5
7D8
330
7CF
100
AcDbEntity
  8
DEFPOINTS
  6
BYBLOCK
 62
     0
100
AcDbPoint
 10
1183.329301809805
 20
603.4202247097567
 30
0.0
  0
POINT
  5
7D9
330
7CF
100
AcDbEntity
  8
DEFPOINTS
  6
BYBLOCK
 62
     0
100
AcDbPoint
 10
1183.329301809805
 20
662.7072185961042
 30
0.0
  0
ENDBLK
  5
7DA
330
7CF
100
AcDbEntity
  8
0
100
AcDbBlockEnd
  0
BLOCK
  5
7DD
330
7DC
100
AcDbEntity
  8
0
100
AcDbBlockBegin
  2
*D13
 70
     1
 10
0.0
 20
0.0
 30
0.0
  3
*D13
  1

  0
LINE
  5
7DE
330
7DC
100
AcDbEntity
  8
0
  6
BYBLOCK
 62
     4
100
AcDbLine
 10
1419.328901809805
 20
628.8767247097568
 30
0.0
 11
1419.328901809805
 21
703.7774633796475
 31
0.0
  0
LINE
  5
7DF
330
7DC
100
AcDbEntity
  8
0
  6
BYBLOCK
 62
     4
100
AcDbLine
 10
1147.329701809805
 20
628.8767247097568
 30
0.0
 11
1147.329701809805
 21
703.7774633796475
 31
0.0
  0
LINE
  5
7E0
330
7DC
100
AcDbEntity
  8
0
  6
BYBLOCK
 62
     4
100
AcDbLine
 10
1405.328901809805
 20
697.7774633796475
 30
0.0
 11
1161.329701809804
 21
697.7774633796475
 31
0.0
  0
INSERT
  5
7E1
330
7DC
100
AcDbEntity
  8
0
  6
BYBLOCK
 62
     4
100
AcDbBlockReference
  2
_OPEN
 10
1419.328901809805
 20
697.7774633796475
 30
0.0
 41
14.0
 42
14.0
 43
14.0
  0
INSERT
  5
7E2
330
7DC
100
AcDbEntity
  8
0
  6
BYBLOCK
 62
     4
100
AcDbBlockReference
  2
_OPEN
 10
1147.329701809805
 20
697.7774633796475
 30
0.0
 41
14.0
 42
14.0
 43
14.0
 50
180.0
  0
MTEXT
  5
7E3
330
7DC
100
AcDbEntity
  8
0
  6
BYBLOCK
 62
     4
100
AcDbMText
 10
1283.329301809805
 20
707.7774633796475
 30
0.0
 40
12.0
 41
0.0
 71
     5
 72
     1
  1
\A1;272
1001
ACAD
1000
MTEXTBEGIN
1070
    73
1070
     1
1070
    44
1040
1.0
1070
    74
1070
     0
1000
MTEXTEND
1000
MTEXTBEGIN
1070
    73
1070
     1
1070
    44
1040
1.0
1070
    74
1070
     0
1000
MTEXTEND
1000
MTEXTBEGIN
1070
    73
1070
     1
1070
    44
1040
1.0
1070
    74
1070
     0
1000
MTEXTEND
  0
POINT
  5
7E4
330
7DC
100
AcDbEntity
  8
DEFPOINTS
  6
BYBLOCK
 62
     0
100
AcDbPoint
 10
1419.328901809805
 20
616.8767247097568
 30
0.0
  0
POINT
  5
7E5
330
7DC
100
AcDbEntity
  8
DEFPOINTS
  6
BYBLOCK
 62
     0
100
AcDbPoint
 10
1147.329701809805
 20
616.8767247097568
 30
0.0
  0
POINT
  5
7E6
330
7DC
100
AcDbEntity
  8
DEFPOINTS
  6
BYBLOCK
 62
     0
100
AcDbPoint
 10
1147.329701809805
 20
697.7774633796475
 30
0.0
  0
ENDBLK
  5
7E7
330
7DC
100
AcDbEntity
  8
0
100
AcDbBlockEnd
  0
BLOCK
  5
7EA
330
7E9
100
AcDbEntity
  8
0
100
AcDbBlockBegin
  2
*D14
 70
     1
 10
0.0
 20
0.0
 30
0.0
  3
*D14
  1

  0
LINE
  5
7EB
330
7E9
100
AcDbEntity
  8
0
  6
BYBLOCK
 62
     4
100
AcDbLine
 10
1171.329301809804
 20
599.8768247097567
 30
0.0
 11
1109.210264581067
 21
599.8768247097567
 31
0.0
  0
LINE
  5
7EC
330
7E9
100
AcDbEntity
  8
0
  6
BYBLOCK
 62
     4
100
AcDbLine
 10
1171.329301809804
 20
583.8768247097568
 30
0.0
 11
1109.210264581067
 21
583.8768247097568
 31
0.0
  0
LINE
  5
7ED
330
7E9
100
AcDbEntity
  8
0
  6
BYBLOCK
 62
     4
100
AcDbLine
 10
1115.210264581067
 20
613.8768247097567
 30
0.0
 11
1115.210264581067
 21
627.8768247097567
 31
0.0
  0
LINE
  5
7EE
330
7E9
100
AcDbEntity
  8
0
  6
BYBLOCK
 62
     4
100
AcDbLine
 10
1115.210264581067
 20
569.8768247097567
 30
0.0
 11
1115.210264581067
 21
531.8768247097567
 31
0.0
  0
LINE
  5
7EF
330
7E9
100
AcDbEntity
  8
0
  6
BYBLOCK
 62
     4
100
AcDbLine
 10
1115.210264581067
 20
599.8768247097567
 30
0.0
 11
1115.210264581067
 21
583.8768247097568
 31
0.0
  0
INSERT
  5
7F0
330
7E9
100
AcDbEntity
  8
0
  6
BYBLOCK
 62
     4
100
AcDbBlockReference
  2
_OPEN
 10
1115.210264581067
 20
599.8768247097567
 30
0.0
 41
14.0
 42
14.0
 43
14.0
 50
270.0
  0
INSERT
  5
7F1
330
7E9
100
AcDbEntity
  8
0
  6
BYBLOCK
 62
     4
100
AcDbBlockReference
  2
_OPEN
 10
1115.210264581067
 20
583.8768247097568
 30
0.0
 41
14.0
 42
14.0
 43
14.0
 50
90.0
  0
MTEXT
  5
7F2
330
7E9
100
AcDbEntity
  8
0
  6
BYBLOCK
 62
     4
100
AcDbMText
 10
1105.210264581067
 20
543.8768247097567
 30
0.0
 40
12.0
 41
0.0
 71
     5
 72
     1
  1
\A1;16
 11
0.0
 21
1.0
 31
0.0
1001
ACAD
1000
MTEXTBEGIN
1070
    73
1070
     1
1070
    44
1040
1.0
1070
    74
1070
     0
1000
MTEXTEND
1000
MTEXTBEGIN
1070
    73
1070
     1
1070
    44
1040
1.0
1070
    74
1070
     0
1000
MTEXTEND
1000
MTEXTBEGIN
1070
    73
1070
     1
1070
    44
1040
1.0
1070
    74
1070
     0
1000
MTEXTEND
  0
POINT
  5
7F3
330
7E9
100
AcDbEntity
  8
DEFPOINTS
  6
BYBLOCK
 62
     0
100
AcDbPoint
 10
1183.329301809805
 20
599.8768247097567
 30
0.0
  0
POINT
  5
7F4
330
7E9
100
AcDbEntity
  8
DEFPOINTS
  6
BYBLOCK
 62
     0
100
AcDbPoint
 10
1183.329301809805
 20
583.8768247097568
 30
0.0
  0
POINT
  5
7F5
330
7E9
100
AcDbEntity
  8
DEFPOINTS
  6
BYBLOCK
 62
     0
100
AcDbPoint
 10
1115.210264581067
 20
583.8768247097568
 30
0.0
  0
ENDBLK
  5
7F6
330
7E9
100
AcDbEntity
  8
0
100
AcDbBlockEnd
  0
BLOCK
  5
817
330
816
100
AcDbEntity
  8
0
100
AcDbBlockBegin
  2
*D15
 70
     1
 10
0.0
 20
0.0
 30
0.0
  3
*D15
  1

  0
LINE
  5
818
330
816
100
AcDbEntity
  8
0
  6
BYBLOCK
 62
     4
100
AcDbLine
 10
1135.329701809805
 20
616.8767247097568
 30
0.0
 11
1068.568973316624
 21
616.8767247097568
 31
0.0
  0
LINE
  5
819
330
816
100
AcDbEntity
  8
0
  6
BYBLOCK
 62
     4
100
AcDbLine
 10
1159.066301809805
 20
591.8768247097567
 30
0.0
 11
1068.568973316624
 21
591.8768247097567
 31
0.0
  0
LINE
  5
81A
330
816
100
AcDbEntity
  8
0
  6
BYBLOCK
 62
     4
100
AcDbLine
 10
1074.568973316624
 20
630.8767247097567
 30
0.0
 11
1074.568973316624
 21
644.8767247097568
 31
0.0
  0
LINE
  5
81B
330
816
100
AcDbEntity
  8
0
  6
BYBLOCK
 62
     4
100
AcDbLine
 10
1074.568973316624
 20
577.8768247097567
 30
0.0
 11
1074.568973316624
 21
535.8768247097567
 31
0.0
  0
LINE
  5
81C
330
816
100
AcDbEntity
  8
0
  6
BYBLOCK
 62
     4
100
AcDbLine
 10
1074.568973316624
 20
616.8767247097568
 30
0.0
 11
1074.568973316624
 21
591.8768247097567
 31
0.0
  0
INSERT
  5
81D
330
816
100
AcDbEntity
  8
0
  6
BYBLOCK
 62
     4
100
AcDbBlockReference
  2
_OPEN
 10
1074.568973316624
 20
616.8767247097568
 30
0.0
 41
14.0
 42
14.0
 43
14.0
 50
270.0
  0
INSERT
  5
81E
330
816
100
AcDbEntity
  8
0
  6
BYBLOCK
 62
     4
100
AcDbBlockReference
  2
_OPEN
 10
1074.568973316624
 20
591.8768247097567
 30
0.0
 41
14.0
 42
14.0
 43
14.0
 50
90.0
  0
MTEXT
  5
81F
330
816
100
AcDbEntity
  8
0
  6
BYBLOCK
 62
     4
100
AcDbMText
 10
1064.568973316624
 20
549.8768247097567
 30
0.0
 40
12.0
 41
0.0
 71
     5
 72
     1
  1
\A1;25
 11
0.0
 21
1.0
 31
0.0
1001
ACAD
1000
MTEXTBEGIN
1070
    73
1070
     1
1070
    44
1040
1.0
1070
    74
1070
     0
1000
MTEXTEND
1000
MTEXTBEGIN
1070
    73
1070
     1
1070
    44
1040
1.0
1070
    74
1070
     0
1000
MTEXTEND
1000
MTEXTBEGIN
1070
    73
1070
     1
1070
    44
1040
1.0
1070
    74
1070
     0
1000
MTEXTEND
  0
POINT
  5
820
330
816
100
AcDbEntity
  8
DEFPOINTS
  6
BYBLOCK
 62
     0
100
AcDbPoint
 10
1147.329701809805
 20
616.8767247097568
 30
0.0
  0
POINT
  5
821
330
816
100
AcDbEntity
  8
DEFPOINTS
  6
BYBLOCK
 62
     0
100
AcDbPoint
 10
1171.066301809805
 20
591.8768247097567
 30
0.0
  0
POINT
  5
822
330
816
100
AcDbEntity
  8
DEFPOINTS
  6
BYBLOCK
 62
     0
100
AcDbPoint
 10
1074.568973316624
 20
591.8768247097567
 30
0.0
  0
ENDBLK
  5
823
330
816
100
AcDbEntity
  8
0
100
AcDbBlockEnd
  0
ENDSEC
  0
SECTION
  2
ENTITIES
  0
LINE
  5
121
330
19
100
AcDbEntity
  8
ZUWAKU
 62
     7
 48
10.0
100
AcDbLine
 10
19.90074647074652
 20
48.1669006995453
 30
0.0
 11
1611.900746470746
 21
48.16690069954507
 31
0.0
  0
LINE
  5
122
330
19
100
AcDbEntity
  8
ZUWAKU
  6
CONTINUOUS
 62
     7
100
AcDbLine
 10
1611.900746470746
 20
1124.166900699545
 30
0.0
 11
19.90074647074652
 21
1124.166900699545
 31
0.0
  0
LINE
  5
123
330
19
100
AcDbEntity
  8
ZUWAKU
  6
CONTINUOUS
 62
     7
100
AcDbLine
 10
1611.900746470746
 20
24.16690069954529
 30
0.0
 11
19.90074647074652
 21
24.16690069954529
 31
0.0
  0
LINE
  5
124
330
19
100
AcDbEntity
  8
ZUWAKU
  6
CONTINUOUS
 62
     7
100
AcDbLine
 10
19.90074647074652
 20
1124.166900699545
 30
0.0
 11
19.90074647074652
 21
24.16690069954529
 31
0.0
  0
LINE
  5
125
330
19
100
AcDbEntity
  8
ZUWAKU
 62
     7
 48
10.0
100
AcDbLine
 10
88.91574076238157
 20
24.16690069954529
 30
0.0
 11
88.91574076238157
 21
48.1669006995453
 31
0.0
  0
TEXT
  5
126
330
19
100
AcDbEntity
  8
ZUWAKU
 62
     7
100
AcDbText
 10
31.91332132304342
 20
27.64761340998802
 30
0.0
 40
16.0
  1
品 種
100
AcDbText
  0
LINE
  5
127
330
19
100
AcDbEntity
  8
ZUWAKU
 62
     7
 48
10.0
100
AcDbLine
 10
552.0054677130756
 20
24.16690069954529
 30
0.0
 11
552.0054677130756
 21
48.16690069954521
 31
0.0
  0
LINE
  5
128
330
19
100
AcDbEntity
  8
ZUWAKU
 62
     7
 48
10.0
100
AcDbLine
 10
418.8274955845217
 20
24.16690069954529
 30
0.0
 11
418.8274955845218
 21
48.16690069954525
 31
0.0
  0
TEXT
  5
129
330
19
100
AcDbEntity
  8
ZUWAKU
 62
     7
100
AcDbText
 10
564.4260762822405
 20
27.88656214294769
 30
0.0
 40
16.0
  1
Ｂ型　ＶＵ．ＶＰ１２５
100
AcDbText
  0
TEXT
  5
12A
330
19
100
AcDbEntity
  8
ZUWAKU
 62
     7
100
AcDbText
 10
430.711957737576
 20
28.96889043994906
 30
0.0
 40
16.0
  1
品名・ｻ ｲ ｽﾞ
100
AcDbText
  0
TEXT
  5
12B
330
19
100
AcDbEntity
  8
ZUWAKU
 62
     7
100
AcDbText
 10
100.503666760442
 20
28.80785192669509
 30
0.0
 40
16.0
  1
ビルマス
100
AcDbText
  0
LINE
  5
12C
330
19
100
AcDbEntity
  8
ZUWAKU
 62
     7
 48
10.0
100
AcDbLine
 10
1537.246006285983
 20
24.16690069954474
 30
0.0
 11
1537.246006285983
 21
48.16690069954507
 31
0.0
  0
LINE
  5
12D
330
19
100
AcDbEntity
  8
ZUWAKU
 62
     7
 48
10.0
100
AcDbLine
 10
1467.423590774814
 20
24.16690069954483
 30
0.0
 11
1467.423590774814
 21
48.16690069954509
 31
0.0
  0
TEXT
  5
12E
330
19
100
AcDbEntity
  8
ZUWAKU
 62
     7
100
AcDbText
 10
1479.19091629413
 20
27.08628325011705
 30
0.0
 40
16.0
  1
尺 度
100
AcDbText
  0
TEXT
  5
12F
330
19
100
AcDbEntity
  8
ZUWAKU
 62
     7
100
AcDbText
 10
1559.27471636407
 20
27.71150653553059
 30
0.0
 40
16.0
  1
1/4
100
AcDbText
  0
TEXT
  5
130
330
19
100
AcDbEntity
  8
ZUWAKU
 62
     7
100
AcDbText
 10
1308.30613703518
 20
28.40748782453036
 30
0.0
 40
16.0
  1
ＧＬ１７
100
AcDbText
  0
TEXT
  5
131
330
19
100
AcDbEntity
  8
ZUWAKU
 62
     7
100
AcDbText
 10
1240.472447976041
 20
27.90554632275259
 30
0.0
 40
16.0
  1
品 番
100
AcDbText
  0
LINE
  5
132
330
19
100
AcDbEntity
  8
ZUWAKU
 62
     7
 48
10.0
100
AcDbLine
 10
1228.46999593825
 20
24.16690069954464
 30
0.0
 11
1228.46999593825
 21
48.16690069954512
 31
0.0
  0
LINE
  5
133
330
19
100
AcDbEntity
  8
ZUWAKU
 62
     7
 48
10.0
100
AcDbLine
 10
1297.321307773629
 20
24.16690069954464
 30
0.0
 11
1297.321307773629
 21
48.1669006995451
 31
0.0
  0
TEXT
  5
134
330
19
100
AcDbEntity
  8
ZUWAKU
 62
     7
 48
10.0
100
AcDbText
 10
1292.407013373002
 20
5.798621502208334
 30
0.0
 40
16.0
  1
積水化学工業株式会社  建材
100
AcDbText
  0
LINE
  5
135
330
19
100
AcDbEntity
  8
ZUWAKU
  6
CONTINUOUS
 62
     7
100
AcDbLine
 10
1611.900746470746
 20
1124.166900699545
 30
0.0
 11
1611.900746470746
 21
24.16690069954529
 31
0.0
  0
LINE
  5
324
330
19
100
AcDbEntity
  8
CENTER_L
  6
CENTER
 62
     1
 48
5.0
100
AcDbLine
 10
406.6866747749984
 20
254.1845744708217
 30
0.0
 11
406.6866747749984
 21
641.1152744708218
 31
0.0
  0
LINE
  5
325
330
19
100
AcDbEntity
  8
SEIHIN
  6
CONTINUOUS
 62
     3
100
AcDbLine
 10
486.4844747749985
 20
343.8210744708217
 30
0.0
 11
505.6855747749985
 21
610.7544744708217
 31
0.0
  0
LINE
  5
326
330
19
100
AcDbEntity
  8
SEIHIN
  6
CONTINUOUS
 62
     3
100
AcDbLine
 10
517.4844747749984
 20
343.8210744708217
 30
0.0
 11
536.6855747749984
 21
610.7544744708217
 31
0.0
  0
LINE
  5
327
330
19
100
AcDbEntity
  8
SEIHIN
  6
CONTINUOUS
 62
     3
100
AcDbLine
 10
295.8887747749983
 20
343.8210744708217
 30
0.0
 11
276.6877747749983
 21
610.7544744708217
 31
0.0
  0
LINE
  5
328
330
19
100
AcDbEntity
  8
SEIHIN
  6
CONTINUOUS
 62
     3
100
AcDbLine
 10
326.8887747749984
 20
343.8210744708217
 30
0.0
 11
307.6877747749983
 21
610.7544744708217
 31
0.0
  0
DIMENSION
  5
32A
330
19
100
AcDbEntity
  8
SUNPOU
  6
CONTINUOUS
 62
     4
100
AcDbDimension
  2
*D1
 10
296.2532316271569
 20
208.2197002958343
 30
0.0
 11
406.6866238259414
 21
218.2197002958343
 31
0.0
 12
-16.64262703480653
 22
11.87774976106493
 32
0.0
 70
    32
  1
{220}
  3
STANDARD
100
AcDbAlignedDimension
 13
517.1200160247258
 23
338.7543744708217
 33
0.0
 14
296.2532316271569
 24
338.7543744708217
 34
0.0
100
AcDbRotatedDimension
1001
ACAD
1000
DSTYLE
1002
{
1070
   140
1040
12.0
1070
    74
1070
     0
1070
    73
1070
     0
1070
   272
1070
     0
1070
    77
1070
     3
1070
   173
1070
     1
1070
   147
1040
4.0
1070
    42
1040
20.0
1070
    44
1040
8.0
1070
    43
1040
32.0
1070
   271
1070
     0
1070
   178
1070
     4
1070
   177
1070
     4
1070
   176
1070
     4
1070
   141
1040
12.0
1070
     7
1000
_OPEN
1070
     6
1000
_OPEN
1070
    41
1040
12.0
1002
}
  0
LINE
  5
331
330
19
100
AcDbEntity
  8
SEIHIN
  6
CONTINUOUS
 62
     3
100
AcDbLine
 10
301.8157747749985
 20
338.7543744708217
 30
0.0
 11
406.6866747749984
 21
338.7543744708217
 31
0.0
  0
ARC
  5
332
330
19
100
AcDbEntity
  8
SEIHIN
  6
CONTINUOUS
 62
     3
100
AcDbCircle
 10
301.8157747749985
 20
344.7544744708217
 30
0.0
 40
6.000023999999999
100
AcDbArc
 50
188.9495919999999
 51
270.0
  0
LINE
  5
333
330
19
100
AcDbEntity
  8
SEIHIN
  6
CONTINUOUS
 62
     3
100
AcDbLine
 10
511.5575747749985
 20
338.7543744708217
 30
0.0
 11
406.6866747749984
 21
338.7543744708217
 31
0.0
  0
LINE
  5
334
330
19
100
AcDbEntity
  8
SEIHIN
  6
CONTINUOUS
 62
     3
100
AcDbLine
 10
467.5866747749985
 20
268.7544744708217
 30
0.0
 11
406.6867747749983
 21
268.7544744708217
 31
0.0
  0
LINE
  5
335
330
19
100
AcDbEntity
  8
SEIHIN
  6
CONTINUOUS
 62
     3
100
AcDbLine
 10
477.5302747749986
 20
288.7544744708217
 30
0.0
 11
406.6866747749984
 21
288.7544744708217
 31
0.0
  0
LINE
  5
336
330
19
100
AcDbEntity
  8
SEIHIN
  6
CONTINUOUS
 62
     3
100
AcDbLine
 10
480.1366747749985
 20
292.7544744708217
 30
0.0
 11
406.6866747749984
 21
292.7544744708217
 31
0.0
  0
LINE
  5
337
330
19
100
AcDbEntity
  8
SEIHIN
  6
CONTINUOUS
 62
     3
100
AcDbLine
 10
333.2366747749984
 20
292.7544744708217
 30
0.0
 11
333.2366747749984
 21
332.7544744708217
 31
0.0
  0
LINE
  5
338
330
19
100
AcDbEntity
  8
SEIHIN
  6
CONTINUOUS
 62
     3
100
AcDbLine
 10
345.7866747749983
 20
268.7544744708217
 30
0.0
 11
406.6865747749984
 21
268.7544744708217
 31
0.0
  0
LINE
  5
339
330
19
100
AcDbEntity
  8
SEIHIN
  6
CONTINUOUS
 62
     3
100
AcDbLine
 10
333.2366747749984
 20
292.7544744708217
 30
0.0
 11
406.6866747749984
 21
292.7544744708217
 31
0.0
  0
LINE
  5
33A
330
19
100
AcDbEntity
  8
SEIHIN
  6
CONTINUOUS
 62
     3
100
AcDbLine
 10
335.8430747749985
 20
288.7544744708217
 30
0.0
 11
406.6866747749984
 21
288.7544744708217
 31
0.0
  0
LINE
  5
33B
330
19
100
AcDbEntity
  8
SEIHIN
  6
CONTINUOUS
 62
     3
100
AcDbLine
 10
333.9111747749984
 20
290.2368744708216
 30
0.0
 11
333.2366747749984
 21
292.7544744708217
 31
0.0
  0
ARC
  5
33C
330
19
100
AcDbEntity
  8
SEIHIN
  6
CONTINUOUS
 62
     3
100
AcDbCircle
 10
335.8430747749985
 20
290.7544744708217
 30
0.0
 40
1.99997
100
AcDbArc
 50
194.999329
 51
270.0
  0
LINE
  5
33D
330
19
100
AcDbEntity
  8
SEIHIN
  6
CONTINUOUS
 62
     3
100
AcDbLine
 10
345.7866747749983
 20
288.7544744708217
 30
0.0
 11
345.7866747749983
 21
268.7544744708217
 31
0.0
  0
ARC
  5
33E
330
19
100
AcDbEntity
  8
SEIHIN
  6
CONTINUOUS
 62
     3
100
AcDbCircle
 10
332.8157747749985
 20
344.7544744708217
 30
0.0
 40
5.999973999999999
100
AcDbArc
 50
188.9497399999999
 51
270.0
  0
ARC
  5
33F
330
19
100
AcDbEntity
  8
SEIHIN
  6
CONTINUOUS
 62
     3
100
AcDbCircle
 10
327.2366747749984
 20
332.7544744708217
 30
0.0
 40
6.0
100
AcDbArc
 50
0.0
 51
90.0
  0
LINE
  5
340
330
19
100
AcDbEntity
  8
SEIHIN
  6
CONTINUOUS
 62
     3
100
AcDbLine
 10
480.1366747749985
 20
292.7544744708217
 30
0.0
 11
480.1366747749985
 21
332.7544744708217
 31
0.0
  0
LINE
  5
341
330
19
100
AcDbEntity
  8
SEIHIN
  6
CONTINUOUS
 62
     3
100
AcDbLine
 10
467.5866747749985
 20
288.7544744708217
 30
0.0
 11
467.5866747749985
 21
268.7544744708217
 31
0.0
  0
ARC
  5
342
330
19
100
AcDbEntity
  8
SEIHIN
  6
CONTINUOUS
 62
     3
100
AcDbCircle
 10
477.5302747749986
 20
290.7544744708217
 30
0.0
 40
1.99997
100
AcDbArc
 50
270.0
 51
345.000671
  0
LINE
  5
343
330
19
100
AcDbEntity
  8
SEIHIN
  6
CONTINUOUS
 62
     3
100
AcDbLine
 10
479.4620747749984
 20
290.2368744708216
 30
0.0
 11
480.1366747749985
 21
292.7544744708217
 31
0.0
  0
ARC
  5
344
330
19
100
AcDbEntity
  8
SEIHIN
  6
CONTINUOUS
 62
     3
100
AcDbCircle
 10
480.5575747749985
 20
344.7544744708217
 30
0.0
 40
5.999973999999999
100
AcDbArc
 50
270.0
 51
351.05026
  0
ARC
  5
345
330
19
100
AcDbEntity
  8
SEIHIN
  6
CONTINUOUS
 62
     3
100
AcDbCircle
 10
486.1366747749984
 20
332.7544744708217
 30
0.0
 40
6.0
100
AcDbArc
 50
90.0
 51
180.0
  0
ARC
  5
346
330
19
100
AcDbEntity
  8
SEIHIN
  6
CONTINUOUS
 62
     3
100
AcDbCircle
 10
511.5575747749985
 20
344.7544744708217
 30
0.0
 40
5.999973999999999
100
AcDbArc
 50
270.0
 51
351.05026
  0
LINE
  5
347
330
19
100
AcDbEntity
  8
CENTER_L
  6
CENTER
 62
     1
 48
5.0
100
AcDbLine
 10
694.0623813068486
 20
901.3640608469495
 30
0.0
 11
989.7635813068488
 21
901.3638608469493
 31
0.0
  0
LINE
  5
348
330
19
100
AcDbEntity
  8
SEIHIN
  6
CONTINUOUS
 62
     3
100
AcDbLine
 10
937.7235813068487
 20
1037.363560846949
 30
0.0
 11
717.0460813068487
 21
1003.268060846949
 31
0.0
  0
LINE
  5
349
330
19
100
AcDbEntity
  8
SEIHIN
  6
CONTINUOUS
 62
     3
100
AcDbLine
 10
717.5100813068487
 20
1000.304260846949
 30
0.0
 11
937.9105813068488
 21
1034.356960846949
 31
0.0
  0
LINE
  5
34A
330
19
100
AcDbEntity
  8
SEIHIN
  6
CONTINUOUS
 62
     3
100
AcDbLine
 10
938.3485813068487
 20
1028.482460846949
 30
0.0
 11
725.7257813068487
 21
995.6314608469496
 31
0.0
  0
LINE
  5
34B
330
19
100
AcDbEntity
  8
SEIHIN
  6
CONTINUOUS
 62
     3
100
AcDbLine
 10
939.8625813068486
 20
1009.005260846949
 30
0.0
 11
739.0543813068486
 21
977.9796608469494
 31
0.0
  0
LINE
  5
34C
330
19
100
AcDbEntity
  8
SEIHIN
  6
CONTINUOUS
 62
     3
100
AcDbLine
 10
725.7257813068487
 20
1000.680660846949
 30
0.0
 11
937.9785813068487
 21
1033.474460846949
 31
0.0
  0
LINE
  5
34D
330
19
100
AcDbEntity
  8
SEIHIN
  6
CONTINUOUS
 62
     3
100
AcDbLine
 10
939.8625813068486
 20
793.7225608469494
 30
0.0
 11
739.0542813068487
 21
824.7484608469495
 31
0.0
  0
LINE
  5
34E
330
19
100
AcDbEntity
  8
SEIHIN
  6
CONTINUOUS
 62
     3
100
AcDbLine
 10
937.7235813068487
 20
765.3641608469495
 30
0.0
 11
717.0459813068487
 21
799.4598608469494
 31
0.0
  0
LINE
  5
34F
330
19
100
AcDbEntity
  8
SEIHIN
  6
CONTINUOUS
 62
     3
100
AcDbLine
 10
717.5100813068487
 20
802.4237608469492
 30
0.0
 11
937.9105813068488
 21
768.3707608469494
 31
0.0
  0
LINE
  5
350
330
19
100
AcDbEntity
  8
SEIHIN
  6
CONTINUOUS
 62
     3
100
AcDbLine
 10
725.7257813068487
 20
802.0472608469495
 30
0.0
 11
937.9785813068487
 21
769.2533608469493
 31
0.0
  0
LINE
  5
351
330
19
100
AcDbEntity
  8
SEIHIN
  6
CONTINUOUS
 62
     3
100
AcDbLine
 10
938.3485813068487
 20
774.2452608469493
 30
0.0
 11
725.7257813068487
 21
807.0965608469494
 31
0.0
  0
ARC
  5
352
330
19
100
AcDbEntity
  8
SEIHIN
  6
CONTINUOUS
 62
     3
100
AcDbCircle
 10
838.7249813068487
 20
901.3643608469495
 30
0.0
 40
57.9001
100
AcDbArc
 50
270.0
 51
269.9998019999999
  0
ARC
  5
353
330
19
100
AcDbEntity
  8
SEIHIN
  6
CONTINUOUS
 62
     3
100
AcDbCircle
 10
838.7249813068487
 20
901.3643608469495
 30
0.0
 40
56.1501
100
AcDbArc
 50
270.0
 51
269.999796
  0
DIMENSION
  5
354
330
19
100
AcDbEntity
  8
SUNPOU
  6
CONTINUOUS
 62
     4
100
AcDbDimension
  2
*D2
 10
270.6870747749985
 20
675.5148340654256
 30
0.0
 11
406.6866747749985
 21
685.5148340654255
 31
0.0
 12
-245.3340531047988
 22
11.87774976106493
 32
0.0
 70
    32
  3
STANDARD
100
AcDbAlignedDimension
 13
542.6862747749985
 23
628.7544744708217
 33
0.0
 14
270.6870747749985
 24
628.7544744708217
 34
0.0
100
AcDbRotatedDimension
1001
ACAD
1000
DSTYLE
1002
{
1070
   140
1040
12.0
1070
    74
1070
     0
1070
    73
1070
     0
1070
   272
1070
     0
1070
    77
1070
     3
1070
   173
1070
     1
1070
   147
1040
4.0
1070
    42
1040
20.0
1070
    44
1040
8.0
1070
    43
1040
32.0
1070
   271
1070
     0
1070
   178
1070
     4
1070
   177
1070
     4
1070
   176
1070
     4
1070
   141
1040
12.0
1070
     7
1000
_OPEN
1070
     6
1000
_OPEN
1070
    41
1040
12.0
1002
}
  0
LINE
  5
356
330
19
100
AcDbEntity
  8
SEIHIN
  6
CONTINUOUS
 62
     3
100
AcDbLine
 10
307.6877747749983
 20
610.7544744708217
 30
0.0
 11
302.6870747749985
 21
613.7544744708216
 31
0.0
  0
LINE
  5
357
330
19
100
AcDbEntity
  8
SEIHIN
  6
CONTINUOUS
 62
     3
100
AcDbLine
 10
406.6866747749984
 20
628.7544744708217
 30
0.0
 11
270.6870747749985
 21
628.7544744708217
 31
0.0
  0
LINE
  5
358
330
19
100
AcDbEntity
  8
SEIHIN
  6
CONTINUOUS
 62
     3
100
AcDbLine
 10
271.6870747749985
 20
613.7544744708216
 30
0.0
 11
406.6866747749984
 21
613.7544744708216
 31
0.0
  0
LINE
  5
359
330
19
100
AcDbEntity
  8
SEIHIN
  6
CONTINUOUS
 62
     3
100
AcDbLine
 10
276.6877747749983
 20
610.7544744708217
 30
0.0
 11
406.6866747749984
 21
610.7544744708217
 31
0.0
  0
LINE
  5
35B
330
19
100
AcDbEntity
  8
SEIHIN
  6
CONTINUOUS
 62
     3
100
AcDbLine
 10
725.7257813068487
 20
1001.573460846949
 30
0.0
 11
725.7257813068487
 21
995.4998608469495
 31
0.0
  0
ARC
  5
35E
330
19
100
AcDbEntity
  8
SEIHIN
  6
CONTINUOUS
 62
     3
100
AcDbCircle
 10
718.7256813068487
 20
992.3971608469495
 30
0.0
 40
10.999993
100
AcDbArc
 50
98.78291200000001
 51
180.0
  0
ARC
  5
35F
330
19
100
AcDbEntity
  8
SEIHIN
  6
CONTINUOUS
 62
     3
100
AcDbCircle
 10
718.7316813068487
 20
992.3979608469494
 30
0.0
 40
8.000002
100
AcDbArc
 50
98.78269900000002
 51
180.0
  0
LINE
  5
366
330
19
100
AcDbEntity
  8
SEIHIN
  6
CONTINUOUS
 62
     3
100
AcDbLine
 10
276.6877747749983
 20
610.7544744708217
 30
0.0
 11
271.6870747749985
 21
613.7544744708216
 31
0.0
  0
LINE
  5
367
330
19
100
AcDbEntity
  8
SEIHIN
  6
CONTINUOUS
 62
     3
100
AcDbLine
 10
271.6870747749985
 20
613.7544744708216
 30
0.0
 11
270.6870747749985
 21
628.7544744708217
 31
0.0
  0
LINE
  5
368
330
19
100
AcDbEntity
  8
SEIHIN
  6
CONTINUOUS
 62
     3
100
AcDbLine
 10
296.0247747749983
 20
610.7544744708217
 30
0.0
 11
291.0241747749985
 21
613.7544744708216
 31
0.0
  0
ARC
  5
369
330
19
100
AcDbEntity
  8
SEIHIN
  6
CONTINUOUS
 62
     3
100
AcDbCircle
 10
292.9630747749984
 20
622.2544744708216
 30
0.0
 40
2.500018999999999
100
AcDbArc
 50
90.0
 51
183.814075
  0
LINE
  5
36A
330
19
100
AcDbEntity
  8
SEIHIN
  6
CONTINUOUS
 62
     3
100
AcDbLine
 10
291.0241747749985
 20
613.7544744708216
 30
0.0
 11
290.4685747749983
 21
622.0881744708217
 31
0.0
  0
LINE
  5
36B
330
19
100
AcDbEntity
  8
SEIHIN
  6
CONTINUOUS
 62
     3
100
AcDbLine
 10
302.6870747749985
 20
613.7544744708216
 30
0.0
 11
301.6870747749985
 21
628.7544744708217
 31
0.0
  0
LINE
  5
36C
330
19
100
AcDbEntity
  8
SEIHIN
  6
CONTINUOUS
 62
     3
100
AcDbLine
 10
296.8556747749985
 20
613.7544744708216
 30
0.0
 11
296.3040747749985
 21
622.0287744708217
 31
0.0
  0
LINE
  5
36D
330
19
100
AcDbEntity
  8
SEIHIN
  6
CONTINUOUS
 62
     3
100
AcDbLine
 10
292.9630747749984
 20
624.7544744708217
 30
0.0
 11
293.3904747749984
 21
624.7544744708217
 31
0.0
  0
LINE
  5
36E
330
19
100
AcDbEntity
  8
SEIHIN
  6
CONTINUOUS
 62
     3
100
AcDbLine
 10
296.8556747749985
 20
613.7544744708216
 30
0.0
 11
301.8562747749983
 21
610.7544744708217
 31
0.0
  0
ARC
  5
36F
330
19
100
AcDbEntity
  8
SEIHIN
  6
CONTINUOUS
 62
     3
100
AcDbCircle
 10
293.3904747749984
 20
621.8344744708217
 30
0.0
 40
2.919986
100
AcDbArc
 50
3.81538
 51
90.0
  0
LINE
  5
370
330
19
100
AcDbEntity
  8
SEIHIN
  6
CONTINUOUS
 62
     3
100
AcDbLine
 10
406.6866747749984
 20
628.7544744708217
 30
0.0
 11
542.6862747749985
 21
628.7544744708217
 31
0.0
  0
LINE
  5
371
330
19
100
AcDbEntity
  8
SEIHIN
  6
CONTINUOUS
 62
     3
100
AcDbLine
 10
541.6862747749985
 20
613.7544744708216
 30
0.0
 11
406.6866747749984
 21
613.7544744708216
 31
0.0
  0
LINE
  5
372
330
19
100
AcDbEntity
  8
SEIHIN
  6
CONTINUOUS
 62
     3
100
AcDbLine
 10
536.6855747749984
 20
610.7544744708217
 30
0.0
 11
406.6866747749984
 21
610.7544744708217
 31
0.0
  0
LINE
  5
385
330
19
100
AcDbEntity
  8
SEIHIN
  6
CONTINUOUS
 62
     3
100
AcDbLine
 10
505.6855747749985
 20
610.7544744708217
 30
0.0
 11
510.6862747749985
 21
613.7544744708216
 31
0.0
  0
LINE
  5
387
330
19
100
AcDbEntity
  8
SEIHIN
  6
CONTINUOUS
 62
     3
100
AcDbLine
 10
510.6862747749985
 20
613.7544744708216
 30
0.0
 11
511.6862747749985
 21
628.7544744708217
 31
0.0
  0
LINE
  5
388
330
19
100
AcDbEntity
  8
SEIHIN
  6
CONTINUOUS
 62
     3
100
AcDbLine
 10
516.5176747749986
 20
613.7544744708216
 30
0.0
 11
511.5170747749984
 21
610.7544744708217
 31
0.0
  0
LINE
  5
389
330
19
100
AcDbEntity
  8
SEIHIN
  6
CONTINUOUS
 62
     3
100
AcDbLine
 10
517.3485747749984
 20
610.7544744708217
 30
0.0
 11
522.3491747749985
 21
613.7544744708216
 31
0.0
  0
LINE
  5
38A
330
19
100
AcDbEntity
  8
SEIHIN
  6
CONTINUOUS
 62
     3
100
AcDbLine
 10
516.5176747749986
 20
613.7544744708216
 30
0.0
 11
517.0692747749986
 21
622.0287744708217
 31
0.0
  0
LINE
  5
38B
330
19
100
AcDbEntity
  8
SEIHIN
  6
CONTINUOUS
 62
     3
100
AcDbLine
 10
522.3491747749985
 20
613.7544744708216
 30
0.0
 11
522.9047747749985
 21
622.0881744708217
 31
0.0
  0
LINE
  5
38C
330
19
100
AcDbEntity
  8
SEIHIN
  6
CONTINUOUS
 62
     3
100
AcDbLine
 10
520.4102747749984
 20
624.7544744708217
 30
0.0
 11
519.9828747749984
 21
624.7544744708217
 31
0.0
  0
ARC
  5
38D
330
19
100
AcDbEntity
  8
SEIHIN
  6
CONTINUOUS
 62
     3
100
AcDbCircle
 10
519.9828747749984
 20
621.8344744708217
 30
0.0
 40
2.919986
100
AcDbArc
 50
90.0
 51
176.1846199999999
  0
ARC
  5
38E
330
19
100
AcDbEntity
  8
SEIHIN
  6
CONTINUOUS
 62
     3
100
AcDbCircle
 10
520.4102747749984
 20
622.2544744708216
 30
0.0
 40
2.500018999999999
100
AcDbArc
 50
356.1859249999999
 51
90.0
  0
LINE
  5
38F
330
19
100
AcDbEntity
  8
SEIHIN
  6
CONTINUOUS
 62
     3
100
AcDbLine
 10
536.6855747749984
 20
610.7544744708217
 30
0.0
 11
541.6862747749985
 21
613.7544744708216
 31
0.0
  0
LINE
  5
390
330
19
100
AcDbEntity
  8
SEIHIN
  6
CONTINUOUS
 62
     3
100
AcDbLine
 10
541.6862747749985
 20
613.7544744708216
 30
0.0
 11
542.6862747749985
 21
628.7544744708217
 31
0.0
  0
LINE
  5
391
330
19
100
AcDbEntity
  8
CENTER_L
  6
CENTER
 62
     1
 48
5.0
100
AcDbLine
 10
838.7250813068487
 20
826.7455608469495
 30
0.0
 11
838.7252813068487
 21
972.9483608469495
 31
0.0
  0
LINE
  5
392
330
19
100
AcDbEntity
  8
SEIHIN
  6
CONTINUOUS
 62
     3
100
AcDbLine
 10
736.5122813068487
 20
901.3645608469493
 30
0.0
 11
736.5125813068487
 21
827.7132608469495
 31
0.0
  0
LINE
  5
393
330
19
100
AcDbEntity
  8
SEIHIN
  6
CONTINUOUS
 62
     3
100
AcDbLine
 10
716.6024813068487
 20
901.3645608469493
 30
0.0
 11
716.6025813068486
 21
811.0780608469495
 31
0.0
  0
LINE
  5
394
330
19
100
AcDbEntity
  8
SEIHIN
  6
CONTINUOUS
 62
     3
100
AcDbLine
 10
707.7255813068486
 20
901.3646608469494
 30
0.0
 11
707.7256813068487
 21
810.3309608469494
 31
0.0
  0
LINE
  5
395
330
19
100
AcDbEntity
  8
SEIHIN
  6
CONTINUOUS
 62
     3
100
AcDbLine
 10
710.7314813068487
 20
901.3646608469494
 30
0.0
 11
710.7314813068487
 21
810.3299608469495
 31
0.0
  0
LINE
  5
396
330
19
100
AcDbEntity
  8
SEIHIN
  6
CONTINUOUS
 62
     3
100
AcDbLine
 10
711.6138813068487
 20
901.3646608469494
 30
0.0
 11
711.6139813068486
 21
811.0865608469493
 31
0.0
  0
LINE
  5
397
330
19
100
AcDbEntity
  8
SEIHIN
  6
CONTINUOUS
 62
     3
100
AcDbLine
 10
716.6024813068487
 20
901.3635608469494
 30
0.0
 11
716.6027813068486
 21
991.6499608469493
 31
0.0
  0
LINE
  5
398
330
19
100
AcDbEntity
  8
SEIHIN
  6
CONTINUOUS
 62
     3
100
AcDbLine
 10
736.5122813068487
 20
901.3634608469494
 30
0.0
 11
736.5125813068487
 21
975.0147608469495
 31
0.0
  0
LINE
  5
399
330
19
100
AcDbEntity
  8
SEIHIN
  6
CONTINUOUS
 62
     3
100
AcDbLine
 10
711.6136813068486
 20
901.3635608469494
 30
0.0
 11
711.6139813068486
 21
991.6414608469494
 31
0.0
  0
LINE
  5
39A
330
19
100
AcDbEntity
  8
SEIHIN
  6
CONTINUOUS
 62
     3
100
AcDbLine
 10
707.7253813068486
 20
901.3635608469494
 30
0.0
 11
707.7256813068487
 21
992.3971608469495
 31
0.0
  0
LINE
  5
39B
330
19
100
AcDbEntity
  8
SEIHIN
  6
CONTINUOUS
 62
     3
100
AcDbLine
 10
710.7313813068486
 20
901.3635608469494
 30
0.0
 11
710.7316813068487
 21
992.3980608469493
 31
0.0
  0
LINE
  5
39C
330
19
100
AcDbEntity
  8
SEIHIN
  6
CONTINUOUS
 62
     3
100
AcDbLine
 10
718.5887813068486
 20
992.5625608469495
 30
0.0
 11
736.5125813068487
 21
977.5869608469495
 31
0.0
  0
LINE
  5
39D
330
19
100
AcDbEntity
  8
SEIHIN
  6
CONTINUOUS
 62
     3
100
AcDbLine
 10
719.7256813068487
 20
994.5728608469494
 30
0.0
 11
725.7257813068487
 21
995.4998608469495
 31
0.0
  0
LINE
  5
39E
330
19
100
AcDbEntity
  8
SEIHIN
  6
CONTINUOUS
 62
     3
100
AcDbLine
 10
719.7256813068487
 20
997.6186608469495
 30
0.0
 11
725.7257813068487
 21
998.5456608469494
 31
0.0
  0
LINE
  5
39F
330
19
100
AcDbEntity
  8
SEIHIN
  6
CONTINUOUS
 62
     3
100
AcDbLine
 10
718.3923813068487
 20
999.5476608469493
 30
0.0
 11
719.7256813068487
 21
999.7535608469496
 31
0.0
  0
LINE
  5
3A0
330
19
100
AcDbEntity
  8
SEIHIN
  6
CONTINUOUS
 62
     3
100
AcDbLine
 10
719.7256813068487
 20
1000.646460846949
 30
0.0
 11
719.7256813068487
 21
994.5728608469494
 31
0.0
  0
LINE
  5
3A1
330
19
100
AcDbEntity
  8
SEIHIN
  6
CONTINUOUS
 62
     3
100
AcDbLine
 10
719.7256813068487
 20
994.7044608469493
 30
0.0
 11
719.1447813068487
 21
994.6146608469494
 31
0.0
  0
ARC
  5
3A2
330
19
100
AcDbEntity
  8
SEIHIN
  6
CONTINUOUS
 62
     3
100
AcDbCircle
 10
719.6139813068486
 20
991.6413608469495
 30
0.0
 40
8.000010000000001
100
AcDbArc
 50
98.78340700000002
 51
180.0
  0
ARC
  5
3A3
330
19
100
AcDbEntity
  8
SEIHIN
  6
CONTINUOUS
 62
     3
100
AcDbCircle
 10
719.6027813068487
 20
991.6497608469494
 30
0.0
 40
2.999990999999999
100
AcDbArc
 50
98.78348000000002
 51
180.0
  0
ARC
  5
3A4
330
19
100
AcDbEntity
  8
SEIHIN
  6
CONTINUOUS
 62
     3
100
AcDbCircle
 10
739.5125813068487
 20
975.0147608469495
 30
0.0
 40
2.999990999999999
100
AcDbArc
 50
98.78348000000002
 51
180.0
  0
LINE
  5
3A5
330
19
100
AcDbEntity
  8
SEIHIN
  6
CONTINUOUS
 62
     3
100
AcDbLine
 10
718.5887813068486
 20
810.1654608469493
 30
0.0
 11
736.5125813068487
 21
825.1409608469494
 31
0.0
  0
ARC
  5
3A6
330
19
100
AcDbEntity
  8
SEIHIN
  6
CONTINUOUS
 62
     3
100
AcDbCircle
 10
739.5123813068487
 20
827.7132608469495
 30
0.0
 40
2.999983999999999
100
AcDbArc
 50
180.0
 51
261.218408
  0
LINE
  5
3A7
330
19
100
AcDbEntity
  8
SEIHIN
  6
CONTINUOUS
 62
     3
100
AcDbLine
 10
719.7256813068487
 20
808.1551608469494
 30
0.0
 11
725.7257813068487
 21
807.2281608469495
 31
0.0
  0
LINE
  5
3A8
330
19
100
AcDbEntity
  8
SEIHIN
  6
CONTINUOUS
 62
     3
100
AcDbLine
 10
719.7256813068487
 20
805.1092608469494
 30
0.0
 11
725.7257813068487
 21
804.1822608469495
 31
0.0
  0
ARC
  5
3A9
330
19
100
AcDbEntity
  8
SEIHIN
  6
CONTINUOUS
 62
     3
100
AcDbCircle
 10
718.7255813068486
 20
810.3309608469494
 30
0.0
 40
11.00000099999999
100
AcDbArc
 50
180.0
 51
261.216573
  0
LINE
  5
3AA
330
19
100
AcDbEntity
  8
SEIHIN
  6
CONTINUOUS
 62
     3
100
AcDbLine
 10
718.3923813068487
 20
803.1803608469495
 30
0.0
 11
719.7256813068487
 21
802.9744608469494
 31
0.0
  0
LINE
  5
3AB
330
19
100
AcDbEntity
  8
SEIHIN
  6
CONTINUOUS
 62
     3
100
AcDbLine
 10
719.7256813068487
 20
808.0235608469495
 30
0.0
 11
719.1447813068487
 21
808.1134608469493
 31
0.0
  0
LINE
  5
3AC
330
19
100
AcDbEntity
  8
SEIHIN
  6
CONTINUOUS
 62
     3
100
AcDbLine
 10
719.7256813068487
 20
802.0814608469494
 30
0.0
 11
719.7256813068487
 21
808.1551608469494
 31
0.0
  0
ARC
  5
3AD
330
19
100
AcDbEntity
  8
SEIHIN
  6
CONTINUOUS
 62
     3
100
AcDbCircle
 10
719.6027813068487
 20
811.0782608469493
 30
0.0
 40
2.999990999999999
100
AcDbArc
 50
180.0
 51
261.21652
  0
ARC
  5
3AE
330
19
100
AcDbEntity
  8
SEIHIN
  6
CONTINUOUS
 62
     3
100
AcDbCircle
 10
718.7316813068487
 20
810.3299608469495
 30
0.0
 40
8.000010000000001
100
AcDbArc
 50
180.0
 51
261.2165929999999
  0
ARC
  5
3AF
330
19
100
AcDbEntity
  8
SEIHIN
  6
CONTINUOUS
 62
     3
100
AcDbCircle
 10
719.6139813068486
 20
811.0865608469493
 30
0.0
 40
8.000010000000001
100
AcDbArc
 50
180.0
 51
261.2165929999999
  0
LINE
  5
3B0
330
19
100
AcDbEntity
  8
SEIHIN
  6
CONTINUOUS
 62
     3
100
AcDbLine
 10
725.7257813068487
 20
801.1544608469494
 30
0.0
 11
725.7257813068487
 21
807.2281608469495
 31
0.0
  0
LINE
  5
3B1
330
19
100
AcDbEntity
  8
SEIHIN
  6
CONTINUOUS
 62
     3
100
AcDbLine
 10
978.7245813068485
 20
901.3631608469495
 30
0.0
 11
978.7255813068487
 21
1031.363560846949
 31
0.0
  0
LINE
  5
3B2
330
19
100
AcDbEntity
  8
SEIHIN
  6
CONTINUOUS
 62
     3
100
AcDbLine
 10
972.2555813068485
 20
901.3631608469495
 30
0.0
 11
972.2555813068485
 21
1006.005260846949
 31
0.0
  0
LINE
  5
3B3
330
19
100
AcDbEntity
  8
SEIHIN
  6
CONTINUOUS
 62
     3
100
AcDbLine
 10
975.2245813068485
 20
901.3631608469495
 30
0.0
 11
975.2245813068485
 21
1031.356960846949
 31
0.0
  0
LINE
  5
3B4
330
19
100
AcDbEntity
  8
SEIHIN
  6
CONTINUOUS
 62
     3
100
AcDbLine
 10
937.7235813068487
 20
1037.363560846949
 30
0.0
 11
972.7255813068488
 21
1037.363560846949
 31
0.0
  0
LINE
  5
3B5
330
19
100
AcDbEntity
  8
SEIHIN
  6
CONTINUOUS
 62
     3
100
AcDbLine
 10
937.9105813068488
 20
1034.356960846949
 30
0.0
 11
972.2245813068486
 21
1034.356960846949
 31
0.0
  0
LINE
  5
3B6
330
19
100
AcDbEntity
  8
SEIHIN
  6
CONTINUOUS
 62
     3
100
AcDbLine
 10
937.9785813068487
 20
1033.474460846949
 30
0.0
 11
972.2245813068486
 21
1033.474460846949
 31
0.0
  0
LINE
  5
3B7
330
19
100
AcDbEntity
  8
SEIHIN
  6
CONTINUOUS
 62
     3
100
AcDbLine
 10
938.3485813068487
 20
1028.482460846949
 30
0.0
 11
956.7255813068486
 21
1028.482460846949
 31
0.0
  0
LINE
  5
3B8
330
19
100
AcDbEntity
  8
SEIHIN
  6
CONTINUOUS
 62
     3
100
AcDbLine
 10
939.8625813068486
 20
1009.005260846949
 30
0.0
 11
969.2555813068485
 21
1009.005260846949
 31
0.0
  0
LINE
  5
3B9
330
19
100
AcDbEntity
  8
SEIHIN
  6
CONTINUOUS
 62
     3
100
AcDbLine
 10
938.3485813068487
 20
1028.482460846949
 30
0.0
 11
939.8625813068486
 21
1009.005260846949
 31
0.0
  0
ARC
  5
3BA
330
19
100
AcDbEntity
  8
SEIHIN
  6
CONTINUOUS
 62
     3
100
AcDbCircle
 10
972.2245813068486
 20
1030.474460846949
 30
0.0
 40
3.0
100
AcDbArc
 50
0.0
 51
90.0
  0
ARC
  5
3BB
330
19
100
AcDbEntity
  8
SEIHIN
  6
CONTINUOUS
 62
     3
100
AcDbCircle
 10
972.2245813068486
 20
1031.356960846949
 30
0.0
 40
3.0
100
AcDbArc
 50
0.0
 51
90.0
  0
ARC
  5
3BC
330
19
100
AcDbEntity
  8
SEIHIN
  6
CONTINUOUS
 62
     3
100
AcDbCircle
 10
972.7255813068488
 20
1031.363560846949
 30
0.0
 40
6.0
100
AcDbArc
 50
359.999045
 51
90.0
  0
ARC
  5
3BD
330
19
100
AcDbEntity
  8
SEIHIN
  6
CONTINUOUS
 62
     3
100
AcDbCircle
 10
964.7255813068486
 20
1030.225960846949
 30
0.0
 40
2.0
100
AcDbArc
 50
0.0
 51
90.0
  0
ARC
  5
3BE
330
19
100
AcDbEntity
  8
SEIHIN
  6
CONTINUOUS
 62
     3
100
AcDbCircle
 10
958.7255813068486
 20
1030.225960846949
 30
0.0
 40
2.0
100
AcDbArc
 50
90.0
 51
180.0
  0
LINE
  5
3BF
330
19
100
AcDbEntity
  8
SEIHIN
  6
CONTINUOUS
 62
     3
100
AcDbLine
 10
958.7255813068486
 20
1032.225960846949
 30
0.0
 11
964.7255813068486
 21
1032.225960846949
 31
0.0
  0
LINE
  5
3C0
330
19
100
AcDbEntity
  8
SEIHIN
  6
CONTINUOUS
 62
     3
100
AcDbLine
 10
966.7255813068486
 20
1028.482460846949
 30
0.0
 11
972.2245813068486
 21
1028.482460846949
 31
0.0
  0
LINE
  5
3C1
330
19
100
AcDbEntity
  8
SEIHIN
  6
CONTINUOUS
 62
     3
100
AcDbLine
 10
956.7255813068486
 20
1029.218260846949
 30
0.0
 11
966.7255813068486
 21
1029.218260846949
 31
0.0
  0
LINE
  5
3C2
330
19
100
AcDbEntity
  8
SEIHIN
  6
CONTINUOUS
 62
     3
100
AcDbLine
 10
966.7255813068486
 20
1030.225960846949
 30
0.0
 11
966.7255813068486
 21
1028.482460846949
 31
0.0
  0
LINE
  5
3C3
330
19
100
AcDbEntity
  8
SEIHIN
  6
CONTINUOUS
 62
     3
100
AcDbLine
 10
956.7255813068486
 20
1030.225960846949
 30
0.0
 11
956.7255813068486
 21
1028.482560846949
 31
0.0
  0
LINE
  5
3C4
330
19
100
AcDbEntity
  8
SEIHIN
  6
CONTINUOUS
 62
     3
100
AcDbLine
 10
974.5165813068489
 20
1023.836160846949
 30
0.0
 11
972.2555813068485
 21
1009.005160846949
 31
0.0
  0
ARC
  5
3C5
330
19
100
AcDbEntity
  8
SEIHIN
  6
CONTINUOUS
 62
     3
100
AcDbCircle
 10
972.2245813068486
 20
1025.482460846949
 30
0.0
 40
3.0
100
AcDbArc
 50
0.0
 51
90.0
  0
ARC
  5
3C6
330
19
100
AcDbEntity
  8
SEIHIN
  6
CONTINUOUS
 62
     3
100
AcDbCircle
 10
969.2555813068485
 20
1006.005260846949
 30
0.0
 40
3.0
100
AcDbArc
 50
0.0
 51
90.0
  0
LINE
  5
3C7
330
19
100
AcDbEntity
  8
SEIHIN
  6
CONTINUOUS
 62
     3
100
AcDbLine
 10
972.2555813068485
 20
901.3645608469493
 30
0.0
 11
972.2555813068485
 21
796.7225608469493
 31
0.0
  0
LINE
  5
3C8
330
19
100
AcDbEntity
  8
SEIHIN
  6
CONTINUOUS
 62
     3
100
AcDbLine
 10
978.7245813068485
 20
901.3646608469494
 30
0.0
 11
978.7255813068487
 21
771.3641608469495
 31
0.0
  0
LINE
  5
3C9
330
19
100
AcDbEntity
  8
SEIHIN
  6
CONTINUOUS
 62
     3
100
AcDbLine
 10
975.2245813068485
 20
901.3645608469493
 30
0.0
 11
975.2245813068485
 21
771.3707608469494
 31
0.0
  0
LINE
  5
3CA
330
19
100
AcDbEntity
  8
SEIHIN
  6
CONTINUOUS
 62
     3
100
AcDbLine
 10
978.7245813068485
 20
978.3638608469493
 30
0.0
 11
975.2245813068485
 21
978.3638608469493
 31
0.0
  0
LINE
  5
3CB
330
19
100
AcDbEntity
  8
SEIHIN
  6
CONTINUOUS
 62
     3
100
AcDbLine
 10
978.7245813068485
 20
974.3638608469494
 30
0.0
 11
975.2245813068485
 21
974.3638608469494
 31
0.0
  0
LINE
  5
3CC
330
19
100
AcDbEntity
  8
SEIHIN
  6
CONTINUOUS
 62
     3
100
AcDbLine
 10
978.7245813068485
 20
965.8638608469493
 30
0.0
 11
975.2245813068485
 21
965.8638608469493
 31
0.0
  0
LINE
  5
3CD
330
19
100
AcDbEntity
  8
SEIHIN
  6
CONTINUOUS
 62
     3
100
AcDbLine
 10
978.7245813068485
 20
961.8638608469494
 30
0.0
 11
975.2245813068485
 21
961.8638608469494
 31
0.0
  0
LINE
  5
3CE
330
19
100
AcDbEntity
  8
SEIHIN
  6
CONTINUOUS
 62
     3
100
AcDbLine
 10
978.7245813068485
 20
949.3638608469494
 30
0.0
 11
975.2245813068485
 21
949.3638608469494
 31
0.0
  0
LINE
  5
3CF
330
19
100
AcDbEntity
  8
SEIHIN
  6
CONTINUOUS
 62
     3
100
AcDbLine
 10
978.7245813068485
 20
953.3638608469493
 30
0.0
 11
975.2245813068485
 21
953.3638608469493
 31
0.0
  0
LINE
  5
3D0
330
19
100
AcDbEntity
  8
SEIHIN
  6
CONTINUOUS
 62
     3
100
AcDbLine
 10
939.8625813068486
 20
793.7225608469494
 30
0.0
 11
969.2555813068485
 21
793.7225608469494
 31
0.0
  0
LINE
  5
3D1
330
19
100
AcDbEntity
  8
SEIHIN
  6
CONTINUOUS
 62
     3
100
AcDbLine
 10
937.9785813068487
 20
769.2533608469493
 30
0.0
 11
972.2245813068486
 21
769.2533608469493
 31
0.0
  0
LINE
  5
3D2
330
19
100
AcDbEntity
  8
SEIHIN
  6
CONTINUOUS
 62
     3
100
AcDbLine
 10
937.9105813068488
 20
768.3707608469494
 30
0.0
 11
972.2245813068486
 21
768.3707608469494
 31
0.0
  0
LINE
  5
3D3
330
19
100
AcDbEntity
  8
SEIHIN
  6
CONTINUOUS
 62
     3
100
AcDbLine
 10
937.7235813068487
 20
765.3641608469495
 30
0.0
 11
972.7245813068485
 21
765.3641608469495
 31
0.0
  0
LINE
  5
3D4
330
19
100
AcDbEntity
  8
SEIHIN
  6
CONTINUOUS
 62
     3
100
AcDbLine
 10
938.3485813068487
 20
774.2452608469493
 30
0.0
 11
956.7245813068488
 21
774.2452608469493
 31
0.0
  0
LINE
  5
3D5
330
19
100
AcDbEntity
  8
SEIHIN
  6
CONTINUOUS
 62
     3
100
AcDbLine
 10
938.3485813068487
 20
774.2452608469493
 30
0.0
 11
939.8625813068486
 21
793.7225608469494
 31
0.0
  0
LINE
  5
3D6
330
19
100
AcDbEntity
  8
SEIHIN
  6
CONTINUOUS
 62
     3
100
AcDbLine
 10
978.7245813068485
 20
849.3638608469494
 30
0.0
 11
975.2245813068485
 21
849.3638608469494
 31
0.0
  0
LINE
  5
3D7
330
19
100
AcDbEntity
  8
SEIHIN
  6
CONTINUOUS
 62
     3
100
AcDbLine
 10
978.7245813068485
 20
853.3638608469493
 30
0.0
 11
975.2245813068485
 21
853.3638608469493
 31
0.0
  0
LINE
  5
3D8
330
19
100
AcDbEntity
  8
SEIHIN
  6
CONTINUOUS
 62
     3
100
AcDbLine
 10
978.7245813068485
 20
836.8638608469494
 30
0.0
 11
975.2245813068485
 21
836.8638608469494
 31
0.0
  0
LINE
  5
3D9
330
19
100
AcDbEntity
  8
SEIHIN
  6
CONTINUOUS
 62
     3
100
AcDbLine
 10
978.7245813068485
 20
840.8638608469493
 30
0.0
 11
975.2245813068485
 21
840.8638608469493
 31
0.0
  0
LINE
  5
3DA
330
19
100
AcDbEntity
  8
SEIHIN
  6
CONTINUOUS
 62
     3
100
AcDbLine
 10
978.7245813068485
 20
828.3638608469493
 30
0.0
 11
975.2245813068485
 21
828.3638608469493
 31
0.0
  0
LINE
  5
3DB
330
19
100
AcDbEntity
  8
SEIHIN
  6
CONTINUOUS
 62
     3
100
AcDbLine
 10
978.7245813068485
 20
824.3638608469494
 30
0.0
 11
975.2245813068485
 21
824.3638608469494
 31
0.0
  0
LINE
  5
3DC
330
19
100
AcDbEntity
  8
SEIHIN
  6
CONTINUOUS
 62
     3
100
AcDbLine
 10
974.5165813068489
 20
778.8914608469495
 30
0.0
 11
972.2555813068485
 21
793.7225608469494
 31
0.0
  0
ARC
  5
3DD
330
19
100
AcDbEntity
  8
SEIHIN
  6
CONTINUOUS
 62
     3
100
AcDbCircle
 10
969.2555813068485
 20
796.7225608469493
 30
0.0
 40
3.0
100
AcDbArc
 50
270.0
 51
0.0
  0
LINE
  5
3DE
330
19
100
AcDbEntity
  8
SEIHIN
  6
CONTINUOUS
 62
     3
100
AcDbLine
 10
966.7245813068486
 20
774.2452608469493
 30
0.0
 11
972.2245813068486
 21
774.2452608469493
 31
0.0
  0
LINE
  5
3DF
330
19
100
AcDbEntity
  8
SEIHIN
  6
CONTINUOUS
 62
     3
100
AcDbLine
 10
958.7245813068488
 20
770.5018608469495
 30
0.0
 11
964.7245813068487
 21
770.5018608469495
 31
0.0
  0
LINE
  5
3E0
330
19
100
AcDbEntity
  8
SEIHIN
  6
CONTINUOUS
 62
     3
100
AcDbLine
 10
956.7245813068488
 20
773.5094608469494
 30
0.0
 11
966.7245813068486
 21
773.5094608469494
 31
0.0
  0
LINE
  5
3E1
330
19
100
AcDbEntity
  8
SEIHIN
  6
CONTINUOUS
 62
     3
100
AcDbLine
 10
966.7245813068486
 20
772.5018608469495
 30
0.0
 11
966.7245813068486
 21
774.2452608469493
 31
0.0
  0
LINE
  5
3E2
330
19
100
AcDbEntity
  8
SEIHIN
  6
CONTINUOUS
 62
     3
100
AcDbLine
 10
956.7245813068488
 20
772.5018608469495
 30
0.0
 11
956.7245813068488
 21
774.2452608469493
 31
0.0
  0
ARC
  5
3E3
330
19
100
AcDbEntity
  8
SEIHIN
  6
CONTINUOUS
 62
     3
100
AcDbCircle
 10
964.7245813068487
 20
772.5018608469495
 30
0.0
 40
2.0
100
AcDbArc
 50
270.0
 51
0.0
  0
ARC
  5
3E4
330
19
100
AcDbEntity
  8
SEIHIN
  6
CONTINUOUS
 62
     3
100
AcDbCircle
 10
958.7245813068488
 20
772.5018608469495
 30
0.0
 40
2.0
100
AcDbArc
 50
180.0
 51
270.0
  0
ARC
  5
3E5
330
19
100
AcDbEntity
  8
SEIHIN
  6
CONTINUOUS
 62
     3
100
AcDbCircle
 10
972.7245813068485
 20
771.3641608469495
 30
0.0
 40
6.0
100
AcDbArc
 50
270.0
 51
0.0
  0
ARC
  5
3E6
330
19
100
AcDbEntity
  8
SEIHIN
  6
CONTINUOUS
 62
     3
100
AcDbCircle
 10
972.2245813068486
 20
777.2452608469493
 30
0.0
 40
3.0
100
AcDbArc
 50
270.0
 51
0.0
  0
ARC
  5
3E7
330
19
100
AcDbEntity
  8
SEIHIN
  6
CONTINUOUS
 62
     3
100
AcDbCircle
 10
972.2245813068486
 20
772.2533608469493
 30
0.0
 40
3.0
100
AcDbArc
 50
270.0
 51
0.0
  0
ARC
  5
3E8
330
19
100
AcDbEntity
  8
SEIHIN
  6
CONTINUOUS
 62
     3
100
AcDbCircle
 10
972.2245813068486
 20
771.3707608469494
 30
0.0
 40
3.0
100
AcDbArc
 50
270.0
 51
0.0
  0
LINE
  5
3EC
330
19
100
AcDbEntity
  8
SEIHIN
  6
CONTINUOUS
 62
     3
100
AcDbLine
 10
937.9346876026161
 20
341.7543744708217
 30
0.0
 11
940.6858757892832
 21
607.7544744708217
 31
0.0
  0
LINE
  5
3ED
330
19
100
AcDbEntity
  8
SEIHIN
  6
CONTINUOUS
 62
     3
100
AcDbLine
 10
730.4963747749984
 20
344.3144744708217
 30
0.0
 11
710.9050747749986
 21
610.7544744708217
 31
0.0
  0
LINE
  5
3EE
330
19
100
AcDbEntity
  8
SEIHIN
  6
CONTINUOUS
 62
     3
100
AcDbLine
 10
975.9050747749986
 20
628.7544744708217
 30
0.0
 11
972.9660747749983
 21
344.6923744708217
 31
0.0
  0
DIMENSION
  5
3EF
330
19
100
AcDbEntity
  8
SUNPOU
  6
CONTINUOUS
 62
     4
100
AcDbDimension
  2
*D3
 10
972.9046382722057
 20
121.3679145041361
 30
0.0
 11
851.9049232536914
 21
131.3679145041361
 31
0.0
 12
-16.64262703480653
 22
11.87774976106493
 32
0.0
 70
    32
  3
STANDARD
100
AcDbAlignedDimension
 13
730.9052082351772
 23
338.7543744708217
 33
0.0
 14
972.9046382722057
 24
338.7543744708216
 34
0.0
100
AcDbRotatedDimension
1001
ACAD
1000
DSTYLE
1002
{
1070
   140
1040
12.0
1070
    74
1070
     0
1070
    73
1070
     0
1070
   272
1070
     0
1070
    77
1070
     3
1070
   173
1070
     1
1070
   147
1040
4.0
1070
    42
1040
20.0
1070
    44
1040
8.0
1070
    43
1040
32.0
1070
   271
1070
     0
1070
   178
1070
     4
1070
   177
1070
     4
1070
   176
1070
     4
1070
   141
1040
12.0
1070
     7
1000
_OPEN
1070
     6
1000
_OPEN
1070
    41
1040
12.0
1002
}
  0
LINE
  5
3F0
330
19
100
AcDbEntity
  8
SEIHIN
  6
CONTINUOUS
 62
     3
100
AcDbLine
 10
736.4801747749984
 20
338.7543744708217
 30
0.0
 11
966.9670747749986
 21
338.7543744708217
 31
0.0
  0
LINE
  5
3F1
330
19
100
AcDbEntity
  8
SEIHIN
  6
CONTINUOUS
 62
     3
100
AcDbLine
 10
909.3550747749985
 20
292.7544744708217
 30
0.0
 11
835.9050747749986
 21
292.7544744708217
 31
0.0
  0
LINE
  5
3F2
330
19
100
AcDbEntity
  8
SEIHIN
  6
CONTINUOUS
 62
     3
100
AcDbLine
 10
906.7490747749983
 20
288.7544744708217
 30
0.0
 11
835.9050747749986
 21
288.7544744708217
 31
0.0
  0
LINE
  5
3F3
330
19
100
AcDbEntity
  8
SEIHIN
  6
CONTINUOUS
 62
     3
100
AcDbLine
 10
896.8050747749984
 20
268.7544744708217
 30
0.0
 11
835.9051747749983
 21
268.7544744708217
 31
0.0
  0
ARC
  5
3F4
330
19
100
AcDbEntity
  8
SEIHIN
  6
CONTINUOUS
 62
     3
100
AcDbCircle
 10
736.4801747749984
 20
344.7544744708217
 30
0.0
 40
5.999977999999999
100
AcDbArc
 50
184.205497
 51
270.0
  0
LINE
  5
3F5
330
19
100
AcDbEntity
  8
SEIHIN
  6
CONTINUOUS
 62
     3
100
AcDbLine
 10
762.4550747749985
 20
292.7544744708217
 30
0.0
 11
762.4550747749985
 21
332.7544744708217
 31
0.0
  0
LINE
  5
3F6
330
19
100
AcDbEntity
  8
CENTER_L
  6
CENTER
 62
     1
 48
5.0
100
AcDbLine
 10
835.9050747749986
 20
247.4603744708217
 30
0.0
 11
835.9050747749986
 21
641.5560144967416
 31
0.0
  0
LINE
  5
3F7
330
19
100
AcDbEntity
  8
SEIHIN
  6
CONTINUOUS
 62
     3
100
AcDbLine
 10
765.0614747749984
 20
288.7544744708217
 30
0.0
 11
835.9050747749986
 21
288.7544744708217
 31
0.0
  0
LINE
  5
3F8
330
19
100
AcDbEntity
  8
SEIHIN
  6
CONTINUOUS
 62
     3
100
AcDbLine
 10
762.4550747749985
 20
292.7544744708217
 30
0.0
 11
835.9050747749986
 21
292.7544744708217
 31
0.0
  0
LINE
  5
3F9
330
19
100
AcDbEntity
  8
SEIHIN
  6
CONTINUOUS
 62
     3
100
AcDbLine
 10
775.0049747749986
 20
268.7544744708217
 30
0.0
 11
835.9048747749984
 21
268.7544744708217
 31
0.0
  0
ARC
  5
3FA
330
19
100
AcDbEntity
  8
SEIHIN
  6
CONTINUOUS
 62
     3
100
AcDbCircle
 10
765.0614747749984
 20
290.7544744708217
 30
0.0
 40
1.99997
100
AcDbArc
 50
194.999329
 51
270.0
  0
LINE
  5
3FB
330
19
100
AcDbEntity
  8
SEIHIN
  6
CONTINUOUS
 62
     3
100
AcDbLine
 10
763.1295747749984
 20
290.2368744708216
 30
0.0
 11
762.4550747749985
 21
292.7544744708217
 31
0.0
  0
LINE
  5
3FC
330
19
100
AcDbEntity
  8
SEIHIN
  6
CONTINUOUS
 62
     3
100
AcDbLine
 10
775.0050747749985
 20
288.7544744708217
 30
0.0
 11
775.0050747749985
 21
268.7544744708217
 31
0.0
  0
ARC
  5
3FD
330
19
100
AcDbEntity
  8
SEIHIN
  6
CONTINUOUS
 62
     3
100
AcDbCircle
 10
756.4550747749986
 20
332.7544744708217
 30
0.0
 40
6.0
100
AcDbArc
 50
0.0
 51
90.0
  0
LINE
  5
3FE
330
19
100
AcDbEntity
  8
SEIHIN
  6
CONTINUOUS
 62
     3
100
AcDbLine
 10
909.3550747749985
 20
292.7544744708217
 30
0.0
 11
909.3550747749985
 21
332.7544744708217
 31
0.0
  0
LINE
  5
3FF
330
19
100
AcDbEntity
  8
SEIHIN
  6
CONTINUOUS
 62
     3
100
AcDbLine
 10
896.8049747749985
 20
288.7544744708217
 30
0.0
 11
896.8049747749985
 21
268.7544744708217
 31
0.0
  0
LINE
  5
400
330
19
100
AcDbEntity
  8
SEIHIN
  6
CONTINUOUS
 62
     3
100
AcDbLine
 10
908.6800747749984
 20
290.2368744708216
 30
0.0
 11
909.3550747749985
 21
292.7544744708217
 31
0.0
  0
ARC
  5
401
330
19
100
AcDbEntity
  8
SEIHIN
  6
CONTINUOUS
 62
     3
100
AcDbCircle
 10
906.7490747749983
 20
290.7544744708217
 30
0.0
 40
1.999584
100
AcDbArc
 50
270.0
 51
344.9947369999999
  0
ARC
  5
402
330
19
100
AcDbEntity
  8
SEIHIN
  6
CONTINUOUS
 62
     3
100
AcDbCircle
 10
915.3550747749985
 20
332.7544744708217
 30
0.0
 40
6.0
100
AcDbArc
 50
90.0
 51
180.0
  0
ARC
  5
404
330
19
100
AcDbEntity
  8
SEIHIN
  6
CONTINUOUS
 62
     3
100
AcDbCircle
 10
966.9670747749986
 20
344.7544744708217
 30
0.0
 40
5.999660999999999
100
AcDbArc
 50
270.0
 51
359.406911
  0
DIMENSION
  5
406
330
19
100
AcDbEntity
  8
SUNPOU
  6
CONTINUOUS
 62
     4
100
AcDbDimension
  2
*D4
 10
704.9050747749986
 20
674.5476944303747
 30
0.0
 11
840.4050747749986
 21
684.5476944303746
 31
0.0
 12
-195.3340531047988
 22
11.87774976106493
 32
0.0
 70
    32
  3
STANDARD
100
AcDbAlignedDimension
 13
975.9050747749986
 23
628.7544744708217
 33
0.0
 14
704.9050747749986
 24
628.7544744708217
 34
0.0
100
AcDbRotatedDimension
1001
ACAD
1000
DSTYLE
1002
{
1070
   140
1040
12.0
1070
    74
1070
     0
1070
    73
1070
     0
1070
   272
1070
     0
1070
    77
1070
     3
1070
   173
1070
     1
1070
   147
1040
4.0
1070
    42
1040
20.0
1070
    44
1040
8.0
1070
    43
1040
32.0
1070
   271
1070
     0
1070
   178
1070
     4
1070
   177
1070
     4
1070
   176
1070
     4
1070
   141
1040
12.0
1070
     7
1000
_OPEN
1070
     6
1000
_OPEN
1070
    41
1040
12.0
1002
}
  0
LINE
  5
407
330
19
100
AcDbEntity
  8
SEIHIN
  6
CONTINUOUS
 62
     3
100
AcDbLine
 10
704.9050747749986
 20
628.7544744708217
 30
0.0
 11
975.9050747749986
 21
628.7544744708217
 31
0.0
  0
LINE
  5
408
330
19
100
AcDbEntity
  8
SEIHIN
  6
CONTINUOUS
 62
     3
100
AcDbLine
 10
722.9051747749983
 20
613.7544744708216
 30
0.0
 11
975.9050747749986
 21
613.7544744708216
 31
0.0
  0
LINE
  5
409
330
19
100
AcDbEntity
  8
SEIHIN
  6
CONTINUOUS
 62
     3
100
AcDbLine
 10
722.9051747749983
 20
610.7544744708217
 30
0.0
 11
975.9050747749986
 21
610.7544744708217
 31
0.0
  0
LINE
  5
40A
330
19
100
AcDbEntity
  8
SEIHIN
  6
CONTINUOUS
 62
     3
100
AcDbLine
 10
705.9050747749986
 20
613.7544744708216
 30
0.0
 11
716.9051747749984
 21
613.7544744708216
 31
0.0
  0
LINE
  5
40B
330
19
100
AcDbEntity
  8
SEIHIN
  6
CONTINUOUS
 62
     3
100
AcDbLine
 10
710.9050747749986
 20
610.7544744708217
 30
0.0
 11
722.9051747749983
 21
610.7544744708217
 31
0.0
  0
ARC
  5
40C
330
19
100
AcDbEntity
  8
SEIHIN
  6
CONTINUOUS
 62
     3
100
AcDbCircle
 10
719.9050747749986
 20
621.7544744708217
 30
0.0
 40
3.0
100
AcDbArc
 50
90.0
 51
180.0
  0
LINE
  5
40D
330
19
100
AcDbEntity
  8
SEIHIN
  6
CONTINUOUS
 62
     3
100
AcDbLine
 10
704.9050747749986
 20
628.7544744708217
 30
0.0
 11
705.9050747749986
 21
613.7544744708216
 31
0.0
  0
LINE
  5
40E
330
19
100
AcDbEntity
  8
SEIHIN
  6
CONTINUOUS
 62
     3
100
AcDbLine
 10
705.9050747749986
 20
613.7544744708216
 30
0.0
 11
710.9050747749986
 21
610.7544744708217
 31
0.0
  0
LINE
  5
40F
330
19
100
AcDbEntity
  8
SEIHIN
  6
CONTINUOUS
 62
     3
100
AcDbLine
 10
716.9050747749986
 20
610.7544744708217
 30
0.0
 11
716.9050747749986
 21
621.7544744708217
 31
0.0
  0
LINE
  5
410
330
19
100
AcDbEntity
  8
SEIHIN
  6
CONTINUOUS
 62
     3
100
AcDbLine
 10
722.9050747749986
 20
610.7544744708217
 30
0.0
 11
722.9050747749986
 21
621.7544744708217
 31
0.0
  0
ARC
  5
411
330
19
100
AcDbEntity
  8
SEIHIN
  6
CONTINUOUS
 62
     3
100
AcDbCircle
 10
719.9050747749986
 20
621.7544744708217
 30
0.0
 40
3.0
100
AcDbArc
 50
0.0
 51
90.0
  0
LINE
  5
413
330
19
100
AcDbEntity
  8
CENTER_L
  6
CENTER
 62
     1
 48
5.0
100
AcDbLine
 10
990.0530747749982
 20
603.7545744708217
 30
0.0
 11
957.4779616746091
 21
603.7545744708218
 31
0.0
  0
DIMENSION
  5
640
330
19
100
AcDbEntity
  8
SUNPOU
  6
CONTINUOUS
 62
     4
100
AcDbDimension
  2
*D5
 10
835.9050747749986
 20
166.0635211872649
 30
0.0
 11
904.4048565236019
 21
176.0635211872649
 31
0.0
 12
-16.64262703480653
 22
11.87774976106493
 32
0.0
 70
    32
  3
STANDARD
100
AcDbAlignedDimension
 13
972.9046382722053
 23
338.7543744708217
 33
0.0
 14
835.9050747749986
 24
247.4603744708217
 34
0.0
100
AcDbRotatedDimension
1001
ACAD
1000
DSTYLE
1002
{
1070
   140
1040
12.0
1070
    74
1070
     0
1070
   172
1070
     1
1070
    73
1070
     0
1070
   272
1070
     2
1070
    77
1070
     3
1070
   173
1070
     1
1070
   147
1040
4.0
1070
    42
1040
12.0
1070
    44
1040
6.0
1070
    43
1040
28.0
1070
   271
1070
     0
1070
   178
1070
     4
1070
   177
1070
     4
1070
   176
1070
     4
1070
   141
1040
150.0
1070
     7
1000
_OPEN
1070
     6
1000
_OPEN
1070
    41
1040
14.0
1070
   143
1040
0.03937
1002
}
  0
LINE
  5
641
330
19
100
AcDbEntity
  8
CENTER_L
  6
CENTER
 62
     1
 48
5.0
100
AcDbLine
 10
1281.686674774998
 20
254.1845744708217
 30
0.0
 11
1281.686674774998
 21
641.1152744708218
 31
0.0
  0
LINE
  5
643
330
19
100
AcDbEntity
  8
SEIHIN
  6
CONTINUOUS
 62
     3
100
AcDbLine
 10
1392.484474774998
 20
343.8210744708217
 30
0.0
 11
1411.685574774998
 21
610.7544744708217
 31
0.0
  0
LINE
  5
644
330
19
100
AcDbEntity
  8
SEIHIN
  6
CONTINUOUS
 62
     3
100
AcDbLine
 10
1170.888774774998
 20
343.8210744708217
 30
0.0
 11
1151.687774774998
 21
610.7544744708217
 31
0.0
  0
LINE
  5
646
330
19
100
AcDbEntity
  8
CENTER_L
  6
CENTER
 62
     1
 48
5.0
100
AcDbLine
 10
1181.686674774998
 20
592.1672744708216
 30
0.0
 11
1181.686674774998
 21
615.2979744708217
 31
0.0
  0
ARC
  5
647
330
19
100
AcDbEntity
  8
SEIHIN
  6
CONTINUOUS
 62
     3
100
AcDbCircle
 10
1177.186674774998
 20
603.7545744708217
 30
0.0
 40
3.5
100
AcDbArc
 50
90.0
 51
270.0
  0
ARC
  5
648
330
19
100
AcDbEntity
  8
SEIHIN
  6
CONTINUOUS
 62
     3
100
AcDbCircle
 10
1186.186674774998
 20
603.7545744708217
 30
0.0
 40
3.5
100
AcDbArc
 50
270.0
 51
90.0
  0
LINE
  5
649
330
19
100
AcDbEntity
  8
CENTER_L
  6
CENTER
 62
     1
 48
5.0
100
AcDbLine
 10
1381.686674774998
 20
592.1672744708216
 30
0.0
 11
1381.686674774998
 21
615.2979744708217
 31
0.0
  0
ARC
  5
64A
330
19
100
AcDbEntity
  8
SEIHIN
  6
CONTINUOUS
 62
     3
100
AcDbCircle
 10
1377.186674774998
 20
603.7545744708217
 30
0.0
 40
3.5
100
AcDbArc
 50
90.0
 51
270.0
  0
ARC
  5
64B
330
19
100
AcDbEntity
  8
SEIHIN
  6
CONTINUOUS
 62
     3
100
AcDbCircle
 10
1386.186674774998
 20
603.7545744708217
 30
0.0
 40
3.5
100
AcDbArc
 50
270.0
 51
90.0
  0
LINE
  5
64C
330
19
100
AcDbEntity
  8
CENTER_L
  6
CENTER
 62
     1
 48
5.0
100
AcDbLine
 10
1370.087274774998
 20
603.7545744708217
 30
0.0
 11
1393.949674774998
 21
603.7545744708217
 31
0.0
  0
LINE
  5
64D
330
19
100
AcDbEntity
  8
SEIHIN
  6
CONTINUOUS
 62
     3
100
AcDbLine
 10
1386.557574774998
 20
338.7543744708217
 30
0.0
 11
1281.686674774998
 21
338.7543744708217
 31
0.0
  0
LINE
  5
64E
330
19
100
AcDbEntity
  8
SEIHIN
  6
CONTINUOUS
 62
     3
100
AcDbLine
 10
1220.786674774998
 20
268.7544744708217
 30
0.0
 11
1281.686574774998
 21
268.7544744708217
 31
0.0
  0
LINE
  5
64F
330
19
100
AcDbEntity
  8
SEIHIN
  6
CONTINUOUS
 62
     3
100
AcDbLine
 10
1208.236674774998
 20
292.7544744708217
 30
0.0
 11
1281.686674774998
 21
292.7544744708217
 31
0.0
  0
LINE
  5
650
330
19
100
AcDbEntity
  8
SEIHIN
  6
CONTINUOUS
 62
     3
100
AcDbLine
 10
1210.843074774998
 20
288.7544744708217
 30
0.0
 11
1281.686674774998
 21
288.7544744708217
 31
0.0
  0
LINE
  5
651
330
19
100
AcDbEntity
  8
SEIHIN
  6
CONTINUOUS
 62
     3
100
AcDbLine
 10
1176.815774774998
 20
338.7543744708217
 30
0.0
 11
1281.686674774998
 21
338.7543744708217
 31
0.0
  0
LINE
  5
652
330
19
100
AcDbEntity
  8
SEIHIN
  6
CONTINUOUS
 62
     3
100
AcDbLine
 10
1208.236674774998
 20
292.7544744708217
 30
0.0
 11
1208.236674774998
 21
332.7544744708217
 31
0.0
  0
LINE
  5
653
330
19
100
AcDbEntity
  8
SEIHIN
  6
CONTINUOUS
 62
     3
100
AcDbLine
 10
1220.786674774998
 20
288.7544744708217
 30
0.0
 11
1220.786674774998
 21
268.7544744708217
 31
0.0
  0
LINE
  5
654
330
19
100
AcDbEntity
  8
SEIHIN
  6
CONTINUOUS
 62
     3
100
AcDbLine
 10
1208.911174774998
 20
290.2368744708216
 30
0.0
 11
1208.236674774998
 21
292.7544744708217
 31
0.0
  0
ARC
  5
655
330
19
100
AcDbEntity
  8
SEIHIN
  6
CONTINUOUS
 62
     3
100
AcDbCircle
 10
1210.843074774998
 20
290.7544744708217
 30
0.0
 40
1.99997
100
AcDbArc
 50
194.999329
 51
270.0
  0
ARC
  5
656
330
19
100
AcDbEntity
  8
SEIHIN
  6
CONTINUOUS
 62
     3
100
AcDbCircle
 10
1176.815774774998
 20
344.7544744708217
 30
0.0
 40
6.000023999999999
100
AcDbArc
 50
188.9495919999999
 51
270.0
  0
ARC
  5
658
330
19
100
AcDbEntity
  8
SEIHIN
  6
CONTINUOUS
 62
     3
100
AcDbCircle
 10
1202.236674774998
 20
332.7544744708217
 30
0.0
 40
6.0
100
AcDbArc
 50
0.0
 51
90.0
  0
LINE
  5
659
330
19
100
AcDbEntity
  8
SEIHIN
  6
CONTINUOUS
 62
     3
100
AcDbLine
 10
1355.136674774998
 20
292.7544744708217
 30
0.0
 11
1355.136674774998
 21
332.7544744708217
 31
0.0
  0
LINE
  5
65A
330
19
100
AcDbEntity
  8
SEIHIN
  6
CONTINUOUS
 62
     3
100
AcDbLine
 10
1342.586674774998
 20
268.7544744708217
 30
0.0
 11
1281.686774774998
 21
268.7544744708217
 31
0.0
  0
LINE
  5
65B
330
19
100
AcDbEntity
  8
SEIHIN
  6
CONTINUOUS
 62
     3
100
AcDbLine
 10
1352.530274774998
 20
288.7544744708217
 30
0.0
 11
1281.686674774998
 21
288.7544744708217
 31
0.0
  0
LINE
  5
65C
330
19
100
AcDbEntity
  8
SEIHIN
  6
CONTINUOUS
 62
     3
100
AcDbLine
 10
1355.136674774998
 20
292.7544744708217
 30
0.0
 11
1281.686674774998
 21
292.7544744708217
 31
0.0
  0
LINE
  5
65D
330
19
100
AcDbEntity
  8
SEIHIN
  6
CONTINUOUS
 62
     3
100
AcDbLine
 10
1342.586674774998
 20
288.7544744708217
 30
0.0
 11
1342.586674774998
 21
268.7544744708217
 31
0.0
  0
ARC
  5
65E
330
19
100
AcDbEntity
  8
SEIHIN
  6
CONTINUOUS
 62
     3
100
AcDbCircle
 10
1352.530274774998
 20
290.7544744708217
 30
0.0
 40
1.99997
100
AcDbArc
 50
270.0
 51
345.000671
  0
LINE
  5
65F
330
19
100
AcDbEntity
  8
SEIHIN
  6
CONTINUOUS
 62
     3
100
AcDbLine
 10
1354.462074774998
 20
290.2368744708216
 30
0.0
 11
1355.136674774998
 21
292.7544744708217
 31
0.0
  0
ARC
  5
661
330
19
100
AcDbEntity
  8
SEIHIN
  6
CONTINUOUS
 62
     3
100
AcDbCircle
 10
1361.136674774998
 20
332.7544744708217
 30
0.0
 40
6.0
100
AcDbArc
 50
90.0
 51
180.0
  0
LINE
  5
662
330
19
100
AcDbEntity
  8
CENTER_L
  6
CENTER
 62
     1
 48
5.0
100
AcDbLine
 10
1193.286174774998
 20
603.7545744708217
 30
0.0
 11
1169.423674774998
 21
603.7545744708217
 31
0.0
  0
ARC
  5
663
330
19
100
AcDbEntity
  8
SEIHIN
  6
CONTINUOUS
 62
     3
100
AcDbCircle
 10
1181.686674774998
 20
599.2545744708216
 30
0.0
 40
3.5
100
AcDbArc
 50
180.0
 51
0.0
  0
LINE
  5
664
330
19
100
AcDbEntity
  8
SEIHIN
  6
CONTINUOUS
 62
     3
100
AcDbLine
 10
1178.186674774998
 20
600.2545744708217
 30
0.0
 11
1177.186674774998
 21
600.2545744708217
 31
0.0
  0
LINE
  5
665
330
19
100
AcDbEntity
  8
SEIHIN
  6
CONTINUOUS
 62
     3
100
AcDbLine
 10
1178.186674774998
 20
600.2545744708217
 30
0.0
 11
1178.186674774998
 21
599.2545744708216
 31
0.0
  0
LINE
  5
666
330
19
100
AcDbEntity
  8
SEIHIN
  6
CONTINUOUS
 62
     3
100
AcDbLine
 10
1185.186674774998
 20
600.2545744708217
 30
0.0
 11
1186.186674774998
 21
600.2545744708217
 31
0.0
  0
LINE
  5
667
330
19
100
AcDbEntity
  8
SEIHIN
  6
CONTINUOUS
 62
     3
100
AcDbLine
 10
1185.186674774998
 20
600.2545744708217
 30
0.0
 11
1185.186674774998
 21
599.2545744708216
 31
0.0
  0
LINE
  5
668
330
19
100
AcDbEntity
  8
SEIHIN
  6
CONTINUOUS
 62
     3
100
AcDbLine
 10
1385.186674774998
 20
600.2545744708217
 30
0.0
 11
1386.186674774998
 21
600.2545744708217
 31
0.0
  0
LINE
  5
669
330
19
100
AcDbEntity
  8
SEIHIN
  6
CONTINUOUS
 62
     3
100
AcDbLine
 10
1378.186674774998
 20
600.2545744708217
 30
0.0
 11
1377.186674774998
 21
600.2545744708217
 31
0.0
  0
LINE
  5
66A
330
19
100
AcDbEntity
  8
SEIHIN
  6
CONTINUOUS
 62
     3
100
AcDbLine
 10
1385.186674774998
 20
600.2545744708217
 30
0.0
 11
1385.186674774998
 21
599.2545744708216
 31
0.0
  0
LINE
  5
66B
330
19
100
AcDbEntity
  8
SEIHIN
  6
CONTINUOUS
 62
     3
100
AcDbLine
 10
1378.186674774998
 20
600.2545744708217
 30
0.0
 11
1378.186674774998
 21
599.2545744708216
 31
0.0
  0
ARC
  5
66C
330
19
100
AcDbEntity
  8
SEIHIN
  6
CONTINUOUS
 62
     3
100
AcDbCircle
 10
1381.686674774998
 20
599.2545744708216
 30
0.0
 40
3.5
100
AcDbArc
 50
180.0
 51
0.0
  0
ARC
  5
66D
330
19
100
AcDbEntity
  8
SEIHIN
  6
CONTINUOUS
 62
     3
100
AcDbCircle
 10
1386.557574774998
 20
344.7544744708217
 30
0.0
 40
5.999973999999999
100
AcDbArc
 50
270.0
 51
351.05026
  0
LINE
  5
670
330
19
100
AcDbEntity
  8
SEIHIN
  6
CONTINUOUS
 62
     3
100
AcDbLine
 10
1281.686674774998
 20
628.7544744708217
 30
0.0
 11
1417.686274774998
 21
628.7544744708217
 31
0.0
  0
LINE
  5
673
330
19
100
AcDbEntity
  8
SEIHIN
  6
CONTINUOUS
 62
     3
100
AcDbLine
 10
1281.686674774998
 20
628.7544744708217
 30
0.0
 11
1145.687074774998
 21
628.7544744708217
 31
0.0
  0
LINE
  5
676
330
19
100
AcDbEntity
  8
SEIHIN
  6
CONTINUOUS
 62
     3
100
AcDbLine
 10
1151.687774774998
 20
610.7544744708217
 30
0.0
 11
1146.687074774998
 21
613.7544744708216
 31
0.0
  0
LINE
  5
677
330
19
100
AcDbEntity
  8
SEIHIN
  6
CONTINUOUS
 62
     3
100
AcDbLine
 10
1146.687074774998
 20
613.7544744708216
 30
0.0
 11
1145.687074774998
 21
628.7544744708217
 31
0.0
  0
ARC
  5
680
330
19
100
AcDbEntity
  8
SEIHIN
  6
CONTINUOUS
 62
     3
100
AcDbCircle
 10
1181.686674774998
 20
608.2545744708217
 30
0.0
 40
3.5
100
AcDbArc
 50
0.0
 51
180.0
  0
LINE
  5
681
330
19
100
AcDbEntity
  8
SEIHIN
  6
CONTINUOUS
 62
     3
100
AcDbLine
 10
1178.186674774998
 20
607.2545744708216
 30
0.0
 11
1178.186674774998
 21
608.2545744708217
 31
0.0
  0
LINE
  5
682
330
19
100
AcDbEntity
  8
SEIHIN
  6
CONTINUOUS
 62
     3
100
AcDbLine
 10
1178.186674774998
 20
607.2545744708216
 30
0.0
 11
1177.186674774998
 21
607.2545744708216
 31
0.0
  0
LINE
  5
684
330
19
100
AcDbEntity
  8
SEIHIN
  6
CONTINUOUS
 62
     3
100
AcDbLine
 10
1185.186674774998
 20
607.2545744708216
 30
0.0
 11
1185.186674774998
 21
608.2545744708217
 31
0.0
  0
LINE
  5
685
330
19
100
AcDbEntity
  8
SEIHIN
  6
CONTINUOUS
 62
     3
100
AcDbLine
 10
1185.186674774998
 20
607.2545744708216
 30
0.0
 11
1186.186674774998
 21
607.2545744708216
 31
0.0
  0
LINE
  5
686
330
19
100
AcDbEntity
  8
SEIHIN
  6
CONTINUOUS
 62
     3
100
AcDbLine
 10
1385.186674774998
 20
607.2545744708216
 30
0.0
 11
1385.186674774998
 21
608.2545744708217
 31
0.0
  0
LINE
  5
687
330
19
100
AcDbEntity
  8
SEIHIN
  6
CONTINUOUS
 62
     3
100
AcDbLine
 10
1378.186674774998
 20
607.2545744708216
 30
0.0
 11
1378.186674774998
 21
608.2545744708217
 31
0.0
  0
LINE
  5
688
330
19
100
AcDbEntity
  8
SEIHIN
  6
CONTINUOUS
 62
     3
100
AcDbLine
 10
1385.186674774998
 20
607.2545744708216
 30
0.0
 11
1386.186674774998
 21
607.2545744708216
 31
0.0
  0
LINE
  5
689
330
19
100
AcDbEntity
  8
SEIHIN
  6
CONTINUOUS
 62
     3
100
AcDbLine
 10
1378.186674774998
 20
607.2545744708216
 30
0.0
 11
1377.186674774998
 21
607.2545744708216
 31
0.0
  0
ARC
  5
68B
330
19
100
AcDbEntity
  8
SEIHIN
  6
CONTINUOUS
 62
     3
100
AcDbCircle
 10
1381.686674774998
 20
608.2545744708217
 30
0.0
 40
3.5
100
AcDbArc
 50
0.0
 51
180.0
  0
LINE
  5
692
330
19
100
AcDbEntity
  8
SEIHIN
  6
CONTINUOUS
 62
     3
100
AcDbLine
 10
1411.685574774998
 20
610.7544744708217
 30
0.0
 11
1416.686274774998
 21
613.7544744708216
 31
0.0
  0
LINE
  5
693
330
19
100
AcDbEntity
  8
SEIHIN
  6
CONTINUOUS
 62
     3
100
AcDbLine
 10
1416.686274774998
 20
613.7544744708216
 30
0.0
 11
1417.686274774998
 21
628.7544744708217
 31
0.0
  0
DIMENSION
  5
6A2
330
19
100
AcDbEntity
  8
SUNPOU
  6
CONTINUOUS
 62
     4
100
AcDbDimension
  2
*D6
 10
1178.186674774998
 20
646.0749049814412
 30
0.0
 11
1225.497110289416
 21
646.0749049814412
 31
0.0
 12
-1.642627034806537
 22
11.87774976106493
 32
0.0
 70
   160
  3
STANDARD
100
AcDbAlignedDimension
 13
1185.186674774998
 23
608.2545744708217
 33
0.0
 14
1178.186674774998
 24
608.2545744708217
 34
0.0
100
AcDbRotatedDimension
1001
ACAD
1000
DSTYLE
1002
{
1070
   140
1040
12.0
1070
    74
1070
     0
1070
   172
1070
     1
1070
    73
1070
     0
1070
   272
1070
     2
1070
    77
1070
     3
1070
   173
1070
     1
1070
   280
1070
     1
1070
   147
1040
4.0
1070
    42
1040
12.0
1070
    44
1040
6.0
1070
    43
1040
28.0
1070
   271
1070
     0
1070
   178
1070
     4
1070
   177
1070
     4
1070
   176
1070
     4
1070
   141
1040
150.0
1070
     7
1000
_OPEN
1070
     6
1000
_OPEN
1070
    41
1040
14.0
1070
   143
1040
0.03937
1002
}
  0
LINE
  5
6BC
330
19
100
AcDbEntity
  8
CENTER_L
  6
CENTER
 62
     1
 48
5.0
100
AcDbLine
 10
992.2530192586764
 20
1001.363649157485
 30
0.0
 11
957.4779616746091
 21
1001.363649157485
 31
0.0
  0
LINE
  5
6BE
330
19
100
AcDbEntity
  8
CENTER_L
  6
CENTER
 62
     1
 48
5.0
100
AcDbLine
 10
992.2530192586764
 20
801.3636491574853
 30
0.0
 11
957.4779616746091
 21
801.3636491574853
 31
0.0
  0
DIMENSION
  5
6CF
330
19
100
AcDbEntity
  8
SUNPOU
  6
CONTINUOUS
100
AcDbDimension
  2
*D7
 10
1032.888760610297
 20
765.3641608469495
 30
0.0
 11
1022.888760610297
 21
901.3638608469495
 31
0.0
 12
-16.64262703480653
 22
11.87774976106493
 32
0.0
 70
    32
  3
STANDARD
100
AcDbAlignedDimension
 13
972.7255813068488
 23
1037.363560846949
 33
0.0
 14
972.7245813068485
 24
765.3641608469495
 34
0.0
 50
90.0
100
AcDbRotatedDimension
1001
ACAD
1000
DSTYLE
1002
{
1070
   140
1040
12.0
1070
    74
1070
     0
1070
   172
1070
     1
1070
    73
1070
     0
1070
   272
1070
     2
1070
    77
1070
     3
1070
   173
1070
     1
1070
   147
1040
4.0
1070
    42
1040
12.0
1070
    44
1040
6.0
1070
    43
1040
28.0
1070
   271
1070
     0
1070
   178
1070
     4
1070
   177
1070
     4
1070
   176
1070
     4
1070
   141
1040
150.0
1070
     7
1000
_OPEN
1070
     6
1000
_OPEN
1070
    41
1040
14.0
1070
   143
1040
0.03937
1002
}
  0
DIMENSION
  5
6DC
330
19
100
AcDbEntity
  8
SUNPOU
  6
CONTINUOUS
100
AcDbDimension
  2
*D8
 10
666.8955826495585
 20
338.7543744708217
 30
0.0
 11
656.8955826495584
 21
483.7544244708217
 31
0.0
 12
-16.64262703480653
 22
11.87774976106493
 32
0.0
 70
    32
  3
STANDARD
100
AcDbAlignedDimension
 13
704.9050747749986
 23
628.7544744708217
 33
0.0
 14
736.4801747749984
 24
338.7543744708217
 34
0.0
 50
90.0
100
AcDbRotatedDimension
1001
ACAD
1000
DSTYLE
1002
{
1070
   140
1040
12.0
1070
    74
1070
     0
1070
   172
1070
     1
1070
    73
1070
     0
1070
   272
1070
     2
1070
    77
1070
     3
1070
   173
1070
     1
1070
   147
1040
4.0
1070
    42
1040
12.0
1070
    44
1040
6.0
1070
    43
1040
28.0
1070
   271
1070
     0
1070
   178
1070
     4
1070
   177
1070
     4
1070
   176
1070
     4
1070
   141
1040
150.0
1070
     7
1000
_OPEN
1070
     6
1000
_OPEN
1070
    41
1040
14.0
1070
   143
1040
0.03937
1002
}
  0
DIMENSION
  5
6EA
330
19
100
AcDbEntity
  8
SUNPOU
  6
CONTINUOUS
100
AcDbDimension
  2
*D9
 10
666.8955826495585
 20
288.7544744708217
 30
0.0
 11
656.8955826495584
 21
313.7544244708217
 31
0.0
 12
-16.64262703480653
 22
11.87774976106493
 32
0.0
 70
    32
  3
STANDARD
100
AcDbAlignedDimension
 13
736.4801747749984
 23
338.7543744708217
 33
0.0
 14
765.0614747749984
 24
288.7544744708217
 34
0.0
 50
90.0
100
AcDbRotatedDimension
1001
ACAD
1000
DSTYLE
1002
{
1070
   140
1040
12.0
1070
    74
1070
     0
1070
   172
1070
     1
1070
    73
1070
     0
1070
   272
1070
     2
1070
    77
1070
     3
1070
    75
1070
     1
1070
   173
1070
     1
1070
   147
1040
4.0
1070
    42
1040
12.0
1070
    44
1040
6.0
1070
    43
1040
28.0
1070
   271
1070
     0
1070
   178
1070
     4
1070
   177
1070
     4
1070
   176
1070
     4
1070
   141
1040
150.0
1070
     7
1000
_OPEN
1070
     6
1000
_OPEN
1070
    41
1040
14.0
1070
   143
1040
0.03937
1002
}
  0
DIMENSION
  5
6F7
330
19
100
AcDbEntity
  8
SUNPOU
  6
CONTINUOUS
100
AcDbDimension
  2
*D10
 10
629.5759867251481
 20
268.7544744708217
 30
0.0
 11
619.5759867251481
 21
448.7544744708217
 31
0.0
 12
-16.64262703480653
 22
11.87774976106493
 32
0.0
 70
    32
  3
STANDARD
100
AcDbAlignedDimension
 13
704.9050747749986
 23
628.7544744708217
 33
0.0
 14
775.0049747749986
 24
268.7544744708217
 34
0.0
 50
90.0
100
AcDbRotatedDimension
1001
ACAD
1000
DSTYLE
1002
{
1070
   140
1040
12.0
1070
    74
1070
     0
1070
   172
1070
     1
1070
    73
1070
     0
1070
   272
1070
     2
1070
    77
1070
     3
1070
   173
1070
     1
1070
   147
1040
4.0
1070
    42
1040
12.0
1070
    44
1040
6.0
1070
    43
1040
28.0
1070
   271
1070
     0
1070
   178
1070
     4
1070
   177
1070
     4
1070
   176
1070
     4
1070
   141
1040
150.0
1070
     7
1000
_OPEN
1070
     6
1000
_OPEN
1070
    41
1040
14.0
1070
   143
1040
0.03937
1002
}
  0
DIMENSION
  5
77C
330
19
100
AcDbEntity
  8
SUNPOU
  6
CONTINUOUS
100
AcDbDimension
  2
*D11
 10
762.4550747749985
 20
208.7296227749439
 30
0.0
 11
866.1550747749984
 21
218.7296227749438
 31
0.0
 12
-16.64262703480653
 22
11.87774976106493
 32
0.0
 70
    32
  1
φ<>
  3
STANDARD
100
AcDbAlignedDimension
 13
909.3550747749985
 23
292.7544744708217
 33
0.0
 14
762.4550747749985
 24
292.7544744708217
 34
0.0
100
AcDbRotatedDimension
1001
ACAD
1000
DSTYLE
1002
{
1070
   140
1040
12.0
1070
    74
1070
     0
1070
   172
1070
     1
1070
    73
1070
     0
1070
   272
1070
     2
1070
    77
1070
     3
1070
   173
1070
     1
1070
   280
1070
     1
1070
   147
1040
4.0
1070
    42
1040
12.0
1070
    44
1040
6.0
1070
    43
1040
28.0
1070
   271
1070
     0
1070
   178
1070
     4
1070
   177
1070
     4
1070
   176
1070
     4
1070
   141
1040
150.0
1070
     7
1000
_OPEN
1070
     6
1000
_OPEN
1070
    41
1040
14.0
1070
   143
1040
0.03937
1002
}
  0
LINE
  5
7CD
330
19
100
AcDbEntity
  8
SEIHIN
  6
CONTINUOUS
 62
     3
100
AcDbLine
 10
940.7789610688753
 20
616.7544744708217
 30
0.0
 11
940.8720463484673
 21
625.7544744708217
 31
0.0
  0
DIMENSION
  5
7DB
330
19
100
AcDbEntity
  8
SUNPOU
  6
CONTINUOUS
100
AcDbDimension
  2
*D12
 10
1181.686674774998
 20
674.5849683571691
 30
0.0
 11
1281.686674774998
 21
684.5849683571691
 31
0.0
 12
-1.642627034806537
 22
11.87774976106493
 32
0.0
 70
    32
  3
STANDARD
100
AcDbAlignedDimension
 13
1381.686674774998
 23
615.2979744708217
 33
0.0
 14
1181.686674774998
 24
615.2979744708217
 34
0.0
100
AcDbRotatedDimension
1001
ACAD
1000
DSTYLE
1002
{
1070
   140
1040
12.0
1070
    74
1070
     0
1070
   172
1070
     1
1070
    73
1070
     0
1070
   272
1070
     2
1070
    77
1070
     3
1070
   173
1070
     1
1070
   147
1040
4.0
1070
    42
1040
12.0
1070
    44
1040
6.0
1070
    43
1040
28.0
1070
   271
1070
     0
1070
   178
1070
     4
1070
   177
1070
     4
1070
   176
1070
     4
1070
   141
1040
150.0
1070
     7
1000
_OPEN
1070
     6
1000
_OPEN
1070
    41
1040
14.0
1070
   143
1040
0.03937
1002
}
  0
DIMENSION
  5
7E8
330
19
100
AcDbEntity
  8
SUNPOU
  6
CONTINUOUS
100
AcDbDimension
  2
*D13
 10
1145.687074774998
 20
709.6552131407125
 30
0.0
 11
1281.686674774998
 21
719.6552131407124
 31
0.0
 12
-1.642627034806537
 22
11.87774976106493
 32
0.0
 70
    32
  3
STANDARD
100
AcDbAlignedDimension
 13
1417.686274774998
 23
628.7544744708217
 33
0.0
 14
1145.687074774998
 24
628.7544744708217
 34
0.0
100
AcDbRotatedDimension
1001
ACAD
1000
DSTYLE
1002
{
1070
   140
1040
12.0
1070
    74
1070
     0
1070
   172
1070
     1
1070
    73
1070
     0
1070
   272
1070
     2
1070
    77
1070
     3
1070
   173
1070
     1
1070
   147
1040
4.0
1070
    42
1040
12.0
1070
    44
1040
6.0
1070
    43
1040
28.0
1070
   271
1070
     0
1070
   178
1070
     4
1070
   177
1070
     4
1070
   176
1070
     4
1070
   141
1040
150.0
1070
     7
1000
_OPEN
1070
     6
1000
_OPEN
1070
    41
1040
14.0
1070
   143
1040
0.03937
1002
}
  0
DIMENSION
  5
7F7
330
19
100
AcDbEntity
  8
SUNPOU
  6
CONTINUOUS
100
AcDbDimension
  2
*D14
 10
1113.56763754626
 20
595.7545744708217
 30
0.0
 11
1103.56763754626
 21
555.7545744708217
 31
0.0
 12
-1.642627034806537
 22
11.87774976106493
 32
0.0
 70
    32
  3
STANDARD
100
AcDbAlignedDimension
 13
1181.686674774998
 23
611.7545744708216
 33
0.0
 14
1181.686674774998
 24
595.7545744708217
 34
0.0
 50
90.0
100
AcDbRotatedDimension
1001
ACAD
1000
DSTYLE
1002
{
1070
   140
1040
12.0
1070
    74
1070
     0
1070
   172
1070
     1
1070
    73
1070
     0
1070
   272
1070
     2
1070
    77
1070
     3
1070
   173
1070
     1
1070
   147
1040
4.0
1070
    42
1040
12.0
1070
    44
1040
6.0
1070
    43
1040
28.0
1070
   271
1070
     0
1070
   178
1070
     4
1070
   177
1070
     4
1070
   176
1070
     4
1070
   141
1040
150.0
1070
     7
1000
_OPEN
1070
     6
1000
_OPEN
1070
    41
1040
14.0
1070
   143
1040
0.03937
1002
}
  0
DIMENSION
  5
824
330
19
100
AcDbEntity
  8
SUNPOU
  6
CONTINUOUS
100
AcDbDimension
  2
*D15
 10
1072.926346281817
 20
603.7545744708217
 30
0.0
 11
1062.926346281818
 21
561.7545744708216
 31
0.0
 12
-1.642627034806537
 22
11.87774976106493
 32
0.0
 70
    32
  3
STANDARD
100
AcDbAlignedDimension
 13
1145.687074774998
 23
628.7544744708217
 33
0.0
 14
1169.423674774998
 24
603.7545744708217
 34
0.0
 50
90.0
100
AcDbRotatedDimension
1001
ACAD
1000
DSTYLE
1002
{
1070
   140
1040
12.0
1070
    74
1070
     0
1070
   172
1070
     1
1070
    73
1070
     0
1070
   272
1070
     2
1070
    77
1070
     3
1070
   173
1070
     1
1070
   147
1040
4.0
1070
    42
1040
12.0
1070
    44
1040
6.0
1070
    43
1040
28.0
1070
   271
1070
     0
1070
   178
1070
     4
1070
   177
1070
     4
1070
   176
1070
     4
1070
   141
1040
150.0
1070
     7
1000
_OPEN
1070
     6
1000
_OPEN
1070
    41
1040
14.0
1070
   143
1040
0.03937
1002
}
  0
VIEWPORT
  5
22
330
16
100
AcDbEntity
 67
     1
  8
0
100
AcDbViewport
 10
313.6808219178082
 20
148.5
 30
0.0
 40
627.3616438356165
 41
297.0
 68
     2
 69
     1
1001
ACAD
1000
MVIEW
1002
{
1070
    16
1010
0.0
1020
0.0
1030
0.0
1010
0.0
1020
0.0
1030
1.0
1040
0.0
1040
297.0
1040
313.6808219178082
1040
148.5
1040
50.0
1040
0.0
1040
0.0
1070
     0
1070
   100
1070
     1
1070
     0
1070
     0
1070
     0
1070
     0
1070
     0
1040
0.0
1040
0.0
1040
0.0
1040
10.0
1040
10.0
1040
10.0
1040
10.0
1070
     0
1002
{
1002
}
1002
}
  0
VIEWPORT
  5
25
330
16
100
AcDbEntity
 67
     1
  8
VIEWPORT
100
AcDbViewport
 10
210.0
 20
148.5
 30
0.0
 40
420.0
 41
297.0
 68
     1
 69
     2
1001
ACAD
1000
MVIEW
1002
{
1070
    16
1010
0.0
1020
0.0
1030
0.0
1010
0.0
1020
0.0
1030
1.0
1040
0.0
1040
1212.607689320388
1040
841.0
1040
594.0
1040
50.0
1040
0.0
1040
0.0
1070
     0
1070
   100
1070
     1
1070
     0
1070
     0
1070
     0
1070
     0
1070
     0
1040
0.0
1040
0.0
1040
0.0
1040
57.0
1040
57.0
1040
57.0
1040
57.0
1070
     0
1002
{
1002
}
1002
}
  0
ENDSEC
  0
SECTION
  2
OBJECTS
  0
DICTIONARY
  5
C
330
0
100
AcDbDictionary
  3
ACAD_GROUP
350
D
  3
ACAD_LAYOUT
350
850
  3
ACAD_MLINESTYLE
350
E
  3
ACAD_PLOTSETTINGS
350
851
1001
ACAD
1000
TREAT_AS_HARD
1070
     0
  0
DICTIONARY
  5
87D
330
19
100
AcDbDictionary
  3
ACAD_LAYOUTSELFREF
350
8EF
1001
ACAD
1000
TREAT_AS_HARD
1070
     1
  0
DICTIONARY
  5
87B
330
16
100
AcDbDictionary
  3
ACAD_LAYOUTSELFREF
350
8EE
1001
ACAD
1000
TREAT_AS_HARD
1070
     1
  0
DICTIONARY
  5
D
102
{ACAD_REACTORS
330
C
102
}
330
C
100
AcDbDictionary
1001
ACAD
1000
TREAT_AS_HARD
1070
     0
  0
DICTIONARY
  5
850
102
{ACAD_REACTORS
330
C
102
}
330
C
100
AcDbDictionary
1001
ACAD
1000
TREAT_AS_HARD
1070
     0
  0
DICTIONARY
  5
E
102
{ACAD_REACTORS
330
C
102
}
330
C
100
AcDbDictionary
  3
STANDARD
350
1C
1001
ACAD
1000
TREAT_AS_HARD
1070
     0
  0
DICTIONARY
  5
851
102
{ACAD_REACTORS
330
C
102
}
330
C
100
AcDbDictionary
1001
ACAD
1000
TREAT_AS_HARD
1070
     0
  0
XRECORD
  5
8EF
102
{ACAD_REACTORS
330
87D
102
}
330
87D
100
AcDbXrecord
340
19
  0
XRECORD
  5
8EE
102
{ACAD_REACTORS
330
87B
102
}
330
87B
100
AcDbXrecord
340
16
  0
MLINESTYLE
  5
1C
102
{ACAD_REACTORS
330
E
102
}
330
E
100
AcDbMlineStyle
  2
STANDARD
 70
     0
  3

 62
     0
 51
90.0
 52
90.0
 71
     2
 49
0.5
 62
   256
  6
BYLAYER
 49
-0.5
 62
   256
  6
BYLAYER
  0
ENDSEC
  0
EOF
