  0
SECTION
  2
HEADER
  9
$ACADVER
  1
AC1012
  9
$DWGCODEPAGE
  3
dos932
  9
$INSBASE
 10
0.0
 20
0.0
 30
0.0
  9
$EXTMIN
 10
4.985962897755712
 20
2.438141563486055
 30
-0.0015258207003583
  9
$EXTMAX
 10
403.0297861143829
 20
282.0086066310859
 30
0.0000000349246037
  9
$LIMMIN
 10
0.0
 20
0.0
  9
$LIMMAX
 10
420.0
 20
297.0
  9
$ORTHOMODE
 70
     0
  9
$REGENMODE
 70
     1
  9
$FILLMODE
 70
     1
  9
$QTEXTMODE
 70
     0
  9
$MIRRTEXT
 70
     1
  9
$DRAGMODE
 70
     2
  9
$LTSCALE
 40
1.0
  9
$OSMODE
 70
    37
  9
$ATTMODE
 70
     1
  9
$TEXTSIZE
 40
2.5
  9
$TRACEWID
 40
1.0
  9
$TEXTSTYLE
  7
STANDARD
  9
$CLAYER
  8
SEIHIN
  9
$CELTYPE
  6
BYLAYER
  9
$CECOLOR
 62
   256
  9
$CELTSCALE
 40
1.0
  9
$DELOBJ
 70
     1
  9
$DISPSILH
 70
     0
  9
$DIMSCALE
 40
1.0
  9
$DIMASZ
 40
3.0
  9
$DIMEXO
 40
3.0
  9
$DIMDLI
 40
7.0
  9
$DIMRND
 40
0.0
  9
$DIMDLE
 40
0.0
  9
$DIMEXE
 40
1.5
  9
$DIMTP
 40
0.0
  9
$DIMTM
 40
0.0
  9
$DIMTXT
 40
3.0
  9
$DIMCEN
 40
150.0
  9
$DIMTSZ
 40
0.0
  9
$DIMTOL
 70
     0
  9
$DIMLIM
 70
     0
  9
$DIMTIH
 70
     0
  9
$DIMTOH
 70
     0
  9
$DIMSE1
 70
     0
  9
$DIMSE2
 70
     0
  9
$DIMTAD
 70
     3
  9
$DIMZIN
 70
     0
  9
$DIMBLK
  1

  9
$DIMASO
 70
     1
  9
$DIMSHO
 70
     1
  9
$DIMPOST
  1

  9
$DIMAPOST
  1

  9
$DIMALT
 70
     0
  9
$DIMALTD
 70
     2
  9
$DIMALTF
 40
25.4
  9
$DIMLFAC
 40
1.0
  9
$DIMTOFL
 70
     1
  9
$DIMTVP
 40
0.0
  9
$DIMTIX
 70
     0
  9
$DIMSOXD
 70
     0
  9
$DIMSAH
 70
     1
  9
$DIMBLK1
  1
OPEN
  9
$DIMBLK2
  1
OPEN
  9
$DIMSTYLE
  2
STANDARD
  9
$DIMCLRD
 70
   256
  9
$DIMCLRE
 70
   256
  9
$DIMCLRT
 70
   256
  9
$DIMTFAC
 40
1.0
  9
$DIMGAP
 40
1.0
  9
$DIMJUST
 70
     0
  9
$DIMSD1
 70
     0
  9
$DIMSD2
 70
     0
  9
$DIMTOLJ
 70
     1
  9
$DIMTZIN
 70
     0
  9
$DIMALTZ
 70
     0
  9
$DIMALTTZ
 70
     0
  9
$DIMFIT
 70
     3
  9
$DIMUPT
 70
     0
  9
$DIMUNIT
 70
     2
  9
$DIMDEC
 70
     0
  9
$DIMTDEC
 70
     0
  9
$DIMALTU
 70
     2
  9
$DIMALTTD
 70
     2
  9
$DIMTXSTY
  7
STANDARD
  9
$DIMAUNIT
 70
     0
  9
$LUNITS
 70
     2
  9
$LUPREC
 70
     4
  9
$SKETCHINC
 40
1.0
  9
$FILLETRAD
 40
10.0
  9
$AUNITS
 70
     0
  9
$AUPREC
 70
     0
  9
$MENU
  1
.
  9
$ELEVATION
 40
0.0
  9
$PELEVATION
 40
0.0
  9
$THICKNESS
 40
0.0
  9
$LIMCHECK
 70
     0
  9
$BLIPMODE
 70
     0
  9
$CHAMFERA
 40
10.0
  9
$CHAMFERB
 40
10.0
  9
$CHAMFERC
 40
20.0
  9
$CHAMFERD
 40
0.0
  9
$SKPOLY
 70
     0
  9
$TDCREATE
 40
2451212.485582985
  9
$TDUPDATE
 40
2452445.840561458
  9
$TDINDWG
 40
0.0033630787
  9
$TDUSRTIMER
 40
0.0033630787
  9
$USRTIMER
 70
     1
  9
$ANGBASE
 50
0.0
  9
$ANGDIR
 70
     0
  9
$PDMODE
 70
     0
  9
$PDSIZE
 40
0.0
  9
$PLINEWID
 40
0.0
  9
$COORDS
 70
     1
  9
$SPLFRAME
 70
     0
  9
$SPLINETYPE
 70
     6
  9
$SPLINESEGS
 70
     8
  9
$ATTDIA
 70
     0
  9
$ATTREQ
 70
     1
  9
$HANDLING
 70
 10241
  9
$HANDSEED
  5
312
  9
$SURFTAB1
 70
     6
  9
$SURFTAB2
 70
     6
  9
$SURFTYPE
 70
     6
  9
$SURFU
 70
     6
  9
$SURFV
 70
     6
  9
$UCSNAME
  2

  9
$UCSORG
 10
0.0
 20
0.0
 30
0.0
  9
$UCSXDIR
 10
1.0
 20
0.0
 30
0.0
  9
$UCSYDIR
 10
0.0
 20
1.0
 30
0.0
  9
$PUCSNAME
  2

  9
$PUCSORG
 10
0.0
 20
0.0
 30
0.0
  9
$PUCSXDIR
 10
1.0
 20
0.0
 30
0.0
  9
$PUCSYDIR
 10
0.0
 20
1.0
 30
0.0
  9
$USERI1
 70
     0
  9
$USERI2
 70
     0
  9
$USERI3
 70
     0
  9
$USERI4
 70
     0
  9
$USERI5
 70
     0
  9
$USERR1
 40
0.0
  9
$USERR2
 40
0.0
  9
$USERR3
 40
0.0
  9
$USERR4
 40
0.0
  9
$USERR5
 40
0.0
  9
$WORLDVIEW
 70
     1
  9
$SHADEDGE
 70
     3
  9
$SHADEDIF
 70
    70
  9
$TILEMODE
 70
     1
  9
$MAXACTVP
 70
    16
  9
$PINSBASE
 10
0.0
 20
0.0
 30
0.0
  9
$PLIMCHECK
 70
     0
  9
$PEXTMIN
 10
0.0
 20
0.0
 30
0.0
  9
$PEXTMAX
 10
420.0
 20
297.0
 30
0.0
  9
$PLIMMIN
 10
0.0
 20
0.0
  9
$PLIMMAX
 10
420.0
 20
297.0
  9
$UNITMODE
 70
     0
  9
$VISRETAIN
 70
     0
  9
$PLINEGEN
 70
     0
  9
$PSLTSCALE
 70
     1
  9
$TREEDEPTH
 70
  3020
  9
$PICKSTYLE
 70
     1
  9
$CMLSTYLE
  2
STANDARD
  9
$CMLJUST
 70
     0
  9
$CMLSCALE
 40
1.0
  9
$SAVEIMAGES
 70
     1
  0
ENDSEC
  0
SECTION
  2
CLASSES
  0
CLASS
  1
ACDBDICTIONARYWDFLT
  2
AcDbDictionaryWithDefault
  3
AutoCAD 2000
 90
    32768
280
     0
281
     0
  0
CLASS
  1
ACDBPLACEHOLDER
  2
AcDbPlaceHolder
  3
AutoCAD 2000
 90
    32768
280
     0
281
     0
  0
CLASS
  1
LAYOUT
  2
AcDbLayout
  3
AutoCAD 2000
 90
    32768
280
     0
281
     0
  0
CLASS
  1
LONG_TRANSACTION
  2
AcDbLongTransaction
  3
AutoCAD 2000
 90
    32768
280
     0
281
     0
  0
CLASS
  1
LWPOLYLINE
  2
AcDbPolyline
  3
AutoCAD 2000
 90
    32768
280
     0
281
     1
  0
CLASS
  1
HATCH
  2
AcDbHatch
  3
AutoCAD 2000
 90
    32768
280
     0
281
     1
  0
CLASS
  1
XRECORD
  2
AcDbXrecord
  3
AutoCAD 2000
 90
    32768
280
     0
281
     0
  0
ENDSEC
  0
SECTION
  2
TABLES
  0
TABLE
  2
VPORT
  5
8
330
0
100
AcDbSymbolTable
 70
     3
  0
VPORT
  5
30D
330
8
100
AcDbSymbolTableRecord
100
AcDbViewportTableRecord
  2
*ACTIVE
 70
     0
 10
0.0
 20
0.0
 11
1.0
 21
1.0
 12
232.582426726733
 22
145.0304784925657
 13
0.0
 23
0.0
 14
5.0
 24
5.0
 15
0.0
 25
0.0
 16
0.0
 26
0.0
 36
1.0
 17
0.0
 27
0.0
 37
0.0
 40
302.6392814220744
 41
1.840236686390532
 42
50.0
 43
0.0
 44
0.0
 50
0.0
 51
0.0
 71
     0
 72
   100
 73
     1
 74
     0
 75
     0
 76
     0
 77
     0
 78
     0
  0
ENDTAB
  0
TABLE
  2
LTYPE
  5
5
330
0
100
AcDbSymbolTable
 70
     4
  0
LTYPE
  5
14
330
5
100
AcDbSymbolTableRecord
100
AcDbLinetypeTableRecord
  2
BYBLOCK
 70
     0
  3

 72
    65
 73
     0
 40
0.0
  0
LTYPE
  5
15
330
5
100
AcDbSymbolTableRecord
100
AcDbLinetypeTableRecord
  2
BYLAYER
 70
     0
  3

 72
    65
 73
     0
 40
0.0
  0
LTYPE
  5
16
330
5
100
AcDbSymbolTableRecord
100
AcDbLinetypeTableRecord
  2
CONTINUOUS
 70
     0
  3
Solid line
 72
    65
 73
     0
 40
0.0
  0
LTYPE
  5
120
330
5
100
AcDbSymbolTableRecord
100
AcDbLinetypeTableRecord
  2
CENTER
 70
     0
  3
____ _ ____ _ ____ _ ____ _ ____ _ ____ _ ____ 
 72
    65
 73
     4
 40
2.0
 49
1.25
 74
     0
 49
-0.25
 74
     0
 49
0.25
 74
     0
 49
-0.25
 74
     0
  0
ENDTAB
  0
TABLE
  2
LAYER
  5
2
330
0
100
AcDbSymbolTable
 70
     7
  0
LAYER
  5
F
330
2
100
AcDbSymbolTableRecord
100
AcDbLayerTableRecord
  2
0
 70
     0
 62
     7
  6
CONTINUOUS
  0
LAYER
  5
62
330
2
100
AcDbSymbolTableRecord
100
AcDbLayerTableRecord
  2
VIEWPORT
 70
     0
 62
     7
  6
CONTINUOUS
  0
LAYER
  5
6B
330
2
100
AcDbSymbolTableRecord
100
AcDbLayerTableRecord
  2
ZUWAKU
 70
     0
 62
     7
  6
CONTINUOUS
  0
LAYER
  5
134
330
2
100
AcDbSymbolTableRecord
100
AcDbLayerTableRecord
  2
SEIHIN
 70
     0
 62
     3
  6
CONTINUOUS
  0
LAYER
  5
135
330
2
100
AcDbSymbolTableRecord
100
AcDbLayerTableRecord
  2
SUNPOU
 70
     0
 62
     4
  6
CONTINUOUS
  0
LAYER
  5
136
330
2
100
AcDbSymbolTableRecord
100
AcDbLayerTableRecord
  2
CENTER_L
 70
     0
 62
     1
  6
CENTER
  0
LAYER
  5
2A3
330
2
100
AcDbSymbolTableRecord
100
AcDbLayerTableRecord
  2
DEFPOINTS
 70
     0
 62
     7
  6
CONTINUOUS
  0
ENDTAB
  0
TABLE
  2
STYLE
  5
3
330
0
100
AcDbSymbolTable
 70
     1
  0
STYLE
  5
10
330
3
100
AcDbSymbolTableRecord
100
AcDbTextStyleTableRecord
  2
STANDARD
 70
     0
 40
0.0
 41
1.0
 50
0.0
 71
     0
 42
2.5
  3
TXT
  4
bigfont.shx
  0
ENDTAB
  0
TABLE
  2
VIEW
  5
6
330
0
100
AcDbSymbolTable
 70
     0
  0
ENDTAB
  0
TABLE
  2
UCS
  5
7
330
0
100
AcDbSymbolTable
 70
     0
  0
ENDTAB
  0
TABLE
  2
APPID
  5
9
330
0
100
AcDbSymbolTable
 70
     1
  0
APPID
  5
11
330
9
100
AcDbSymbolTableRecord
100
AcDbRegAppTableRecord
  2
ACAD
 70
     0
  0
ENDTAB
  0
TABLE
  2
DIMSTYLE
  5
A
330
0
100
AcDbSymbolTable
 70
     8
  0
DIMSTYLE
105
1D
102
{ACAD_REACTORS
330
2A7
330
2B4
330
2C1
330
2CE
102
}
330
A
100
AcDbSymbolTableRecord
100
AcDbDimStyleTableRecord
  2
STANDARD
 70
     0
  3

  4

  5

  6

  7

 40
1.0
 41
0.18
 42
0.0625
 43
0.38
 44
0.18
 45
0.0
 46
0.0
 47
0.0
 48
0.0
140
0.18
141
0.09
142
0.0
143
25.4
144
1.0
145
0.0
146
1.0
147
0.09
 71
     0
 72
     0
 73
     1
 74
     1
 75
     0
 76
     0
 77
     0
 78
     0
170
     0
171
     2
172
     0
173
     0
174
     0
175
     0
176
     0
177
     0
178
     0
270
     2
271
     4
272
     4
273
     2
274
     2
340
10
275
     0
280
     0
281
     0
282
     0
283
     1
284
     0
285
     0
286
     0
287
     3
288
     0
  0
ENDTAB
  0
TABLE
  2
BLOCK_RECORD
  5
1
330
0
100
AcDbSymbolTable
 70
     7
  0
BLOCK_RECORD
  5
1A
102
{ACAD_XDICTIONARY
360
310
102
}
330
1
100
AcDbSymbolTableRecord
100
AcDbBlockTableRecord
  2
*MODEL_SPACE
  0
BLOCK_RECORD
  5
17
102
{ACAD_XDICTIONARY
360
30E
102
}
330
1
100
AcDbSymbolTableRecord
100
AcDbBlockTableRecord
  2
*PAPER_SPACE
  0
BLOCK_RECORD
  5
B2
330
1
100
AcDbSymbolTableRecord
100
AcDbBlockTableRecord
  2
_OPEN
  0
BLOCK_RECORD
  5
29D
330
1
100
AcDbSymbolTableRecord
100
AcDbBlockTableRecord
  2
*D3
  0
BLOCK_RECORD
  5
2A8
330
1
100
AcDbSymbolTableRecord
100
AcDbBlockTableRecord
  2
*D4
  0
BLOCK_RECORD
  5
2B5
330
1
100
AcDbSymbolTableRecord
100
AcDbBlockTableRecord
  2
*D5
  0
BLOCK_RECORD
  5
2C2
330
1
100
AcDbSymbolTableRecord
100
AcDbBlockTableRecord
  2
*D6
  0
ENDTAB
  0
ENDSEC
  0
SECTION
  2
BLOCKS
  0
BLOCK
  5
1B
330
1A
100
AcDbEntity
  8
0
100
AcDbBlockBegin
  2
*MODEL_SPACE
 70
     0
 10
0.0
 20
0.0
 30
0.0
  3
*MODEL_SPACE
  1

  0
ENDBLK
  5
1C
330
1A
100
AcDbEntity
  8
0
100
AcDbBlockEnd
  0
BLOCK
  5
18
330
17
100
AcDbEntity
 67
     1
  8
0
100
AcDbBlockBegin
  2
*PAPER_SPACE
 70
     0
 10
0.0
 20
0.0
 30
0.0
  3
*PAPER_SPACE
  1

  0
ENDBLK
  5
19
330
17
100
AcDbEntity
 67
     1
  8
0
100
AcDbBlockEnd
  0
BLOCK
  5
B3
330
B2
100
AcDbEntity
  8
0
100
AcDbBlockBegin
  2
_OPEN
 70
     0
 10
0.0
 20
0.0
 30
0.0
  3
_OPEN
  1

  0
LINE
  5
B4
330
B2
100
AcDbEntity
  8
0
  6
BYBLOCK
 62
     0
100
AcDbLine
 10
-1.0
 20
0.1666666666666666
 30
0.0
 11
0.0
 21
0.0
 31
0.0
  0
LINE
  5
B5
330
B2
100
AcDbEntity
  8
0
  6
BYBLOCK
 62
     0
100
AcDbLine
 10
0.0
 20
0.0
 30
0.0
 11
-1.0
 21
-0.1666666666666666
 31
0.0
  0
LINE
  5
B6
330
B2
100
AcDbEntity
  8
0
  6
BYBLOCK
 62
     0
100
AcDbLine
 10
0.0
 20
0.0
 30
0.0
 11
-1.0
 21
0.0
 31
0.0
  0
ENDBLK
  5
B7
330
B2
100
AcDbEntity
  8
0
100
AcDbBlockEnd
  0
BLOCK
  5
29E
330
29D
100
AcDbEntity
  8
0
100
AcDbBlockBegin
  2
*D3
 70
     1
 10
0.0
 20
0.0
 30
0.0
  3
*D3
  1

  0
LINE
  5
29F
330
29D
100
AcDbEntity
  8
0
  6
BYBLOCK
 62
     4
100
AcDbLine
 10
139.2227139373654
 20
149.6317951513074
 30
0.0
 11
155.0431804832075
 21
161.0319470378716
 31
0.0
  0
INSERT
  5
2A0
330
29D
100
AcDbEntity
  8
0
  6
BYBLOCK
 62
     4
100
AcDbBlockReference
  2
_OPEN
 10
136.7887980067421
 20
147.8779270711321
 30
0.0
 41
3.0
 42
3.0
 43
3.0
 50
215.7763395012703
  0
INSERT
  5
2A1
330
29D
100
AcDbEntity
  8
0
  6
BYBLOCK
 62
     4
100
AcDbBlockReference
  2
_OPEN
 10
157.4770964138309
 20
162.7858151180469
 30
0.0
 41
3.0
 42
3.0
 43
3.0
 50
35.77633950127029
  0
MTEXT
  5
2A2
330
29D
100
AcDbEntity
  8
0
  6
BYBLOCK
 62
     4
100
AcDbMText
 10
149.5250971986892
 20
160.1370968464322
 30
0.0
 40
3.0
 41
0.0
 71
     5
 72
     1
  1
\A1;\U+220526
 11
0.8113053102077788
 21
0.5846226933917804
 31
0.0
1001
ACAD
1000
MTEXTBEGIN
1070
    73
1070
     1
1070
    44
1040
1.0
1070
    74
1070
     0
1000
MTEXTEND
  0
POINT
  5
2A4
330
29D
100
AcDbEntity
  8
DEFPOINTS
  6
BYBLOCK
 62
     0
100
AcDbPoint
 10
157.4770964138309
 20
162.7858151180469
 30
0.0
  0
POINT
  5
2A5
330
29D
100
AcDbEntity
  8
DEFPOINTS
  6
BYBLOCK
 62
     0
100
AcDbPoint
 10
136.7887980067421
 20
147.8779270711321
 30
0.0
  0
ENDBLK
  5
2A6
330
29D
100
AcDbEntity
  8
0
100
AcDbBlockEnd
  0
BLOCK
  5
2F2
330
2A8
100
AcDbEntity
  8
0
100
AcDbBlockBegin
  2
*D4
 70
     1
 10
0.0
 20
0.0
 30
0.0
  3
*D4
  1

  0
LINE
  5
2F3
330
2A8
100
AcDbEntity
  8
0
  6
BYBLOCK
 62
     4
100
AcDbLine
 10
176.8387464139528
 20
160.9580393075586
 30
0.0
 11
209.5557114990297
 21
160.9580393075586
 31
0.0
  0
LINE
  5
2F4
330
2A8
100
AcDbEntity
  8
0
  6
BYBLOCK
 62
     4
100
AcDbLine
 10
176.8387464139528
 20
99.65803930755861
 30
0.0
 11
209.5557114990297
 21
99.65803930755861
 31
0.0
  0
LINE
  5
2F5
330
2A8
100
AcDbEntity
  8
0
  6
BYBLOCK
 62
     4
100
AcDbLine
 10
208.0557114990297
 20
157.9580393075586
 30
0.0
 11
208.0557114990297
 21
102.6580393075586
 31
0.0
  0
INSERT
  5
2F6
330
2A8
100
AcDbEntity
  8
0
  6
BYBLOCK
 62
     4
100
AcDbBlockReference
  2
_OPEN
 10
208.0557114990297
 20
160.9580393075586
 30
0.0
 41
3.0
 42
3.0
 43
3.0
 50
90.0
  0
INSERT
  5
2F7
330
2A8
100
AcDbEntity
  8
0
  6
BYBLOCK
 62
     4
100
AcDbBlockReference
  2
_OPEN
 10
208.0557114990297
 20
99.65803930755861
 30
0.0
 41
3.0
 42
3.0
 43
3.0
 50
270.0
  0
MTEXT
  5
2F8
330
2A8
100
AcDbEntity
  8
0
  6
BYBLOCK
 62
     4
100
AcDbMText
 10
205.5557114990297
 20
130.3080393075586
 30
0.0
 40
3.0
 41
0.0
 71
     5
 72
     1
  1
\A1;61
 11
0.0
 21
1.0
 31
0.0
1001
ACAD
1000
MTEXTBEGIN
1070
    73
1070
     1
1070
    44
1040
1.0
1070
    74
1070
     0
1000
MTEXTEND
  0
POINT
  5
2F9
330
2A8
100
AcDbEntity
  8
DEFPOINTS
  6
BYBLOCK
 62
     0
100
AcDbPoint
 10
173.8387464139528
 20
160.9580393075586
 30
0.0
  0
POINT
  5
2FA
330
2A8
100
AcDbEntity
  8
DEFPOINTS
  6
BYBLOCK
 62
     0
100
AcDbPoint
 10
173.8387464139528
 20
99.65803930755861
 30
0.0
  0
POINT
  5
2FB
330
2A8
100
AcDbEntity
  8
DEFPOINTS
  6
BYBLOCK
 62
     0
100
AcDbPoint
 10
208.0557114990297
 20
99.65803930755861
 30
0.0
  0
ENDBLK
  5
2FC
330
2A8
100
AcDbEntity
  8
0
100
AcDbBlockEnd
  0
BLOCK
  5
2E7
330
2B5
100
AcDbEntity
  8
0
100
AcDbBlockBegin
  2
*D5
 70
     1
 10
0.0
 20
0.0
 30
0.0
  3
*D5
  1

  0
LINE
  5
2E8
330
2B5
100
AcDbEntity
  8
0
  6
BYBLOCK
 62
     4
100
AcDbLine
 10
260.6887464139528
 20
163.9580393075586
 30
0.0
 11
260.6887464139528
 21
180.6897056809588
 31
0.0
  0
LINE
  5
2E9
330
2B5
100
AcDbEntity
  8
0
  6
BYBLOCK
 62
     4
100
AcDbLine
 10
288.6887464139526
 20
163.5580393075585
 30
0.0
 11
288.6887464139526
 21
180.6897056809588
 31
0.0
  0
LINE
  5
2EA
330
2B5
100
AcDbEntity
  8
0
  6
BYBLOCK
 62
     4
100
AcDbLine
 10
263.6887464139527
 20
179.1897056809588
 30
0.0
 11
285.6887464139526
 21
179.1897056809588
 31
0.0
  0
INSERT
  5
2EB
330
2B5
100
AcDbEntity
  8
0
  6
BYBLOCK
 62
     4
100
AcDbBlockReference
  2
_OPEN
 10
260.6887464139528
 20
179.1897056809588
 30
0.0
 41
3.0
 42
3.0
 43
3.0
 50
180.0
  0
INSERT
  5
2EC
330
2B5
100
AcDbEntity
  8
0
  6
BYBLOCK
 62
     4
100
AcDbBlockReference
  2
_OPEN
 10
288.6887464139526
 20
179.1897056809588
 30
0.0
 41
3.0
 42
3.0
 43
3.0
  0
MTEXT
  5
2ED
330
2B5
100
AcDbEntity
  8
0
  6
BYBLOCK
 62
     4
100
AcDbMText
 10
274.6887464139527
 20
181.6897056809588
 30
0.0
 40
3.0
 41
0.0
 71
     5
 72
     1
  1
\A1;28
1001
ACAD
1000
MTEXTBEGIN
1070
    73
1070
     1
1070
    44
1040
1.0
1070
    74
1070
     0
1000
MTEXTEND
  0
POINT
  5
2EE
330
2B5
100
AcDbEntity
  8
DEFPOINTS
  6
BYBLOCK
 62
     0
100
AcDbPoint
 10
260.6887464139528
 20
160.9580393075586
 30
0.0
  0
POINT
  5
2EF
330
2B5
100
AcDbEntity
  8
DEFPOINTS
  6
BYBLOCK
 62
     0
100
AcDbPoint
 10
288.6887464139526
 20
160.5580393075585
 30
0.0
  0
POINT
  5
2F0
330
2B5
100
AcDbEntity
  8
DEFPOINTS
  6
BYBLOCK
 62
     0
100
AcDbPoint
 10
288.6887464139526
 20
179.1897056809588
 30
0.0
  0
ENDBLK
  5
2F1
330
2B5
100
AcDbEntity
  8
0
100
AcDbBlockEnd
  0
BLOCK
  5
2DC
330
2C2
100
AcDbEntity
  8
0
100
AcDbBlockBegin
  2
*D6
 70
     1
 10
0.0
 20
0.0
 30
0.0
  3
*D6
  1

  0
LINE
  5
2DD
330
2C2
100
AcDbEntity
  8
0
  6
BYBLOCK
 62
     4
100
AcDbLine
 10
186.3387464139528
 20
151.4580393075586
 30
0.0
 11
186.3387464139528
 21
180.6897056809588
 31
0.0
  0
LINE
  5
2DE
330
2C2
100
AcDbEntity
  8
0
  6
BYBLOCK
 62
     4
100
AcDbLine
 10
125.0387464139527
 20
145.0852393075586
 30
0.0
 11
125.0387464139527
 21
180.6897056809588
 31
0.0
  0
LINE
  5
2DF
330
2C2
100
AcDbEntity
  8
0
  6
BYBLOCK
 62
     4
100
AcDbLine
 10
183.3387464139527
 20
179.1897056809588
 30
0.0
 11
128.0387464139527
 21
179.1897056809588
 31
0.0
  0
INSERT
  5
2E0
330
2C2
100
AcDbEntity
  8
0
  6
BYBLOCK
 62
     4
100
AcDbBlockReference
  2
_OPEN
 10
186.3387464139528
 20
179.1897056809588
 30
0.0
 41
3.0
 42
3.0
 43
3.0
  0
INSERT
  5
2E1
330
2C2
100
AcDbEntity
  8
0
  6
BYBLOCK
 62
     4
100
AcDbBlockReference
  2
_OPEN
 10
125.0387464139527
 20
179.1897056809588
 30
0.0
 41
3.0
 42
3.0
 43
3.0
 50
180.0
  0
MTEXT
  5
2E2
330
2C2
100
AcDbEntity
  8
0
  6
BYBLOCK
 62
     4
100
AcDbMText
 10
155.6887464139527
 20
181.6897056809588
 30
0.0
 40
3.0
 41
0.0
 71
     5
 72
     1
  1
\A1;61
1001
ACAD
1000
MTEXTBEGIN
1070
    73
1070
     1
1070
    44
1040
1.0
1070
    74
1070
     0
1000
MTEXTEND
  0
POINT
  5
2E3
330
2C2
100
AcDbEntity
  8
DEFPOINTS
  6
BYBLOCK
 62
     0
100
AcDbPoint
 10
186.3387464139528
 20
148.4580393075586
 30
0.0
  0
POINT
  5
2E4
330
2C2
100
AcDbEntity
  8
DEFPOINTS
  6
BYBLOCK
 62
     0
100
AcDbPoint
 10
125.0387464139527
 20
142.0852393075586
 30
0.0
  0
POINT
  5
2E5
330
2C2
100
AcDbEntity
  8
DEFPOINTS
  6
BYBLOCK
 62
     0
100
AcDbPoint
 10
125.0387464139527
 20
179.1897056809588
 30
0.0
  0
ENDBLK
  5
2E6
330
2C2
100
AcDbEntity
  8
0
100
AcDbBlockEnd
  0
ENDSEC
  0
SECTION
  2
ENTITIES
  0
LINE
  5
6C
330
1A
100
AcDbEntity
  8
ZUWAKU
  6
CONTINUOUS
 62
     7
100
AcDbLine
 10
403.0
 20
7.0
 30
0.0
 11
5.0
 21
7.0
 31
0.0
  0
LINE
  5
6D
330
1A
100
AcDbEntity
  8
ZUWAKU
  6
CONTINUOUS
 62
     7
100
AcDbLine
 10
5.0
 20
282.0
 30
0.0
 11
5.0
 21
7.0
 31
0.0
  0
LINE
  5
6E
330
1A
100
AcDbEntity
  8
ZUWAKU
  6
CONTINUOUS
 62
     7
100
AcDbLine
 10
403.0
 20
282.0
 30
0.0
 11
403.0
 21
7.0
 31
0.0
  0
LINE
  5
6F
330
1A
100
AcDbEntity
  8
ZUWAKU
  6
CONTINUOUS
 62
     7
100
AcDbLine
 10
403.0
 20
282.0
 30
0.0
 11
5.0
 21
282.0
 31
0.0
  0
LINE
  5
8E
330
1A
100
AcDbEntity
  8
ZUWAKU
 62
     7
 48
10.0
100
AcDbLine
 10
5.0
 20
13.0
 30
0.0
 11
403.0
 21
12.99999999999994
 31
0.0
  0
TEXT
  5
93
330
1A
100
AcDbEntity
  8
ZUWAKU
 62
     7
100
AcDbText
 10
8.003143713074223
 20
7.870178177610682
 30
0.0
 40
4.0
  1
品 種
100
AcDbText
  0
TEXT
  5
97
330
1A
100
AcDbEntity
  8
ZUWAKU
 62
     7
100
AcDbText
 10
107.7028028167073
 20
8.200497435100942
 30
0.0
 40
4.0
  1
品名・ｻ ｲ ｽﾞ
100
AcDbText
  0
LINE
  5
9A
330
1A
100
AcDbEntity
  8
ZUWAKU
 62
     7
 48
10.0
100
AcDbLine
 10
324.3551403257206
 20
6.999999999999836
 30
0.0
 11
324.3551403257206
 21
12.99999999999995
 31
0.0
  0
LINE
  5
9B
330
1A
100
AcDbEntity
  8
ZUWAKU
 62
     7
 48
10.0
100
AcDbLine
 10
307.142312366876
 20
6.999999999999836
 30
0.0
 11
307.142312366876
 21
12.99999999999995
 31
0.0
  0
TEXT
  5
9C
330
1A
100
AcDbEntity
  8
ZUWAKU
 62
     7
100
AcDbText
 10
310.1429253763237
 20
7.934661405801826
 30
0.0
 40
4.0
  1
品 番
100
AcDbText
  0
TEXT
  5
9E
330
1A
100
AcDbEntity
  8
ZUWAKU
 62
     7
 48
10.0
100
AcDbText
 10
322.9513761015196
 20
2.449000558492457
 30
0.0
 40
4.0
  1
積水化学工業株式会社  建材
100
AcDbText
  0
TEXT
  5
A1
330
1A
100
AcDbEntity
  8
ZUWAKU
 62
     7
100
AcDbText
 10
389.843492473331
 20
7.886151458996323
 30
0.0
 40
4.0
  1
1/1
100
AcDbText
  0
TEXT
  5
A2
330
1A
100
AcDbEntity
  8
ZUWAKU
 62
     7
100
AcDbText
 10
369.8225424558458
 20
7.729845637642938
 30
0.0
 40
4.0
  1
尺 度
100
AcDbText
  0
LINE
  5
A3
330
1A
100
AcDbEntity
  8
ZUWAKU
 62
     7
 48
10.0
100
AcDbLine
 10
366.8807110760169
 20
6.999999999999886
 30
0.0
 11
366.8807110760169
 21
12.99999999999994
 31
0.0
  0
TEXT
  5
A6
330
1A
100
AcDbEntity
  8
ZUWAKU
 62
     7
 48
10.0
100
AcDbText
 10
396.1622424237184
 20
2.480970960763784
 30
0.0
 40
4.0
  1
A3
100
AcDbText
  0
LINE
  5
F5
330
1A
100
AcDbEntity
  8
ZUWAKU
 62
     7
 48
10.0
100
AcDbLine
 10
22.25374857290876
 20
7.0
 30
0.0
 11
22.25374857290876
 21
13.0
 31
0.0
  0
LINE
  5
F6
330
1A
100
AcDbEntity
  8
ZUWAKU
 62
     7
 48
10.0
100
AcDbLine
 10
104.7316872784438
 20
7.0
 30
0.0
 11
104.7316872784438
 21
12.99999999999998
 31
0.0
  0
LINE
  5
F8
330
1A
100
AcDbEntity
  8
ZUWAKU
 62
     7
 48
10.0
100
AcDbLine
 10
138.0261803105822
 20
7.0
 30
0.0
 11
138.0261803105822
 21
12.99999999999998
 31
0.0
  0
LINE
  5
100
330
1A
100
AcDbEntity
  8
ZUWAKU
 62
     7
 48
10.0
100
AcDbLine
 10
384.3363149538092
 20
6.999999999999862
 30
0.0
 11
384.3363149538092
 21
12.99999999999994
 31
0.0
  0
LINE
  5
1EE
330
1A
100
AcDbEntity
  8
CENTER_L
 62
     1
 48
5.0
100
AcDbLine
 10
155.6887464139528
 20
130.3079393075585
 30
0.0
 11
155.6887464139528
 21
167.1470393075585
 31
0.0
  0
ARC
  5
1EF
330
1A
100
AcDbEntity
  8
SEIHIN
 62
     3
100
AcDbCircle
 10
155.6887464139531
 20
130.3079393075586
 30
0.0
 40
14.24999201754127
100
AcDbArc
 50
10.0000606472741
 51
349.9999393527259
  0
ARC
  5
1F0
330
1A
100
AcDbEntity
  8
SEIHIN
 62
     3
100
AcDbCircle
 10
155.6887464139528
 20
130.3080393075585
 30
0.0
 40
12.75
100
AcDbArc
 50
90.0
 51
180.0
  0
LINE
  5
1F1
330
1A
100
AcDbEntity
  8
SEIHIN
 62
     3
100
AcDbLine
 10
126.5387464139527
 20
135.7124393075585
 30
0.0
 11
126.5387464139527
 21
147.0386393075586
 31
0.0
  0
LINE
  5
1F2
330
1A
100
AcDbEntity
  8
SEIHIN
 62
     3
100
AcDbLine
 10
125.0387464139527
 20
135.7124393075585
 30
0.0
 11
125.0387464139527
 21
148.4580393075586
 31
0.0
  0
ARC
  5
1F3
330
1A
100
AcDbEntity
  8
SEIHIN
 62
     3
100
AcDbCircle
 10
155.6887559597233
 20
130.3079312977599
 30
0.0
 40
12.75000800980238
100
AcDbArc
 50
10.00042141995712
 51
90.00004289662911
  0
LINE
  5
1F4
330
1A
100
AcDbEntity
  8
SEIHIN
 62
     3
100
AcDbLine
 10
153.6887464139528
 20
142.0579393075586
 30
0.0
 11
153.6887464139528
 21
142.9001393075586
 31
0.0
  0
LINE
  5
1F5
330
1A
100
AcDbEntity
  8
SEIHIN
 62
     3
100
AcDbLine
 10
157.6887464139528
 20
142.0579393075586
 30
0.0
 11
157.6887464139528
 21
142.9001393075586
 31
0.0
  0
LINE
  5
1F6
330
1A
100
AcDbEntity
  8
SEIHIN
 62
     3
100
AcDbLine
 10
186.3387464139528
 20
135.7124393075585
 30
0.0
 11
186.3387464139528
 21
148.4580393075586
 31
0.0
  0
LINE
  5
1F7
330
1A
100
AcDbEntity
  8
SEIHIN
 62
     3
100
AcDbLine
 10
184.8387464139527
 20
135.7124393075585
 30
0.0
 11
184.8387464139527
 21
147.0385393075586
 31
0.0
  0
TEXT
  5
1FB
330
1A
100
AcDbEntity
  8
ZUWAKU
 62
     7
100
AcDbText
 10
25.15073007242387
 20
8.160237806787449
 30
0.0
 40
4.0
  1
凍害防止ロッド
100
AcDbText
  0
TEXT
  5
1FC
330
1A
100
AcDbEntity
  8
ZUWAKU
 62
     7
100
AcDbText
 10
141.1313324528735
 20
7.9299153608506
 30
0.0
 40
4.0
  1
リング　Ｙ６０－２５
100
AcDbText
  0
LINE
  5
200
330
1A
100
AcDbEntity
  8
CENTER_L
 62
     1
 48
5.0
100
AcDbLine
 10
155.6887464139528
 20
130.3079393075585
 30
0.0
 11
194.8087464139528
 21
130.3079393075585
 31
0.0
  0
ARC
  5
201
330
1A
100
AcDbEntity
  8
SEIHIN
 62
     3
100
AcDbCircle
 10
186.3387464139528
 20
99.65803930755862
 30
0.0
 40
12.50000000000001
100
AcDbArc
 50
90.0
 51
180.0
  0
ARC
  5
202
330
1A
100
AcDbEntity
  8
SEIHIN
 62
     3
100
AcDbCircle
 10
186.3387464139526
 20
99.65803930755869
 30
0.0
 40
13.99998915571008
100
AcDbArc
 50
96.15064461056746
 51
173.8493553894325
  0
LINE
  5
205
330
1A
100
AcDbEntity
  8
CENTER_L
 62
     1
 48
5.0
100
AcDbLine
 10
155.6887464139528
 20
130.3079393075585
 30
0.0
 11
155.6887464139528
 21
93.4689393075587
 31
0.0
  0
LINE
  5
206
330
1A
100
AcDbEntity
  8
CENTER_L
 62
     1
 48
5.0
100
AcDbLine
 10
155.6887464139528
 20
130.3080393075585
 30
0.0
 11
116.5687464139528
 21
130.3080393075585
 31
0.0
  0
ARC
  5
207
330
1A
100
AcDbEntity
  8
SEIHIN
 62
     3
100
AcDbCircle
 10
155.6887464137567
 20
130.3079393077547
 30
0.0
 40
12.75000000019601
100
AcDbArc
 50
179.9995506222186
 51
270.0000000008814
  0
ARC
  5
208
330
1A
100
AcDbEntity
  8
SEIHIN
 62
     3
100
AcDbCircle
 10
145.6124464139527
 20
120.2317393075586
 30
0.0
 40
0.9999699995499284
100
AcDbArc
 50
132.876504332826
 51
317.1234956671761
  0
LINE
  5
209
330
1A
100
AcDbEntity
  8
SEIHIN
 62
     3
100
AcDbLine
 10
155.6887464139528
 20
99.65803930755861
 30
0.0
 11
137.5387464139527
 21
99.65793930755861
 31
0.0
  0
LINE
  5
20A
330
1A
100
AcDbEntity
  8
SEIHIN
 62
     3
100
AcDbLine
 10
155.6887464139528
 20
101.1580393075586
 30
0.0
 11
138.9581464139527
 21
101.1579393075586
 31
0.0
  0
ARC
  5
20B
330
1A
100
AcDbEntity
  8
SEIHIN
 62
     3
100
AcDbCircle
 10
145.6124704870136
 20
140.3842633823837
 30
0.0
 40
1.000004021913975
100
AcDbArc
 50
42.88063072616096
 51
227.1234234595508
  0
LINE
  5
20C
330
1A
100
AcDbEntity
  8
SEIHIN
 62
     3
100
AcDbLine
 10
126.5387464139527
 20
124.9035393075586
 30
0.0
 11
126.5387464139527
 21
113.5774393075586
 31
0.0
  0
LINE
  5
20D
330
1A
100
AcDbEntity
  8
SEIHIN
 62
     3
100
AcDbLine
 10
125.0387464139527
 20
124.9035393075586
 30
0.0
 11
125.0387464139527
 21
112.1579393075587
 31
0.0
  0
ARC
  5
20E
330
1A
100
AcDbEntity
  8
SEIHIN
 62
     3
100
AcDbCircle
 10
125.0387464139526
 20
99.65793930755866
 30
0.0
 40
12.50000000000005
100
AcDbArc
 50
359.9999999999997
 51
89.99999999999975
  0
ARC
  5
20F
330
1A
100
AcDbEntity
  8
SEIHIN
 62
     3
100
AcDbCircle
 10
125.0387464139526
 20
99.65793930755866
 30
0.0
 40
13.99998915571013
100
AcDbArc
 50
6.150644610567199
 51
83.84935538943233
  0
LINE
  5
210
330
1A
100
AcDbEntity
  8
SEIHIN
 62
     3
100
AcDbLine
 10
125.0387464139527
 20
124.9035393075586
 30
0.0
 11
126.5387464139527
 21
124.9035393075586
 31
0.0
  0
LINE
  5
211
330
1A
100
AcDbEntity
  8
SEIHIN
 62
     3
100
AcDbLine
 10
125.0387464139527
 20
135.7124393075585
 30
0.0
 11
126.5387464139527
 21
135.7124393075585
 31
0.0
  0
ARC
  5
212
330
1A
100
AcDbEntity
  8
SEIHIN
 62
     3
100
AcDbCircle
 10
155.6886869296267
 20
130.3078893946926
 30
0.0
 40
12.74995008719832
100
AcDbArc
 50
269.9998179304928
 51
350.0002533030478
  0
LINE
  5
213
330
1A
100
AcDbEntity
  8
SEIHIN
 62
     3
100
AcDbLine
 10
153.6887464139528
 20
118.5580393075586
 30
0.0
 11
155.6887464139528
 21
122.0580393075586
 31
0.0
  0
LINE
  5
214
330
1A
100
AcDbEntity
  8
SEIHIN
 62
     3
100
AcDbLine
 10
157.6887464139528
 20
118.5580393075586
 30
0.0
 11
155.6887464139528
 21
122.0580393075586
 31
0.0
  0
LINE
  5
215
330
1A
100
AcDbEntity
  8
SEIHIN
 62
     3
100
AcDbLine
 10
155.6887464139528
 20
99.65803930755861
 30
0.0
 11
173.8387464139528
 21
99.65803930755861
 31
0.0
  0
LINE
  5
216
330
1A
100
AcDbEntity
  8
SEIHIN
 62
     3
100
AcDbLine
 10
155.6887464139528
 20
101.1580393075586
 30
0.0
 11
172.4193464139526
 21
101.1580393075586
 31
0.0
  0
LINE
  5
217
330
1A
100
AcDbEntity
  8
SEIHIN
 62
     3
100
AcDbLine
 10
152.6887464139528
 20
116.3773393075586
 30
0.0
 11
152.6887464139528
 21
101.1580393075586
 31
0.0
  0
LINE
  5
218
330
1A
100
AcDbEntity
  8
SEIHIN
 62
     3
100
AcDbLine
 10
158.6887464139528
 20
116.3773393075586
 30
0.0
 11
158.6887464139528
 21
101.1580393075586
 31
0.0
  0
LINE
  5
219
330
1A
100
AcDbEntity
  8
SEIHIN
 62
     3
100
AcDbLine
 10
157.6887464139528
 20
118.5580393075586
 30
0.0
 11
155.6887464139528
 21
118.5580393075586
 31
0.0
  0
LINE
  5
21A
330
1A
100
AcDbEntity
  8
SEIHIN
 62
     3
100
AcDbLine
 10
153.6887464139528
 20
118.5580393075586
 30
0.0
 11
153.6887464139528
 21
117.7158393075586
 31
0.0
  0
LINE
  5
21B
330
1A
100
AcDbEntity
  8
SEIHIN
 62
     3
100
AcDbLine
 10
153.6887464139528
 20
118.5580393075586
 30
0.0
 11
155.6887464139528
 21
118.5580393075586
 31
0.0
  0
LINE
  5
21C
330
1A
100
AcDbEntity
  8
SEIHIN
 62
     3
100
AcDbLine
 10
157.6887464139528
 20
118.5580393075586
 30
0.0
 11
157.6887464139528
 21
117.7158393075586
 31
0.0
  0
LINE
  5
21D
330
1A
100
AcDbEntity
  8
SEIHIN
 62
     3
100
AcDbLine
 10
157.6887464139528
 20
142.0579393075586
 30
0.0
 11
155.6887464139528
 21
138.5579393075586
 31
0.0
  0
LINE
  5
21E
330
1A
100
AcDbEntity
  8
SEIHIN
 62
     3
100
AcDbLine
 10
157.6887464139528
 20
142.0579393075586
 30
0.0
 11
155.6887464139528
 21
142.0579393075586
 31
0.0
  0
LINE
  5
21F
330
1A
100
AcDbEntity
  8
SEIHIN
 62
     3
100
AcDbLine
 10
153.6887464139528
 20
142.0579393075586
 30
0.0
 11
155.6887464139528
 21
138.5579393075586
 31
0.0
  0
LINE
  5
220
330
1A
100
AcDbEntity
  8
SEIHIN
 62
     3
100
AcDbLine
 10
153.6887464139528
 20
142.0579393075586
 30
0.0
 11
155.6887464139528
 21
142.0579393075586
 31
0.0
  0
LINE
  5
221
330
1A
100
AcDbEntity
  8
SEIHIN
 62
     3
100
AcDbLine
 10
168.2450464139526
 20
128.0939393075586
 30
0.0
 11
169.7222464139528
 21
127.8335393075586
 31
0.0
  0
ARC
  5
222
330
1A
100
AcDbEntity
  8
SEIHIN
 62
     3
100
AcDbCircle
 10
165.7649464139527
 20
120.2317393075585
 30
0.0
 40
1.000038044276269
100
AcDbArc
 50
222.8807029337863
 51
47.11929706621824
  0
LINE
  5
223
330
1A
100
AcDbEntity
  8
SEIHIN
 62
     3
100
AcDbLine
 10
168.2450464139526
 20
132.5220393075586
 30
0.0
 11
169.7222464139528
 21
132.7824393075585
 31
0.0
  0
ARC
  5
224
330
1A
100
AcDbEntity
  8
SEIHIN
 62
     3
100
AcDbCircle
 10
165.7649964140837
 20
140.3842893076896
 30
0.0
 40
1.000040661680171
100
AcDbArc
 50
312.8766544355555
 51
137.1233455644352
  0
LINE
  5
229
330
1A
100
AcDbEntity
  8
SEIHIN
 62
     3
100
AcDbLine
 10
184.8387464139527
 20
124.9035393075586
 30
0.0
 11
184.8387464139527
 21
113.5774393075586
 31
0.0
  0
LINE
  5
22A
330
1A
100
AcDbEntity
  8
SEIHIN
 62
     3
100
AcDbLine
 10
186.3387464139528
 20
124.9035393075586
 30
0.0
 11
186.3387464139528
 21
112.1580393075586
 31
0.0
  0
LINE
  5
22F
330
1A
100
AcDbEntity
  8
SEIHIN
 62
     3
100
AcDbLine
 10
186.3387464139528
 20
124.9035393075586
 30
0.0
 11
184.8387464139527
 21
124.9035393075586
 31
0.0
  0
LINE
  5
230
330
1A
100
AcDbEntity
  8
SEIHIN
 62
     3
100
AcDbLine
 10
186.3387464139528
 20
135.7124393075585
 30
0.0
 11
184.8387464139527
 21
135.7124393075585
 31
0.0
  0
ARC
  5
23C
330
1A
100
AcDbEntity
  8
SEIHIN
 62
     3
100
AcDbCircle
 10
186.3387464141528
 20
160.9580393073587
 30
0.0
 40
12.5000000002
100
AcDbArc
 50
179.9999999990832
 51
269.9995416328472
  0
ARC
  5
23D
330
1A
100
AcDbEntity
  8
SEIHIN
 62
     3
100
AcDbCircle
 10
186.3387524530959
 20
160.9580332683726
 30
0.0
 40
13.99999451303525
100
AcDbArc
 50
186.1506173890297
 51
263.8489212681508
  0
LINE
  5
23E
330
1A
100
AcDbEntity
  8
SEIHIN
 62
     3
100
AcDbLine
 10
155.6887464139528
 20
160.9580393075586
 30
0.0
 11
137.5387464139527
 21
160.9580393075586
 31
0.0
  0
LINE
  5
23F
330
1A
100
AcDbEntity
  8
SEIHIN
 62
     3
100
AcDbLine
 10
155.6887464139528
 20
159.4580393075586
 30
0.0
 11
138.9581464139527
 21
159.4580393075586
 31
0.0
  0
ARC
  5
240
330
1A
100
AcDbEntity
  8
SEIHIN
 62
     3
100
AcDbCircle
 10
125.0387464139527
 20
160.9580393075586
 30
0.0
 40
12.5
100
AcDbArc
 50
270.0
 51
0.0000000000000041
  0
ARC
  5
241
330
1A
100
AcDbEntity
  8
SEIHIN
 62
     3
100
AcDbCircle
 10
125.0387464139527
 20
160.9580393075586
 30
0.0
 40
13.99998915571008
100
AcDbArc
 50
276.1506446105674
 51
353.8493553894325
  0
LINE
  5
242
330
1A
100
AcDbEntity
  8
SEIHIN
 62
     3
100
AcDbLine
 10
155.6887464139528
 20
160.9580393075586
 30
0.0
 11
173.8387464139528
 21
160.9580393075586
 31
0.0
  0
LINE
  5
243
330
1A
100
AcDbEntity
  8
SEIHIN
 62
     3
100
AcDbLine
 10
155.6887464139528
 20
159.4580393075586
 30
0.0
 11
172.4193464139526
 21
159.4580393075586
 31
0.0
  0
LINE
  5
244
330
1A
100
AcDbEntity
  8
SEIHIN
 62
     3
100
AcDbLine
 10
152.6887464139528
 20
144.2386393075586
 30
0.0
 11
152.6887464139528
 21
159.4580393075586
 31
0.0
  0
LINE
  5
245
330
1A
100
AcDbEntity
  8
SEIHIN
 62
     3
100
AcDbLine
 10
158.6887464139528
 20
144.2386393075586
 30
0.0
 11
158.6887464139528
 21
159.4580393075586
 31
0.0
  0
LINE
  5
246
330
1A
100
AcDbEntity
  8
SEIHIN
 62
     3
100
AcDbLine
 10
260.6887464139528
 20
160.9580393075586
 30
0.0
 11
260.6887464139528
 21
130.3080393075585
 31
0.0
  0
LINE
  5
247
330
1A
100
AcDbEntity
  8
SEIHIN
 62
     3
100
AcDbLine
 10
284.6887464139527
 20
160.9580393075586
 30
0.0
 11
284.6887464139527
 21
135.7124393075585
 31
0.0
  0
LINE
  5
248
330
1A
100
AcDbEntity
  8
SEIHIN
 62
     3
100
AcDbLine
 10
288.6887464139526
 20
160.9580393075586
 30
0.0
 11
288.6887464139526
 21
130.3080393075585
 31
0.0
  0
TEXT
  5
252
330
1A
100
AcDbEntity
  8
ZUWAKU
 62
     7
100
AcDbText
 10
327.1013476411085
 20
8.060146781246267
 30
0.0
 40
4.0
  1
ＧＬ５０
100
AcDbText
  0
LINE
  5
25F
330
1A
100
AcDbEntity
  8
CENTER_L
 62
     1
 48
5.0
100
AcDbLine
 10
254.3847464139528
 20
130.3080393075585
 30
0.0
 11
294.2436464139527
 21
130.3080393075585
 31
0.0
  0
LINE
  5
260
330
1A
100
AcDbEntity
  8
SEIHIN
 62
     3
100
AcDbLine
 10
288.6887464139526
 20
125.9036393075587
 30
0.0
 11
260.6887464139528
 21
125.9036393075587
 31
0.0
  0
LINE
  5
261
330
1A
100
AcDbEntity
  8
SEIHIN
 62
     3
100
AcDbLine
 10
260.6887464139528
 20
127.8335393075586
 30
0.0
 11
288.6887464139526
 21
127.8335393075586
 31
0.0
  0
LINE
  5
262
330
1A
100
AcDbEntity
  8
SEIHIN
 62
     3
100
AcDbLine
 10
260.6887464139528
 20
128.0940393075586
 30
0.0
 11
288.6887464139526
 21
128.0940393075586
 31
0.0
  0
LINE
  5
263
330
1A
100
AcDbEntity
  8
SEIHIN
 62
     3
100
AcDbLine
 10
260.6887464139528
 20
111.1580393075586
 30
0.0
 11
284.6887464139527
 21
111.1580393075586
 31
0.0
  0
LINE
  5
264
330
1A
100
AcDbEntity
  8
SEIHIN
 62
     3
100
AcDbLine
 10
260.6887464139528
 20
99.65803930755861
 30
0.0
 11
284.6887464139527
 21
99.65803930755861
 31
0.0
  0
LINE
  5
265
330
1A
100
AcDbEntity
  8
SEIHIN
 62
     3
100
AcDbLine
 10
284.6887464139527
 20
124.9036393075587
 30
0.0
 11
260.6887464139528
 21
124.9036393075587
 31
0.0
  0
LINE
  5
266
330
1A
100
AcDbEntity
  8
SEIHIN
 62
     3
100
AcDbLine
 10
260.6887464139528
 20
132.7824393075585
 30
0.0
 11
288.6887464139526
 21
132.7824393075585
 31
0.0
  0
LINE
  5
267
330
1A
100
AcDbEntity
  8
SEIHIN
 62
     3
100
AcDbLine
 10
260.6887464139528
 20
132.5220393075586
 30
0.0
 11
288.6887464139526
 21
132.5220393075586
 31
0.0
  0
LINE
  5
268
330
1A
100
AcDbEntity
  8
SEIHIN
 62
     3
100
AcDbLine
 10
284.6887464139527
 20
135.7124393075585
 30
0.0
 11
260.6887464139528
 21
135.7124393075585
 31
0.0
  0
LINE
  5
269
330
1A
100
AcDbEntity
  8
SEIHIN
 62
     3
100
AcDbLine
 10
288.6887464139526
 20
134.7124393075585
 30
0.0
 11
260.6887464139528
 21
134.7124393075585
 31
0.0
  0
LINE
  5
26A
330
1A
100
AcDbEntity
  8
SEIHIN
 62
     3
100
AcDbLine
 10
260.6887464139528
 20
99.65803930755861
 30
0.0
 11
260.6887464139528
 21
130.3080393075585
 31
0.0
  0
LINE
  5
26D
330
1A
100
AcDbEntity
  8
SEIHIN
 62
     3
100
AcDbLine
 10
288.6887464139526
 20
99.65803930755861
 30
0.0
 11
288.6887464139526
 21
130.3080393075585
 31
0.0
  0
LINE
  5
26E
330
1A
100
AcDbEntity
  8
SEIHIN
 62
     3
100
AcDbLine
 10
284.6887464139527
 20
99.65803930755861
 30
0.0
 11
284.6887464139527
 21
124.9036393075587
 31
0.0
  0
LINE
  5
26F
330
1A
100
AcDbEntity
  8
SEIHIN
 62
     3
100
AcDbLine
 10
284.6887464139527
 20
99.65803930755861
 30
0.0
 11
288.6887464139526
 21
100.0580393075586
 31
0.0
  0
LINE
  5
270
330
1A
100
AcDbEntity
  8
SEIHIN
 62
     3
100
AcDbLine
 10
284.6887464139527
 20
111.1580393075586
 30
0.0
 11
288.6887464139526
 21
111.5580393075586
 31
0.0
  0
LINE
  5
271
330
1A
100
AcDbEntity
  8
SEIHIN
 62
     3
100
AcDbLine
 10
284.6887464139527
 20
132.5220393075586
 30
0.0
 11
284.6887464139527
 21
130.3080393075585
 31
0.0
  0
LINE
  5
272
330
1A
100
AcDbEntity
  8
SEIHIN
 62
     3
100
AcDbLine
 10
284.6647464139527
 20
124.9036393075587
 30
0.0
 11
288.6887464139526
 21
125.1555393075586
 31
0.0
  0
LINE
  5
273
330
1A
100
AcDbEntity
  8
SEIHIN
 62
     3
100
AcDbLine
 10
284.6887464139527
 20
128.0940393075586
 30
0.0
 11
284.6887464139527
 21
130.3080393075585
 31
0.0
  0
LINE
  5
274
330
1A
100
AcDbEntity
  8
SEIHIN
 62
     3
100
AcDbLine
 10
284.6647464139527
 20
135.7124393075585
 30
0.0
 11
288.6887464139526
 21
135.4605393075587
 31
0.0
  0
LINE
  5
28B
330
1A
100
AcDbEntity
  8
SEIHIN
 62
     3
100
AcDbLine
 10
260.6887464139528
 20
160.9580393075586
 30
0.0
 11
284.6887464139527
 21
160.9580393075586
 31
0.0
  0
LINE
  5
28C
330
1A
100
AcDbEntity
  8
SEIHIN
 62
     3
100
AcDbLine
 10
260.6887464139528
 20
149.4580393075587
 30
0.0
 11
284.6887464139527
 21
149.4580393075587
 31
0.0
  0
LINE
  5
28F
330
1A
100
AcDbEntity
  8
SEIHIN
 62
     3
100
AcDbLine
 10
284.6887464139527
 20
149.4580393075587
 30
0.0
 11
288.6887464139526
 21
149.0580393075585
 31
0.0
  0
LINE
  5
290
330
1A
100
AcDbEntity
  8
SEIHIN
 62
     3
100
AcDbLine
 10
284.6887464139527
 20
160.9580393075586
 30
0.0
 11
288.6887464139526
 21
160.5580393075585
 31
0.0
  0
DIMENSION
  5
2A7
330
1A
100
AcDbEntity
  8
SUNPOU
100
AcDbDimension
  2
*D3
 10
145.344606756179
 20
122.8539872743025
 30
0.0
 11
159.5424626816055
 21
133.0848937740831
 31
0.0
 12
8.555808749436891
 22
-25.02393979682961
 32
0.0
 70
   163
  3
STANDARD
100
AcDbDiametricDimension
 15
166.0329051632678
 25
137.7618753212173
 35
0.0
 40
0.0
1001
ACAD
1000
DSTYLE
1002
{
1070
   288
1070
     1
1070
   140
1040
3.0
1070
    74
1070
     0
1070
   172
1070
     1
1070
    73
1070
     0
1070
   272
1070
     2
1070
    77
1070
     3
1070
   173
1070
     1
1070
   147
1040
1.0
1070
    42
1040
3.0
1070
    44
1040
1.5
1070
    43
1040
7.0
1070
   271
1070
     0
1070
   178
1070
     4
1070
   177
1070
     4
1070
   176
1070
     4
1070
   141
1040
150.0
1070
     7
1000
_OPEN
1070
     6
1000
_OPEN
1070
    41
1040
3.0
1002
}
  0
DIMENSION
  5
2B4
330
1A
100
AcDbEntity
  8
SUNPOU
100
AcDbDimension
  2
*D4
 10
208.0557114990297
 20
99.65803930755861
 30
0.0
 11
205.5557114990297
 21
130.3080393075586
 31
0.0
 70
    32
  3
STANDARD
100
AcDbAlignedDimension
 13
173.8387464139528
 23
160.9580393075586
 33
0.0
 14
173.8387464139528
 24
99.65803930755861
 34
0.0
 50
90.0
100
AcDbRotatedDimension
1001
ACAD
1000
DSTYLE
1002
{
1070
   140
1040
3.0
1070
    74
1070
     0
1070
   172
1070
     1
1070
    73
1070
     0
1070
   272
1070
     2
1070
    77
1070
     3
1070
   173
1070
     1
1070
   147
1040
1.0
1070
    42
1040
3.0
1070
    44
1040
1.5
1070
    43
1040
7.0
1070
   271
1070
     0
1070
   178
1070
     4
1070
   177
1070
     4
1070
   176
1070
     4
1070
   141
1040
150.0
1070
     7
1000
_OPEN
1070
     6
1000
_OPEN
1070
    41
1040
3.0
1002
}
  0
DIMENSION
  5
2C1
330
1A
100
AcDbEntity
  8
SUNPOU
100
AcDbDimension
  2
*D5
 10
288.6887464139526
 20
179.1897056809588
 30
0.0
 11
274.6887464139527
 21
181.6897056809588
 31
0.0
 70
    32
  3
STANDARD
100
AcDbAlignedDimension
 13
260.6887464139528
 23
160.9580393075586
 33
0.0
 14
288.6887464139526
 24
160.5580393075585
 34
0.0
100
AcDbRotatedDimension
1001
ACAD
1000
DSTYLE
1002
{
1070
   140
1040
3.0
1070
    74
1070
     0
1070
   172
1070
     1
1070
    73
1070
     0
1070
   272
1070
     2
1070
    77
1070
     3
1070
   173
1070
     1
1070
   147
1040
1.0
1070
    42
1040
3.0
1070
    44
1040
1.5
1070
    43
1040
7.0
1070
   271
1070
     0
1070
   178
1070
     4
1070
   177
1070
     4
1070
   176
1070
     4
1070
   141
1040
150.0
1070
     7
1000
_OPEN
1070
     6
1000
_OPEN
1070
    41
1040
3.0
1002
}
  0
DIMENSION
  5
2CE
330
1A
100
AcDbEntity
  8
SUNPOU
100
AcDbDimension
  2
*D6
 10
125.0387464139527
 20
179.1897056809588
 30
0.0
 11
155.6887464139527
 21
181.6897056809588
 31
0.0
 70
    32
  3
STANDARD
100
AcDbAlignedDimension
 13
186.3387464139528
 23
148.4580393075586
 33
0.0
 14
125.0387464139527
 24
142.0852393075586
 34
0.0
100
AcDbRotatedDimension
1001
ACAD
1000
DSTYLE
1002
{
1070
   140
1040
3.0
1070
    74
1070
     0
1070
   172
1070
     1
1070
    73
1070
     0
1070
   272
1070
     2
1070
    77
1070
     3
1070
   173
1070
     1
1070
   147
1040
1.0
1070
    42
1040
3.0
1070
    44
1040
1.5
1070
    43
1040
7.0
1070
   271
1070
     0
1070
   178
1070
     4
1070
   177
1070
     4
1070
   176
1070
     4
1070
   141
1040
150.0
1070
     7
1000
_OPEN
1070
     6
1000
_OPEN
1070
    41
1040
3.0
1002
}
  0
VIEWPORT
  5
22
330
17
100
AcDbEntity
 67
     1
  8
0
100
AcDbViewport
 10
313.6808219178082
 20
148.5
 30
0.0
 40
627.3616438356165
 41
297.0
 68
     2
 69
     1
1001
ACAD
1000
MVIEW
1002
{
1070
    16
1010
0.0
1020
0.0
1030
0.0
1010
0.0
1020
0.0
1030
1.0
1040
0.0
1040
297.0
1040
313.6808219178082
1040
148.5
1040
50.0
1040
0.0
1040
0.0
1070
     0
1070
   100
1070
     1
1070
     0
1070
     0
1070
     0
1070
     0
1070
     0
1040
0.0
1040
0.0
1040
0.0
1040
1.0
1040
1.0
1040
10.0
1040
10.0
1070
     0
1002
{
1002
}
1002
}
  0
VIEWPORT
  5
64
330
17
100
AcDbEntity
 67
     1
  8
VIEWPORT
100
AcDbViewport
 10
210.0
 20
148.5
 30
0.0
 40
420.0
 41
297.0
 68
     1
 69
     2
1001
ACAD
1000
MVIEW
1002
{
1070
    16
1010
0.0
1020
0.0
1030
0.0
1010
0.0
1020
0.0
1030
1.0
1040
0.0
1040
302.9399999999998
1040
210.0
1040
148.5
1040
50.0
1040
0.0
1040
0.0
1070
     0
1070
   100
1070
     1
1070
     0
1070
     0
1070
     0
1070
     0
1070
     0
1040
0.0
1040
0.0
1040
0.0
1040
5.0
1040
5.0
1040
0.0
1040
0.0
1070
     0
1002
{
1002
}
1002
}
  0
ENDSEC
  0
SECTION
  2
OBJECTS
  0
DICTIONARY
  5
C
330
0
100
AcDbDictionary
  3
ACAD_GROUP
350
D
  3
ACAD_MLINESTYLE
350
E
  3
ACAD_LAYOUT
350
301
  3
ACAD_PLOTSETTINGS
350
302
1001
ACAD
1000
TREAT_AS_HARD
1070
     0
  0
DICTIONARY
  5
310
330
1A
100
AcDbDictionary
  3
ACAD_LAYOUTSELFREF
350
311
  0
DICTIONARY
  5
30E
330
17
100
AcDbDictionary
  3
ACAD_LAYOUTSELFREF
350
30F
  0
DICTIONARY
  5
D
102
{ACAD_REACTORS
330
C
102
}
330
C
100
AcDbDictionary
1001
ACAD
1000
TREAT_AS_HARD
1070
     0
  0
DICTIONARY
  5
E
102
{ACAD_REACTORS
330
C
102
}
330
C
100
AcDbDictionary
  3
STANDARD
350
13
1001
ACAD
1000
TREAT_AS_HARD
1070
     0
  0
DICTIONARY
  5
301
102
{ACAD_REACTORS
330
C
102
}
330
C
100
AcDbDictionary
1001
ACAD
1000
TREAT_AS_HARD
1070
     0
  0
DICTIONARY
  5
302
102
{ACAD_REACTORS
330
C
102
}
330
C
100
AcDbDictionary
1001
ACAD
1000
TREAT_AS_HARD
1070
     0
  0
XRECORD
  5
311
102
{ACAD_REACTORS
330
310
102
}
330
310
100
AcDbXrecord
340
1A
  0
XRECORD
  5
30F
102
{ACAD_REACTORS
330
30E
102
}
330
30E
100
AcDbXrecord
340
17
  0
MLINESTYLE
  5
13
102
{ACAD_REACTORS
330
E
102
}
330
E
100
AcDbMlineStyle
  2
STANDARD
 70
     0
  3

 62
     0
 51
90.0
 52
90.0
 71
     2
 49
0.5
 62
   256
  6
BYLAYER
 49
-0.5
 62
   256
  6
BYLAYER
  0
ENDSEC
  0
EOF
