  0
SECTION
  2
HEADER
  9
$ACADVER
  1
AC1012
  9
$DWGCODEPAGE
  3
dos932
  9
$INSBASE
 10
0.0
 20
0.0
 30
0.0
  9
$EXTMIN
 10
29.97937082265753
 20
29.96696996414721
 30
-0.000000000000013
  9
$EXTMAX
 10
1625.326735700376
 20
1133.287211239093
 30
0.0000000000000023
  9
$LIMMIN
 10
0.0
 20
0.0
  9
$LIMMAX
 10
1682.0
 20
1188.0
  9
$ORTHOMODE
 70
     0
  9
$REGENMODE
 70
     1
  9
$FILLMODE
 70
     1
  9
$QTEXTMODE
 70
     0
  9
$MIRRTEXT
 70
     1
  9
$DRAGMODE
 70
     2
  9
$LTSCALE
 40
5.657142857142857
  9
$OSMODE
 70
    63
  9
$ATTMODE
 70
     1
  9
$TEXTSIZE
 40
19.8
  9
$TRACEWID
 40
0.05
  9
$TEXTSTYLE
  7
ｽﾀｲﾙ1
  9
$CLAYER
  8
SUNPOU
  9
$CELTYPE
  6
BYLAYER
  9
$CECOLOR
 62
   256
  9
$CELTSCALE
 40
1.0
  9
$DELOBJ
 70
     1
  9
$DISPSILH
 70
     0
  9
$DIMSCALE
 40
1.0
  9
$DIMASZ
 40
14.0
  9
$DIMEXO
 40
12.0
  9
$DIMDLI
 40
28.0
  9
$DIMRND
 40
0.0
  9
$DIMDLE
 40
0.0
  9
$DIMEXE
 40
6.0
  9
$DIMTP
 40
0.0
  9
$DIMTM
 40
0.0
  9
$DIMTXT
 40
12.0
  9
$DIMCEN
 40
150.0
  9
$DIMTSZ
 40
0.0
  9
$DIMTOL
 70
     0
  9
$DIMLIM
 70
     0
  9
$DIMTIH
 70
     0
  9
$DIMTOH
 70
     0
  9
$DIMSE1
 70
     0
  9
$DIMSE2
 70
     0
  9
$DIMTAD
 70
     3
  9
$DIMZIN
 70
     0
  9
$DIMBLK
  1

  9
$DIMASO
 70
     1
  9
$DIMSHO
 70
     1
  9
$DIMPOST
  1

  9
$DIMAPOST
  1

  9
$DIMALT
 70
     0
  9
$DIMALTD
 70
     2
  9
$DIMALTF
 40
0.03937
  9
$DIMLFAC
 40
1.0
  9
$DIMTOFL
 70
     1
  9
$DIMTVP
 40
0.0
  9
$DIMTIX
 70
     0
  9
$DIMSOXD
 70
     0
  9
$DIMSAH
 70
     1
  9
$DIMBLK1
  1
OPEN
  9
$DIMBLK2
  1
OPEN
  9
$DIMSTYLE
  2
STANDARD
  9
$DIMCLRD
 70
   256
  9
$DIMCLRE
 70
   256
  9
$DIMCLRT
 70
   256
  9
$DIMTFAC
 40
1.0
  9
$DIMGAP
 40
4.0
  9
$DIMJUST
 70
     0
  9
$DIMSD1
 70
     0
  9
$DIMSD2
 70
     0
  9
$DIMTOLJ
 70
     1
  9
$DIMTZIN
 70
     0
  9
$DIMALTZ
 70
     0
  9
$DIMALTTZ
 70
     0
  9
$DIMFIT
 70
     3
  9
$DIMUPT
 70
     0
  9
$DIMUNIT
 70
     2
  9
$DIMDEC
 70
     0
  9
$DIMTDEC
 70
     0
  9
$DIMALTU
 70
     2
  9
$DIMALTTD
 70
     2
  9
$DIMTXSTY
  7
STANDARD
  9
$DIMAUNIT
 70
     0
  9
$LUNITS
 70
     2
  9
$LUPREC
 70
     4
  9
$SKETCHINC
 40
0.1
  9
$FILLETRAD
 40
20.0
  9
$AUNITS
 70
     0
  9
$AUPREC
 70
     0
  9
$MENU
  1
acad
  9
$ELEVATION
 40
0.0
  9
$PELEVATION
 40
0.0
  9
$THICKNESS
 40
0.0
  9
$LIMCHECK
 70
     0
  9
$BLIPMODE
 70
     0
  9
$CHAMFERA
 40
56.57142857142858
  9
$CHAMFERB
 40
56.57142857142858
  9
$CHAMFERC
 40
113.1428571428571
  9
$CHAMFERD
 40
0.0
  9
$SKPOLY
 70
     0
  9
$TDCREATE
 40
2451019.669682407
  9
$TDUPDATE
 40
2454876.686332233
  9
$TDINDWG
 40
0.1184892245
  9
$TDUSRTIMER
 40
0.1184892245
  9
$USRTIMER
 70
     1
  9
$ANGBASE
 50
0.0
  9
$ANGDIR
 70
     0
  9
$PDMODE
 70
     0
  9
$PDSIZE
 40
0.0
  9
$PLINEWID
 40
0.0
  9
$COORDS
 70
     0
  9
$SPLFRAME
 70
     0
  9
$SPLINETYPE
 70
     6
  9
$SPLINESEGS
 70
     8
  9
$ATTDIA
 70
     0
  9
$ATTREQ
 70
     1
  9
$HANDLING
 70
 10241
  9
$HANDSEED
  5
261D
  9
$SURFTAB1
 70
     6
  9
$SURFTAB2
 70
     6
  9
$SURFTYPE
 70
     6
  9
$SURFU
 70
     6
  9
$SURFV
 70
     6
  9
$UCSNAME
  2

  9
$UCSORG
 10
0.0
 20
0.0
 30
0.0
  9
$UCSXDIR
 10
1.0
 20
0.0
 30
0.0
  9
$UCSYDIR
 10
0.0
 20
1.0
 30
0.0
  9
$PUCSNAME
  2

  9
$PUCSORG
 10
0.0
 20
0.0
 30
0.0
  9
$PUCSXDIR
 10
1.0
 20
0.0
 30
0.0
  9
$PUCSYDIR
 10
0.0
 20
1.0
 30
0.0
  9
$USERI1
 70
     0
  9
$USERI2
 70
     0
  9
$USERI3
 70
     0
  9
$USERI4
 70
     0
  9
$USERI5
 70
     0
  9
$USERR1
 40
0.0
  9
$USERR2
 40
0.0
  9
$USERR3
 40
0.0
  9
$USERR4
 40
0.0
  9
$USERR5
 40
0.0
  9
$WORLDVIEW
 70
     1
  9
$SHADEDGE
 70
     3
  9
$SHADEDIF
 70
    70
  9
$TILEMODE
 70
     1
  9
$MAXACTVP
 70
    16
  9
$PINSBASE
 10
0.0
 20
0.0
 30
0.0
  9
$PLIMCHECK
 70
     0
  9
$PEXTMIN
 10
0.0
 20
0.0
 30
0.0
  9
$PEXTMAX
 10
420.0
 20
297.0
 30
0.0
  9
$PLIMMIN
 10
0.0
 20
0.0
  9
$PLIMMAX
 10
420.0
 20
297.0
  9
$UNITMODE
 70
     0
  9
$VISRETAIN
 70
     0
  9
$PLINEGEN
 70
     0
  9
$PSLTSCALE
 70
     1
  9
$TREEDEPTH
 70
  3020
  9
$PICKSTYLE
 70
     1
  9
$CMLSTYLE
  2
STANDARD
  9
$CMLJUST
 70
     0
  9
$CMLSCALE
 40
20.0
  9
$SAVEIMAGES
 70
     1
  0
ENDSEC
  0
SECTION
  2
CLASSES
  0
CLASS
  1
ACDBDICTIONARYWDFLT
  2
AcDbDictionaryWithDefault
  3
AutoCAD 2000
 90
    32768
280
     0
281
     0
  0
CLASS
  1
ACDBPLACEHOLDER
  2
AcDbPlaceHolder
  3
AutoCAD 2000
 90
    32768
280
     0
281
     0
  0
CLASS
  1
LAYOUT
  2
AcDbLayout
  3
AutoCAD 2000
 90
    32768
280
     0
281
     0
  0
CLASS
  1
LONG_TRANSACTION
  2
AcDbLongTransaction
  3
AutoCAD 2000
 90
    32768
280
     0
281
     0
  0
CLASS
  1
LWPOLYLINE
  2
AcDbPolyline
  3
AutoCAD 2000
 90
    32768
280
     0
281
     1
  0
CLASS
  1
HATCH
  2
AcDbHatch
  3
AutoCAD 2000
 90
    32768
280
     0
281
     1
  0
CLASS
  1
XRECORD
  2
AcDbXrecord
  3
AutoCAD 2000
 90
    32768
280
     0
281
     0
  0
CLASS
  1
LONG_TRANSACTION
  2
AcDbLongTransaction
  3
AutoCAD 2000
 90
    32768
280
     0
281
     0
  0
CLASS
  1
LWPOLYLINE
  2
AcDbPolyline
  3
AutoCAD 2000
 90
    32768
280
     0
281
     1
  0
CLASS
  1
HATCH
  2
AcDbHatch
  3
AutoCAD 2000
 90
    32768
280
     0
281
     1
  0
CLASS
  1
XRECORD
  2
AcDbXrecord
  3
AutoCAD 2000
 90
    32768
280
     0
281
     0
  0
CLASS
  1
LONG_TRANSACTION
  2
AcDbLongTransaction
  3
AutoCAD 2000
 90
    32768
280
     0
281
     0
  0
CLASS
  1
LWPOLYLINE
  2
AcDbPolyline
  3
AutoCAD 2000
 90
    32768
280
     0
281
     1
  0
CLASS
  1
HATCH
  2
AcDbHatch
  3
AutoCAD 2000
 90
    32768
280
     0
281
     1
  0
CLASS
  1
XRECORD
  2
AcDbXrecord
  3
AutoCAD 2000
 90
    32768
280
     0
281
     0
  0
CLASS
  1
LONG_TRANSACTION
  2
AcDbLongTransaction
  3
AutoCAD 2000
 90
    32768
280
     0
281
     0
  0
CLASS
  1
LWPOLYLINE
  2
AcDbPolyline
  3
AutoCAD 2000
 90
    32768
280
     0
281
     1
  0
CLASS
  1
HATCH
  2
AcDbHatch
  3
AutoCAD 2000
 90
    32768
280
     0
281
     1
  0
CLASS
  1
XRECORD
  2
AcDbXrecord
  3
AutoCAD 2000
 90
    32768
280
     0
281
     0
  0
CLASS
  1
LONG_TRANSACTION
  2
AcDbLongTransaction
  3
AutoCAD 2000
 90
    32768
280
     0
281
     0
  0
CLASS
  1
LWPOLYLINE
  2
AcDbPolyline
  3
AutoCAD 2000
 90
    32768
280
     0
281
     1
  0
CLASS
  1
HATCH
  2
AcDbHatch
  3
AutoCAD 2000
 90
    32768
280
     0
281
     1
  0
CLASS
  1
XRECORD
  2
AcDbXrecord
  3
AutoCAD 2000
 90
    32768
280
     0
281
     0
  0
CLASS
  1
LONG_TRANSACTION
  2
AcDbLongTransaction
  3
AutoCAD 2000
 90
    32768
280
     0
281
     0
  0
CLASS
  1
LWPOLYLINE
  2
AcDbPolyline
  3
AutoCAD 2000
 90
    32768
280
     0
281
     1
  0
CLASS
  1
HATCH
  2
AcDbHatch
  3
AutoCAD 2000
 90
    32768
280
     0
281
     1
  0
CLASS
  1
XRECORD
  2
AcDbXrecord
  3
AutoCAD 2000
 90
    32768
280
     0
281
     0
  0
ENDSEC
  0
SECTION
  2
TABLES
  0
TABLE
  2
VPORT
  5
8
330
0
100
AcDbSymbolTable
 70
     3
  0
VPORT
  5
2601
330
8
100
AcDbSymbolTableRecord
100
AcDbViewportTableRecord
  2
*ACTIVE
 70
     0
 10
0.0
 20
0.0
 11
1.0
 21
1.0
 12
986.1484922800547
 22
633.0626800421461
 13
0.0
 23
0.0
 14
10.0
 24
10.0
 15
10.0
 25
10.0
 16
0.0
 26
0.0
 36
1.0
 17
0.0
 27
0.0
 37
0.0
 40
1752.320749138501
 41
1.553475935828877
 42
50.0
 43
0.0
 44
0.0
 50
0.0
 51
0.0
 71
     0
 72
   100
 73
     1
 74
     0
 75
     0
 76
     0
 77
     0
 78
     0
  0
ENDTAB
  0
TABLE
  2
LTYPE
  5
5
330
0
100
AcDbSymbolTable
 70
     3
  0
LTYPE
  5
13
330
5
100
AcDbSymbolTableRecord
100
AcDbLinetypeTableRecord
  2
BYBLOCK
 70
     0
  3

 72
    65
 73
     0
 40
0.0
  0
LTYPE
  5
14
330
5
100
AcDbSymbolTableRecord
100
AcDbLinetypeTableRecord
  2
BYLAYER
 70
     0
  3

 72
    65
 73
     0
 40
0.0
  0
LTYPE
  5
15
330
5
100
AcDbSymbolTableRecord
100
AcDbLinetypeTableRecord
  2
CONTINUOUS
 70
     0
  3
Solid line
 72
    65
 73
     0
 40
0.0
  0
LTYPE
  5
11C
330
5
100
AcDbSymbolTableRecord
100
AcDbLinetypeTableRecord
  2
CENTER
 70
     0
  3
____ _ ____ _ ____ _ ____ _ ____ _ ____ _ ____ 
 72
    65
 73
     4
 40
2.0
 49
1.25
 74
     0
 49
-0.25
 74
     0
 49
0.25
 74
     0
 49
-0.25
 74
     0
  0
LTYPE
  5
11E
330
5
100
AcDbSymbolTableRecord
100
AcDbLinetypeTableRecord
  2
PHANTOM
 70
     0
  3
______  __  __  ______  __  __  ______  __  __ 
 72
    65
 73
     6
 40
2.5
 49
1.25
 74
     0
 49
-0.25
 74
     0
 49
0.25
 74
     0
 49
-0.25
 74
     0
 49
0.25
 74
     0
 49
-0.25
 74
     0
  0
ENDTAB
  0
TABLE
  2
LAYER
  5
2
330
0
100
AcDbSymbolTable
 70
     9
  0
LAYER
  5
F
330
2
100
AcDbSymbolTableRecord
100
AcDbLayerTableRecord
  2
0
 70
     0
 62
     7
  6
CONTINUOUS
  0
LAYER
  5
23
330
2
100
AcDbSymbolTableRecord
100
AcDbLayerTableRecord
  2
VIEWPORT
 70
     0
 62
     7
  6
CONTINUOUS
  0
LAYER
  5
2D
330
2
100
AcDbSymbolTableRecord
100
AcDbLayerTableRecord
  2
ZUWAKU
 70
     0
 62
     7
  6
CONTINUOUS
  0
LAYER
  5
A6
330
2
100
AcDbSymbolTableRecord
100
AcDbLayerTableRecord
  2
DEFPOINTS
 70
     0
 62
     7
  6
CONTINUOUS
  0
LAYER
  5
1F5
330
2
100
AcDbSymbolTableRecord
100
AcDbLayerTableRecord
  2
SEIHIN
 70
     0
 62
     3
  6
CONTINUOUS
  0
LAYER
  5
5FF
330
2
100
AcDbSymbolTableRecord
100
AcDbLayerTableRecord
  2
CENTER_L
 70
     0
 62
     1
  6
CENTER
  0
LAYER
  5
600
330
2
100
AcDbSymbolTableRecord
100
AcDbLayerTableRecord
  2
SUNPOU
 70
     0
 62
     4
  6
CONTINUOUS
  0
LAYER
  5
CDA
330
2
100
AcDbSymbolTableRecord
100
AcDbLayerTableRecord
  2
NOKITOI
 70
     0
 62
     8
  6
PHANTOM
  0
LAYER
  5
14B3
330
2
100
AcDbSymbolTableRecord
100
AcDbLayerTableRecord
  2
MOJI
 70
     0
 62
     2
  6
CONTINUOUS
  0
ENDTAB
  0
TABLE
  2
STYLE
  5
3
330
0
100
AcDbSymbolTable
 70
     2
  0
STYLE
  5
10
330
3
100
AcDbSymbolTableRecord
100
AcDbTextStyleTableRecord
  2
STANDARD
 70
     0
 40
0.0
 41
1.0
 50
0.0
 71
     0
 42
19.8
  3
txt
  4
c:\PROGRAM FILES\AUTOCAD LT\ms\bigfont.shx
  0
STYLE
  5
14A8
330
3
100
AcDbSymbolTableRecord
100
AcDbTextStyleTableRecord
  2
ｽﾀｲﾙ1
 70
     0
 40
0.0
 41
1.0
 50
0.0
 71
     0
 42
19.8
  3
MS Gothic.ttf
  4

1001
ACAD
1000
MS Gothic
1071
    32817
  0
ENDTAB
  0
TABLE
  2
VIEW
  5
6
330
0
100
AcDbSymbolTable
 70
     0
  0
ENDTAB
  0
TABLE
  2
UCS
  5
7
330
0
100
AcDbSymbolTable
 70
     0
  0
ENDTAB
  0
TABLE
  2
APPID
  5
9
330
0
100
AcDbSymbolTable
 70
     1
  0
APPID
  5
11
330
9
100
AcDbSymbolTableRecord
100
AcDbRegAppTableRecord
  2
ACAD
 70
     0
  0
ENDTAB
  0
TABLE
  2
DIMSTYLE
  5
A
330
0
100
AcDbSymbolTable
 70
     1
  0
DIMSTYLE
105
1D
102
{ACAD_REACTORS
330
2105
330
2132
330
2133
330
2022
330
2023
330
2024
330
202D
330
202E
330
2033
330
205A
330
2090
330
2091
330
20AA
330
20AB
330
20AC
330
20B2
330
20B9
330
20C4
102
}
330
A
100
AcDbSymbolTableRecord
100
AcDbDimStyleTableRecord
  2
STANDARD
 70
     0
  3

  4

  5

  6

  7

 40
1.0
 41
0.18
 42
0.0625
 43
0.38
 44
0.18
 45
0.0
 46
0.0
 47
0.0
 48
0.0
140
0.18
141
0.09
142
0.0
143
25.4
144
1.0
145
0.0
146
1.0
147
0.09
 71
     0
 72
     0
 73
     1
 74
     1
 75
     0
 76
     0
 77
     0
 78
     0
170
     0
171
     2
172
     0
173
     0
174
     0
175
     0
176
     0
177
     0
178
     0
270
     2
271
     4
272
     4
273
     2
274
     2
340
10
275
     0
280
     0
281
     0
282
     0
283
     1
284
     0
285
     0
286
     0
287
     3
288
     0
  0
ENDTAB
  0
TABLE
  2
BLOCK_RECORD
  5
1
330
0
100
AcDbSymbolTable
 70
    20
  0
BLOCK_RECORD
  5
19
102
{ACAD_XDICTIONARY
360
13D5
102
}
330
1
100
AcDbSymbolTableRecord
100
AcDbBlockTableRecord
  2
*MODEL_SPACE
  0
BLOCK_RECORD
  5
16
102
{ACAD_XDICTIONARY
360
13D3
102
}
330
1
100
AcDbSymbolTableRecord
100
AcDbBlockTableRecord
  2
*PAPER_SPACE
  0
BLOCK_RECORD
  5
27
330
1
100
AcDbSymbolTableRecord
100
AcDbBlockTableRecord
  2
_OPEN
  0
BLOCK_RECORD
  5
1C82
330
1
100
AcDbSymbolTableRecord
100
AcDbBlockTableRecord
  2
*X1
  0
BLOCK_RECORD
  5
2137
330
1
100
AcDbSymbolTableRecord
100
AcDbBlockTableRecord
  2
*D2
  0
BLOCK_RECORD
  5
2145
330
1
100
AcDbSymbolTableRecord
100
AcDbBlockTableRecord
  2
*D3
  0
BLOCK_RECORD
  5
2153
330
1
100
AcDbSymbolTableRecord
100
AcDbBlockTableRecord
  2
*D4
  0
BLOCK_RECORD
  5
2161
330
1
100
AcDbSymbolTableRecord
100
AcDbBlockTableRecord
  2
*D5
  0
BLOCK_RECORD
  5
216F
330
1
100
AcDbSymbolTableRecord
100
AcDbBlockTableRecord
  2
*D6
  0
BLOCK_RECORD
  5
217D
330
1
100
AcDbSymbolTableRecord
100
AcDbBlockTableRecord
  2
*D7
  0
BLOCK_RECORD
  5
2189
330
1
100
AcDbSymbolTableRecord
100
AcDbBlockTableRecord
  2
*D8
  0
BLOCK_RECORD
  5
2195
330
1
100
AcDbSymbolTableRecord
100
AcDbBlockTableRecord
  2
*D9
  0
BLOCK_RECORD
  5
21A1
330
1
100
AcDbSymbolTableRecord
100
AcDbBlockTableRecord
  2
*D10
  0
BLOCK_RECORD
  5
21AF
330
1
100
AcDbSymbolTableRecord
100
AcDbBlockTableRecord
  2
*D11
  0
BLOCK_RECORD
  5
21BB
330
1
100
AcDbSymbolTableRecord
100
AcDbBlockTableRecord
  2
*D12
  0
BLOCK_RECORD
  5
21C9
330
1
100
AcDbSymbolTableRecord
100
AcDbBlockTableRecord
  2
*D13
  0
BLOCK_RECORD
  5
21D7
330
1
100
AcDbSymbolTableRecord
100
AcDbBlockTableRecord
  2
*D14
  0
BLOCK_RECORD
  5
21E5
330
1
100
AcDbSymbolTableRecord
100
AcDbBlockTableRecord
  2
*D15
  0
BLOCK_RECORD
  5
21F3
330
1
100
AcDbSymbolTableRecord
100
AcDbBlockTableRecord
  2
*D16
  0
BLOCK_RECORD
  5
21FF
330
1
100
AcDbSymbolTableRecord
100
AcDbBlockTableRecord
  2
*D17
  0
BLOCK_RECORD
  5
220B
330
1
100
AcDbSymbolTableRecord
100
AcDbBlockTableRecord
  2
*D18
  0
BLOCK_RECORD
  5
2217
330
1
100
AcDbSymbolTableRecord
100
AcDbBlockTableRecord
  2
*D19
  0
ENDTAB
  0
ENDSEC
  0
SECTION
  2
BLOCKS
  0
BLOCK
  5
1A
330
19
100
AcDbEntity
  8
0
100
AcDbBlockBegin
  2
*MODEL_SPACE
 70
     0
 10
0.0
 20
0.0
 30
0.0
  3
*MODEL_SPACE
  1

  0
ENDBLK
  5
1B
330
19
100
AcDbEntity
  8
0
100
AcDbBlockEnd
  0
BLOCK
  5
17
330
16
100
AcDbEntity
 67
     1
  8
0
100
AcDbBlockBegin
  2
*PAPER_SPACE
 70
     0
 10
0.0
 20
0.0
 30
0.0
  3
*PAPER_SPACE
  1

  0
ENDBLK
  5
18
330
16
100
AcDbEntity
 67
     1
  8
0
100
AcDbBlockEnd
  0
BLOCK
  5
28
330
27
100
AcDbEntity
  8
0
100
AcDbBlockBegin
  2
_OPEN
 70
     0
 10
0.0
 20
0.0
 30
0.0
  3
_OPEN
  1

  0
LINE
  5
29
330
27
100
AcDbEntity
  8
0
  6
BYBLOCK
 62
     0
100
AcDbLine
 10
-1.0
 20
0.1666666666666666
 30
0.0
 11
0.0
 21
0.0
 31
0.0
  0
LINE
  5
2A
330
27
100
AcDbEntity
  8
0
  6
BYBLOCK
 62
     0
100
AcDbLine
 10
0.0
 20
0.0
 30
0.0
 11
-1.0
 21
-0.1666666666666666
 31
0.0
  0
LINE
  5
2B
330
27
100
AcDbEntity
  8
0
  6
BYBLOCK
 62
     0
100
AcDbLine
 10
0.0
 20
0.0
 30
0.0
 11
-1.0
 21
0.0
 31
0.0
  0
ENDBLK
  5
2C
330
27
100
AcDbEntity
  8
0
100
AcDbBlockEnd
  0
BLOCK
  5
1E16
330
1C82
100
AcDbEntity
  8
0
100
AcDbBlockBegin
  2
*X1
 70
     1
 10
0.0
 20
0.0
 30
0.0
  3
*X1
  1

  0
LINE
  5
1C83
330
1C82
100
AcDbEntity
  8
0
 62
     0
100
AcDbLine
 10
138.0844243231183
 20
45.20833800885884
 30
0.0
 11
136.7927624636885
 21
46.4999998682888
 31
0.0
  0
LINE
  5
1C84
330
1C82
100
AcDbEntity
  8
0
 62
     0
100
AcDbLine
 10
138.0844243231183
 20
43.41228678464505
 30
0.0
 11
134.9967112394746
 21
46.4999998682888
 31
0.0
  0
LINE
  5
1C85
330
1C82
100
AcDbEntity
  8
0
 62
     0
100
AcDbLine
 10
138.0844243231182
 20
41.61623556043116
 30
0.0
 11
133.2421564310883
 21
46.45850345246105
 31
0.0
  0
LINE
  5
1C86
330
1C82
100
AcDbEntity
  8
0
 62
     0
100
AcDbLine
 10
138.0844243231183
 20
39.82018433621749
 30
0.0
 11
132.4844243231182
 21
45.42018433621751
 31
0.0
  0
LINE
  5
1C87
330
1C82
100
AcDbEntity
  8
0
 62
     0
100
AcDbLine
 10
138.0844243231183
 20
38.02413311200359
 30
0.0
 11
132.4844243231182
 21
43.62413311200373
 31
0.0
  0
LINE
  5
1C88
330
1C82
100
AcDbEntity
  8
0
 62
     0
100
AcDbLine
 10
138.0844243231182
 20
36.2280818877897
 30
0.0
 11
132.4844243231181
 21
41.82808188778984
 31
0.0
  0
LINE
  5
1C89
330
1C82
100
AcDbEntity
  8
0
 62
     0
100
AcDbLine
 10
128.2844243231181
 20
44.2320306635761
 30
0.0
 11
126.0164551184056
 21
46.4999998682888
 31
0.0
  0
LINE
  5
1C8A
330
1C82
100
AcDbEntity
  8
0
 62
     0
100
AcDbLine
 10
138.0844243231183
 20
34.43203066357602
 30
0.0
 11
132.4844243231182
 21
40.03203066357616
 31
0.0
  0
LINE
  5
1C8B
330
1C82
100
AcDbEntity
  8
0
 62
     0
100
AcDbLine
 10
128.2844243231181
 20
42.43597943936231
 30
0.0
 11
124.2204038941916
 21
46.49999986828868
 31
0.0
  0
LINE
  5
1C8C
330
1C82
100
AcDbEntity
  8
0
 62
     0
100
AcDbLine
 10
138.0844243231182
 20
32.63597943936213
 30
0.0
 11
132.4844243231182
 21
38.23597943936226
 31
0.0
  0
LINE
  5
1C8D
330
1C82
100
AcDbEntity
  8
0
 62
     0
100
AcDbLine
 10
128.2844243231181
 20
40.63992821514841
 30
0.0
 11
122.873402392844
 21
46.05095014542257
 31
0.0
  0
LINE
  5
1C8E
330
1C82
100
AcDbEntity
  8
0
 62
     0
100
AcDbLine
 10
138.0844243231182
 20
30.83992821514835
 30
0.0
 11
132.4844243231181
 21
36.43992821514837
 31
0.0
  0
LINE
  5
1C8F
330
1C82
100
AcDbEntity
  8
0
 62
     0
100
AcDbLine
 10
128.2844243231183
 20
38.8438769909344
 30
0.0
 11
122.684424323118
 21
44.44387699093465
 31
0.0
  0
LINE
  5
1C90
330
1C82
100
AcDbEntity
  8
0
 62
     0
100
AcDbLine
 10
138.0844243231183
 20
29.04387699093445
 30
0.0
 11
132.4844243231182
 21
34.64387699093459
 31
0.0
  0
LINE
  5
1C91
330
1C82
100
AcDbEntity
  8
0
 62
     0
100
AcDbLine
 10
128.2844243231182
 20
37.04782576672062
 30
0.0
 11
122.684424323118
 21
42.64782576672098
 31
0.0
  0
LINE
  5
1C92
330
1C82
100
AcDbEntity
  8
0
 62
     0
100
AcDbLine
 10
138.0844243231182
 20
27.24782576672066
 30
0.0
 11
132.4844243231181
 21
32.8478257667208
 31
0.0
  0
LINE
  5
1C93
330
1C82
100
AcDbEntity
  8
0
 62
     0
100
AcDbLine
 10
128.2844243231182
 20
35.25177454250683
 30
0.0
 11
122.684424323118
 21
40.85177454250708
 31
0.0
  0
LINE
  5
1C94
330
1C82
100
AcDbEntity
  8
0
 62
     0
100
AcDbLine
 10
138.0844243231182
 20
25.45177454250688
 30
0.0
 11
132.4844243231181
 21
31.05177454250702
 31
0.0
  0
LINE
  5
1C95
330
1C82
100
AcDbEntity
  8
0
 62
     0
100
AcDbLine
 10
128.2844243231181
 20
33.45572331829294
 30
0.0
 11
122.6844243231179
 21
39.05572331829318
 31
0.0
  0
LINE
  5
1C96
330
1C82
100
AcDbEntity
  8
0
 62
     0
100
AcDbLine
 10
138.0844243231181
 20
23.65572331829298
 30
0.0
 11
132.4844243231181
 21
29.25572331829312
 31
0.0
  0
LINE
  5
1C97
330
1C82
100
AcDbEntity
  8
0
 62
     0
100
AcDbLine
 10
128.2844243231182
 20
31.65967209407927
 30
0.0
 11
122.684424323118
 21
37.25967209407952
 31
0.0
  0
LINE
  5
1C98
330
1C82
100
AcDbEntity
  8
0
 62
     0
100
AcDbLine
 10
115.6844243231181
 20
44.2596720940794
 30
0.0
 11
113.4440965489086
 21
46.4999998682888
 31
0.0
  0
LINE
  5
1C99
330
1C82
100
AcDbEntity
  8
0
 62
     0
100
AcDbLine
 10
138.0844243231182
 20
21.85967209407931
 30
0.0
 11
132.4844243231181
 21
27.45967209407933
 31
0.0
  0
LINE
  5
1C9A
330
1C82
100
AcDbEntity
  8
0
 62
     0
100
AcDbLine
 10
128.2844243231182
 20
29.86362086986537
 30
0.0
 11
122.6844243231179
 21
35.46362086986562
 31
0.0
  0
LINE
  5
1C9B
330
1C82
100
AcDbEntity
  8
0
 62
     0
100
AcDbLine
 10
115.6844243231182
 20
42.46362086986539
 30
0.0
 11
111.6480453246948
 21
46.4999998682888
 31
0.0
  0
LINE
  5
1C9C
330
1C82
100
AcDbEntity
  8
0
 62
     0
100
AcDbLine
 10
138.0844243231182
 20
20.06362086986541
 30
0.0
 11
132.4844243231181
 21
25.66362086986555
 31
0.0
  0
LINE
  5
1C9D
330
1C82
100
AcDbEntity
  8
0
 62
     0
100
AcDbLine
 10
128.2844243231181
 20
28.06756964565158
 30
0.0
 11
122.684424323118
 21
33.66756964565161
 31
0.0
  0
LINE
  5
1C9E
330
1C82
100
AcDbEntity
  8
0
 62
     0
100
AcDbLine
 10
115.6844243231181
 20
40.6675696456515
 30
0.0
 11
110.28489887647
 21
46.06709509229972
 31
0.0
  0
LINE
  5
1C9F
330
1C82
100
AcDbEntity
  8
0
 62
     0
100
AcDbLine
 10
138.0844243231181
 20
18.26756964565163
 30
0.0
 11
132.4844243231179
 21
23.86756964565165
 31
0.0
  0
LINE
  5
1CA0
330
1C82
100
AcDbEntity
  8
0
 62
     0
100
AcDbLine
 10
128.2844243231182
 20
26.27151842143769
 30
0.0
 11
122.6844243231181
 21
31.87151842143782
 31
0.0
  0
LINE
  5
1CA1
330
1C82
100
AcDbEntity
  8
0
 62
     0
100
AcDbLine
 10
115.6844243231182
 20
38.87151842143771
 30
0.0
 11
110.0844243231181
 21
44.47151842143784
 31
0.0
  0
LINE
  5
1CA2
330
1C82
100
AcDbEntity
  8
0
 62
     0
100
AcDbLine
 10
138.0844243231182
 20
16.47151842143773
 30
0.0
 11
132.4844243231181
 21
22.07151842143787
 31
0.0
  0
LINE
  5
1CA3
330
1C82
100
AcDbEntity
  8
0
 62
     0
100
AcDbLine
 10
128.2844243231181
 20
24.47546719722391
 30
0.0
 11
122.6844243231181
 21
30.07546719722404
 31
0.0
  0
LINE
  5
1CA4
330
1C82
100
AcDbEntity
  8
0
 62
     0
100
AcDbLine
 10
115.6844243231182
 20
37.07546719722393
 30
0.0
 11
110.0844243231182
 21
42.67546719722395
 31
0.0
  0
LINE
  5
1CA5
330
1C82
100
AcDbEntity
  8
0
 62
     0
100
AcDbLine
 10
137.9404936133386
 20
14.81939790700357
 30
0.0
 11
132.4844243231181
 21
20.27546719722408
 31
0.0
  0
LINE
  5
1CA6
330
1C82
100
AcDbEntity
  8
0
 62
     0
100
AcDbLine
 10
128.2844243231182
 20
22.67941597300989
 30
0.0
 11
122.684424323118
 21
28.27941597301014
 31
0.0
  0
LINE
  5
1CA7
330
1C82
100
AcDbEntity
  8
0
 62
     0
100
AcDbLine
 10
115.6844243231181
 20
35.27941597301014
 30
0.0
 11
110.0844243231182
 21
40.87941597301005
 31
0.0
  0
LINE
  5
1CA8
330
1C82
100
AcDbEntity
  8
0
 62
     0
100
AcDbLine
 10
136.6638404278396
 20
14.29999986828863
 30
0.0
 11
132.4844243231179
 21
18.4794159730103
 31
0.0
  0
LINE
  5
1CA9
330
1C82
100
AcDbEntity
  8
0
 62
     0
100
AcDbLine
 10
115.6844243231181
 20
33.48336474879625
 30
0.0
 11
110.0844243231181
 21
39.08336474879615
 31
0.0
  0
LINE
  5
1CAA
330
1C82
100
AcDbEntity
  8
0
 62
     0
100
AcDbLine
 10
128.2844243231182
 20
20.88336474879611
 30
0.0
 11
122.684424323118
 21
26.48336474879636
 31
0.0
  0
LINE
  5
1CAB
330
1C82
100
AcDbEntity
  8
0
 62
     0
100
AcDbLine
 10
104.8344243231181
 20
44.33336474879626
 30
0.0
 11
102.6677892036254
 21
46.4999998682888
 31
0.0
  0
LINE
  5
1CAC
330
1C82
100
AcDbEntity
  8
0
 62
     0
100
AcDbLine
 10
134.8677892036258
 20
14.29999986828841
 30
0.0
 11
132.4844243231179
 21
16.6833647487964
 31
0.0
  0
LINE
  5
1CAD
330
1C82
100
AcDbEntity
  8
0
 62
     0
100
AcDbLine
 10
115.6844243231181
 20
31.68731352458246
 30
0.0
 11
110.0844243231182
 21
37.28731352458249
 31
0.0
  0
LINE
  5
1CAE
330
1C82
100
AcDbEntity
  8
0
 62
     0
100
AcDbLine
 10
104.8344243231181
 20
42.53731352458248
 30
0.0
 11
100.8717379794118
 21
46.4999998682889
 31
0.0
  0
LINE
  5
1CAF
330
1C82
100
AcDbEntity
  8
0
 62
     0
100
AcDbLine
 10
128.2325077218271
 20
19.1392301258736
 30
0.0
 11
122.684424323118
 21
24.68731352458258
 31
0.0
  0
LINE
  5
1CB0
330
1C82
100
AcDbEntity
  8
0
 62
     0
100
AcDbLine
 10
115.6844243231182
 20
29.89126230036845
 30
0.0
 11
110.0844243231182
 21
35.49126230036859
 31
0.0
  0
LINE
  5
1CB1
330
1C82
100
AcDbEntity
  8
0
 62
     0
100
AcDbLine
 10
104.4432632308904
 20
41.13242339259636
 30
0.0
 11
99.07568675519815
 21
46.49999986828868
 31
0.0
  0
LINE
  5
1CB2
330
1C82
100
AcDbEntity
  8
0
 62
     0
100
AcDbLine
 10
127.8465371313126
 20
17.72914949217408
 30
0.0
 11
122.684424323118
 21
22.89126230036879
 31
0.0
  0
LINE
  5
1CB3
330
1C82
100
AcDbEntity
  8
0
 62
     0
100
AcDbLine
 10
115.6844243231182
 20
28.09521107615466
 30
0.0
 11
110.0844243231181
 21
33.6952110761548
 31
0.0
  0
LINE
  5
1CB4
330
1C82
100
AcDbEntity
  8
0
 62
     0
100
AcDbLine
 10
102.8796355309841
 20
40.89999986828866
 30
0.0
 11
97.27963553098414
 21
46.4999998682888
 31
0.0
  0
LINE
  5
1CB5
330
1C82
100
AcDbEntity
  8
0
 62
     0
100
AcDbLine
 10
127.1964733794654
 20
16.58316201980733
 30
0.0
 11
122.541392844799
 21
21.23824255447391
 31
0.0
  0
LINE
  5
1CB6
330
1C82
100
AcDbEntity
  8
0
 62
     0
100
AcDbLine
 10
115.6844243231183
 20
26.29915985194088
 30
0.0
 11
110.0844243231182
 21
31.89915985194102
 31
0.0
  0
LINE
  5
1CB7
330
1C82
100
AcDbEntity
  8
0
 62
     0
100
AcDbLine
 10
101.0835843067704
 20
40.89999986828877
 30
0.0
 11
95.60845084841572
 21
46.37513332664354
 31
0.0
  0
LINE
  5
1CB8
330
1C82
100
AcDbEntity
  8
0
 62
     0
100
AcDbLine
 10
126.3323897848154
 20
15.65119439024374
 30
0.0
 11
121.738221567864
 21
20.24536260719514
 31
0.0
  0
LINE
  5
1CB9
330
1C82
100
AcDbEntity
  8
0
 62
     0
100
AcDbLine
 10
115.6844243231182
 20
24.5031086277271
 30
0.0
 11
110.0844243231181
 21
30.10310862772712
 31
0.0
  0
LINE
  5
1CBA
330
1C82
100
AcDbEntity
  8
0
 62
     0
100
AcDbLine
 10
99.28753308255659
 20
40.89999986828877
 30
0.0
 11
94.27916999934893
 21
45.90836295149631
 31
0.0
  0
LINE
  5
1CBB
330
1C82
100
AcDbEntity
  8
0
 62
     0
100
AcDbLine
 10
125.2600650949633
 20
14.92746785588201
 30
0.0
 11
120.2875330825565
 21
19.89999986828865
 31
0.0
  0
LINE
  5
1CBC
330
1C82
100
AcDbEntity
  8
0
 62
     0
100
AcDbLine
 10
115.6844243231182
 20
22.7070574035132
 30
0.0
 11
110.0844243231182
 21
28.30705740351311
 31
0.0
  0
LINE
  5
1CBD
330
1C82
100
AcDbEntity
  8
0
 62
     0
100
AcDbLine
 10
97.53506151437898
 20
40.85642021225237
 30
0.0
 11
93.19396812492858
 21
45.19751360170277
 31
0.0
  0
LINE
  5
1CBE
330
1C82
100
AcDbEntity
  8
0
 62
     0
100
AcDbLine
 10
123.9472399751407
 20
14.44424175149072
 30
0.0
 11
118.4914818583428
 21
19.89999986828865
 31
0.0
  0
LINE
  5
1CBF
330
1C82
100
AcDbEntity
  8
0
 62
     0
100
AcDbLine
 10
96.78442432311829
 20
39.81100617929917
 30
0.0
 11
92.31774400683946
 21
44.27768649557799
 31
0.0
  0
LINE
  5
1CC0
330
1C82
100
AcDbEntity
  8
0
 62
     0
100
AcDbLine
 10
122.295430634129
 20
14.29999986828852
 30
0.0
 11
110.0844243231182
 21
26.51100617929933
 31
0.0
  0
LINE
  5
1CC1
330
1C82
100
AcDbEntity
  8
0
 62
     0
100
AcDbLine
 10
96.7844243231184
 20
38.0149549550855
 30
0.0
 11
91.65420218213341
 21
43.14517709607048
 31
0.0
  0
LINE
  5
1CC2
330
1C82
100
AcDbEntity
  8
0
 62
     0
100
AcDbLine
 10
120.4993794099152
 20
14.29999986828852
 30
0.0
 11
110.0844243231183
 21
24.71495495508554
 31
0.0
  0
LINE
  5
1CC3
330
1C82
100
AcDbEntity
  8
0
 62
     0
100
AcDbLine
 10
97.19751288532586
 20
35.80581516866414
 30
0.0
 11
91.24984514340519
 21
41.75348291058469
 31
0.0
  0
LINE
  5
1CC4
330
1C82
100
AcDbEntity
  8
0
 62
     0
100
AcDbLine
 10
118.7033281857012
 20
14.29999986828863
 30
0.0
 11
110.0844243231182
 21
22.91890373087176
 31
0.0
  0
LINE
  5
1CC5
330
1C82
100
AcDbEntity
  8
0
 62
     0
100
AcDbLine
 10
105.6316317285009
 20
25.57564510127519
 30
0.0
 11
91.18442432311814
 21
40.02285250665784
 31
0.0
  0
LINE
  5
1CC6
330
1C82
100
AcDbEntity
  8
0
 62
     0
100
AcDbLine
 10
86.98442432311798
 20
44.222852506658
 30
0.0
 11
84.70727696148742
 21
46.49999986828868
 31
0.0
  0
LINE
  5
1CC7
330
1C82
100
AcDbEntity
  8
0
 62
     0
100
AcDbLine
 10
116.9072769614874
 20
14.29999986828863
 30
0.0
 11
110.0844243231182
 21
21.12285250665786
 31
0.0
  0
LINE
  5
1CC8
330
1C82
100
AcDbEntity
  8
0
 62
     0
100
AcDbLine
 10
105.8844243231183
 20
23.52680128244412
 30
0.0
 11
91.18442432311827
 21
38.22680128244417
 31
0.0
  0
LINE
  5
1CC9
330
1C82
100
AcDbEntity
  8
0
 62
     0
100
AcDbLine
 10
86.98442432311821
 20
42.4268012824441
 30
0.0
 11
82.91122573727353
 21
46.4999998682889
 31
0.0
  0
LINE
  5
1CCA
330
1C82
100
AcDbEntity
  8
0
 62
     0
100
AcDbLine
 10
115.078329979784
 20
14.3328956257784
 30
0.0
 11
110.117320080608
 21
19.29390552495442
 31
0.0
  0
LINE
  5
1CCB
330
1C82
100
AcDbEntity
  8
0
 62
     0
100
AcDbLine
 10
86.98442432311821
 20
40.63075005823032
 30
0.0
 11
81.56964454756758
 21
46.04552983378084
 31
0.0
  0
LINE
  5
1CCC
330
1C82
100
AcDbEntity
  8
0
 62
     0
100
AcDbLine
 10
105.8844243231181
 20
21.73075005823022
 30
0.0
 11
91.23124565888293
 21
36.38392872246561
 31
0.0
  0
LINE
  5
1CCD
330
1C82
100
AcDbEntity
  8
0
 62
     0
100
AcDbLine
 10
86.98442432311821
 20
38.83469883401642
 30
0.0
 11
81.38442432311819
 21
44.43469883401633
 31
0.0
  0
LINE
  5
1CCE
330
1C82
100
AcDbEntity
  8
0
 62
     0
100
AcDbLine
 10
105.8844243231179
 20
19.93469883401655
 30
0.0
 11
91.86748449456297
 21
33.95163866257167
 31
0.0
  0
LINE
  5
1CCF
330
1C82
100
AcDbEntity
  8
0
 62
     0
100
AcDbLine
 10
86.98442432311821
 20
37.03864760980263
 30
0.0
 11
81.38442432311832
 21
42.63864760980254
 31
0.0
  0
LINE
  5
1CD0
330
1C82
100
AcDbEntity
  8
0
 62
     0
100
AcDbLine
 10
105.66730068794
 20
18.35577124498081
 30
0.0
 11
100.2760311098634
 21
23.74704082305743
 31
0.0
  0
LINE
  5
1CD1
330
1C82
100
AcDbEntity
  8
0
 62
     0
100
AcDbLine
 10
86.98442432311821
 20
35.24259638558885
 30
0.0
 11
81.38442432311819
 21
40.84259638558876
 31
0.0
  0
LINE
  5
1CD2
330
1C82
100
AcDbEntity
  8
0
 62
     0
100
AcDbLine
 10
76.80145052196417
 20
45.42557018674279
 30
0.0
 11
75.72702084041816
 21
46.4999998682889
 31
0.0
  0
LINE
  5
1CD3
330
1C82
100
AcDbEntity
  8
0
 62
     0
100
AcDbLine
 10
105.1315492724169
 20
17.09547143629015
 30
0.0
 11
100.2844243231182
 21
21.94259638558878
 31
0.0
  0
LINE
  5
1CD4
330
1C82
100
AcDbEntity
  8
0
 62
     0
100
AcDbLine
 10
86.98442432311811
 20
33.44654516137495
 30
0.0
 11
81.38442432311819
 21
39.04654516137497
 31
0.0
  0
LINE
  5
1CD5
330
1C82
100
AcDbEntity
  8
0
 62
     0
100
AcDbLine
 10
76.40359519345896
 20
44.0273742910341
 30
0.0
 11
73.93096961620438
 21
46.4999998682888
 31
0.0
  0
LINE
  5
1CD6
330
1C82
100
AcDbEntity
  8
0
 62
     0
100
AcDbLine
 10
104.3655756760663
 20
16.06539380842684
 30
0.0
 11
100.0898539573453
 21
20.34111552714784
 31
0.0
  0
LINE
  5
1CD7
330
1C82
100
AcDbEntity
  8
0
 62
     0
100
AcDbLine
 10
86.98442432311811
 20
31.65049393716117
 30
0.0
 11
81.38442432311819
 21
37.25049393716108
 31
0.0
  0
LINE
  5
1CD8
330
1C82
100
AcDbEntity
  8
0
 62
     0
100
AcDbLine
 10
75.97254289964758
 20
42.66237536063158
 30
0.0
 11
72.15411177270642
 21
46.48080648757286
 31
0.0
  0
LINE
  5
1CD9
330
1C82
100
AcDbEntity
  8
0
 62
     0
100
AcDbLine
 10
103.392937745835
 20
15.24198051444409
 30
0.0
 11
98.73491839199061
 21
19.89999986828865
 31
0.0
  0
LINE
  5
1CDA
330
1C82
100
AcDbEntity
  8
0
 62
     0
100
AcDbLine
 10
86.98442432311834
 20
29.85444271294727
 30
0.0
 11
81.38442432311819
 21
35.4544427129473
 31
0.0
  0
LINE
  5
1CDB
330
1C82
100
AcDbEntity
  8
0
 62
     0
100
AcDbLine
 10
75.54149060583654
 20
41.29737643022906
 30
0.0
 11
71.28549060583646
 21
45.55337643022915
 31
0.0
  0
LINE
  5
1CDC
330
1C82
100
AcDbEntity
  8
0
 62
     0
100
AcDbLine
 10
102.2007698489143
 20
14.63809718715117
 30
0.0
 11
96.93886716777683
 21
19.89999986828877
 31
0.0
  0
LINE
  5
1CDD
330
1C82
100
AcDbEntity
  8
0
 62
     0
100
AcDbLine
 10
86.98442432311834
 20
28.05839148873337
 30
0.0
 11
81.38442432311819
 21
33.65839148873351
 31
0.0
  0
LINE
  5
1CDE
330
1C82
100
AcDbEntity
  8
0
 62
     0
100
AcDbLine
 10
75.11043831202482
 20
39.93237749982688
 30
0.0
 11
70.85443831202486
 21
44.18837749982685
 31
0.0
  0
LINE
  5
1CDF
330
1C82
100
AcDbEntity
  8
0
 62
     0
100
AcDbLine
 10
100.7254245456193
 20
14.31739126623233
 30
0.0
 11
95.14281594356305
 21
19.89999986828865
 31
0.0
  0
LINE
  5
1CE0
330
1C82
100
AcDbEntity
  8
0
 62
     0
100
AcDbLine
 10
86.98442432311821
 20
26.26234026451959
 30
0.0
 11
81.38442432311808
 21
31.86234026451961
 31
0.0
  0
LINE
  5
1CE1
330
1C82
100
AcDbEntity
  8
0
 62
     0
100
AcDbLine
 10
74.67938601821368
 20
38.56737856942413
 30
0.0
 11
70.42338601821348
 21
42.82337856942421
 31
0.0
  0
LINE
  5
1CE2
330
1C82
100
AcDbEntity
  8
0
 62
     0
100
AcDbLine
 10
98.94676471934928
 20
14.29999986828852
 30
0.0
 11
93.34676471934916
 21
19.89999986828865
 31
0.0
  0
LINE
  5
1CE3
330
1C82
100
AcDbEntity
  8
0
 62
     0
100
AcDbLine
 10
86.98442432311834
 20
24.46628904030581
 30
0.0
 11
81.38442432311819
 21
30.06628904030594
 31
0.0
  0
LINE
  5
1CE4
330
1C82
100
AcDbEntity
  8
0
 62
     0
100
AcDbLine
 10
74.24833372440253
 20
37.20237963902161
 30
0.0
 11
69.99233372440222
 21
41.45837963902181
 31
0.0
  0
LINE
  5
1CE5
330
1C82
100
AcDbEntity
  8
0
 62
     0
100
AcDbLine
 10
97.1507134951355
 20
14.29999986828863
 30
0.0
 11
92.28349010054273
 21
19.1672232628814
 31
0.0
  0
LINE
  5
1CE6
330
1C82
100
AcDbEntity
  8
0
 62
     0
100
AcDbLine
 10
73.81728143059103
 20
35.83738070861921
 30
0.0
 11
69.56128143059095
 21
40.09338070861929
 31
0.0
  0
LINE
  5
1CE7
330
1C82
100
AcDbEntity
  8
0
 62
     0
100
AcDbLine
 10
86.98442432311821
 20
22.67023781609191
 30
0.0
 11
81.38442432311819
 21
28.27023781609204
 31
0.0
  0
LINE
  5
1CE8
330
1C82
100
AcDbEntity
  8
0
 62
     0
100
AcDbLine
 10
65.28442432311817
 20
44.37023781609207
 30
0.0
 11
63.15466227092156
 21
46.49999986828857
 31
0.0
  0
LINE
  5
1CE9
330
1C82
100
AcDbEntity
  8
0
 62
     0
100
AcDbLine
 10
95.35466227092172
 20
14.29999986828852
 30
0.0
 11
92.23442432311822
 21
17.42023781609202
 31
0.0
  0
LINE
  5
1CEA
330
1C82
100
AcDbEntity
  8
0
 62
     0
100
AcDbLine
 10
73.38622913677966
 20
34.47238177821668
 30
0.0
 11
69.13022913677969
 21
38.72838177821666
 31
0.0
  0
LINE
  5
1CEB
330
1C82
100
AcDbEntity
  8
0
 62
     0
100
AcDbLine
 10
86.98442432311821
 20
20.87418659187812
 30
0.0
 11
81.38442432311808
 21
26.47418659187826
 31
0.0
  0
LINE
  5
1CEC
330
1C82
100
AcDbEntity
  8
0
 62
     0
100
AcDbLine
 10
65.28442432311817
 20
42.57418659187817
 30
0.0
 11
61.35861104670778
 21
46.49999986828857
 31
0.0
  0
LINE
  5
1CED
330
1C82
100
AcDbEntity
  8
0
 62
     0
100
AcDbLine
 10
93.5586110467077
 20
14.29999986828863
 30
0.0
 11
92.23442432311811
 21
15.62418659187812
 31
0.0
  0
LINE
  5
1CEE
330
1C82
100
AcDbEntity
  8
0
 62
     0
100
AcDbLine
 10
72.95517684296829
 20
33.10738284781416
 30
0.0
 11
68.6991768429682
 21
37.36338284781425
 31
0.0
  0
LINE
  5
1CEF
330
1C82
100
AcDbEntity
  8
0
 62
     0
100
AcDbLine
 10
65.28442432311805
 20
40.77813536766427
 30
0.0
 11
59.93353446532285
 21
46.1290252254596
 31
0.0
  0
LINE
  5
1CF0
330
1C82
100
AcDbEntity
  8
0
 62
     0
100
AcDbLine
 10
86.98442432311821
 20
19.07813536766423
 30
0.0
 11
81.38442432311808
 21
24.67813536766437
 31
0.0
  0
LINE
  5
1CF1
330
1C82
100
AcDbEntity
  8
0
 62
     0
100
AcDbLine
 10
72.52412454915702
 20
31.74238391741175
 30
0.0
 11
68.26812454915705
 21
35.99838391741172
 31
0.0
  0
LINE
  5
1CF2
330
1C82
100
AcDbEntity
  8
0
 62
     0
100
AcDbLine
 10
65.28442432311817
 20
38.9820841434506
 30
0.0
 11
59.68442432311826
 21
44.58208414345051
 31
0.0
  0
LINE
  5
1CF3
330
1C82
100
AcDbEntity
  8
0
 62
     0
100
AcDbLine
 10
86.98442432311821
 20
17.28208414345056
 30
0.0
 11
81.38442432311808
 21
22.88208414345058
 31
0.0
  0
LINE
  5
1CF4
330
1C82
100
AcDbEntity
  8
0
 62
     0
100
AcDbLine
 10
72.11394753037325
 20
30.35650971198163
 30
0.0
 11
67.83707225534556
 21
34.63338498700932
 31
0.0
  0
LINE
  5
1CF5
330
1C82
100
AcDbEntity
  8
0
 62
     0
100
AcDbLine
 10
65.28442432311817
 20
37.1860329192367
 30
0.0
 11
59.68442432311815
 21
42.78603291923661
 31
0.0
  0
LINE
  5
1CF6
330
1C82
100
AcDbEntity
  8
0
 62
     0
100
AcDbLine
 10
86.98442432311834
 20
15.48603291923654
 30
0.0
 11
81.38442432311808
 21
21.08603291923679
 31
0.0
  0
LINE
  5
1CF7
330
1C82
100
AcDbEntity
  8
0
 62
     0
100
AcDbLine
 10
72.94289424924125
 20
27.73151176889973
 30
0.0
 11
67.25597726397632
 21
33.41842875416466
 31
0.0
  0
LINE
  5
1CF8
330
1C82
100
AcDbEntity
  8
0
 62
     0
100
AcDbLine
 10
65.28442432311829
 20
35.38998169502269
 30
0.0
 11
59.68442432311815
 21
40.98998169502283
 31
0.0
  0
LINE
  5
1CF9
330
1C82
100
AcDbEntity
  8
0
 62
     0
100
AcDbLine
 10
86.30633432845332
 20
14.36807168968755
 30
0.0
 11
81.38442432311819
 21
19.28998169502278
 31
0.0
  0
LINE
  5
1CFA
330
1C82
100
AcDbEntity
  8
0
 62
     0
100
AcDbLine
 10
73.77184096810935
 20
25.10651382581795
 30
0.0
 11
59.68442432311815
 21
39.19393047080905
 31
0.0
  0
LINE
  5
1CFB
330
1C82
100
AcDbEntity
  8
0
 62
     0
100
AcDbLine
 10
54.78442432311829
 20
44.09393047080903
 30
0.0
 11
52.37835492563852
 21
46.49999986828868
 31
0.0
  0
LINE
  5
1CFC
330
1C82
100
AcDbEntity
  8
0
 62
     0
100
AcDbLine
 10
84.57835492563868
 20
14.29999986828863
 30
0.0
 11
81.38442432311832
 21
17.493930470809
 31
0.0
  0
LINE
  5
1CFD
330
1C82
100
AcDbEntity
  8
0
 62
     0
100
AcDbLine
 10
74.60078768697712
 20
22.48151588273617
 30
0.0
 11
59.68442432311815
 21
37.39787924659526
 31
0.0
  0
LINE
  5
1CFE
330
1C82
100
AcDbEntity
  8
0
 62
     0
100
AcDbLine
 10
54.78442432311829
 20
42.29787924659513
 30
0.0
 11
50.58230370142474
 21
46.49999986828868
 31
0.0
  0
LINE
  5
1CFF
330
1C82
100
AcDbEntity
  8
0
 62
     0
100
AcDbLine
 10
82.78230370142466
 20
14.29999986828875
 30
0.0
 11
81.38442432311819
 21
15.69787924659522
 31
0.0
  0
LINE
  5
1D00
330
1C82
100
AcDbEntity
  8
0
 62
     0
100
AcDbLine
 10
54.25061093233807
 20
41.03564141316144
 30
0.0
 11
48.85016749591523
 21
46.43608484958417
 31
0.0
  0
LINE
  5
1D01
330
1C82
100
AcDbEntity
  8
0
 62
     0
100
AcDbLine
 10
75.42973440584501
 20
19.8565179396545
 30
0.0
 11
59.68442432311815
 21
35.60182802238136
 31
0.0
  0
LINE
  5
1D02
330
1C82
100
AcDbEntity
  8
0
 62
     0
100
AcDbLine
 10
65.95944216780139
 20
27.53075895348433
 30
0.0
 11
59.68442432311838
 21
33.80577679816735
 31
0.0
  0
LINE
  5
1D03
330
1C82
100
AcDbEntity
  8
0
 62
     0
100
AcDbLine
 10
52.59020125299707
 20
40.89999986828866
 30
0.0
 11
47.3740813567407
 21
46.11611976454503
 31
0.0
  0
LINE
  5
1D04
330
1C82
100
AcDbEntity
  8
0
 62
     0
100
AcDbLine
 10
76.25868112471301
 20
17.23151999657273
 30
0.0
 11
68.07406574009724
 21
25.41613538118838
 31
0.0
  0
LINE
  5
1D05
330
1C82
100
AcDbEntity
  8
0
 62
     0
100
AcDbLine
 10
65.28442432311829
 20
26.40972557395366
 30
0.0
 11
59.68442432311826
 21
32.00972557395369
 31
0.0
  0
LINE
  5
1D06
330
1C82
100
AcDbEntity
  8
0
 62
     0
100
AcDbLine
 10
50.79415002878318
 20
40.89999986828866
 30
0.0
 11
46.09663852507924
 21
45.59751137199259
 31
0.0
  0
LINE
  5
1D07
330
1C82
100
AcDbEntity
  8
0
 62
     0
100
AcDbLine
 10
76.72875884013421
 20
14.96539105693762
 30
0.0
 11
68.90301245896512
 21
22.79113743810682
 31
0.0
  0
LINE
  5
1D08
330
1C82
100
AcDbEntity
  8
0
 62
     0
100
AcDbLine
 10
65.28442432311817
 20
24.61367434973988
 30
0.0
 11
59.68442432311826
 21
30.21367434973979
 31
0.0
  0
LINE
  5
1D09
330
1C82
100
AcDbEntity
  8
0
 62
     0
100
AcDbLine
 10
49.10792302369611
 20
40.79017564916194
 30
0.0
 11
44.97914057441017
 21
44.91895809844788
 31
0.0
  0
LINE
  5
1D0A
330
1C82
100
AcDbEntity
  8
0
 62
     0
100
AcDbLine
 10
75.59809880456953
 20
14.29999986828852
 30
0.0
 11
69.731959177833
 21
20.16613949502505
 31
0.0
  0
LINE
  5
1D0B
330
1C82
100
AcDbEntity
  8
0
 62
     0
100
AcDbLine
 10
65.28442432311817
 20
22.81762312552598
 30
0.0
 11
59.68442432311815
 21
28.41762312552589
 31
0.0
  0
LINE
  5
1D0C
330
1C82
100
AcDbEntity
  8
0
 62
     0
100
AcDbLine
 10
47.96421063801813
 20
40.13783681062602
 30
0.0
 11
44.00383015718659
 21
44.09821729145756
 31
0.0
  0
LINE
  5
1D0D
330
1C82
100
AcDbEntity
  8
0
 62
     0
100
AcDbLine
 10
73.80204758035564
 20
14.29999986828852
 30
0.0
 11
70.56090589670112
 21
17.54114155194304
 31
0.0
  0
LINE
  5
1D0E
330
1C82
100
AcDbEntity
  8
0
 62
     0
100
AcDbLine
 10
55.45528258871366
 20
30.85071363571683
 30
0.0
 11
52.43513809054616
 21
33.87085813388432
 31
0.0
  0
LINE
  5
1D0F
330
1C82
100
AcDbEntity
  8
0
 62
     0
100
AcDbLine
 10
65.2844243231184
 20
21.02157190131208
 30
0.0
 11
59.68442432311826
 21
26.62157190131222
 31
0.0
  0
LINE
  5
1D10
330
1C82
100
AcDbEntity
  8
0
 62
     0
100
AcDbLine
 10
47.25196749776023
 20
39.05402872667025
 30
0.0
 11
43.16509810516413
 21
43.14089811926635
 31
0.0
  0
LINE
  5
1D11
330
1C82
100
AcDbEntity
  8
0
 62
     0
100
AcDbLine
 10
71.90533034773261
 20
14.40066587669787
 30
0.0
 11
71.40462200454999
 21
14.90137421988049
 31
0.0
  0
LINE
  5
1D12
330
1C82
100
AcDbEntity
  8
0
 62
     0
100
AcDbLine
 10
55.28225526842982
 20
29.22768973178676
 30
0.0
 11
50.81211418661609
 21
33.69783081360049
 31
0.0
  0
LINE
  5
1D13
330
1C82
100
AcDbEntity
  8
0
 62
     0
100
AcDbLine
 10
47.08442432311835
 20
37.42552067709823
 30
0.0
 11
42.4672200632408
 21
42.04272493697579
 31
0.0
  0
LINE
  5
1D14
330
1C82
100
AcDbEntity
  8
0
 62
     0
100
AcDbLine
 10
65.28442432311829
 20
19.22552067709818
 30
0.0
 11
59.68442432311826
 21
24.82552067709832
 31
0.0
  0
LINE
  5
1D15
330
1C82
100
AcDbEntity
  8
0
 62
     0
100
AcDbLine
 10
54.61854414983372
 20
28.09534962616885
 30
0.0
 11
49.67977408099819
 21
33.03411969500439
 31
0.0
  0
LINE
  5
1D16
330
1C82
100
AcDbEntity
  8
0
 62
     0
100
AcDbLine
 10
47.08442432311835
 20
35.62946945288433
 30
0.0
 11
41.92606064882045
 21
40.78783312718224
 31
0.0
  0
LINE
  5
1D17
330
1C82
100
AcDbEntity
  8
0
 62
     0
100
AcDbLine
 10
65.28442432311829
 20
17.4294694528844
 30
0.0
 11
59.68442432311815
 21
23.02946945288454
 31
0.0
  0
LINE
  5
1D18
330
1C82
100
AcDbEntity
  8
0
 62
     0
100
AcDbLine
 10
47.08442432311835
 20
33.83341822867055
 30
0.0
 11
41.57663290296875
 21
39.34120964882026
 31
0.0
  0
LINE
  5
1D19
330
1C82
100
AcDbEntity
  8
0
 62
     0
100
AcDbLine
 10
53.61487726556084
 20
27.30296528622818
 30
0.0
 11
48.88738974105752
 21
32.0304528107315
 31
0.0
  0
LINE
  5
1D1A
330
1C82
100
AcDbEntity
  8
0
 62
     0
100
AcDbLine
 10
36.23442432311822
 20
44.6834182286708
 30
0.0
 11
34.41784268350022
 21
46.4999998682888
 31
0.0
  0
LINE
  5
1D1B
330
1C82
100
AcDbEntity
  8
0
 62
     0
100
AcDbLine
 10
65.2844243231184
 20
15.63341822867062
 30
0.0
 11
59.68442432311826
 21
21.23341822867075
 31
0.0
  0
LINE
  5
1D1C
330
1C82
100
AcDbEntity
  8
0
 62
     0
100
AcDbLine
 10
47.08442432311835
 20
32.03736700445677
 30
0.0
 11
41.48442432311822
 21
37.6373670044569
 31
0.0
  0
LINE
  5
1D1D
330
1C82
100
AcDbEntity
  8
0
 62
     0
100
AcDbLine
 10
52.21423838070598
 20
26.90755294686914
 30
0.0
 11
48.49197740169848
 21
30.62981392587664
 31
0.0
  0
LINE
  5
1D1E
330
1C82
100
AcDbEntity
  8
0
 62
     0
100
AcDbLine
 10
36.2344243231181
 20
42.8873670044569
 30
0.0
 11
32.62179145928632
 21
46.49999986828868
 31
0.0
  0
LINE
  5
1D1F
330
1C82
100
AcDbEntity
  8
0
 62
     0
100
AcDbLine
 10
64.70861672057697
 20
14.41317460699815
 30
0.0
 11
59.68442432311815
 21
19.43736700445685
 31
0.0
  0
LINE
  5
1D20
330
1C82
100
AcDbEntity
  8
0
 62
     0
100
AcDbLine
 10
47.08442432311835
 20
30.24131578024287
 30
0.0
 11
41.48442432311822
 21
35.84131578024301
 31
0.0
  0
LINE
  5
1D21
330
1C82
100
AcDbEntity
  8
0
 62
     0
100
AcDbLine
 10
36.01635638257744
 20
41.30938372078378
 30
0.0
 11
30.82574023507231
 21
46.4999998682888
 31
0.0
  0
LINE
  5
1D22
330
1C82
100
AcDbEntity
  8
0
 62
     0
100
AcDbLine
 10
63.02574023507259
 20
14.29999986828863
 30
0.0
 11
59.68442432311815
 21
17.64131578024307
 31
0.0
  0
LINE
  5
1D23
330
1C82
100
AcDbEntity
  8
0
 62
     0
100
AcDbLine
 10
47.08442432311824
 20
28.44526455602908
 30
0.0
 11
41.4844243231181
 21
34.04526455602911
 31
0.0
  0
LINE
  5
1D24
330
1C82
100
AcDbEntity
  8
0
 62
     0
100
AcDbLine
 10
34.62968901085867
 20
40.89999986828866
 30
0.0
 11
29.02968901085853
 21
46.4999998682888
 31
0.0
  0
LINE
  5
1D25
330
1C82
100
AcDbEntity
  8
0
 62
     0
100
AcDbLine
 10
61.22968901085869
 20
14.29999986828852
 30
0.0
 11
59.68442432311815
 21
15.84526455602917
 31
0.0
  0
LINE
  5
1D26
330
1C82
100
AcDbEntity
  8
0
 62
     0
100
AcDbLine
 10
47.08442432311847
 20
26.64921333181519
 30
0.0
 11
41.48442432311822
 21
32.24921333181544
 31
0.0
  0
LINE
  5
1D27
330
1C82
100
AcDbEntity
  8
0
 62
     0
100
AcDbLine
 10
32.83363778664488
 20
40.89999986828877
 30
0.0
 11
27.30337924243519
 21
46.43025841249846
 31
0.0
  0
LINE
  5
1D28
330
1C82
100
AcDbEntity
  8
0
 62
     0
100
AcDbLine
 10
54.77921942544435
 20
18.95441822948919
 30
0.0
 11
53.83884268431893
 21
19.89479497061472
 31
0.0
  0
LINE
  5
1D29
330
1C82
100
AcDbEntity
  8
0
 62
     0
100
AcDbLine
 10
47.08442432311847
 20
24.85316210760129
 30
0.0
 11
41.48442432311822
 21
30.45316210760154
 31
0.0
  0
LINE
  5
1D2A
330
1C82
100
AcDbEntity
  8
0
 62
     0
100
AcDbLine
 10
31.03758656243098
 20
40.89999986828866
 30
0.0
 11
25.91710962547824
 21
46.02047680524151
 31
0.0
  0
LINE
  5
1D2B
330
1C82
100
AcDbEntity
  8
0
 62
     0
100
AcDbLine
 10
54.7844243231184
 20
17.15316210760136
 30
0.0
 11
52.0375865624311
 21
19.89999986828865
 31
0.0
  0
LINE
  5
1D2C
330
1C82
100
AcDbEntity
  8
0
 62
     0
100
AcDbLine
 10
47.08442432311835
 20
23.05711088338739
 30
0.0
 11
41.48442432311833
 21
28.65711088338753
 31
0.0
  0
LINE
  5
1D2D
330
1C82
100
AcDbEntity
  8
0
 62
     0
100
AcDbLine
 10
29.24153533821732
 20
40.89999986828843
 30
0.0
 11
24.78861630578376
 21
45.35291890072199
 31
0.0
  0
LINE
  5
1D2E
330
1C82
100
AcDbEntity
  8
0
 62
     0
100
AcDbLine
 10
54.78442432311829
 20
15.35711088338746
 30
0.0
 11
50.24153533821709
 21
19.89999986828877
 31
0.0
  0
LINE
  5
1D2F
330
1C82
100
AcDbEntity
  8
0
 62
     0
100
AcDbLine
 10
28.22094968298813
 20
40.12453429930405
 30
0.0
 11
23.87243068130226
 21
44.47305330098993
 31
0.0
  0
LINE
  5
1D30
330
1C82
100
AcDbEntity
  8
0
 62
     0
100
AcDbLine
 10
54.00895875413358
 20
14.33652522815862
 30
0.0
 11
41.48442432311833
 21
26.86105965917386
 31
0.0
  0
LINE
  5
1D31
330
1C82
100
AcDbEntity
  8
0
 62
     0
100
AcDbLine
 10
28.18442432311826
 20
38.36500843496003
 30
0.0
 11
23.16546827636409
 21
43.3839644817142
 31
0.0
  0
LINE
  5
1D32
330
1C82
100
AcDbEntity
  8
0
 62
     0
100
AcDbLine
 10
52.24943288978977
 20
14.29999986828852
 30
0.0
 11
41.48442432311833
 21
25.06500843495996
 31
0.0
  0
LINE
  5
1D33
330
1C82
100
AcDbEntity
  8
0
 62
     0
100
AcDbLine
 10
28.30869573938912
 20
36.44468579447516
 30
0.0
 11
22.70370807177664
 21
42.04967346208775
 31
0.0
  0
LINE
  5
1D34
330
1C82
100
AcDbEntity
  8
0
 62
     0
100
AcDbLine
 10
50.45338166557576
 20
14.29999986828863
 30
0.0
 11
41.48442432311822
 21
23.26895721074606
 31
0.0
  0
LINE
  5
1D35
330
1C82
100
AcDbEntity
  8
0
 62
     0
100
AcDbLine
 10
36.89317650556358
 20
26.06415380408702
 30
0.0
 11
22.58442432311835
 21
40.37290598653226
 31
0.0
  0
LINE
  5
1D36
330
1C82
100
AcDbEntity
  8
0
 62
     0
100
AcDbLine
 10
48.55078626724867
 20
14.40654404240194
 30
0.0
 11
41.59096849723153
 21
21.36636181241908
 31
0.0
  0
LINE
  5
1D37
330
1C82
100
AcDbEntity
  8
0
 62
     0
100
AcDbLine
 10
37.27696553373402
 20
23.8843135517028
 30
0.0
 11
22.58442432311813
 21
38.5768547623187
 31
0.0
  0
LINE
  5
1D38
330
1C82
100
AcDbEntity
  8
0
 62
     0
100
AcDbLine
 10
45.80317044204548
 20
15.35810864339123
 30
0.0
 11
42.5425330982207
 21
18.61874598721612
 31
0.0
  0
LINE
  5
1D39
330
1C82
100
AcDbEntity
  8
0
 62
     0
100
AcDbLine
 10
37.2844243231184
 20
22.08080353810453
 30
0.0
 11
22.59955321796291
 21
36.7656746432599
 31
0.0
  0
LINE
  5
1D3A
330
1C82
100
AcDbEntity
  8
0
 62
     0
100
AcDbLine
 10
37.28442432311817
 20
20.28475231389086
 30
0.0
 11
23.04613473461063
 21
34.52304190239829
 31
0.0
  0
LINE
  5
1D3B
330
1C82
100
AcDbEntity
  8
0
 62
     0
100
AcDbLine
 10
37.13938433085434
 20
18.63374108194102
 30
0.0
 11
31.61260104361622
 21
24.16052436917914
 31
0.0
  0
LINE
  5
1D3C
330
1C82
100
AcDbEntity
  8
0
 62
     0
100
AcDbLine
 10
36.65550845279665
 20
17.32156573578481
 30
0.0
 11
31.68442432311826
 21
22.2926498654632
 31
0.0
  0
LINE
  5
1D3D
330
1C82
100
AcDbEntity
  8
0
 62
     0
100
AcDbLine
 10
35.93126995803311
 20
16.24975300633446
 30
0.0
 11
31.6126262585168
 21
20.56839670585077
 31
0.0
  0
LINE
  5
1D3E
330
1C82
100
AcDbEntity
  8
0
 62
     0
100
AcDbLine
 10
34.99881721349936
 20
15.38615452665442
 30
0.0
 11
30.48497187186512
 21
19.89999986828877
 31
0.0
  0
LINE
  5
1D3F
330
1C82
100
AcDbEntity
  8
0
 62
     0
100
AcDbLine
 10
33.85228831803374
 20
14.73663219790626
 30
0.0
 11
28.68892064765123
 21
19.89999986828865
 31
0.0
  0
LINE
  5
1D40
330
1C82
100
AcDbEntity
  8
0
 62
     0
100
AcDbLine
 10
32.44146313986187
 20
14.35140615186424
 30
0.0
 11
26.89286942343744
 21
19.89999986828865
 31
0.0
  0
LINE
  5
1D41
330
1C82
100
AcDbEntity
  8
0
 62
     0
100
AcDbLine
 10
30.69681819922357
 20
14.29999986828863
 30
0.0
 11
25.09681819922354
 21
19.89999986828865
 31
0.0
  0
LINE
  5
1D42
330
1C82
100
AcDbEntity
  8
0
 62
     0
100
AcDbLine
 10
28.9007669750099
 20
14.29999986828852
 30
0.0
 11
23.79411918537414
 21
19.40664765792439
 31
0.0
  0
LINE
  5
1D43
330
1C82
100
AcDbEntity
  8
0
 62
     0
100
AcDbLine
 10
27.10471575079589
 20
14.29999986828863
 30
0.0
 11
23.63442432311831
 21
17.77029129596621
 31
0.0
  0
LINE
  5
1D44
330
1C82
100
AcDbEntity
  8
0
 62
     0
100
AcDbLine
 10
25.30866452658222
 20
14.29999986828852
 30
0.0
 11
23.63442432311831
 21
15.97424007175243
 31
0.0
  0
LINE
  5
1D45
330
1C82
100
AcDbEntity
  8
0
 62
     0
100
AcDbLine
 10
137.2677988924521
 20
14.32626342252365
 30
0.0
 11
138.0581607688836
 21
15.11662529895522
 31
0.0
  0
LINE
  5
1D46
330
1C82
100
AcDbEntity
  8
0
 62
     0
100
AcDbLine
 10
135.4454841140031
 20
14.29999986828841
 30
0.0
 11
138.0844243231185
 21
16.9389400774038
 31
0.0
  0
LINE
  5
1D47
330
1C82
100
AcDbEntity
  8
0
 62
     0
100
AcDbLine
 10
133.6494328897894
 20
14.29999986828841
 30
0.0
 11
138.0844243231185
 21
18.73499130161758
 31
0.0
  0
LINE
  5
1D48
330
1C82
100
AcDbEntity
  8
0
 62
     0
100
AcDbLine
 10
132.5468194496219
 20
14.99343765233482
 30
0.0
 11
138.0844243231184
 21
20.53104252583147
 31
0.0
  0
LINE
  5
1D49
330
1C82
100
AcDbEntity
  8
0
 62
     0
100
AcDbLine
 10
132.4844243231183
 20
16.72709375004512
 30
0.0
 11
138.0844243231184
 21
22.32709375004515
 31
0.0
  0
LINE
  5
1D4A
330
1C82
100
AcDbEntity
  8
0
 62
     0
100
AcDbLine
 10
132.4844243231184
 20
18.52314497425891
 30
0.0
 11
138.0844243231184
 21
24.12314497425905
 31
0.0
  0
LINE
  5
1D4B
330
1C82
100
AcDbEntity
  8
0
 62
     0
100
AcDbLine
 10
132.4844243231183
 20
20.3191961984728
 30
0.0
 11
138.0844243231184
 21
25.91919619847294
 31
0.0
  0
LINE
  5
1D4C
330
1C82
100
AcDbEntity
  8
0
 62
     0
100
AcDbLine
 10
132.4844243231183
 20
22.11524742268659
 30
0.0
 11
138.0844243231184
 21
27.71524742268673
 31
0.0
  0
LINE
  5
1D4D
330
1C82
100
AcDbEntity
  8
0
 62
     0
100
AcDbLine
 10
125.3375540472488
 20
14.96837714681714
 30
0.0
 11
127.6160470445899
 21
17.24687014415837
 31
0.0
  0
LINE
  5
1D4E
330
1C82
100
AcDbEntity
  8
0
 62
     0
100
AcDbLine
 10
132.4844243231183
 20
23.91129864690037
 30
0.0
 11
138.0844243231184
 21
29.51129864690051
 31
0.0
  0
LINE
  5
1D4F
330
1C82
100
AcDbEntity
  8
0
 62
     0
100
AcDbLine
 10
122.8764177142032
 20
14.30329203798533
 30
0.0
 11
128.2811321534219
 21
19.70800647720386
 31
0.0
  0
LINE
  5
1D50
330
1C82
100
AcDbEntity
  8
0
 62
     0
100
AcDbLine
 10
132.4844243231183
 20
25.70734987111427
 30
0.0
 11
138.0844243231184
 21
31.30734987111429
 31
0.0
  0
LINE
  5
1D51
330
1C82
100
AcDbEntity
  8
0
 62
     0
100
AcDbLine
 10
121.0770743202924
 20
14.29999986828841
 30
0.0
 11
128.2844243231185
 21
21.50734987111434
 31
0.0
  0
LINE
  5
1D52
330
1C82
100
AcDbEntity
  8
0
 62
     0
100
AcDbLine
 10
132.4844243231183
 20
27.50340109532805
 30
0.0
 11
138.0844243231183
 21
33.10340109532819
 31
0.0
  0
LINE
  5
1D53
330
1C82
100
AcDbEntity
  8
0
 62
     0
100
AcDbLine
 10
119.2810230960786
 20
14.29999986828841
 30
0.0
 11
128.2844243231183
 21
23.30340109532824
 31
0.0
  0
LINE
  5
1D54
330
1C82
100
AcDbEntity
  8
0
 62
     0
100
AcDbLine
 10
132.4844243231183
 20
29.29945231954184
 30
0.0
 11
138.0844243231184
 21
34.89945231954198
 31
0.0
  0
LINE
  5
1D55
330
1C82
100
AcDbEntity
  8
0
 62
     0
100
AcDbLine
 10
117.484971871865
 20
14.29999986828852
 30
0.0
 11
128.2844243231185
 21
25.09945231954202
 31
0.0
  0
LINE
  5
1D56
330
1C82
100
AcDbEntity
  8
0
 62
     0
100
AcDbLine
 10
122.4752419189562
 20
21.08632113959367
 30
0.0
 11
128.2844243231185
 21
26.8955035437558
 31
0.0
  0
LINE
  5
1D57
330
1C82
100
AcDbEntity
  8
0
 62
     0
100
AcDbLine
 10
132.4844243231183
 20
31.09550354375562
 30
0.0
 11
138.0844243231184
 21
36.69550354375576
 31
0.0
  0
LINE
  5
1D58
330
1C82
100
AcDbEntity
  8
0
 62
     0
100
AcDbLine
 10
115.6889206476509
 20
14.29999986828841
 30
0.0
 11
121.4981030518132
 21
20.10918227245054
 31
0.0
  0
LINE
  5
1D59
330
1C82
100
AcDbEntity
  8
0
 62
     0
100
AcDbLine
 10
122.6844243231182
 20
23.09155476796957
 30
0.0
 11
128.2844243231183
 21
28.6915547679697
 31
0.0
  0
LINE
  5
1D5A
330
1C82
100
AcDbEntity
  8
0
 62
     0
100
AcDbLine
 10
132.4844243231182
 20
32.89155476796952
 30
0.0
 11
138.0844243231183
 21
38.49155476796966
 31
0.0
  0
LINE
  5
1D5B
330
1C82
100
AcDbEntity
  8
0
 62
     0
100
AcDbLine
 10
114.1167689261916
 20
14.52389937104283
 30
0.0
 11
119.4928694234373
 21
19.89999986828854
 31
0.0
  0
LINE
  5
1D5C
330
1C82
100
AcDbEntity
  8
0
 62
     0
100
AcDbLine
 10
122.6844243231183
 20
24.88760599218358
 30
0.0
 11
128.2844243231183
 21
30.48760599218349
 31
0.0
  0
LINE
  5
1D5D
330
1C82
100
AcDbEntity
  8
0
 62
     0
100
AcDbLine
 10
132.4844243231182
 20
34.68760599218342
 30
0.0
 11
138.0844243231183
 21
40.28760599218344
 31
0.0
  0
LINE
  5
1D5E
330
1C82
100
AcDbEntity
  8
0
 62
     0
100
AcDbLine
 10
112.8607951917713
 20
15.06397686083653
 30
0.0
 11
117.6985737705122
 21
19.90175543957741
 31
0.0
  0
LINE
  5
1D5F
330
1C82
100
AcDbEntity
  8
0
 62
     0
100
AcDbLine
 10
122.6844243231185
 20
26.68365721639736
 30
0.0
 11
128.2844243231183
 21
32.28365721639727
 31
0.0
  0
LINE
  5
1D60
330
1C82
100
AcDbEntity
  8
0
 62
     0
100
AcDbLine
 10
132.4844243231183
 20
36.48365721639709
 30
0.0
 11
138.0844243231183
 21
42.08365721639722
 31
0.0
  0
LINE
  5
1D61
330
1C82
100
AcDbEntity
  8
0
 62
     0
100
AcDbLine
 10
111.8342754290412
 20
15.83350832231997
 30
0.0
 11
116.4116165930868
 21
20.41084948636569
 31
0.0
  0
LINE
  5
1D62
330
1C82
100
AcDbEntity
  8
0
 62
     0
100
AcDbLine
 10
122.6844243231185
 20
28.47970844061114
 30
0.0
 11
128.2844243231183
 21
34.07970844061117
 31
0.0
  0
LINE
  5
1D63
330
1C82
100
AcDbEntity
  8
0
 62
     0
100
AcDbLine
 10
132.4844243231182
 20
38.27970844061098
 30
0.0
 11
138.0844243231183
 21
43.87970844061112
 31
0.0
  0
LINE
  5
1D64
330
1C82
100
AcDbEntity
  8
0
 62
     0
100
AcDbLine
 10
111.0143470785909
 20
16.80963119608361
 30
0.0
 11
115.7371400362679
 21
21.53242415376075
 31
0.0
  0
LINE
  5
1D65
330
1C82
100
AcDbEntity
  8
0
 62
     0
100
AcDbLine
 10
122.6844243231183
 20
30.27575966482504
 30
0.0
 11
128.2844243231185
 21
35.87575966482518
 31
0.0
  0
LINE
  5
1D66
330
1C82
100
AcDbEntity
  8
0
 62
     0
100
AcDbLine
 10
132.4844243231182
 20
40.07575966482477
 30
0.0
 11
138.0641260160174
 21
45.6554613577241
 31
0.0
  0
LINE
  5
1D67
330
1C82
100
AcDbEntity
  8
0
 62
     0
100
AcDbLine
 10
110.4144973217229
 20
18.0058326634296
 30
0.0
 11
115.6844243231183
 21
23.27575966482493
 31
0.0
  0
LINE
  5
1D68
330
1C82
100
AcDbEntity
  8
0
 62
     0
100
AcDbLine
 10
122.6844243231185
 20
32.07181088903871
 30
0.0
 11
128.2844243231186
 21
37.67181088903885
 31
0.0
  0
LINE
  5
1D69
330
1C82
100
AcDbEntity
  8
0
 62
     0
100
AcDbLine
 10
132.4844243231182
 20
41.87181088903855
 30
0.0
 11
137.1098973258584
 21
46.4972838917788
 31
0.0
  0
LINE
  5
1D6A
330
1C82
100
AcDbEntity
  8
0
 62
     0
100
AcDbLine
 10
110.09967025181
 20
19.48705681773037
 30
0.0
 11
115.6844243231183
 21
25.07181088903871
 31
0.0
  0
LINE
  5
1D6B
330
1C82
100
AcDbEntity
  8
0
 62
     0
100
AcDbLine
 10
122.6844243231183
 20
33.86786211325261
 30
0.0
 11
128.2844243231185
 21
39.46786211325274
 31
0.0
  0
LINE
  5
1D6C
330
1C82
100
AcDbEntity
  8
0
 62
     0
100
AcDbLine
 10
132.4844243231183
 20
43.66786211325257
 30
0.0
 11
135.3165620781543
 21
46.49999986828857
 31
0.0
  0
LINE
  5
1D6D
330
1C82
100
AcDbEntity
  8
0
 62
     0
100
AcDbLine
 10
110.0844243231184
 20
21.26786211325259
 30
0.0
 11
115.6844243231184
 21
26.86786211325272
 31
0.0
  0
LINE
  5
1D6E
330
1C82
100
AcDbEntity
  8
0
 62
     0
100
AcDbLine
 10
122.6844243231183
 20
35.66391333746651
 30
0.0
 11
128.2844243231185
 21
41.26391333746653
 31
0.0
  0
LINE
  5
1D6F
330
1C82
100
AcDbEntity
  8
0
 62
     0
100
AcDbLine
 10
110.0844243231183
 20
23.06391333746649
 30
0.0
 11
115.6844243231184
 21
28.66391333746662
 31
0.0
  0
LINE
  5
1D70
330
1C82
100
AcDbEntity
  8
0
 62
     0
100
AcDbLine
 10
132.4845177526132
 20
45.46400676696134
 30
0.0
 11
133.5204174244457
 21
46.49990643879379
 31
0.0
  0
LINE
  5
1D71
330
1C82
100
AcDbEntity
  8
0
 62
     0
100
AcDbLine
 10
101.4413130616943
 20
14.42080207604237
 30
0.0
 11
105.7636221153646
 21
18.74311112971281
 31
0.0
  0
LINE
  5
1D72
330
1C82
100
AcDbEntity
  8
0
 62
     0
100
AcDbLine
 10
110.0844243231183
 20
24.85996456168027
 30
0.0
 11
115.6844243231184
 21
30.4599645616804
 31
0.0
  0
LINE
  5
1D73
330
1C82
100
AcDbEntity
  8
0
 62
     0
100
AcDbLine
 10
122.6844243231183
 20
37.45996456168029
 30
0.0
 11
128.2844243231183
 21
43.05996456168043
 31
0.0
  0
LINE
  5
1D74
330
1C82
100
AcDbEntity
  8
0
 62
     0
100
AcDbLine
 10
99.5244596297266
 20
14.29999986828863
 30
0.0
 11
105.8844243231183
 21
20.65996456168034
 31
0.0
  0
LINE
  5
1D75
330
1C82
100
AcDbEntity
  8
0
 62
     0
100
AcDbLine
 10
110.0844243231183
 20
26.65601578589405
 30
0.0
 11
115.6844243231184
 21
32.25601578589419
 31
0.0
  0
LINE
  5
1D76
330
1C82
100
AcDbEntity
  8
0
 62
     0
100
AcDbLine
 10
122.6844243231183
 20
39.25601578589407
 30
0.0
 11
128.2844243231185
 21
44.85601578589421
 31
0.0
  0
LINE
  5
1D77
330
1C82
100
AcDbEntity
  8
0
 62
     0
100
AcDbLine
 10
97.72840840551282
 20
14.29999986828852
 30
0.0
 11
105.8844243231184
 21
22.45601578589401
 31
0.0
  0
LINE
  5
1D78
330
1C82
100
AcDbEntity
  8
0
 62
     0
100
AcDbLine
 10
110.0844243231183
 20
28.45206701010795
 30
0.0
 11
115.6844243231184
 21
34.05206701010797
 31
0.0
  0
LINE
  5
1D79
330
1C82
100
AcDbEntity
  8
0
 62
     0
100
AcDbLine
 10
122.6844243231183
 20
41.05206701010786
 30
0.0
 11
127.8969494134502
 21
46.26459210043981
 31
0.0
  0
LINE
  5
1D7A
330
1C82
100
AcDbEntity
  8
0
 62
     0
100
AcDbLine
 10
95.93235718129903
 20
14.29999986828863
 30
0.0
 11
105.8557871222924
 21
24.22342980928203
 31
0.0
  0
LINE
  5
1D7B
330
1C82
100
AcDbEntity
  8
0
 62
     0
100
AcDbLine
 10
110.0844243231183
 20
30.24811823432173
 30
0.0
 11
115.6844243231183
 21
35.84811823432187
 31
0.0
  0
LINE
  5
1D7C
330
1C82
100
AcDbEntity
  8
0
 62
     0
100
AcDbLine
 10
122.6844243231182
 20
42.84811823432176
 30
0.0
 11
126.3363059570851
 21
46.49999986828868
 31
0.0
  0
LINE
  5
1D7D
330
1C82
100
AcDbEntity
  8
0
 62
     0
100
AcDbLine
 10
94.13630595708514
 20
14.29999986828863
 30
0.0
 11
105.5859623810349
 21
25.74965629223834
 31
0.0
  0
LINE
  5
1D7E
330
1C82
100
AcDbEntity
  8
0
 62
     0
100
AcDbLine
 10
110.0844243231183
 20
32.04416945853552
 30
0.0
 11
115.6844243231184
 21
37.64416945853565
 31
0.0
  0
LINE
  5
1D7F
330
1C82
100
AcDbEntity
  8
0
 62
     0
100
AcDbLine
 10
100.2844243231186
 20
22.24416945853568
 30
0.0
 11
105.1047874671978
 21
27.06453260261492
 31
0.0
  0
LINE
  5
1D80
330
1C82
100
AcDbEntity
  8
0
 62
     0
100
AcDbLine
 10
122.6844243231183
 20
44.64416945853554
 30
0.0
 11
124.5402547328715
 21
46.49999986828868
 31
0.0
  0
LINE
  5
1D81
330
1C82
100
AcDbEntity
  8
0
 62
     0
100
AcDbLine
 10
92.59676543913361
 20
14.55651057455077
 30
0.0
 11
97.94025473287138
 21
19.89999986828854
 31
0.0
  0
LINE
  5
1D82
330
1C82
100
AcDbEntity
  8
0
 62
     0
100
AcDbLine
 10
100.2446831728638
 20
24.00047953249475
 30
0.0
 11
104.4577888574767
 21
28.21358521710772
 31
0.0
  0
LINE
  5
1D83
330
1C82
100
AcDbEntity
  8
0
 62
     0
100
AcDbLine
 10
110.0844243231183
 20
33.8402206827493
 30
0.0
 11
115.6844243231183
 21
39.44022068274944
 31
0.0
  0
LINE
  5
1D84
330
1C82
100
AcDbEntity
  8
0
 62
     0
100
AcDbLine
 10
92.23442432311845
 20
15.99022068274939
 30
0.0
 11
96.14420350865749
 21
19.89999986828854
 31
0.0
  0
LINE
  5
1D85
330
1C82
100
AcDbEntity
  8
0
 62
     0
100
AcDbLine
 10
99.69591349858603
 20
25.24776108243099
 30
0.0
 11
103.6660466216211
 21
29.21789420546611
 31
0.0
  0
LINE
  5
1D86
330
1C82
100
AcDbEntity
  8
0
 62
     0
100
AcDbLine
 10
110.0844243231182
 20
35.6362719069632
 30
0.0
 11
115.6844243231183
 21
41.23627190696334
 31
0.0
  0
LINE
  5
1D87
330
1C82
100
AcDbEntity
  8
0
 62
     0
100
AcDbLine
 10
92.23442432311832
 20
17.78627190696329
 30
0.0
 11
94.34815228444369
 21
19.89999986828865
 31
0.0
  0
LINE
  5
1D88
330
1C82
100
AcDbEntity
  8
0
 62
     0
100
AcDbLine
 10
110.0844243231183
 20
37.43232313117698
 30
0.0
 11
115.6844243231184
 21
43.03232313117701
 31
0.0
  0
LINE
  5
1D89
330
1C82
100
AcDbEntity
  8
0
 62
     0
100
AcDbLine
 10
98.81336370435191
 20
26.16126251241041
 30
0.0
 11
102.7731616789965
 21
30.12106048705504
 31
0.0
  0
LINE
  5
1D8A
330
1C82
100
AcDbEntity
  8
0
 62
     0
100
AcDbLine
 10
97.91533809224496
 20
27.05928812451736
 30
0.0
 11
101.8751360668895
 21
31.01908609916199
 31
0.0
  0
LINE
  5
1D8B
330
1C82
100
AcDbEntity
  8
0
 62
     0
100
AcDbLine
 10
110.0844243231182
 20
39.22837435539077
 30
0.0
 11
115.6844243231183
 21
44.8283743553909
 31
0.0
  0
LINE
  5
1D8C
330
1C82
100
AcDbEntity
  8
0
 62
     0
100
AcDbLine
 10
85.15604983601599
 20
14.29999986828852
 30
0.0
 11
86.98442432311834
 21
16.12837435539074
 31
0.0
  0
LINE
  5
1D8D
330
1C82
100
AcDbEntity
  8
0
 62
     0
100
AcDbLine
 10
97.017312480138
 20
27.95731373662431
 30
0.0
 11
100.9771104547826
 21
31.91711171126894
 31
0.0
  0
LINE
  5
1D8E
330
1C82
100
AcDbEntity
  8
0
 62
     0
100
AcDbLine
 10
110.0844243231182
 20
41.02442557960467
 30
0.0
 11
115.312062506921
 21
46.25206376340736
 31
0.0
  0
LINE
  5
1D8F
330
1C82
100
AcDbEntity
  8
0
 62
     0
100
AcDbLine
 10
83.3599986118021
 20
14.29999986828852
 30
0.0
 11
86.98442432311844
 21
17.92442557960475
 31
0.0
  0
LINE
  5
1D90
330
1C82
100
AcDbEntity
  8
0
 62
     0
100
AcDbLine
 10
96.11928686803105
 20
28.85533934873126
 30
0.0
 11
100.0790848426756
 21
32.81513732337589
 31
0.0
  0
LINE
  5
1D91
330
1C82
100
AcDbEntity
  8
0
 62
     0
100
AcDbLine
 10
110.0844243231182
 20
42.82047680381845
 30
0.0
 11
113.7639473875884
 21
46.4999998682888
 31
0.0
  0
LINE
  5
1D92
330
1C82
100
AcDbEntity
  8
0
 62
     0
100
AcDbLine
 10
81.78716966331228
 20
14.52322214401249
 30
0.0
 11
86.98442432311834
 21
19.72047680381865
 31
0.0
  0
LINE
  5
1D93
330
1C82
100
AcDbEntity
  8
0
 62
     0
100
AcDbLine
 10
95.22126125592421
 20
29.7533649608381
 30
0.0
 11
99.18105923056884
 21
33.71316293548273
 31
0.0
  0
LINE
  5
1D94
330
1C82
100
AcDbEntity
  8
0
 62
     0
100
AcDbLine
 10
110.0844243231182
 20
44.61652802803223
 30
0.0
 11
111.9678961633748
 21
46.49999986828868
 31
0.0
  0
LINE
  5
1D95
330
1C82
100
AcDbEntity
  8
0
 62
     0
100
AcDbLine
 10
81.38442432311842
 20
15.91652802803241
 30
0.0
 11
86.98442432311844
 21
21.51652802803232
 31
0.0
  0
LINE
  5
1D96
330
1C82
100
AcDbEntity
  8
0
 62
     0
100
AcDbLine
 10
94.32323564381727
 20
30.65139057294504
 30
0.0
 11
98.2830336184619
 21
34.61118854758967
 31
0.0
  0
LINE
  5
1D97
330
1C82
100
AcDbEntity
  8
0
 62
     0
100
AcDbLine
 10
81.38442432311842
 20
17.71257925224631
 30
0.0
 11
86.98442432311834
 21
23.31257925224622
 31
0.0
  0
LINE
  5
1D98
330
1C82
100
AcDbEntity
  8
0
 62
     0
100
AcDbLine
 10
93.4292678417346
 20
31.55347399507638
 30
0.0
 11
97.39721490849866
 21
35.52142106184033
 31
0.0
  0
LINE
  5
1D99
330
1C82
100
AcDbEntity
  8
0
 62
     0
100
AcDbLine
 10
81.38442432311842
 20
19.50863047646009
 30
0.0
 11
86.98442432311834
 21
25.10863047646012
 31
0.0
  0
LINE
  5
1D9A
330
1C82
100
AcDbEntity
  8
0
 62
     0
100
AcDbLine
 10
102.7757937149467
 20
40.89999986828854
 30
0.0
 11
104.8344243231184
 21
42.95863047646014
 31
0.0
  0
LINE
  5
1D9B
330
1C82
100
AcDbEntity
  8
0
 62
     0
100
AcDbLine
 10
76.39911187369796
 20
14.52331802703963
 30
0.0
 11
76.578416596608
 21
14.70262274994979
 31
0.0
  0
LINE
  5
1D9C
330
1C82
100
AcDbEntity
  8
0
 62
     0
100
AcDbLine
 10
92.63326348409066
 20
32.55352086164612
 30
0.0
 11
96.83253203892787
 21
36.75278941648332
 31
0.0
  0
LINE
  5
1D9D
330
1C82
100
AcDbEntity
  8
0
 62
     0
100
AcDbLine
 10
81.38442432311842
 20
21.30468170067388
 30
0.0
 11
86.98442432311844
 21
26.90468170067379
 31
0.0
  0
LINE
  5
1D9E
330
1C82
100
AcDbEntity
  8
0
 62
     0
100
AcDbLine
 10
100.9797424907332
 20
40.89999986828866
 30
0.0
 11
104.8344243231184
 21
44.75468170067393
 31
0.0
  0
LINE
  5
1D9F
330
1C82
100
AcDbEntity
  8
0
 62
     0
100
AcDbLine
 10
74.37974249073306
 20
14.29999986828852
 30
0.0
 11
76.51130068334612
 21
16.43155806090158
 31
0.0
  0
LINE
  5
1DA0
330
1C82
100
AcDbEntity
  8
0
 62
     0
100
AcDbLine
 10
91.98159495529727
 20
33.69790355706664
 30
0.0
 11
96.78442432311863
 21
38.50073292488798
 31
0.0
  0
LINE
  5
1DA1
330
1C82
100
AcDbEntity
  8
0
 62
     0
100
AcDbLine
 10
81.38442432311842
 20
23.10073292488766
 30
0.0
 11
86.98442432311834
 21
28.70073292488768
 31
0.0
  0
LINE
  5
1DA2
330
1C82
100
AcDbEntity
  8
0
 62
     0
100
AcDbLine
 10
99.18369126651919
 20
40.89999986828854
 30
0.0
 11
104.5010864595226
 21
46.21739506129199
 31
0.0
  0
LINE
  5
1DA3
330
1C82
100
AcDbEntity
  8
0
 62
     0
100
AcDbLine
 10
72.58369126651905
 20
14.29999986828841
 30
0.0
 11
76.08024838953475
 21
17.7965569913041
 31
0.0
  0
LINE
  5
1DA4
330
1C82
100
AcDbEntity
  8
0
 62
     0
100
AcDbLine
 10
81.38442432311832
 20
24.89678414910156
 30
0.0
 11
86.98442432311834
 21
30.49678414910147
 31
0.0
  0
LINE
  5
1DA5
330
1C82
100
AcDbEntity
  8
0
 62
     0
100
AcDbLine
 10
91.49483082995709
 20
35.00719065594035
 30
0.0
 11
102.9876400423054
 21
46.49999986828868
 31
0.0
  0
LINE
  5
1DA6
330
1C82
100
AcDbEntity
  8
0
 62
     0
100
AcDbLine
 10
71.39966264520911
 20
14.91202247119235
 30
0.0
 11
75.64919609572337
 21
19.16155592170662
 31
0.0
  0
LINE
  5
1DA7
330
1C82
100
AcDbEntity
  8
0
 62
     0
100
AcDbLine
 10
81.38442432311832
 20
26.69283537331546
 30
0.0
 11
86.98442432311821
 21
32.29283537331537
 31
0.0
  0
LINE
  5
1DA8
330
1C82
100
AcDbEntity
  8
0
 62
     0
100
AcDbLine
 10
91.21741711178572
 20
36.52582816198287
 30
0.0
 11
101.1915888180916
 21
46.49999986828868
 31
0.0
  0
LINE
  5
1DA9
330
1C82
100
AcDbEntity
  8
0
 62
     0
100
AcDbLine
 10
70.96214380191191
 20
16.27055485210905
 30
0.0
 11
75.21814380191199
 21
20.52655485210914
 31
0.0
  0
LINE
  5
1DAA
330
1C82
100
AcDbEntity
  8
0
 62
     0
100
AcDbLine
 10
81.38442432311842
 20
28.48888659752913
 30
0.0
 11
86.98442432311834
 21
34.08888659752915
 31
0.0
  0
LINE
  5
1DAB
330
1C82
100
AcDbEntity
  8
0
 62
     0
100
AcDbLine
 10
91.18442432311837
 20
38.28888659752908
 30
0.0
 11
99.39553759387786
 21
46.49999986828868
 31
0.0
  0
LINE
  5
1DAC
330
1C82
100
AcDbEntity
  8
0
 62
     0
100
AcDbLine
 10
70.53109150810064
 20
17.63555378251146
 30
0.0
 11
74.78709150810084
 21
21.89155378251155
 31
0.0
  0
LINE
  5
1DAD
330
1C82
100
AcDbEntity
  8
0
 62
     0
100
AcDbLine
 10
81.38442432311832
 20
30.28493782174303
 30
0.0
 11
86.98442432311834
 21
35.88493782174293
 31
0.0
  0
LINE
  5
1DAE
330
1C82
100
AcDbEntity
  8
0
 62
     0
100
AcDbLine
 10
91.1844243231185
 20
40.08493782174309
 30
0.0
 11
97.59948636966408
 21
46.49999986828868
 31
0.0
  0
LINE
  5
1DAF
330
1C82
100
AcDbEntity
  8
0
 62
     0
100
AcDbLine
 10
70.10003921428915
 20
19.00055271291387
 30
0.0
 11
74.35603921428958
 21
23.2565527129143
 31
0.0
  0
LINE
  5
1DB0
330
1C82
100
AcDbEntity
  8
0
 62
     0
100
AcDbLine
 10
81.38442432311832
 20
32.08098904595681
 30
0.0
 11
86.98442432311844
 21
37.68098904595694
 31
0.0
  0
LINE
  5
1DB1
330
1C82
100
AcDbEntity
  8
0
 62
     0
100
AcDbLine
 10
69.66898692047789
 20
20.3655516433165
 30
0.0
 11
73.92498692047809
 21
24.62155164331659
 31
0.0
  0
LINE
  5
1DB2
330
1C82
100
AcDbEntity
  8
0
 62
     0
100
AcDbLine
 10
91.29105766336079
 20
41.98762238619941
 30
0.0
 11
95.69680180520743
 21
46.39336652804604
 31
0.0
  0
LINE
  5
1DB3
330
1C82
100
AcDbEntity
  8
0
 62
     0
100
AcDbLine
 10
63.6034351454499
 20
14.29999986828852
 30
0.0
 11
65.28442432311829
 21
15.9809890459569
 31
0.0
  0
LINE
  5
1DB4
330
1C82
100
AcDbEntity
  8
0
 62
     0
100
AcDbLine
 10
69.23793462666674
 20
21.73055057371891
 30
0.0
 11
73.49393462666682
 21
25.98655057371911
 31
0.0
  0
LINE
  5
1DB5
330
1C82
100
AcDbEntity
  8
0
 62
     0
100
AcDbLine
 10
81.38442432311832
 20
33.87704027017059
 30
0.0
 11
86.98442432311844
 21
39.47704027017073
 31
0.0
  0
LINE
  5
1DB6
330
1C82
100
AcDbEntity
  8
0
 62
     0
100
AcDbLine
 10
61.80738392123624
 20
14.29999986828841
 30
0.0
 11
65.2844243231184
 21
17.77704027017068
 31
0.0
  0
LINE
  5
1DB7
330
1C82
100
AcDbEntity
  8
0
 62
     0
100
AcDbLine
 10
68.80688233285536
 20
23.09554950412143
 30
0.0
 11
73.06288233285545
 21
27.35154950412163
 31
0.0
  0
LINE
  5
1DB8
330
1C82
100
AcDbEntity
  8
0
 62
     0
100
AcDbLine
 10
81.38442432311832
 20
35.67309149438449
 30
0.0
 11
86.98442432311844
 21
41.27309149438452
 31
0.0
  0
LINE
  5
1DB9
330
1C82
100
AcDbEntity
  8
0
 62
     0
100
AcDbLine
 10
60.17363219232493
 20
14.46229936359111
 30
0.0
 11
65.2844243231184
 21
19.57309149438447
 31
0.0
  0
LINE
  5
1DBA
330
1C82
100
AcDbEntity
  8
0
 62
     0
100
AcDbLine
 10
68.37583003904398
 20
24.46054843452396
 30
0.0
 11
72.63183003904408
 21
28.71654843452415
 31
0.0
  0
LINE
  5
1DBB
330
1C82
100
AcDbEntity
  8
0
 62
     0
100
AcDbLine
 10
81.38442432311832
 20
37.46914271859827
 30
0.0
 11
86.98442432311834
 21
43.06914271859841
 31
0.0
  0
LINE
  5
1DBC
330
1C82
100
AcDbEntity
  8
0
 62
     0
100
AcDbLine
 10
59.68442432311838
 20
15.76914271859834
 30
0.0
 11
65.28442432311852
 21
21.36914271859848
 31
0.0
  0
LINE
  5
1DBD
330
1C82
100
AcDbEntity
  8
0
 62
     0
100
AcDbLine
 10
67.94477774523272
 20
25.82554736492636
 30
0.0
 11
72.20077774523304
 21
30.08154736492667
 31
0.0
  0
LINE
  5
1DBE
330
1C82
100
AcDbEntity
  8
0
 62
     0
100
AcDbLine
 10
81.38442432311832
 20
39.26519394281206
 30
0.0
 11
86.98442432311844
 21
44.86519394281219
 31
0.0
  0
LINE
  5
1DBF
330
1C82
100
AcDbEntity
  8
0
 62
     0
100
AcDbLine
 10
59.68442432311838
 20
17.56519394281212
 30
0.0
 11
65.28442432311852
 21
23.16519394281226
 31
0.0
  0
LINE
  5
1DC0
330
1C82
100
AcDbEntity
  8
0
 62
     0
100
AcDbLine
 10
67.47518017128925
 20
27.1520010151969
 30
0.0
 11
72.73576830715104
 21
32.41258915105868
 31
0.0
  0
LINE
  5
1DC1
330
1C82
100
AcDbEntity
  8
0
 62
     0
100
AcDbLine
 10
81.38442432311842
 20
41.06124516702607
 30
0.0
 11
86.59187347812155
 21
46.26869432202909
 31
0.0
  0
LINE
  5
1DC2
330
1C82
100
AcDbEntity
  8
0
 62
     0
100
AcDbLine
 10
59.68442432311838
 20
19.36124516702602
 30
0.0
 11
65.28442432311852
 21
24.96124516702605
 31
0.0
  0
LINE
  5
1DC3
330
1C82
100
AcDbEntity
  8
0
 62
     0
100
AcDbLine
 10
66.10080943155447
 20
27.57368149967601
 30
0.0
 11
73.56471502601903
 21
35.03758709414057
 31
0.0
  0
LINE
  5
1DC4
330
1C82
100
AcDbEntity
  8
0
 62
     0
100
AcDbLine
 10
59.68442432311838
 20
21.15729639123981
 30
0.0
 11
65.31074269173098
 21
26.78361475985241
 31
0.0
  0
LINE
  5
1DC5
330
1C82
100
AcDbEntity
  8
0
 62
     0
100
AcDbLine
 10
81.38442432311842
 20
42.85729639123985
 30
0.0
 11
85.02712780016713
 21
46.49999986828868
 31
0.0
  0
LINE
  5
1DC6
330
1C82
100
AcDbEntity
  8
0
 62
     0
100
AcDbLine
 10
52.82712780016709
 20
14.29999986828852
 30
0.0
 11
54.7844243231184
 21
16.25729639123994
 31
0.0
  0
LINE
  5
1DC7
330
1C82
100
AcDbEntity
  8
0
 62
     0
100
AcDbLine
 10
59.68442432311826
 20
22.9533476154537
 30
0.0
 11
74.39366174488691
 21
37.66258503722236
 31
0.0
  0
LINE
  5
1DC8
330
1C82
100
AcDbEntity
  8
0
 62
     0
100
AcDbLine
 10
81.38442432311832
 20
44.65334761545375
 30
0.0
 11
83.23107657595324
 21
46.49999986828868
 31
0.0
  0
LINE
  5
1DC9
330
1C82
100
AcDbEntity
  8
0
 62
     0
100
AcDbLine
 10
51.0310765759532
 20
14.29999986828863
 30
0.0
 11
54.78442432311851
 21
18.05334761545395
 31
0.0
  0
LINE
  5
1DCA
330
1C82
100
AcDbEntity
  8
0
 62
     0
100
AcDbLine
 10
59.68442432311838
 20
24.74939883966738
 30
0.0
 11
75.22260846375513
 21
40.28758298030425
 31
0.0
  0
LINE
  5
1DCB
330
1C82
100
AcDbEntity
  8
0
 62
     0
100
AcDbLine
 10
49.25838660043962
 20
14.32336111698873
 30
0.0
 11
54.50175575590606
 21
19.56673027245506
 31
0.0
  0
LINE
  5
1DCC
330
1C82
100
AcDbEntity
  8
0
 62
     0
100
AcDbLine
 10
59.68442432311826
 20
26.54545006388127
 30
0.0
 11
66.3389741275256
 21
33.19999986828861
 31
0.0
  0
LINE
  5
1DCD
330
1C82
100
AcDbEntity
  8
0
 62
     0
100
AcDbLine
 10
67.86693979800702
 20
34.72796553877003
 30
0.0
 11
76.05155518262302
 21
42.91258092338603
 31
0.0
  0
LINE
  5
1DCE
330
1C82
100
AcDbEntity
  8
0
 62
     0
100
AcDbLine
 10
47.72206556554567
 20
14.58309130630857
 30
0.0
 11
53.03897412752553
 21
19.89999986828854
 31
0.0
  0
LINE
  5
1DCF
330
1C82
100
AcDbEntity
  8
0
 62
     0
100
AcDbLine
 10
59.68442432311826
 20
28.34150128809517
 30
0.0
 11
65.32040546453493
 21
33.97748242951172
 31
0.0
  0
LINE
  5
1DD0
330
1C82
100
AcDbEntity
  8
0
 62
     0
100
AcDbLine
 10
68.6958865168749
 20
37.3529634818517
 30
0.0
 11
76.80169808622565
 21
45.45877505120256
 31
0.0
  0
LINE
  5
1DD1
330
1C82
100
AcDbEntity
  8
0
 62
     0
100
AcDbLine
 10
46.39979705189285
 20
15.05687401686975
 30
0.0
 11
51.24292290331175
 21
19.89999986828854
 31
0.0
  0
LINE
  5
1DD2
330
1C82
100
AcDbEntity
  8
0
 62
     0
100
AcDbLine
 10
59.68442432311838
 20
30.13755251230884
 30
0.0
 11
65.2844243231184
 21
35.73755251230898
 31
0.0
  0
LINE
  5
1DD3
330
1C82
100
AcDbEntity
  8
0
 62
     0
100
AcDbLine
 10
69.52483323574313
 20
39.97796142493371
 30
0.0
 11
76.01367434108727
 21
46.46680253027784
 31
0.0
  0
LINE
  5
1DD4
330
1C82
100
AcDbEntity
  8
0
 62
     0
100
AcDbLine
 10
45.24459048356425
 20
15.69771867275471
 30
0.0
 11
49.47671420054996
 21
19.92984238974054
 31
0.0
  0
LINE
  5
1DD5
330
1C82
100
AcDbEntity
  8
0
 62
     0
100
AcDbLine
 10
59.68442432311826
 20
31.93360373652274
 30
0.0
 11
65.2844243231184
 21
37.53360373652288
 31
0.0
  0
LINE
  5
1DD6
330
1C82
100
AcDbEntity
  8
0
 62
     0
100
AcDbLine
 10
70.35377995461101
 20
42.60295936801537
 30
0.0
 11
74.25082045488409
 21
46.49999986828857
 31
0.0
  0
LINE
  5
1DD7
330
1C82
100
AcDbEntity
  8
0
 62
     0
100
AcDbLine
 10
44.23468055080014
 20
16.48385996420449
 30
0.0
 11
48.20808191851336
 21
20.45726133191771
 31
0.0
  0
LINE
  5
1DD8
330
1C82
100
AcDbEntity
  8
0
 62
     0
100
AcDbLine
 10
59.68442432311826
 20
33.72965496073652
 30
0.0
 11
65.2844243231184
 21
39.32965496073666
 31
0.0
  0
LINE
  5
1DD9
330
1C82
100
AcDbEntity
  8
0
 62
     0
100
AcDbLine
 10
53.00769258667128
 20
27.05292322428965
 30
0.0
 11
55.33150096711745
 21
29.37673160473582
 31
0.0
  0
LINE
  5
1DDA
330
1C82
100
AcDbEntity
  8
0
 62
     0
100
AcDbLine
 10
71.18272667347878
 20
45.22795731109716
 30
0.0
 11
72.45476923067042
 21
46.4999998682888
 31
0.0
  0
LINE
  5
1DDB
330
1C82
100
AcDbEntity
  8
0
 62
     0
100
AcDbLine
 10
43.36180640414045
 20
17.40703704175882
 30
0.0
 11
47.38758001596898
 21
21.43281065358735
 31
0.0
  0
LINE
  5
1DDC
330
1C82
100
AcDbEntity
  8
0
 62
     0
100
AcDbLine
 10
51.15774690341163
 20
26.9990287652439
 30
0.0
 11
55.38539542616319
 21
31.22667728799536
 31
0.0
  0
LINE
  5
1DDD
330
1C82
100
AcDbEntity
  8
0
 62
     0
100
AcDbLine
 10
59.68442432311838
 20
35.52570618495053
 30
0.0
 11
65.28442432311852
 21
41.12570618495067
 31
0.0
  0
LINE
  5
1DDE
330
1C82
100
AcDbEntity
  8
0
 62
     0
100
AcDbLine
 10
42.62776795425452
 20
18.46904981608668
 30
0.0
 11
47.08442432311835
 21
22.92570618495062
 31
0.0
  0
LINE
  5
1DDF
330
1C82
100
AcDbEntity
  8
0
 62
     0
100
AcDbLine
 10
49.92945376457123
 20
27.56678685061706
 30
0.0
 11
54.81763734078993
 21
32.45497042683587
 31
0.0
  0
LINE
  5
1DE0
330
1C82
100
AcDbEntity
  8
0
 62
     0
100
AcDbLine
 10
59.68442432311838
 20
37.32175740916432
 30
0.0
 11
65.28442432311852
 21
42.92175740916445
 31
0.0
  0
LINE
  5
1DE1
330
1C82
100
AcDbEntity
  8
0
 62
     0
100
AcDbLine
 10
42.04513293440505
 20
19.68246602045098
 30
0.0
 11
47.08442432311835
 21
24.72175740916429
 31
0.0
  0
LINE
  5
1DE2
330
1C82
100
AcDbEntity
  8
0
 62
     0
100
AcDbLine
 10
49.05353391059179
 20
28.48691822085163
 30
0.0
 11
53.89750597055547
 21
33.33089028081519
 31
0.0
  0
LINE
  5
1DE3
330
1C82
100
AcDbEntity
  8
0
 62
     0
100
AcDbLine
 10
59.68442432311838
 20
39.11780863337821
 30
0.0
 11
65.28442432311852
 21
44.71780863337824
 31
0.0
  0
LINE
  5
1DE4
330
1C82
100
AcDbEntity
  8
0
 62
     0
100
AcDbLine
 10
41.64285820605573
 20
21.07624251631557
 30
0.0
 11
47.08442432311835
 21
26.51780863337819
 31
0.0
  0
LINE
  5
1DE5
330
1C82
100
AcDbEntity
  8
0
 62
     0
100
AcDbLine
 10
48.54143244577506
 20
29.77086798024868
 30
0.0
 11
52.61355621115831
 21
33.84299174563205
 31
0.0
  0
LINE
  5
1DE6
330
1C82
100
AcDbEntity
  8
0
 62
     0
100
AcDbLine
 10
41.48442432311822
 20
22.71385985759195
 30
0.0
 11
47.08442432311835
 21
28.31385985759197
 31
0.0
  0
LINE
  5
1DE7
330
1C82
100
AcDbEntity
  8
0
 62
     0
100
AcDbLine
 10
59.68442432311838
 20
40.913859857592
 30
0.0
 11
64.96992410640814
 21
46.19935964088187
 31
0.0
  0
LINE
  5
1DE8
330
1C82
100
AcDbEntity
  8
0
 62
     0
100
AcDbLine
 10
33.31243080736703
 20
14.54186634184077
 30
0.0
 11
37.04255784956649
 21
18.27199338404023
 31
0.0
  0
LINE
  5
1DE9
330
1C82
100
AcDbEntity
  8
0
 62
     0
100
AcDbLine
 10
48.77825861273663
 20
31.80374537142404
 30
0.0
 11
50.58067881998306
 21
33.60616557867047
 31
0.0
  0
LINE
  5
1DEA
330
1C82
100
AcDbEntity
  8
0
 62
     0
100
AcDbLine
 10
41.48442432311822
 20
24.50991108180562
 30
0.0
 11
47.08442432311835
 21
30.10991108180576
 31
0.0
  0
LINE
  5
1DEB
330
1C82
100
AcDbEntity
  8
0
 62
     0
100
AcDbLine
 10
59.68442432311838
 20
42.70991108180578
 30
0.0
 11
63.47451310960116
 21
46.49999986828857
 31
0.0
  0
LINE
  5
1DEC
330
1C82
100
AcDbEntity
  8
0
 62
     0
100
AcDbLine
 10
31.27451310960111
 20
14.29999986828852
 30
0.0
 11
37.28442432311863
 21
20.30991108180592
 31
0.0
  0
LINE
  5
1DED
330
1C82
100
AcDbEntity
  8
0
 62
     0
100
AcDbLine
 10
41.48442432311822
 20
26.30596230601952
 30
0.0
 11
47.08442432311835
 21
31.90596230601966
 31
0.0
  0
LINE
  5
1DEE
330
1C82
100
AcDbEntity
  8
0
 62
     0
100
AcDbLine
 10
59.68442432311838
 20
44.50596230601957
 30
0.0
 11
61.67846188538738
 21
46.49999986828868
 31
0.0
  0
LINE
  5
1DEF
330
1C82
100
AcDbEntity
  8
0
 62
     0
100
AcDbLine
 10
29.4784618853871
 20
14.29999986828841
 30
0.0
 11
37.28442432311851
 21
22.10596230601982
 31
0.0
  0
LINE
  5
1DF0
330
1C82
100
AcDbEntity
  8
0
 62
     0
100
AcDbLine
 10
41.48442432311822
 20
28.1020135302333
 30
0.0
 11
47.08442432311824
 21
33.70201353023344
 31
0.0
  0
LINE
  5
1DF1
330
1C82
100
AcDbEntity
  8
0
 62
     0
100
AcDbLine
 10
27.68241066117343
 20
14.29999986828863
 30
0.0
 11
37.27654561799602
 21
23.89413482511122
 31
0.0
  0
LINE
  5
1DF2
330
1C82
100
AcDbEntity
  8
0
 62
     0
100
AcDbLine
 10
41.48442432311822
 20
29.8980647544472
 30
0.0
 11
47.08442432311835
 21
35.49806475444734
 31
0.0
  0
LINE
  5
1DF3
330
1C82
100
AcDbEntity
  8
0
 62
     0
100
AcDbLine
 10
52.48635943695979
 20
40.89999986828877
 30
0.0
 11
54.78442432311863
 21
43.19806475444761
 31
0.0
  0
LINE
  5
1DF4
330
1C82
100
AcDbEntity
  8
0
 62
     0
100
AcDbLine
 10
25.88635943695953
 20
14.29999986828852
 30
0.0
 11
37.05722194535337
 21
25.47086237668236
 31
0.0
  0
LINE
  5
1DF5
330
1C82
100
AcDbEntity
  8
0
 62
     0
100
AcDbLine
 10
41.48442432311822
 20
31.69411597866099
 30
0.0
 11
47.08442432311835
 21
37.29411597866101
 31
0.0
  0
LINE
  5
1DF6
330
1C82
100
AcDbEntity
  8
0
 62
     0
100
AcDbLine
 10
31.68442432311838
 20
21.89411597866115
 30
0.0
 11
36.61254445726513
 21
26.8222361128079
 31
0.0
  0
LINE
  5
1DF7
330
1C82
100
AcDbEntity
  8
0
 62
     0
100
AcDbLine
 10
50.69030821274577
 20
40.89999986828854
 30
0.0
 11
54.78442432311863
 21
44.99411597866128
 31
0.0
  0
LINE
  5
1DF8
330
1C82
100
AcDbEntity
  8
0
 62
     0
100
AcDbLine
 10
24.20575996326567
 20
14.41545161880844
 30
0.0
 11
29.69030821274577
 21
19.89999986828854
 31
0.0
  0
LINE
  5
1DF9
330
1C82
100
AcDbEntity
  8
0
 62
     0
100
AcDbLine
 10
41.4844243231181
 20
33.49016720287477
 30
0.0
 11
47.41605373467769
 21
39.42179661443435
 31
0.0
  0
LINE
  5
1DFA
330
1C82
100
AcDbEntity
  8
0
 62
     0
100
AcDbLine
 10
31.68010613989986
 20
23.68584901965641
 30
0.0
 11
35.99568138792108
 21
28.00142426767775
 31
0.0
  0
LINE
  5
1DFB
330
1C82
100
AcDbEntity
  8
0
 62
     0
100
AcDbLine
 10
48.56262757697277
 20
40.56837045672944
 30
0.0
 11
54.3174894932788
 21
46.32323237303535
 31
0.0
  0
LINE
  5
1DFC
330
1C82
100
AcDbEntity
  8
0
 62
     0
100
AcDbLine
 10
23.63442432311842
 20
15.64016720287497
 30
0.0
 11
27.89425698853199
 21
19.89999986828854
 31
0.0
  0
LINE
  5
1DFD
330
1C82
100
AcDbEntity
  8
0
 62
     0
100
AcDbLine
 10
31.24090010089844
 20
25.04269420486901
 30
0.0
 11
35.23119745824328
 21
29.03299156221385
 31
0.0
  0
LINE
  5
1DFE
330
1C82
100
AcDbEntity
  8
0
 62
     0
100
AcDbLine
 10
41.4844243231181
 20
35.28621842708867
 30
0.0
 11
52.69820576431823
 21
46.4999998682888
 31
0.0
  0
LINE
  5
1DFF
330
1C82
100
AcDbEntity
  8
0
 62
     0
100
AcDbLine
 10
23.63442432311831
 20
17.43621842708887
 30
0.0
 11
26.09820576431809
 21
19.89999986828865
 31
0.0
  0
LINE
  5
1E00
330
1C82
100
AcDbEntity
  8
0
 62
     0
100
AcDbLine
 10
30.38839044428903
 20
25.98623577247326
 30
0.0
 11
34.34818841893377
 21
29.946033747118
 31
0.0
  0
LINE
  5
1E01
330
1C82
100
AcDbEntity
  8
0
 62
     0
100
AcDbLine
 10
41.48442432311822
 20
37.08226965130234
 30
0.0
 11
50.90215454010411
 21
46.49999986828833
 31
0.0
  0
LINE
  5
1E02
330
1C82
100
AcDbEntity
  8
0
 62
     0
100
AcDbLine
 10
23.77232816715786
 20
19.3701734953421
 30
0.0
 11
24.16425069606509
 21
19.76209602424933
 31
0.0
  0
LINE
  5
1E03
330
1C82
100
AcDbEntity
  8
0
 62
     0
100
AcDbLine
 10
41.52437455143138
 20
38.91827110382939
 30
0.0
 11
49.06615308757739
 21
46.46004963997552
 31
0.0
  0
LINE
  5
1E04
330
1C82
100
AcDbEntity
  8
0
 62
     0
100
AcDbLine
 10
29.49036483218208
 20
26.88426138458021
 30
0.0
 11
33.45016280682682
 21
30.84405935922495
 31
0.0
  0
LINE
  5
1E05
330
1C82
100
AcDbEntity
  8
0
 62
     0
100
AcDbLine
 10
42.12330141596294
 20
41.31324919257497
 30
0.0
 11
46.67117499883192
 21
45.86112277544396
 31
0.0
  0
LINE
  5
1E06
330
1C82
100
AcDbEntity
  8
0
 62
     0
100
AcDbLine
 10
28.59233922007513
 20
27.78228699668716
 30
0.0
 11
32.55213719471987
 21
31.7420849713319
 31
0.0
  0
LINE
  5
1E07
330
1C82
100
AcDbEntity
  8
0
 62
     0
100
AcDbLine
 10
27.69431360796829
 20
28.680312608794
 30
0.0
 11
31.65411158261292
 21
32.64011058343851
 31
0.0
  0
LINE
  5
1E08
330
1C82
100
AcDbEntity
  8
0
 62
     0
100
AcDbLine
 10
26.79628799586135
 20
29.57833822090094
 30
0.0
 11
30.75608597050598
 21
33.53813619554546
 31
0.0
  0
LINE
  5
1E09
330
1C82
100
AcDbEntity
  8
0
 62
     0
100
AcDbLine
 10
25.8982623837544
 20
30.47636383300789
 30
0.0
 11
29.85806035839903
 21
34.43616180765241
 31
0.0
  0
LINE
  5
1E0A
330
1C82
100
AcDbEntity
  8
0
 62
     0
100
AcDbLine
 10
34.52584719482127
 20
40.89999986828854
 30
0.0
 11
36.2344243231181
 21
42.6085769965855
 31
0.0
  0
LINE
  5
1E0B
330
1C82
100
AcDbEntity
  8
0
 62
     0
100
AcDbLine
 10
25.00040339970371
 20
31.3745560731711
 30
0.0
 11
28.96053468656862
 21
35.33468736003601
 31
0.0
  0
LINE
  5
1E0C
330
1C82
100
AcDbEntity
  8
0
 62
     0
100
AcDbLine
 10
32.72979597060748
 20
40.89999986828854
 30
0.0
 11
36.23442432311833
 21
44.40462822079939
 31
0.0
  0
LINE
  5
1E0D
330
1C82
100
AcDbEntity
  8
0
 62
     0
100
AcDbLine
 10
24.17746755060056
 20
32.34767144828151
 30
0.0
 11
28.30074092399275
 21
36.47094482167381
 31
0.0
  0
LINE
  5
1E0E
330
1C82
100
AcDbEntity
  8
0
 62
     0
100
AcDbLine
 10
30.93374474639358
 20
40.89999986828854
 30
0.0
 11
36.06130652359604
 21
46.027561645491
 31
0.0
  0
LINE
  5
1E0F
330
1C82
100
AcDbEntity
  8
0
 62
     0
100
AcDbLine
 10
23.49654633807563
 20
33.46280145997047
 30
0.0
 11
28.18442432311849
 21
38.15067944501334
 31
0.0
  0
LINE
  5
1E10
330
1C82
100
AcDbEntity
  8
0
 62
     0
100
AcDbLine
 10
29.13276022383957
 20
40.89506656994831
 30
0.0
 11
34.73769352217994
 21
46.49999986828868
 31
0.0
  0
LINE
  5
1E11
330
1C82
100
AcDbEntity
  8
0
 62
     0
100
AcDbLine
 10
22.97515974661143
 20
34.73746609272018
 30
0.0
 11
28.18935762145861
 21
39.95166396756747
 31
0.0
  0
LINE
  5
1E12
330
1C82
100
AcDbEntity
  8
0
 62
     0
100
AcDbLine
 10
22.6515358221153
 20
36.20989339243783
 30
0.0
 11
32.94164229796615
 21
46.49999986828868
 31
0.0
  0
LINE
  5
1E13
330
1C82
100
AcDbEntity
  8
0
 62
     0
100
AcDbLine
 10
22.58442432311846
 20
37.93883311765489
 30
0.0
 11
31.14559107375225
 21
46.49999986828868
 31
0.0
  0
LINE
  5
1E14
330
1C82
100
AcDbEntity
  8
0
 62
     0
100
AcDbLine
 10
22.58442432311846
 20
39.73488434186867
 30
0.0
 11
29.34953984953847
 21
46.49999986828868
 31
0.0
  0
LINE
  5
1E15
330
1C82
100
AcDbEntity
  8
0
 62
     0
100
AcDbLine
 10
22.62480834399491
 20
41.57131958695901
 30
0.0
 11
27.51310460444813
 21
46.45961584741224
 31
0.0
  0
ENDBLK
  5
1E17
330
1C82
100
AcDbEntity
  8
0
100
AcDbBlockEnd
  0
BLOCK
  5
2143
330
2137
100
AcDbEntity
  8
0
100
AcDbBlockBegin
  2
*D2
 70
     1
 10
0.0
 20
0.0
 30
0.0
  3
*D2
  1

  0
LINE
  5
256F
330
2137
100
AcDbEntity
  8
SUNPOU
  6
CONTINUOUS
 62
     4
100
AcDbLine
 10
1402.187290332235
 20
565.1996316313911
 30
0.0
 11
1447.532937487872
 21
565.1996316313911
 31
0.0
  0
LINE
  5
2570
330
2137
100
AcDbEntity
  8
SUNPOU
  6
CONTINUOUS
 62
     4
100
AcDbLine
 10
1402.187290332235
 20
529.9996316313911
 30
0.0
 11
1447.532937487872
 21
529.9996316313911
 31
0.0
  0
LINE
  5
2571
330
2137
100
AcDbEntity
  8
SUNPOU
  6
CONTINUOUS
 62
     4
100
AcDbLine
 10
1441.532937487871
 20
579.1996316313912
 30
0.0
 11
1441.532937487871
 21
593.1996316313911
 31
0.0
  0
LINE
  5
2572
330
2137
100
AcDbEntity
  8
SUNPOU
  6
CONTINUOUS
 62
     4
100
AcDbLine
 10
1441.532937487871
 20
515.9996316313911
 30
0.0
 11
1441.532937487871
 21
501.9996316313911
 31
0.0
  0
LINE
  5
2573
330
2137
100
AcDbEntity
  8
SUNPOU
  6
CONTINUOUS
 62
     4
100
AcDbLine
 10
1441.532937487871
 20
565.1996316313911
 30
0.0
 11
1441.532937487871
 21
529.9996316313911
 31
0.0
  0
INSERT
  5
2574
330
2137
100
AcDbEntity
  8
SUNPOU
  6
CONTINUOUS
 62
     4
100
AcDbBlockReference
  2
_OPEN
 10
1441.532937487871
 20
565.1996316313911
 30
0.0
 41
14.0
 42
14.0
 43
14.0
 50
270.0
  0
INSERT
  5
2575
330
2137
100
AcDbEntity
  8
SUNPOU
  6
CONTINUOUS
 62
     4
100
AcDbBlockReference
  2
_OPEN
 10
1441.532937487871
 20
529.9996316313911
 30
0.0
 41
14.0
 42
14.0
 43
14.0
 50
90.0
  0
MTEXT
  5
2576
330
2137
100
AcDbEntity
  8
SUNPOU
  6
CONTINUOUS
 62
     4
100
AcDbMText
 10
1431.532937487872
 20
547.5996316313914
 30
0.0
 40
12.0
 41
0.0
 71
     5
 72
     1
  1
\A1;35
 11
0.0000000000000001
 21
1.0
 31
0.0
1001
ACAD
1000
MTEXTBEGIN
1070
    73
1070
     1
1070
    44
1040
1.0
1070
    74
1070
     0
1000
MTEXTEND
  0
POINT
  5
2577
330
2137
100
AcDbEntity
  8
DEFPOINTS
  6
CONTINUOUS
 62
     0
100
AcDbPoint
 10
1390.187290332235
 20
565.1996316313911
 30
0.0
  0
POINT
  5
2578
330
2137
100
AcDbEntity
  8
DEFPOINTS
  6
CONTINUOUS
 62
     0
100
AcDbPoint
 10
1390.187290332235
 20
529.9996316313911
 30
0.0
  0
POINT
  5
2579
330
2137
100
AcDbEntity
  8
DEFPOINTS
  6
CONTINUOUS
 62
     0
100
AcDbPoint
 10
1441.532937487871
 20
529.9996316313911
 30
0.0
  0
ENDBLK
  5
2144
330
2137
100
AcDbEntity
  8
0
100
AcDbBlockEnd
  0
BLOCK
  5
2151
330
2145
100
AcDbEntity
  8
0
100
AcDbBlockBegin
  2
*D3
 70
     1
 10
0.0
 20
0.0
 30
0.0
  3
*D3
  1

  0
LINE
  5
25AB
330
2145
100
AcDbEntity
  8
SUNPOU
  6
CONTINUOUS
 62
     4
100
AcDbLine
 10
1405.187390332234
 20
766.8734316313912
 30
0.0
 11
1447.678335770716
 21
766.8734316313912
 31
0.0
  0
LINE
  5
25AC
330
2145
100
AcDbEntity
  8
SUNPOU
  6
CONTINUOUS
 62
     4
100
AcDbLine
 10
1384.987290332235
 20
744.5734316313912
 30
0.0
 11
1447.678335770716
 21
744.5734316313912
 31
0.0
  0
LINE
  5
25AD
330
2145
100
AcDbEntity
  8
SUNPOU
  6
CONTINUOUS
 62
     4
100
AcDbLine
 10
1441.678335770716
 20
780.8734316313912
 30
0.0
 11
1441.678335770716
 21
794.8734316313911
 31
0.0
  0
LINE
  5
25AE
330
2145
100
AcDbEntity
  8
SUNPOU
  6
CONTINUOUS
 62
     4
100
AcDbLine
 10
1441.678335770716
 20
730.5734316313913
 30
0.0
 11
1441.678335770716
 21
674.9734316313912
 31
0.0
  0
LINE
  5
25AF
330
2145
100
AcDbEntity
  8
SUNPOU
  6
CONTINUOUS
 62
     4
100
AcDbLine
 10
1441.678335770716
 20
766.8734316313912
 30
0.0
 11
1441.678335770716
 21
744.5734316313912
 31
0.0
  0
INSERT
  5
25B0
330
2145
100
AcDbEntity
  8
SUNPOU
  6
CONTINUOUS
 62
     4
100
AcDbBlockReference
  2
_OPEN
 10
1441.678335770716
 20
766.8734316313912
 30
0.0
 41
14.0
 42
14.0
 43
14.0
 50
270.0
  0
INSERT
  5
25B1
330
2145
100
AcDbEntity
  8
SUNPOU
  6
CONTINUOUS
 62
     4
100
AcDbBlockReference
  2
_OPEN
 10
1441.678335770716
 20
744.5734316313912
 30
0.0
 41
14.0
 42
14.0
 43
14.0
 50
90.0
  0
MTEXT
  5
25B2
330
2145
100
AcDbEntity
  8
SUNPOU
  6
CONTINUOUS
 62
     4
100
AcDbMText
 10
1431.678335770716
 20
695.7734316313915
 30
0.0
 40
12.0
 41
0.0
 71
     5
 72
     1
  1
\A1;※22
 11
0.0000000000000001
 21
1.0
 31
0.0
1001
ACAD
1000
MTEXTBEGIN
1070
    73
1070
     1
1070
    44
1040
1.0
1070
    74
1070
     0
1000
MTEXTEND
  0
POINT
  5
25B3
330
2145
100
AcDbEntity
  8
DEFPOINTS
  6
CONTINUOUS
 62
     0
100
AcDbPoint
 10
1393.187390332234
 20
766.8734316313912
 30
0.0
  0
POINT
  5
25B4
330
2145
100
AcDbEntity
  8
DEFPOINTS
  6
CONTINUOUS
 62
     0
100
AcDbPoint
 10
1372.987290332235
 20
744.5734316313912
 30
0.0
  0
POINT
  5
25B5
330
2145
100
AcDbEntity
  8
DEFPOINTS
  6
CONTINUOUS
 62
     0
100
AcDbPoint
 10
1441.678335770716
 20
744.5734316313912
 30
0.0
  0
ENDBLK
  5
2152
330
2145
100
AcDbEntity
  8
0
100
AcDbBlockEnd
  0
BLOCK
  5
215F
330
2153
100
AcDbEntity
  8
0
100
AcDbBlockBegin
  2
*D4
 70
     1
 10
0.0
 20
0.0
 30
0.0
  3
*D4
  1

  0
LINE
  5
25A0
330
2153
100
AcDbEntity
  8
SUNPOU
  6
CONTINUOUS
 62
     4
100
AcDbLine
 10
1405.187390332234
 20
766.8734316313912
 30
0.0
 11
1487.808067644744
 21
766.8734316313912
 31
0.0
  0
LINE
  5
25A1
330
2153
100
AcDbEntity
  8
SUNPOU
  6
CONTINUOUS
 62
     4
100
AcDbLine
 10
1404.187390332235
 20
736.8734316313911
 30
0.0
 11
1487.808067644744
 21
736.8734316313911
 31
0.0
  0
LINE
  5
25A2
330
2153
100
AcDbEntity
  8
SUNPOU
  6
CONTINUOUS
 62
     4
100
AcDbLine
 10
1481.808067644744
 20
780.8734316313912
 30
0.0
 11
1481.808067644744
 21
794.8734316313911
 31
0.0
  0
LINE
  5
25A3
330
2153
100
AcDbEntity
  8
SUNPOU
  6
CONTINUOUS
 62
     4
100
AcDbLine
 10
1481.808067644744
 20
722.8734316313912
 30
0.0
 11
1481.808067644744
 21
708.8734316313912
 31
0.0
  0
LINE
  5
25A4
330
2153
100
AcDbEntity
  8
SUNPOU
  6
CONTINUOUS
 62
     4
100
AcDbLine
 10
1481.808067644744
 20
766.8734316313912
 30
0.0
 11
1481.808067644744
 21
736.8734316313911
 31
0.0
  0
INSERT
  5
25A5
330
2153
100
AcDbEntity
  8
SUNPOU
  6
CONTINUOUS
 62
     4
100
AcDbBlockReference
  2
_OPEN
 10
1481.808067644744
 20
766.8734316313912
 30
0.0
 41
14.0
 42
14.0
 43
14.0
 50
270.0
  0
INSERT
  5
25A6
330
2153
100
AcDbEntity
  8
SUNPOU
  6
CONTINUOUS
 62
     4
100
AcDbBlockReference
  2
_OPEN
 10
1481.808067644744
 20
736.8734316313911
 30
0.0
 41
14.0
 42
14.0
 43
14.0
 50
90.0
  0
MTEXT
  5
25A7
330
2153
100
AcDbEntity
  8
SUNPOU
  6
CONTINUOUS
 62
     4
100
AcDbMText
 10
1471.808067644744
 20
751.8734316313914
 30
0.0
 40
12.0
 41
0.0
 71
     5
 72
     1
  1
\A1;30
 11
0.0000000000000001
 21
1.0
 31
0.0
1001
ACAD
1000
MTEXTBEGIN
1070
    73
1070
     1
1070
    44
1040
1.0
1070
    74
1070
     0
1000
MTEXTEND
  0
POINT
  5
25A8
330
2153
100
AcDbEntity
  8
DEFPOINTS
  6
CONTINUOUS
 62
     0
100
AcDbPoint
 10
1393.187390332234
 20
766.8734316313912
 30
0.0
  0
POINT
  5
25A9
330
2153
100
AcDbEntity
  8
DEFPOINTS
  6
CONTINUOUS
 62
     0
100
AcDbPoint
 10
1392.187390332234
 20
736.8734316313911
 30
0.0
  0
POINT
  5
25AA
330
2153
100
AcDbEntity
  8
DEFPOINTS
  6
CONTINUOUS
 62
     0
100
AcDbPoint
 10
1481.808067644744
 20
736.8734316313911
 30
0.0
  0
ENDBLK
  5
2160
330
2153
100
AcDbEntity
  8
0
100
AcDbBlockEnd
  0
BLOCK
  5
216D
330
2161
100
AcDbEntity
  8
0
100
AcDbBlockBegin
  2
*D5
 70
     1
 10
0.0
 20
0.0
 30
0.0
  3
*D5
  1

  0
LINE
  5
253A
330
2161
100
AcDbEntity
  8
SUNPOU
  6
CONTINUOUS
 62
     4
100
AcDbLine
 10
527.6015439910238
 20
590.1996316313911
 30
0.0
 11
570.3082618688276
 21
590.1996316313911
 31
0.0
  0
LINE
  5
253B
330
2161
100
AcDbEntity
  8
SUNPOU
  6
CONTINUOUS
 62
     4
100
AcDbLine
 10
517.5405439910242
 20
556.9996316313911
 30
0.0
 11
570.3082618688276
 21
556.9996316313911
 31
0.0
  0
LINE
  5
253C
330
2161
100
AcDbEntity
  8
SUNPOU
  6
CONTINUOUS
 62
     4
100
AcDbLine
 10
564.3082618688277
 20
604.1996316313912
 30
0.0
 11
564.3082618688277
 21
618.1996316313911
 31
0.0
  0
LINE
  5
253D
330
2161
100
AcDbEntity
  8
SUNPOU
  6
CONTINUOUS
 62
     4
100
AcDbLine
 10
564.3082618688277
 20
542.9996316313911
 30
0.0
 11
564.3082618688277
 21
528.9996316313911
 31
0.0
  0
LINE
  5
253E
330
2161
100
AcDbEntity
  8
SUNPOU
  6
CONTINUOUS
 62
     4
100
AcDbLine
 10
564.3082618688277
 20
590.1996316313911
 30
0.0
 11
564.3082618688277
 21
556.9996316313911
 31
0.0
  0
INSERT
  5
253F
330
2161
100
AcDbEntity
  8
SUNPOU
  6
CONTINUOUS
 62
     4
100
AcDbBlockReference
  2
_OPEN
 10
564.3082618688277
 20
590.1996316313911
 30
0.0
 41
14.0
 42
14.0
 43
14.0
 50
270.0
  0
INSERT
  5
2540
330
2161
100
AcDbEntity
  8
SUNPOU
  6
CONTINUOUS
 62
     4
100
AcDbBlockReference
  2
_OPEN
 10
564.3082618688277
 20
556.9996316313911
 30
0.0
 41
14.0
 42
14.0
 43
14.0
 50
90.0
  0
MTEXT
  5
2541
330
2161
100
AcDbEntity
  8
SUNPOU
  6
CONTINUOUS
 62
     4
100
AcDbMText
 10
554.3082618688275
 20
573.5996316313912
 30
0.0
 40
12.0
 41
0.0
 71
     5
 72
     1
  1
\A1;33
 11
0.0000000000000001
 21
1.0
 31
0.0
1001
ACAD
1000
MTEXTBEGIN
1070
    73
1070
     1
1070
    44
1040
1.0
1070
    74
1070
     0
1000
MTEXTEND
  0
POINT
  5
2542
330
2161
100
AcDbEntity
  8
DEFPOINTS
  6
CONTINUOUS
 62
     0
100
AcDbPoint
 10
515.6015439910238
 20
590.1996316313911
 30
0.0
  0
POINT
  5
2543
330
2161
100
AcDbEntity
  8
DEFPOINTS
  6
CONTINUOUS
 62
     0
100
AcDbPoint
 10
505.5405439910241
 20
556.9996316313911
 30
0.0
  0
POINT
  5
2544
330
2161
100
AcDbEntity
  8
DEFPOINTS
  6
CONTINUOUS
 62
     0
100
AcDbPoint
 10
564.3082618688277
 20
556.9996316313911
 30
0.0
  0
ENDBLK
  5
216E
330
2161
100
AcDbEntity
  8
0
100
AcDbBlockEnd
  0
BLOCK
  5
217B
330
216F
100
AcDbEntity
  8
0
100
AcDbBlockBegin
  2
*D6
 70
     1
 10
0.0
 20
0.0
 30
0.0
  3
*D6
  1

  0
LINE
  5
2509
330
216F
100
AcDbEntity
  8
SUNPOU
  6
CONTINUOUS
 62
     4
100
AcDbLine
 10
717.4815439910243
 20
602.1996316313911
 30
0.0
 11
717.4815439910243
 21
639.0478795705867
 31
0.0
  0
LINE
  5
250A
330
216F
100
AcDbEntity
  8
SUNPOU
  6
CONTINUOUS
 62
     4
100
AcDbLine
 10
687.4815439910244
 20
601.1996316313911
 30
0.0
 11
687.4815439910244
 21
639.0478795705867
 31
0.0
  0
LINE
  5
250B
330
216F
100
AcDbEntity
  8
SUNPOU
  6
CONTINUOUS
 62
     4
100
AcDbLine
 10
731.4815439910244
 20
633.0478795705866
 30
0.0
 11
745.4815439910244
 21
633.0478795705866
 31
0.0
  0
LINE
  5
250C
330
216F
100
AcDbEntity
  8
SUNPOU
  6
CONTINUOUS
 62
     4
100
AcDbLine
 10
673.4815439910244
 20
633.0478795705866
 30
0.0
 11
659.4815439910243
 21
633.0478795705866
 31
0.0
  0
LINE
  5
250D
330
216F
100
AcDbEntity
  8
SUNPOU
  6
CONTINUOUS
 62
     4
100
AcDbLine
 10
717.4815439910243
 20
633.0478795705866
 30
0.0
 11
687.4815439910244
 21
633.0478795705866
 31
0.0
  0
INSERT
  5
250E
330
216F
100
AcDbEntity
  8
SUNPOU
  6
CONTINUOUS
 62
     4
100
AcDbBlockReference
  2
_OPEN
 10
717.4815439910243
 20
633.0478795705866
 30
0.0
 41
14.0
 42
14.0
 43
14.0
 50
180.0
  0
INSERT
  5
250F
330
216F
100
AcDbEntity
  8
SUNPOU
  6
CONTINUOUS
 62
     4
100
AcDbBlockReference
  2
_OPEN
 10
687.4815439910244
 20
633.0478795705866
 30
0.0
 41
14.0
 42
14.0
 43
14.0
  0
MTEXT
  5
2510
330
216F
100
AcDbEntity
  8
SUNPOU
  6
CONTINUOUS
 62
     4
100
AcDbMText
 10
702.4815439910244
 20
643.0478795705867
 30
0.0
 40
12.0
 41
0.0
 71
     5
 72
     1
  1
\A1;30
1001
ACAD
1000
MTEXTBEGIN
1070
    73
1070
     1
1070
    44
1040
1.0
1070
    74
1070
     0
1000
MTEXTEND
  0
POINT
  5
2511
330
216F
100
AcDbEntity
  8
DEFPOINTS
  6
CONTINUOUS
 62
     0
100
AcDbPoint
 10
717.4815439910243
 20
590.1996316313911
 30
0.0
  0
POINT
  5
2512
330
216F
100
AcDbEntity
  8
DEFPOINTS
  6
CONTINUOUS
 62
     0
100
AcDbPoint
 10
687.4815439910244
 20
589.1996316313911
 30
0.0
  0
POINT
  5
2513
330
216F
100
AcDbEntity
  8
DEFPOINTS
  6
CONTINUOUS
 62
     0
100
AcDbPoint
 10
687.4815439910244
 20
633.0478795705866
 30
0.0
  0
ENDBLK
  5
217C
330
216F
100
AcDbEntity
  8
0
100
AcDbBlockEnd
  0
BLOCK
  5
2187
330
217D
100
AcDbEntity
  8
0
100
AcDbBlockBegin
  2
*D7
 70
     1
 10
0.0
 20
0.0
 30
0.0
  3
*D7
  1

  0
LINE
  5
2500
330
217D
100
AcDbEntity
  8
SUNPOU
  6
CONTINUOUS
 62
     4
100
AcDbLine
 10
518.6015439910242
 20
599.1996316313912
 30
0.0
 11
518.6015439910242
 21
639.272310061975
 31
0.0
  0
LINE
  5
2501
330
217D
100
AcDbEntity
  8
SUNPOU
  6
CONTINUOUS
 62
     4
100
AcDbLine
 10
254.7054439910241
 20
574.1996316313912
 30
0.0
 11
254.7054439910241
 21
639.272310061975
 31
0.0
  0
LINE
  5
2502
330
217D
100
AcDbEntity
  8
SUNPOU
  6
CONTINUOUS
 62
     4
100
AcDbLine
 10
504.6015439910243
 20
633.2723100619751
 30
0.0
 11
268.7054439910241
 21
633.2723100619751
 31
0.0
  0
INSERT
  5
2503
330
217D
100
AcDbEntity
  8
SUNPOU
  6
CONTINUOUS
 62
     4
100
AcDbBlockReference
  2
_OPEN
 10
518.6015439910242
 20
633.2723100619751
 30
0.0
 41
14.0
 42
14.0
 43
14.0
  0
INSERT
  5
2504
330
217D
100
AcDbEntity
  8
SUNPOU
  6
CONTINUOUS
 62
     4
100
AcDbBlockReference
  2
_OPEN
 10
254.7054439910241
 20
633.2723100619751
 30
0.0
 41
14.0
 42
14.0
 43
14.0
 50
180.0
  0
MTEXT
  5
2505
330
217D
100
AcDbEntity
  8
SUNPOU
  6
CONTINUOUS
 62
     4
100
AcDbMText
 10
386.6534939910242
 20
643.272310061975
 30
0.0
 40
12.0
 41
0.0
 71
     5
 72
     1
  1
\A1;264
1001
ACAD
1000
MTEXTBEGIN
1070
    73
1070
     1
1070
    44
1040
1.0
1070
    74
1070
     0
1000
MTEXTEND
  0
POINT
  5
2506
330
217D
100
AcDbEntity
  8
DEFPOINTS
  6
CONTINUOUS
 62
     0
100
AcDbPoint
 10
518.6015439910242
 20
587.1996316313912
 30
0.0
  0
POINT
  5
2507
330
217D
100
AcDbEntity
  8
DEFPOINTS
  6
CONTINUOUS
 62
     0
100
AcDbPoint
 10
254.7054439910241
 20
562.1996316313912
 30
0.0
  0
POINT
  5
2508
330
217D
100
AcDbEntity
  8
DEFPOINTS
  6
CONTINUOUS
 62
     0
100
AcDbPoint
 10
254.7054439910241
 20
633.2723100619751
 30
0.0
  0
ENDBLK
  5
2188
330
217D
100
AcDbEntity
  8
0
100
AcDbBlockEnd
  0
BLOCK
  5
2193
330
2189
100
AcDbEntity
  8
0
100
AcDbBlockBegin
  2
*D8
 70
     1
 10
0.0
 20
0.0
 30
0.0
  3
*D8
  1

  0
LINE
  5
2514
330
2189
100
AcDbEntity
  8
SUNPOU
  6
CONTINUOUS
 62
     4
100
AcDbLine
 10
487.6501819229065
 20
406.4995316313912
 30
0.0
 11
487.6501819229065
 21
364.5368145111505
 31
0.0
  0
LINE
  5
2515
330
2189
100
AcDbEntity
  8
SUNPOU
  6
CONTINUOUS
 62
     4
100
AcDbLine
 10
282.3418076926561
 20
406.4995316313912
 30
0.0
 11
282.3418076926561
 21
364.5368145111505
 31
0.0
  0
LINE
  5
2516
330
2189
100
AcDbEntity
  8
SUNPOU
  6
CONTINUOUS
 62
     4
100
AcDbLine
 10
473.6501819229065
 20
370.5368145111505
 30
0.0
 11
296.3418076926561
 21
370.5368145111505
 31
0.0
  0
INSERT
  5
2517
330
2189
100
AcDbEntity
  8
SUNPOU
  6
CONTINUOUS
 62
     4
100
AcDbBlockReference
  2
_OPEN
 10
487.6501819229065
 20
370.5368145111505
 30
0.0
 41
14.0
 42
14.0
 43
14.0
  0
INSERT
  5
2518
330
2189
100
AcDbEntity
  8
SUNPOU
  6
CONTINUOUS
 62
     4
100
AcDbBlockReference
  2
_OPEN
 10
282.3418076926561
 20
370.5368145111505
 30
0.0
 41
14.0
 42
14.0
 43
14.0
 50
180.0
  0
MTEXT
  5
2519
330
2189
100
AcDbEntity
  8
SUNPOU
  6
CONTINUOUS
 62
     4
100
AcDbMText
 10
384.9959948077813
 20
380.5368145111505
 30
0.0
 40
12.0
 41
0.0
 71
     5
 72
     1
  1
\A1;205
1001
ACAD
1000
MTEXTBEGIN
1070
    73
1070
     1
1070
    44
1040
1.0
1070
    74
1070
     0
1000
MTEXTEND
  0
POINT
  5
251A
330
2189
100
AcDbEntity
  8
DEFPOINTS
  6
CONTINUOUS
 62
     0
100
AcDbPoint
 10
487.6501819229065
 20
418.4995316313912
 30
0.0
  0
POINT
  5
251B
330
2189
100
AcDbEntity
  8
DEFPOINTS
  6
CONTINUOUS
 62
     0
100
AcDbPoint
 10
282.3418076926561
 20
418.4995316313912
 30
0.0
  0
POINT
  5
251C
330
2189
100
AcDbEntity
  8
DEFPOINTS
  6
CONTINUOUS
 62
     0
100
AcDbPoint
 10
282.3418076926561
 20
370.5368145111505
 30
0.0
  0
ENDBLK
  5
2194
330
2189
100
AcDbEntity
  8
0
100
AcDbBlockEnd
  0
BLOCK
  5
219F
330
2195
100
AcDbEntity
  8
0
100
AcDbBlockBegin
  2
*D9
 70
     1
 10
0.0
 20
0.0
 30
0.0
  3
*D9
  1

  0
LINE
  5
251D
330
2195
100
AcDbEntity
  8
SUNPOU
  6
CONTINUOUS
 62
     4
100
AcDbLine
 10
245.7054439910241
 20
565.1996316313913
 30
0.0
 11
183.6110517820832
 21
565.1996316313913
 31
0.0
  0
LINE
  5
251E
330
2195
100
AcDbEntity
  8
SUNPOU
  6
CONTINUOUS
 62
     4
100
AcDbLine
 10
272.9959439910242
 20
418.4995316313912
 30
0.0
 11
183.6110517820832
 21
418.4995316313912
 31
0.0
  0
LINE
  5
251F
330
2195
100
AcDbEntity
  8
SUNPOU
  6
CONTINUOUS
 62
     4
100
AcDbLine
 10
189.6110517820832
 20
551.1996316313912
 30
0.0
 11
189.6110517820832
 21
432.4995316313912
 31
0.0
  0
INSERT
  5
2520
330
2195
100
AcDbEntity
  8
SUNPOU
  6
CONTINUOUS
 62
     4
100
AcDbBlockReference
  2
_OPEN
 10
189.6110517820832
 20
565.1996316313913
 30
0.0
 41
14.0
 42
14.0
 43
14.0
 50
90.0
  0
INSERT
  5
2521
330
2195
100
AcDbEntity
  8
SUNPOU
  6
CONTINUOUS
 62
     4
100
AcDbBlockReference
  2
_OPEN
 10
189.6110517820832
 20
418.4995316313912
 30
0.0
 41
14.0
 42
14.0
 43
14.0
 50
270.0
  0
MTEXT
  5
2522
330
2195
100
AcDbEntity
  8
SUNPOU
  6
CONTINUOUS
 62
     4
100
AcDbMText
 10
179.6110517820831
 20
491.8495816313913
 30
0.0
 40
12.0
 41
0.0
 71
     5
 72
     1
  1
\A1;147
 11
0.0000000000000001
 21
1.0
 31
0.0
1001
ACAD
1000
MTEXTBEGIN
1070
    73
1070
     1
1070
    44
1040
1.0
1070
    74
1070
     0
1000
MTEXTEND
  0
POINT
  5
2523
330
2195
100
AcDbEntity
  8
DEFPOINTS
  6
CONTINUOUS
 62
     0
100
AcDbPoint
 10
257.7054439910241
 20
565.1996316313911
 30
0.0
  0
POINT
  5
2524
330
2195
100
AcDbEntity
  8
DEFPOINTS
  6
CONTINUOUS
 62
     0
100
AcDbPoint
 10
284.9959439910242
 20
418.4995316313912
 30
0.0
  0
POINT
  5
2525
330
2195
100
AcDbEntity
  8
DEFPOINTS
  6
CONTINUOUS
 62
     0
100
AcDbPoint
 10
189.6110517820832
 20
418.4995316313912
 30
0.0
  0
ENDBLK
  5
21A0
330
2195
100
AcDbEntity
  8
0
100
AcDbBlockEnd
  0
BLOCK
  5
21AD
330
21A1
100
AcDbEntity
  8
0
100
AcDbBlockBegin
  2
*D10
 70
     1
 10
0.0
 20
0.0
 30
0.0
  3
*D10
  1

  0
LINE
  5
2526
330
21A1
100
AcDbEntity
  8
SUNPOU
  6
CONTINUOUS
 62
     4
100
AcDbLine
 10
245.7054439910241
 20
565.1996316313913
 30
0.0
 11
221.9539096841006
 21
565.1996316313913
 31
0.0
  0
LINE
  5
2527
330
21A1
100
AcDbEntity
  8
SUNPOU
  6
CONTINUOUS
 62
     4
100
AcDbLine
 10
245.7054439910241
 20
529.9996316313912
 30
0.0
 11
221.9539096841006
 21
529.9996316313912
 31
0.0
  0
LINE
  5
2528
330
21A1
100
AcDbEntity
  8
SUNPOU
  6
CONTINUOUS
 62
     4
100
AcDbLine
 10
227.9539096841006
 20
579.1996316313912
 30
0.0
 11
227.9539096841006
 21
593.1996316313912
 31
0.0
  0
LINE
  5
2529
330
21A1
100
AcDbEntity
  8
SUNPOU
  6
CONTINUOUS
 62
     4
100
AcDbLine
 10
227.9539096841006
 20
515.9996316313912
 30
0.0
 11
227.9539096841006
 21
501.9996316313911
 31
0.0
  0
LINE
  5
252A
330
21A1
100
AcDbEntity
  8
SUNPOU
  6
CONTINUOUS
 62
     4
100
AcDbLine
 10
227.9539096841006
 20
565.1996316313913
 30
0.0
 11
227.9539096841006
 21
529.9996316313912
 31
0.0
  0
INSERT
  5
252B
330
21A1
100
AcDbEntity
  8
SUNPOU
  6
CONTINUOUS
 62
     4
100
AcDbBlockReference
  2
_OPEN
 10
227.9539096841006
 20
565.1996316313913
 30
0.0
 41
14.0
 42
14.0
 43
14.0
 50
270.0
  0
INSERT
  5
252C
330
21A1
100
AcDbEntity
  8
SUNPOU
  6
CONTINUOUS
 62
     4
100
AcDbBlockReference
  2
_OPEN
 10
227.9539096841006
 20
529.9996316313912
 30
0.0
 41
14.0
 42
14.0
 43
14.0
 50
90.0
  0
MTEXT
  5
252D
330
21A1
100
AcDbEntity
  8
SUNPOU
  6
CONTINUOUS
 62
     4
100
AcDbMText
 10
217.9539096841005
 20
547.5996316313913
 30
0.0
 40
12.0
 41
0.0
 71
     5
 72
     1
  1
\A1;35
 11
0.0000000000000001
 21
1.0
 31
0.0
1001
ACAD
1000
MTEXTBEGIN
1070
    73
1070
     1
1070
    44
1040
1.0
1070
    74
1070
     0
1000
MTEXTEND
  0
POINT
  5
252E
330
21A1
100
AcDbEntity
  8
DEFPOINTS
  6
CONTINUOUS
 62
     0
100
AcDbPoint
 10
257.7054439910241
 20
565.1996316313911
 30
0.0
  0
POINT
  5
252F
330
21A1
100
AcDbEntity
  8
DEFPOINTS
  6
CONTINUOUS
 62
     0
100
AcDbPoint
 10
257.7054439910241
 20
529.9996316313911
 30
0.0
  0
POINT
  5
2530
330
21A1
100
AcDbEntity
  8
DEFPOINTS
  6
CONTINUOUS
 62
     0
100
AcDbPoint
 10
227.9539096841006
 20
529.9996316313912
 30
0.0
  0
ENDBLK
  5
21AE
330
21A1
100
AcDbEntity
  8
0
100
AcDbBlockEnd
  0
BLOCK
  5
21B9
330
21AF
100
AcDbEntity
  8
0
100
AcDbBlockBegin
  2
*D11
 70
     1
 10
0.0
 20
0.0
 30
0.0
  3
*D11
  1

  0
LINE
  5
2531
330
21AF
100
AcDbEntity
  8
SUNPOU
  6
CONTINUOUS
 62
     4
100
AcDbLine
 10
527.6015439910238
 20
590.1996316313911
 30
0.0
 11
611.0068659567868
 21
590.1996316313911
 31
0.0
  0
LINE
  5
2532
330
21AF
100
AcDbEntity
  8
SUNPOU
  6
CONTINUOUS
 62
     4
100
AcDbLine
 10
496.9960439910241
 20
418.4995316313912
 30
0.0
 11
611.0068659567868
 21
418.4995316313912
 31
0.0
  0
LINE
  5
2533
330
21AF
100
AcDbEntity
  8
SUNPOU
  6
CONTINUOUS
 62
     4
100
AcDbLine
 10
605.0068659567869
 20
576.1996316313911
 30
0.0
 11
605.0068659567869
 21
432.4995316313912
 31
0.0
  0
INSERT
  5
2534
330
21AF
100
AcDbEntity
  8
SUNPOU
  6
CONTINUOUS
 62
     4
100
AcDbBlockReference
  2
_OPEN
 10
605.0068659567869
 20
590.1996316313911
 30
0.0
 41
14.0
 42
14.0
 43
14.0
 50
90.0
  0
INSERT
  5
2535
330
21AF
100
AcDbEntity
  8
SUNPOU
  6
CONTINUOUS
 62
     4
100
AcDbBlockReference
  2
_OPEN
 10
605.0068659567869
 20
418.4995316313912
 30
0.0
 41
14.0
 42
14.0
 43
14.0
 50
270.0
  0
MTEXT
  5
2536
330
21AF
100
AcDbEntity
  8
SUNPOU
  6
CONTINUOUS
 62
     4
100
AcDbMText
 10
595.0068659567867
 20
504.3495816313912
 30
0.0
 40
12.0
 41
0.0
 71
     5
 72
     1
  1
\A1;172
 11
0.0000000000000001
 21
1.0
 31
0.0
1001
ACAD
1000
MTEXTBEGIN
1070
    73
1070
     1
1070
    44
1040
1.0
1070
    74
1070
     0
1000
MTEXTEND
  0
POINT
  5
2537
330
21AF
100
AcDbEntity
  8
DEFPOINTS
  6
CONTINUOUS
 62
     0
100
AcDbPoint
 10
515.6015439910238
 20
590.1996316313911
 30
0.0
  0
POINT
  5
2538
330
21AF
100
AcDbEntity
  8
DEFPOINTS
  6
CONTINUOUS
 62
     0
100
AcDbPoint
 10
484.9960439910241
 20
418.4995316313912
 30
0.0
  0
POINT
  5
2539
330
21AF
100
AcDbEntity
  8
DEFPOINTS
  6
CONTINUOUS
 62
     0
100
AcDbPoint
 10
605.0068659567869
 20
418.4995316313912
 30
0.0
  0
ENDBLK
  5
21BA
330
21AF
100
AcDbEntity
  8
0
100
AcDbBlockEnd
  0
BLOCK
  5
21C7
330
21BB
100
AcDbEntity
  8
0
100
AcDbBlockBegin
  2
*D12
 70
     1
 10
0.0
 20
0.0
 30
0.0
  3
*D12
  1

  0
LINE
  5
2550
330
21BB
100
AcDbEntity
  8
SUNPOU
  6
CONTINUOUS
 62
     4
100
AcDbLine
 10
242.7053439910241
 20
766.8734316313912
 30
0.0
 11
221.7563788482245
 21
766.8734316313912
 31
0.0
  0
LINE
  5
2551
330
21BB
100
AcDbEntity
  8
SUNPOU
  6
CONTINUOUS
 62
     4
100
AcDbLine
 10
262.9054439910239
 20
744.5734316313912
 30
0.0
 11
221.7563788482245
 21
744.5734316313913
 31
0.0
  0
LINE
  5
2552
330
21BB
100
AcDbEntity
  8
SUNPOU
  6
CONTINUOUS
 62
     4
100
AcDbLine
 10
227.7563788482245
 20
780.8734316313912
 30
0.0
 11
227.7563788482245
 21
794.8734316313911
 31
0.0
  0
LINE
  5
2553
330
21BB
100
AcDbEntity
  8
SUNPOU
  6
CONTINUOUS
 62
     4
100
AcDbLine
 10
227.7563788482245
 20
730.5734316313913
 30
0.0
 11
227.7563788482245
 21
674.9734316313913
 31
0.0
  0
LINE
  5
2554
330
21BB
100
AcDbEntity
  8
SUNPOU
  6
CONTINUOUS
 62
     4
100
AcDbLine
 10
227.7563788482245
 20
766.8734316313912
 30
0.0
 11
227.7563788482245
 21
744.5734316313913
 31
0.0
  0
INSERT
  5
2555
330
21BB
100
AcDbEntity
  8
SUNPOU
  6
CONTINUOUS
 62
     4
100
AcDbBlockReference
  2
_OPEN
 10
227.7563788482245
 20
766.8734316313912
 30
0.0
 41
14.0
 42
14.0
 43
14.0
 50
270.0
  0
INSERT
  5
2556
330
21BB
100
AcDbEntity
  8
SUNPOU
  6
CONTINUOUS
 62
     4
100
AcDbBlockReference
  2
_OPEN
 10
227.7563788482245
 20
744.5734316313913
 30
0.0
 41
14.0
 42
14.0
 43
14.0
 50
90.0
  0
MTEXT
  5
2557
330
21BB
100
AcDbEntity
  8
SUNPOU
  6
CONTINUOUS
 62
     4
100
AcDbMText
 10
217.7563788482244
 20
695.7734316313914
 30
0.0
 40
12.0
 41
0.0
 71
     5
 72
     1
  1
\A1;※22
 11
0.0000000000000001
 21
1.0
 31
0.0
1001
ACAD
1000
MTEXTBEGIN
1070
    73
1070
     1
1070
    44
1040
1.0
1070
    74
1070
     0
1000
MTEXTEND
  0
POINT
  5
2558
330
21BB
100
AcDbEntity
  8
DEFPOINTS
  6
CONTINUOUS
 62
     0
100
AcDbPoint
 10
254.7053439910241
 20
766.8734316313912
 30
0.0
  0
POINT
  5
2559
330
21BB
100
AcDbEntity
  8
DEFPOINTS
  6
CONTINUOUS
 62
     0
100
AcDbPoint
 10
274.9054439910239
 20
744.5734316313912
 30
0.0
  0
POINT
  5
255A
330
21BB
100
AcDbEntity
  8
DEFPOINTS
  6
CONTINUOUS
 62
     0
100
AcDbPoint
 10
227.7563788482245
 20
744.5734316313913
 30
0.0
  0
ENDBLK
  5
21C8
330
21BB
100
AcDbEntity
  8
0
100
AcDbBlockEnd
  0
BLOCK
  5
21D5
330
21C9
100
AcDbEntity
  8
0
100
AcDbBlockBegin
  2
*D13
 70
     1
 10
0.0
 20
0.0
 30
0.0
  3
*D13
  1

  0
LINE
  5
2545
330
21C9
100
AcDbEntity
  8
SUNPOU
  6
CONTINUOUS
 62
     4
100
AcDbLine
 10
242.7053439910241
 20
766.8734316313912
 30
0.0
 11
183.651032812925
 21
766.8734316313912
 31
0.0
  0
LINE
  5
2546
330
21C9
100
AcDbEntity
  8
SUNPOU
  6
CONTINUOUS
 62
     4
100
AcDbLine
 10
243.7053439910241
 20
736.8734316313911
 30
0.0
 11
183.651032812925
 21
736.8734316313911
 31
0.0
  0
LINE
  5
2547
330
21C9
100
AcDbEntity
  8
SUNPOU
  6
CONTINUOUS
 62
     4
100
AcDbLine
 10
189.6510328129249
 20
780.8734316313912
 30
0.0
 11
189.6510328129249
 21
794.8734316313911
 31
0.0
  0
LINE
  5
2548
330
21C9
100
AcDbEntity
  8
SUNPOU
  6
CONTINUOUS
 62
     4
100
AcDbLine
 10
189.6510328129249
 20
722.8734316313912
 30
0.0
 11
189.6510328129249
 21
708.8734316313912
 31
0.0
  0
LINE
  5
2549
330
21C9
100
AcDbEntity
  8
SUNPOU
  6
CONTINUOUS
 62
     4
100
AcDbLine
 10
189.6510328129249
 20
766.8734316313912
 30
0.0
 11
189.6510328129249
 21
736.8734316313911
 31
0.0
  0
INSERT
  5
254A
330
21C9
100
AcDbEntity
  8
SUNPOU
  6
CONTINUOUS
 62
     4
100
AcDbBlockReference
  2
_OPEN
 10
189.6510328129249
 20
766.8734316313912
 30
0.0
 41
14.0
 42
14.0
 43
14.0
 50
270.0
  0
INSERT
  5
254B
330
21C9
100
AcDbEntity
  8
SUNPOU
  6
CONTINUOUS
 62
     4
100
AcDbBlockReference
  2
_OPEN
 10
189.6510328129249
 20
736.8734316313911
 30
0.0
 41
14.0
 42
14.0
 43
14.0
 50
90.0
  0
MTEXT
  5
254C
330
21C9
100
AcDbEntity
  8
SUNPOU
  6
CONTINUOUS
 62
     4
100
AcDbMText
 10
179.6510328129248
 20
751.8734316313912
 30
0.0
 40
12.0
 41
0.0
 71
     5
 72
     1
  1
\A1;30
 11
0.0000000000000001
 21
1.0
 31
0.0
1001
ACAD
1000
MTEXTBEGIN
1070
    73
1070
     1
1070
    44
1040
1.0
1070
    74
1070
     0
1000
MTEXTEND
  0
POINT
  5
254D
330
21C9
100
AcDbEntity
  8
DEFPOINTS
  6
CONTINUOUS
 62
     0
100
AcDbPoint
 10
254.7053439910241
 20
766.8734316313912
 30
0.0
  0
POINT
  5
254E
330
21C9
100
AcDbEntity
  8
DEFPOINTS
  6
CONTINUOUS
 62
     0
100
AcDbPoint
 10
255.7053439910241
 20
736.8734316313911
 30
0.0
  0
POINT
  5
254F
330
21C9
100
AcDbEntity
  8
DEFPOINTS
  6
CONTINUOUS
 62
     0
100
AcDbPoint
 10
189.6510328129249
 20
736.8734316313911
 30
0.0
  0
ENDBLK
  5
21D6
330
21C9
100
AcDbEntity
  8
0
100
AcDbBlockEnd
  0
BLOCK
  5
21E3
330
21D7
100
AcDbEntity
  8
0
100
AcDbBlockBegin
  2
*D14
 70
     1
 10
0.0
 20
0.0
 30
0.0
  3
*D14
  1

  0
LINE
  5
258C
330
21D7
100
AcDbEntity
  8
SUNPOU
  6
CONTINUOUS
 62
     4
100
AcDbLine
 10
1120.291190332235
 20
590.1996316313911
 30
0.0
 11
1094.825927409492
 21
590.1996316313911
 31
0.0
  0
LINE
  5
258D
330
21D7
100
AcDbEntity
  8
SUNPOU
  6
CONTINUOUS
 62
     4
100
AcDbLine
 10
1120.291190332235
 20
556.9996316313911
 30
0.0
 11
1094.825927409492
 21
556.9996316313911
 31
0.0
  0
LINE
  5
258E
330
21D7
100
AcDbEntity
  8
SUNPOU
  6
CONTINUOUS
 62
     4
100
AcDbLine
 10
1100.825927409492
 20
604.1996316313912
 30
0.0
 11
1100.825927409492
 21
618.1996316313911
 31
0.0
  0
LINE
  5
258F
330
21D7
100
AcDbEntity
  8
SUNPOU
  6
CONTINUOUS
 62
     4
100
AcDbLine
 10
1100.825927409492
 20
542.9996316313911
 30
0.0
 11
1100.825927409492
 21
528.9996316313911
 31
0.0
  0
LINE
  5
2590
330
21D7
100
AcDbEntity
  8
SUNPOU
  6
CONTINUOUS
 62
     4
100
AcDbLine
 10
1100.825927409492
 20
590.1996316313911
 30
0.0
 11
1100.825927409492
 21
556.9996316313911
 31
0.0
  0
INSERT
  5
2591
330
21D7
100
AcDbEntity
  8
SUNPOU
  6
CONTINUOUS
 62
     4
100
AcDbBlockReference
  2
_OPEN
 10
1100.825927409492
 20
590.1996316313911
 30
0.0
 41
14.0
 42
14.0
 43
14.0
 50
270.0
  0
INSERT
  5
2592
330
21D7
100
AcDbEntity
  8
SUNPOU
  6
CONTINUOUS
 62
     4
100
AcDbBlockReference
  2
_OPEN
 10
1100.825927409492
 20
556.9996316313911
 30
0.0
 41
14.0
 42
14.0
 43
14.0
 50
90.0
  0
MTEXT
  5
2593
330
21D7
100
AcDbEntity
  8
SUNPOU
  6
CONTINUOUS
 62
     4
100
AcDbMText
 10
1090.825927409492
 20
573.5996316313912
 30
0.0
 40
12.0
 41
0.0
 71
     5
 72
     1
  1
\A1;33
 11
0.0000000000000001
 21
1.0
 31
0.0
1001
ACAD
1000
MTEXTBEGIN
1070
    73
1070
     1
1070
    44
1040
1.0
1070
    74
1070
     0
1000
MTEXTEND
  0
POINT
  5
2594
330
21D7
100
AcDbEntity
  8
DEFPOINTS
  6
CONTINUOUS
 62
     0
100
AcDbPoint
 10
1132.291190332235
 20
590.1996316313911
 30
0.0
  0
POINT
  5
2595
330
21D7
100
AcDbEntity
  8
DEFPOINTS
  6
CONTINUOUS
 62
     0
100
AcDbPoint
 10
1132.291190332235
 20
556.9996316313911
 30
0.0
  0
POINT
  5
2596
330
21D7
100
AcDbEntity
  8
DEFPOINTS
  6
CONTINUOUS
 62
     0
100
AcDbPoint
 10
1100.825927409492
 20
556.9996316313911
 30
0.0
  0
ENDBLK
  5
21E4
330
21D7
100
AcDbEntity
  8
0
100
AcDbBlockEnd
  0
BLOCK
  5
21F1
330
21E5
100
AcDbEntity
  8
0
100
AcDbBlockBegin
  2
*D15
 70
     1
 10
0.0
 20
0.0
 30
0.0
  3
*D15
  1

  0
LINE
  5
2564
330
21E5
100
AcDbEntity
  8
SUNPOU
  6
CONTINUOUS
 62
     4
100
AcDbLine
 10
960.4111903322355
 20
601.1996316313911
 30
0.0
 11
960.4111903322355
 21
639.0478795705867
 31
0.0
  0
LINE
  5
2565
330
21E5
100
AcDbEntity
  8
SUNPOU
  6
CONTINUOUS
 62
     4
100
AcDbLine
 10
930.4111903322354
 20
602.1996316313911
 30
0.0
 11
930.4111903322354
 21
639.0478795705867
 31
0.0
  0
LINE
  5
2566
330
21E5
100
AcDbEntity
  8
SUNPOU
  6
CONTINUOUS
 62
     4
100
AcDbLine
 10
974.4111903322355
 20
633.0478795705866
 30
0.0
 11
988.4111903322354
 21
633.0478795705866
 31
0.0
  0
LINE
  5
2567
330
21E5
100
AcDbEntity
  8
SUNPOU
  6
CONTINUOUS
 62
     4
100
AcDbLine
 10
916.4111903322355
 20
633.0478795705866
 30
0.0
 11
902.4111903322355
 21
633.0478795705866
 31
0.0
  0
LINE
  5
2568
330
21E5
100
AcDbEntity
  8
SUNPOU
  6
CONTINUOUS
 62
     4
100
AcDbLine
 10
960.4111903322355
 20
633.0478795705866
 30
0.0
 11
930.4111903322354
 21
633.0478795705866
 31
0.0
  0
INSERT
  5
2569
330
21E5
100
AcDbEntity
  8
SUNPOU
  6
CONTINUOUS
 62
     4
100
AcDbBlockReference
  2
_OPEN
 10
960.4111903322355
 20
633.0478795705866
 30
0.0
 41
14.0
 42
14.0
 43
14.0
 50
180.0
  0
INSERT
  5
256A
330
21E5
100
AcDbEntity
  8
SUNPOU
  6
CONTINUOUS
 62
     4
100
AcDbBlockReference
  2
_OPEN
 10
930.4111903322354
 20
633.0478795705866
 30
0.0
 41
14.0
 42
14.0
 43
14.0
  0
MTEXT
  5
256B
330
21E5
100
AcDbEntity
  8
SUNPOU
  6
CONTINUOUS
 62
     4
100
AcDbMText
 10
945.4111903322354
 20
643.0478795705867
 30
0.0
 40
12.0
 41
0.0
 71
     5
 72
     1
  1
\A1;30
1001
ACAD
1000
MTEXTBEGIN
1070
    73
1070
     1
1070
    44
1040
1.0
1070
    74
1070
     0
1000
MTEXTEND
  0
POINT
  5
256C
330
21E5
100
AcDbEntity
  8
DEFPOINTS
  6
CONTINUOUS
 62
     0
100
AcDbPoint
 10
960.4111903322355
 20
589.1996316313911
 30
0.0
  0
POINT
  5
256D
330
21E5
100
AcDbEntity
  8
DEFPOINTS
  6
CONTINUOUS
 62
     0
100
AcDbPoint
 10
930.4111903322354
 20
590.1996316313911
 30
0.0
  0
POINT
  5
256E
330
21E5
100
AcDbEntity
  8
DEFPOINTS
  6
CONTINUOUS
 62
     0
100
AcDbPoint
 10
930.4111903322354
 20
633.0478795705866
 30
0.0
  0
ENDBLK
  5
21F2
330
21E5
100
AcDbEntity
  8
0
100
AcDbBlockEnd
  0
BLOCK
  5
21FD
330
21F3
100
AcDbEntity
  8
0
100
AcDbBlockBegin
  2
*D16
 70
     1
 10
0.0
 20
0.0
 30
0.0
  3
*D16
  1

  0
LINE
  5
255B
330
21F3
100
AcDbEntity
  8
SUNPOU
  6
CONTINUOUS
 62
     4
100
AcDbLine
 10
1393.187290332235
 20
574.1996316313912
 30
0.0
 11
1393.187290332235
 21
638.3783715690287
 31
0.0
  0
LINE
  5
255C
330
21F3
100
AcDbEntity
  8
SUNPOU
  6
CONTINUOUS
 62
     4
100
AcDbLine
 10
1129.291190332235
 20
599.1996316313912
 30
0.0
 11
1129.291190332235
 21
638.3783715690287
 31
0.0
  0
LINE
  5
255D
330
21F3
100
AcDbEntity
  8
SUNPOU
  6
CONTINUOUS
 62
     4
100
AcDbLine
 10
1379.187290332235
 20
632.3783715690288
 30
0.0
 11
1143.291190332235
 21
632.3783715690288
 31
0.0
  0
INSERT
  5
255E
330
21F3
100
AcDbEntity
  8
SUNPOU
  6
CONTINUOUS
 62
     4
100
AcDbBlockReference
  2
_OPEN
 10
1393.187290332235
 20
632.3783715690288
 30
0.0
 41
14.0
 42
14.0
 43
14.0
  0
INSERT
  5
255F
330
21F3
100
AcDbEntity
  8
SUNPOU
  6
CONTINUOUS
 62
     4
100
AcDbBlockReference
  2
_OPEN
 10
1129.291190332235
 20
632.3783715690288
 30
0.0
 41
14.0
 42
14.0
 43
14.0
 50
180.0
  0
MTEXT
  5
2560
330
21F3
100
AcDbEntity
  8
SUNPOU
  6
CONTINUOUS
 62
     4
100
AcDbMText
 10
1261.239240332235
 20
642.3783715690287
 30
0.0
 40
12.0
 41
0.0
 71
     5
 72
     1
  1
\A1;264
1001
ACAD
1000
MTEXTBEGIN
1070
    73
1070
     1
1070
    44
1040
1.0
1070
    74
1070
     0
1000
MTEXTEND
  0
POINT
  5
2561
330
21F3
100
AcDbEntity
  8
DEFPOINTS
  6
CONTINUOUS
 62
     0
100
AcDbPoint
 10
1393.187290332235
 20
562.1996316313912
 30
0.0
  0
POINT
  5
2562
330
21F3
100
AcDbEntity
  8
DEFPOINTS
  6
CONTINUOUS
 62
     0
100
AcDbPoint
 10
1129.291190332235
 20
587.1996316313912
 30
0.0
  0
POINT
  5
2563
330
21F3
100
AcDbEntity
  8
DEFPOINTS
  6
CONTINUOUS
 62
     0
100
AcDbPoint
 10
1129.291190332235
 20
632.3783715690288
 30
0.0
  0
ENDBLK
  5
21FE
330
21F3
100
AcDbEntity
  8
0
100
AcDbBlockEnd
  0
BLOCK
  5
2209
330
21FF
100
AcDbEntity
  8
0
100
AcDbBlockBegin
  2
*D17
 70
     1
 10
0.0
 20
0.0
 30
0.0
  3
*D17
  1

  0
LINE
  5
257A
330
21FF
100
AcDbEntity
  8
SUNPOU
  6
CONTINUOUS
 62
     4
100
AcDbLine
 10
1402.187290332235
 20
565.1996316313911
 30
0.0
 11
1487.843648491363
 21
565.1996316313911
 31
0.0
  0
LINE
  5
257B
330
21FF
100
AcDbEntity
  8
SUNPOU
  6
CONTINUOUS
 62
     4
100
AcDbLine
 10
1374.896790332235
 20
418.4995316313912
 30
0.0
 11
1487.843648491362
 21
418.4995316313911
 31
0.0
  0
LINE
  5
257C
330
21FF
100
AcDbEntity
  8
SUNPOU
  6
CONTINUOUS
 62
     4
100
AcDbLine
 10
1481.843648491363
 20
551.1996316313911
 30
0.0
 11
1481.843648491362
 21
432.4995316313911
 31
0.0
  0
INSERT
  5
257D
330
21FF
100
AcDbEntity
  8
SUNPOU
  6
CONTINUOUS
 62
     4
100
AcDbBlockReference
  2
_OPEN
 10
1481.843648491363
 20
565.1996316313911
 30
0.0
 41
14.0
 42
14.0
 43
14.0
 50
90.0
  0
INSERT
  5
257E
330
21FF
100
AcDbEntity
  8
SUNPOU
  6
CONTINUOUS
 62
     4
100
AcDbBlockReference
  2
_OPEN
 10
1481.843648491362
 20
418.4995316313911
 30
0.0
 41
14.0
 42
14.0
 43
14.0
 50
270.0
  0
MTEXT
  5
257F
330
21FF
100
AcDbEntity
  8
SUNPOU
  6
CONTINUOUS
 62
     4
100
AcDbMText
 10
1471.843648491362
 20
491.8495816313914
 30
0.0
 40
12.0
 41
0.0
 71
     5
 72
     1
  1
\A1;147
 11
0.0000000000000001
 21
1.0
 31
0.0
1001
ACAD
1000
MTEXTBEGIN
1070
    73
1070
     1
1070
    44
1040
1.0
1070
    74
1070
     0
1000
MTEXTEND
  0
POINT
  5
2580
330
21FF
100
AcDbEntity
  8
DEFPOINTS
  6
CONTINUOUS
 62
     0
100
AcDbPoint
 10
1390.187290332235
 20
565.1996316313911
 30
0.0
  0
POINT
  5
2581
330
21FF
100
AcDbEntity
  8
DEFPOINTS
  6
CONTINUOUS
 62
     0
100
AcDbPoint
 10
1362.896790332235
 20
418.4995316313912
 30
0.0
  0
POINT
  5
2582
330
21FF
100
AcDbEntity
  8
DEFPOINTS
  6
CONTINUOUS
 62
     0
100
AcDbPoint
 10
1481.843648491362
 20
418.4995316313911
 30
0.0
  0
ENDBLK
  5
220A
330
21FF
100
AcDbEntity
  8
0
100
AcDbBlockEnd
  0
BLOCK
  5
2215
330
220B
100
AcDbEntity
  8
0
100
AcDbBlockBegin
  2
*D18
 70
     1
 10
0.0
 20
0.0
 30
0.0
  3
*D18
  1

  0
LINE
  5
2583
330
220B
100
AcDbEntity
  8
SUNPOU
  6
CONTINUOUS
 62
     4
100
AcDbLine
 10
1120.291190332235
 20
590.1996316313911
 30
0.0
 11
1056.152852514748
 21
590.1996316313911
 31
0.0
  0
LINE
  5
2584
330
220B
100
AcDbEntity
  8
SUNPOU
  6
CONTINUOUS
 62
     4
100
AcDbLine
 10
1150.896690332235
 20
418.4995316313912
 30
0.0
 11
1056.152852514748
 21
418.4995316313912
 31
0.0
  0
LINE
  5
2585
330
220B
100
AcDbEntity
  8
SUNPOU
  6
CONTINUOUS
 62
     4
100
AcDbLine
 10
1062.152852514749
 20
576.1996316313911
 30
0.0
 11
1062.152852514748
 21
432.4995316313913
 31
0.0
  0
INSERT
  5
2586
330
220B
100
AcDbEntity
  8
SUNPOU
  6
CONTINUOUS
 62
     4
100
AcDbBlockReference
  2
_OPEN
 10
1062.152852514749
 20
590.1996316313911
 30
0.0
 41
14.0
 42
14.0
 43
14.0
 50
90.0
  0
INSERT
  5
2587
330
220B
100
AcDbEntity
  8
SUNPOU
  6
CONTINUOUS
 62
     4
100
AcDbBlockReference
  2
_OPEN
 10
1062.152852514748
 20
418.4995316313912
 30
0.0
 41
14.0
 42
14.0
 43
14.0
 50
270.0
  0
MTEXT
  5
2588
330
220B
100
AcDbEntity
  8
SUNPOU
  6
CONTINUOUS
 62
     4
100
AcDbMText
 10
1052.152852514748
 20
504.3495816313914
 30
0.0
 40
12.0
 41
0.0
 71
     5
 72
     1
  1
\A1;172
 11
0.0000000000000001
 21
1.0
 31
0.0
1001
ACAD
1000
MTEXTBEGIN
1070
    73
1070
     1
1070
    44
1040
1.0
1070
    74
1070
     0
1000
MTEXTEND
  0
POINT
  5
2589
330
220B
100
AcDbEntity
  8
DEFPOINTS
  6
CONTINUOUS
 62
     0
100
AcDbPoint
 10
1132.291190332235
 20
590.1996316313911
 30
0.0
  0
POINT
  5
258A
330
220B
100
AcDbEntity
  8
DEFPOINTS
  6
CONTINUOUS
 62
     0
100
AcDbPoint
 10
1162.896690332235
 20
418.4995316313912
 30
0.0
  0
POINT
  5
258B
330
220B
100
AcDbEntity
  8
DEFPOINTS
  6
CONTINUOUS
 62
     0
100
AcDbPoint
 10
1062.152852514748
 20
418.4995316313912
 30
0.0
  0
ENDBLK
  5
2216
330
220B
100
AcDbEntity
  8
0
100
AcDbBlockEnd
  0
BLOCK
  5
2221
330
2217
100
AcDbEntity
  8
0
100
AcDbBlockBegin
  2
*D19
 70
     1
 10
0.0
 20
0.0
 30
0.0
  3
*D19
  1

  0
LINE
  5
2597
330
2217
100
AcDbEntity
  8
SUNPOU
  6
CONTINUOUS
 62
     4
100
AcDbLine
 10
1365.550926630603
 20
406.4995316313912
 30
0.0
 11
1365.550926630603
 21
363.581267648019
 31
0.0
  0
LINE
  5
2598
330
2217
100
AcDbEntity
  8
SUNPOU
  6
CONTINUOUS
 62
     4
100
AcDbLine
 10
1160.242552400353
 20
406.4995316313912
 30
0.0
 11
1160.242552400353
 21
363.581267648019
 31
0.0
  0
LINE
  5
2599
330
2217
100
AcDbEntity
  8
SUNPOU
  6
CONTINUOUS
 62
     4
100
AcDbLine
 10
1351.550926630603
 20
369.581267648019
 30
0.0
 11
1174.242552400353
 21
369.581267648019
 31
0.0
  0
INSERT
  5
259A
330
2217
100
AcDbEntity
  8
SUNPOU
  6
CONTINUOUS
 62
     4
100
AcDbBlockReference
  2
_OPEN
 10
1365.550926630603
 20
369.581267648019
 30
0.0
 41
14.0
 42
14.0
 43
14.0
  0
INSERT
  5
259B
330
2217
100
AcDbEntity
  8
SUNPOU
  6
CONTINUOUS
 62
     4
100
AcDbBlockReference
  2
_OPEN
 10
1160.242552400353
 20
369.581267648019
 30
0.0
 41
14.0
 42
14.0
 43
14.0
 50
180.0
  0
MTEXT
  5
259C
330
2217
100
AcDbEntity
  8
SUNPOU
  6
CONTINUOUS
 62
     4
100
AcDbMText
 10
1262.896739515478
 20
379.581267648019
 30
0.0
 40
12.0
 41
0.0
 71
     5
 72
     1
  1
\A1;205
1001
ACAD
1000
MTEXTBEGIN
1070
    73
1070
     1
1070
    44
1040
1.0
1070
    74
1070
     0
1000
MTEXTEND
  0
POINT
  5
259D
330
2217
100
AcDbEntity
  8
DEFPOINTS
  6
CONTINUOUS
 62
     0
100
AcDbPoint
 10
1365.550926630603
 20
418.4995316313912
 30
0.0
  0
POINT
  5
259E
330
2217
100
AcDbEntity
  8
DEFPOINTS
  6
CONTINUOUS
 62
     0
100
AcDbPoint
 10
1160.242552400353
 20
418.4995316313912
 30
0.0
  0
POINT
  5
259F
330
2217
100
AcDbEntity
  8
DEFPOINTS
  6
CONTINUOUS
 62
     0
100
AcDbPoint
 10
1160.242552400353
 20
369.581267648019
 30
0.0
  0
ENDBLK
  5
2222
330
2217
100
AcDbEntity
  8
0
100
AcDbBlockEnd
  0
ENDSEC
  0
SECTION
  2
ENTITIES
  0
TEXT
  5
70F
330
19
100
AcDbEntity
  8
SUNPOU
 62
     4
100
AcDbText
 10
1392.583581941547
 20
102.4347061266651
 30
0.0
 40
12.0
  1
※　のきといの差込み寸法を示す
100
AcDbText
  0
LINE
  5
15C9
330
19
100
AcDbEntity
  8
ZUWAKU
100
AcDbLine
 10
447.293202593692
 20
60.39999986828876
 30
0.0
 11
924.8487279555389
 21
60.39999986828874
 31
0.0
  0
LINE
  5
15CA
330
19
100
AcDbEntity
  8
ZUWAKU
100
AcDbLine
 10
447.293202593692
 20
61.19999986828875
 30
0.0
 11
924.8487279555389
 21
61.19999986828876
 31
0.0
  0
LINE
  5
15CB
330
19
100
AcDbEntity
  8
ZUWAKU
100
AcDbLine
 10
447.293202593692
 20
60.79999986828875
 30
0.0
 11
924.8487279555389
 21
60.79999986828875
 31
0.0
  0
LINE
  5
15CC
330
19
100
AcDbEntity
  8
ZUWAKU
100
AcDbLine
 10
30.00000001355601
 20
91.5999998682887
 30
0.0
 11
1624.800000013555
 21
91.5999998682887
 31
0.0
  0
LINE
  5
15CD
330
19
100
AcDbEntity
  8
ZUWAKU
100
AcDbLine
 10
30.00000001355601
 20
91.19999986828871
 30
0.0
 11
1624.800000013555
 21
91.19999986828871
 31
0.0
  0
LINE
  5
15CE
330
19
100
AcDbEntity
  8
ZUWAKU
100
AcDbLine
 10
30.00000001355601
 20
90.7999998682887
 30
0.0
 11
1624.800000013555
 21
90.7999998682887
 31
0.0
  0
LINE
  5
15CF
330
19
100
AcDbEntity
  8
ZUWAKU
100
AcDbLine
 10
30.00000001355601
 20
90.39999986828869
 30
0.0
 11
1624.800000013555
 21
90.39999986828869
 31
0.0
  0
LINE
  5
15D0
330
19
100
AcDbEntity
  8
ZUWAKU
100
AcDbLine
 10
30.00000001355601
 20
89.99999986828868
 30
0.0
 11
1624.800000013555
 21
89.99999986828868
 31
0.0
  0
POLYLINE
  5
15D1
330
19
100
AcDbEntity
  8
ZUWAKU
100
AcDb2dPolyline
 66
     1
 10
0.0
 20
0.0
 30
0.0
 70
     1
  0
VERTEX
  5
2604
330
15D1
100
AcDbEntity
  8
ZUWAKU
100
AcDbVertex
100
AcDb2dVertex
 10
30.40000001355588
 20
1132.799999868288
 30
0.0
  0
VERTEX
  5
2605
330
15D1
100
AcDbEntity
  8
ZUWAKU
100
AcDbVertex
100
AcDb2dVertex
 10
30.40000001355588
 20
30.39999986828877
 30
0.0
  0
VERTEX
  5
2606
330
15D1
100
AcDbEntity
  8
ZUWAKU
100
AcDbVertex
100
AcDb2dVertex
 10
1624.800000013555
 20
30.39999986828882
 30
0.0
  0
VERTEX
  5
2607
330
15D1
100
AcDbEntity
  8
ZUWAKU
100
AcDbVertex
100
AcDb2dVertex
 10
1624.800000013556
 20
1132.799999868288
 30
0.0
  0
SEQEND
  5
2608
330
15D1
100
AcDbEntity
  8
ZUWAKU
  0
POLYLINE
  5
15D2
330
19
100
AcDbEntity
  8
ZUWAKU
100
AcDb2dPolyline
 66
     1
 10
0.0
 20
0.0
 30
0.0
 70
     1
  0
VERTEX
  5
2609
330
15D2
100
AcDbEntity
  8
ZUWAKU
100
AcDbVertex
100
AcDb2dVertex
 10
31.20000001355583
 20
1131.999999868288
 30
0.0
  0
VERTEX
  5
260A
330
15D2
100
AcDbEntity
  8
ZUWAKU
100
AcDbVertex
100
AcDb2dVertex
 10
31.20000001355583
 20
31.19999986828872
 30
0.0
  0
VERTEX
  5
260B
330
15D2
100
AcDbEntity
  8
ZUWAKU
100
AcDbVertex
100
AcDb2dVertex
 10
1624.000000013556
 20
31.19999986828882
 30
0.0
  0
VERTEX
  5
260C
330
15D2
100
AcDbEntity
  8
ZUWAKU
100
AcDbVertex
100
AcDb2dVertex
 10
1624.000000013555
 20
1131.999999868288
 30
0.0
  0
SEQEND
  5
260D
330
15D2
100
AcDbEntity
  8
ZUWAKU
  0
POLYLINE
  5
15D3
330
19
100
AcDbEntity
  8
ZUWAKU
100
AcDb2dPolyline
 66
     1
 10
0.0
 20
0.0
 30
0.0
 70
     1
  0
VERTEX
  5
260E
330
15D3
100
AcDbEntity
  8
ZUWAKU
100
AcDbVertex
100
AcDb2dVertex
 10
30.00000001355601
 20
1133.199999868288
 30
0.0
  0
VERTEX
  5
260F
330
15D3
100
AcDbEntity
  8
ZUWAKU
100
AcDbVertex
100
AcDb2dVertex
 10
30.00000001355601
 20
29.99999986828868
 30
0.0
  0
VERTEX
  5
2610
330
15D3
100
AcDbEntity
  8
ZUWAKU
100
AcDbVertex
100
AcDb2dVertex
 10
1625.200000013556
 20
29.99999986828882
 30
0.0
  0
VERTEX
  5
2611
330
15D3
100
AcDbEntity
  8
ZUWAKU
100
AcDbVertex
100
AcDb2dVertex
 10
1625.200000013556
 20
1133.199999868289
 30
0.0
  0
SEQEND
  5
2612
330
15D3
100
AcDbEntity
  8
ZUWAKU
  0
POLYLINE
  5
15D4
330
19
100
AcDbEntity
  8
ZUWAKU
100
AcDb2dPolyline
 66
     1
 10
0.0
 20
0.0
 30
0.0
 70
     1
  0
VERTEX
  5
2613
330
15D4
100
AcDbEntity
  8
ZUWAKU
100
AcDbVertex
100
AcDb2dVertex
 10
30.80000001355597
 20
1132.399999868288
 30
0.0
  0
VERTEX
  5
2614
330
15D4
100
AcDbEntity
  8
ZUWAKU
100
AcDbVertex
100
AcDb2dVertex
 10
30.80000001355597
 20
30.79999986828886
 30
0.0
  0
VERTEX
  5
2615
330
15D4
100
AcDbEntity
  8
ZUWAKU
100
AcDbVertex
100
AcDb2dVertex
 10
1624.400000013556
 20
30.79999986828882
 30
0.0
  0
VERTEX
  5
2616
330
15D4
100
AcDbEntity
  8
ZUWAKU
100
AcDbVertex
100
AcDb2dVertex
 10
1624.400000013556
 20
1132.399999868288
 30
0.0
  0
SEQEND
  5
2617
330
15D4
100
AcDbEntity
  8
ZUWAKU
  0
POLYLINE
  5
15D5
330
19
100
AcDbEntity
  8
ZUWAKU
100
AcDb2dPolyline
 66
     1
 10
0.0
 20
0.0
 30
0.0
 70
     1
  0
VERTEX
  5
2618
330
15D5
100
AcDbEntity
  8
ZUWAKU
100
AcDbVertex
100
AcDb2dVertex
 10
31.60000001355593
 20
1131.599999868288
 30
0.0
  0
VERTEX
  5
2619
330
15D5
100
AcDbEntity
  8
ZUWAKU
100
AcDbVertex
100
AcDb2dVertex
 10
31.60000001355593
 20
31.59999986828882
 30
0.0
  0
VERTEX
  5
261A
330
15D5
100
AcDbEntity
  8
ZUWAKU
100
AcDbVertex
100
AcDb2dVertex
 10
1623.600000013555
 20
31.59999986828882
 30
0.0
  0
VERTEX
  5
261B
330
15D5
100
AcDbEntity
  8
ZUWAKU
100
AcDbVertex
100
AcDb2dVertex
 10
1623.600000013555
 20
1131.599999868288
 30
0.0
  0
SEQEND
  5
261C
330
15D5
100
AcDbEntity
  8
ZUWAKU
  0
TEXT
  5
15D6
330
19
100
AcDbEntity
  8
MOJI
100
AcDbText
 10
215.9155791898943
 20
55.48235612883821
 30
0.0
 40
12.0
  1
大型のきとい
 41
0.9
  7
ｽﾀｲﾙ1
100
AcDbText
  0
INSERT
  5
15D7
330
19
100
AcDbEntity
  8
ZUWAKU
  6
CONTINUOUS
100
AcDbBlockReference
  2
*X1
 10
30.0
 20
30.0
 30
0.0
1001
ACAD
1000
HATCH
1002
{
1070
    19
1000
ANSI37
1040
0.4
1040
0.0
1000
R14_HATCH_DATA
1000
15D7
1011
31.0
1021
30.0
1031
0.0
1011
30.0
1021
31.0
1031
0.0
1011
30.0
1021
30.0
1031
1.0
1040
0.0
1010
0.0
1020
0.0
1030
1.0
1000
ANSI37
1070
     0
1070
     0
1071
        8
1071
        7
1070
     1
1070
     1
1071
       24
1040
29.00452533579573
1040
35.28969683025585
1040
-0.1989123673796348
1040
28.18442432311826
1040
37.26959581757795
1040
0.0
1040
28.18442432311826
1040
39.8499998682887
1040
-0.4142135623730912
1040
29.23442432311821
1040
40.89999986828869
1040
0.0
1040
35.18442432311803
1040
40.89999986828869
1040
0.4142135623731546
1040
36.23442432311822
1040
41.94999986828867
1040
0.0
1040
36.23442432311822
1040
45.44999986828869
1040
0.4142135623731586
1040
35.18442432311803
1040
46.49999986828869
1040
0.0
1040
28.18442432311826
1040
46.49999986828869
1040
0.4142135623730928
1040
22.58442432311835
1040
40.89999986828874
1040
0.0
1040
22.58442432311835
1040
37.2695958175782
1040
0.1989123673796619
1040
25.04472736115122
1040
31.32989885561099
1040
0.0
1040
30.86432331044056
1040
25.51030290632168
1040
-0.1989123673796613
1040
31.68442432311826
1040
23.5304039189993
1040
0.0
1040
31.68442432311826
1040
20.94999986828867
1040
-0.4142135623730911
1040
30.6344243231183
1040
19.89999986828868
1040
0.0
1040
24.68442432311849
1040
19.89999986828868
1040
0.4142135623731526
1040
23.63442432311831
1040
18.84999986828871
1040
0.0
1040
23.63442432311831
1040
15.34999986828867
1040
0.4142135623731526
1040
24.68442432311849
1040
14.29999986828869
1040
0.0
1040
31.68442432311826
1040
14.29999986828869
1040
0.4142135623731044
1040
37.2844243231184
1040
19.89999986828864
1040
0.0
1040
37.2844243231184
1040
23.53040391899919
1040
0.1989123673796604
1040
34.82412128508531
1040
29.47010088096627
1040
0.0
1071
        0
1071
        7
1070
     1
1070
     1
1071
       16
1040
47.08442432311835
1040
38.0999998682887
1040
-0.4142135623730935
1040
49.88442432311831
1040
40.89999986828869
1040
0.0
1040
53.73442432311822
1040
40.89999986828869
1040
0.4142135623731546
1040
54.7844243231184
1040
41.94999986828867
1040
0.0
1040
54.7844243231184
1040
45.44999986828869
1040
0.4142135623730951
1040
53.73442432311844
1040
46.49999986828869
1040
0.0
1040
49.88442432311808
1040
46.49999986828861
1040
0.4142135623730892
1040
41.48442432311822
1040
38.09999986828856
1040
0.0
1040
41.48442432311822
1040
22.69999986828874
1040
0.4142135623730969
1040
49.88442432311831
1040
14.29999986828869
1040
0.0
1040
53.73442432311822
1040
14.29999986828869
1040
0.4142135623731526
1040
54.7844243231184
1040
15.34999986828867
1040
0.0
1040
54.7844243231184
1040
18.84999986828871
1040
0.4142135623730891
1040
53.73442432311844
1040
19.89999986828868
1040
0.0
1040
49.88442432311831
1040
19.89999986828868
1040
-0.4142135623730928
1040
47.08442432311835
1040
22.69999986828866
1040
0.0
1071
        0
1071
        7
1070
     1
1070
     1
1071
        2
1040
48.48442432311822
1040
30.39999986828869
1040
1.0
1040
55.48442432311822
1040
30.39999986828869
1040
1.0
1071
        0
1071
        7
1070
     1
1070
     1
1071
       26
1040
74.62971728747425
1040
38.41009425541554
1040
0.0
1040
76.75299655374988
1040
45.13381193195472
1040
0.5069206636600134
1040
75.75173475535916
1040
46.49999986828869
1040
0.0
1040
72.35395599614071
1040
46.49999986828869
1040
0.3272098845218764
1040
71.35269419774999
1040
45.76618780462263
1040
0.0
1040
67.61615444848644
1040
33.93381193195485
1040
-0.3272098845219541
1040
66.61489265009549
1040
33.19999986828868
1040
0.0
1040
66.33442432311858
1040
33.19999986828868
1040
-0.4142135623731526
1040
65.2844243231184
1040
34.24999986828866
1040
0.0
1040
65.2844243231184
1040
45.44999986828869
1040
0.4142135623730951
1040
64.23442432311844
1040
46.49999986828869
1040
0.0
1040
60.73442432311821
1040
46.49999986828869
1040
0.4142135623730871
1040
59.68442432311826
1040
45.44999986828872
1040
0.0
1040
59.68442432311826
1040
15.34999986828867
1040
0.4142135623730891
1040
60.73442432311821
1040
14.29999986828869
1040
0.0
1040
64.23442432311822
1040
14.29999986828869
1040
0.4142135623731526
1040
65.2844243231184
1040
15.34999986828867
1040
0.0
1040
65.2844243231184
1040
26.54999986828871
1040
-0.4142135623731526
1040
66.33442432311858
1040
27.59999986828869
1040
0.0
1040
66.61489265009572
1040
27.59999986828869
1040
-0.3272098845218915
1040
67.61615444848644
1040
26.86618780462254
1040
0.0
1040
71.35269419774999
1040
15.03381193195483
1040
0.3272098845218902
1040
72.35395599614071
1040
14.29999986828869
1040
0.0
1040
75.75173475535916
1040
14.29999986828869
1040
0.5069206636600335
1040
76.75299655374988
1040
15.6661878046227
1040
0.0
1040
72.10021379680256
1040
30.39999986828896
1040
0.0
1071
        0
1071
        7
1070
     1
1070
     1
1071
        8
1040
86.98442432311821
1040
45.44999986828871
1040
0.4142135623731546
1040
85.93442432311803
1040
46.49999986828869
1040
0.0
1040
82.4344243231185
1040
46.49999986828869
1040
0.4142135623731507
1040
81.38442432311832
1040
45.44999986828872
1040
0.0
1040
81.38442432311832
1040
15.34999986828867
1040
0.4142135623731526
1040
82.4344243231185
1040
14.29999986828869
1040
0.0
1040
85.93442432311803
1040
14.29999986828869
1040
0.4142135623731526
1040
86.98442432311821
1040
15.34999986828867
1040
0.0
1071
        0
1071
        7
1070
     1
1070
     1
1071
       24
1040
96.7844243231184
1040
39.8499998682887
1040
-0.4142135623731546
1040
97.83442432311858
1040
40.89999986828869
1040
0.0
1040
103.7844243231184
1040
40.89999986828869
1040
0.4142135623730911
1040
104.8344243231183
1040
41.94999986828867
1040
0.0
1040
104.8344243231183
1040
45.44999986828869
1040
0.4142135623730952
1040
103.7844243231184
1040
46.49999986828869
1040
0.0
1040
96.7844243231184
1040
46.49999986828869
1040
0.4142135623731048
1040
91.18442432311827
1040
40.89999986828874
1040
0.0
1040
91.18442432311827
1040
37.2695958175782
1040
0.1989123673796613
1040
93.64472736115136
1040
31.3298988556111
1040
0.0
1040
99.46432331044071
1040
25.51030290632176
1040
-0.1989123673796402
1040
100.2844243231183
1040
23.53040391899962
1040
0.0
1040
100.2844243231183
1040
20.94999986828867
1040
-0.4142135623730911
1040
99.23442432311844
1040
19.89999986828868
1040
0.0
1040
93.2844243231184
1040
19.89999986828868
1040
0.4142135623731526
1040
92.23442432311822
1040
18.84999986828871
1040
0.0
1040
92.23442432311822
1040
15.34999986828867
1040
0.4142135623730891
1040
93.28442432311817
1040
14.29999986828869
1040
0.0
1040
100.2844243231183
1040
14.29999986828869
1040
0.4142135623730925
1040
105.8844243231183
1040
19.89999986828864
1040
0.0
1040
105.8844243231183
1040
23.53040391899919
1040
0.1989123673796675
1040
103.4241212850852
1040
29.4701008809665
1040
0.0
1040
97.60452533579609
1040
35.28969683025553
1040
-0.1989123673796652
1040
96.7844243231184
1040
37.26959581757786
1040
0.0
1071
        0
1071
        7
1070
     1
1070
     1
1071
       16
1040
115.6844243231182
1040
45.44999986828867
1040
0.414213562373103
1040
114.6344243231183
1040
46.49999986828869
1040
0.0
1040
111.1344243231183
1040
46.49999986828869
1040
0.4142135623730871
1040
110.0844243231183
1040
45.44999986828872
1040
0.0
1040
110.0844243231183
1040
19.89999986828864
1040
0.4142135623730926
1040
115.6844243231182
1040
14.29999986828869
1040
0.0
1040
122.6844243231182
1040
14.29999986828869
1040
0.4142135623731044
1040
128.2844243231183
1040
19.89999986828864
1040
0.0
1040
128.2844243231183
1040
45.44999986828869
1040
0.4142135623730951
1040
127.2344243231184
1040
46.49999986828869
1040
0.0
1040
123.7344243231182
1040
46.49999986828869
1040
0.4142135623730871
1040
122.6844243231182
1040
45.44999986828872
1040
0.0
1040
122.6844243231182
1040
21.99999986828863
1040
-0.414213562373088
1040
120.5844243231183
1040
19.89999986828868
1040
0.0
1040
117.7844243231183
1040
19.89999986828868
1040
-0.4142135623731197
1040
115.6844243231182
1040
21.99999986828863
1040
0.0
1071
        0
1071
        7
1070
     1
1070
     1
1071
        8
1040
138.0844243231183
1040
45.44999986828872
1040
0.4142135623730871
1040
137.0344243231184
1040
46.49999986828869
1040
0.0
1040
133.5344243231183
1040
46.49999986828869
1040
0.4142135623731507
1040
132.4844243231182
1040
45.44999986828872
1040
0.0
1040
132.4844243231182
1040
15.34999986828867
1040
0.4142135623730891
1040
133.5344243231181
1040
14.29999986828869
1040
0.0
1040
137.0344243231184
1040
14.29999986828869
1040
0.4142135623730891
1040
138.0844243231183
1040
15.34999986828867
1040
0.0
1071
        0
1070
     0
1070
     1
1040
0.0
1040
0.4
1070
     0
1070
     2
1040
0.7853981633974483
1040
-1801.884608655802
1040
-26.40000013171118
1040
-0.8980256121069151
1040
0.8980256121069153
1070
     0
1040
2.356194490192344
1040
-1801.884608655802
1040
-26.40000013171118
1040
-0.8980256121069153
1040
-0.8980256121069151
1070
     0
1040
0.057451373970553
1071
        8
1040
32.15970993960263
1040
30.33434716005979
1040
0.0
1040
44.80903002643436
1040
37.6881242331907
1040
0.0
1040
50.32873578487533
1040
31.02376316043012
1040
0.0
1040
61.82811997683029
1040
32.40259516117169
1040
0.0
1040
83.67694405146949
1040
33.32181969625492
1040
0.0
1040
93.79640180381512
1040
38.8371525011031
1040
0.0
1040
113.1153719583567
1040
37.45831569847871
1040
0.0
1040
135.6541592528014
1040
38.37754023356194
1040
0.0
1002
}
  0
LINE
  5
15D8
330
19
100
AcDbEntity
  8
ZUWAKU
100
AcDbLine
 10
79.88442432311831
 20
76.49999986828861
 30
0.0
 11
83.73442432311822
 21
76.4999998682887
 31
0.0
  0
LINE
  5
15D9
330
19
100
AcDbEntity
  8
ZUWAKU
100
AcDbLine
 10
83.73442432311822
 20
70.89999986828869
 30
0.0
 11
79.88442432311831
 21
70.89999986828869
 31
0.0
  0
LINE
  5
15DA
330
19
100
AcDbEntity
  8
ZUWAKU
100
AcDbLine
 10
79.88442432311831
 20
49.89999986828869
 30
0.0
 11
83.73442432311822
 21
49.89999986828869
 31
0.0
  0
LINE
  5
15DB
330
19
100
AcDbEntity
  8
ZUWAKU
100
AcDbLine
 10
83.73442432311822
 20
44.29999986828869
 30
0.0
 11
79.88442432311831
 21
44.29999986828869
 31
0.0
  0
CIRCLE
  5
15DC
330
19
100
AcDbEntity
  8
ZUWAKU
100
AcDbCircle
 10
81.98442432311821
 20
60.39999986828869
 30
0.0
 40
3.5
  0
ARC
  5
15DD
330
19
100
AcDbEntity
  8
ZUWAKU
100
AcDbCircle
 10
60.98442432311822
 20
67.26959581757809
 30
0.0
 40
2.799999999999999
100
AcDbArc
 50
180.0000000000016
 51
224.9999999999988
  0
LINE
  5
15DE
330
19
100
AcDbEntity
  8
ZUWAKU
100
AcDbLine
 10
77.08442432311835
 20
68.09999986828869
 30
0.0
 11
77.08442432311835
 21
52.6999998682887
 31
0.0
  0
LINE
  5
15DF
330
19
100
AcDbEntity
  8
ZUWAKU
100
AcDbLine
 10
71.48442432311822
 20
52.6999998682887
 30
0.0
 11
71.48442432311822
 21
68.0999998682886
 31
0.0
  0
ARC
  5
15E0
330
19
100
AcDbEntity
  8
ZUWAKU
100
AcDbCircle
 10
60.98442432311822
 20
67.26959581757809
 30
0.0
 40
8.399999999999998
100
AcDbArc
 50
180.0
 51
225.0
  0
ARC
  5
15E1
330
19
100
AcDbEntity
  8
ZUWAKU
100
AcDbCircle
 10
61.68442432311826
 20
49.89999986828869
 30
0.0
 40
5.599999999999999
100
AcDbArc
 50
270.0
 51
0.0
  0
ARC
  5
15E2
330
19
100
AcDbEntity
  8
ZUWAKU
100
AcDbCircle
 10
79.88442432311831
 20
52.6999998682887
 30
0.0
 40
8.399999999999998
100
AcDbArc
 50
180.0
 51
270.0
  0
ARC
  5
15E3
330
19
100
AcDbEntity
  8
ZUWAKU
100
AcDbCircle
 10
58.88442432311831
 20
53.5304039189993
 30
0.0
 40
8.399999999999998
100
AcDbArc
 50
0.0
 51
45.0
  0
LINE
  5
15E4
330
19
100
AcDbEntity
  8
ZUWAKU
100
AcDbLine
 10
64.82412128508531
 20
59.47010088096634
 30
0.0
 11
59.00452533579596
 21
65.28969683025569
 31
0.0
  0
LINE
  5
15E5
330
19
100
AcDbEntity
  8
ZUWAKU
100
AcDbLine
 10
61.68442432311826
 20
50.9499998682887
 30
0.0
 11
61.68442432311826
 21
53.53040391899938
 31
0.0
  0
ARC
  5
15E6
330
19
100
AcDbEntity
  8
ZUWAKU
100
AcDbCircle
 10
60.6344243231183
 20
50.9499998682887
 30
0.0
 40
1.049999999999999
100
AcDbArc
 50
270.0
 51
0.0
  0
ARC
  5
15E7
330
19
100
AcDbEntity
  8
ZUWAKU
100
AcDbCircle
 10
58.88442432311831
 20
53.53040391899938
 30
0.0
 40
2.799999999999999
100
AcDbArc
 50
0.0
 51
45.0
  0
LINE
  5
15E8
330
19
100
AcDbEntity
  8
ZUWAKU
100
AcDbLine
 10
53.63442432311831
 20
45.34999986828869
 30
0.0
 11
53.63442432311831
 21
48.84999986828869
 31
0.0
  0
ARC
  5
15E9
330
19
100
AcDbEntity
  8
ZUWAKU
100
AcDbCircle
 10
54.68442432311826
 20
45.34999986828869
 30
0.0
 40
1.049999999999999
100
AcDbArc
 50
180.0
 51
270.0
  0
ARC
  5
15EA
330
19
100
AcDbEntity
  8
ZUWAKU
100
AcDbCircle
 10
54.68442432311826
 20
48.84999986828869
 30
0.0
 40
1.049999999999999
100
AcDbArc
 50
90.0
 51
180.0
  0
LINE
  5
15EB
330
19
100
AcDbEntity
  8
ZUWAKU
100
AcDbLine
 10
54.68442432311826
 20
44.29999986828869
 30
0.0
 11
61.68442432311826
 21
44.29999986828869
 31
0.0
  0
LINE
  5
15EC
330
19
100
AcDbEntity
  8
ZUWAKU
100
AcDbLine
 10
54.68442432311826
 20
49.89999986828869
 30
0.0
 11
60.6344243231183
 21
49.89999986828869
 31
0.0
  0
LINE
  5
15ED
330
19
100
AcDbEntity
  8
ZUWAKU
100
AcDbLine
 10
55.04472736115122
 20
61.32989885561105
 30
0.0
 11
60.86432331044057
 21
55.51030290632173
 31
0.0
  0
LINE
  5
15EE
330
19
100
AcDbEntity
  8
ZUWAKU
100
AcDbLine
 10
67.2844243231184
 20
49.89999986828869
 30
0.0
 11
67.2844243231184
 21
53.53040391899938
 31
0.0
  0
ARC
  5
15EF
330
19
100
AcDbEntity
  8
ZUWAKU
100
AcDbCircle
 10
79.88442432311831
 20
52.6999998682887
 30
0.0
 40
2.799999999999999
100
AcDbArc
 50
180.0
 51
270.0
  0
ARC
  5
15F0
330
19
100
AcDbEntity
  8
ZUWAKU
100
AcDbCircle
 10
65.18442432311826
 20
75.44999986828869
 30
0.0
 40
1.049999999999999
100
AcDbArc
 50
0.0
 51
90.0
  0
ARC
  5
15F1
330
19
100
AcDbEntity
  8
ZUWAKU
100
AcDbCircle
 10
65.18442432311826
 20
71.94999986828868
 30
0.0
 40
1.049999999999999
100
AcDbArc
 50
270.0
 51
0.0
  0
LINE
  5
15F2
330
19
100
AcDbEntity
  8
ZUWAKU
100
AcDbLine
 10
58.18442432311826
 20
76.4999998682887
 30
0.0
 11
65.18442432311826
 21
76.4999998682887
 31
0.0
  0
ARC
  5
15F3
330
19
100
AcDbEntity
  8
ZUWAKU
100
AcDbCircle
 10
59.23442432311822
 20
69.84999986828869
 30
0.0
 40
1.049999999999999
100
AcDbArc
 50
90.0
 51
180.0
  0
LINE
  5
15F4
330
19
100
AcDbEntity
  8
ZUWAKU
100
AcDbLine
 10
58.18442432311826
 20
69.84999986828869
 30
0.0
 11
58.18442432311826
 21
67.269595817578
 31
0.0
  0
LINE
  5
15F5
330
19
100
AcDbEntity
  8
ZUWAKU
100
AcDbLine
 10
65.18442432311826
 20
70.89999986828869
 30
0.0
 11
59.23442432311822
 21
70.89999986828869
 31
0.0
  0
LINE
  5
15F6
330
19
100
AcDbEntity
  8
ZUWAKU
100
AcDbLine
 10
52.58442432311835
 20
70.89999986828869
 30
0.0
 11
52.58442432311835
 21
67.269595817578
 31
0.0
  0
ARC
  5
15F7
330
19
100
AcDbEntity
  8
ZUWAKU
100
AcDbCircle
 10
58.18442432311826
 20
70.89999986828869
 30
0.0
 40
5.599999999999999
100
AcDbArc
 50
90.0
 51
180.0
  0
LINE
  5
15F8
330
19
100
AcDbEntity
  8
ZUWAKU
100
AcDbLine
 10
66.23442432311822
 20
75.44999986828869
 30
0.0
 11
66.23442432311822
 21
71.94999986828868
 31
0.0
  0
ARC
  5
15F9
330
19
100
AcDbEntity
  8
ZUWAKU
100
AcDbCircle
 10
79.88442432311831
 20
68.09999986828869
 30
0.0
 40
2.799999999999999
100
AcDbArc
 50
90.0
 51
180.0
  0
ARC
  5
15FA
330
19
100
AcDbEntity
  8
ZUWAKU
100
AcDbCircle
 10
79.88442432311831
 20
68.0999998682886
 30
0.0
 40
8.399999999999998
100
AcDbArc
 50
90.0
 51
180.0
  0
LINE
  5
15FB
330
19
100
AcDbEntity
  8
ZUWAKU
100
AcDbLine
 10
188.6532591095324
 20
89.99999986828868
 30
0.0
 11
188.6532591095328
 21
31.59999986828882
 31
0.0
  0
LINE
  5
15FC
330
19
100
AcDbEntity
  8
ZUWAKU
100
AcDbLine
 10
189.0532591095325
 20
89.99999986828868
 30
0.0
 11
189.0532591095329
 21
31.59999986828882
 31
0.0
  0
LINE
  5
15FD
330
19
100
AcDbEntity
  8
ZUWAKU
100
AcDbLine
 10
188.2532591095327
 20
89.99999986828868
 30
0.0
 11
188.2532591095327
 21
31.59999986828882
 31
0.0
  0
LINE
  5
15FE
330
19
100
AcDbEntity
  8
ZUWAKU
100
AcDbLine
 10
158.2844243231184
 20
49.89999986828869
 30
0.0
 11
158.2844243231184
 21
75.44999986828869
 31
0.0
  0
LINE
  5
15FF
330
19
100
AcDbEntity
  8
ZUWAKU
100
AcDbLine
 10
152.6844243231182
 20
75.44999986828869
 30
0.0
 11
152.6844243231182
 21
51.99999986828868
 31
0.0
  0
LINE
  5
1600
330
19
100
AcDbEntity
  8
ZUWAKU
100
AcDbLine
 10
168.0844243231183
 20
45.34999986828869
 30
0.0
 11
168.0844243231183
 21
75.44999986828869
 31
0.0
  0
LINE
  5
1601
330
19
100
AcDbEntity
  8
ZUWAKU
100
AcDbLine
 10
162.4844243231182
 20
75.44999986828869
 30
0.0
 11
162.4844243231182
 21
45.34999986828869
 31
0.0
  0
ARC
  5
1602
330
19
100
AcDbEntity
  8
ZUWAKU
100
AcDbCircle
 10
129.5844243231183
 20
67.26959581757809
 30
0.0
 40
2.799999999999999
100
AcDbArc
 50
180.0000000000016
 51
224.9999999999988
  0
ARC
  5
1603
330
19
100
AcDbEntity
  8
ZUWAKU
100
AcDbCircle
 10
129.5844243231183
 20
67.26959581757809
 30
0.0
 40
8.399999999999998
100
AcDbArc
 50
180.0
 51
225.0
  0
LINE
  5
1604
330
19
100
AcDbEntity
  8
ZUWAKU
100
AcDbLine
 10
104.6297172874742
 20
68.41009425541554
 30
0.0
 11
102.1002137968025
 21
60.39999986828873
 31
0.0
  0
LINE
  5
1605
330
19
100
AcDbEntity
  8
ZUWAKU
100
AcDbLine
 10
111.3844243231183
 20
75.44999986828869
 30
0.0
 11
111.3844243231183
 21
45.34999986828869
 31
0.0
  0
LINE
  5
1606
330
19
100
AcDbEntity
  8
ZUWAKU
100
AcDbLine
 10
116.9844243231182
 20
45.34999986828869
 30
0.0
 11
116.9844243231182
 21
75.44999986828869
 31
0.0
  0
LINE
  5
1607
330
19
100
AcDbEntity
  8
ZUWAKU
100
AcDbLine
 10
140.0844243231183
 20
75.44999986828869
 30
0.0
 11
140.0844243231183
 21
49.89999986828869
 31
0.0
  0
LINE
  5
1608
330
19
100
AcDbEntity
  8
ZUWAKU
100
AcDbLine
 10
145.6844243231182
 20
51.99999986828868
 30
0.0
 11
145.6844243231182
 21
75.44999986828869
 31
0.0
  0
LINE
  5
1609
330
19
100
AcDbEntity
  8
ZUWAKU
100
AcDbLine
 10
95.28442432311839
 20
64.24999986828869
 30
0.0
 11
95.28442432311839
 21
75.44999986828869
 31
0.0
  0
LINE
  5
160A
330
19
100
AcDbEntity
  8
ZUWAKU
100
AcDbLine
 10
89.68442432311826
 20
75.44999986828869
 30
0.0
 11
89.68442432311826
 21
45.34999986828869
 31
0.0
  0
LINE
  5
160B
330
19
100
AcDbEntity
  8
ZUWAKU
100
AcDbLine
 10
101.3526941977499
 20
75.76618780462263
 30
0.0
 11
97.61615444848644
 21
63.93381193195475
 31
0.0
  0
LINE
  5
160C
330
19
100
AcDbEntity
  8
ZUWAKU
100
AcDbLine
 10
150.5844243231183
 20
49.89999986828869
 30
0.0
 11
147.7844243231183
 21
49.89999986828869
 31
0.0
  0
LINE
  5
160D
330
19
100
AcDbEntity
  8
ZUWAKU
100
AcDbLine
 10
145.6844243231182
 20
44.29999986828869
 30
0.0
 11
152.6844243231182
 21
44.29999986828869
 31
0.0
  0
LINE
  5
160E
330
19
100
AcDbEntity
  8
ZUWAKU
100
AcDbLine
 10
112.4344243231182
 20
44.29999986828869
 30
0.0
 11
115.9344243231182
 21
44.29999986828869
 31
0.0
  0
LINE
  5
160F
330
19
100
AcDbEntity
  8
ZUWAKU
100
AcDbLine
 10
101.3526941977499
 20
45.03381193195474
 30
0.0
 11
97.61615444848644
 21
56.86618780462262
 31
0.0
  0
ARC
  5
1610
330
19
100
AcDbEntity
  8
ZUWAKU
100
AcDbCircle
 10
96.61489265009572
 20
64.24999986828869
 30
0.0
 40
1.049999999999999
100
AcDbArc
 50
270.0
 51
342.4744316262769
  0
LINE
  5
1611
330
19
100
AcDbEntity
  8
ZUWAKU
100
AcDbLine
 10
96.61489265009572
 20
63.19999986828868
 30
0.0
 11
96.33442432311836
 21
63.19999986828868
 31
0.0
  0
LINE
  5
1612
330
19
100
AcDbEntity
  8
ZUWAKU
100
AcDbLine
 10
96.33442432311836
 20
57.59999986828869
 30
0.0
 11
96.61489265009572
 21
57.59999986828869
 31
0.0
  0
ARC
  5
1613
330
19
100
AcDbEntity
  8
ZUWAKU
100
AcDbCircle
 10
96.33442432311836
 20
64.24999986828869
 30
0.0
 40
1.049999999999999
100
AcDbArc
 50
180.0
 51
270.0
  0
LINE
  5
1614
330
19
100
AcDbEntity
  8
ZUWAKU
100
AcDbLine
 10
90.73442432311821
 20
44.29999986828869
 30
0.0
 11
94.23442432311821
 21
44.29999986828869
 31
0.0
  0
ARC
  5
1615
330
19
100
AcDbEntity
  8
ZUWAKU
100
AcDbCircle
 10
94.23442432311821
 20
45.34999986828869
 30
0.0
 40
1.049999999999999
100
AcDbArc
 50
270.0
 51
0.0
  0
LINE
  5
1616
330
19
100
AcDbEntity
  8
ZUWAKU
100
AcDbLine
 10
95.28442432311839
 20
45.34999986828869
 30
0.0
 11
95.28442432311839
 21
56.54999986828869
 31
0.0
  0
LINE
  5
1617
330
19
100
AcDbEntity
  8
ZUWAKU
100
AcDbLine
 10
84.7844243231184
 20
48.84999986828869
 30
0.0
 11
84.7844243231184
 21
45.34999986828869
 31
0.0
  0
ARC
  5
1618
330
19
100
AcDbEntity
  8
ZUWAKU
100
AcDbCircle
 10
83.73442432311822
 20
45.34999986828869
 30
0.0
 40
1.049999999999999
100
AcDbArc
 50
270.0
 51
0.0
  0
ARC
  5
1619
330
19
100
AcDbEntity
  8
ZUWAKU
100
AcDbCircle
 10
83.73442432311822
 20
48.84999986828869
 30
0.0
 40
1.049999999999999
100
AcDbArc
 50
0.0
 51
90.0
  0
ARC
  5
161A
330
19
100
AcDbEntity
  8
ZUWAKU
100
AcDbCircle
 10
90.73442432311821
 20
45.34999986828869
 30
0.0
 40
1.049999999999999
100
AcDbArc
 50
180.0
 51
270.0
  0
ARC
  5
161B
330
19
100
AcDbEntity
  8
ZUWAKU
100
AcDbCircle
 10
96.61489265009572
 20
56.54999986828869
 30
0.0
 40
1.049999999999999
100
AcDbArc
 50
17.52556837372303
 51
90.0
  0
ARC
  5
161C
330
19
100
AcDbEntity
  8
ZUWAKU
100
AcDbCircle
 10
96.33442432311836
 20
56.54999986828869
 30
0.0
 40
1.049999999999999
100
AcDbArc
 50
90.0
 51
180.0
  0
ARC
  5
161D
330
19
100
AcDbEntity
  8
ZUWAKU
100
AcDbCircle
 10
112.4344243231182
 20
45.34999986828869
 30
0.0
 40
1.049999999999999
100
AcDbArc
 50
180.0
 51
270.0
  0
LINE
  5
161E
330
19
100
AcDbEntity
  8
ZUWAKU
100
AcDbLine
 10
102.3539559961409
 20
44.29999986828869
 30
0.0
 11
105.7517347553589
 21
44.29999986828869
 31
0.0
  0
ARC
  5
161F
330
19
100
AcDbEntity
  8
ZUWAKU
100
AcDbCircle
 10
105.7517347553589
 20
45.34999986828869
 30
0.0
 40
1.049999999999999
100
AcDbArc
 50
270.0
 51
17.52556837372303
  0
LINE
  5
1620
330
19
100
AcDbEntity
  8
ZUWAKU
100
AcDbLine
 10
106.7529965537498
 20
45.66618780462263
 30
0.0
 11
102.1002137968025
 21
60.39999986828873
 31
0.0
  0
ARC
  5
1621
330
19
100
AcDbEntity
  8
ZUWAKU
100
AcDbCircle
 10
102.3539559961409
 20
45.34999986828869
 30
0.0
 40
1.049999999999999
100
AcDbArc
 50
197.525568373723
 51
270.0
  0
ARC
  5
1622
330
19
100
AcDbEntity
  8
ZUWAKU
100
AcDbCircle
 10
145.6844243231182
 20
49.89999986828869
 30
0.0
 40
5.599999999999999
100
AcDbArc
 50
180.0
 51
270.0
  0
ARC
  5
1623
330
19
100
AcDbEntity
  8
ZUWAKU
100
AcDbCircle
 10
130.2844243231183
 20
49.89999986828869
 30
0.0
 40
5.599999999999999
100
AcDbArc
 50
270.0
 51
0.0
  0
LINE
  5
1624
330
19
100
AcDbEntity
  8
ZUWAKU
100
AcDbLine
 10
133.4241212850854
 20
59.47010088096634
 30
0.0
 11
127.6045253357958
 21
65.28969683025569
 31
0.0
  0
LINE
  5
1625
330
19
100
AcDbEntity
  8
ZUWAKU
100
AcDbLine
 10
130.2844243231183
 20
50.9499998682887
 30
0.0
 11
130.2844243231183
 21
53.53040391899938
 31
0.0
  0
ARC
  5
1626
330
19
100
AcDbEntity
  8
ZUWAKU
100
AcDbCircle
 10
127.4844243231182
 20
53.53040391899938
 30
0.0
 40
2.799999999999999
100
AcDbArc
 50
0.0
 51
45.0
  0
ARC
  5
1627
330
19
100
AcDbEntity
  8
ZUWAKU
100
AcDbCircle
 10
129.2344243231182
 20
50.9499998682887
 30
0.0
 40
1.049999999999999
100
AcDbArc
 50
270.0
 51
0.0
  0
LINE
  5
1628
330
19
100
AcDbEntity
  8
ZUWAKU
100
AcDbLine
 10
122.2344243231182
 20
45.34999986828869
 30
0.0
 11
122.2344243231182
 21
48.84999986828869
 31
0.0
  0
ARC
  5
1629
330
19
100
AcDbEntity
  8
ZUWAKU
100
AcDbCircle
 10
123.2844243231184
 20
45.34999986828869
 30
0.0
 40
1.049999999999999
100
AcDbArc
 50
180.0
 51
270.0
  0
ARC
  5
162A
330
19
100
AcDbEntity
  8
ZUWAKU
100
AcDbCircle
 10
115.9344243231182
 20
45.34999986828869
 30
0.0
 40
1.049999999999999
100
AcDbArc
 50
270.0
 51
0.0
  0
ARC
  5
162B
330
19
100
AcDbEntity
  8
ZUWAKU
100
AcDbCircle
 10
123.2844243231184
 20
48.84999986828869
 30
0.0
 40
1.049999999999999
100
AcDbArc
 50
90.0
 51
180.0
  0
LINE
  5
162C
330
19
100
AcDbEntity
  8
ZUWAKU
100
AcDbLine
 10
123.2844243231184
 20
49.89999986828869
 30
0.0
 11
129.2344243231182
 21
49.89999986828869
 31
0.0
  0
LINE
  5
162D
330
19
100
AcDbEntity
  8
ZUWAKU
100
AcDbLine
 10
123.2844243231184
 20
44.29999986828869
 30
0.0
 11
130.2844243231183
 21
44.29999986828869
 31
0.0
  0
LINE
  5
162E
330
19
100
AcDbEntity
  8
ZUWAKU
100
AcDbLine
 10
123.6447273611513
 20
61.32989885561105
 30
0.0
 11
129.4643233104407
 21
55.51030290632173
 31
0.0
  0
LINE
  5
162F
330
19
100
AcDbEntity
  8
ZUWAKU
100
AcDbLine
 10
135.8844243231183
 20
49.89999986828869
 30
0.0
 11
135.8844243231183
 21
53.53040391899938
 31
0.0
  0
ARC
  5
1630
330
19
100
AcDbEntity
  8
ZUWAKU
100
AcDbCircle
 10
127.4844243231182
 20
53.5304039189993
 30
0.0
 40
8.399999999999998
100
AcDbArc
 50
0.0
 51
45.0
  0
ARC
  5
1631
330
19
100
AcDbEntity
  8
ZUWAKU
100
AcDbCircle
 10
147.7844243231183
 20
51.99999986828868
 30
0.0
 40
2.099999999999999
100
AcDbArc
 50
180.0
 51
270.0
  0
ARC
  5
1632
330
19
100
AcDbEntity
  8
ZUWAKU
100
AcDbCircle
 10
152.6844243231182
 20
49.89999986828869
 30
0.0
 40
5.599999999999999
100
AcDbArc
 50
270.0
 51
0.0
  0
LINE
  5
1633
330
19
100
AcDbEntity
  8
ZUWAKU
100
AcDbLine
 10
163.5344243231183
 20
44.29999986828869
 30
0.0
 11
167.0344243231184
 21
44.29999986828869
 31
0.0
  0
ARC
  5
1634
330
19
100
AcDbEntity
  8
ZUWAKU
100
AcDbCircle
 10
163.5344243231183
 20
45.34999986828869
 30
0.0
 40
1.049999999999999
100
AcDbArc
 50
180.0
 51
270.0
  0
ARC
  5
1635
330
19
100
AcDbEntity
  8
ZUWAKU
100
AcDbCircle
 10
150.5844243231183
 20
51.99999986828868
 30
0.0
 40
2.099999999999999
100
AcDbArc
 50
270.0
 51
0.0
  0
ARC
  5
1636
330
19
100
AcDbEntity
  8
ZUWAKU
100
AcDbCircle
 10
167.0344243231184
 20
45.34999986828869
 30
0.0
 40
1.049999999999999
100
AcDbArc
 50
270.0
 51
0.0
  0
LINE
  5
1637
330
19
100
AcDbEntity
  8
ZUWAKU
100
AcDbLine
 10
115.9344243231182
 20
76.4999998682887
 30
0.0
 11
112.4344243231182
 21
76.4999998682887
 31
0.0
  0
ARC
  5
1638
330
19
100
AcDbEntity
  8
ZUWAKU
100
AcDbCircle
 10
94.23442432311821
 20
75.44999986828869
 30
0.0
 40
1.049999999999999
100
AcDbArc
 50
0.0
 51
90.0
  0
LINE
  5
1639
330
19
100
AcDbEntity
  8
ZUWAKU
100
AcDbLine
 10
94.23442432311821
 20
76.4999998682887
 30
0.0
 11
90.73442432311821
 21
76.4999998682887
 31
0.0
  0
ARC
  5
163A
330
19
100
AcDbEntity
  8
ZUWAKU
100
AcDbCircle
 10
83.73442432311822
 20
75.44999986828869
 30
0.0
 40
1.049999999999999
100
AcDbArc
 50
0.0
 51
90.0
  0
ARC
  5
163B
330
19
100
AcDbEntity
  8
ZUWAKU
100
AcDbCircle
 10
90.73442432311821
 20
75.44999986828869
 30
0.0
 40
1.049999999999999
100
AcDbArc
 50
90.0
 51
180.0
  0
ARC
  5
163C
330
19
100
AcDbEntity
  8
ZUWAKU
100
AcDbCircle
 10
83.73442432311822
 20
71.94999986828868
 30
0.0
 40
1.049999999999999
100
AcDbArc
 50
270.0
 51
0.0
  0
LINE
  5
163D
330
19
100
AcDbEntity
  8
ZUWAKU
100
AcDbLine
 10
84.7844243231184
 20
75.44999986828869
 30
0.0
 11
84.7844243231184
 21
71.94999986828868
 31
0.0
  0
ARC
  5
163E
330
19
100
AcDbEntity
  8
ZUWAKU
100
AcDbCircle
 10
112.4344243231182
 20
75.44999986828869
 30
0.0
 40
1.049999999999999
100
AcDbArc
 50
90.0
 51
180.0
  0
LINE
  5
163F
330
19
100
AcDbEntity
  8
ZUWAKU
100
AcDbLine
 10
102.3539559961409
 20
76.4999998682887
 30
0.0
 11
105.7517347553589
 21
76.4999998682887
 31
0.0
  0
ARC
  5
1640
330
19
100
AcDbEntity
  8
ZUWAKU
100
AcDbCircle
 10
105.7517347553589
 20
75.44999986828869
 30
0.0
 40
1.049999999999999
100
AcDbArc
 50
342.4744316262769
 51
90.0
  0
LINE
  5
1641
330
19
100
AcDbEntity
  8
ZUWAKU
100
AcDbLine
 10
106.7529965537498
 20
75.13381193195475
 30
0.0
 11
104.6297172874742
 21
68.41009425541554
 31
0.0
  0
ARC
  5
1642
330
19
100
AcDbEntity
  8
ZUWAKU
100
AcDbCircle
 10
102.3539559961409
 20
75.44999986828869
 30
0.0
 40
1.049999999999999
100
AcDbArc
 50
90.0
 51
162.4744316262769
  0
LINE
  5
1643
330
19
100
AcDbEntity
  8
ZUWAKU
100
AcDbLine
 10
126.7844243231184
 20
76.4999998682887
 30
0.0
 11
133.7844243231184
 21
76.4999998682887
 31
0.0
  0
LINE
  5
1644
330
19
100
AcDbEntity
  8
ZUWAKU
100
AcDbLine
 10
133.7844243231184
 20
70.89999986828869
 30
0.0
 11
127.8344243231183
 21
70.89999986828869
 31
0.0
  0
ARC
  5
1645
330
19
100
AcDbEntity
  8
ZUWAKU
100
AcDbCircle
 10
127.8344243231183
 20
69.84999986828869
 30
0.0
 40
1.049999999999999
100
AcDbArc
 50
90.0
 51
180.0
  0
LINE
  5
1646
330
19
100
AcDbEntity
  8
ZUWAKU
100
AcDbLine
 10
126.7844243231184
 20
69.84999986828869
 30
0.0
 11
126.7844243231184
 21
67.269595817578
 31
0.0
  0
ARC
  5
1647
330
19
100
AcDbEntity
  8
ZUWAKU
100
AcDbCircle
 10
115.9344243231182
 20
75.44999986828869
 30
0.0
 40
1.049999999999999
100
AcDbArc
 50
0.0
 51
90.0
  0
LINE
  5
1648
330
19
100
AcDbEntity
  8
ZUWAKU
100
AcDbLine
 10
121.1844243231182
 20
70.89999986828869
 30
0.0
 11
121.1844243231182
 21
67.269595817578
 31
0.0
  0
ARC
  5
1649
330
19
100
AcDbEntity
  8
ZUWAKU
100
AcDbCircle
 10
126.7844243231184
 20
70.89999986828869
 30
0.0
 40
5.599999999999999
100
AcDbArc
 50
90.0
 51
180.0
  0
ARC
  5
164A
330
19
100
AcDbEntity
  8
ZUWAKU
100
AcDbCircle
 10
144.6344243231183
 20
75.44999986828869
 30
0.0
 40
1.049999999999999
100
AcDbArc
 50
0.0
 51
90.0
  0
ARC
  5
164B
330
19
100
AcDbEntity
  8
ZUWAKU
100
AcDbCircle
 10
141.1344243231183
 20
75.44999986828869
 30
0.0
 40
1.049999999999999
100
AcDbArc
 50
90.0
 51
180.0
  0
LINE
  5
164C
330
19
100
AcDbEntity
  8
ZUWAKU
100
AcDbLine
 10
144.6344243231183
 20
76.4999998682887
 30
0.0
 11
141.1344243231183
 21
76.4999998682887
 31
0.0
  0
ARC
  5
164D
330
19
100
AcDbEntity
  8
ZUWAKU
100
AcDbCircle
 10
133.7844243231184
 20
75.44999986828869
 30
0.0
 40
1.049999999999999
100
AcDbArc
 50
0.0
 51
90.0
  0
ARC
  5
164E
330
19
100
AcDbEntity
  8
ZUWAKU
100
AcDbCircle
 10
133.7844243231184
 20
71.94999986828868
 30
0.0
 40
1.049999999999999
100
AcDbArc
 50
270.0
 51
0.0
  0
LINE
  5
164F
330
19
100
AcDbEntity
  8
ZUWAKU
100
AcDbLine
 10
134.8344243231183
 20
75.44999986828869
 30
0.0
 11
134.8344243231183
 21
71.94999986828868
 31
0.0
  0
LINE
  5
1650
330
19
100
AcDbEntity
  8
ZUWAKU
100
AcDbLine
 10
167.0344243231184
 20
76.4999998682887
 30
0.0
 11
163.5344243231183
 21
76.4999998682887
 31
0.0
  0
ARC
  5
1651
330
19
100
AcDbEntity
  8
ZUWAKU
100
AcDbCircle
 10
163.5344243231183
 20
75.44999986828869
 30
0.0
 40
1.049999999999999
100
AcDbArc
 50
90.0
 51
180.0
  0
ARC
  5
1652
330
19
100
AcDbEntity
  8
ZUWAKU
100
AcDbCircle
 10
157.2344243231182
 20
75.44999986828869
 30
0.0
 40
1.049999999999999
100
AcDbArc
 50
0.0
 51
90.0
  0
LINE
  5
1653
330
19
100
AcDbEntity
  8
ZUWAKU
100
AcDbLine
 10
157.2344243231182
 20
76.4999998682887
 30
0.0
 11
153.7344243231182
 21
76.4999998682887
 31
0.0
  0
ARC
  5
1654
330
19
100
AcDbEntity
  8
ZUWAKU
100
AcDbCircle
 10
153.7344243231182
 20
75.44999986828869
 30
0.0
 40
1.049999999999999
100
AcDbArc
 50
90.0
 51
180.0
  0
ARC
  5
1655
330
19
100
AcDbEntity
  8
ZUWAKU
100
AcDbCircle
 10
167.0344243231184
 20
75.44999986828869
 30
0.0
 40
1.049999999999999
100
AcDbArc
 50
0.0
 51
90.0
  0
TEXT
  5
1657
330
19
100
AcDbEntity
  8
MOJI
100
AcDbText
 10
509.6544053752581
 20
36.40984198310352
 30
0.0
 40
11.19999999999999
  1
Ｖ５００
 41
0.9
  7
ｽﾀｲﾙ1
100
AcDbText
  0
LINE
  5
1658
330
19
100
AcDbEntity
  8
ZUWAKU
100
AcDbLine
 10
446.4932025936918
 20
89.99999986828868
 30
0.0
 11
446.4932025936918
 21
31.59999986828882
 31
0.0
  0
LINE
  5
1659
330
19
100
AcDbEntity
  8
ZUWAKU
100
AcDbLine
 10
447.2932025936915
 20
89.99999986828868
 30
0.0
 11
447.293202593692
 21
31.59999986828882
 31
0.0
  0
LINE
  5
165A
330
19
100
AcDbEntity
  8
ZUWAKU
100
AcDbLine
 10
446.8932025936915
 20
89.99999986828868
 30
0.0
 11
446.8932025936919
 21
31.59999986828882
 31
0.0
  0
TEXT
  5
165B
330
19
100
AcDbEntity
  8
ZUWAKU
100
AcDbText
 10
449.4480926381111
 20
49.31071294505992
 30
0.0
 40
8.0
  1
サイズ
 41
0.9
  7
ｽﾀｲﾙ1
100
AcDbText
  0
TEXT
  5
165C
330
19
100
AcDbEntity
  8
ZUWAKU
100
AcDbText
 10
449.4480926381107
 20
78.11071294505985
 30
0.0
 40
8.0
  1
品名
 41
0.9
  7
ｽﾀｲﾙ1
100
AcDbText
  0
LINE
  5
165D
330
19
100
AcDbEntity
  8
ZUWAKU
100
AcDbLine
 10
1327.634405033964
 20
60.39999986828874
 30
0.0
 11
1424.498021110638
 21
60.39999986828875
 31
0.0
  0
LINE
  5
165E
330
19
100
AcDbEntity
  8
ZUWAKU
100
AcDbLine
 10
1327.634405033965
 20
60.79999986828876
 30
0.0
 11
1424.498021110638
 21
60.79999986828875
 31
0.0
  0
LINE
  5
165F
330
19
100
AcDbEntity
  8
ZUWAKU
100
AcDbLine
 10
1327.634405033964
 20
61.19999986828875
 30
0.0
 11
1424.498021110638
 21
61.19999986828875
 31
0.0
  0
TEXT
  5
1660
330
19
100
AcDbEntity
  8
ZUWAKU
100
AcDbText
 10
1346.40787538816
 20
66.00984198310346
 30
0.0
 40
11.19999999999999
  1
　　．　　．　　
 41
0.9
  7
ｽﾀｲﾙ1
100
AcDbText
  0
LINE
  5
1661
330
19
100
AcDbEntity
  8
ZUWAKU
100
AcDbLine
 10
1040.398359009837
 20
60.39999986828876
 30
0.0
 11
1135.05391154578
 21
60.39999986828876
 31
0.0
  0
LINE
  5
1662
330
19
100
AcDbEntity
  8
ZUWAKU
100
AcDbLine
 10
1040.398359009837
 20
60.79999986828875
 30
0.0
 11
1135.05391154578
 21
60.79999986828875
 31
0.0
  0
LINE
  5
1663
330
19
100
AcDbEntity
  8
ZUWAKU
100
AcDbLine
 10
1040.398359009837
 20
61.19999986828875
 30
0.0
 11
1135.05391154578
 21
61.19999986828875
 31
0.0
  0
LINE
  5
1665
330
19
100
AcDbEntity
  8
ZUWAKU
100
AcDbLine
 10
925.2487279555385
 20
89.99999986828868
 30
0.0
 11
925.2487279555388
 21
31.59999986828882
 31
0.0
  0
LINE
  5
1666
330
19
100
AcDbEntity
  8
ZUWAKU
100
AcDbLine
 10
925.6487279555384
 20
89.99999986828868
 30
0.0
 11
925.648727955539
 21
31.59999986828882
 31
0.0
  0
LINE
  5
1667
330
19
100
AcDbEntity
  8
ZUWAKU
100
AcDbLine
 10
924.8487279555389
 20
89.99999986828868
 30
0.0
 11
924.8487279555389
 21
31.59999986828882
 31
0.0
  0
TEXT
  5
1668
330
19
100
AcDbEntity
  8
MOJI
100
AcDbText
 10
1086.081815958181
 20
66.00984198310346
 30
0.0
 40
11.19999999999999
  1
Ａ３
 41
0.9
  7
ｽﾀｲﾙ1
100
AcDbText
  0
LINE
  5
1669
330
19
100
AcDbEntity
  8
ZUWAKU
100
AcDbLine
 10
1039.998359009837
 20
89.99999986828868
 30
0.0
 11
1039.998359009838
 21
31.59999986828882
 31
0.0
  0
LINE
  5
166A
330
19
100
AcDbEntity
  8
ZUWAKU
100
AcDbLine
 10
1040.398359009837
 20
89.99999986828868
 30
0.0
 11
1040.398359009838
 21
31.59999986828882
 31
0.0
  0
LINE
  5
166B
330
19
100
AcDbEntity
  8
ZUWAKU
100
AcDbLine
 10
1039.598359009838
 20
89.99999986828868
 30
0.0
 11
1039.598359009838
 21
31.59999986828882
 31
0.0
  0
TEXT
  5
166D
330
19
100
AcDbEntity
  8
ZUWAKU
100
AcDbText
 10
1043.353249054257
 20
49.31071294505992
 30
0.0
 40
8.0
  1
縮尺
 41
0.9
  7
ｽﾀｲﾙ1
100
AcDbText
  0
TEXT
  5
166E
330
19
100
AcDbEntity
  8
MOJI
100
AcDbText
 10
1086.081815958181
 20
36.40984198310352
 30
0.0
 40
11.19999999999999
  1
１/４
 41
0.9
  7
ｽﾀｲﾙ1
100
AcDbText
  0
TEXT
  5
166F
330
19
100
AcDbEntity
  8
ZUWAKU
100
AcDbText
 10
928.6036179999578
 20
78.11071294505985
 30
0.0
 40
8.0
  1
品番
 41
0.9
  7
ｽﾀｲﾙ1
100
AcDbText
  0
TEXT
  5
1670
330
19
100
AcDbEntity
  8
ZUWAKU
100
AcDbText
 10
1043.353249054257
 20
78.11071294505985
 30
0.0
 40
8.0
  1
用紙
 41
0.9
  7
ｽﾀｲﾙ1
100
AcDbText
  0
LINE
  5
1671
330
19
100
AcDbEntity
  8
ZUWAKU
100
AcDbLine
 10
1327.234405033964
 20
89.99999986828868
 30
0.0
 11
1327.234405033965
 21
31.59999986828882
 31
0.0
  0
LINE
  5
1672
330
19
100
AcDbEntity
  8
ZUWAKU
100
AcDbLine
 10
1327.634405033965
 20
89.99999986828868
 30
0.0
 11
1327.634405033965
 21
31.59999986828882
 31
0.0
  0
LINE
  5
1673
330
19
100
AcDbEntity
  8
ZUWAKU
100
AcDbLine
 10
1326.834405033965
 20
89.99999986828868
 30
0.0
 11
1326.834405033965
 21
31.59999986828882
 31
0.0
  0
LINE
  5
1674
330
19
100
AcDbEntity
  8
ZUWAKU
100
AcDbLine
 10
1135.45391154578
 20
89.99999986828868
 30
0.0
 11
1135.45391154578
 21
31.59999986828882
 31
0.0
  0
LINE
  5
1675
330
19
100
AcDbEntity
  8
ZUWAKU
100
AcDbLine
 10
1135.85391154578
 20
89.99999986828868
 30
0.0
 11
1135.853911545781
 21
31.59999986828882
 31
0.0
  0
LINE
  5
1676
330
19
100
AcDbEntity
  8
ZUWAKU
100
AcDbLine
 10
1135.05391154578
 20
89.99999986828868
 30
0.0
 11
1135.05391154578
 21
31.59999986828882
 31
0.0
  0
TEXT
  5
1677
330
19
100
AcDbEntity
  8
ZUWAKU
100
AcDbText
 10
1330.589295078384
 20
78.11071294505985
 30
0.0
 40
8.0
  1
DATE
 41
0.9
  7
ｽﾀｲﾙ1
100
AcDbText
  0
LINE
  5
1678
330
19
100
AcDbEntity
  8
ZUWAKU
100
AcDbLine
 10
1424.498021110638
 20
89.99999986828868
 30
0.0
 11
1424.498021110638
 21
31.59999986828882
 31
0.0
  0
LINE
  5
1679
330
19
100
AcDbEntity
  8
ZUWAKU
100
AcDbLine
 10
1424.898021110638
 20
89.99999986828868
 30
0.0
 11
1424.898021110638
 21
31.59999986828882
 31
0.0
  0
LINE
  5
167A
330
19
100
AcDbEntity
  8
ZUWAKU
100
AcDbLine
 10
1425.298021110638
 20
89.99999986828868
 30
0.0
 11
1425.298021110639
 21
31.59999986828882
 31
0.0
  0
LINE
  5
167B
330
19
100
AcDbEntity
  8
ZUWAKU
100
AcDbLine
 10
1425.698021110638
 20
89.99999986828868
 30
0.0
 11
1425.698021110638
 21
31.59999986828882
 31
0.0
  0
TEXT
  5
167C
330
19
100
AcDbEntity
  8
ZUWAKU
100
AcDbText
 10
1447.056168398043
 20
65.10767853966228
 30
0.0
 40
12.0
  1
積水化学工業株式会社
 41
0.9
  7
ｽﾀｲﾙ1
100
AcDbText
  0
TEXT
  5
167D
330
19
100
AcDbEntity
  8
ZUWAKU
100
AcDbText
 10
1447.056168398043
 20
43.29768049599681
 30
0.0
 40
12.0
  1
建材事業部
 41
0.9
  7
ｽﾀｲﾙ1
100
AcDbText
  0
DIMENSION
  5
2022
330
19
100
AcDbEntity
  8
SUNPOU
  6
CONTINUOUS
100
AcDbDimension
  2
*D5
 10
564.3082618688277
 20
556.9996316313911
 30
0.0
 11
554.3082618688275
 21
573.5996316313912
 31
0.0
 70
    32
  3
STANDARD
100
AcDbAlignedDimension
 13
515.6015439910238
 23
590.1996316313911
 33
0.0
 14
505.5405439910241
 24
556.9996316313911
 34
0.0
 50
90.0
100
AcDbRotatedDimension
1001
ACAD
1000
DSTYLE
1002
{
1070
   140
1040
12.0
1070
    74
1070
     0
1070
   172
1070
     1
1070
    73
1070
     0
1070
   272
1070
     2
1070
    77
1070
     3
1070
   173
1070
     1
1070
   147
1040
4.0
1070
    42
1040
12.0
1070
    44
1040
6.0
1070
    43
1040
28.0
1070
   271
1070
     0
1070
   178
1070
     4
1070
   177
1070
     4
1070
   176
1070
     4
1070
   141
1040
150.0
1070
     7
1000
_OPEN
1070
     6
1000
_OPEN
1070
    41
1040
14.0
1070
   143
1040
0.03937
1002
}
  0
DIMENSION
  5
2023
330
19
100
AcDbEntity
  8
SUNPOU
  6
CONTINUOUS
100
AcDbDimension
  2
*D6
 10
687.4815439910244
 20
633.0478795705866
 30
0.0
 11
702.4815439910244
 21
643.0478795705867
 31
0.0
 70
    32
  3
STANDARD
100
AcDbAlignedDimension
 13
717.4815439910243
 23
590.1996316313911
 33
0.0
 14
687.4815439910244
 24
589.1996316313911
 34
0.0
100
AcDbRotatedDimension
1001
ACAD
1000
DSTYLE
1002
{
1070
   140
1040
12.0
1070
    74
1070
     0
1070
   172
1070
     1
1070
    73
1070
     0
1070
   272
1070
     2
1070
    77
1070
     3
1070
   173
1070
     1
1070
   147
1040
4.0
1070
    42
1040
12.0
1070
    44
1040
6.0
1070
    43
1040
28.0
1070
   271
1070
     0
1070
   178
1070
     4
1070
   177
1070
     4
1070
   176
1070
     4
1070
   141
1040
150.0
1070
     7
1000
_OPEN
1070
     6
1000
_OPEN
1070
    41
1040
14.0
1070
   143
1040
0.03937
1002
}
  0
DIMENSION
  5
2024
330
19
100
AcDbEntity
  8
SUNPOU
  6
CONTINUOUS
100
AcDbDimension
  2
*D7
 10
254.7054439910241
 20
633.2723100619751
 30
0.0
 11
386.6534939910242
 21
643.272310061975
 31
0.0
 70
    32
  3
STANDARD
100
AcDbAlignedDimension
 13
518.6015439910242
 23
587.1996316313912
 33
0.0
 14
254.7054439910241
 24
562.1996316313912
 34
0.0
100
AcDbRotatedDimension
1001
ACAD
1000
DSTYLE
1002
{
1070
   140
1040
12.0
1070
    74
1070
     0
1070
   172
1070
     1
1070
    73
1070
     0
1070
   272
1070
     2
1070
    77
1070
     3
1070
   173
1070
     1
1070
   147
1040
4.0
1070
    42
1040
12.0
1070
    44
1040
6.0
1070
    43
1040
28.0
1070
   271
1070
     0
1070
   178
1070
     4
1070
   177
1070
     4
1070
   176
1070
     4
1070
   141
1040
150.0
1070
     7
1000
_OPEN
1070
     6
1000
_OPEN
1070
    41
1040
14.0
1070
   143
1040
0.03937
1002
}
  0
LINE
  5
2025
330
19
100
AcDbEntity
  8
NOKITOI
  6
PHANTOM
100
AcDbLine
 10
478.7100637910243
 20
423.5995316313913
 30
0.0
 11
291.281824191024
 21
423.5995316313913
 31
0.0
  0
LINE
  5
2026
330
19
100
AcDbEntity
  8
NOKITOI
  6
PHANTOM
100
AcDbLine
 10
483.2265320910241
 20
421.4995316313913
 30
0.0
 11
286.7656802910241
 21
421.4995316313913
 31
0.0
  0
LINE
  5
2027
330
19
100
AcDbEntity
  8
NOKITOI
  6
PHANTOM
100
AcDbLine
 10
480.968297874363
 20
422.5495316313913
 30
0.0
 11
289.0248486132731
 21
422.5495316313913
 31
0.0
  0
LINE
  5
2028
330
19
100
AcDbEntity
  8
SEIHIN
  6
CONTINUOUS
 62
     3
100
AcDbLine
 10
471.995943991024
 20
427.2995316313912
 30
0.0
 11
297.9959439910242
 21
427.2995316313912
 31
0.0
  0
LINE
  5
2029
330
19
100
AcDbEntity
  8
SEIHIN
  6
CONTINUOUS
 62
     3
100
AcDbLine
 10
288.9122447248889
 20
534.5268767639145
 30
0.0
 11
484.5065625697434
 21
558.3338398241883
 31
0.0
  0
LINE
  5
202A
330
19
100
AcDbEntity
  8
SEIHIN
  6
CONTINUOUS
 62
     3
100
AcDbLine
 10
475.9247032907755
 20
570.3852205984978
 30
0.0
 11
294.3527429188286
 21
548.2849866052399
 31
0.0
  0
LINE
  5
202B
330
19
100
AcDbEntity
  8
SEIHIN
  6
CONTINUOUS
 62
     3
100
AcDbLine
 10
485.6015439910238
 20
590.1996316313911
 30
0.0
 11
280.2054439910241
 21
565.1996316313911
 31
0.0
  0
LINE
  5
202C
330
19
100
AcDbEntity
  8
SEIHIN
  6
CONTINUOUS
 62
     3
100
AcDbLine
 10
484.9960439910241
 20
418.4995316313912
 30
0.0
 11
284.9959439910242
 21
418.4995316313912
 31
0.0
  0
DIMENSION
  5
202D
330
19
100
AcDbEntity
  8
SUNPOU
  6
CONTINUOUS
100
AcDbDimension
  2
*D8
 10
282.3418076926561
 20
370.5368145111505
 30
0.0
 11
384.9959948077813
 21
380.5368145111505
 31
0.0
 70
    32
  3
STANDARD
100
AcDbAlignedDimension
 13
487.6501819229065
 23
418.4995316313912
 33
0.0
 14
282.3418076926561
 24
418.4995316313912
 34
0.0
100
AcDbRotatedDimension
1001
ACAD
1000
DSTYLE
1002
{
1070
   140
1040
12.0
1070
    74
1070
     0
1070
   172
1070
     1
1070
    73
1070
     0
1070
   272
1070
     2
1070
    77
1070
     3
1070
   173
1070
     1
1070
   147
1040
4.0
1070
    42
1040
12.0
1070
    44
1040
6.0
1070
    43
1040
28.0
1070
   271
1070
     0
1070
   178
1070
     4
1070
   177
1070
     4
1070
   176
1070
     4
1070
   141
1040
150.0
1070
     7
1000
_OPEN
1070
     6
1000
_OPEN
1070
    41
1040
14.0
1070
   143
1040
0.03937
1002
}
  0
DIMENSION
  5
202E
330
19
100
AcDbEntity
  8
SUNPOU
  6
CONTINUOUS
100
AcDbDimension
  2
*D9
 10
189.6110517820832
 20
418.4995316313912
 30
0.0
 11
179.6110517820831
 21
491.8495816313913
 31
0.0
 70
    32
  3
STANDARD
100
AcDbAlignedDimension
 13
257.7054439910241
 23
565.1996316313911
 33
0.0
 14
284.9959439910242
 24
418.4995316313912
 34
0.0
 50
90.0
100
AcDbRotatedDimension
1001
ACAD
1000
DSTYLE
1002
{
1070
   140
1040
12.0
1070
    74
1070
     0
1070
   172
1070
     1
1070
    73
1070
     0
1070
   272
1070
     2
1070
    77
1070
     3
1070
   173
1070
     1
1070
   147
1040
4.0
1070
    42
1040
12.0
1070
    44
1040
6.0
1070
    43
1040
28.0
1070
   271
1070
     0
1070
   178
1070
     4
1070
   177
1070
     4
1070
   176
1070
     4
1070
   141
1040
150.0
1070
     7
1000
_OPEN
1070
     6
1000
_OPEN
1070
    41
1040
14.0
1070
   143
1040
0.03937
1002
}
  0
LINE
  5
202F
330
19
100
AcDbEntity
  8
NOKITOI
  6
PHANTOM
100
AcDbLine
 10
270.925025091024
 20
536.4995316313914
 30
0.0
 11
284.234394591024
 21
427.7371303313913
 31
0.0
  0
LINE
  5
2030
330
19
100
AcDbEntity
  8
NOKITOI
  6
PHANTOM
100
AcDbLine
 10
269.981413691024
 20
561.4995316313914
 30
0.0
 11
286.3188455910242
 21
427.9922067313913
 31
0.0
  0
LINE
  5
2031
330
19
100
AcDbEntity
  8
NOKITOI
  6
PHANTOM
100
AcDbLine
 10
271.7625896876397
 20
538.2995316313913
 30
0.0
 11
285.5507636026627
 21
425.6244041927915
 31
0.0
  0
LINE
  5
2032
330
19
100
AcDbEntity
  8
SEIHIN
  6
CONTINUOUS
 62
     3
100
AcDbLine
 10
276.3413316047574
 20
539.5777623367194
 30
0.0
 11
287.1634559281176
 21
451.4385969840553
 31
0.0
  0
DIMENSION
  5
2033
330
19
100
AcDbEntity
  8
SUNPOU
  6
CONTINUOUS
100
AcDbDimension
  2
*D10
 10
227.9539096841006
 20
529.9996316313912
 30
0.0
 11
217.9539096841005
 21
547.5996316313913
 31
0.0
 70
    32
  3
STANDARD
100
AcDbAlignedDimension
 13
257.7054439910241
 23
565.1996316313911
 33
0.0
 14
257.7054439910241
 24
529.9996316313911
 34
0.0
 50
90.0
100
AcDbRotatedDimension
1001
ACAD
1000
DSTYLE
1002
{
1070
   140
1040
12.0
1070
    74
1070
     0
1070
   172
1070
     1
1070
    73
1070
     0
1070
   272
1070
     2
1070
    77
1070
     3
1070
   173
1070
     1
1070
   147
1040
4.0
1070
    42
1040
12.0
1070
    44
1040
6.0
1070
    43
1040
28.0
1070
   271
1070
     0
1070
   178
1070
     4
1070
   177
1070
     4
1070
   176
1070
     4
1070
   141
1040
150.0
1070
     7
1000
_OPEN
1070
     6
1000
_OPEN
1070
    41
1040
14.0
1070
   143
1040
0.03937
1002
}
  0
LINE
  5
2034
330
19
100
AcDbEntity
  8
SEIHIN
  6
CONTINUOUS
 62
     3
100
AcDbLine
 10
282.018343991024
 20
421.1339316313912
 30
0.0
 11
268.759143991024
 21
529.1214316313912
 31
0.0
  0
ARC
  5
2035
330
19
100
AcDbEntity
  8
NOKITOI
  6
PHANTOM
100
AcDbCircle
 10
291.281824191024
 20
428.5995316313913
 30
0.0
 40
5.000000005910891
100
AcDbArc
 50
186.97665826005
 51
270.0
  0
ARC
  5
2036
330
19
100
AcDbEntity
  8
NOKITOI
  6
PHANTOM
100
AcDbCircle
 10
289.0248486132731
 20
426.0495316313913
 30
0.0
 40
3.5
100
AcDbArc
 50
186.9766584184582
 51
270.0
  0
LINE
  5
2037
330
19
100
AcDbEntity
  8
SEIHIN
  6
CONTINUOUS
 62
     3
100
AcDbLine
 10
287.65972900693
 20
450.9995316313911
 30
0.0
 11
297.4959439910239
 21
450.9995316313912
 31
0.0
  0
LINE
  5
2038
330
19
100
AcDbEntity
  8
NOKITOI
  6
PHANTOM
100
AcDbLine
 10
284.234394591024
 20
427.7371303313913
 30
0.0
 11
284.7807892910241
 21
423.2541597313914
 31
0.0
  0
ARC
  5
2039
330
19
100
AcDbEntity
  8
NOKITOI
  6
PHANTOM
100
AcDbCircle
 10
286.7656802910241
 20
423.4995316313913
 30
0.0
 40
1.999999956398826
100
AcDbArc
 50
187.0471421773465
 51
270.0
  0
ARC
  5
203A
330
19
100
AcDbEntity
  8
SEIHIN
  6
CONTINUOUS
 62
     3
100
AcDbCircle
 10
284.9959661147729
 20
421.4995120579302
 30
0.0
 40
2.999980426620533
100
AcDbArc
 50
186.9995147464007
 51
269.9995774647701
  0
ARC
  5
203B
330
19
100
AcDbEntity
  8
SEIHIN
  6
CONTINUOUS
 62
     3
100
AcDbCircle
 10
287.65972900693
 20
451.4995316313912
 30
0.0
 40
0.5
100
AcDbArc
 50
186.999997186817
 51
270.0
  0
LINE
  5
203C
330
19
100
AcDbEntity
  8
SEIHIN
  6
CONTINUOUS
 62
     3
100
AcDbLine
 10
297.4959439910239
 20
450.9995316313911
 30
0.0
 11
297.4959439910242
 21
427.7995316313912
 31
0.0
  0
ARC
  5
203D
330
19
100
AcDbEntity
  8
SEIHIN
  6
CONTINUOUS
 62
     3
100
AcDbCircle
 10
297.9959439910242
 20
427.7995316313912
 30
0.0
 40
0.5
100
AcDbArc
 50
180.0
 51
270.0
  0
ARC
  5
203E
330
19
100
AcDbEntity
  8
SEIHIN
  6
CONTINUOUS
 62
     3
100
AcDbCircle
 10
257.7054439910241
 20
562.1996316313912
 30
0.0
 40
3.000000000000056
100
AcDbArc
 50
90.0
 51
179.9999999999983
  0
ARC
  5
203F
330
19
100
AcDbEntity
  8
SEIHIN
  6
CONTINUOUS
 62
     3
100
AcDbCircle
 10
257.7054439910241
 20
532.9996316313914
 30
0.0
 40
3.000000000000113
100
AcDbArc
 50
180.0
 51
270.0
  0
LINE
  5
2040
330
19
100
AcDbEntity
  8
SEIHIN
  6
CONTINUOUS
 62
     3
100
AcDbLine
 10
254.7054439910241
 20
532.9996316313914
 30
0.0
 11
254.7054439910241
 21
562.1996316313912
 31
0.0
  0
LINE
  5
2041
330
19
100
AcDbEntity
  8
NOKITOI
  6
PHANTOM
100
AcDbLine
 10
260.0814136910241
 20
557.3995316313913
 30
0.0
 11
260.0814136910241
 21
538.5995316313913
 31
0.0
  0
LINE
  5
2042
330
19
100
AcDbEntity
  8
NOKITOI
  6
PHANTOM
100
AcDbLine
 10
259.7814136910242
 20
557.3995316313913
 30
0.0
 11
259.781413691024
 21
538.2995316313913
 31
0.0
  0
LINE
  5
2043
330
19
100
AcDbEntity
  8
NOKITOI
  6
PHANTOM
100
AcDbLine
 10
268.1227279910242
 20
559.3995316313914
 30
0.0
 11
270.668045791024
 21
538.5995316313913
 31
0.0
  0
LINE
  5
2044
330
19
100
AcDbEntity
  8
NOKITOI
  6
PHANTOM
100
AcDbLine
 10
257.981413691024
 20
559.4995316313913
 30
0.0
 11
257.981413691024
 21
536.4995316313914
 31
0.0
  0
LINE
  5
2045
330
19
100
AcDbEntity
  8
SEIHIN
  6
CONTINUOUS
 62
     3
100
AcDbLine
 10
294.3527429188286
 20
548.2849866052399
 30
0.0
 11
280.2054710557147
 21
565.199634925598
 31
0.0
  0
LINE
  5
2046
330
19
100
AcDbEntity
  8
SEIHIN
  6
CONTINUOUS
 62
     3
100
AcDbLine
 10
288.9122447248889
 20
534.5268767639145
 30
0.0
 11
283.899299705208
 21
540.5204155251349
 31
0.0
  0
ARC
  5
2047
330
19
100
AcDbEntity
  8
SEIHIN
  6
CONTINUOUS
 62
     3
100
AcDbCircle
 10
267.7665694201441
 20
528.9996091318974
 30
0.0
 40
1.000022499817016
100
AcDbArc
 50
6.997137671651116
 51
90.00145694846908
  0
LINE
  5
2048
330
19
100
AcDbEntity
  8
SEIHIN
  6
CONTINUOUS
 62
     3
100
AcDbLine
 10
267.766594847787
 20
529.9996316313911
 30
0.0
 11
257.7054439910241
 21
529.9996316313911
 31
0.0
  0
LINE
  5
2049
330
19
100
AcDbEntity
  8
NOKITOI
  6
PHANTOM
100
AcDbLine
 10
259.7814136910242
 20
538.2995316313913
 30
0.0
 11
271.7625896876397
 21
538.2995316313913
 31
0.0
  0
LINE
  5
204A
330
19
100
AcDbEntity
  8
NOKITOI
  6
PHANTOM
100
AcDbLine
 10
260.0814136910241
 20
538.5995316313913
 30
0.0
 11
270.668045791024
 21
538.5995316313913
 31
0.0
  0
LINE
  5
204B
330
19
100
AcDbEntity
  8
NOKITOI
  6
PHANTOM
100
AcDbLine
 10
257.981413691024
 20
536.4995316313914
 30
0.0
 11
270.925025091024
 21
536.4995316313914
 31
0.0
  0
ARC
  5
204C
330
19
100
AcDbEntity
  8
SEIHIN
  6
CONTINUOUS
 62
     3
100
AcDbCircle
 10
283.5157665338724
 20
540.1996316313911
 30
0.0
 40
0.5
100
AcDbArc
 50
39.90882505078834
 51
90.0
  0
LINE
  5
204D
330
19
100
AcDbEntity
  8
SEIHIN
  6
CONTINUOUS
 62
     3
100
AcDbLine
 10
277.3338777623826
 20
540.6996316313912
 30
0.0
 11
283.5157665338724
 21
540.6996316313912
 31
0.0
  0
ARC
  5
204E
330
19
100
AcDbEntity
  8
SEIHIN
  6
CONTINUOUS
 62
     3
100
AcDbCircle
 10
277.3338777623826
 20
539.6996316313911
 30
0.0
 40
1.0
100
AcDbArc
 50
90.0
 51
186.9999971868178
  0
LINE
  5
204F
330
19
100
AcDbEntity
  8
SEIHIN
  6
CONTINUOUS
 62
     3
100
AcDbLine
 10
280.2054439910241
 20
565.1996316313911
 30
0.0
 11
257.7054439910241
 21
565.1996316313911
 31
0.0
  0
LINE
  5
2050
330
19
100
AcDbEntity
  8
NOKITOI
  6
PHANTOM
100
AcDbLine
 10
259.981413691024
 20
561.4995316313914
 30
0.0
 11
269.981413691024
 21
561.4995316313914
 31
0.0
  0
LINE
  5
2051
330
19
100
AcDbEntity
  8
NOKITOI
  6
PHANTOM
100
AcDbLine
 10
262.0814136910242
 20
559.3995316313914
 30
0.0
 11
268.1227279910242
 21
559.3995316313914
 31
0.0
  0
LINE
  5
2052
330
19
100
AcDbEntity
  8
NOKITOI
  6
PHANTOM
100
AcDbLine
 10
262.0814136910242
 20
559.6995316313914
 30
0.0
 11
268.1227279910242
 21
559.6995316313914
 31
0.0
  0
ARC
  5
2053
330
19
100
AcDbEntity
  8
NOKITOI
  6
PHANTOM
100
AcDbCircle
 10
262.0814136910242
 20
557.3995316313913
 30
0.0
 40
2.0
100
AcDbArc
 50
90.0
 51
180.0
  0
ARC
  5
2054
330
19
100
AcDbEntity
  8
NOKITOI
  6
PHANTOM
100
AcDbCircle
 10
262.0814136910242
 20
557.3995316313913
 30
0.0
 40
2.299999999999999
100
AcDbArc
 50
90.0
 51
180.0
  0
ARC
  5
2055
330
19
100
AcDbEntity
  8
NOKITOI
  6
PHANTOM
100
AcDbCircle
 10
259.981413691024
 20
559.4995316313913
 30
0.0
 40
2.0
100
AcDbArc
 50
90.0
 51
180.0
  0
TEXT
  5
2056
330
19
100
AcDbEntity
  8
MOJI
100
AcDbText
 10
510.2544057489821
 20
65.32225255605908
 30
0.0
 40
11.19999999999999
  1
止り（右・左）
 41
0.9
  7
ｽﾀｲﾙ1
100
AcDbText
  0
DIMENSION
  5
205A
330
19
100
AcDbEntity
  8
SUNPOU
  6
CONTINUOUS
100
AcDbDimension
  2
*D11
 10
605.0068659567869
 20
418.4995316313912
 30
0.0
 11
595.0068659567867
 21
504.3495816313912
 31
0.0
 70
    32
  3
STANDARD
100
AcDbAlignedDimension
 13
515.6015439910238
 23
590.1996316313911
 33
0.0
 14
484.9960439910241
 24
418.4995316313912
 34
0.0
 50
90.0
100
AcDbRotatedDimension
1001
ACAD
1000
DSTYLE
1002
{
1070
   140
1040
12.0
1070
    74
1070
     0
1070
   172
1070
     1
1070
    73
1070
     0
1070
   272
1070
     2
1070
    77
1070
     3
1070
   173
1070
     1
1070
   147
1040
4.0
1070
    42
1040
12.0
1070
    44
1040
6.0
1070
    43
1040
28.0
1070
   271
1070
     0
1070
   178
1070
     4
1070
   177
1070
     4
1070
   176
1070
     4
1070
   141
1040
150.0
1070
     7
1000
_OPEN
1070
     6
1000
_OPEN
1070
    41
1040
14.0
1070
   143
1040
0.03937
1002
}
  0
LINE
  5
205B
330
19
100
AcDbEntity
  8
CENTER_L
  6
CENTER
 48
5.0
100
AcDbLine
 10
384.9959439910242
 20
406.4995316313913
 30
0.0
 11
384.9959439910242
 21
438.5995316313914
 31
0.0
  0
TEXT
  5
205C
330
19
100
AcDbEntity
  8
ZUWAKU
  6
CONTINUOUS
 62
     4
100
AcDbText
 10
379.1859537301581
 20
311.5213418197867
 30
0.0
 40
16.0
  1
左
100
AcDbText
  0
LINE
  5
205D
330
19
100
AcDbEntity
  8
NOKITOI
  6
PHANTOM
100
AcDbLine
 10
502.0819470910241
 20
561.7534546313914
 30
0.0
 11
485.211857591024
 21
423.2577003313913
 31
0.0
  0
LINE
  5
205E
330
19
100
AcDbEntity
  8
NOKITOI
  6
PHANTOM
100
AcDbLine
 10
503.0116608910243
 20
586.7534546313914
 30
0.0
 11
483.6733776910241
 21
427.9949532313914
 31
0.0
  0
LINE
  5
205F
330
19
100
AcDbEntity
  8
NOKITOI
  6
PHANTOM
100
AcDbLine
 10
501.2434430479784
 20
563.5534546313913
 30
0.0
 11
484.4426176055448
 21
425.6263267099632
 31
0.0
  0
LINE
  5
2060
330
19
100
AcDbEntity
  8
SEIHIN
  6
CONTINUOUS
 62
     3
100
AcDbLine
 10
482.8285308272734
 20
451.4385974611068
 30
0.0
 11
496.7201575891204
 21
564.5777632908223
 31
0.0
  0
LINE
  5
2061
330
19
100
AcDbEntity
  8
SEIHIN
  6
CONTINUOUS
 62
     3
100
AcDbLine
 10
487.9736439910239
 20
421.1339316313912
 30
0.0
 11
504.5479439910236
 21
556.1214316313912
 31
0.0
  0
ARC
  5
2062
330
19
100
AcDbEntity
  8
NOKITOI
  6
PHANTOM
100
AcDbCircle
 10
483.2265320910241
 20
423.4995316313913
 30
0.0
 40
1.999999964826235
100
AcDbArc
 50
270.0
 51
353.0550494793494
  0
ARC
  5
2063
330
19
100
AcDbEntity
  8
SEIHIN
  6
CONTINUOUS
 62
     3
100
AcDbCircle
 10
484.9960218672754
 20
421.4995120579301
 30
0.0
 40
2.999980426620446
100
AcDbArc
 50
270.0004225352299
 51
353.0004852536009
  0
LINE
  5
2064
330
19
100
AcDbEntity
  8
SEIHIN
  6
CONTINUOUS
 62
     3
100
AcDbLine
 10
472.4959439910239
 20
450.9995316313911
 30
0.0
 11
472.4959439910239
 21
427.7995316313912
 31
0.0
  0
ARC
  5
2065
330
19
100
AcDbEntity
  8
NOKITOI
  6
PHANTOM
100
AcDbCircle
 10
478.7100637910243
 20
428.5995316313913
 30
0.0
 40
4.99999999558399
100
AcDbArc
 50
270.0
 51
353.0550479809272
  0
ARC
  5
2066
330
19
100
AcDbEntity
  8
NOKITOI
  6
PHANTOM
100
AcDbCircle
 10
480.968297874363
 20
426.0495316313913
 30
0.0
 40
3.5
100
AcDbArc
 50
270.0
 51
353.0550473100556
  0
ARC
  5
2067
330
19
100
AcDbEntity
  8
SEIHIN
  6
CONTINUOUS
 62
     3
100
AcDbCircle
 10
471.995943991024
 20
427.7995316313912
 30
0.0
 40
0.5
100
AcDbArc
 50
270.0
 51
0.0
  0
LINE
  5
2068
330
19
100
AcDbEntity
  8
SEIHIN
  6
CONTINUOUS
 62
     3
100
AcDbLine
 10
472.4959439910239
 20
450.9995316313911
 30
0.0
 11
482.3322576898867
 21
450.9995316313911
 31
0.0
  0
ARC
  5
2069
330
19
100
AcDbEntity
  8
SEIHIN
  6
CONTINUOUS
 62
     3
100
AcDbCircle
 10
482.3322576898867
 20
451.4995316313912
 30
0.0
 40
0.5
100
AcDbArc
 50
270.0
 51
353.0000578897823
  0
ARC
  5
206A
330
19
100
AcDbEntity
  8
SEIHIN
  6
CONTINUOUS
 62
     3
100
AcDbCircle
 10
515.6015439910238
 20
587.1996316313912
 30
0.0
 40
3.0
100
AcDbArc
 50
0.0
 51
90.0
  0
ARC
  5
206B
330
19
100
AcDbEntity
  8
SEIHIN
  6
CONTINUOUS
 62
     3
100
AcDbCircle
 10
515.6015439910238
 20
559.9996316313911
 30
0.0
 40
3.000000000000056
100
AcDbArc
 50
270.0
 51
0.0000000000016284
  0
LINE
  5
206C
330
19
100
AcDbEntity
  8
SEIHIN
  6
CONTINUOUS
 62
     3
100
AcDbLine
 10
487.9668856816602
 20
565.4190545024753
 30
0.0
 11
484.5065625697434
 21
558.3338398241883
 31
0.0
  0
LINE
  5
206D
330
19
100
AcDbEntity
  8
SEIHIN
  6
CONTINUOUS
 62
     3
100
AcDbLine
 10
485.6015114475849
 20
590.1996276703325
 30
0.0
 11
475.9247032907755
 21
570.3852205984978
 31
0.0
  0
LINE
  5
206E
330
19
100
AcDbEntity
  8
NOKITOI
  6
PHANTOM
100
AcDbLine
 10
512.911660891024
 20
582.6534546313913
 30
0.0
 11
512.911660891024
 21
563.8534546313913
 31
0.0
  0
LINE
  5
206F
330
19
100
AcDbEntity
  8
NOKITOI
  6
PHANTOM
100
AcDbLine
 10
504.8713830910242
 20
584.6534546313913
 30
0.0
 11
502.3377468910243
 21
563.8534546313913
 31
0.0
  0
LINE
  5
2070
330
19
100
AcDbEntity
  8
NOKITOI
  6
PHANTOM
100
AcDbLine
 10
513.2116608910242
 20
582.6534546313913
 30
0.0
 11
513.2116608910242
 21
563.5534546313913
 31
0.0
  0
LINE
  5
2071
330
19
100
AcDbEntity
  8
NOKITOI
  6
PHANTOM
100
AcDbLine
 10
515.0116608910243
 20
584.7534546313913
 30
0.0
 11
515.0116608910243
 21
561.7534546313914
 31
0.0
  0
LINE
  5
2072
330
19
100
AcDbEntity
  8
NOKITOI
  6
PHANTOM
100
AcDbLine
 10
513.2116608910242
 20
563.5534546313913
 30
0.0
 11
501.2434430479784
 21
563.5534546313913
 31
0.0
  0
ARC
  5
2073
330
19
100
AcDbEntity
  8
SEIHIN
  6
CONTINUOUS
 62
     3
100
AcDbCircle
 10
495.7276113143466
 20
564.6996316313911
 30
0.0
 40
1.0
100
AcDbArc
 50
353.000057889783
 51
90.0
  0
ARC
  5
2074
330
19
100
AcDbEntity
  8
SEIHIN
  6
CONTINUOUS
 62
     3
100
AcDbCircle
 10
488.4161668894189
 20
565.1996316313911
 30
0.0
 40
0.5
100
AcDbArc
 50
90.0
 51
153.9697418824244
  0
LINE
  5
2075
330
19
100
AcDbEntity
  8
SEIHIN
  6
CONTINUOUS
 62
     3
100
AcDbLine
 10
488.4161668894189
 20
565.6996316313912
 30
0.0
 11
495.7276113143466
 21
565.6996316313912
 31
0.0
  0
LINE
  5
2076
330
19
100
AcDbEntity
  8
NOKITOI
  6
PHANTOM
100
AcDbLine
 10
512.911660891024
 20
563.8534546313913
 30
0.0
 11
502.3377468910243
 21
563.8534546313913
 31
0.0
  0
LINE
  5
2077
330
19
100
AcDbEntity
  8
NOKITOI
  6
PHANTOM
100
AcDbLine
 10
515.0116608910243
 20
561.7534546313914
 30
0.0
 11
502.0819470910241
 21
561.7534546313914
 31
0.0
  0
LINE
  5
2078
330
19
100
AcDbEntity
  8
SEIHIN
  6
CONTINUOUS
 62
     3
100
AcDbLine
 10
515.6015439910238
 20
556.9996316313911
 30
0.0
 11
505.5405439910241
 21
556.9996316313911
 31
0.0
  0
ARC
  5
2079
330
19
100
AcDbEntity
  8
SEIHIN
  6
CONTINUOUS
 62
     3
100
AcDbCircle
 10
505.5405185619037
 20
555.9996091318973
 30
0.0
 40
1.000022499817164
100
AcDbArc
 50
89.99854305151787
 51
173.0028623283407
  0
LINE
  5
207A
330
19
100
AcDbEntity
  8
SEIHIN
  6
CONTINUOUS
 62
     3
100
AcDbLine
 10
515.6015439910238
 20
590.1996316313911
 30
0.0
 11
485.6015439910238
 21
590.1996316313911
 31
0.0
  0
LINE
  5
207B
330
19
100
AcDbEntity
  8
NOKITOI
  6
PHANTOM
100
AcDbLine
 10
513.0116608910243
 20
586.7534546313914
 30
0.0
 11
503.0116608910243
 21
586.7534546313914
 31
0.0
  0
LINE
  5
207C
330
19
100
AcDbEntity
  8
NOKITOI
  6
PHANTOM
100
AcDbLine
 10
510.9116608910239
 20
584.9534546313914
 30
0.0
 11
504.8713830910242
 21
584.9534546313914
 31
0.0
  0
LINE
  5
207D
330
19
100
AcDbEntity
  8
NOKITOI
  6
PHANTOM
100
AcDbLine
 10
510.9116608910239
 20
584.6534546313913
 30
0.0
 11
504.8713830910242
 21
584.6534546313913
 31
0.0
  0
ARC
  5
207E
330
19
100
AcDbEntity
  8
NOKITOI
  6
PHANTOM
100
AcDbCircle
 10
510.9116608910239
 20
582.6534546313913
 30
0.0
 40
2.0
100
AcDbArc
 50
0.0
 51
90.0
  0
ARC
  5
207F
330
19
100
AcDbEntity
  8
NOKITOI
  6
PHANTOM
100
AcDbCircle
 10
510.9116608910239
 20
582.6534546313913
 30
0.0
 40
2.299999999999999
100
AcDbArc
 50
0.0
 51
90.0
  0
ARC
  5
2080
330
19
100
AcDbEntity
  8
NOKITOI
  6
PHANTOM
100
AcDbCircle
 10
513.0116608910243
 20
584.7534546313913
 30
0.0
 40
2.0
100
AcDbArc
 50
0.0
 51
90.0
  0
LINE
  5
2081
330
19
100
AcDbEntity
  8
SEIHIN
  6
CONTINUOUS
 62
     3
100
AcDbLine
 10
518.6015439910242
 20
559.9996316313913
 30
0.0
 11
518.6015439910242
 21
587.1996316313912
 31
0.0
  0
LINE
  5
2082
330
19
100
AcDbEntity
  8
SEIHIN
  6
CONTINUOUS
 62
     3
100
AcDbLine
 10
717.4816439910236
 20
590.1996316313911
 30
0.0
 11
688.4815439910243
 21
590.1996316313911
 31
0.0
  0
LINE
  5
2083
330
19
100
AcDbEntity
  8
SEIHIN
  6
CONTINUOUS
100
AcDbLine
 10
687.4815439910244
 20
556.9996316313911
 30
0.0
 11
717.4815634974756
 21
556.9996316313911
 31
0.0
  0
LINE
  5
2084
330
19
100
AcDbEntity
  8
SEIHIN
  6
CONTINUOUS
 62
     3
100
AcDbLine
 10
717.4816439910236
 20
419.9995316313912
 30
0.0
 11
712.4816439910237
 21
418.4995316313912
 31
0.0
  0
LINE
  5
2085
330
19
100
AcDbEntity
  8
SEIHIN
  6
CONTINUOUS
 62
     3
100
AcDbLine
 10
687.4815439910244
 20
419.4995316313912
 30
0.0
 11
687.4815439910244
 21
589.1996316313911
 31
0.0
  0
LINE
  5
2086
330
19
100
AcDbEntity
  8
SEIHIN
  6
CONTINUOUS
 62
     3
100
AcDbLine
 10
712.4816439910237
 20
418.4995316313912
 30
0.0
 11
712.4816439910237
 21
556.9996316313911
 31
0.0
  0
LINE
  5
2087
330
19
100
AcDbEntity
  8
SEIHIN
  6
CONTINUOUS
 62
     3
100
AcDbLine
 10
712.4816439910237
 20
418.4995316313912
 30
0.0
 11
688.4815439910243
 21
418.4995316313912
 31
0.0
  0
ARC
  5
2088
330
19
100
AcDbEntity
  8
SEIHIN
  6
CONTINUOUS
 62
     3
100
AcDbCircle
 10
688.4815439910243
 20
419.4995316313912
 30
0.0
 40
1.0
100
AcDbArc
 50
180.0
 51
270.0
  0
ARC
  5
2089
330
19
100
AcDbEntity
  8
SEIHIN
  6
CONTINUOUS
 62
     3
100
AcDbCircle
 10
688.4815439910243
 20
589.1996316313911
 30
0.0
 40
1.0
100
AcDbArc
 50
90.0
 51
180.0
  0
LINE
  5
208A
330
19
100
AcDbEntity
  8
SEIHIN
  6
CONTINUOUS
 62
     3
100
AcDbLine
 10
717.4816439910236
 20
419.9995316313912
 30
0.0
 11
717.4815439910243
 21
590.1996316313911
 31
0.0
  0
LINE
  5
208B
330
19
100
AcDbEntity
  8
SEIHIN
  6
CONTINUOUS
 62
     3
100
AcDbLine
 10
274.9054439910239
 20
751.5734316313914
 30
0.0
 11
387.1820439910241
 21
751.5734316313914
 31
0.0
  0
LINE
  5
208C
330
19
100
AcDbEntity
  8
SEIHIN
  6
CONTINUOUS
 62
     3
100
AcDbLine
 10
485.6015439910238
 20
741.8734316313912
 30
0.0
 11
280.2054439910241
 21
741.8734316313912
 31
0.0
  0
LINE
  5
208D
330
19
100
AcDbEntity
  8
SEIHIN
  6
CONTINUOUS
 62
     3
100
AcDbLine
 10
498.401543991024
 20
744.5734316313912
 30
0.0
 11
274.9054439910239
 21
744.5734316313912
 31
0.0
  0
LINE
  5
208E
330
19
100
AcDbEntity
  8
SEIHIN
  6
CONTINUOUS
 62
     3
100
AcDbLine
 10
517.6015439910242
 20
736.8734316313911
 30
0.0
 11
255.7053439910241
 21
736.8734316313911
 31
0.0
  0
LINE
  5
208F
330
19
100
AcDbEntity
  8
SEIHIN
  6
CONTINUOUS
 62
     3
100
AcDbLine
 10
518.6015439910242
 20
766.8734316313912
 30
0.0
 11
254.7053439910241
 21
766.8734316313912
 31
0.0
  0
DIMENSION
  5
2090
330
19
100
AcDbEntity
  8
SUNPOU
  6
CONTINUOUS
100
AcDbDimension
  2
*D12
 10
227.7563788482245
 20
744.5734316313913
 30
0.0
 11
217.7563788482244
 21
695.7734316313914
 31
0.0
 70
    32
  1
※<>
  3
STANDARD
100
AcDbAlignedDimension
 13
254.7053439910241
 23
766.8734316313912
 33
0.0
 14
274.9054439910239
 24
744.5734316313912
 34
0.0
 50
90.0
100
AcDbRotatedDimension
1001
ACAD
1000
DSTYLE
1002
{
1070
   140
1040
12.0
1070
    74
1070
     0
1070
   172
1070
     1
1070
    73
1070
     0
1070
   272
1070
     2
1070
    77
1070
     3
1070
   173
1070
     1
1070
   147
1040
4.0
1070
    42
1040
12.0
1070
    44
1040
6.0
1070
    43
1040
28.0
1070
   271
1070
     0
1070
   178
1070
     4
1070
   177
1070
     4
1070
   176
1070
     4
1070
   141
1040
150.0
1070
     7
1000
_OPEN
1070
     6
1000
_OPEN
1070
    41
1040
14.0
1070
   143
1040
0.03937
1002
}
  0
DIMENSION
  5
2091
330
19
100
AcDbEntity
  8
SUNPOU
  6
CONTINUOUS
100
AcDbDimension
  2
*D13
 10
189.6510328129249
 20
736.8734316313911
 30
0.0
 11
179.6510328129248
 21
751.8734316313912
 31
0.0
 70
    32
  3
STANDARD
100
AcDbAlignedDimension
 13
254.7053439910241
 23
766.8734316313912
 33
0.0
 14
255.7053439910241
 24
736.8734316313911
 34
0.0
 50
90.0
100
AcDbRotatedDimension
1001
ACAD
1000
DSTYLE
1002
{
1070
   140
1040
12.0
1070
    74
1070
     0
1070
   172
1070
     1
1070
    73
1070
     0
1070
   272
1070
     2
1070
    77
1070
     3
1070
   173
1070
     1
1070
   147
1040
4.0
1070
    42
1040
12.0
1070
    44
1040
6.0
1070
    43
1040
28.0
1070
   271
1070
     0
1070
   178
1070
     4
1070
   177
1070
     4
1070
   176
1070
     4
1070
   141
1040
150.0
1070
     7
1000
_OPEN
1070
     6
1000
_OPEN
1070
    41
1040
14.0
1070
   143
1040
0.03937
1002
}
  0
ARC
  5
2092
330
19
100
AcDbEntity
  8
SEIHIN
  6
CONTINUOUS
 62
     3
100
AcDbCircle
 10
255.7053439910241
 20
737.8734316313912
 30
0.0
 40
1.0
100
AcDbArc
 50
180.0
 51
270.0
  0
LINE
  5
2093
330
19
100
AcDbEntity
  8
SEIHIN
  6
CONTINUOUS
 62
     3
100
AcDbLine
 10
254.7053439910241
 20
766.8736316313911
 30
0.0
 11
254.7053439910241
 21
737.8734316313912
 31
0.0
  0
LINE
  5
2094
330
19
100
AcDbEntity
  8
SEIHIN
  6
CONTINUOUS
 62
     3
100
AcDbLine
 10
294.3527439910242
 20
741.8733316313915
 30
0.0
 11
294.3527439910242
 21
737.8734316313912
 31
0.0
  0
LINE
  5
2095
330
19
100
AcDbEntity
  8
SEIHIN
  6
CONTINUOUS
 62
     3
100
AcDbLine
 10
280.2054439910241
 20
741.8734316313912
 30
0.0
 11
280.2054439910241
 21
737.8734316313912
 31
0.0
  0
ARC
  5
2096
330
19
100
AcDbEntity
  8
SEIHIN
  6
CONTINUOUS
 62
     3
100
AcDbCircle
 10
279.2054439910241
 20
737.8734316313912
 30
0.0
 40
1.000000000000056
100
AcDbArc
 50
270.0
 51
359.9999999999967
  0
ARC
  5
2097
330
19
100
AcDbEntity
  8
SEIHIN
  6
CONTINUOUS
 62
     3
100
AcDbCircle
 10
293.3527439910242
 20
737.8734316313912
 30
0.0
 40
1.0
100
AcDbArc
 50
270.0
 51
0.0
  0
LINE
  5
2098
330
19
100
AcDbEntity
  8
SEIHIN
  6
CONTINUOUS
 62
     3
100
AcDbLine
 10
274.9054439910239
 20
766.8734316313912
 30
0.0
 11
274.9054439910239
 21
744.5734316313912
 31
0.0
  0
ARC
  5
2099
330
19
100
AcDbEntity
  8
SEIHIN
  6
CONTINUOUS
 62
     3
100
AcDbCircle
 10
283.1513439910238
 20
749.5734316313912
 30
0.0
 40
2.000000000000085
100
AcDbArc
 50
359.9999999999967
 51
90.0
  0
LINE
  5
209A
330
19
100
AcDbEntity
  8
SEIHIN
  6
CONTINUOUS
 62
     3
100
AcDbLine
 10
285.151343991024
 20
749.5734316313912
 30
0.0
 11
285.151343991024
 21
744.5734316313912
 31
0.0
  0
ARC
  5
209B
330
19
100
AcDbEntity
  8
SEIHIN
  6
CONTINUOUS
 62
     3
100
AcDbCircle
 10
288.1677439910242
 20
749.5734316313912
 30
0.0
 40
2.000000000000085
100
AcDbArc
 50
359.9999999999967
 51
90.0
  0
LINE
  5
209C
330
19
100
AcDbEntity
  8
SEIHIN
  6
CONTINUOUS
 62
     3
100
AcDbLine
 10
290.1677439910242
 20
749.5734316313912
 30
0.0
 11
290.1677439910242
 21
744.5734316313912
 31
0.0
  0
LINE
  5
209D
330
19
100
AcDbEntity
  8
SEIHIN
  6
CONTINUOUS
 62
     3
100
AcDbLine
 10
387.1820439910241
 20
751.5734316313914
 30
0.0
 11
498.401543991024
 21
751.5734316313914
 31
0.0
  0
LINE
  5
209E
330
19
100
AcDbEntity
  8
CENTER_L
  6
CENTER
 62
     1
 48
5.0
100
AcDbLine
 10
384.9961439910241
 20
785.0010316313914
 30
0.0
 11
384.9961439910241
 21
721.4887316313913
 31
0.0
  0
ARC
  5
209F
330
19
100
AcDbEntity
  8
SEIHIN
  6
CONTINUOUS
 62
     3
100
AcDbCircle
 10
517.6015439910242
 20
737.8734316313912
 30
0.0
 40
1.0
100
AcDbArc
 50
270.0
 51
0.0
  0
LINE
  5
20A0
330
19
100
AcDbEntity
  8
SEIHIN
  6
CONTINUOUS
 62
     3
100
AcDbLine
 10
485.6015439910238
 20
741.8733316313915
 30
0.0
 11
485.6015439910238
 21
737.8734316313912
 31
0.0
  0
LINE
  5
20A1
330
19
100
AcDbEntity
  8
SEIHIN
  6
CONTINUOUS
 62
     3
100
AcDbLine
 10
475.924743991024
 20
741.8733316313915
 30
0.0
 11
475.924743991024
 21
737.8734316313912
 31
0.0
  0
ARC
  5
20A2
330
19
100
AcDbEntity
  8
SEIHIN
  6
CONTINUOUS
 62
     3
100
AcDbCircle
 10
476.9247439910241
 20
737.8734316313912
 30
0.0
 40
1.0
100
AcDbArc
 50
180.0
 51
270.0
  0
ARC
  5
20A3
330
19
100
AcDbEntity
  8
SEIHIN
  6
CONTINUOUS
 62
     3
100
AcDbCircle
 10
486.6015439910238
 20
737.8734316313912
 30
0.0
 40
0.9999999999998863
100
AcDbArc
 50
179.9999999999934
 51
270.0
  0
ARC
  5
20A4
330
19
100
AcDbEntity
  8
SEIHIN
  6
CONTINUOUS
 62
     3
100
AcDbCircle
 10
484.5262439910238
 20
749.5734316313912
 30
0.0
 40
2.000000000000085
100
AcDbArc
 50
90.0
 51
180.0000000000032
  0
LINE
  5
20A5
330
19
100
AcDbEntity
  8
SEIHIN
  6
CONTINUOUS
 62
     3
100
AcDbLine
 10
482.5262439910239
 20
749.5734316313912
 30
0.0
 11
482.5262439910239
 21
744.5734316313912
 31
0.0
  0
LINE
  5
20A6
330
19
100
AcDbEntity
  8
SEIHIN
  6
CONTINUOUS
 62
     3
100
AcDbLine
 10
498.401543991024
 20
766.8734316313912
 30
0.0
 11
498.401543991024
 21
744.5734316313912
 31
0.0
  0
ARC
  5
20A7
330
19
100
AcDbEntity
  8
SEIHIN
  6
CONTINUOUS
 62
     3
100
AcDbCircle
 10
488.230243991024
 20
749.5734316313912
 30
0.0
 40
2.000000000000056
100
AcDbArc
 50
90.0
 51
180.0000000000032
  0
LINE
  5
20A8
330
19
100
AcDbEntity
  8
SEIHIN
  6
CONTINUOUS
 62
     3
100
AcDbLine
 10
486.230243991024
 20
749.5734316313912
 30
0.0
 11
486.230243991024
 21
744.5734316313912
 31
0.0
  0
LINE
  5
20A9
330
19
100
AcDbEntity
  8
SEIHIN
  6
CONTINUOUS
 62
     3
100
AcDbLine
 10
518.6015439910242
 20
766.8734316313912
 30
0.0
 11
518.6015439910242
 21
737.8734316313912
 31
0.0
  0
DIMENSION
  5
20AA
330
19
100
AcDbEntity
  8
SUNPOU
  6
CONTINUOUS
100
AcDbDimension
  2
*D14
 10
1100.825927409492
 20
556.9996316313911
 30
0.0
 11
1090.825927409492
 21
573.5996316313912
 31
0.0
 70
    32
  3
STANDARD
100
AcDbAlignedDimension
 13
1132.291190332235
 23
590.1996316313911
 33
0.0
 14
1132.291190332235
 24
556.9996316313911
 34
0.0
 50
90.0
100
AcDbRotatedDimension
1001
ACAD
1000
DSTYLE
1002
{
1070
   140
1040
12.0
1070
    74
1070
     0
1070
   172
1070
     1
1070
    73
1070
     0
1070
   272
1070
     2
1070
    77
1070
     3
1070
   173
1070
     1
1070
   147
1040
4.0
1070
    42
1040
12.0
1070
    44
1040
6.0
1070
    43
1040
28.0
1070
   271
1070
     0
1070
   178
1070
     4
1070
   177
1070
     4
1070
   176
1070
     4
1070
   141
1040
150.0
1070
     7
1000
_OPEN
1070
     6
1000
_OPEN
1070
    41
1040
14.0
1070
   143
1040
0.03937
1002
}
  0
DIMENSION
  5
20AB
330
19
100
AcDbEntity
  8
SUNPOU
  6
CONTINUOUS
100
AcDbDimension
  2
*D15
 10
930.4111903322354
 20
633.0478795705866
 30
0.0
 11
945.4111903322354
 21
643.0478795705867
 31
0.0
 70
    32
  3
STANDARD
100
AcDbAlignedDimension
 13
960.4111903322355
 23
589.1996316313911
 33
0.0
 14
930.4111903322354
 24
590.1996316313911
 34
0.0
100
AcDbRotatedDimension
1001
ACAD
1000
DSTYLE
1002
{
1070
   140
1040
12.0
1070
    74
1070
     0
1070
   172
1070
     1
1070
    73
1070
     0
1070
   272
1070
     2
1070
    77
1070
     3
1070
   173
1070
     1
1070
   147
1040
4.0
1070
    42
1040
12.0
1070
    44
1040
6.0
1070
    43
1040
28.0
1070
   271
1070
     0
1070
   178
1070
     4
1070
   177
1070
     4
1070
   176
1070
     4
1070
   141
1040
150.0
1070
     7
1000
_OPEN
1070
     6
1000
_OPEN
1070
    41
1040
14.0
1070
   143
1040
0.03937
1002
}
  0
DIMENSION
  5
20AC
330
19
100
AcDbEntity
  8
SUNPOU
  6
CONTINUOUS
100
AcDbDimension
  2
*D16
 10
1129.291190332235
 20
632.3783715690288
 30
0.0
 11
1261.239240332235
 21
642.3783715690287
 31
0.0
 70
    32
  3
STANDARD
100
AcDbAlignedDimension
 13
1393.187290332235
 23
562.1996316313912
 33
0.0
 14
1129.291190332235
 24
587.1996316313912
 34
0.0
100
AcDbRotatedDimension
1001
ACAD
1000
DSTYLE
1002
{
1070
   140
1040
12.0
1070
    74
1070
     0
1070
   172
1070
     1
1070
    73
1070
     0
1070
   272
1070
     2
1070
    77
1070
     3
1070
   173
1070
     1
1070
   147
1040
4.0
1070
    42
1040
12.0
1070
    44
1040
6.0
1070
    43
1040
28.0
1070
   271
1070
     0
1070
   178
1070
     4
1070
   177
1070
     4
1070
   176
1070
     4
1070
   141
1040
150.0
1070
     7
1000
_OPEN
1070
     6
1000
_OPEN
1070
    41
1040
14.0
1070
   143
1040
0.03937
1002
}
  0
LINE
  5
20AD
330
19
100
AcDbEntity
  8
NOKITOI
  6
PHANTOM
100
AcDbLine
 10
1377.911320632235
 20
561.4995316313914
 30
0.0
 11
1361.573888732235
 21
427.9922067313913
 31
0.0
  0
LINE
  5
20AE
330
19
100
AcDbEntity
  8
NOKITOI
  6
PHANTOM
100
AcDbLine
 10
1376.967709232235
 20
536.4995316313914
 30
0.0
 11
1363.658339732235
 21
427.7371303313913
 31
0.0
  0
LINE
  5
20AF
330
19
100
AcDbEntity
  8
NOKITOI
  6
PHANTOM
100
AcDbLine
 10
1376.130144635619
 20
538.2995316313913
 30
0.0
 11
1362.341970720596
 21
425.6244041927915
 31
0.0
  0
LINE
  5
20B0
330
19
100
AcDbEntity
  8
SEIHIN
  6
CONTINUOUS
 62
     3
100
AcDbLine
 10
1367.687290332235
 20
565.1996316313911
 30
0.0
 11
1390.187290332235
 21
565.1996316313911
 31
0.0
  0
LINE
  5
20B1
330
19
100
AcDbEntity
  8
SEIHIN
  6
CONTINUOUS
 62
     3
100
AcDbLine
 10
1365.874390332235
 20
421.1339316313912
 30
0.0
 11
1379.133590332235
 21
529.1214316313912
 31
0.0
  0
DIMENSION
  5
20B2
330
19
100
AcDbEntity
  8
SUNPOU
  6
CONTINUOUS
100
AcDbDimension
  2
*D17
 10
1481.843648491362
 20
418.4995316313911
 30
0.0
 11
1471.843648491362
 21
491.8495816313914
 31
0.0
 70
    32
  3
STANDARD
100
AcDbAlignedDimension
 13
1390.187290332235
 23
565.1996316313911
 33
0.0
 14
1362.896790332235
 24
418.4995316313912
 34
0.0
 50
90.0
100
AcDbRotatedDimension
1001
ACAD
1000
DSTYLE
1002
{
1070
   140
1040
12.0
1070
    74
1070
     0
1070
   172
1070
     1
1070
    73
1070
     0
1070
   272
1070
     2
1070
    77
1070
     3
1070
   173
1070
     1
1070
   147
1040
4.0
1070
    42
1040
12.0
1070
    44
1040
6.0
1070
    43
1040
28.0
1070
   271
1070
     0
1070
   178
1070
     4
1070
   177
1070
     4
1070
   176
1070
     4
1070
   141
1040
150.0
1070
     7
1000
_OPEN
1070
     6
1000
_OPEN
1070
    41
1040
14.0
1070
   143
1040
0.03937
1002
}
  0
TEXT
  5
20B5
330
19
100
AcDbEntity
  8
MOJI
100
AcDbText
 10
957.0598267152208
 20
53.88634297215165
 30
0.0
 40
11.19999999999999
  1
ＧＭ７９
 41
0.9
  7
ｽﾀｲﾙ1
100
AcDbText
  0
DIMENSION
  5
20B9
330
19
100
AcDbEntity
  8
SUNPOU
  6
CONTINUOUS
100
AcDbDimension
  2
*D18
 10
1062.152852514748
 20
418.4995316313912
 30
0.0
 11
1052.152852514748
 21
504.3495816313914
 31
0.0
 70
    32
  3
STANDARD
100
AcDbAlignedDimension
 13
1132.291190332235
 23
590.1996316313911
 33
0.0
 14
1162.896690332235
 24
418.4995316313912
 34
0.0
 50
90.0
100
AcDbRotatedDimension
1001
ACAD
1000
DSTYLE
1002
{
1070
   140
1040
12.0
1070
    74
1070
     0
1070
   172
1070
     1
1070
    73
1070
     0
1070
   272
1070
     2
1070
    77
1070
     3
1070
   173
1070
     1
1070
   147
1040
4.0
1070
    42
1040
12.0
1070
    44
1040
6.0
1070
    43
1040
28.0
1070
   271
1070
     0
1070
   178
1070
     4
1070
   177
1070
     4
1070
   176
1070
     4
1070
   141
1040
150.0
1070
     7
1000
_OPEN
1070
     6
1000
_OPEN
1070
    41
1040
14.0
1070
   143
1040
0.03937
1002
}
  0
LINE
  5
20BA
330
19
100
AcDbEntity
  8
SEIHIN
  6
CONTINUOUS
 62
     3
100
AcDbLine
 10
960.4111903322355
 20
419.4995316313912
 30
0.0
 11
960.4111903322355
 21
589.1996316313911
 31
0.0
  0
LINE
  5
20BB
330
19
100
AcDbEntity
  8
SEIHIN
  6
CONTINUOUS
 62
     3
100
AcDbLine
 10
930.4110903322353
 20
419.9995316313912
 30
0.0
 11
930.4111903322354
 21
590.1996316313911
 31
0.0
  0
LINE
  5
20BC
330
19
100
AcDbEntity
  8
SEIHIN
  6
CONTINUOUS
 62
     3
100
AcDbLine
 10
935.4110903322352
 20
418.4995316313912
 30
0.0
 11
935.4110903322352
 21
556.9996316313911
 31
0.0
  0
LINE
  5
20BD
330
19
100
AcDbEntity
  8
SEIHIN
  6
CONTINUOUS
 62
     3
100
AcDbLine
 10
935.4110903322352
 20
418.4995316313912
 30
0.0
 11
959.4111903322355
 21
418.4995316313912
 31
0.0
  0
LINE
  5
20BE
330
19
100
AcDbEntity
  8
SEIHIN
  6
CONTINUOUS
 62
     3
100
AcDbLine
 10
930.4110903322353
 20
419.9995316313912
 30
0.0
 11
935.4110903322352
 21
418.4995316313912
 31
0.0
  0
ARC
  5
20BF
330
19
100
AcDbEntity
  8
SEIHIN
  6
CONTINUOUS
 62
     3
100
AcDbCircle
 10
959.4111903322355
 20
419.4995316313912
 30
0.0
 40
1.0
100
AcDbArc
 50
270.0
 51
0.0
  0
LINE
  5
20C0
330
19
100
AcDbEntity
  8
SEIHIN
  6
CONTINUOUS
100
AcDbLine
 10
960.4111903322355
 20
556.9996316313911
 30
0.0
 11
930.4111708257837
 21
556.9996316313911
 31
0.0
  0
LINE
  5
20C1
330
19
100
AcDbEntity
  8
SEIHIN
  6
CONTINUOUS
 62
     3
100
AcDbLine
 10
930.4110903322353
 20
590.1996316313911
 30
0.0
 11
959.4111903322355
 21
590.1996316313911
 31
0.0
  0
ARC
  5
20C2
330
19
100
AcDbEntity
  8
SEIHIN
  6
CONTINUOUS
 62
     3
100
AcDbCircle
 10
959.4111903322355
 20
589.1996316313911
 30
0.0
 40
1.0
100
AcDbArc
 50
0.0
 51
90.0
  0
LINE
  5
20C3
330
19
100
AcDbEntity
  8
CENTER_L
  6
CENTER
 48
5.0
100
AcDbLine
 10
1262.896790332235
 20
406.4995316313913
 30
0.0
 11
1262.896790332235
 21
438.5995316313914
 31
0.0
  0
DIMENSION
  5
20C4
330
19
100
AcDbEntity
  8
SUNPOU
  6
CONTINUOUS
100
AcDbDimension
  2
*D19
 10
1160.242552400353
 20
369.581267648019
 30
0.0
 11
1262.896739515478
 21
379.581267648019
 31
0.0
 70
    32
  3
STANDARD
100
AcDbAlignedDimension
 13
1365.550926630603
 23
418.4995316313912
 33
0.0
 14
1160.242552400353
 24
418.4995316313912
 34
0.0
100
AcDbRotatedDimension
1001
ACAD
1000
DSTYLE
1002
{
1070
   140
1040
12.0
1070
    74
1070
     0
1070
   172
1070
     1
1070
    73
1070
     0
1070
   272
1070
     2
1070
    77
1070
     3
1070
   173
1070
     1
1070
   147
1040
4.0
1070
    42
1040
12.0
1070
    44
1040
6.0
1070
    43
1040
28.0
1070
   271
1070
     0
1070
   178
1070
     4
1070
   177
1070
     4
1070
   176
1070
     4
1070
   141
1040
150.0
1070
     7
1000
_OPEN
1070
     6
1000
_OPEN
1070
    41
1040
14.0
1070
   143
1040
0.03937
1002
}
  0
TEXT
  5
20C5
330
19
100
AcDbEntity
  8
ZUWAKU
  6
CONTINUOUS
 62
     4
100
AcDbText
 10
1253.264748692351
 20
313.7609749141256
 30
0.0
 40
16.0
  1
右
100
AcDbText
  0
LINE
  5
20C6
330
19
100
AcDbEntity
  8
NOKITOI
  6
PHANTOM
100
AcDbLine
 10
1169.182670532235
 20
423.5995316313913
 30
0.0
 11
1356.610910132235
 21
423.5995316313913
 31
0.0
  0
LINE
  5
20C7
330
19
100
AcDbEntity
  8
NOKITOI
  6
PHANTOM
100
AcDbLine
 10
1164.666202232235
 20
421.4995316313913
 30
0.0
 11
1361.127054032235
 21
421.4995316313913
 31
0.0
  0
LINE
  5
20C8
330
19
100
AcDbEntity
  8
NOKITOI
  6
PHANTOM
100
AcDbLine
 10
1166.924436448895
 20
422.5495316313913
 30
0.0
 11
1358.867885709986
 21
422.5495316313913
 31
0.0
  0
LINE
  5
20C9
330
19
100
AcDbEntity
  8
SEIHIN
  6
CONTINUOUS
 62
     3
100
AcDbLine
 10
1175.896790332235
 20
427.2995316313912
 30
0.0
 11
1349.896790332235
 21
427.2995316313912
 31
0.0
  0
LINE
  5
20CA
330
19
100
AcDbEntity
  8
SEIHIN
  6
CONTINUOUS
 62
     3
100
AcDbLine
 10
1358.98048959837
 20
534.5268767639145
 30
0.0
 11
1163.386171753515
 21
558.3338398241883
 31
0.0
  0
LINE
  5
20CB
330
19
100
AcDbEntity
  8
SEIHIN
  6
CONTINUOUS
 62
     3
100
AcDbLine
 10
1171.968031032483
 20
570.3852205984978
 30
0.0
 11
1353.539991404431
 21
548.2849866052399
 31
0.0
  0
LINE
  5
20CC
330
19
100
AcDbEntity
  8
SEIHIN
  6
CONTINUOUS
 62
     3
100
AcDbLine
 10
1162.291190332235
 20
590.1996316313911
 30
0.0
 11
1367.687290332235
 21
565.1996316313911
 31
0.0
  0
LINE
  5
20CD
330
19
100
AcDbEntity
  8
SEIHIN
  6
CONTINUOUS
 62
     3
100
AcDbLine
 10
1162.896690332235
 20
418.4995316313912
 30
0.0
 11
1362.896790332235
 21
418.4995316313912
 31
0.0
  0
LINE
  5
20CE
330
19
100
AcDbEntity
  8
NOKITOI
  6
PHANTOM
100
AcDbLine
 10
1145.810787232235
 20
561.7534546313914
 30
0.0
 11
1162.680876732235
 21
423.2577003313913
 31
0.0
  0
LINE
  5
20CF
330
19
100
AcDbEntity
  8
NOKITOI
  6
PHANTOM
100
AcDbLine
 10
1144.881073432234
 20
586.7534546313914
 30
0.0
 11
1164.219356632235
 21
427.9949532313914
 31
0.0
  0
LINE
  5
20D0
330
19
100
AcDbEntity
  8
NOKITOI
  6
PHANTOM
100
AcDbLine
 10
1146.649291275281
 20
563.5534546313913
 30
0.0
 11
1163.450116717714
 21
425.6263267099632
 31
0.0
  0
LINE
  5
20D1
330
19
100
AcDbEntity
  8
SEIHIN
  6
CONTINUOUS
 62
     3
100
AcDbLine
 10
1165.064203495985
 20
451.4385974611068
 30
0.0
 11
1151.172576734139
 21
564.5777632908223
 31
0.0
  0
LINE
  5
20D2
330
19
100
AcDbEntity
  8
SEIHIN
  6
CONTINUOUS
 62
     3
100
AcDbLine
 10
1159.919090332235
 20
421.1339316313912
 30
0.0
 11
1143.344790332235
 21
556.1214316313912
 31
0.0
  0
LINE
  5
20D3
330
19
100
AcDbEntity
  8
SEIHIN
  6
CONTINUOUS
 62
     3
100
AcDbLine
 10
1175.396790332235
 20
450.9995316313911
 30
0.0
 11
1165.560476633372
 21
450.9995316313911
 31
0.0
  0
ARC
  5
20D4
330
19
100
AcDbEntity
  8
NOKITOI
  6
PHANTOM
100
AcDbCircle
 10
1164.666202232235
 20
423.4995316313913
 30
0.0
 40
1.999999964826235
100
AcDbArc
 50
186.9449505206506
 51
270.0
  0
ARC
  5
20D5
330
19
100
AcDbEntity
  8
NOKITOI
  6
PHANTOM
100
AcDbCircle
 10
1169.182670532235
 20
428.5995316313913
 30
0.0
 40
4.99999999558399
100
AcDbArc
 50
186.9449520190727
 51
270.0
  0
ARC
  5
20D6
330
19
100
AcDbEntity
  8
NOKITOI
  6
PHANTOM
100
AcDbCircle
 10
1166.924436448895
 20
426.0495316313913
 30
0.0
 40
3.5
100
AcDbArc
 50
186.9449526899444
 51
270.0
  0
ARC
  5
20D7
330
19
100
AcDbEntity
  8
SEIHIN
  6
CONTINUOUS
 62
     3
100
AcDbCircle
 10
1162.896712455984
 20
421.4995120579301
 30
0.0
 40
2.999980426620446
100
AcDbArc
 50
186.999514746399
 51
269.9995774647701
  0
ARC
  5
20D8
330
19
100
AcDbEntity
  8
SEIHIN
  6
CONTINUOUS
 62
     3
100
AcDbCircle
 10
1165.560476633372
 20
451.4995316313912
 30
0.0
 40
0.5
100
AcDbArc
 50
186.9999421102176
 51
270.0
  0
LINE
  5
20D9
330
19
100
AcDbEntity
  8
SEIHIN
  6
CONTINUOUS
 62
     3
100
AcDbLine
 10
1175.396790332235
 20
450.9995316313911
 30
0.0
 11
1175.396790332235
 21
427.7995316313912
 31
0.0
  0
ARC
  5
20DA
330
19
100
AcDbEntity
  8
SEIHIN
  6
CONTINUOUS
 62
     3
100
AcDbCircle
 10
1175.896790332235
 20
427.7995316313912
 30
0.0
 40
0.5
100
AcDbArc
 50
180.0
 51
270.0
  0
LINE
  5
20DB
330
19
100
AcDbEntity
  8
NOKITOI
  6
PHANTOM
100
AcDbLine
 10
1134.881073432235
 20
586.7534546313914
 30
0.0
 11
1144.881073432234
 21
586.7534546313914
 31
0.0
  0
LINE
  5
20DC
330
19
100
AcDbEntity
  8
NOKITOI
  6
PHANTOM
100
AcDbLine
 10
1136.981073432235
 20
584.9534546313914
 30
0.0
 11
1143.021351232235
 21
584.9534546313914
 31
0.0
  0
LINE
  5
20DD
330
19
100
AcDbEntity
  8
NOKITOI
  6
PHANTOM
100
AcDbLine
 10
1136.981073432235
 20
584.6534546313913
 30
0.0
 11
1143.021351232235
 21
584.6534546313913
 31
0.0
  0
LINE
  5
20DE
330
19
100
AcDbEntity
  8
NOKITOI
  6
PHANTOM
100
AcDbLine
 10
1134.981073432235
 20
563.8534546313913
 30
0.0
 11
1145.554987432235
 21
563.8534546313913
 31
0.0
  0
LINE
  5
20DF
330
19
100
AcDbEntity
  8
NOKITOI
  6
PHANTOM
100
AcDbLine
 10
1134.681073432235
 20
563.5534546313913
 30
0.0
 11
1146.649291275281
 21
563.5534546313913
 31
0.0
  0
LINE
  5
20E0
330
19
100
AcDbEntity
  8
NOKITOI
  6
PHANTOM
100
AcDbLine
 10
1132.881073432235
 20
561.7534546313914
 30
0.0
 11
1145.810787232235
 21
561.7534546313914
 31
0.0
  0
LINE
  5
20E1
330
19
100
AcDbEntity
  8
SEIHIN
  6
CONTINUOUS
 62
     3
100
AcDbLine
 10
1132.291190332235
 20
590.1996316313911
 30
0.0
 11
1162.291190332235
 21
590.1996316313911
 31
0.0
  0
LINE
  5
20E2
330
19
100
AcDbEntity
  8
SEIHIN
  6
CONTINUOUS
 62
     3
100
AcDbLine
 10
1132.291190332235
 20
556.9996316313911
 30
0.0
 11
1142.352190332235
 21
556.9996316313911
 31
0.0
  0
LINE
  5
20E3
330
19
100
AcDbEntity
  8
NOKITOI
  6
PHANTOM
100
AcDbLine
 10
1134.981073432235
 20
582.6534546313913
 30
0.0
 11
1134.981073432235
 21
563.8534546313913
 31
0.0
  0
LINE
  5
20E4
330
19
100
AcDbEntity
  8
NOKITOI
  6
PHANTOM
100
AcDbLine
 10
1134.681073432235
 20
582.6534546313913
 30
0.0
 11
1134.681073432235
 21
563.5534546313913
 31
0.0
  0
LINE
  5
20E5
330
19
100
AcDbEntity
  8
NOKITOI
  6
PHANTOM
100
AcDbLine
 10
1132.881073432235
 20
584.7534546313913
 30
0.0
 11
1132.881073432235
 21
561.7534546313914
 31
0.0
  0
LINE
  5
20E6
330
19
100
AcDbEntity
  8
SEIHIN
  6
CONTINUOUS
 62
     3
100
AcDbLine
 10
1129.291190332235
 20
559.9996316313913
 30
0.0
 11
1129.291190332235
 21
587.1996316313912
 31
0.0
  0
ARC
  5
20E7
330
19
100
AcDbEntity
  8
SEIHIN
  6
CONTINUOUS
 62
     3
100
AcDbCircle
 10
1132.291190332235
 20
559.9996316313911
 30
0.0
 40
3.000000000000056
100
AcDbArc
 50
179.9999999999991
 51
270.0
  0
ARC
  5
20E8
330
19
100
AcDbEntity
  8
NOKITOI
  6
PHANTOM
100
AcDbCircle
 10
1136.981073432235
 20
582.6534546313913
 30
0.0
 40
2.0
100
AcDbArc
 50
90.0
 51
180.0
  0
ARC
  5
20E9
330
19
100
AcDbEntity
  8
NOKITOI
  6
PHANTOM
100
AcDbCircle
 10
1136.981073432235
 20
582.6534546313913
 30
0.0
 40
2.299999999999999
100
AcDbArc
 50
90.0
 51
180.0
  0
ARC
  5
20EA
330
19
100
AcDbEntity
  8
NOKITOI
  6
PHANTOM
100
AcDbCircle
 10
1134.881073432235
 20
584.7534546313913
 30
0.0
 40
2.0
100
AcDbArc
 50
90.0
 51
180.0
  0
ARC
  5
20EB
330
19
100
AcDbEntity
  8
SEIHIN
  6
CONTINUOUS
 62
     3
100
AcDbCircle
 10
1132.291190332235
 20
587.1996316313912
 30
0.0
 40
3.0
100
AcDbArc
 50
90.0
 51
180.0
  0
LINE
  5
20EC
330
19
100
AcDbEntity
  8
NOKITOI
  6
PHANTOM
100
AcDbLine
 10
1143.021351232235
 20
584.6534546313913
 30
0.0
 11
1145.554987432235
 21
563.8534546313913
 31
0.0
  0
LINE
  5
20ED
330
19
100
AcDbEntity
  8
SEIHIN
  6
CONTINUOUS
 62
     3
100
AcDbLine
 10
1162.291222875674
 20
590.1996276703325
 30
0.0
 11
1171.968031032483
 21
570.3852205984978
 31
0.0
  0
LINE
  5
20EE
330
19
100
AcDbEntity
  8
SEIHIN
  6
CONTINUOUS
 62
     3
100
AcDbLine
 10
1159.47656743384
 20
565.6996316313912
 30
0.0
 11
1152.165123008912
 21
565.6996316313912
 31
0.0
  0
ARC
  5
20EF
330
19
100
AcDbEntity
  8
SEIHIN
  6
CONTINUOUS
 62
     3
100
AcDbCircle
 10
1152.165123008912
 20
564.6996316313911
 30
0.0
 40
1.0
100
AcDbArc
 50
90.0
 51
186.9999421102176
  0
ARC
  5
20F0
330
19
100
AcDbEntity
  8
SEIHIN
  6
CONTINUOUS
 62
     3
100
AcDbCircle
 10
1142.352215761355
 20
555.9996091318973
 30
0.0
 40
1.000022499817164
100
AcDbArc
 50
6.997137671659197
 51
90.00145694848212
  0
ARC
  5
20F1
330
19
100
AcDbEntity
  8
SEIHIN
  6
CONTINUOUS
 62
     3
100
AcDbCircle
 10
1159.47656743384
 20
565.1996316313911
 30
0.0
 40
0.5
100
AcDbArc
 50
26.03025811758142
 51
90.0
  0
LINE
  5
20F2
330
19
100
AcDbEntity
  8
SEIHIN
  6
CONTINUOUS
 62
     3
100
AcDbLine
 10
1159.925848641599
 20
565.4190545024753
 30
0.0
 11
1163.386171753515
 21
558.3338398241883
 31
0.0
  0
LINE
  5
20F3
330
19
100
AcDbEntity
  8
SEIHIN
  6
CONTINUOUS
 62
     3
100
AcDbLine
 10
1371.551402718501
 20
539.5777623367194
 30
0.0
 11
1360.729278395141
 21
451.4385969840553
 31
0.0
  0
LINE
  5
20F4
330
19
100
AcDbEntity
  8
SEIHIN
  6
CONTINUOUS
 62
     3
100
AcDbLine
 10
1350.396790332235
 20
450.9995316313911
 30
0.0
 11
1350.396790332235
 21
427.7995316313912
 31
0.0
  0
ARC
  5
20F5
330
19
100
AcDbEntity
  8
SEIHIN
  6
CONTINUOUS
 62
     3
100
AcDbCircle
 10
1349.896790332235
 20
427.7995316313912
 30
0.0
 40
0.5
100
AcDbArc
 50
270.0
 51
0.0
  0
LINE
  5
20F6
330
19
100
AcDbEntity
  8
NOKITOI
  6
PHANTOM
100
AcDbLine
 10
1363.658339732235
 20
427.7371303313913
 30
0.0
 11
1363.111945032235
 21
423.2541597313914
 31
0.0
  0
ARC
  5
20F7
330
19
100
AcDbEntity
  8
NOKITOI
  6
PHANTOM
100
AcDbCircle
 10
1356.610910132235
 20
428.5995316313913
 30
0.0
 40
5.000000005910891
100
AcDbArc
 50
270.0
 51
353.0233417399499
  0
ARC
  5
20F8
330
19
100
AcDbEntity
  8
NOKITOI
  6
PHANTOM
100
AcDbCircle
 10
1358.867885709986
 20
426.0495316313913
 30
0.0
 40
3.5
100
AcDbArc
 50
270.0
 51
353.0233415815426
  0
ARC
  5
20F9
330
19
100
AcDbEntity
  8
NOKITOI
  6
PHANTOM
100
AcDbCircle
 10
1361.127054032235
 20
423.4995316313913
 30
0.0
 40
1.999999956398826
100
AcDbArc
 50
270.0
 51
352.9528578226534
  0
ARC
  5
20FA
330
19
100
AcDbEntity
  8
SEIHIN
  6
CONTINUOUS
 62
     3
100
AcDbCircle
 10
1362.896768208486
 20
421.4995120579302
 30
0.0
 40
2.999980426620533
100
AcDbArc
 50
270.0004225352299
 51
353.0004852535993
  0
LINE
  5
20FB
330
19
100
AcDbEntity
  8
SEIHIN
  6
CONTINUOUS
 62
     3
100
AcDbLine
 10
1360.233005316329
 20
450.9995316313911
 30
0.0
 11
1350.396790332235
 21
450.9995316313913
 31
0.0
  0
ARC
  5
20FC
330
19
100
AcDbEntity
  8
SEIHIN
  6
CONTINUOUS
 62
     3
100
AcDbCircle
 10
1360.233005316329
 20
451.4995316313912
 30
0.0
 40
0.5
100
AcDbArc
 50
270.0
 51
353.0000028131829
  0
LINE
  5
20FD
330
19
100
AcDbEntity
  8
SEIHIN
  6
CONTINUOUS
 62
     3
100
AcDbLine
 10
1353.539991404431
 20
548.2849866052399
 30
0.0
 11
1367.687263267544
 21
565.199634925598
 31
0.0
  0
ARC
  5
20FE
330
19
100
AcDbEntity
  8
SEIHIN
  6
CONTINUOUS
 62
     3
100
AcDbCircle
 10
1370.558856560877
 20
539.6996316313911
 30
0.0
 40
1.0
100
AcDbArc
 50
353.0000028131829
 51
90.0
  0
ARC
  5
20FF
330
19
100
AcDbEntity
  8
SEIHIN
  6
CONTINUOUS
 62
     3
100
AcDbCircle
 10
1364.376967789387
 20
540.1996316313911
 30
0.0
 40
0.5
100
AcDbArc
 50
90.0
 51
140.0911749492116
  0
LINE
  5
2100
330
19
100
AcDbEntity
  8
SEIHIN
  6
CONTINUOUS
 62
     3
100
AcDbLine
 10
1370.558856560877
 20
540.6996316313912
 30
0.0
 11
1364.376967789387
 21
540.6996316313912
 31
0.0
  0
LINE
  5
2101
330
19
100
AcDbEntity
  8
SEIHIN
  6
CONTINUOUS
 62
     3
100
AcDbLine
 10
1358.98048959837
 20
534.5268767639145
 30
0.0
 11
1363.993434618051
 21
540.5204155251349
 31
0.0
  0
DIMENSION
  5
2105
330
19
100
AcDbEntity
  8
SUNPOU
  6
CONTINUOUS
100
AcDbDimension
  2
*D2
 10
1441.532937487871
 20
529.9996316313911
 30
0.0
 11
1431.532937487872
 21
547.5996316313914
 31
0.0
 70
    32
  3
STANDARD
100
AcDbAlignedDimension
 13
1390.187290332235
 23
565.1996316313911
 33
0.0
 14
1390.187290332235
 24
529.9996316313911
 34
0.0
 50
90.0
100
AcDbRotatedDimension
1001
ACAD
1000
DSTYLE
1002
{
1070
   140
1040
12.0
1070
    74
1070
     0
1070
   172
1070
     1
1070
    73
1070
     0
1070
   272
1070
     2
1070
    77
1070
     3
1070
   173
1070
     1
1070
   147
1040
4.0
1070
    42
1040
12.0
1070
    44
1040
6.0
1070
    43
1040
28.0
1070
   271
1070
     0
1070
   178
1070
     4
1070
   177
1070
     4
1070
   176
1070
     4
1070
   141
1040
150.0
1070
     7
1000
_OPEN
1070
     6
1000
_OPEN
1070
    41
1040
14.0
1070
   143
1040
0.03937
1002
}
  0
LINE
  5
2106
330
19
100
AcDbEntity
  8
NOKITOI
  6
PHANTOM
100
AcDbLine
 10
1379.770006332235
 20
559.3995316313914
 30
0.0
 11
1377.224688532235
 21
538.5995316313913
 31
0.0
  0
LINE
  5
2107
330
19
100
AcDbEntity
  8
NOKITOI
  6
PHANTOM
100
AcDbLine
 10
1387.811320632235
 20
557.3995316313913
 30
0.0
 11
1387.811320632235
 21
538.5995316313913
 31
0.0
  0
LINE
  5
2108
330
19
100
AcDbEntity
  8
NOKITOI
  6
PHANTOM
100
AcDbLine
 10
1388.111320632235
 20
557.3995316313913
 30
0.0
 11
1388.111320632235
 21
538.2995316313913
 31
0.0
  0
LINE
  5
2109
330
19
100
AcDbEntity
  8
NOKITOI
  6
PHANTOM
100
AcDbLine
 10
1389.911320632235
 20
559.4995316313913
 30
0.0
 11
1389.911320632235
 21
536.4995316313914
 31
0.0
  0
LINE
  5
210A
330
19
100
AcDbEntity
  8
SEIHIN
  6
CONTINUOUS
 62
     3
100
AcDbLine
 10
1393.187290332235
 20
532.9996316313914
 30
0.0
 11
1393.187290332235
 21
562.1996316313912
 31
0.0
  0
ARC
  5
210B
330
19
100
AcDbEntity
  8
SEIHIN
  6
CONTINUOUS
 62
     3
100
AcDbCircle
 10
1390.187290332235
 20
532.9996316313914
 30
0.0
 40
3.000000000000113
100
AcDbArc
 50
270.0
 51
0.0
  0
LINE
  5
210C
330
19
100
AcDbEntity
  8
SEIHIN
  6
CONTINUOUS
 62
     3
100
AcDbLine
 10
1380.126139475472
 20
529.9996316313911
 30
0.0
 11
1390.187290332235
 21
529.9996316313911
 31
0.0
  0
ARC
  5
210D
330
19
100
AcDbEntity
  8
SEIHIN
  6
CONTINUOUS
 62
     3
100
AcDbCircle
 10
1380.126164903114
 20
528.9996091318974
 30
0.0
 40
1.000022499817016
100
AcDbArc
 50
89.99854305153091
 51
173.0028623283488
  0
LINE
  5
210E
330
19
100
AcDbEntity
  8
NOKITOI
  6
PHANTOM
100
AcDbLine
 10
1389.911320632235
 20
536.4995316313914
 30
0.0
 11
1376.967709232235
 21
536.4995316313914
 31
0.0
  0
LINE
  5
210F
330
19
100
AcDbEntity
  8
NOKITOI
  6
PHANTOM
100
AcDbLine
 10
1387.811320632235
 20
538.5995316313913
 30
0.0
 11
1377.224688532235
 21
538.5995316313913
 31
0.0
  0
LINE
  5
2110
330
19
100
AcDbEntity
  8
NOKITOI
  6
PHANTOM
100
AcDbLine
 10
1388.111320632235
 20
538.2995316313913
 30
0.0
 11
1376.130144635619
 21
538.2995316313913
 31
0.0
  0
ARC
  5
2111
330
19
100
AcDbEntity
  8
NOKITOI
  6
PHANTOM
100
AcDbCircle
 10
1385.811320632235
 20
557.3995316313913
 30
0.0
 40
2.299999999999999
100
AcDbArc
 50
0.0
 51
90.0
  0
ARC
  5
2112
330
19
100
AcDbEntity
  8
NOKITOI
  6
PHANTOM
100
AcDbCircle
 10
1387.911320632235
 20
559.4995316313913
 30
0.0
 40
2.0
100
AcDbArc
 50
0.0
 51
90.0
  0
LINE
  5
2113
330
19
100
AcDbEntity
  8
NOKITOI
  6
PHANTOM
100
AcDbLine
 10
1385.811320632235
 20
559.3995316313914
 30
0.0
 11
1379.770006332235
 21
559.3995316313914
 31
0.0
  0
LINE
  5
2114
330
19
100
AcDbEntity
  8
NOKITOI
  6
PHANTOM
100
AcDbLine
 10
1385.811320632235
 20
559.6995316313914
 30
0.0
 11
1379.770006332235
 21
559.6995316313914
 31
0.0
  0
ARC
  5
2115
330
19
100
AcDbEntity
  8
NOKITOI
  6
PHANTOM
100
AcDbCircle
 10
1385.811320632235
 20
557.3995316313913
 30
0.0
 40
2.0
100
AcDbArc
 50
0.0
 51
90.0
  0
LINE
  5
2116
330
19
100
AcDbEntity
  8
NOKITOI
  6
PHANTOM
100
AcDbLine
 10
1387.911320632235
 20
561.4995316313914
 30
0.0
 11
1377.911320632235
 21
561.4995316313914
 31
0.0
  0
ARC
  5
2117
330
19
100
AcDbEntity
  8
SEIHIN
  6
CONTINUOUS
 62
     3
100
AcDbCircle
 10
1390.187290332235
 20
562.1996316313912
 30
0.0
 40
3.000000000000056
100
AcDbArc
 50
0.0000000000008142
 51
90.0
  0
LINE
  5
2118
330
19
100
AcDbEntity
  8
SEIHIN
  6
CONTINUOUS
 62
     3
100
AcDbLine
 10
1372.987290332235
 20
751.5734316313914
 30
0.0
 11
1260.710690332235
 21
751.5734316313914
 31
0.0
  0
LINE
  5
2119
330
19
100
AcDbEntity
  8
SEIHIN
  6
CONTINUOUS
 62
     3
100
AcDbLine
 10
1149.491190332235
 20
744.5734316313912
 30
0.0
 11
1372.987290332235
 21
744.5734316313912
 31
0.0
  0
LINE
  5
211A
330
19
100
AcDbEntity
  8
SEIHIN
  6
CONTINUOUS
 62
     3
100
AcDbLine
 10
1130.291190332235
 20
736.8734316313911
 30
0.0
 11
1392.187390332234
 21
736.8734316313911
 31
0.0
  0
LINE
  5
211B
330
19
100
AcDbEntity
  8
SEIHIN
  6
CONTINUOUS
 62
     3
100
AcDbLine
 10
1129.291190332235
 20
766.8734316313912
 30
0.0
 11
1393.187390332234
 21
766.8734316313912
 31
0.0
  0
LINE
  5
211C
330
19
100
AcDbEntity
  8
SEIHIN
  6
CONTINUOUS
 62
     3
100
AcDbLine
 10
1162.291190332235
 20
741.8734316313912
 30
0.0
 11
1367.687290332235
 21
741.8734316313912
 31
0.0
  0
LINE
  5
211D
330
19
100
AcDbEntity
  8
SEIHIN
  6
CONTINUOUS
 62
     3
100
AcDbLine
 10
1260.710690332235
 20
751.5734316313914
 30
0.0
 11
1149.491190332235
 21
751.5734316313914
 31
0.0
  0
LINE
  5
211E
330
19
100
AcDbEntity
  8
SEIHIN
  6
CONTINUOUS
 62
     3
100
AcDbLine
 10
1171.967990332235
 20
741.8733316313915
 30
0.0
 11
1171.967990332235
 21
737.8734316313912
 31
0.0
  0
LINE
  5
211F
330
19
100
AcDbEntity
  8
SEIHIN
  6
CONTINUOUS
 62
     3
100
AcDbLine
 10
1162.291190332235
 20
741.8733316313915
 30
0.0
 11
1162.291190332235
 21
737.8734316313912
 31
0.0
  0
LINE
  5
2120
330
19
100
AcDbEntity
  8
SEIHIN
  6
CONTINUOUS
 62
     3
100
AcDbLine
 10
1129.291190332235
 20
766.8734316313912
 30
0.0
 11
1129.291190332235
 21
737.8734316313912
 31
0.0
  0
ARC
  5
2121
330
19
100
AcDbEntity
  8
SEIHIN
  6
CONTINUOUS
 62
     3
100
AcDbCircle
 10
1130.291190332235
 20
737.8734316313912
 30
0.0
 40
1.0
100
AcDbArc
 50
180.0
 51
270.0
  0
ARC
  5
2122
330
19
100
AcDbEntity
  8
SEIHIN
  6
CONTINUOUS
 62
     3
100
AcDbCircle
 10
1170.967990332234
 20
737.8734316313912
 30
0.0
 40
1.0
100
AcDbArc
 50
270.0
 51
0.0
  0
ARC
  5
2123
330
19
100
AcDbEntity
  8
SEIHIN
  6
CONTINUOUS
 62
     3
100
AcDbCircle
 10
1161.291190332235
 20
737.8734316313912
 30
0.0
 40
0.9999999999998863
100
AcDbArc
 50
270.0
 51
0.0000000000065138
  0
LINE
  5
2124
330
19
100
AcDbEntity
  8
SEIHIN
  6
CONTINUOUS
 62
     3
100
AcDbLine
 10
1149.491190332235
 20
766.8734316313912
 30
0.0
 11
1149.491190332235
 21
744.5734316313912
 31
0.0
  0
ARC
  5
2125
330
19
100
AcDbEntity
  8
SEIHIN
  6
CONTINUOUS
 62
     3
100
AcDbCircle
 10
1163.366490332235
 20
749.5734316313915
 30
0.0
 40
2.000000000000085
100
AcDbArc
 50
359.9999999999975
 51
90.0
  0
LINE
  5
2126
330
19
100
AcDbEntity
  8
SEIHIN
  6
CONTINUOUS
 62
     3
100
AcDbLine
 10
1165.366490332235
 20
749.5734316313912
 30
0.0
 11
1165.366490332235
 21
744.5734316313912
 31
0.0
  0
ARC
  5
2127
330
19
100
AcDbEntity
  8
SEIHIN
  6
CONTINUOUS
 62
     3
100
AcDbCircle
 10
1159.662490332235
 20
749.5734316313915
 30
0.0
 40
2.000000000000056
100
AcDbArc
 50
359.9999999999975
 51
90.0
  0
LINE
  5
2128
330
19
100
AcDbEntity
  8
SEIHIN
  6
CONTINUOUS
 62
     3
100
AcDbLine
 10
1161.662490332235
 20
749.5734316313912
 30
0.0
 11
1161.662490332235
 21
744.5734316313912
 31
0.0
  0
LINE
  5
2129
330
19
100
AcDbEntity
  8
CENTER_L
  6
CENTER
 62
     1
 48
5.0
100
AcDbLine
 10
1262.896590332235
 20
785.0010316313914
 30
0.0
 11
1262.896590332235
 21
721.4887316313916
 31
0.0
  0
LINE
  5
212A
330
19
100
AcDbEntity
  8
SEIHIN
  6
CONTINUOUS
 62
     3
100
AcDbLine
 10
1367.687290332235
 20
741.8734316313912
 30
0.0
 11
1367.687290332235
 21
737.8734316313912
 31
0.0
  0
LINE
  5
212B
330
19
100
AcDbEntity
  8
SEIHIN
  6
CONTINUOUS
 62
     3
100
AcDbLine
 10
1353.539990332235
 20
741.8733316313915
 30
0.0
 11
1353.539990332235
 21
737.8734316313912
 31
0.0
  0
ARC
  5
212C
330
19
100
AcDbEntity
  8
SEIHIN
  6
CONTINUOUS
 62
     3
100
AcDbCircle
 10
1354.539990332235
 20
737.8734316313912
 30
0.0
 40
1.0
100
AcDbArc
 50
180.0
 51
270.0
  0
ARC
  5
212D
330
19
100
AcDbEntity
  8
SEIHIN
  6
CONTINUOUS
 62
     3
100
AcDbCircle
 10
1368.687290332235
 20
737.8734316313912
 30
0.0
 40
1.000000000000056
100
AcDbArc
 50
180.0000000000032
 51
270.0
  0
ARC
  5
212E
330
19
100
AcDbEntity
  8
SEIHIN
  6
CONTINUOUS
 62
     3
100
AcDbCircle
 10
1364.741390332236
 20
749.5734316313915
 30
0.0
 40
2.000000000000085
100
AcDbArc
 50
90.0
 51
180.0000000000024
  0
ARC
  5
212F
330
19
100
AcDbEntity
  8
SEIHIN
  6
CONTINUOUS
 62
     3
100
AcDbCircle
 10
1359.724990332235
 20
749.5734316313915
 30
0.0
 40
2.000000000000085
100
AcDbArc
 50
90.0
 51
180.0000000000024
  0
LINE
  5
2130
330
19
100
AcDbEntity
  8
SEIHIN
  6
CONTINUOUS
 62
     3
100
AcDbLine
 10
1357.724990332235
 20
749.5734316313912
 30
0.0
 11
1357.724990332235
 21
744.5734316313912
 31
0.0
  0
LINE
  5
2131
330
19
100
AcDbEntity
  8
SEIHIN
  6
CONTINUOUS
 62
     3
100
AcDbLine
 10
1362.741390332234
 20
749.5734316313912
 30
0.0
 11
1362.741390332234
 21
744.5734316313912
 31
0.0
  0
DIMENSION
  5
2132
330
19
100
AcDbEntity
  8
SUNPOU
  6
CONTINUOUS
100
AcDbDimension
  2
*D3
 10
1441.678335770716
 20
744.5734316313912
 30
0.0
 11
1431.678335770716
 21
695.7734316313915
 31
0.0
 70
    32
  1
※<>
  3
STANDARD
100
AcDbAlignedDimension
 13
1393.187390332234
 23
766.8734316313912
 33
0.0
 14
1372.987290332235
 24
744.5734316313912
 34
0.0
 50
90.0
100
AcDbRotatedDimension
1001
ACAD
1000
DSTYLE
1002
{
1070
   140
1040
12.0
1070
    74
1070
     0
1070
   172
1070
     1
1070
    73
1070
     0
1070
   272
1070
     2
1070
    77
1070
     3
1070
   173
1070
     1
1070
   147
1040
4.0
1070
    42
1040
12.0
1070
    44
1040
6.0
1070
    43
1040
28.0
1070
   271
1070
     0
1070
   178
1070
     4
1070
   177
1070
     4
1070
   176
1070
     4
1070
   141
1040
150.0
1070
     7
1000
_OPEN
1070
     6
1000
_OPEN
1070
    41
1040
14.0
1070
   143
1040
0.03937
1002
}
  0
DIMENSION
  5
2133
330
19
100
AcDbEntity
  8
SUNPOU
  6
CONTINUOUS
100
AcDbDimension
  2
*D4
 10
1481.808067644744
 20
736.8734316313911
 30
0.0
 11
1471.808067644744
 21
751.8734316313914
 31
0.0
 70
    32
  3
STANDARD
100
AcDbAlignedDimension
 13
1393.187390332234
 23
766.8734316313912
 33
0.0
 14
1392.187390332234
 24
736.8734316313911
 34
0.0
 50
90.0
100
AcDbRotatedDimension
1001
ACAD
1000
DSTYLE
1002
{
1070
   140
1040
12.0
1070
    74
1070
     0
1070
   172
1070
     1
1070
    73
1070
     0
1070
   272
1070
     2
1070
    77
1070
     3
1070
   173
1070
     1
1070
   147
1040
4.0
1070
    42
1040
12.0
1070
    44
1040
6.0
1070
    43
1040
28.0
1070
   271
1070
     0
1070
   178
1070
     4
1070
   177
1070
     4
1070
   176
1070
     4
1070
   141
1040
150.0
1070
     7
1000
_OPEN
1070
     6
1000
_OPEN
1070
    41
1040
14.0
1070
   143
1040
0.03937
1002
}
  0
LINE
  5
2134
330
19
100
AcDbEntity
  8
SEIHIN
  6
CONTINUOUS
 62
     3
100
AcDbLine
 10
1393.187390332234
 20
766.8736316313911
 30
0.0
 11
1393.187390332234
 21
737.8734316313912
 31
0.0
  0
ARC
  5
2135
330
19
100
AcDbEntity
  8
SEIHIN
  6
CONTINUOUS
 62
     3
100
AcDbCircle
 10
1392.187390332234
 20
737.8734316313912
 30
0.0
 40
1.0
100
AcDbArc
 50
270.0
 51
0.0
  0
LINE
  5
2136
330
19
100
AcDbEntity
  8
SEIHIN
  6
CONTINUOUS
 62
     3
100
AcDbLine
 10
1372.987290332235
 20
766.8734316313912
 30
0.0
 11
1372.987290332235
 21
744.5734316313912
 31
0.0
  0
VIEWPORT
  5
22
330
16
100
AcDbEntity
 67
     1
  8
0
100
AcDbViewport
 10
313.6808219178082
 20
148.5
 30
0.0
 40
627.3616438356165
 41
297.0
 68
     2
 69
     1
1001
ACAD
1000
MVIEW
1002
{
1070
    16
1010
0.0
1020
0.0
1030
0.0
1010
0.0
1020
0.0
1030
1.0
1040
0.0
1040
297.0
1040
313.6808219178082
1040
148.5
1040
50.0
1040
0.0
1040
0.0
1070
     0
1070
   100
1070
     1
1070
     0
1070
     0
1070
     0
1070
     0
1070
     0
1040
0.0
1040
0.0
1040
0.0
1040
10.0
1040
10.0
1040
10.0
1040
10.0
1070
     0
1002
{
1002
}
1002
}
  0
VIEWPORT
  5
25
330
16
100
AcDbEntity
 67
     1
  8
VIEWPORT
100
AcDbViewport
 10
210.0
 20
148.5
 30
0.0
 40
420.0
 41
297.0
 68
     1
 69
     2
1001
ACAD
1000
MVIEW
1002
{
1070
    16
1010
0.0
1020
0.0
1030
0.0
1010
0.0
1020
0.0
1030
1.0
1040
0.0
1040
1212.607689320388
1040
841.0
1040
594.0
1040
50.0
1040
0.0
1040
0.0
1070
     0
1070
   100
1070
     1
1070
     0
1070
     0
1070
     0
1070
     0
1070
     0
1040
0.0
1040
0.0
1040
0.0
1040
57.0
1040
57.0
1040
57.0
1040
57.0
1070
     0
1002
{
1002
}
1002
}
  0
ENDSEC
  0
SECTION
  2
OBJECTS
  0
DICTIONARY
  5
C
330
0
100
AcDbDictionary
  3
ACAD_GROUP
350
D
  3
ACAD_LAYOUT
350
11DA
  3
ACAD_MLINESTYLE
350
E
  3
ACAD_PLOTSETTINGS
350
11DB
1001
ACAD
1000
TREAT_AS_HARD
1070
     0
  0
DICTIONARY
  5
13D5
330
19
100
AcDbDictionary
  3
ACAD_LAYOUTSELFREF
350
2603
1001
ACAD
1000
TREAT_AS_HARD
1070
     1
  0
DICTIONARY
  5
13D3
330
16
100
AcDbDictionary
  3
ACAD_LAYOUTSELFREF
350
2602
1001
ACAD
1000
TREAT_AS_HARD
1070
     1
  0
DICTIONARY
  5
D
102
{ACAD_REACTORS
330
C
102
}
330
C
100
AcDbDictionary
1001
ACAD
1000
TREAT_AS_HARD
1070
     0
  0
DICTIONARY
  5
11DA
102
{ACAD_REACTORS
330
C
102
}
330
C
100
AcDbDictionary
1001
ACAD
1000
TREAT_AS_HARD
1070
     0
  0
DICTIONARY
  5
E
102
{ACAD_REACTORS
330
C
102
}
330
C
100
AcDbDictionary
  3
STANDARD
350
1C
1001
ACAD
1000
TREAT_AS_HARD
1070
     0
  0
DICTIONARY
  5
11DB
102
{ACAD_REACTORS
330
C
102
}
330
C
100
AcDbDictionary
1001
ACAD
1000
TREAT_AS_HARD
1070
     0
  0
XRECORD
  5
2603
102
{ACAD_REACTORS
330
13D5
102
}
330
13D5
100
AcDbXrecord
340
19
  0
XRECORD
  5
2602
102
{ACAD_REACTORS
330
13D3
102
}
330
13D3
100
AcDbXrecord
340
16
  0
MLINESTYLE
  5
1C
102
{ACAD_REACTORS
330
E
102
}
330
E
100
AcDbMlineStyle
  2
STANDARD
 70
     0
  3

 62
     0
 51
90.0
 52
90.0
 71
     2
 49
0.5
 62
   256
  6
BYLAYER
 49
-0.5
 62
   256
  6
BYLAYER
  0
ENDSEC
  0
EOF
