  0
SECTION
  2
HEADER
  9
$ACADVER
  1
AC1015
  9
$ACADMAINTVER
 70
     6
  9
$DWGCODEPAGE
  3
ANSI_932
  9
$INSBASE
 10
0.0
 20
0.0
 30
0.0
  9
$EXTMIN
 10
0.0000000135560185
 20
-0.0000001317113174
 30
0.0
  9
$EXTMAX
 10
398.8000000135561
 20
275.7999998682888
 30
0.0
  9
$LIMMIN
 10
0.0
 20
0.0
  9
$LIMMAX
 10
420.0
 20
297.0
  9
$ORTHOMODE
 70
     0
  9
$REGENMODE
 70
     1
  9
$FILLMODE
 70
     1
  9
$QTEXTMODE
 70
     0
  9
$MIRRTEXT
 70
     1
  9
$LTSCALE
 40
1.0
  9
$ATTMODE
 70
     1
  9
$TEXTSIZE
 40
2.5
  9
$TRACEWID
 40
1.0
  9
$TEXTSTYLE
  7
STANDARD
  9
$CLAYER
  8
SUNPOU
  9
$CELTYPE
  6
BYLAYER
  9
$CECOLOR
 62
   256
  9
$CELTSCALE
 40
1.0
  9
$DISPSILH
 70
     0
  9
$DIMSCALE
 40
1.0
  9
$DIMASZ
 40
3.0
  9
$DIMEXO
 40
3.0
  9
$DIMDLI
 40
7.0
  9
$DIMRND
 40
0.0
  9
$DIMDLE
 40
0.0
  9
$DIMEXE
 40
1.5
  9
$DIMTP
 40
0.0
  9
$DIMTM
 40
0.0
  9
$DIMTXT
 40
3.0
  9
$DIMCEN
 40
150.0
  9
$DIMTSZ
 40
0.0
  9
$DIMTOL
 70
     0
  9
$DIMLIM
 70
     0
  9
$DIMTIH
 70
     0
  9
$DIMTOH
 70
     0
  9
$DIMSE1
 70
     0
  9
$DIMSE2
 70
     0
  9
$DIMTAD
 70
     3
  9
$DIMZIN
 70
     0
  9
$DIMBLK
  1

  9
$DIMASO
 70
     1
  9
$DIMSHO
 70
     1
  9
$DIMPOST
  1

  9
$DIMAPOST
  1

  9
$DIMALT
 70
     0
  9
$DIMALTD
 70
     2
  9
$DIMALTF
 40
25.4
  9
$DIMLFAC
 40
1.0
  9
$DIMTOFL
 70
     1
  9
$DIMTVP
 40
0.0
  9
$DIMTIX
 70
     0
  9
$DIMSOXD
 70
     0
  9
$DIMSAH
 70
     1
  9
$DIMBLK1
  1
OPEN
  9
$DIMBLK2
  1
OPEN
  9
$DIMSTYLE
  2
STANDARD
  9
$DIMCLRD
 70
   256
  9
$DIMCLRE
 70
   256
  9
$DIMCLRT
 70
   256
  9
$DIMTFAC
 40
1.0
  9
$DIMGAP
 40
1.0
  9
$DIMJUST
 70
     0
  9
$DIMSD1
 70
     0
  9
$DIMSD2
 70
     0
  9
$DIMTOLJ
 70
     1
  9
$DIMTZIN
 70
     0
  9
$DIMALTZ
 70
     0
  9
$DIMALTTZ
 70
     0
  9
$DIMUPT
 70
     1
  9
$DIMDEC
 70
     0
  9
$DIMTDEC
 70
     0
  9
$DIMALTU
 70
     2
  9
$DIMALTTD
 70
     2
  9
$DIMTXSTY
  7
STANDARD
  9
$DIMAUNIT
 70
     0
  9
$DIMADEC
 70
     0
  9
$DIMALTRND
 40
0.0
  9
$DIMAZIN
 70
     0
  9
$DIMDSEP
 70
    46
  9
$DIMATFIT
 70
     3
  9
$DIMFRAC
 70
     0
  9
$DIMLDRBLK
  1
OPEN
  9
$DIMLUNIT
 70
     2
  9
$DIMLWD
 70
    -1
  9
$DIMLWE
 70
    -1
  9
$DIMTMOVE
 70
     0
  9
$LUNITS
 70
     2
  9
$LUPREC
 70
     4
  9
$SKETCHINC
 40
1.0
  9
$FILLETRAD
 40
2.1
  9
$AUNITS
 70
     0
  9
$AUPREC
 70
     0
  9
$MENU
  1
.
  9
$ELEVATION
 40
0.0
  9
$PELEVATION
 40
0.0
  9
$THICKNESS
 40
0.0
  9
$LIMCHECK
 70
     0
  9
$CHAMFERA
 40
10.0
  9
$CHAMFERB
 40
10.0
  9
$CHAMFERC
 40
20.0
  9
$CHAMFERD
 40
0.0
  9
$SKPOLY
 70
     0
  9
$TDCREATE
 40
2451084.984058796
  9
$TDUCREATE
 40
2451084.609058796
  9
$TDUPDATE
 40
2455609.396644375
  9
$TDUUPDATE
 40
2455609.021644375
  9
$TDINDWG
 40
0.0577254861
  9
$TDUSRTIMER
 40
0.0577254861
  9
$USRTIMER
 70
     1
  9
$ANGBASE
 50
0.0
  9
$ANGDIR
 70
     0
  9
$PDMODE
 70
     0
  9
$PDSIZE
 40
0.0
  9
$PLINEWID
 40
0.0
  9
$SPLFRAME
 70
     0
  9
$SPLINETYPE
 70
     6
  9
$SPLINESEGS
 70
     8
  9
$HANDSEED
  5
CBE
  9
$SURFTAB1
 70
     6
  9
$SURFTAB2
 70
     6
  9
$SURFTYPE
 70
     6
  9
$SURFU
 70
     6
  9
$SURFV
 70
     6
  9
$UCSBASE
  2

  9
$UCSNAME
  2

  9
$UCSORG
 10
0.0
 20
0.0
 30
0.0
  9
$UCSXDIR
 10
1.0
 20
0.0
 30
0.0
  9
$UCSYDIR
 10
0.0
 20
1.0
 30
0.0
  9
$UCSORTHOREF
  2

  9
$UCSORTHOVIEW
 70
     0
  9
$UCSORGTOP
 10
0.0
 20
0.0
 30
0.0
  9
$UCSORGBOTTOM
 10
0.0
 20
0.0
 30
0.0
  9
$UCSORGLEFT
 10
0.0
 20
0.0
 30
0.0
  9
$UCSORGRIGHT
 10
0.0
 20
0.0
 30
0.0
  9
$UCSORGFRONT
 10
0.0
 20
0.0
 30
0.0
  9
$UCSORGBACK
 10
0.0
 20
0.0
 30
0.0
  9
$PUCSBASE
  2

  9
$PUCSNAME
  2

  9
$PUCSORG
 10
0.0
 20
0.0
 30
0.0
  9
$PUCSXDIR
 10
1.0
 20
0.0
 30
0.0
  9
$PUCSYDIR
 10
0.0
 20
1.0
 30
0.0
  9
$PUCSORTHOREF
  2

  9
$PUCSORTHOVIEW
 70
     0
  9
$PUCSORGTOP
 10
0.0
 20
0.0
 30
0.0
  9
$PUCSORGBOTTOM
 10
0.0
 20
0.0
 30
0.0
  9
$PUCSORGLEFT
 10
0.0
 20
0.0
 30
0.0
  9
$PUCSORGRIGHT
 10
0.0
 20
0.0
 30
0.0
  9
$PUCSORGFRONT
 10
0.0
 20
0.0
 30
0.0
  9
$PUCSORGBACK
 10
0.0
 20
0.0
 30
0.0
  9
$USERI1
 70
     0
  9
$USERI2
 70
     0
  9
$USERI3
 70
     0
  9
$USERI4
 70
     0
  9
$USERI5
 70
     0
  9
$USERR1
 40
0.0
  9
$USERR2
 40
0.0
  9
$USERR3
 40
0.0
  9
$USERR4
 40
0.0
  9
$USERR5
 40
0.0
  9
$WORLDVIEW
 70
     1
  9
$SHADEDGE
 70
     3
  9
$SHADEDIF
 70
    70
  9
$TILEMODE
 70
     1
  9
$MAXACTVP
 70
    16
  9
$PINSBASE
 10
0.0
 20
0.0
 30
0.0
  9
$PLIMCHECK
 70
     0
  9
$PEXTMIN
 10
0.0
 20
0.0
 30
0.0
  9
$PEXTMAX
 10
420.0
 20
297.0
 30
0.0
  9
$PLIMMIN
 10
0.0
 20
0.0
  9
$PLIMMAX
 10
420.0
 20
297.0
  9
$UNITMODE
 70
     0
  9
$VISRETAIN
 70
     0
  9
$PLINEGEN
 70
     0
  9
$PSLTSCALE
 70
     1
  9
$TREEDEPTH
 70
  3020
  9
$CMLSTYLE
  2
STANDARD
  9
$CMLJUST
 70
     0
  9
$CMLSCALE
 40
1.0
  9
$PROXYGRAPHICS
 70
     1
  9
$MEASUREMENT
 70
     1
  9
$CELWEIGHT
370
    -1
  9
$ENDCAPS
280
     0
  9
$JOINSTYLE
280
     0
  9
$LWDISPLAY
290
     0
  9
$INSUNITS
 70
     0
  9
$HYPERLINKBASE
  1

  9
$STYLESHEET
  1
print.ctb
  9
$XEDIT
290
     1
  9
$CEPSNTYPE
380
     0
  9
$PSTYLEMODE
290
     1
  9
$FINGERPRINTGUID
  2
{7435507A-D23F-11D3-932C-444553540000}
  9
$VERSIONGUID
  2
{E864B0BE-A35A-46B0-8C21-BD38B3127600}
  9
$EXTNAMES
290
     1
  9
$PSVPSCALE
 40
0.0
  9
$OLESTARTUP
290
     0
  0
ENDSEC
  0
SECTION
  2
CLASSES
  0
CLASS
  1
ACDBDICTIONARYWDFLT
  2
AcDbDictionaryWithDefault
  3
ObjectDBX Classes
 90
        0
280
     0
281
     0
  0
CLASS
  1
ACDBPLACEHOLDER
  2
AcDbPlaceHolder
  3
ObjectDBX Classes
 90
        0
280
     0
281
     0
  0
CLASS
  1
LAYOUT
  2
AcDbLayout
  3
ObjectDBX Classes
 90
        0
280
     0
281
     0
  0
CLASS
  1
DUMMY
  2
AcDbLongTransaction
  3
DUMMY
 90
        0
280
     0
281
     0
  0
CLASS
  1
LWPOLYLINE
  2
AcDbPolyline
  3
AutoCAD 2000
 90
        0
280
     0
281
     1
  0
CLASS
  1
HATCH
  2
AcDbHatch
  3
AutoCAD 2000
 90
        0
280
     0
281
     1
  0
CLASS
  1
XRECORD
  2
AcDbXrecord
  3
AutoCAD 2000
 90
        0
280
     0
281
     0
  0
CLASS
  1
DUMMY
  2
AcDbLongTransaction
  3
DUMMY
 90
        0
280
     0
281
     0
  0
CLASS
  1
LWPOLYLINE
  2
AcDbPolyline
  3
AutoCAD 2000
 90
        0
280
     0
281
     1
  0
CLASS
  1
HATCH
  2
AcDbHatch
  3
AutoCAD 2000
 90
        0
280
     0
281
     1
  0
CLASS
  1
XRECORD
  2
AcDbXrecord
  3
AutoCAD 2000
 90
        0
280
     0
281
     0
  0
CLASS
  1
DUMMY
  2
AcDbLongTransaction
  3
DUMMY
 90
        0
280
     0
281
     0
  0
CLASS
  1
LWPOLYLINE
  2
AcDbPolyline
  3
AutoCAD 2000
 90
        0
280
     0
281
     1
  0
CLASS
  1
HATCH
  2
AcDbHatch
  3
AutoCAD 2000
 90
        0
280
     0
281
     1
  0
CLASS
  1
XRECORD
  2
AcDbXrecord
  3
AutoCAD 2000
 90
        0
280
     0
281
     0
  0
CLASS
  1
DUMMY
  2
AcDbLongTransaction
  3
DUMMY
 90
        0
280
     0
281
     0
  0
CLASS
  1
LWPOLYLINE
  2
AcDbPolyline
  3
AutoCAD 2000
 90
        0
280
     0
281
     1
  0
CLASS
  1
HATCH
  2
AcDbHatch
  3
AutoCAD 2000
 90
        0
280
     0
281
     1
  0
CLASS
  1
XRECORD
  2
AcDbXrecord
  3
AutoCAD 2000
 90
        0
280
     0
281
     0
  0
CLASS
  1
DUMMY
  2
AcDbLongTransaction
  3
DUMMY
 90
        0
280
     0
281
     0
  0
CLASS
  1
LWPOLYLINE
  2
AcDbPolyline
  3
AutoCAD 2000
 90
        0
280
     0
281
     1
  0
CLASS
  1
HATCH
  2
AcDbHatch
  3
AutoCAD 2000
 90
        0
280
     0
281
     1
  0
CLASS
  1
XRECORD
  2
AcDbXrecord
  3
AutoCAD 2000
 90
        0
280
     0
281
     0
  0
CLASS
  1
DUMMY
  2
AcDbLongTransaction
  3
DUMMY
 90
        0
280
     0
281
     0
  0
CLASS
  1
LWPOLYLINE
  2
AcDbPolyline
  3
AutoCAD 2000
 90
        0
280
     0
281
     1
  0
CLASS
  1
HATCH
  2
AcDbHatch
  3
AutoCAD 2000
 90
        0
280
     0
281
     1
  0
CLASS
  1
XRECORD
  2
AcDbXrecord
  3
AutoCAD 2000
 90
        0
280
     0
281
     0
  0
ENDSEC
  0
SECTION
  2
TABLES
  0
TABLE
  2
VPORT
  5
8
330
0
100
AcDbSymbolTable
 70
     2
  0
VPORT
  5
CBD
330
8
100
AcDbSymbolTableRecord
100
AcDbViewportTableRecord
  2
*Active
 70
     0
 10
0.0
 20
0.0
 11
1.0
 21
1.0
 12
206.1015225903575
 22
148.772693534467
 13
0.0
 23
0.0
 14
5.0
 24
5.0
 15
0.0
 25
0.0
 16
0.0
 26
0.0
 36
1.0
 17
0.0
 27
0.0
 37
0.0
 40
318.6738911431735
 41
1.651537335285505
 42
50.0
 43
0.0
 44
0.0
 50
0.0
 51
0.0
 71
     0
 72
   100
 73
     1
 74
     0
 75
     0
 76
     0
 77
     0
 78
     0
281
     0
 65
     1
110
0.0
120
0.0
130
0.0
111
1.0
121
0.0
131
0.0
112
0.0
122
1.0
132
0.0
 79
     0
146
0.0
  0
ENDTAB
  0
TABLE
  2
LTYPE
  5
5
330
0
100
AcDbSymbolTable
 70
     3
  0
LTYPE
  5
14
330
5
100
AcDbSymbolTableRecord
100
AcDbLinetypeTableRecord
  2
BYBLOCK
 70
     0
  3

 72
    65
 73
     0
 40
0.0
  0
LTYPE
  5
15
330
5
100
AcDbSymbolTableRecord
100
AcDbLinetypeTableRecord
  2
BYLAYER
 70
     0
  3

 72
    65
 73
     0
 40
0.0
  0
LTYPE
  5
16
330
5
100
AcDbSymbolTableRecord
100
AcDbLinetypeTableRecord
  2
CONTINUOUS
 70
     0
  3
Solid line
 72
    65
 73
     0
 40
0.0
  0
LTYPE
  5
120
330
5
100
AcDbSymbolTableRecord
100
AcDbLinetypeTableRecord
  2
CENTER
 70
     0
  3
____ _ ____ _ ____ _ ____ _ ____ _ ____ _ ____ 
 72
    65
 73
     4
 40
2.0
 49
1.25
 74
     0
 49
-0.25
 74
     0
 49
0.25
 74
     0
 49
-0.25
 74
     0
  0
LTYPE
  5
AD5
330
5
100
AcDbSymbolTableRecord
100
AcDbLinetypeTableRecord
  2
PHANTOM
 70
     0
  3
______  __  __  ______  __  __  ______  __  __ 
 72
    65
 73
     6
 40
2.5
 49
1.25
 74
     0
 49
-0.25
 74
     0
 49
0.25
 74
     0
 49
-0.25
 74
     0
 49
0.25
 74
     0
 49
-0.25
 74
     0
  0
ENDTAB
  0
TABLE
  2
LAYER
  5
2
330
0
100
AcDbSymbolTable
 70
     9
  0
LAYER
  5
F
330
2
100
AcDbSymbolTableRecord
100
AcDbLayerTableRecord
  2
0
 70
     0
 62
     7
  6
CONTINUOUS
370
    -3
390
3B0
  0
LAYER
  5
62
330
2
100
AcDbSymbolTableRecord
100
AcDbLayerTableRecord
  2
VIEWPORT
 70
     0
 62
     7
  6
CONTINUOUS
370
    -3
390
3B0
  0
LAYER
  5
6B
330
2
100
AcDbSymbolTableRecord
100
AcDbLayerTableRecord
  2
ZUWAKU
 70
     0
 62
     7
  6
CONTINUOUS
370
    -3
390
3B0
  0
LAYER
  5
134
330
2
100
AcDbSymbolTableRecord
100
AcDbLayerTableRecord
  2
SUNPOU
 70
     0
 62
     4
  6
CONTINUOUS
370
    -3
390
3B0
  0
LAYER
  5
135
330
2
100
AcDbSymbolTableRecord
100
AcDbLayerTableRecord
  2
CENTER L
 70
     0
 62
     1
  6
CENTER
370
    -3
390
3B0
  0
LAYER
  5
136
330
2
100
AcDbSymbolTableRecord
100
AcDbLayerTableRecord
  2
SEIHIN
 70
     0
 62
     3
  6
CONTINUOUS
370
    -3
390
3B0
  0
LAYER
  5
163
330
2
100
AcDbSymbolTableRecord
100
AcDbLayerTableRecord
  2
DEFPOINTS
 70
     0
 62
     7
  6
CONTINUOUS
290
     0
370
    -3
390
3B0
  0
LAYER
  5
90A
330
2
100
AcDbSymbolTableRecord
100
AcDbLayerTableRecord
  2
moji
 70
     0
 62
     2
  6
CONTINUOUS
370
    -3
390
3B0
  0
LAYER
  5
AD6
330
2
100
AcDbSymbolTableRecord
100
AcDbLayerTableRecord
  2
NOKITOI
 70
     0
 62
     8
  6
PHANTOM
370
    -3
390
3B0
  0
ENDTAB
  0
TABLE
  2
STYLE
  5
3
330
0
100
AcDbSymbolTable
 70
     2
  0
STYLE
  5
10
330
3
100
AcDbSymbolTableRecord
100
AcDbTextStyleTableRecord
  2
STANDARD
 70
     0
 40
0.0
 41
1.0
 50
0.0
 71
     0
 42
2.5
  3
TXT
  4
bigfont.shx
  0
STYLE
  5
90B
330
3
100
AcDbSymbolTableRecord
100
AcDbTextStyleTableRecord
  2
ｽﾀｲﾙ1
 70
     0
 40
0.0
 41
1.0
 50
0.0
 71
     0
 42
2.5
  3
MS PGothic.ttf
  4

1001
ACAD
1000
MS PGothic
1071
    32818
  0
ENDTAB
  0
TABLE
  2
VIEW
  5
6
330
0
100
AcDbSymbolTable
 70
     0
  0
ENDTAB
  0
TABLE
  2
UCS
  5
7
330
0
100
AcDbSymbolTable
 70
     0
  0
ENDTAB
  0
TABLE
  2
APPID
  5
9
330
0
100
AcDbSymbolTable
 70
     1
  0
APPID
  5
11
330
9
100
AcDbSymbolTableRecord
100
AcDbRegAppTableRecord
  2
ACAD
 70
     0
  0
ENDTAB
  0
TABLE
  2
DIMSTYLE
  5
A
330
0
100
AcDbSymbolTable
 70
     1
100
AcDbDimStyleTable
  0
DIMSTYLE
105
1D
102
{ACAD_REACTORS
330
B8E
330
B8F
330
BDA
330
BDE
330
BEB
330
BEF
102
}
330
A
100
AcDbSymbolTableRecord
100
AcDbDimStyleTableRecord
  2
STANDARD
 70
     0
340
10
  0
ENDTAB
  0
TABLE
  2
BLOCK_RECORD
  5
1
330
0
100
AcDbSymbolTable
 70
     7
  0
BLOCK_RECORD
  5
1A
330
1
100
AcDbSymbolTableRecord
100
AcDbBlockTableRecord
  2
*MODEL_SPACE
340
3B3
  0
BLOCK_RECORD
  5
17
330
1
100
AcDbSymbolTableRecord
100
AcDbBlockTableRecord
  2
*PAPER_SPACE
340
3B4
  0
BLOCK_RECORD
  5
B2
330
1
100
AcDbSymbolTableRecord
100
AcDbBlockTableRecord
  2
_OPEN
340
0
102
{BLKREFS
331
C84
331
C85
331
C8D
331
C8E
331
C96
331
C97
331
C9F
331
CA0
331
CA8
331
CA9
331
CB1
331
CB2
102
}
  0
BLOCK_RECORD
  5
C39
330
1
100
AcDbSymbolTableRecord
100
AcDbBlockTableRecord
  2
*D1
340
0
  0
BLOCK_RECORD
  5
C45
330
1
100
AcDbSymbolTableRecord
100
AcDbBlockTableRecord
  2
*D2
340
0
  0
BLOCK_RECORD
  5
C51
330
1
100
AcDbSymbolTableRecord
100
AcDbBlockTableRecord
  2
*D3
340
0
  0
BLOCK_RECORD
  5
C5D
330
1
100
AcDbSymbolTableRecord
100
AcDbBlockTableRecord
  2
*D4
340
0
  0
BLOCK_RECORD
  5
C69
330
1
100
AcDbSymbolTableRecord
100
AcDbBlockTableRecord
  2
*D5
340
0
  0
BLOCK_RECORD
  5
C75
330
1
100
AcDbSymbolTableRecord
100
AcDbBlockTableRecord
  2
*D6
340
0
  0
ENDTAB
  0
ENDSEC
  0
SECTION
  2
BLOCKS
  0
BLOCK
  5
1B
330
1A
100
AcDbEntity
  8
0
100
AcDbBlockBegin
  2
*MODEL_SPACE
 70
     0
 71
     0
 10
0.0
 20
0.0
 30
0.0
  3
*MODEL_SPACE
  1

  0
ENDBLK
  5
1C
330
1A
100
AcDbEntity
  8
0
100
AcDbBlockEnd
  0
BLOCK
  5
18
330
17
100
AcDbEntity
 67
     1
  8
0
100
AcDbBlockBegin
  2
*PAPER_SPACE
 70
     0
 71
     0
 10
0.0
 20
0.0
 30
0.0
  3
*PAPER_SPACE
  1

  0
ENDBLK
  5
19
330
17
100
AcDbEntity
 67
     1
  8
0
100
AcDbBlockEnd
  0
BLOCK
  5
B3
330
B2
100
AcDbEntity
  8
0
100
AcDbBlockBegin
  2
_OPEN
 70
     0
 71
     0
 10
0.0
 20
0.0
 30
0.0
  3
_OPEN
  1

  0
LINE
  5
B4
330
B2
100
AcDbEntity
  8
0
  6
ByBlock
 62
     0
100
AcDbLine
 10
-1.0
 20
0.1666666666666667
 30
0.0
 11
0.0
 21
0.0
 31
0.0
  0
LINE
  5
B5
330
B2
100
AcDbEntity
  8
0
  6
ByBlock
 62
     0
100
AcDbLine
 10
0.0
 20
0.0
 30
0.0
 11
-1.0
 21
-0.1666666666666667
 31
0.0
  0
LINE
  5
B6
330
B2
100
AcDbEntity
  8
0
  6
ByBlock
 62
     0
100
AcDbLine
 10
0.0
 20
0.0
 30
0.0
 11
-1.0
 21
0.0
 31
0.0
  0
ENDBLK
  5
B7
330
B2
100
AcDbEntity
  8
0
100
AcDbBlockEnd
  0
BLOCK
  5
C43
330
C39
100
AcDbEntity
  8
0
100
AcDbBlockBegin
  2
*D1
 70
     1
 71
     0
 10
0.0
 20
0.0
 30
0.0
  3
*D1
  1

  0
LINE
  5
C81
330
C39
100
AcDbEntity
  8
SUNPOU
 62
     4
370
    -2
100
AcDbLine
 10
196.3099114816467
 20
131.7032875294774
 30
0.0
 11
182.7493875883472
 21
131.7032875294774
 31
0.0
  0
LINE
  5
C82
330
C39
100
AcDbEntity
  8
SUNPOU
 62
     4
370
    -2
100
AcDbLine
 10
228.2771403204766
 20
48.8032875293388
 30
0.0
 11
182.7493875883472
 21
48.80328752933881
 31
0.0
  0
LINE
  5
C83
330
C39
100
AcDbEntity
  8
SUNPOU
 62
     4
370
    -2
100
AcDbLine
 10
184.2493875883472
 20
128.7032875294774
 30
0.0
 11
184.2493875883472
 21
51.80328752933881
 31
0.0
  0
INSERT
  5
C84
330
C39
100
AcDbEntity
  8
SUNPOU
 62
     4
370
    -2
100
AcDbBlockReference
  2
_OPEN
 10
184.2493875883472
 20
131.7032875294774
 30
0.0
 41
3.0
 42
3.0
 43
3.0
 50
90.0
  0
INSERT
  5
C85
330
C39
100
AcDbEntity
  8
SUNPOU
 62
     4
370
    -2
100
AcDbBlockReference
  2
_OPEN
 10
184.2493875883472
 20
48.80328752933881
 30
0.0
 41
3.0
 42
3.0
 43
3.0
 50
270.0
  0
MTEXT
  5
C86
330
C39
100
AcDbEntity
  8
SUNPOU
 62
     4
100
AcDbMText
 10
181.7493875883472
 20
90.25328752940814
 30
0.0
 40
3.0
 41
0.0
 71
     5
 72
     1
  1
\A1;83
 11
6.123031769111886E-17
 21
1.0
 31
0.0
 73
     1
 44
1.0
  0
POINT
  5
C87
330
C39
100
AcDbEntity
  8
DEFPOINTS
 62
     0
100
AcDbPoint
 10
199.3099114816467
 20
131.7032875294774
 30
0.0
  0
POINT
  5
C88
330
C39
100
AcDbEntity
  8
DEFPOINTS
 62
     0
100
AcDbPoint
 10
231.2771403204766
 20
48.8032875293388
 30
0.0
  0
POINT
  5
C89
330
C39
100
AcDbEntity
  8
DEFPOINTS
 62
     0
100
AcDbPoint
 10
184.2493875883472
 20
48.80328752933881
 30
0.0
  0
ENDBLK
  5
C44
330
C39
100
AcDbEntity
  8
0
100
AcDbBlockEnd
  0
BLOCK
  5
C4F
330
C45
100
AcDbEntity
  8
0
100
AcDbBlockBegin
  2
*D2
 70
     1
 71
     0
 10
0.0
 20
0.0
 30
0.0
  3
*D2
  1

  0
LINE
  5
C8A
330
C45
100
AcDbEntity
  8
SUNPOU
 62
     4
370
    -2
100
AcDbLine
 10
196.3098788135305
 20
131.7032548613612
 30
0.0
 11
196.3098788135305
 21
145.3960790455429
 31
0.0
  0
LINE
  5
C8B
330
C45
100
AcDbEntity
  8
SUNPOU
 62
     4
370
    -2
100
AcDbLine
 10
331.6589403204766
 20
112.3032875293389
 30
0.0
 11
331.6589403204766
 21
145.3960790455429
 31
0.0
  0
LINE
  5
C8C
330
C45
100
AcDbEntity
  8
SUNPOU
 62
     4
370
    -2
100
AcDbLine
 10
199.3098788135305
 20
143.8960790455429
 30
0.0
 11
328.6589403204766
 21
143.8960790455429
 31
0.0
  0
INSERT
  5
C8D
330
C45
100
AcDbEntity
  8
SUNPOU
 62
     4
370
    -2
100
AcDbBlockReference
  2
_OPEN
 10
196.3098788135305
 20
143.8960790455429
 30
0.0
 41
3.0
 42
3.0
 43
3.0
 50
180.0
  0
INSERT
  5
C8E
330
C45
100
AcDbEntity
  8
SUNPOU
 62
     4
370
    -2
100
AcDbBlockReference
  2
_OPEN
 10
331.6589403204766
 20
143.8960790455429
 30
0.0
 41
3.0
 42
3.0
 43
3.0
  0
MTEXT
  5
C8F
330
C45
100
AcDbEntity
  8
SUNPOU
 62
     4
100
AcDbMText
 10
263.9844095670036
 20
146.3960790455429
 30
0.0
 40
3.0
 41
0.0
 71
     5
 72
     1
  1
\A1;135
 73
     1
 44
1.0
  0
POINT
  5
C90
330
C45
100
AcDbEntity
  8
DEFPOINTS
 62
     0
100
AcDbPoint
 10
196.3098788135305
 20
128.7032548613612
 30
0.0
  0
POINT
  5
C91
330
C45
100
AcDbEntity
  8
DEFPOINTS
 62
     0
100
AcDbPoint
 10
331.6589403204766
 20
109.3032875293389
 30
0.0
  0
POINT
  5
C92
330
C45
100
AcDbEntity
  8
DEFPOINTS
 62
     0
100
AcDbPoint
 10
331.6589403204766
 20
143.8960790455429
 30
0.0
  0
ENDBLK
  5
C50
330
C45
100
AcDbEntity
  8
0
100
AcDbBlockEnd
  0
BLOCK
  5
C5B
330
C51
100
AcDbEntity
  8
0
100
AcDbBlockBegin
  2
*D3
 70
     1
 71
     0
 10
0.0
 20
0.0
 30
0.0
  3
*D3
  1

  0
LINE
  5
C93
330
C51
100
AcDbEntity
  8
SUNPOU
 62
     4
370
    -2
100
AcDbLine
 10
194.4331403204766
 20
247.7863527354988
 30
0.0
 11
167.5186560004181
 21
247.7863527354988
 31
0.0
  0
LINE
  5
C94
330
C51
100
AcDbEntity
  8
SUNPOU
 62
     4
370
    -2
100
AcDbLine
 10
194.4331403204766
 20
177.7863527354988
 30
0.0
 11
167.5186560004181
 21
177.7863527354988
 31
0.0
  0
LINE
  5
C95
330
C51
100
AcDbEntity
  8
SUNPOU
 62
     4
370
    -2
100
AcDbLine
 10
169.0186560004181
 20
244.7863527354988
 30
0.0
 11
169.0186560004181
 21
180.7863527354988
 31
0.0
  0
INSERT
  5
C96
330
C51
100
AcDbEntity
  8
SUNPOU
 62
     4
370
    -2
100
AcDbBlockReference
  2
_OPEN
 10
169.0186560004181
 20
247.7863527354988
 30
0.0
 41
3.0
 42
3.0
 43
3.0
 50
90.0
  0
INSERT
  5
C97
330
C51
100
AcDbEntity
  8
SUNPOU
 62
     4
370
    -2
100
AcDbBlockReference
  2
_OPEN
 10
169.0186560004181
 20
177.7863527354988
 30
0.0
 41
3.0
 42
3.0
 43
3.0
 50
270.0
  0
MTEXT
  5
C98
330
C51
100
AcDbEntity
  8
SUNPOU
 62
     4
100
AcDbMText
 10
166.5186560004181
 20
212.7863527354988
 30
0.0
 40
3.0
 41
0.0
 71
     5
 72
     1
  1
\A1;70
 11
6.123031769111886E-17
 21
1.0
 31
0.0
 73
     1
 44
1.0
  0
POINT
  5
C99
330
C51
100
AcDbEntity
  8
DEFPOINTS
 62
     0
100
AcDbPoint
 10
197.4331403204766
 20
247.7863527354988
 30
0.0
  0
POINT
  5
C9A
330
C51
100
AcDbEntity
  8
DEFPOINTS
 62
     0
100
AcDbPoint
 10
197.4331403204766
 20
177.7863527354988
 30
0.0
  0
POINT
  5
C9B
330
C51
100
AcDbEntity
  8
DEFPOINTS
 62
     0
100
AcDbPoint
 10
169.0186560004181
 20
177.7863527354988
 30
0.0
  0
ENDBLK
  5
C5C
330
C51
100
AcDbEntity
  8
0
100
AcDbBlockEnd
  0
BLOCK
  5
C67
330
C5D
100
AcDbEntity
  8
0
100
AcDbBlockBegin
  2
*D4
 70
     1
 71
     0
 10
0.0
 20
0.0
 30
0.0
  3
*D4
  1

  0
LINE
  5
C9C
330
C5D
100
AcDbEntity
  8
SUNPOU
 62
     4
370
    -2
100
AcDbLine
 10
197.6956403204765
 20
202.7863527354988
 30
0.0
 11
182.7493875914616
 21
202.7863527354988
 31
0.0
  0
LINE
  5
C9D
330
C5D
100
AcDbEntity
  8
SUNPOU
 62
     4
370
    -2
100
AcDbLine
 10
194.4331403204766
 20
177.7863527354988
 30
0.0
 11
182.7493875914615
 21
177.7863527354988
 31
0.0
  0
LINE
  5
C9E
330
C5D
100
AcDbEntity
  8
SUNPOU
 62
     4
370
    -2
100
AcDbLine
 10
184.2493875914616
 20
199.7863527354988
 30
0.0
 11
184.2493875914615
 21
180.7863527354988
 31
0.0
  0
INSERT
  5
C9F
330
C5D
100
AcDbEntity
  8
SUNPOU
 62
     4
370
    -2
100
AcDbBlockReference
  2
_OPEN
 10
184.2493875914616
 20
202.7863527354988
 30
0.0
 41
3.0
 42
3.0
 43
3.0
 50
90.0
  0
INSERT
  5
CA0
330
C5D
100
AcDbEntity
  8
SUNPOU
 62
     4
370
    -2
100
AcDbBlockReference
  2
_OPEN
 10
184.2493875914615
 20
177.7863527354988
 30
0.0
 41
3.0
 42
3.0
 43
3.0
 50
270.0
  0
MTEXT
  5
CA1
330
C5D
100
AcDbEntity
  8
SUNPOU
 62
     4
100
AcDbMText
 10
181.7493875914615
 20
190.2863527354988
 30
0.0
 40
3.0
 41
0.0
 71
     5
 72
     1
  1
\A1;※ 25
 11
6.123031769111886E-17
 21
1.0
 31
0.0
 73
     1
 44
1.0
  0
POINT
  5
CA2
330
C5D
100
AcDbEntity
  8
DEFPOINTS
 62
     0
100
AcDbPoint
 10
200.6956403204765
 20
202.7863527354988
 30
0.0
  0
POINT
  5
CA3
330
C5D
100
AcDbEntity
  8
DEFPOINTS
 62
     0
100
AcDbPoint
 10
197.4331403204766
 20
177.7863527354988
 30
0.0
  0
POINT
  5
CA4
330
C5D
100
AcDbEntity
  8
DEFPOINTS
 62
     0
100
AcDbPoint
 10
184.2493875914615
 20
177.7863527354988
 30
0.0
  0
ENDBLK
  5
C68
330
C5D
100
AcDbEntity
  8
0
100
AcDbBlockEnd
  0
BLOCK
  5
C73
330
C69
100
AcDbEntity
  8
0
100
AcDbBlockBegin
  2
*D5
 70
     1
 71
     0
 10
0.0
 20
0.0
 30
0.0
  3
*D5
  1

  0
LINE
  5
CA5
330
C69
100
AcDbEntity
  8
SUNPOU
 62
     4
370
    -2
100
AcDbLine
 10
328.1589403204765
 20
112.3032875293388
 30
0.0
 11
350.069123951336
 21
112.3032875293388
 31
0.0
  0
LINE
  5
CA6
330
C69
100
AcDbEntity
  8
SUNPOU
 62
     4
370
    -2
100
AcDbLine
 10
323.7771403204764
 20
48.8032875293388
 30
0.0
 11
350.069123951336
 21
48.8032875293388
 31
0.0
  0
LINE
  5
CA7
330
C69
100
AcDbEntity
  8
SUNPOU
 62
     4
370
    -2
100
AcDbLine
 10
348.569123951336
 20
109.3032875293388
 30
0.0
 11
348.569123951336
 21
51.8032875293388
 31
0.0
  0
INSERT
  5
CA8
330
C69
100
AcDbEntity
  8
SUNPOU
 62
     4
370
    -2
100
AcDbBlockReference
  2
_OPEN
 10
348.569123951336
 20
112.3032875293388
 30
0.0
 41
3.0
 42
3.0
 43
3.0
 50
90.0
  0
INSERT
  5
CA9
330
C69
100
AcDbEntity
  8
SUNPOU
 62
     4
370
    -2
100
AcDbBlockReference
  2
_OPEN
 10
348.569123951336
 20
48.8032875293388
 30
0.0
 41
3.0
 42
3.0
 43
3.0
 50
270.0
  0
MTEXT
  5
CAA
330
C69
100
AcDbEntity
  8
SUNPOU
 62
     4
100
AcDbMText
 10
346.069123951336
 20
80.55328752933886
 30
0.0
 40
3.0
 41
0.0
 71
     5
 72
     1
  1
\A1;64
 11
6.123031769111886E-17
 21
1.0
 31
0.0
 73
     1
 44
1.0
  0
POINT
  5
CAB
330
C69
100
AcDbEntity
  8
DEFPOINTS
 62
     0
100
AcDbPoint
 10
325.1589403204765
 20
112.3032875293388
 30
0.0
  0
POINT
  5
CAC
330
C69
100
AcDbEntity
  8
DEFPOINTS
 62
     0
100
AcDbPoint
 10
320.7771403204764
 20
48.8032875293388
 30
0.0
  0
POINT
  5
CAD
330
C69
100
AcDbEntity
  8
DEFPOINTS
 62
     0
100
AcDbPoint
 10
348.569123951336
 20
48.8032875293388
 30
0.0
  0
ENDBLK
  5
C74
330
C69
100
AcDbEntity
  8
0
100
AcDbBlockEnd
  0
BLOCK
  5
C7F
330
C75
100
AcDbEntity
  8
0
100
AcDbBlockBegin
  2
*D6
 70
     1
 71
     0
 10
0.0
 20
0.0
 30
0.0
  3
*D6
  1

  0
LINE
  5
CAE
330
C75
100
AcDbEntity
  8
SUNPOU
 62
     4
370
    -2
100
AcDbLine
 10
229.5425527146473
 20
45.8032875293388
 30
0.0
 11
229.5425527146473
 21
30.71965464283585
 31
0.0
  0
LINE
  5
CAF
330
C75
100
AcDbEntity
  8
SUNPOU
 62
     4
370
    -2
100
AcDbLine
 10
322.6882561931377
 20
45.8032875293388
 30
0.0
 11
322.6882561931377
 21
30.71965464283585
 31
0.0
  0
LINE
  5
CB0
330
C75
100
AcDbEntity
  8
SUNPOU
 62
     4
370
    -2
100
AcDbLine
 10
232.5425527146473
 20
32.21965464283585
 30
0.0
 11
319.6882561931377
 21
32.21965464283585
 31
0.0
  0
INSERT
  5
CB1
330
C75
100
AcDbEntity
  8
SUNPOU
 62
     4
370
    -2
100
AcDbBlockReference
  2
_OPEN
 10
229.5425527146473
 20
32.21965464283585
 30
0.0
 41
3.0
 42
3.0
 43
3.0
 50
180.0
  0
INSERT
  5
CB2
330
C75
100
AcDbEntity
  8
SUNPOU
 62
     4
370
    -2
100
AcDbBlockReference
  2
_OPEN
 10
322.6882561931377
 20
32.21965464283585
 30
0.0
 41
3.0
 42
3.0
 43
3.0
  0
MTEXT
  5
CB3
330
C75
100
AcDbEntity
  8
SUNPOU
 62
     4
100
AcDbMText
 10
276.1154044538925
 20
34.71965464283585
 30
0.0
 40
3.0
 41
0.0
 71
     5
 72
     1
  1
\A1;93
 73
     1
 44
1.0
  0
POINT
  5
CB4
330
C75
100
AcDbEntity
  8
DEFPOINTS
 62
     0
100
AcDbPoint
 10
229.5425527146473
 20
48.8032875293388
 30
0.0
  0
POINT
  5
CB5
330
C75
100
AcDbEntity
  8
DEFPOINTS
 62
     0
100
AcDbPoint
 10
322.6882561931377
 20
48.8032875293388
 30
0.0
  0
POINT
  5
CB6
330
C75
100
AcDbEntity
  8
DEFPOINTS
 62
     0
100
AcDbPoint
 10
322.6882561931377
 20
32.21965464283585
 30
0.0
  0
ENDBLK
  5
C80
330
C75
100
AcDbEntity
  8
0
100
AcDbBlockEnd
  0
ENDSEC
  0
SECTION
  2
ENTITIES
  0
LINE
  5
9C6
330
1A
100
AcDbEntity
  8
ZUWAKU
100
AcDbLine
 10
104.32330065859
 20
7.599999868288702
 30
0.0
 11
223.7121819990517
 21
7.599999868288698
 31
0.0
  0
LINE
  5
9C7
330
1A
100
AcDbEntity
  8
ZUWAKU
100
AcDbLine
 10
104.32330065859
 20
7.799999868288699
 30
0.0
 11
223.7121819990517
 21
7.799999868288703
 31
0.0
  0
LINE
  5
9C8
330
1A
100
AcDbEntity
  8
ZUWAKU
100
AcDbLine
 10
104.32330065859
 20
7.6999998682887
 30
0.0
 11
223.7121819990517
 21
7.6999998682887
 31
0.0
  0
LINE
  5
9C9
330
1A
100
AcDbEntity
  8
ZUWAKU
100
AcDbLine
 10
0.0000000135560185
 20
15.39999986828869
 30
0.0
 11
398.700000013556
 21
15.39999986828869
 31
0.0
  0
LINE
  5
9CA
330
1A
100
AcDbEntity
  8
ZUWAKU
100
AcDbLine
 10
0.0000000135560185
 20
15.29999986828869
 30
0.0
 11
398.700000013556
 21
15.29999986828869
 31
0.0
  0
LINE
  5
9CB
330
1A
100
AcDbEntity
  8
ZUWAKU
100
AcDbLine
 10
0.0000000135560185
 20
15.19999986828869
 30
0.0
 11
398.700000013556
 21
15.19999986828869
 31
0.0
  0
LINE
  5
9CC
330
1A
100
AcDbEntity
  8
ZUWAKU
100
AcDbLine
 10
0.0000000135560185
 20
15.09999986828868
 30
0.0
 11
398.700000013556
 21
15.09999986828868
 31
0.0
  0
LINE
  5
9CD
330
1A
100
AcDbEntity
  8
ZUWAKU
100
AcDbLine
 10
0.0000000135560185
 20
14.99999986828868
 30
0.0
 11
398.700000013556
 21
14.99999986828868
 31
0.0
  0
LWPOLYLINE
  5
9CE
330
1A
100
AcDbEntity
  8
ZUWAKU
100
AcDbPolyline
 90
        4
 70
     1
 43
0.0
 10
0.1000000135559844
 20
275.6999998682887
 10
0.1000000135559844
 20
0.0999998682887053
 10
398.700000013556
 20
0.0999998682887169
 10
398.7000000135561
 20
275.6999998682887
  0
LWPOLYLINE
  5
9CF
330
1A
100
AcDbEntity
  8
ZUWAKU
100
AcDbPolyline
 90
        4
 70
     1
 43
0.0
 10
0.3000000135559731
 20
275.4999998682887
 10
0.3000000135559731
 20
0.299999868288694
 10
398.5000000135561
 20
0.2999998682887171
 10
398.500000013556
 20
275.4999998682887
  0
LWPOLYLINE
  5
9D0
330
1A
100
AcDbEntity
  8
ZUWAKU
100
AcDbPolyline
 90
        4
 70
     1
 43
0.0
 10
0.0000000135560185
 20
275.7999998682887
 10
0.0000000135560185
 20
-0.0000001317113174
 10
398.8000000135561
 20
-0.0000001317112837
 10
398.8000000135561
 20
275.7999998682888
  0
LWPOLYLINE
  5
9D1
330
1A
100
AcDbEntity
  8
ZUWAKU
100
AcDbPolyline
 90
        4
 70
     1
 43
0.0
 10
0.2000000135560072
 20
275.5999998682887
 10
0.2000000135560072
 20
0.1999998682887281
 10
398.600000013556
 20
0.1999998682887165
 10
398.600000013556
 20
275.5999998682887
  0
LWPOLYLINE
  5
9D2
330
1A
100
AcDbEntity
  8
ZUWAKU
100
AcDbPolyline
 90
        4
 70
     1
 43
0.0
 10
0.4000000135559958
 20
275.3999998682887
 10
0.4000000135559958
 20
0.3999998682887167
 10
398.400000013556
 20
0.3999998682887167
 10
398.400000013556
 20
275.3999998682887
  0
TEXT
  5
9D3
330
1A
100
AcDbEntity
  8
moji
100
AcDbText
 10
46.47889480764059
 20
6.370588933426063
 30
0.0
 40
3.0
  1
アーバントップΣ９０
 41
0.9
  7
ｽﾀｲﾙ1
100
AcDbText
  0
HATCH
  5
9D4
330
1A
100
AcDbEntity
  8
ZUWAKU
100
AcDbHatch
 10
0.0
 20
0.0
 30
0.0
210
0.0
220
0.0
230
1.0
  2
ANSI37
 70
     0
 71
     0
 91
        8
 92
        7
 72
     1
 73
     1
 93
       24
 10
7.251131344115947
 20
8.822424108780474
 42
-0.1989123673796348
 10
7.04610609094658
 20
9.317398855611
 42
0.0
 10
7.04610609094658
 20
9.962499868288688
 42
-0.4142135623730912
 10
7.308606090946569
 20
10.22499986828868
 42
0.0
 10
8.796106090946523
 20
10.22499986828868
 42
0.4142135623731546
 10
9.058606090946569
 20
10.48749986828868
 42
0.0
 10
9.058606090946569
 20
11.36249986828869
 42
0.4142135623731586
 10
8.796106090946523
 20
11.62499986828869
 42
0.0
 10
7.04610609094658
 20
11.62499986828869
 42
0.4142135623730928
 10
5.646106090946603
 20
10.2249998682887
 42
0.0
 10
5.646106090946603
 20
9.317398855611064
 42
0.1989123673796619
 10
6.261181850454818
 20
7.83247461511926
 42
0.0
 10
7.716080837777156
 20
6.377575627796931
 42
-0.1989123673796613
 10
7.92110609094658
 20
5.882600880966338
 42
0.0
 10
7.92110609094658
 20
5.23749986828868
 42
-0.4142135623730911
 10
7.658606090946591
 20
4.974999868288684
 42
0.0
 10
6.171106090946637
 20
4.974999868288684
 42
0.4142135623731526
 10
5.908606090946591
 20
4.71249986828869
 42
0.0
 10
5.908606090946591
 20
3.837499868288679
 42
0.4142135623731526
 10
6.171106090946637
 20
3.574999868288685
 42
0.0
 10
7.92110609094658
 20
3.574999868288685
 42
0.4142135623731044
 10
9.321106090946614
 20
4.974999868288673
 42
0.0
 10
9.321106090946614
 20
5.88260088096631
 42
0.1989123673796604
 10
8.706030331438342
 20
7.36752512145808
 42
0.0
 97
        0
 92
        7
 72
     1
 73
     1
 93
       16
 10
11.7711060909466
 20
9.524999868288688
 42
-0.4142135623730935
 10
12.47110609094659
 20
10.22499986828868
 42
0.0
 10
13.43360609094657
 20
10.22499986828868
 42
0.4142135623731546
 10
13.69610609094661
 20
10.48749986828868
 42
0.0
 10
13.69610609094661
 20
11.36249986828869
 42
0.4142135623730952
 10
13.43360609094663
 20
11.62499986828869
 42
0.0
 10
12.47110609094654
 20
11.62499986828867
 42
0.4142135623730892
 10
10.37110609094657
 20
9.524999868288653
 42
0.0
 10
10.37110609094657
 20
5.674999868288698
 42
0.4142135623730969
 10
12.47110609094659
 20
3.574999868288685
 42
0.0
 10
13.43360609094657
 20
3.574999868288685
 42
0.4142135623731526
 10
13.69610609094661
 20
3.837499868288679
 42
0.0
 10
13.69610609094661
 20
4.71249986828869
 42
0.414213562373089
 10
13.43360609094663
 20
4.974999868288684
 42
0.0
 10
12.47110609094659
 20
4.974999868288684
 42
-0.4142135623730928
 10
11.7711060909466
 20
5.674999868288678
 42
0.0
 97
        0
 92
        7
 72
     1
 73
     1
 93
        2
 10
12.12110609094657
 20
7.599999868288684
 42
1.0
 10
13.87110609094657
 20
7.599999868288684
 42
1.0
 97
        0
 92
        7
 72
     1
 73
     1
 93
       26
 10
18.65742933203558
 20
9.602523465070398
 42
0.0
 10
19.18824914860448
 20
11.28345288420519
 42
0.5069206636600134
 10
18.93793369900681
 20
11.62499986828869
 42
0.0
 10
18.08848900920219
 20
11.62499986828869
 42
0.3272098845218764
 10
17.83817355960451
 20
11.44154685237217
 42
0.0
 10
16.90403862228862
 20
8.483452884205224
 42
-0.3272098845219541
 10
16.65372317269089
 20
8.299999868288683
 42
0.0
 10
16.58360609094666
 20
8.299999868288683
 42
-0.4142135623731526
 10
16.32110609094661
 20
8.562499868288677
 42
0.0
 10
16.32110609094661
 20
11.36249986828869
 42
0.4142135623730952
 10
16.05860609094663
 20
11.62499986828869
 42
0.0
 10
15.18360609094657
 20
11.62499986828869
 42
0.4142135623730872
 10
14.92110609094658
 20
11.36249986828869
 42
0.0
 10
14.92110609094658
 20
3.837499868288679
 42
0.414213562373089
 10
15.18360609094657
 20
3.574999868288685
 42
0.0
 10
16.05860609094657
 20
3.574999868288685
 42
0.4142135623731526
 10
16.32110609094661
 20
3.837499868288679
 42
0.0
 10
16.32110609094661
 20
6.637499868288691
 42
-0.4142135623731526
 10
16.58360609094666
 20
6.899999868288685
 42
0.0
 10
16.65372317269095
 20
6.899999868288685
 42
-0.3272098845218915
 10
16.90403862228862
 20
6.716546852372147
 42
0.0
 10
17.83817355960451
 20
3.758452884205221
 42
0.3272098845218902
 10
18.08848900920219
 20
3.574999868288685
 42
0.0
 10
18.93793369900681
 20
3.574999868288685
 42
0.5069206636600334
 10
19.18824914860448
 20
3.916546852372189
 42
0.0
 10
18.02505345936766
 20
7.599999868288753
 42
0.0
 97
        0
 92
        7
 72
     1
 73
     1
 93
        8
 10
21.74610609094657
 20
11.36249986828869
 42
0.4142135623731546
 10
21.48360609094652
 20
11.62499986828869
 42
0.0
 10
20.60860609094664
 20
11.62499986828869
 42
0.4142135623731506
 10
20.34610609094659
 20
11.36249986828869
 42
0.0
 10
20.34610609094659
 20
3.837499868288679
 42
0.4142135623731526
 10
20.60860609094664
 20
3.574999868288685
 42
0.0
 10
21.48360609094652
 20
3.574999868288685
 42
0.4142135623731526
 10
21.74610609094657
 20
3.837499868288679
 42
0.0
 97
        0
 92
        7
 72
     1
 73
     1
 93
       24
 10
24.19610609094661
 20
9.962499868288688
 42
-0.4142135623731547
 10
24.45860609094666
 20
10.22499986828868
 42
0.0
 10
25.94610609094661
 20
10.22499986828868
 42
0.4142135623730911
 10
26.2086060909466
 20
10.48749986828868
 42
0.0
 10
26.2086060909466
 20
11.36249986828869
 42
0.4142135623730952
 10
25.94610609094661
 20
11.62499986828869
 42
0.0
 10
24.19610609094661
 20
11.62499986828869
 42
0.4142135623731048
 10
22.79610609094658
 20
10.2249998682887
 42
0.0
 10
22.79610609094658
 20
9.317398855611064
 42
0.1989123673796613
 10
23.41118185045485
 20
7.832474615119288
 42
0.0
 10
24.86608083777719
 20
6.377575627796954
 42
-0.1989123673796402
 10
25.07110609094661
 20
5.882600880966418
 42
0.0
 10
25.07110609094661
 20
5.23749986828868
 42
-0.4142135623730911
 10
24.80860609094663
 20
4.974999868288684
 42
0.0
 10
23.32110609094661
 20
4.974999868288684
 42
0.4142135623731526
 10
23.05860609094657
 20
4.71249986828869
 42
0.0
 10
23.05860609094657
 20
3.837499868288679
 42
0.414213562373089
 10
23.32110609094656
 20
3.574999868288685
 42
0.0
 10
25.07110609094661
 20
3.574999868288685
 42
0.4142135623730925
 10
26.47110609094659
 20
4.974999868288673
 42
0.0
 10
26.47110609094659
 20
5.88260088096631
 42
0.1989123673796675
 10
25.85603033143832
 20
7.367525121458137
 42
0.0
 10
24.40113134411604
 20
8.822424108780394
 42
-0.1989123673796653
 10
24.19610609094661
 20
9.317398855610978
 42
0.0
 97
        0
 92
        7
 72
     1
 73
     1
 93
       16
 10
28.92110609094658
 20
11.36249986828868
 42
0.414213562373103
 10
28.65860609094659
 20
11.62499986828869
 42
0.0
 10
27.78360609094659
 20
11.62499986828869
 42
0.4142135623730872
 10
27.5211060909466
 20
11.36249986828869
 42
0.0
 10
27.5211060909466
 20
4.974999868288673
 42
0.4142135623730925
 10
28.92110609094658
 20
3.574999868288685
 42
0.0
 10
30.67110609094658
 20
3.574999868288685
 42
0.4142135623731044
 10
32.07110609094661
 20
4.974999868288673
 42
0.0
 10
32.07110609094661
 20
11.36249986828869
 42
0.4142135623730952
 10
31.80860609094663
 20
11.62499986828869
 42
0.0
 10
30.93360609094657
 20
11.62499986828869
 42
0.4142135623730872
 10
30.67110609094658
 20
11.36249986828869
 42
0.0
 10
30.67110609094658
 20
5.499999868288672
 42
-0.414213562373088
 10
30.1461060909466
 20
4.974999868288684
 42
0.0
 10
29.44610609094661
 20
4.974999868288684
 42
-0.4142135623731197
 10
28.92110609094658
 20
5.499999868288672
 42
0.0
 97
        0
 92
        7
 72
     1
 73
     1
 93
        8
 10
34.5211060909466
 20
11.36249986828869
 42
0.4142135623730872
 10
34.25860609094661
 20
11.62499986828869
 42
0.0
 10
33.38360609094661
 20
11.62499986828869
 42
0.4142135623731506
 10
33.12110609094657
 20
11.36249986828869
 42
0.0
 10
33.12110609094657
 20
3.837499868288679
 42
0.414213562373089
 10
33.38360609094656
 20
3.574999868288685
 42
0.0
 10
34.25860609094661
 20
3.574999868288685
 42
0.414213562373089
 10
34.5211060909466
 20
3.837499868288679
 42
0.0
 97
        0
 75
     0
 76
     1
 52
0.0
 41
0.1
 77
     0
 78
     2
 53
45.0
 43
-450.4711521537835
 44
-6.600000131711283
 45
-0.2245064030267288
 46
0.2245064030267289
 79
     0
 53
135.0
 43
-450.4711521537835
 44
-6.600000131711283
 45
-0.2245064030267289
 46
-0.2245064030267288
 79
     0
 47
0.057451373970553
 98
        8
 10
8.039927495067673
 20
7.58358669123146
 10
11.2022575167756
 20
9.422030959514189
 10
12.58218395638585
 20
7.755940691324042
 10
15.45703000437459
 20
8.100648691509434
 10
20.91923602303439
 20
8.330454825280242
 10
23.44910046112079
 20
9.709288026492288
 10
28.27884299975619
 20
9.36457882583619
 10
33.91353982336739
 20
9.594384959606998
  0
LINE
  5
9D5
330
1A
100
AcDbEntity
  8
ZUWAKU
100
AcDbLine
 10
12.47110609094659
 20
11.62499986828867
 30
0.0
 11
13.43360609094657
 21
11.62499986828869
 31
0.0
  0
LINE
  5
9D6
330
1A
100
AcDbEntity
  8
ZUWAKU
100
AcDbLine
 10
13.43360609094657
 20
10.22499986828868
 30
0.0
 11
12.47110609094659
 21
10.22499986828868
 31
0.0
  0
LINE
  5
9D7
330
1A
100
AcDbEntity
  8
ZUWAKU
100
AcDbLine
 10
12.47110609094659
 20
4.974999868288684
 30
0.0
 11
13.43360609094657
 21
4.974999868288684
 31
0.0
  0
LINE
  5
9D8
330
1A
100
AcDbEntity
  8
ZUWAKU
100
AcDbLine
 10
13.43360609094657
 20
3.574999868288685
 30
0.0
 11
12.47110609094659
 21
3.574999868288685
 31
0.0
  0
CIRCLE
  5
9D9
330
1A
100
AcDbEntity
  8
ZUWAKU
100
AcDbCircle
 10
12.99610609094657
 20
7.599999868288684
 30
0.0
 40
0.875
  0
ARC
  5
9DA
330
1A
100
AcDbEntity
  8
ZUWAKU
100
AcDbCircle
 10
7.746106090946569
 20
9.317398855611035
 30
0.0
 40
0.7
100
AcDbArc
 50
180.0000000000016
 51
224.9999999999988
  0
LINE
  5
9DB
330
1A
100
AcDbEntity
  8
ZUWAKU
100
AcDbLine
 10
11.7711060909466
 20
9.524999868288685
 30
0.0
 11
11.7711060909466
 21
5.674999868288687
 31
0.0
  0
LINE
  5
9DC
330
1A
100
AcDbEntity
  8
ZUWAKU
100
AcDbLine
 10
10.37110609094657
 20
5.674999868288687
 30
0.0
 11
10.37110609094657
 21
9.524999868288663
 31
0.0
  0
ARC
  5
9DD
330
1A
100
AcDbEntity
  8
ZUWAKU
100
AcDbCircle
 10
7.746106090946569
 20
9.317398855611035
 30
0.0
 40
2.1
100
AcDbArc
 50
180.0
 51
225.0
  0
ARC
  5
9DE
330
1A
100
AcDbEntity
  8
ZUWAKU
100
AcDbCircle
 10
7.92110609094658
 20
4.974999868288684
 30
0.0
 40
1.4
100
AcDbArc
 50
270.0
 51
0.0
  0
ARC
  5
9DF
330
1A
100
AcDbEntity
  8
ZUWAKU
100
AcDbCircle
 10
12.47110609094659
 20
5.674999868288687
 30
0.0
 40
2.1
100
AcDbArc
 50
180.0
 51
270.0
  0
ARC
  5
9E0
330
1A
100
AcDbEntity
  8
ZUWAKU
100
AcDbCircle
 10
7.221106090946591
 20
5.882600880966336
 30
0.0
 40
2.1
100
AcDbArc
 50
0.0
 51
45.0
  0
LINE
  5
9E1
330
1A
100
AcDbEntity
  8
ZUWAKU
100
AcDbLine
 10
8.706030331438342
 20
7.367525121458098
 30
0.0
 11
7.251131344116004
 21
8.822424108780435
 31
0.0
  0
LINE
  5
9E2
330
1A
100
AcDbEntity
  8
ZUWAKU
100
AcDbLine
 10
7.92110609094658
 20
5.237499868288687
 30
0.0
 11
7.92110609094658
 21
5.882600880966358
 31
0.0
  0
ARC
  5
9E3
330
1A
100
AcDbEntity
  8
ZUWAKU
100
AcDbCircle
 10
7.658606090946591
 20
5.237499868288687
 30
0.0
 40
0.2625
100
AcDbArc
 50
270.0
 51
0.0
  0
ARC
  5
9E4
330
1A
100
AcDbEntity
  8
ZUWAKU
100
AcDbCircle
 10
7.221106090946591
 20
5.882600880966358
 30
0.0
 40
0.7
100
AcDbArc
 50
0.0
 51
45.0
  0
LINE
  5
9E5
330
1A
100
AcDbEntity
  8
ZUWAKU
100
AcDbLine
 10
5.908606090946591
 20
3.837499868288685
 30
0.0
 11
5.908606090946591
 21
4.712499868288685
 31
0.0
  0
ARC
  5
9E6
330
1A
100
AcDbEntity
  8
ZUWAKU
100
AcDbCircle
 10
6.17110609094658
 20
3.837499868288685
 30
0.0
 40
0.2625
100
AcDbArc
 50
180.0
 51
270.0
  0
ARC
  5
9E7
330
1A
100
AcDbEntity
  8
ZUWAKU
100
AcDbCircle
 10
6.17110609094658
 20
4.712499868288685
 30
0.0
 40
0.2625
100
AcDbArc
 50
90.0
 51
180.0
  0
LINE
  5
9E8
330
1A
100
AcDbEntity
  8
ZUWAKU
100
AcDbLine
 10
6.17110609094658
 20
3.574999868288685
 30
0.0
 11
7.92110609094658
 21
3.574999868288685
 31
0.0
  0
LINE
  5
9E9
330
1A
100
AcDbEntity
  8
ZUWAKU
100
AcDbLine
 10
6.17110609094658
 20
4.974999868288684
 30
0.0
 11
7.658606090946591
 21
4.974999868288684
 31
0.0
  0
LINE
  5
9EA
330
1A
100
AcDbEntity
  8
ZUWAKU
100
AcDbLine
 10
6.261181850454818
 20
7.832474615119274
 30
0.0
 11
7.716080837777156
 21
6.377575627796944
 31
0.0
  0
LINE
  5
9EB
330
1A
100
AcDbEntity
  8
ZUWAKU
100
AcDbLine
 10
9.321106090946614
 20
4.974999868288684
 30
0.0
 11
9.321106090946614
 21
5.882600880966358
 31
0.0
  0
ARC
  5
9EC
330
1A
100
AcDbEntity
  8
ZUWAKU
100
AcDbCircle
 10
12.47110609094659
 20
5.674999868288687
 30
0.0
 40
0.7
100
AcDbArc
 50
180.0
 51
270.0
  0
ARC
  5
9ED
330
1A
100
AcDbEntity
  8
ZUWAKU
100
AcDbCircle
 10
8.79610609094658
 20
11.36249986828868
 30
0.0
 40
0.2625
100
AcDbArc
 50
0.0
 51
90.0
  0
ARC
  5
9EE
330
1A
100
AcDbEntity
  8
ZUWAKU
100
AcDbCircle
 10
8.79610609094658
 20
10.48749986828868
 30
0.0
 40
0.2625
100
AcDbArc
 50
270.0
 51
0.0
  0
LINE
  5
9EF
330
1A
100
AcDbEntity
  8
ZUWAKU
100
AcDbLine
 10
7.04610609094658
 20
11.62499986828869
 30
0.0
 11
8.79610609094658
 21
11.62499986828869
 31
0.0
  0
ARC
  5
9F0
330
1A
100
AcDbEntity
  8
ZUWAKU
100
AcDbCircle
 10
7.308606090946569
 20
9.962499868288685
 30
0.0
 40
0.2625
100
AcDbArc
 50
90.0
 51
180.0
  0
LINE
  5
9F1
330
1A
100
AcDbEntity
  8
ZUWAKU
100
AcDbLine
 10
7.04610609094658
 20
9.962499868288685
 30
0.0
 11
7.04610609094658
 21
9.317398855611014
 31
0.0
  0
LINE
  5
9F2
330
1A
100
AcDbEntity
  8
ZUWAKU
100
AcDbLine
 10
8.79610609094658
 20
10.22499986828868
 30
0.0
 11
7.308606090946569
 21
10.22499986828868
 31
0.0
  0
LINE
  5
9F3
330
1A
100
AcDbEntity
  8
ZUWAKU
100
AcDbLine
 10
5.646106090946603
 20
10.22499986828868
 30
0.0
 11
5.646106090946603
 21
9.317398855611014
 31
0.0
  0
ARC
  5
9F4
330
1A
100
AcDbEntity
  8
ZUWAKU
100
AcDbCircle
 10
7.04610609094658
 20
10.22499986828868
 30
0.0
 40
1.4
100
AcDbArc
 50
90.0
 51
180.0
  0
LINE
  5
9F5
330
1A
100
AcDbEntity
  8
ZUWAKU
100
AcDbLine
 10
9.058606090946569
 20
11.36249986828868
 30
0.0
 11
9.058606090946569
 21
10.48749986828868
 31
0.0
  0
ARC
  5
9F6
330
1A
100
AcDbEntity
  8
ZUWAKU
100
AcDbCircle
 10
12.47110609094659
 20
9.524999868288685
 30
0.0
 40
0.7
100
AcDbArc
 50
90.0
 51
180.0
  0
ARC
  5
9F7
330
1A
100
AcDbEntity
  8
ZUWAKU
100
AcDbCircle
 10
12.47110609094659
 20
9.524999868288663
 30
0.0
 40
2.1
100
AcDbArc
 50
90.0
 51
180.0
  0
LINE
  5
9F8
330
1A
100
AcDbEntity
  8
ZUWAKU
100
AcDbLine
 10
39.66331478755012
 20
14.99999986828868
 30
0.0
 11
39.66331478755024
 21
0.3999998682887167
 31
0.0
  0
LINE
  5
9F9
330
1A
100
AcDbEntity
  8
ZUWAKU
100
AcDbLine
 10
39.76331478755014
 20
14.99999986828868
 30
0.0
 11
39.76331478755026
 21
0.3999998682887167
 31
0.0
  0
LINE
  5
9FA
330
1A
100
AcDbEntity
  8
ZUWAKU
100
AcDbLine
 10
39.56331478755021
 20
14.99999986828868
 30
0.0
 11
39.56331478755021
 21
0.3999998682887167
 31
0.0
  0
LINE
  5
9FB
330
1A
100
AcDbEntity
  8
ZUWAKU
100
AcDbLine
 10
32.07110609094661
 20
4.974999868288684
 30
0.0
 11
32.07110609094661
 21
11.36249986828868
 31
0.0
  0
LINE
  5
9FC
330
1A
100
AcDbEntity
  8
ZUWAKU
100
AcDbLine
 10
30.67110609094658
 20
11.36249986828868
 30
0.0
 11
30.67110609094658
 21
5.499999868288683
 31
0.0
  0
LINE
  5
9FD
330
1A
100
AcDbEntity
  8
ZUWAKU
100
AcDbLine
 10
34.5211060909466
 20
3.837499868288685
 30
0.0
 11
34.5211060909466
 21
11.36249986828868
 31
0.0
  0
LINE
  5
9FE
330
1A
100
AcDbEntity
  8
ZUWAKU
100
AcDbLine
 10
33.12110609094657
 20
11.36249986828868
 30
0.0
 11
33.12110609094657
 21
3.837499868288685
 31
0.0
  0
ARC
  5
9FF
330
1A
100
AcDbEntity
  8
ZUWAKU
100
AcDbCircle
 10
24.8961060909466
 20
9.317398855611035
 30
0.0
 40
0.7
100
AcDbArc
 50
180.0000000000016
 51
224.9999999999988
  0
ARC
  5
A00
330
1A
100
AcDbEntity
  8
ZUWAKU
100
AcDbCircle
 10
24.8961060909466
 20
9.317398855611035
 30
0.0
 40
2.1
100
AcDbArc
 50
180.0
 51
225.0
  0
LINE
  5
A01
330
1A
100
AcDbEntity
  8
ZUWAKU
100
AcDbLine
 10
18.65742933203558
 20
9.602523465070398
 30
0.0
 11
18.02505345936766
 21
7.599999868288695
 31
0.0
  0
LINE
  5
A02
330
1A
100
AcDbEntity
  8
ZUWAKU
100
AcDbLine
 10
20.34610609094659
 20
11.36249986828868
 30
0.0
 11
20.34610609094659
 21
3.837499868288685
 31
0.0
  0
LINE
  5
A03
330
1A
100
AcDbEntity
  8
ZUWAKU
100
AcDbLine
 10
21.74610609094657
 20
3.837499868288685
 30
0.0
 11
21.74610609094657
 21
11.36249986828868
 31
0.0
  0
LINE
  5
A04
330
1A
100
AcDbEntity
  8
ZUWAKU
100
AcDbLine
 10
27.5211060909466
 20
11.36249986828868
 30
0.0
 11
27.5211060909466
 21
4.974999868288684
 31
0.0
  0
LINE
  5
A05
330
1A
100
AcDbEntity
  8
ZUWAKU
100
AcDbLine
 10
28.92110609094658
 20
5.499999868288683
 30
0.0
 11
28.92110609094658
 21
11.36249986828868
 31
0.0
  0
LINE
  5
A06
330
1A
100
AcDbEntity
  8
ZUWAKU
100
AcDbLine
 10
16.32110609094661
 20
8.562499868288686
 30
0.0
 11
16.32110609094661
 21
11.36249986828868
 31
0.0
  0
LINE
  5
A07
330
1A
100
AcDbEntity
  8
ZUWAKU
100
AcDbLine
 10
14.92110609094658
 20
11.36249986828868
 30
0.0
 11
14.92110609094658
 21
3.837499868288685
 31
0.0
  0
LINE
  5
A08
330
1A
100
AcDbEntity
  8
ZUWAKU
100
AcDbLine
 10
17.83817355960451
 20
11.44154685237217
 30
0.0
 11
16.90403862228862
 21
8.4834528842052
 31
0.0
  0
LINE
  5
A09
330
1A
100
AcDbEntity
  8
ZUWAKU
100
AcDbLine
 10
30.1461060909466
 20
4.974999868288684
 30
0.0
 11
29.44610609094661
 21
4.974999868288684
 31
0.0
  0
LINE
  5
A0A
330
1A
100
AcDbEntity
  8
ZUWAKU
100
AcDbLine
 10
28.92110609094658
 20
3.574999868288685
 30
0.0
 11
30.67110609094658
 21
3.574999868288685
 31
0.0
  0
LINE
  5
A0B
330
1A
100
AcDbEntity
  8
ZUWAKU
100
AcDbLine
 10
20.60860609094658
 20
3.574999868288685
 30
0.0
 11
21.48360609094658
 21
3.574999868288685
 31
0.0
  0
LINE
  5
A0C
330
1A
100
AcDbEntity
  8
ZUWAKU
100
AcDbLine
 10
17.83817355960451
 20
3.758452884205198
 30
0.0
 11
16.90403862228862
 21
6.716546852372169
 31
0.0
  0
ARC
  5
A0D
330
1A
100
AcDbEntity
  8
ZUWAKU
100
AcDbCircle
 10
16.65372317269095
 20
8.562499868288686
 30
0.0
 40
0.2625
100
AcDbArc
 50
270.0
 51
342.474431626277
  0
LINE
  5
A0E
330
1A
100
AcDbEntity
  8
ZUWAKU
100
AcDbLine
 10
16.65372317269095
 20
8.299999868288683
 30
0.0
 11
16.5836060909466
 21
8.299999868288683
 31
0.0
  0
LINE
  5
A0F
330
1A
100
AcDbEntity
  8
ZUWAKU
100
AcDbLine
 10
16.5836060909466
 20
6.899999868288685
 30
0.0
 11
16.65372317269095
 21
6.899999868288685
 31
0.0
  0
ARC
  5
A10
330
1A
100
AcDbEntity
  8
ZUWAKU
100
AcDbCircle
 10
16.5836060909466
 20
8.562499868288686
 30
0.0
 40
0.2625
100
AcDbArc
 50
180.0
 51
270.0
  0
LINE
  5
A11
330
1A
100
AcDbEntity
  8
ZUWAKU
100
AcDbLine
 10
15.18360609094657
 20
3.574999868288685
 30
0.0
 11
16.05860609094657
 21
3.574999868288685
 31
0.0
  0
ARC
  5
A12
330
1A
100
AcDbEntity
  8
ZUWAKU
100
AcDbCircle
 10
16.05860609094657
 20
3.837499868288685
 30
0.0
 40
0.2625
100
AcDbArc
 50
270.0
 51
0.0
  0
LINE
  5
A13
330
1A
100
AcDbEntity
  8
ZUWAKU
100
AcDbLine
 10
16.32110609094661
 20
3.837499868288685
 30
0.0
 11
16.32110609094661
 21
6.637499868288685
 31
0.0
  0
LINE
  5
A14
330
1A
100
AcDbEntity
  8
ZUWAKU
100
AcDbLine
 10
13.69610609094661
 20
4.712499868288685
 30
0.0
 11
13.69610609094661
 21
3.837499868288685
 31
0.0
  0
ARC
  5
A15
330
1A
100
AcDbEntity
  8
ZUWAKU
100
AcDbCircle
 10
13.43360609094657
 20
3.837499868288685
 30
0.0
 40
0.2625
100
AcDbArc
 50
270.0
 51
0.0
  0
ARC
  5
A16
330
1A
100
AcDbEntity
  8
ZUWAKU
100
AcDbCircle
 10
13.43360609094657
 20
4.712499868288685
 30
0.0
 40
0.2625
100
AcDbArc
 50
0.0
 51
90.0
  0
ARC
  5
A17
330
1A
100
AcDbEntity
  8
ZUWAKU
100
AcDbCircle
 10
15.18360609094657
 20
3.837499868288685
 30
0.0
 40
0.2625
100
AcDbArc
 50
180.0
 51
270.0
  0
ARC
  5
A18
330
1A
100
AcDbEntity
  8
ZUWAKU
100
AcDbCircle
 10
16.65372317269095
 20
6.637499868288685
 30
0.0
 40
0.2625
100
AcDbArc
 50
17.52556837372303
 51
90.0
  0
ARC
  5
A19
330
1A
100
AcDbEntity
  8
ZUWAKU
100
AcDbCircle
 10
16.5836060909466
 20
6.637499868288685
 30
0.0
 40
0.2625
100
AcDbArc
 50
90.0
 51
180.0
  0
ARC
  5
A1A
330
1A
100
AcDbEntity
  8
ZUWAKU
100
AcDbCircle
 10
20.60860609094658
 20
3.837499868288685
 30
0.0
 40
0.2625
100
AcDbArc
 50
180.0
 51
270.0
  0
LINE
  5
A1B
330
1A
100
AcDbEntity
  8
ZUWAKU
100
AcDbLine
 10
18.08848900920225
 20
3.574999868288685
 30
0.0
 11
18.93793369900675
 21
3.574999868288685
 31
0.0
  0
ARC
  5
A1C
330
1A
100
AcDbEntity
  8
ZUWAKU
100
AcDbCircle
 10
18.93793369900675
 20
3.837499868288685
 30
0.0
 40
0.2625
100
AcDbArc
 50
270.0
 51
17.52556837372303
  0
LINE
  5
A1D
330
1A
100
AcDbEntity
  8
ZUWAKU
100
AcDbLine
 10
19.18824914860448
 20
3.916546852372171
 30
0.0
 11
18.02505345936766
 21
7.599999868288695
 31
0.0
  0
ARC
  5
A1E
330
1A
100
AcDbEntity
  8
ZUWAKU
100
AcDbCircle
 10
18.08848900920225
 20
3.837499868288685
 30
0.0
 40
0.2625
100
AcDbArc
 50
197.525568373723
 51
270.0
  0
ARC
  5
A1F
330
1A
100
AcDbEntity
  8
ZUWAKU
100
AcDbCircle
 10
28.92110609094658
 20
4.974999868288684
 30
0.0
 40
1.4
100
AcDbArc
 50
180.0
 51
270.0
  0
ARC
  5
A20
330
1A
100
AcDbEntity
  8
ZUWAKU
100
AcDbCircle
 10
25.07110609094661
 20
4.974999868288684
 30
0.0
 40
1.4
100
AcDbArc
 50
270.0
 51
0.0
  0
LINE
  5
A21
330
1A
100
AcDbEntity
  8
ZUWAKU
100
AcDbLine
 10
25.85603033143838
 20
7.367525121458098
 30
0.0
 11
24.40113134411598
 21
8.822424108780435
 31
0.0
  0
LINE
  5
A22
330
1A
100
AcDbEntity
  8
ZUWAKU
100
AcDbLine
 10
25.07110609094661
 20
5.237499868288687
 30
0.0
 11
25.07110609094661
 21
5.882600880966358
 31
0.0
  0
ARC
  5
A23
330
1A
100
AcDbEntity
  8
ZUWAKU
100
AcDbCircle
 10
24.37110609094657
 20
5.882600880966358
 30
0.0
 40
0.7
100
AcDbArc
 50
0.0
 51
45.0
  0
ARC
  5
A24
330
1A
100
AcDbEntity
  8
ZUWAKU
100
AcDbCircle
 10
24.80860609094657
 20
5.237499868288687
 30
0.0
 40
0.2625
100
AcDbArc
 50
270.0
 51
0.0
  0
LINE
  5
A25
330
1A
100
AcDbEntity
  8
ZUWAKU
100
AcDbLine
 10
23.05860609094657
 20
3.837499868288685
 30
0.0
 11
23.05860609094657
 21
4.712499868288685
 31
0.0
  0
ARC
  5
A26
330
1A
100
AcDbEntity
  8
ZUWAKU
100
AcDbCircle
 10
23.32110609094661
 20
3.837499868288685
 30
0.0
 40
0.2625
100
AcDbArc
 50
180.0
 51
270.0
  0
ARC
  5
A27
330
1A
100
AcDbEntity
  8
ZUWAKU
100
AcDbCircle
 10
21.48360609094658
 20
3.837499868288685
 30
0.0
 40
0.2625
100
AcDbArc
 50
270.0
 51
0.0
  0
ARC
  5
A28
330
1A
100
AcDbEntity
  8
ZUWAKU
100
AcDbCircle
 10
23.32110609094661
 20
4.712499868288685
 30
0.0
 40
0.2625
100
AcDbArc
 50
90.0
 51
180.0
  0
LINE
  5
A29
330
1A
100
AcDbEntity
  8
ZUWAKU
100
AcDbLine
 10
23.32110609094661
 20
4.974999868288684
 30
0.0
 11
24.80860609094657
 21
4.974999868288684
 31
0.0
  0
LINE
  5
A2A
330
1A
100
AcDbEntity
  8
ZUWAKU
100
AcDbLine
 10
23.32110609094661
 20
3.574999868288685
 30
0.0
 11
25.07110609094661
 21
3.574999868288685
 31
0.0
  0
LINE
  5
A2B
330
1A
100
AcDbEntity
  8
ZUWAKU
100
AcDbLine
 10
23.41118185045485
 20
7.832474615119274
 30
0.0
 11
24.86608083777719
 21
6.377575627796944
 31
0.0
  0
LINE
  5
A2C
330
1A
100
AcDbEntity
  8
ZUWAKU
100
AcDbLine
 10
26.47110609094659
 20
4.974999868288684
 30
0.0
 11
26.47110609094659
 21
5.882600880966358
 31
0.0
  0
ARC
  5
A2D
330
1A
100
AcDbEntity
  8
ZUWAKU
100
AcDbCircle
 10
24.37110609094657
 20
5.882600880966336
 30
0.0
 40
2.1
100
AcDbArc
 50
0.0
 51
45.0
  0
ARC
  5
A2E
330
1A
100
AcDbEntity
  8
ZUWAKU
100
AcDbCircle
 10
29.44610609094661
 20
5.499999868288683
 30
0.0
 40
0.5249999999999999
100
AcDbArc
 50
180.0
 51
270.0
  0
ARC
  5
A2F
330
1A
100
AcDbEntity
  8
ZUWAKU
100
AcDbCircle
 10
30.67110609094658
 20
4.974999868288684
 30
0.0
 40
1.4
100
AcDbArc
 50
270.0
 51
0.0
  0
LINE
  5
A30
330
1A
100
AcDbEntity
  8
ZUWAKU
100
AcDbLine
 10
33.38360609094661
 20
3.574999868288685
 30
0.0
 11
34.25860609094661
 21
3.574999868288685
 31
0.0
  0
ARC
  5
A31
330
1A
100
AcDbEntity
  8
ZUWAKU
100
AcDbCircle
 10
33.38360609094661
 20
3.837499868288685
 30
0.0
 40
0.2625
100
AcDbArc
 50
180.0
 51
270.0
  0
ARC
  5
A32
330
1A
100
AcDbEntity
  8
ZUWAKU
100
AcDbCircle
 10
30.1461060909466
 20
5.499999868288683
 30
0.0
 40
0.5249999999999999
100
AcDbArc
 50
270.0
 51
0.0
  0
ARC
  5
A33
330
1A
100
AcDbEntity
  8
ZUWAKU
100
AcDbCircle
 10
34.25860609094661
 20
3.837499868288685
 30
0.0
 40
0.2625
100
AcDbArc
 50
270.0
 51
0.0
  0
LINE
  5
A34
330
1A
100
AcDbEntity
  8
ZUWAKU
100
AcDbLine
 10
21.48360609094658
 20
11.62499986828869
 30
0.0
 11
20.60860609094658
 21
11.62499986828869
 31
0.0
  0
ARC
  5
A35
330
1A
100
AcDbEntity
  8
ZUWAKU
100
AcDbCircle
 10
16.05860609094657
 20
11.36249986828868
 30
0.0
 40
0.2625
100
AcDbArc
 50
0.0
 51
90.0
  0
LINE
  5
A36
330
1A
100
AcDbEntity
  8
ZUWAKU
100
AcDbLine
 10
16.05860609094657
 20
11.62499986828869
 30
0.0
 11
15.18360609094657
 21
11.62499986828869
 31
0.0
  0
ARC
  5
A37
330
1A
100
AcDbEntity
  8
ZUWAKU
100
AcDbCircle
 10
13.43360609094657
 20
11.36249986828868
 30
0.0
 40
0.2625
100
AcDbArc
 50
0.0
 51
90.0
  0
ARC
  5
A38
330
1A
100
AcDbEntity
  8
ZUWAKU
100
AcDbCircle
 10
15.18360609094657
 20
11.36249986828868
 30
0.0
 40
0.2625
100
AcDbArc
 50
90.0
 51
180.0
  0
ARC
  5
A39
330
1A
100
AcDbEntity
  8
ZUWAKU
100
AcDbCircle
 10
13.43360609094657
 20
10.48749986828868
 30
0.0
 40
0.2625
100
AcDbArc
 50
270.0
 51
0.0
  0
LINE
  5
A3A
330
1A
100
AcDbEntity
  8
ZUWAKU
100
AcDbLine
 10
13.69610609094661
 20
11.36249986828868
 30
0.0
 11
13.69610609094661
 21
10.48749986828868
 31
0.0
  0
ARC
  5
A3B
330
1A
100
AcDbEntity
  8
ZUWAKU
100
AcDbCircle
 10
20.60860609094658
 20
11.36249986828868
 30
0.0
 40
0.2625
100
AcDbArc
 50
90.0
 51
180.0
  0
LINE
  5
A3C
330
1A
100
AcDbEntity
  8
ZUWAKU
100
AcDbLine
 10
18.08848900920225
 20
11.62499986828869
 30
0.0
 11
18.93793369900675
 21
11.62499986828869
 31
0.0
  0
ARC
  5
A3D
330
1A
100
AcDbEntity
  8
ZUWAKU
100
AcDbCircle
 10
18.93793369900675
 20
11.36249986828868
 30
0.0
 40
0.2625
100
AcDbArc
 50
342.474431626277
 51
90.0
  0
LINE
  5
A3E
330
1A
100
AcDbEntity
  8
ZUWAKU
100
AcDbLine
 10
19.18824914860448
 20
11.2834528842052
 30
0.0
 11
18.65742933203558
 21
9.602523465070398
 31
0.0
  0
ARC
  5
A3F
330
1A
100
AcDbEntity
  8
ZUWAKU
100
AcDbCircle
 10
18.08848900920225
 20
11.36249986828868
 30
0.0
 40
0.2625
100
AcDbArc
 50
90.0
 51
162.474431626277
  0
LINE
  5
A40
330
1A
100
AcDbEntity
  8
ZUWAKU
100
AcDbLine
 10
24.19610609094661
 20
11.62499986828869
 30
0.0
 11
25.94610609094661
 21
11.62499986828869
 31
0.0
  0
LINE
  5
A41
330
1A
100
AcDbEntity
  8
ZUWAKU
100
AcDbLine
 10
25.94610609094661
 20
10.22499986828868
 30
0.0
 11
24.4586060909466
 21
10.22499986828868
 31
0.0
  0
ARC
  5
A42
330
1A
100
AcDbEntity
  8
ZUWAKU
100
AcDbCircle
 10
24.4586060909466
 20
9.962499868288685
 30
0.0
 40
0.2625
100
AcDbArc
 50
90.0
 51
180.0
  0
LINE
  5
A43
330
1A
100
AcDbEntity
  8
ZUWAKU
100
AcDbLine
 10
24.19610609094661
 20
9.962499868288685
 30
0.0
 11
24.19610609094661
 21
9.317398855611014
 31
0.0
  0
ARC
  5
A44
330
1A
100
AcDbEntity
  8
ZUWAKU
100
AcDbCircle
 10
21.48360609094658
 20
11.36249986828868
 30
0.0
 40
0.2625
100
AcDbArc
 50
0.0
 51
90.0
  0
LINE
  5
A45
330
1A
100
AcDbEntity
  8
ZUWAKU
100
AcDbLine
 10
22.79610609094658
 20
10.22499986828868
 30
0.0
 11
22.79610609094658
 21
9.317398855611014
 31
0.0
  0
ARC
  5
A46
330
1A
100
AcDbEntity
  8
ZUWAKU
100
AcDbCircle
 10
24.19610609094661
 20
10.22499986828868
 30
0.0
 40
1.4
100
AcDbArc
 50
90.0
 51
180.0
  0
ARC
  5
A47
330
1A
100
AcDbEntity
  8
ZUWAKU
100
AcDbCircle
 10
28.65860609094659
 20
11.36249986828868
 30
0.0
 40
0.2625
100
AcDbArc
 50
0.0
 51
90.0
  0
ARC
  5
A48
330
1A
100
AcDbEntity
  8
ZUWAKU
100
AcDbCircle
 10
27.78360609094659
 20
11.36249986828868
 30
0.0
 40
0.2625
100
AcDbArc
 50
90.0
 51
180.0
  0
LINE
  5
A49
330
1A
100
AcDbEntity
  8
ZUWAKU
100
AcDbLine
 10
28.65860609094659
 20
11.62499986828869
 30
0.0
 11
27.78360609094659
 21
11.62499986828869
 31
0.0
  0
ARC
  5
A4A
330
1A
100
AcDbEntity
  8
ZUWAKU
100
AcDbCircle
 10
25.94610609094661
 20
11.36249986828868
 30
0.0
 40
0.2625
100
AcDbArc
 50
0.0
 51
90.0
  0
ARC
  5
A4B
330
1A
100
AcDbEntity
  8
ZUWAKU
100
AcDbCircle
 10
25.94610609094661
 20
10.48749986828868
 30
0.0
 40
0.2625
100
AcDbArc
 50
270.0
 51
0.0
  0
LINE
  5
A4C
330
1A
100
AcDbEntity
  8
ZUWAKU
100
AcDbLine
 10
26.2086060909466
 20
11.36249986828868
 30
0.0
 11
26.2086060909466
 21
10.48749986828868
 31
0.0
  0
LINE
  5
A4D
330
1A
100
AcDbEntity
  8
ZUWAKU
100
AcDbLine
 10
34.25860609094661
 20
11.62499986828869
 30
0.0
 11
33.38360609094661
 21
11.62499986828869
 31
0.0
  0
ARC
  5
A4E
330
1A
100
AcDbEntity
  8
ZUWAKU
100
AcDbCircle
 10
33.38360609094661
 20
11.36249986828868
 30
0.0
 40
0.2625
100
AcDbArc
 50
90.0
 51
180.0
  0
ARC
  5
A4F
330
1A
100
AcDbEntity
  8
ZUWAKU
100
AcDbCircle
 10
31.80860609094657
 20
11.36249986828868
 30
0.0
 40
0.2625
100
AcDbArc
 50
0.0
 51
90.0
  0
LINE
  5
A50
330
1A
100
AcDbEntity
  8
ZUWAKU
100
AcDbLine
 10
31.80860609094657
 20
11.62499986828869
 30
0.0
 11
30.93360609094657
 21
11.62499986828869
 31
0.0
  0
ARC
  5
A51
330
1A
100
AcDbEntity
  8
ZUWAKU
100
AcDbCircle
 10
30.93360609094657
 20
11.36249986828868
 30
0.0
 40
0.2625
100
AcDbArc
 50
90.0
 51
180.0
  0
ARC
  5
A52
330
1A
100
AcDbEntity
  8
ZUWAKU
100
AcDbCircle
 10
34.25860609094661
 20
11.36249986828868
 30
0.0
 40
0.2625
100
AcDbArc
 50
0.0
 51
90.0
  0
TEXT
  5
A53
330
1A
100
AcDbEntity
  8
moji
100
AcDbText
 10
119.9136013539816
 20
9.002460396992376
 30
0.0
 40
2.8
  1
ジョイント
 41
0.9
  7
ｽﾀｲﾙ1
100
AcDbText
  0
TEXT
  5
A54
330
1A
100
AcDbEntity
  8
moji
100
AcDbText
 10
119.9136013539816
 20
1.602460396992393
 30
0.0
 40
2.8
  1
Σ９０
 41
0.9
  7
ｽﾀｲﾙ1
100
AcDbText
  0
LINE
  5
A55
330
1A
100
AcDbEntity
  8
ZUWAKU
100
AcDbLine
 10
104.12330065859
 20
14.99999986828868
 30
0.0
 11
104.12330065859
 21
0.3999998682887167
 31
0.0
  0
LINE
  5
A56
330
1A
100
AcDbEntity
  8
ZUWAKU
100
AcDbLine
 10
104.3233006585899
 20
14.99999986828868
 30
0.0
 11
104.32330065859
 21
0.3999998682887167
 31
0.0
  0
LINE
  5
A57
330
1A
100
AcDbEntity
  8
ZUWAKU
100
AcDbLine
 10
104.2233006585899
 20
14.99999986828868
 30
0.0
 11
104.22330065859
 21
0.3999998682887167
 31
0.0
  0
TEXT
  5
A58
330
1A
100
AcDbEntity
  8
ZUWAKU
100
AcDbText
 10
104.8620231696948
 20
4.827678137481492
 30
0.0
 40
2.0
  1
サイズ
 41
0.9
  7
ｽﾀｲﾙ1
100
AcDbText
  0
TEXT
  5
A59
330
1A
100
AcDbEntity
  8
ZUWAKU
100
AcDbText
 10
104.8620231696947
 20
12.02767813748147
 30
0.0
 40
2.0
  1
品名
 41
0.9
  7
ｽﾀｲﾙ1
100
AcDbText
  0
LINE
  5
A5A
330
1A
100
AcDbEntity
  8
ZUWAKU
100
AcDbLine
 10
324.4086012686581
 20
7.599999868288698
 30
0.0
 11
348.6245052878267
 21
7.5999998682887
 31
0.0
  0
LINE
  5
A5B
330
1A
100
AcDbEntity
  8
ZUWAKU
100
AcDbLine
 10
324.4086012686582
 20
7.699999868288701
 30
0.0
 11
348.6245052878267
 21
7.6999998682887
 31
0.0
  0
LINE
  5
A5C
330
1A
100
AcDbEntity
  8
ZUWAKU
100
AcDbLine
 10
324.4086012686581
 20
7.799999868288699
 30
0.0
 11
348.6245052878267
 21
7.799999868288699
 31
0.0
  0
TEXT
  5
A5D
330
1A
100
AcDbEntity
  8
ZUWAKU
100
AcDbText
 10
329.1019688572072
 20
9.002460396992376
 30
0.0
 40
2.8
  1
　　．　　．　　
 41
0.9
  7
ｽﾀｲﾙ1
100
AcDbText
  0
LINE
  5
A5E
330
1A
100
AcDbEntity
  8
ZUWAKU
100
AcDbLine
 10
252.5995897626265
 20
7.599999868288702
 30
0.0
 11
276.2634778966122
 21
7.599999868288702
 31
0.0
  0
LINE
  5
A5F
330
1A
100
AcDbEntity
  8
ZUWAKU
100
AcDbLine
 10
252.5995897626265
 20
7.6999998682887
 30
0.0
 11
276.2634778966122
 21
7.6999998682887
 31
0.0
  0
LINE
  5
A60
330
1A
100
AcDbEntity
  8
ZUWAKU
100
AcDbLine
 10
252.5995897626265
 20
7.799999868288699
 30
0.0
 11
276.2634778966122
 21
7.799999868288699
 31
0.0
  0
TEXT
  5
A61
330
1A
100
AcDbEntity
  8
moji
100
AcDbText
 10
231.6232160090571
 20
5.971308729118675
 30
0.0
 40
2.8
  1
ＧＮ０９□
 41
0.9
  7
ｽﾀｲﾙ1
100
AcDbText
  0
LINE
  5
A62
330
1A
100
AcDbEntity
  8
ZUWAKU
100
AcDbLine
 10
223.8121819990516
 20
14.99999986828868
 30
0.0
 11
223.8121819990518
 21
0.3999998682887167
 31
0.0
  0
LINE
  5
A63
330
1A
100
AcDbEntity
  8
ZUWAKU
100
AcDbLine
 10
223.9121819990517
 20
14.99999986828868
 30
0.0
 11
223.9121819990518
 21
0.3999998682887167
 31
0.0
  0
LINE
  5
A64
330
1A
100
AcDbEntity
  8
ZUWAKU
100
AcDbLine
 10
223.7121819990517
 20
14.99999986828868
 30
0.0
 11
223.7121819990517
 21
0.3999998682887167
 31
0.0
  0
TEXT
  5
A65
330
1A
100
AcDbEntity
  8
moji
100
AcDbText
 10
264.0204539997125
 20
9.002460396992376
 30
0.0
 40
2.8
  1
Ａ３
 41
0.9
  7
ｽﾀｲﾙ1
100
AcDbText
  0
LINE
  5
A66
330
1A
100
AcDbEntity
  8
ZUWAKU
100
AcDbLine
 10
252.4995897626264
 20
14.99999986828868
 30
0.0
 11
252.4995897626266
 21
0.3999998682887167
 31
0.0
  0
LINE
  5
A67
330
1A
100
AcDbEntity
  8
ZUWAKU
100
AcDbLine
 10
252.5995897626265
 20
14.99999986828868
 30
0.0
 11
252.5995897626266
 21
0.3999998682887167
 31
0.0
  0
LINE
  5
A68
330
1A
100
AcDbEntity
  8
ZUWAKU
100
AcDbLine
 10
252.3995897626265
 20
14.99999986828868
 30
0.0
 11
252.3995897626265
 21
0.3999998682887167
 31
0.0
  0
TEXT
  5
A69
330
1A
100
AcDbEntity
  8
ZUWAKU
100
AcDbText
 10
231.3468808413096
 20
1.307035323858429
 30
0.0
 40
1.5
  1
□には色品番が入ります
 41
0.9
  7
ｽﾀｲﾙ1
100
AcDbText
  0
TEXT
  5
A6A
330
1A
100
AcDbEntity
  8
ZUWAKU
100
AcDbText
 10
253.3383122737314
 20
4.827678137481492
 30
0.0
 40
2.0
  1
縮尺
 41
0.9
  7
ｽﾀｲﾙ1
100
AcDbText
  0
TEXT
  5
A6B
330
1A
100
AcDbEntity
  8
moji
100
AcDbText
 10
264.0204539997125
 20
1.602460396992393
 30
0.0
 40
2.8
  1
１/１
 41
0.9
  7
ｽﾀｲﾙ1
100
AcDbText
  0
TEXT
  5
A6C
330
1A
100
AcDbEntity
  8
ZUWAKU
100
AcDbText
 10
224.6509045101565
 20
12.02767813748147
 30
0.0
 40
2.0
  1
品番
 41
0.9
  7
ｽﾀｲﾙ1
100
AcDbText
  0
TEXT
  5
A6D
330
1A
100
AcDbEntity
  8
ZUWAKU
100
AcDbText
 10
253.3383122737313
 20
12.02767813748147
 30
0.0
 40
2.0
  1
用紙
 41
0.9
  7
ｽﾀｲﾙ1
100
AcDbText
  0
LINE
  5
A6E
330
1A
100
AcDbEntity
  8
ZUWAKU
100
AcDbLine
 10
324.3086012686582
 20
14.99999986828868
 30
0.0
 11
324.3086012686583
 21
0.3999998682887167
 31
0.0
  0
LINE
  5
A6F
330
1A
100
AcDbEntity
  8
ZUWAKU
100
AcDbLine
 10
324.4086012686582
 20
14.99999986828868
 30
0.0
 11
324.4086012686583
 21
0.3999998682887167
 31
0.0
  0
LINE
  5
A70
330
1A
100
AcDbEntity
  8
ZUWAKU
100
AcDbLine
 10
324.2086012686583
 20
14.99999986828868
 30
0.0
 11
324.2086012686583
 21
0.3999998682887167
 31
0.0
  0
LINE
  5
A71
330
1A
100
AcDbEntity
  8
ZUWAKU
100
AcDbLine
 10
276.3634778966122
 20
14.99999986828868
 30
0.0
 11
276.3634778966123
 21
0.3999998682887167
 31
0.0
  0
LINE
  5
A72
330
1A
100
AcDbEntity
  8
ZUWAKU
100
AcDbLine
 10
276.4634778966122
 20
14.99999986828868
 30
0.0
 11
276.4634778966123
 21
0.3999998682887167
 31
0.0
  0
LINE
  5
A73
330
1A
100
AcDbEntity
  8
ZUWAKU
100
AcDbLine
 10
276.2634778966122
 20
14.99999986828868
 30
0.0
 11
276.2634778966122
 21
0.3999998682887167
 31
0.0
  0
TEXT
  5
A74
330
1A
100
AcDbEntity
  8
ZUWAKU
100
AcDbText
 10
325.147323779763
 20
12.02767813748147
 30
0.0
 40
2.0
  1
DATE
 41
0.9
  7
ｽﾀｲﾙ1
100
AcDbText
  0
LINE
  5
A75
330
1A
100
AcDbEntity
  8
ZUWAKU
100
AcDbLine
 10
348.6245052878267
 20
14.99999986828868
 30
0.0
 11
348.6245052878267
 21
0.3999998682887167
 31
0.0
  0
LINE
  5
A76
330
1A
100
AcDbEntity
  8
ZUWAKU
100
AcDbLine
 10
348.7245052878267
 20
14.99999986828868
 30
0.0
 11
348.7245052878267
 21
0.3999998682887167
 31
0.0
  0
LINE
  5
A77
330
1A
100
AcDbEntity
  8
ZUWAKU
100
AcDbLine
 10
348.8245052878266
 20
14.99999986828868
 30
0.0
 11
348.8245052878267
 21
0.3999998682887167
 31
0.0
  0
LINE
  5
A78
330
1A
100
AcDbEntity
  8
ZUWAKU
100
AcDbLine
 10
348.9245052878266
 20
14.99999986828868
 30
0.0
 11
348.9245052878267
 21
0.3999998682887167
 31
0.0
  0
TEXT
  5
A79
330
1A
100
AcDbEntity
  8
ZUWAKU
100
AcDbText
 10
354.2640421096779
 20
8.776919536132084
 30
0.0
 40
3.0
  1
積水化学工業株式会社
 41
0.9
  7
ｽﾀｲﾙ1
100
AcDbText
  0
TEXT
  5
A7A
330
1A
100
AcDbEntity
  8
ZUWAKU
100
AcDbText
 10
354.2640421096779
 20
3.324420025215716
 30
0.0
 40
3.0
  1
建材事業部
 41
0.9
  7
ｽﾀｲﾙ1
100
AcDbText
  0
TEXT
  5
A8C
330
1A
100
AcDbEntity
  8
SUNPOU
 62
     4
100
AcDbText
 10
335.9340285690792
 20
20.76132572518384
 30
0.0
 40
3.0
  1
※　のきといの差込み寸法を示す
100
AcDbText
  0
ARC
  5
B8A
330
1A
100
AcDbEntity
  8
NOKITOI
  6
PHANTOM
 62
     8
 48
5.0
100
AcDbCircle
 10
236.819495590223
 20
80.63641208034103
 30
0.0
 40
17.49996433219532
100
AcDbArc
 50
187.9693736291694
 51
244.7893872175536
  0
ARC
  5
B8B
330
1A
100
AcDbEntity
  8
NOKITOI
  6
PHANTOM
 62
     8
 48
5.0
100
AcDbCircle
 10
235.8953035540334
 20
96.61360142978289
 30
0.0
 40
17.49998460705382
100
AcDbArc
 50
187.9696597232937
 51
244.6144785993161
  0
LINE
  5
B8C
330
1A
100
AcDbEntity
  8
NOKITOI
  6
PHANTOM
 62
     8
 48
5.0
100
AcDbLine
 10
215.5713403204767
 20
106.1897513634842
 30
0.0
 11
219.4885403204767
 21
78.21005136348421
 31
0.0
  0
LINE
  5
B8D
330
1A
100
AcDbEntity
  8
NOKITOI
  6
PHANTOM
 62
     8
 48
5.0
100
AcDbLine
 10
215.4961403204767
 20
116.1033513634842
 30
0.0
 11
218.5643403204767
 21
94.18725136348418
 31
0.0
  0
DIMENSION
  5
B8E
330
1A
100
AcDbEntity
  8
SUNPOU
100
AcDbDimension
  2
*D1
 10
184.2493875883472
 20
48.80328752933881
 30
0.0
 11
181.7493875883472
 21
90.25328752940814
 31
0.0
 70
    32
 71
     5
 42
82.90000000013859
  3
STANDARD
100
AcDbAlignedDimension
 13
199.3099114816467
 23
131.7032875294774
 33
0.0
 14
231.2771403204766
 24
48.8032875293388
 34
0.0
 50
90.0
100
AcDbRotatedDimension
1001
ACAD
1000
DSTYLE
1002
{
1070
   140
1040
3.0
1070
    74
1070
     0
1070
   172
1070
     1
1070
    73
1070
     0
1070
   272
1070
     2
1070
    77
1070
     3
1070
   173
1070
     1
1070
   147
1040
1.0
1070
    42
1040
3.0
1070
    44
1040
1.5
1070
    43
1040
7.0
1070
   271
1070
     0
1070
   178
1070
     4
1070
   177
1070
     4
1070
   176
1070
     4
1070
   141
1040
150.0
1070
     7
1000
_OPEN
1070
     6
1000
_OPEN
1070
    41
1040
3.0
1002
}
  0
DIMENSION
  5
B8F
330
1A
100
AcDbEntity
  8
SUNPOU
100
AcDbDimension
  2
*D2
 10
331.6589403204766
 20
143.8960790455429
 30
0.0
 11
263.9844095670036
 21
146.3960790455429
 31
0.0
 70
    32
 71
     5
 42
135.3490615069461
  3
STANDARD
100
AcDbAlignedDimension
 13
196.3098788135305
 23
128.7032548613612
 33
0.0
 14
331.6589403204766
 24
109.3032875293389
 34
0.0
100
AcDbRotatedDimension
1001
ACAD
1000
DSTYLE
1002
{
1070
   140
1040
3.0
1070
    74
1070
     0
1070
   172
1070
     1
1070
    73
1070
     0
1070
   272
1070
     2
1070
    77
1070
     3
1070
   173
1070
     1
1070
   147
1040
1.0
1070
    42
1040
3.0
1070
    44
1040
1.5
1070
    43
1040
7.0
1070
   271
1070
     0
1070
   178
1070
     4
1070
   177
1070
     4
1070
   176
1070
     4
1070
   141
1040
150.0
1070
     7
1000
_OPEN
1070
     6
1000
_OPEN
1070
    41
1040
3.0
1002
}
  0
LINE
  5
B90
330
1A
100
AcDbEntity
  8
SEIHIN
  6
Continuous
 62
     3
 48
5.0
100
AcDbLine
 10
218.4076403204765
 20
78.06328752933888
 30
0.0
 11
214.6240403204766
 21
104.9570875293389
 31
0.0
  0
LINE
  5
B91
330
1A
100
AcDbEntity
  8
SEIHIN
  6
Continuous
 62
     3
 48
5.0
100
AcDbLine
 10
219.3981403204766
 20
78.20018752933888
 30
0.0
 11
215.6143403204766
 21
105.0963875293388
 31
0.0
  0
ARC
  5
B92
330
1A
100
AcDbEntity
  8
SEIHIN
  6
Continuous
 62
     3
 48
5.0
100
AcDbCircle
 10
236.7275258631089
 20
80.63810713792489
 30
0.0
 40
17.49999305057938
100
AcDbArc
 50
187.9999712654864
 51
244.8027105325574
  0
ARC
  5
B93
330
1A
100
AcDbEntity
  8
SEIHIN
  6
Continuous
 62
     3
 48
5.0
100
AcDbCircle
 10
236.7275129074251
 20
80.63812587353502
 30
0.0
 40
18.49997019595636
100
AcDbArc
 50
188.007944343973
 51
243.1158213484532
  0
ARC
  5
B94
330
1A
100
AcDbEntity
  8
SEIHIN
  6
Continuous
 62
     3
 48
5.0
100
AcDbCircle
 10
236.7275838158012
 20
80.63802492407496
 30
0.0
 40
19.49997661366412
100
AcDbArc
 50
188.0076112817086
 51
241.5716623764256
  0
LINE
  5
B95
330
1A
100
AcDbEntity
  8
SEIHIN
  6
Continuous
 62
     3
 48
5.0
100
AcDbLine
 10
197.4331403204766
 20
247.7863527354988
 30
0.0
 11
331.1589403204766
 21
247.7863527354988
 31
0.0
  0
LINE
  5
B96
330
1A
100
AcDbEntity
  8
SEIHIN
  6
Continuous
 62
     3
 48
5.0
100
AcDbLine
 10
197.4331403204766
 20
177.7863527354988
 30
0.0
 11
331.1589403204766
 21
177.7863527354988
 31
0.0
  0
LINE
  5
B97
330
1A
100
AcDbEntity
  8
CENTER L
  6
CENTER
 62
     1
 48
5.0
100
AcDbLine
 10
339.4225403204766
 20
212.7863527354986
 30
0.0
 11
187.0638403204766
 21
212.7863527354986
 31
0.0
  0
LINE
  5
B98
330
1A
100
AcDbEntity
  8
SEIHIN
  6
Continuous
 62
     3
 48
5.0
100
AcDbLine
 10
63.02724032047649
 20
111.8034875293389
 30
0.0
 11
93.02724032047661
 21
111.8034875293389
 31
0.0
  0
LINE
  5
B99
330
1A
100
AcDbEntity
  8
SEIHIN
  6
Continuous
 62
     3
 48
5.0
100
AcDbLine
 10
93.02724032047661
 20
131.8034875293389
 30
0.0
 11
58.02734032047647
 21
131.8034875293389
 31
0.0
  0
LINE
  5
B9A
330
1A
100
AcDbEntity
  8
SEIHIN
  6
Continuous
 62
     3
 48
5.0
100
AcDbLine
 10
63.02714032047652
 20
63.48958752933885
 30
0.0
 11
93.02714032047652
 21
63.48958752933885
 31
0.0
  0
LINE
  5
B9B
330
1A
100
AcDbEntity
  8
SEIHIN
  6
Continuous
 62
     3
 48
5.0
100
AcDbLine
 10
63.02714032047652
 20
48.80348752933878
 30
0.0
 11
93.02714032047652
 21
48.80348752933878
 31
0.0
  0
LINE
  5
B9C
330
1A
100
AcDbEntity
  8
SEIHIN
  6
Continuous
 62
     3
 48
5.0
100
AcDbLine
 10
63.02714032047652
 20
48.80348752933878
 30
0.0
 11
58.02714032047652
 21
49.80348752933878
 31
0.0
  0
LINE
  5
B9D
330
1A
100
AcDbEntity
  8
SEIHIN
  6
Continuous
 62
     3
 48
5.0
100
AcDbLine
 10
63.02714032047652
 20
48.80348752933878
 30
0.0
 11
63.02714032047652
 21
130.7740875293388
 31
0.0
  0
LINE
  5
B9E
330
1A
100
AcDbEntity
  8
SEIHIN
  6
Continuous
 62
     3
 48
5.0
100
AcDbLine
 10
58.02724032047649
 20
49.80348752933878
 30
0.0
 11
58.02724032047649
 21
131.8033875293388
 31
0.0
  0
LINE
  5
B9F
330
1A
100
AcDbEntity
  8
SEIHIN
  6
Continuous
 62
     3
 48
5.0
100
AcDbLine
 10
63.02714032047652
 20
63.48958752933885
 30
0.0
 11
58.02714032047652
 21
63.98958752933885
 31
0.0
  0
LINE
  5
BA0
330
1A
100
AcDbEntity
  8
SEIHIN
  6
Continuous
 62
     3
 48
5.0
100
AcDbLine
 10
63.02724032047649
 20
111.8034875293389
 30
0.0
 11
58.02724032047649
 21
112.3034875293389
 31
0.0
  0
LINE
  5
BA1
330
1A
100
AcDbEntity
  8
SEIHIN
  6
Continuous
 62
     3
 48
5.0
100
AcDbLine
 10
58.02724032047649
 20
131.8033875293388
 30
0.0
 11
63.02724032047649
 21
130.7740875293388
 31
0.0
  0
LINE
  5
BA2
330
1A
100
AcDbEntity
  8
SEIHIN
  6
Continuous
 62
     3
 48
5.0
100
AcDbLine
 10
123.0271403204765
 20
48.80348752933878
 30
0.0
 11
128.0271403204765
 21
49.80348752933878
 31
0.0
  0
LINE
  5
BA3
330
1A
100
AcDbEntity
  8
SEIHIN
  6
Continuous
 62
     3
 48
5.0
100
AcDbLine
 10
123.0271403204765
 20
48.80348752933878
 30
0.0
 11
123.0271403204765
 21
130.7740875293388
 31
0.0
  0
LINE
  5
BA4
330
1A
100
AcDbEntity
  8
CENTER L
  6
CENTER
 62
     1
 48
5.0
100
AcDbLine
 10
93.02714032047652
 20
44.25148752933887
 30
0.0
 11
93.02714032047652
 21
136.6685875293389
 31
0.0
  0
LINE
  5
BA5
330
1A
100
AcDbEntity
  8
SEIHIN
  6
Continuous
 62
     3
 48
5.0
100
AcDbLine
 10
123.0271403204765
 20
48.80348752933878
 30
0.0
 11
93.02714032047652
 21
48.80348752933878
 31
0.0
  0
LINE
  5
BA6
330
1A
100
AcDbEntity
  8
SEIHIN
  6
Continuous
 62
     3
 48
5.0
100
AcDbLine
 10
128.0270403204767
 20
49.80348752933878
 30
0.0
 11
128.0270403204767
 21
131.8033875293388
 31
0.0
  0
LINE
  5
BA7
330
1A
100
AcDbEntity
  8
SEIHIN
  6
Continuous
 62
     3
 48
5.0
100
AcDbLine
 10
123.0271403204765
 20
63.48958752933885
 30
0.0
 11
93.02714032047652
 21
63.48958752933885
 31
0.0
  0
LINE
  5
BA8
330
1A
100
AcDbEntity
  8
SEIHIN
  6
Continuous
 62
     3
 48
5.0
100
AcDbLine
 10
123.0271403204765
 20
63.48958752933885
 30
0.0
 11
128.0271403204765
 21
63.98968752933888
 31
0.0
  0
LINE
  5
BA9
330
1A
100
AcDbEntity
  8
SEIHIN
  6
Continuous
 62
     3
 48
5.0
100
AcDbLine
 10
93.02694032047657
 20
131.8034875293389
 30
0.0
 11
128.0268403204766
 21
131.8035875293388
 31
0.0
  0
LINE
  5
BAA
330
1A
100
AcDbEntity
  8
SEIHIN
  6
Continuous
 62
     3
 48
5.0
100
AcDbLine
 10
123.0270403204767
 20
111.8034875293389
 30
0.0
 11
93.02704032047666
 21
111.8034875293389
 31
0.0
  0
LINE
  5
BAB
330
1A
100
AcDbEntity
  8
SEIHIN
  6
Continuous
 62
     3
 48
5.0
100
AcDbLine
 10
123.0270403204767
 20
111.8034875293389
 30
0.0
 11
128.0270403204767
 21
112.3034875293389
 31
0.0
  0
LINE
  5
BAC
330
1A
100
AcDbEntity
  8
SEIHIN
  6
Continuous
 62
     3
 48
5.0
100
AcDbLine
 10
128.0270403204767
 20
131.8033875293388
 30
0.0
 11
123.0270403204767
 21
130.7741875293388
 31
0.0
  0
LINE
  5
BAD
330
1A
100
AcDbEntity
  8
SEIHIN
  6
Continuous
 62
     3
 48
5.0
100
AcDbLine
 10
213.6338403204766
 20
104.8177875293388
 30
0.0
 11
217.4173403204766
 21
77.92398752933886
 31
0.0
  0
LINE
  5
BAE
330
1A
100
AcDbEntity
  8
NOKITOI
  6
PHANTOM
 62
     8
 48
5.0
100
AcDbLine
 10
205.8654403204766
 20
124.5033513634842
 30
0.0
 11
205.8654403204766
 21
118.1033513634842
 31
0.0
  0
LINE
  5
BAF
330
1A
100
AcDbEntity
  8
NOKITOI
  6
PHANTOM
 62
     8
 48
5.0
100
AcDbLine
 10
204.5654403204767
 20
129.5033513634842
 30
0.0
 11
204.5654403204767
 21
116.1033513634842
 31
0.0
  0
LINE
  5
BB0
330
1A
100
AcDbEntity
  8
NOKITOI
  6
PHANTOM
 62
     8
 48
5.0
100
AcDbLine
 10
200.6190403204766
 20
127.2552513634842
 30
0.0
 11
202.0130403204767
 21
116.1033513634842
 31
0.0
  0
LINE
  5
BB1
330
1A
100
AcDbEntity
  8
NOKITOI
  6
PHANTOM
 62
     8
 48
5.0
100
AcDbLine
 10
199.2869403204767
 20
127.4312513634842
 30
0.0
 11
200.8654403204766
 21
114.8033513634842
 31
0.0
  0
LINE
  5
BB2
330
1A
100
AcDbEntity
  8
SEIHIN
  6
Continuous
 62
     3
 48
5.0
100
AcDbLine
 10
198.5986403204764
 20
126.3311875293389
 30
0.0
 11
200.0676403204766
 21
114.5792875293389
 31
0.0
  0
LINE
  5
BB3
330
1A
100
AcDbEntity
  8
SEIHIN
  6
Continuous
 62
     3
 48
5.0
100
AcDbLine
 10
196.3330403204766
 20
128.3311875293388
 30
0.0
 11
198.4115403204764
 21
111.7032875293389
 31
0.0
  0
LINE
  5
BB4
330
1A
100
AcDbEntity
  8
SEIHIN
  6
Continuous
 62
     3
 48
5.0
100
AcDbLine
 10
199.2943403204766
 20
112.7032875293388
 30
0.0
 11
197.0480403204766
 21
130.6739875293388
 31
0.0
  0
LINE
  5
BB5
330
1A
100
AcDbEntity
  8
NOKITOI
  6
PHANTOM
 62
     8
 48
5.0
100
AcDbLine
 10
200.8654403204766
 20
114.8033513634842
 30
0.0
 11
205.6679403204766
 21
114.8033513634842
 31
0.0
  0
LINE
  5
BB6
330
1A
100
AcDbEntity
  8
SEIHIN
  6
Continuous
 62
     3
 48
5.0
100
AcDbLine
 10
201.0599403204766
 20
113.7032875293389
 30
0.0
 11
205.7118403204764
 21
113.7032875293389
 31
0.0
  0
LINE
  5
BB7
330
1A
100
AcDbEntity
  8
SEIHIN
  6
Continuous
 62
     3
 48
5.0
100
AcDbLine
 10
205.7118403204764
 20
111.7032875293389
 30
0.0
 11
198.4115403204764
 21
111.7032875293389
 31
0.0
  0
LINE
  5
BB8
330
1A
100
AcDbEntity
  8
SEIHIN
  6
Continuous
 62
     3
 48
5.0
100
AcDbLine
 10
199.2943403204766
 20
112.7032875293388
 30
0.0
 11
205.7118403204764
 21
112.7032875293388
 31
0.0
  0
ARC
  5
BB9
330
1A
100
AcDbEntity
  8
SEIHIN
  6
Continuous
 62
     3
 48
5.0
100
AcDbCircle
 10
201.0599303269685
 20
114.703296351761
 30
0.0
 40
1.000008822472095
100
AcDbArc
 50
187.1234569672684
 51
270.000572580791
  0
ARC
  5
BBA
330
1A
100
AcDbEntity
  8
NOKITOI
  6
PHANTOM
 62
     8
 48
5.0
100
AcDbCircle
 10
205.6679241240142
 20
104.803365450504
 30
0.0
 40
9.999985912993367
100
AcDbArc
 50
7.969086351823905
 51
89.9999072009758
  0
ARC
  5
BBB
330
1A
100
AcDbEntity
  8
SEIHIN
  6
Continuous
 62
     3
 48
5.0
100
AcDbCircle
 10
205.7118473045582
 20
103.7032814590309
 30
0.0
 40
8.00000607031105
100
AcDbArc
 50
8.008103336227361
 51
90.00005001976295
  0
ARC
  5
BBC
330
1A
100
AcDbEntity
  8
SEIHIN
  6
Continuous
 62
     3
 48
5.0
100
AcDbCircle
 10
205.7118186930053
 20
103.7033063271558
 30
0.0
 40
8.999981202209
100
AcDbArc
 50
8.007881174282426
 51
89.99986231495463
  0
ARC
  5
BBD
330
1A
100
AcDbEntity
  8
SEIHIN
  6
Continuous
 62
     3
 48
5.0
100
AcDbCircle
 10
205.7118470470393
 20
103.7032816828422
 30
0.0
 40
10.00000584649897
100
AcDbArc
 50
8.007950014325349
 51
90.00003854034377
  0
LINE
  5
BBE
330
1A
100
AcDbEntity
  8
NOKITOI
  6
PHANTOM
 62
     8
 48
5.0
100
AcDbLine
 10
215.4961403204767
 20
116.1033513634842
 30
0.0
 11
207.8654403204766
 21
116.1033513634842
 31
0.0
  0
ARC
  5
BBF
330
1A
100
AcDbEntity
  8
NOKITOI
  6
PHANTOM
 62
     8
 48
5.0
100
AcDbCircle
 10
207.8654403204766
 20
118.1033513634842
 30
0.0
 40
2.0
100
AcDbArc
 50
180.0
 51
270.0
  0
LINE
  5
BC0
330
1A
100
AcDbEntity
  8
NOKITOI
  6
PHANTOM
 62
     8
 48
5.0
100
AcDbLine
 10
204.5654403204767
 20
116.1033513634842
 30
0.0
 11
202.0130403204767
 21
116.1033513634842
 31
0.0
  0
ARC
  5
BC1
330
1A
100
AcDbEntity
  8
NOKITOI
  6
PHANTOM
 62
     8
 48
5.0
100
AcDbCircle
 10
205.6609342019976
 20
104.8541567365664
 30
0.0
 40
11.30001845330598
100
AcDbArc
 50
35.7247799592243
 51
61.6976929906939
  0
LINE
  5
BC2
330
1A
100
AcDbEntity
  8
NOKITOI
  6
PHANTOM
 62
     8
 48
5.0
100
AcDbLine
 10
214.3654403204766
 20
114.8033513634842
 30
0.0
 11
214.8417403204767
 21
111.4010513634841
 31
0.0
  0
LINE
  5
BC3
330
1A
100
AcDbEntity
  8
NOKITOI
  6
PHANTOM
 62
     8
 48
5.0
100
AcDbLine
 10
210.9300403204767
 20
114.8033513634842
 30
0.0
 11
214.3654403204766
 21
114.8033513634842
 31
0.0
  0
ARC
  5
BC4
330
1A
100
AcDbEntity
  8
NOKITOI
  6
PHANTOM
 62
     8
 48
5.0
100
AcDbCircle
 10
202.6036192699453
 20
127.5033275175185
 30
0.0
 40
2.000023846076517
100
AcDbArc
 50
89.99939695388666
 51
187.1251239525234
  0
ARC
  5
BC5
330
1A
100
AcDbEntity
  8
NOKITOI
  6
PHANTOM
 62
     8
 48
5.0
100
AcDbCircle
 10
202.2638552800415
 20
127.8033683094132
 30
0.0
 40
2.999983054108306
100
AcDbArc
 50
90.00028570825567
 51
187.1253020571569
  0
LINE
  5
BC6
330
1A
100
AcDbEntity
  8
SEIHIN
  6
Continuous
 62
     3
 48
5.0
100
AcDbLine
 10
199.3099403204766
 20
131.7032875293388
 30
0.0
 11
206.0771403204766
 21
131.7032875293388
 31
0.0
  0
ARC
  5
BC7
330
1A
100
AcDbEntity
  8
SEIHIN
  6
Continuous
 62
     3
 48
5.0
100
AcDbCircle
 10
201.5754552800414
 20
126.7033044752679
 30
0.0
 40
2.999983054108306
100
AcDbArc
 50
90.00028570825567
 51
187.1253020571569
  0
ARC
  5
BC8
330
1A
100
AcDbEntity
  8
SEIHIN
  6
Continuous
 62
     3
 48
5.0
100
AcDbCircle
 10
199.3099114816467
 20
128.7032548613612
 30
0.0
 40
3.000032668116213
100
AcDbArc
 50
89.99944922491767
 51
187.1242286900848
  0
LINE
  5
BC9
330
1A
100
AcDbEntity
  8
NOKITOI
  6
PHANTOM
 62
     8
 48
5.0
100
AcDbLine
 10
205.8654403204766
 20
130.8033513634842
 30
0.0
 11
205.8654403204766
 21
128.3033513634842
 31
0.0
  0
ARC
  5
BCA
330
1A
100
AcDbEntity
  8
SEIHIN
  6
Continuous
 62
     3
 48
5.0
100
AcDbCircle
 10
206.0771403204767
 20
130.2032875293388
 30
0.0
 40
1.499999999999957
100
AcDbArc
 50
0.0000000000016284
 51
90.00000000000162
  0
ARC
  5
BCB
330
1A
100
AcDbEntity
  8
NOKITOI
  6
PHANTOM
 62
     8
 48
5.0
100
AcDbCircle
 10
209.5654403204767
 20
124.5033513634842
 30
0.0
 40
2.0
100
AcDbArc
 50
0.0
 51
90.0
  0
LINE
  5
BCC
330
1A
100
AcDbEntity
  8
NOKITOI
  6
PHANTOM
 62
     8
 48
5.0
100
AcDbLine
 10
210.8654403204767
 20
127.8033513634842
 30
0.0
 11
206.3654403204766
 21
127.8033513634842
 31
0.0
  0
ARC
  5
BCD
330
1A
100
AcDbEntity
  8
NOKITOI
  6
PHANTOM
 62
     8
 48
5.0
100
AcDbCircle
 10
207.8654403204766
 20
124.5033513634842
 30
0.0
 40
2.0
100
AcDbArc
 50
90.0
 51
180.0
  0
LINE
  5
BCE
330
1A
100
AcDbEntity
  8
SEIHIN
  6
Continuous
 62
     3
 48
5.0
100
AcDbLine
 10
201.5754403204766
 20
129.7032875293389
 30
0.0
 11
206.0771403204766
 21
129.7032875293389
 31
0.0
  0
LINE
  5
BCF
330
1A
100
AcDbEntity
  8
NOKITOI
  6
PHANTOM
 62
     8
 48
5.0
100
AcDbLine
 10
202.6036403204767
 20
129.5033513634842
 30
0.0
 11
204.5654403204767
 21
129.5033513634842
 31
0.0
  0
ARC
  5
BD0
330
1A
100
AcDbEntity
  8
NOKITOI
  6
PHANTOM
 62
     8
 48
5.0
100
AcDbCircle
 10
206.3654403204766
 20
128.3033513634842
 30
0.0
 40
0.5
100
AcDbArc
 50
180.0
 51
270.0
  0
LINE
  5
BD1
330
1A
100
AcDbEntity
  8
NOKITOI
  6
PHANTOM
 62
     8
 48
5.0
100
AcDbLine
 10
209.5654403204767
 20
126.5033513634842
 30
0.0
 11
207.8654403204766
 21
126.5033513634842
 31
0.0
  0
LINE
  5
BD2
330
1A
100
AcDbEntity
  8
SEIHIN
  6
Continuous
 62
     3
 48
5.0
100
AcDbLine
 10
206.0771403204766
 20
128.7032875293389
 30
0.0
 11
206.0771403204766
 21
129.7032875293389
 31
0.0
  0
ARC
  5
BD3
330
1A
100
AcDbEntity
  8
SEIHIN
  6
Continuous
 62
     3
 48
5.0
100
AcDbCircle
 10
206.0771403204766
 20
130.2032875293389
 30
0.0
 40
1.5
100
AcDbArc
 50
270.0
 51
0.0
  0
LINE
  5
BD4
330
1A
100
AcDbEntity
  8
NOKITOI
  6
PHANTOM
 62
     8
 48
5.0
100
AcDbLine
 10
212.8654403204767
 20
125.8033513634842
 30
0.0
 11
212.8654403204767
 21
121.1033513634842
 31
0.0
  0
LINE
  5
BD5
330
1A
100
AcDbEntity
  8
NOKITOI
  6
PHANTOM
 62
     8
 48
5.0
100
AcDbLine
 10
211.5654403204767
 20
123.7034513634842
 30
0.0
 11
211.5654403204767
 21
124.5033513634842
 31
0.0
  0
ARC
  5
BD6
330
1A
100
AcDbEntity
  8
NOKITOI
  6
PHANTOM
 62
     8
 48
5.0
100
AcDbCircle
 10
211.5654403204767
 20
122.4034513634842
 30
0.0
 40
1.300000000000011
100
AcDbArc
 50
90.0
 51
270.0
  0
LINE
  5
BD7
330
1A
100
AcDbEntity
  8
NOKITOI
  6
PHANTOM
 62
     8
 48
5.0
100
AcDbLine
 10
211.5654403204767
 20
121.1033513634842
 30
0.0
 11
212.8654403204767
 21
121.1033513634842
 31
0.0
  0
ARC
  5
BD8
330
1A
100
AcDbEntity
  8
NOKITOI
  6
PHANTOM
 62
     8
 48
5.0
100
AcDbCircle
 10
210.8654403204767
 20
125.8033513634842
 30
0.0
 40
2.0
100
AcDbArc
 50
0.0
 51
90.0
  0
LINE
  5
BD9
330
1A
100
AcDbEntity
  8
NOKITOI
  6
PHANTOM
 62
     8
 48
5.0
100
AcDbLine
 10
202.2638403204767
 20
130.8033513634842
 30
0.0
 11
205.8654403204766
 21
130.8033513634842
 31
0.0
  0
DIMENSION
  5
BDA
330
1A
100
AcDbEntity
  8
SUNPOU
100
AcDbDimension
  2
*D3
 10
169.0186560004181
 20
177.7863527354988
 30
0.0
 11
166.5186560004181
 21
212.7863527354988
 31
0.0
 70
    32
 71
     5
 42
70.0
  3
STANDARD
100
AcDbAlignedDimension
 13
197.4331403204766
 23
247.7863527354988
 33
0.0
 14
197.4331403204766
 24
177.7863527354988
 34
0.0
 50
90.0
100
AcDbRotatedDimension
1001
ACAD
1000
DSTYLE
1002
{
1070
   140
1040
3.0
1070
    74
1070
     0
1070
   172
1070
     1
1070
    73
1070
     0
1070
   272
1070
     2
1070
    77
1070
     3
1070
   173
1070
     1
1070
   147
1040
1.0
1070
    42
1040
3.0
1070
    44
1040
1.5
1070
    43
1040
7.0
1070
   271
1070
     0
1070
   178
1070
     4
1070
   177
1070
     4
1070
   176
1070
     4
1070
   141
1040
150.0
1070
     7
1000
_OPEN
1070
     6
1000
_OPEN
1070
    41
1040
3.0
1002
}
  0
LINE
  5
BDB
330
1A
100
AcDbEntity
  8
SEIHIN
  6
Continuous
 62
     3
 48
5.0
100
AcDbLine
 10
207.2764403204766
 20
222.7863527354986
 30
0.0
 11
207.2764403204766
 21
247.7864527354988
 31
0.0
  0
LINE
  5
BDC
330
1A
100
AcDbEntity
  8
SEIHIN
  6
Continuous
 62
     3
 48
5.0
100
AcDbLine
 10
196.4331403204766
 20
242.7863527354988
 30
0.0
 11
196.4331403204766
 21
212.7864527354988
 31
0.0
  0
LINE
  5
BDD
330
1A
100
AcDbEntity
  8
SEIHIN
  6
Continuous
 62
     3
 48
5.0
100
AcDbLine
 10
215.6144403204766
 20
177.7863527354988
 30
0.0
 11
215.6144403204766
 21
247.7863527354988
 31
0.0
  0
DIMENSION
  5
BDE
330
1A
100
AcDbEntity
  8
SUNPOU
100
AcDbDimension
  2
*D4
 10
184.2493875914615
 20
177.7863527354988
 30
0.0
 11
181.7493875914615
 21
190.2863527354988
 31
0.0
 70
    32
  1
※ <>
 71
     5
 42
25.0
  3
STANDARD
100
AcDbAlignedDimension
 13
200.6956403204765
 23
202.7863527354988
 33
0.0
 14
197.4331403204766
 24
177.7863527354988
 34
0.0
 50
90.0
100
AcDbRotatedDimension
1001
ACAD
1000
DSTYLE
1002
{
1070
   140
1040
3.0
1070
    74
1070
     0
1070
   172
1070
     1
1070
    73
1070
     0
1070
   272
1070
     2
1070
    77
1070
     3
1070
   173
1070
     1
1070
   147
1040
1.0
1070
    42
1040
3.0
1070
    44
1040
1.5
1070
    43
1040
7.0
1070
   271
1070
     0
1070
   178
1070
     4
1070
   177
1070
     4
1070
   176
1070
     4
1070
   141
1040
150.0
1070
     7
1000
_OPEN
1070
     6
1000
_OPEN
1070
    41
1040
3.0
1002
}
  0
LINE
  5
BDF
330
1A
100
AcDbEntity
  8
SEIHIN
  6
Continuous
 62
     3
 48
5.0
100
AcDbLine
 10
207.2764403204766
 20
202.7863527354988
 30
0.0
 11
207.2764403204766
 21
177.7862527354988
 31
0.0
  0
LINE
  5
BE0
330
1A
100
AcDbEntity
  8
SEIHIN
  6
Continuous
 62
     3
 48
5.0
100
AcDbLine
 10
196.4331403204766
 20
182.7863527354988
 30
0.0
 11
196.4331403204766
 21
212.7862527354988
 31
0.0
  0
LINE
  5
BE1
330
1A
100
AcDbEntity
  8
SEIHIN
  6
Continuous
 62
     3
 48
5.0
100
AcDbLine
 10
197.4331403204766
 20
177.7863527354988
 30
0.0
 11
196.4331403204766
 21
182.7863527354988
 31
0.0
  0
LINE
  5
BE2
330
1A
100
AcDbEntity
  8
SEIHIN
  6
Continuous
 62
     3
 48
5.0
100
AcDbLine
 10
198.6956403204765
 20
212.7862527354988
 30
0.0
 11
198.6956403204765
 21
204.7863527354988
 31
0.0
  0
LINE
  5
BE3
330
1A
100
AcDbEntity
  8
SEIHIN
  6
Continuous
 62
     3
 48
5.0
100
AcDbLine
 10
200.2771403204766
 20
212.7863527354986
 30
0.0
 11
200.2771403204766
 21
202.7863527354988
 31
0.0
  0
LINE
  5
BE4
330
1A
100
AcDbEntity
  8
SEIHIN
  6
Continuous
 62
     3
 48
5.0
100
AcDbLine
 10
207.2764403204766
 20
202.7863527354988
 30
0.0
 11
200.6956403204765
 21
202.7863527354988
 31
0.0
  0
ARC
  5
BE5
330
1A
100
AcDbEntity
  8
SEIHIN
  6
Continuous
 62
     3
 48
5.0
100
AcDbCircle
 10
200.6956403204765
 20
204.7863527354988
 30
0.0
 40
2.0
100
AcDbArc
 50
180.0
 51
270.0
  0
LINE
  5
BE6
330
1A
100
AcDbEntity
  8
SEIHIN
  6
Continuous
 62
     3
 48
5.0
100
AcDbLine
 10
207.2764403204766
 20
222.7863527354986
 30
0.0
 11
200.6956403204765
 21
222.7863527354986
 31
0.0
  0
ARC
  5
BE7
330
1A
100
AcDbEntity
  8
SEIHIN
  6
Continuous
 62
     3
 48
5.0
100
AcDbCircle
 10
200.6956403204765
 20
220.7863527354986
 30
0.0
 40
2.0
100
AcDbArc
 50
90.0
 51
180.0
  0
LINE
  5
BE8
330
1A
100
AcDbEntity
  8
SEIHIN
  6
Continuous
 62
     3
 48
5.0
100
AcDbLine
 10
200.2771403204766
 20
212.7864527354988
 30
0.0
 11
200.2771403204766
 21
222.7864527354988
 31
0.0
  0
LINE
  5
BE9
330
1A
100
AcDbEntity
  8
SEIHIN
  6
Continuous
 62
     3
 48
5.0
100
AcDbLine
 10
198.6956403204765
 20
212.7864527354988
 30
0.0
 11
198.6956403204765
 21
220.7863527354986
 31
0.0
  0
LINE
  5
BEA
330
1A
100
AcDbEntity
  8
SEIHIN
  6
Continuous
 62
     3
 48
5.0
100
AcDbLine
 10
197.4331403204766
 20
247.7863527354988
 30
0.0
 11
196.4331403204766
 21
242.7863527354988
 31
0.0
  0
DIMENSION
  5
BEB
330
1A
100
AcDbEntity
  8
SUNPOU
100
AcDbDimension
  2
*D5
 10
348.569123951336
 20
48.8032875293388
 30
0.0
 11
346.069123951336
 21
80.55328752933886
 31
0.0
 70
    32
 71
     5
 42
63.5
  3
STANDARD
100
AcDbAlignedDimension
 13
325.1589403204765
 23
112.3032875293388
 33
0.0
 14
320.7771403204764
 24
48.8032875293388
 34
0.0
 50
90.0
100
AcDbRotatedDimension
1001
ACAD
1000
DSTYLE
1002
{
1070
   140
1040
3.0
1070
    74
1070
     0
1070
   172
1070
     1
1070
    73
1070
     0
1070
   272
1070
     2
1070
    77
1070
     3
1070
   173
1070
     1
1070
   147
1040
1.0
1070
    42
1040
3.0
1070
    44
1040
1.5
1070
    43
1040
7.0
1070
   271
1070
     0
1070
   178
1070
     4
1070
   177
1070
     4
1070
   176
1070
     4
1070
   141
1040
150.0
1070
     7
1000
_OPEN
1070
     6
1000
_OPEN
1070
    41
1040
3.0
1002
}
  0
ARC
  5
BEC
330
1A
100
AcDbEntity
  8
SEIHIN
  6
Continuous
 62
     3
 48
5.0
100
AcDbCircle
 10
320.7771205745219
 20
50.80326866041088
 30
0.0
 40
1.999981131169553
100
AcDbArc
 50
270.0005656852658
 51
357.3983937402285
  0
LINE
  5
BED
330
1A
100
AcDbEntity
  8
CENTER L
  6
CENTER
 62
     1
 48
5.0
100
AcDbLine
 10
276.0271403204766
 20
40.72698752933877
 30
0.0
 11
276.0271403204766
 21
65.68878752933887
 31
0.0
  0
ARC
  5
BEE
330
1A
100
AcDbEntity
  8
SEIHIN
  6
Continuous
 62
     3
 48
5.0
100
AcDbCircle
 10
231.2771432245612
 20
50.80328501058565
 30
0.0
 40
1.999997481248963
100
AcDbArc
 50
188.1288037280665
 51
269.9999168039992
  0
DIMENSION
  5
BEF
330
1A
100
AcDbEntity
  8
SUNPOU
100
AcDbDimension
  2
*D6
 10
322.6882561931377
 20
32.21965464283585
 30
0.0
 11
276.1154044538925
 21
34.71965464283585
 31
0.0
 70
    32
 71
     5
 42
93.14570347849039
  3
STANDARD
100
AcDbAlignedDimension
 13
229.5425527146473
 23
48.8032875293388
 33
0.0
 14
322.6882561931377
 24
48.8032875293388
 34
0.0
100
AcDbRotatedDimension
1001
ACAD
1000
DSTYLE
1002
{
1070
   140
1040
3.0
1070
    74
1070
     0
1070
   172
1070
     1
1070
    73
1070
     0
1070
   272
1070
     2
1070
    77
1070
     3
1070
   173
1070
     1
1070
   147
1040
1.0
1070
    42
1040
3.0
1070
    44
1040
1.5
1070
    43
1040
7.0
1070
   271
1070
     0
1070
   178
1070
     4
1070
   177
1070
     4
1070
   176
1070
     4
1070
   141
1040
150.0
1070
     7
1000
_OPEN
1070
     6
1000
_OPEN
1070
    41
1040
3.0
1002
}
  0
LINE
  5
BF0
330
1A
100
AcDbEntity
  8
SEIHIN
  6
Continuous
 62
     3
 48
5.0
100
AcDbLine
 10
231.2771403204766
 20
48.8032875293388
 30
0.0
 11
320.7771403204764
 21
48.8032875293388
 31
0.0
  0
LINE
  5
BF1
330
1A
100
AcDbEntity
  8
NOKITOI
  6
PHANTOM
 62
     8
 48
5.0
100
AcDbLine
 10
235.0948403204766
 20
52.10325136348413
 30
0.0
 11
316.7564403204766
 21
52.10325136348413
 31
0.0
  0
LINE
  5
BF2
330
1A
100
AcDbEntity
  8
NOKITOI
  6
PHANTOM
 62
     8
 48
5.0
100
AcDbLine
 10
233.1000403204766
 20
50.80325136348412
 30
0.0
 11
318.9542403204767
 21
50.80325136348412
 31
0.0
  0
LINE
  5
BF3
330
1A
100
AcDbEntity
  8
SEIHIN
  6
Continuous
 62
     3
 48
5.0
100
AcDbLine
 10
233.0117403204766
 20
50.8032875293388
 30
0.0
 11
318.8659403204766
 21
50.8032875293388
 31
0.0
  0
LINE
  5
BF4
330
1A
100
AcDbEntity
  8
SEIHIN
  6
Continuous
 62
     3
 48
5.0
100
AcDbLine
 10
319.8216403204766
 20
49.8032875293388
 30
0.0
 11
232.1444403204766
 21
49.8032875293388
 31
0.0
  0
ARC
  5
BF5
330
1A
100
AcDbEntity
  8
NOKITOI
  6
PHANTOM
 62
     8
 48
5.0
100
AcDbCircle
 10
236.819464670645
 20
80.63646005206667
 30
0.0
 40
16.19999005602697
100
AcDbArc
 50
187.9696639128037
 51
241.7088364731403
  0
LINE
  5
BF6
330
1A
100
AcDbEntity
  8
NOKITOI
  6
PHANTOM
 62
     8
 48
5.0
100
AcDbLine
 10
227.2025403204767
 20
79.94405136348419
 30
0.0
 11
229.1414403204767
 21
66.3714513634842
 31
0.0
  0
LINE
  5
BF7
330
1A
100
AcDbEntity
  8
NOKITOI
  6
PHANTOM
 62
     8
 48
5.0
100
AcDbLine
 10
232.1250403204767
 20
54.67895136348412
 30
0.0
 11
228.3929403204767
 21
80.80335136348421
 31
0.0
  0
ARC
  5
BF8
330
1A
100
AcDbEntity
  8
NOKITOI
  6
PHANTOM
 62
     8
 48
5.0
100
AcDbCircle
 10
235.0948650597907
 20
55.10322990749725
 30
0.0
 40
2.99997854411512
100
AcDbArc
 50
188.1304401609565
 51
269.9995275105255
  0
LINE
  5
BF9
330
1A
100
AcDbEntity
  8
NOKITOI
  6
PHANTOM
 62
     8
 48
5.0
100
AcDbLine
 10
229.3654403204766
 20
64.80325136348421
 30
0.0
 11
231.1201403204767
 21
52.52035136348411
 31
0.0
  0
LINE
  5
BFA
330
1A
100
AcDbEntity
  8
SEIHIN
  6
Continuous
 62
     3
 48
5.0
100
AcDbLine
 10
229.2972403204766
 20
50.52048752933888
 30
0.0
 11
227.4445403204766
 21
63.48948752933887
 31
0.0
  0
LINE
  5
BFB
330
1A
100
AcDbEntity
  8
SEIHIN
  6
Continuous
 62
     3
 48
5.0
100
AcDbLine
 10
229.2771403204766
 20
64.8032875293388
 30
0.0
 11
231.0318403204766
 21
52.52048752933888
 31
0.0
  0
LINE
  5
BFC
330
1A
100
AcDbEntity
  8
SEIHIN
  6
Continuous
 62
     3
 48
5.0
100
AcDbLine
 10
230.1645403204766
 20
51.52048752933888
 30
0.0
 11
228.3620403204766
 21
64.13748752933878
 31
0.0
  0
ARC
  5
BFD
330
1A
100
AcDbEntity
  8
SEIHIN
  6
Continuous
 62
     3
 48
5.0
100
AcDbCircle
 10
232.1444432245612
 20
51.80328501058565
 30
0.0
 40
1.999997481248963
100
AcDbArc
 50
188.1288037280665
 51
269.9999168039992
  0
ARC
  5
BFE
330
1A
100
AcDbEntity
  8
NOKITOI
  6
PHANTOM
 62
     8
 48
5.0
100
AcDbCircle
 10
233.100035071262
 20
52.80325591597369
 30
0.0
 40
2.000004552496454
100
AcDbArc
 50
188.131873294726
 51
270.0001503785779
  0
ARC
  5
BFF
330
1A
100
AcDbEntity
  8
SEIHIN
  6
Continuous
 62
     3
 48
5.0
100
AcDbCircle
 10
233.0117432245612
 20
52.80328501058565
 30
0.0
 40
1.999997481248963
100
AcDbArc
 50
188.1288037280665
 51
269.9999168039992
  0
ARC
  5
C00
330
1A
100
AcDbEntity
  8
NOKITOI
  6
PHANTOM
 62
     8
 48
5.0
100
AcDbCircle
 10
235.8952754890605
 20
96.61361412291758
 30
0.0
 40
18.7999459388005
100
AcDbArc
 50
209.402094483778
 51
242.4591529343748
  0
LINE
  5
C01
330
1A
100
AcDbEntity
  8
NOKITOI
  6
PHANTOM
 62
     8
 48
5.0
100
AcDbLine
 10
219.5168403204767
 20
87.38405136348413
 30
0.0
 11
220.7759403204766
 21
78.39035136348414
 31
0.0
  0
LINE
  5
C02
330
1A
100
AcDbEntity
  8
NOKITOI
  6
PHANTOM
 62
     8
 48
5.0
100
AcDbLine
 10
322.2697403204768
 20
110.3260513634842
 30
0.0
 11
319.7533403204766
 21
54.96705136348413
 31
0.0
  0
LINE
  5
C03
330
1A
100
AcDbEntity
  8
NOKITOI
  6
PHANTOM
 62
     8
 48
5.0
100
AcDbLine
 10
328.8654403204768
 20
108.8033513634842
 30
0.0
 11
328.8654403204768
 21
94.18645136348421
 31
0.0
  0
LINE
  5
C04
330
1A
100
AcDbEntity
  8
SEIHIN
  6
Continuous
 62
     3
 48
5.0
100
AcDbLine
 10
329.2589403204765
 20
93.20328752933887
 30
0.0
 11
329.1589403204764
 21
108.3032875293388
 31
0.0
  0
LINE
  5
C05
330
1A
100
AcDbEntity
  8
SEIHIN
  6
Continuous
 62
     3
 48
5.0
100
AcDbLine
 10
331.2589403204764
 20
93.20328752933887
 30
0.0
 11
331.6589403204766
 21
109.3032875293389
 31
0.0
  0
LINE
  5
C06
330
1A
100
AcDbEntity
  8
NOKITOI
  6
PHANTOM
 62
     8
 48
5.0
100
AcDbLine
 10
322.8654403204766
 20
94.80335136348408
 30
0.0
 11
320.9522403204768
 21
52.71245136348421
 31
0.0
  0
LINE
  5
C07
330
1A
100
AcDbEntity
  8
SEIHIN
  6
Continuous
 62
     3
 48
5.0
100
AcDbLine
 10
322.5938403204765
 20
90.7713875293388
 30
0.0
 11
320.8639403204766
 21
52.7124875293388
 31
0.0
  0
LINE
  5
C08
330
1A
100
AcDbEntity
  8
SEIHIN
  6
Continuous
 62
     3
 48
5.0
100
AcDbLine
 10
324.4833403204765
 20
88.29408752933887
 30
0.0
 11
322.7750403204766
 21
50.71248752933886
 31
0.0
  0
LINE
  5
C09
330
1A
100
AcDbEntity
  8
SEIHIN
  6
Continuous
 62
     3
 48
5.0
100
AcDbLine
 10
323.4823403204766
 20
88.29408752933887
 30
0.0
 11
321.8195403204766
 21
51.7124875293388
 31
0.0
  0
ARC
  5
C0A
330
1A
100
AcDbEntity
  8
NOKITOI
  6
PHANTOM
 62
     8
 48
5.0
100
AcDbCircle
 10
316.7564368365693
 20
55.10324803431379
 30
0.0
 40
2.999996670831683
100
AcDbArc
 50
270.0000665378024
 51
357.3979379474862
  0
ARC
  5
C0B
330
1A
100
AcDbEntity
  8
NOKITOI
  6
PHANTOM
 62
     8
 48
5.0
100
AcDbCircle
 10
318.9542728444937
 20
52.80328244300119
 30
0.0
 40
2.000031079781521
100
AcDbArc
 50
269.9990682700254
 51
357.3970263848195
  0
ARC
  5
C0C
330
1A
100
AcDbEntity
  8
SEIHIN
  6
Continuous
 62
     3
 48
5.0
100
AcDbCircle
 10
318.865920574522
 20
52.80326866041077
 30
0.0
 40
1.999981131169439
100
AcDbArc
 50
270.0005656852674
 51
357.3983937402302
  0
ARC
  5
C0D
330
1A
100
AcDbEntity
  8
SEIHIN
  6
Continuous
 62
     3
 48
5.0
100
AcDbCircle
 10
319.8216205745221
 20
51.80326866041079
 30
0.0
 40
1.999981131169467
100
AcDbArc
 50
270.0005656852658
 51
357.3983937402294
  0
LINE
  5
C0E
330
1A
100
AcDbEntity
  8
NOKITOI
  6
PHANTOM
 62
     8
 48
5.0
100
AcDbLine
 10
322.8654403204766
 20
94.80335136348408
 30
0.0
 11
326.3654403204766
 21
94.80335136348408
 31
0.0
  0
LINE
  5
C0F
330
1A
100
AcDbEntity
  8
SEIHIN
  6
Continuous
 62
     3
 48
5.0
100
AcDbLine
 10
324.0923403204766
 20
92.20328752933887
 30
0.0
 11
328.2589403204764
 21
92.20328752933887
 31
0.0
  0
ARC
  5
C10
330
1A
100
AcDbEntity
  8
SEIHIN
  6
Continuous
 62
     3
 48
5.0
100
AcDbCircle
 10
326.481260066431
 20
88.2033063982669
 30
0.0
 40
1.999981131169439
100
AcDbArc
 50
90.00056568526743
 51
177.3983937402302
  0
ARC
  5
C11
330
1A
100
AcDbEntity
  8
SEIHIN
  6
Continuous
 62
     3
 48
5.0
100
AcDbCircle
 10
325.4802600664311
 20
88.20330639826688
 30
0.0
 40
1.999981131169467
100
AcDbArc
 50
90.0005656852658
 51
177.3983937402294
  0
ARC
  5
C12
330
1A
100
AcDbEntity
  8
SEIHIN
  6
Continuous
 62
     3
 48
5.0
100
AcDbCircle
 10
324.0923159274638
 20
90.70326421970097
 30
0.0
 40
1.500023309836215
100
AcDbArc
 50
89.99906827002211
 51
177.3970263848175
  0
ARC
  5
C13
330
1A
100
AcDbEntity
  8
SEIHIN
  6
Continuous
 62
     3
 48
5.0
100
AcDbCircle
 10
328.2589403204764
 20
93.20328752933887
 30
0.0
 40
3.0
100
AcDbArc
 50
270.0
 51
0.0
  0
ARC
  5
C14
330
1A
100
AcDbEntity
  8
NOKITOI
  6
PHANTOM
 62
     8
 48
5.0
100
AcDbCircle
 10
328.3654296807032
 20
94.18644533838288
 30
0.0
 40
0.500010639809949
100
AcDbArc
 50
239.0447944605788
 51
0.0006904110642984
  0
ARC
  5
C15
330
1A
100
AcDbEntity
  8
SEIHIN
  6
Continuous
 62
     3
 48
5.0
100
AcDbCircle
 10
328.2589403204765
 20
93.20328752933892
 30
0.0
 40
1.000000000000057
100
AcDbArc
 50
269.9999999999968
 51
359.9999999999968
  0
LINE
  5
C16
330
1A
100
AcDbEntity
  8
NOKITOI
  6
PHANTOM
 62
     8
 48
5.0
100
AcDbLine
 10
326.3654403204766
 20
94.80335136348408
 30
0.0
 11
328.1082403204767
 21
93.75765136348407
 31
0.0
  0
LINE
  5
C17
330
1A
100
AcDbEntity
  8
SEIHIN
  6
Continuous
 62
     3
 48
5.0
100
AcDbLine
 10
325.4802403204766
 20
90.20328752933887
 30
0.0
 11
328.2589403204764
 21
90.20328752933887
 31
0.0
  0
LINE
  5
C18
330
1A
100
AcDbEntity
  8
NOKITOI
  6
PHANTOM
 62
     8
 48
5.0
100
AcDbLine
 10
327.5654403204768
 20
96.10335136348421
 30
0.0
 11
327.5654403204768
 21
108.0859513634842
 31
0.0
  0
LINE
  5
C19
330
1A
100
AcDbEntity
  8
NOKITOI
  6
PHANTOM
 62
     8
 48
5.0
100
AcDbLine
 10
323.5336403204767
 20
109.5033513634841
 30
0.0
 11
322.9245403204766
 21
96.10335136348421
 31
0.0
  0
LINE
  5
C1A
330
1A
100
AcDbEntity
  8
NOKITOI
  6
PHANTOM
 62
     8
 48
5.0
100
AcDbLine
 10
322.9245403204766
 20
96.10335136348421
 30
0.0
 11
327.5654403204768
 21
96.10335136348421
 31
0.0
  0
LINE
  5
C1B
330
1A
100
AcDbEntity
  8
NOKITOI
  6
PHANTOM
 62
     8
 48
5.0
100
AcDbLine
 10
325.3159403204768
 20
109.5033513634841
 30
0.0
 11
323.5336403204767
 21
109.5033513634841
 31
0.0
  0
LINE
  5
C1C
330
1A
100
AcDbEntity
  8
NOKITOI
  6
PHANTOM
 62
     8
 48
5.0
100
AcDbLine
 10
322.7691403204767
 20
110.8033513634842
 30
0.0
 11
325.6914403204768
 21
110.8033513634842
 31
0.0
  0
LINE
  5
C1D
330
1A
100
AcDbEntity
  8
SEIHIN
  6
Continuous
 62
     3
 48
5.0
100
AcDbLine
 10
321.6589403204766
 20
110.3032875293388
 30
0.0
 11
327.1589403204766
 21
110.3032875293388
 31
0.0
  0
LINE
  5
C1E
330
1A
100
AcDbEntity
  8
SEIHIN
  6
Continuous
 62
     3
 48
5.0
100
AcDbLine
 10
321.6589403204766
 20
112.3032875293388
 30
0.0
 11
328.6589403204764
 21
112.3032875293388
 31
0.0
  0
ARC
  5
C1F
330
1A
100
AcDbEntity
  8
SEIHIN
  6
Continuous
 62
     3
 48
5.0
100
AcDbCircle
 10
321.6589404071904
 20
110.8033099556702
 30
0.0
 40
1.500022426331346
100
AcDbArc
 50
89.55691815880866
 51
269.9999966878272
  0
ARC
  5
C20
330
1A
100
AcDbEntity
  8
NOKITOI
  6
PHANTOM
 62
     8
 48
5.0
100
AcDbCircle
 10
322.7691321894724
 20
110.303343593605
 30
0.0
 40
0.5000077699453767
100
AcDbArc
 50
89.99906827002293
 51
177.3970263848191
  0
LINE
  5
C21
330
1A
100
AcDbEntity
  8
SEIHIN
  6
Continuous
 62
     3
 48
5.0
100
AcDbLine
 10
321.6589403204766
 20
109.3032875293389
 30
0.0
 11
321.6589403204766
 21
110.3032875293388
 31
0.0
  0
ARC
  5
C22
330
1A
100
AcDbEntity
  8
SEIHIN
  6
Continuous
 62
     3
 48
5.0
100
AcDbCircle
 10
328.6589403204765
 20
109.3032875293388
 30
0.0
 40
3.000000000000057
100
AcDbArc
 50
0.0000000000020356
 51
90.00000000000203
  0
LINE
  5
C23
330
1A
100
AcDbEntity
  8
NOKITOI
  6
PHANTOM
 62
     8
 48
5.0
100
AcDbLine
 10
325.6914403204768
 20
110.8033513634842
 30
0.0
 11
328.8654403204768
 21
108.8033513634842
 31
0.0
  0
ARC
  5
C24
330
1A
100
AcDbEntity
  8
SEIHIN
  6
Continuous
 62
     3
 48
5.0
100
AcDbCircle
 10
327.1589403204765
 20
108.3032875293389
 30
0.0
 40
1.999999999999915
100
AcDbArc
 50
359.9999999999976
 51
89.99999999999756
  0
LINE
  5
C25
330
1A
100
AcDbEntity
  8
NOKITOI
  6
PHANTOM
 62
     8
 48
5.0
100
AcDbLine
 10
327.5654403204768
 20
108.0859513634842
 30
0.0
 11
325.3159403204768
 21
109.5033513634841
 31
0.0
  0
LINE
  5
C26
330
1A
100
AcDbEntity
  8
CENTER L
 48
5.0
100
AcDbLine
 10
276.0271403204766
 20
170.7863527354988
 30
0.0
 11
276.0271403204767
 21
254.7863527354988
 31
0.0
  0
LINE
  5
C27
330
1A
100
AcDbEntity
  8
SEIHIN
  6
Continuous
 62
     3
 48
5.0
100
AcDbLine
 10
331.1590403204765
 20
212.7863527354986
 30
0.0
 11
331.1590403204765
 21
247.7863527354988
 31
0.0
  0
LINE
  5
C28
330
1A
100
AcDbEntity
  8
SEIHIN
  6
Continuous
 62
     3
 48
5.0
100
AcDbLine
 10
320.6607403204766
 20
212.7864527354988
 30
0.0
 11
320.6608403204764
 21
247.7863527354988
 31
0.0
  0
LINE
  5
C29
330
1A
100
AcDbEntity
  8
SEIHIN
  6
Continuous
 62
     3
 48
5.0
100
AcDbLine
 10
231.2771403204766
 20
212.7864527354988
 30
0.0
 11
231.2772403204766
 21
247.7864527354988
 31
0.0
  0
LINE
  5
C2A
330
1A
100
AcDbEntity
  8
SEIHIN
  6
Continuous
 62
     3
 48
5.0
100
AcDbLine
 10
229.2771403204766
 20
212.7864527354988
 30
0.0
 11
229.2771403204766
 21
247.7864527354988
 31
0.0
  0
LINE
  5
C2B
330
1A
100
AcDbEntity
  8
SEIHIN
  6
Continuous
 62
     3
 48
5.0
100
AcDbLine
 10
231.2771403204766
 20
212.7863527354986
 30
0.0
 11
231.2772403204766
 21
177.7863527354988
 31
0.0
  0
LINE
  5
C2C
330
1A
100
AcDbEntity
  8
SEIHIN
  6
Continuous
 62
     3
 48
5.0
100
AcDbLine
 10
229.2771403204766
 20
212.7863527354986
 30
0.0
 11
229.2771403204766
 21
177.7862527354988
 31
0.0
  0
LINE
  5
C2D
330
1A
100
AcDbEntity
  8
SEIHIN
  6
Continuous
 62
     3
 48
5.0
100
AcDbLine
 10
331.1590403204765
 20
212.7863527354986
 30
0.0
 11
331.1590403204765
 21
177.7863527354988
 31
0.0
  0
LINE
  5
C2E
330
1A
100
AcDbEntity
  8
SEIHIN
  6
Continuous
 62
     3
 48
5.0
100
AcDbLine
 10
320.6607403204766
 20
212.7863527354986
 30
0.0
 11
320.6608403204764
 21
177.7863527354988
 31
0.0
  0
LINE
  5
C2F
330
1A
100
AcDbEntity
  8
SEIHIN
  6
Continuous
 62
     3
 48
5.0
100
AcDbLine
 10
329.1590403204766
 20
212.7863527354986
 30
0.0
 11
329.1590403204766
 21
204.7863527354988
 31
0.0
  0
LINE
  5
C30
330
1A
100
AcDbEntity
  8
SEIHIN
  6
Continuous
 62
     3
 48
5.0
100
AcDbLine
 10
322.6590403204765
 20
212.7863527354986
 30
0.0
 11
322.6590403204765
 21
202.7863527354988
 31
0.0
  0
LINE
  5
C31
330
1A
100
AcDbEntity
  8
SEIHIN
  6
Continuous
 62
     3
 48
5.0
100
AcDbLine
 10
320.7772403204766
 20
212.7863527354986
 30
0.0
 11
320.7772403204766
 21
202.7863527354988
 31
0.0
  0
LINE
  5
C32
330
1A
100
AcDbEntity
  8
SEIHIN
  6
Continuous
 62
     3
 48
5.0
100
AcDbLine
 10
327.1590403204765
 20
202.7863527354988
 30
0.0
 11
320.6607403204766
 21
202.7863527354988
 31
0.0
  0
ARC
  5
C33
330
1A
100
AcDbEntity
  8
SEIHIN
  6
Continuous
 62
     3
 48
5.0
100
AcDbCircle
 10
327.1590403204765
 20
204.7863527354988
 30
0.0
 40
2.000000000000057
100
AcDbArc
 50
269.9999999999984
 51
359.9999999999984
  0
ARC
  5
C34
330
1A
100
AcDbEntity
  8
SEIHIN
  6
Continuous
 62
     3
 48
5.0
100
AcDbCircle
 10
327.1590403204765
 20
220.7863527354986
 30
0.0
 40
2.000000000000057
100
AcDbArc
 50
0.0000000000016284
 51
90.00000000000162
  0
LINE
  5
C35
330
1A
100
AcDbEntity
  8
SEIHIN
  6
Continuous
 62
     3
 48
5.0
100
AcDbLine
 10
327.1590403204765
 20
222.7863527354986
 30
0.0
 11
320.6607403204766
 21
222.7863527354986
 31
0.0
  0
LINE
  5
C36
330
1A
100
AcDbEntity
  8
SEIHIN
  6
Continuous
 62
     3
 48
5.0
100
AcDbLine
 10
322.6590403204765
 20
212.7864527354988
 30
0.0
 11
322.6590403204765
 21
222.7863527354986
 31
0.0
  0
LINE
  5
C37
330
1A
100
AcDbEntity
  8
SEIHIN
  6
Continuous
 62
     3
 48
5.0
100
AcDbLine
 10
320.7772403204766
 20
212.7864527354988
 30
0.0
 11
320.7772403204766
 21
222.7863527354986
 31
0.0
  0
LINE
  5
C38
330
1A
100
AcDbEntity
  8
SEIHIN
  6
Continuous
 62
     3
 48
5.0
100
AcDbLine
 10
329.1590403204766
 20
212.7863527354986
 30
0.0
 11
329.1590403204766
 21
220.7863527354986
 31
0.0
  0
VIEWPORT
  5
22
330
17
100
AcDbEntity
 67
     1
  8
0
100
AcDbViewport
 10
313.6808219178083
 20
148.5
 30
0.0
 40
627.3616438356165
 41
297.0
 68
     2
 69
     1
 12
313.6808219178083
 22
148.5
 13
0.0
 23
0.0
 14
1.0
 24
1.0
 15
10.0
 25
10.0
 16
0.0
 26
0.0
 36
1.0
 17
0.0
 27
0.0
 37
0.0
 42
50.0
 43
0.0
 44
0.0
 45
297.0
 50
0.0
 51
0.0
 72
   100
 90
    32768
  1

281
     0
 71
     1
 74
     0
110
0.0
120
0.0
130
0.0
111
1.0
121
0.0
131
0.0
112
0.0
122
1.0
132
0.0
 79
     0
146
0.0
  0
VIEWPORT
  5
64
330
17
100
AcDbEntity
 67
     1
  8
VIEWPORT
100
AcDbViewport
 10
210.0
 20
148.5
 30
0.0
 40
420.0
 41
297.0
 68
     1
 69
     2
 12
210.0
 22
148.5
 13
0.0
 23
0.0
 14
5.0
 24
5.0
 15
0.0
 25
0.0
 16
0.0
 26
0.0
 36
1.0
 17
0.0
 27
0.0
 37
0.0
 42
50.0
 43
0.0
 44
0.0
 45
302.9399999999999
 50
0.0
 51
0.0
 72
   100
 90
    32768
  1

281
     0
 71
     1
 74
     0
110
0.0
120
0.0
130
0.0
111
1.0
121
0.0
131
0.0
112
0.0
122
1.0
132
0.0
 79
     0
146
0.0
  0
ENDSEC
  0
SECTION
  2
OBJECTS
  0
DICTIONARY
  5
C
330
0
100
AcDbDictionary
281
     1
  3
ACAD_GROUP
350
D
  3
ACAD_LAYOUT
350
3B1
  3
ACAD_MLINESTYLE
350
E
  3
ACAD_PLOTSETTINGS
350
3B2
  3
ACAD_PLOTSTYLENAME
350
3AF
  0
DICTIONARY
  5
D
102
{ACAD_REACTORS
330
C
102
}
330
C
100
AcDbDictionary
281
     1
  0
DICTIONARY
  5
3B1
102
{ACAD_REACTORS
330
C
102
}
330
C
100
AcDbDictionary
281
     1
  3
Model
350
3B3
  3
ﾚｲｱｳﾄ1
350
3B4
  0
DICTIONARY
  5
E
102
{ACAD_REACTORS
330
C
102
}
330
C
100
AcDbDictionary
281
     1
  3
STANDARD
350
13
  0
DICTIONARY
  5
3B2
102
{ACAD_REACTORS
330
C
102
}
330
C
100
AcDbDictionary
281
     1
  0
ACDBDICTIONARYWDFLT
  5
3AF
102
{ACAD_REACTORS
330
C
102
}
330
C
100
AcDbDictionary
281
     1
  3
Normal
350
3B0
100
AcDbDictionaryWithDefault
340
3B0
1001
ACAD
1000
TREAT_AS_HARD
1070
     0
1000
TREAT_AS_HARD
1070
     0
1000
TREAT_AS_HARD
1070
     0
1000
TREAT_AS_HARD
1070
     0
1000
TREAT_AS_HARD
1070
     0
1000
TREAT_AS_HARD
1070
     0
  0
LAYOUT
  5
3B3
102
{ACAD_REACTORS
330
3B1
102
}
330
3B1
100
AcDbPlotSettings
  1

  2
Acrobat PDFWriter
  4
A3
  6

 40
7.143749713897705
 41
7.14375638961792
 42
7.143768310546875
 43
7.14373779296875
 44
297.1270751953125
 45
420.1583251953125
 46
0.0
 47
0.0
 48
0.0
 49
0.0
140
0.0
141
0.0
142
1.0
143
1.0
 70
 28336
 72
     1
 73
     1
 74
     2
  7
print.ctb
 75
    16
147
1.0
148
0.0
149
0.0
100
AcDbLayout
  1
Model
 70
     1
 71
     0
 10
0.0
 20
0.0
 11
12.0
 21
9.0
 12
0.0
 22
0.0
 32
0.0
 14
0.0
 24
0.0
 34
0.0
 15
0.0
 25
0.0
 35
0.0
146
0.0
 13
0.0
 23
0.0
 33
0.0
 16
1.0
 26
0.0
 36
0.0
 17
0.0
 27
1.0
 37
0.0
 76
     0
330
1A
  0
LAYOUT
  5
3B4
102
{ACAD_REACTORS
330
3B1
102
}
330
3B1
100
AcDbPlotSettings
  1

  2
Canon LBP-A404 LIPS3
  4

  6

 40
0.0
 41
0.0
 42
0.0
 43
0.0
 44
0.0
 45
0.0
 46
0.0
 47
0.0
 48
0.0
 49
0.0
140
0.0
141
0.0
142
1.0
143
1.0
 70
   688
 72
     0
 73
     0
 74
     5
  7

 75
    16
147
1.0
148
0.0
149
0.0
100
AcDbLayout
  1
ﾚｲｱｳﾄ1
 70
     1
 71
     1
 10
0.0
 20
0.0
 11
420.0
 21
297.0
 12
0.0
 22
0.0
 32
0.0
 14
0.0
 24
0.0
 34
0.0
 15
420.0
 25
297.0
 35
0.0
146
0.0
 13
0.0
 23
0.0
 33
0.0
 16
1.0
 26
0.0
 36
0.0
 17
0.0
 27
1.0
 37
0.0
 76
     0
330
17
331
64
  0
MLINESTYLE
  5
13
102
{ACAD_REACTORS
330
E
102
}
330
E
100
AcDbMlineStyle
  2
STANDARD
 70
     0
  3

 62
     0
 51
90.0
 52
90.0
 71
     2
 49
0.5
 62
   256
  6
BYLAYER
 49
-0.5
 62
   256
  6
BYLAYER
  0
ACDBPLACEHOLDER
  5
3B0
102
{ACAD_REACTORS
330
3AF
102
}
330
3AF
  0
ENDSEC
  0
EOF
