  0
SECTION
  2
HEADER
  9
$ACADVER
  1
AC1012
  9
$DWGCODEPAGE
  3
dos932
  9
$INSBASE
 10
0.0
 20
0.0
 30
0.0
  9
$EXTMIN
 10
10.0360127096485
 20
4.921601730540487
 30
-0.0000000000112498
  9
$EXTMAX
 10
806.2518329711769
 20
563.79062024433
 30
0.0000000000002956
  9
$LIMMIN
 10
0.0
 20
0.0
  9
$LIMMAX
 10
840.0
 20
594.0
  9
$ORTHOMODE
 70
     0
  9
$REGENMODE
 70
     1
  9
$FILLMODE
 70
     1
  9
$QTEXTMODE
 70
     0
  9
$MIRRTEXT
 70
     1
  9
$DRAGMODE
 70
     2
  9
$LTSCALE
 40
2.0
  9
$OSMODE
 70
    37
  9
$ATTMODE
 70
     1
  9
$TEXTSIZE
 40
5.0
  9
$TRACEWID
 40
1.0
  9
$TEXTSTYLE
  7
STANDARD
  9
$CLAYER
  8
SUNPOU
  9
$CELTYPE
  6
BYLAYER
  9
$CECOLOR
 62
   256
  9
$CELTSCALE
 40
5.0
  9
$DELOBJ
 70
     1
  9
$DISPSILH
 70
     0
  9
$DIMSCALE
 40
1.0
  9
$DIMASZ
 40
7.0
  9
$DIMEXO
 40
6.0
  9
$DIMDLI
 40
14.0
  9
$DIMRND
 40
0.0
  9
$DIMDLE
 40
0.0
  9
$DIMEXE
 40
3.0
  9
$DIMTP
 40
0.0
  9
$DIMTM
 40
0.0
  9
$DIMTXT
 40
6.0
  9
$DIMCEN
 40
150.0
  9
$DIMTSZ
 40
0.0
  9
$DIMTOL
 70
     0
  9
$DIMLIM
 70
     0
  9
$DIMTIH
 70
     0
  9
$DIMTOH
 70
     0
  9
$DIMSE1
 70
     0
  9
$DIMSE2
 70
     0
  9
$DIMTAD
 70
     3
  9
$DIMZIN
 70
     0
  9
$DIMBLK
  1

  9
$DIMASO
 70
     1
  9
$DIMSHO
 70
     1
  9
$DIMPOST
  1

  9
$DIMAPOST
  1

  9
$DIMALT
 70
     0
  9
$DIMALTD
 70
     2
  9
$DIMALTF
 40
25.4
  9
$DIMLFAC
 40
1.0
  9
$DIMTOFL
 70
     1
  9
$DIMTVP
 40
0.0
  9
$DIMTIX
 70
     0
  9
$DIMSOXD
 70
     0
  9
$DIMSAH
 70
     1
  9
$DIMBLK1
  1
OPEN
  9
$DIMBLK2
  1
OPEN
  9
$DIMSTYLE
  2
STANDARD
  9
$DIMCLRD
 70
   256
  9
$DIMCLRE
 70
   256
  9
$DIMCLRT
 70
   256
  9
$DIMTFAC
 40
1.0
  9
$DIMGAP
 40
2.0
  9
$DIMJUST
 70
     0
  9
$DIMSD1
 70
     0
  9
$DIMSD2
 70
     0
  9
$DIMTOLJ
 70
     1
  9
$DIMTZIN
 70
     0
  9
$DIMALTZ
 70
     0
  9
$DIMALTTZ
 70
     0
  9
$DIMFIT
 70
     3
  9
$DIMUPT
 70
     0
  9
$DIMUNIT
 70
     2
  9
$DIMDEC
 70
     0
  9
$DIMTDEC
 70
     0
  9
$DIMALTU
 70
     2
  9
$DIMALTTD
 70
     2
  9
$DIMTXSTY
  7
STANDARD
  9
$DIMAUNIT
 70
     0
  9
$LUNITS
 70
     2
  9
$LUPREC
 70
     4
  9
$SKETCHINC
 40
1.0
  9
$FILLETRAD
 40
20.0
  9
$AUNITS
 70
     0
  9
$AUPREC
 70
     0
  9
$MENU
  1
.
  9
$ELEVATION
 40
0.0
  9
$PELEVATION
 40
0.0
  9
$THICKNESS
 40
0.0
  9
$LIMCHECK
 70
     0
  9
$BLIPMODE
 70
     0
  9
$CHAMFERA
 40
20.0
  9
$CHAMFERB
 40
20.0
  9
$CHAMFERC
 40
40.0
  9
$CHAMFERD
 40
0.0
  9
$SKPOLY
 70
     0
  9
$TDCREATE
 40
2451271.706756712
  9
$TDUPDATE
 40
2452395.850625995
  9
$TDINDWG
 40
0.0413329977
  9
$TDUSRTIMER
 40
0.0413329977
  9
$USRTIMER
 70
     1
  9
$ANGBASE
 50
0.0
  9
$ANGDIR
 70
     0
  9
$PDMODE
 70
     0
  9
$PDSIZE
 40
0.0
  9
$PLINEWID
 40
0.0
  9
$COORDS
 70
     1
  9
$SPLFRAME
 70
     0
  9
$SPLINETYPE
 70
     6
  9
$SPLINESEGS
 70
     8
  9
$ATTDIA
 70
     0
  9
$ATTREQ
 70
     1
  9
$HANDLING
 70
 10241
  9
$HANDSEED
  5
9E2
  9
$SURFTAB1
 70
     6
  9
$SURFTAB2
 70
     6
  9
$SURFTYPE
 70
     6
  9
$SURFU
 70
     6
  9
$SURFV
 70
     6
  9
$UCSNAME
  2

  9
$UCSORG
 10
0.0
 20
0.0
 30
0.0
  9
$UCSXDIR
 10
1.0
 20
0.0
 30
0.0
  9
$UCSYDIR
 10
0.0
 20
1.0
 30
0.0
  9
$PUCSNAME
  2

  9
$PUCSORG
 10
0.0
 20
0.0
 30
0.0
  9
$PUCSXDIR
 10
1.0
 20
0.0
 30
0.0
  9
$PUCSYDIR
 10
0.0
 20
1.0
 30
0.0
  9
$USERI1
 70
     0
  9
$USERI2
 70
     0
  9
$USERI3
 70
     0
  9
$USERI4
 70
     0
  9
$USERI5
 70
     0
  9
$USERR1
 40
0.0
  9
$USERR2
 40
0.0
  9
$USERR3
 40
0.0
  9
$USERR4
 40
0.0
  9
$USERR5
 40
0.0
  9
$WORLDVIEW
 70
     1
  9
$SHADEDGE
 70
     3
  9
$SHADEDIF
 70
    70
  9
$TILEMODE
 70
     1
  9
$MAXACTVP
 70
    16
  9
$PINSBASE
 10
0.0
 20
0.0
 30
0.0
  9
$PLIMCHECK
 70
     0
  9
$PEXTMIN
 10
0.0
 20
0.0
 30
0.0
  9
$PEXTMAX
 10
420.0
 20
297.0
 30
0.0
  9
$PLIMMIN
 10
0.0
 20
0.0
  9
$PLIMMAX
 10
420.0
 20
297.0
  9
$UNITMODE
 70
     0
  9
$VISRETAIN
 70
     0
  9
$PLINEGEN
 70
     0
  9
$PSLTSCALE
 70
     1
  9
$TREEDEPTH
 70
  3020
  9
$PICKSTYLE
 70
     1
  9
$CMLSTYLE
  2
STANDARD
  9
$CMLJUST
 70
     0
  9
$CMLSCALE
 40
1.0
  9
$SAVEIMAGES
 70
     1
  0
ENDSEC
  0
SECTION
  2
CLASSES
  0
CLASS
  1
ACDBDICTIONARYWDFLT
  2
AcDbDictionaryWithDefault
  3
AutoCAD 2000
 90
    32768
280
     0
281
     0
  0
CLASS
  1
ACDBPLACEHOLDER
  2
AcDbPlaceHolder
  3
AutoCAD 2000
 90
    32768
280
     0
281
     0
  0
CLASS
  1
LAYOUT
  2
AcDbLayout
  3
AutoCAD 2000
 90
    32768
280
     0
281
     0
  0
CLASS
  1
LONG_TRANSACTION
  2
AcDbLongTransaction
  3
AutoCAD 2000
 90
    32768
280
     0
281
     0
  0
CLASS
  1
LWPOLYLINE
  2
AcDbPolyline
  3
AutoCAD 2000
 90
    32768
280
     0
281
     1
  0
CLASS
  1
HATCH
  2
AcDbHatch
  3
AutoCAD 2000
 90
    32768
280
     0
281
     1
  0
CLASS
  1
XRECORD
  2
AcDbXrecord
  3
AutoCAD 2000
 90
    32768
280
     0
281
     0
  0
CLASS
  1
LONG_TRANSACTION
  2
AcDbLongTransaction
  3
AutoCAD 2000
 90
    32768
280
     0
281
     0
  0
CLASS
  1
LWPOLYLINE
  2
AcDbPolyline
  3
AutoCAD 2000
 90
    32768
280
     0
281
     1
  0
CLASS
  1
HATCH
  2
AcDbHatch
  3
AutoCAD 2000
 90
    32768
280
     0
281
     1
  0
CLASS
  1
XRECORD
  2
AcDbXrecord
  3
AutoCAD 2000
 90
    32768
280
     0
281
     0
  0
CLASS
  1
LONG_TRANSACTION
  2
AcDbLongTransaction
  3
AutoCAD 2000
 90
    32768
280
     0
281
     0
  0
CLASS
  1
LWPOLYLINE
  2
AcDbPolyline
  3
AutoCAD 2000
 90
    32768
280
     0
281
     1
  0
CLASS
  1
HATCH
  2
AcDbHatch
  3
AutoCAD 2000
 90
    32768
280
     0
281
     1
  0
CLASS
  1
XRECORD
  2
AcDbXrecord
  3
AutoCAD 2000
 90
    32768
280
     0
281
     0
  0
ENDSEC
  0
SECTION
  2
TABLES
  0
TABLE
  2
VPORT
  5
8
330
0
100
AcDbSymbolTable
 70
     3
  0
VPORT
  5
9DF
330
8
100
AcDbSymbolTableRecord
100
AcDbViewportTableRecord
  2
*ACTIVE
 70
     0
 10
0.0
 20
0.0
 11
1.0
 21
1.0
 12
420.0
 22
297.0
 13
0.0
 23
0.0
 14
5.0
 24
5.0
 15
0.0
 25
0.0
 16
0.0
 26
0.0
 36
1.0
 17
0.0
 27
0.0
 37
0.0
 40
600.6245353159852
 41
2.169459962756052
 42
50.0
 43
0.0
 44
0.0
 50
0.0
 51
0.0
 71
     0
 72
   100
 73
     1
 74
     0
 75
     0
 76
     0
 77
     0
 78
     0
  0
ENDTAB
  0
TABLE
  2
LTYPE
  5
5
330
0
100
AcDbSymbolTable
 70
     2
  0
LTYPE
  5
14
330
5
100
AcDbSymbolTableRecord
100
AcDbLinetypeTableRecord
  2
BYBLOCK
 70
     0
  3

 72
    65
 73
     0
 40
0.0
  0
LTYPE
  5
15
330
5
100
AcDbSymbolTableRecord
100
AcDbLinetypeTableRecord
  2
BYLAYER
 70
     0
  3

 72
    65
 73
     0
 40
0.0
  0
LTYPE
  5
16
330
5
100
AcDbSymbolTableRecord
100
AcDbLinetypeTableRecord
  2
CONTINUOUS
 70
     0
  3
Solid line
 72
    65
 73
     0
 40
0.0
  0
LTYPE
  5
135
330
5
100
AcDbSymbolTableRecord
100
AcDbLinetypeTableRecord
  2
CENTER
 70
     0
  3
____ _ ____ _ ____ _ ____ _ ____ _ ____ _ ____ 
 72
    65
 73
     4
 40
2.0
 49
1.25
 74
     0
 49
-0.25
 74
     0
 49
0.25
 74
     0
 49
-0.25
 74
     0
  0
ENDTAB
  0
TABLE
  2
LAYER
  5
2
330
0
100
AcDbSymbolTable
 70
     8
  0
LAYER
  5
F
330
2
100
AcDbSymbolTableRecord
100
AcDbLayerTableRecord
  2
0
 70
     0
 62
     7
  6
CONTINUOUS
  0
LAYER
  5
62
330
2
100
AcDbSymbolTableRecord
100
AcDbLayerTableRecord
  2
VIEWPORT
 70
     0
 62
     7
  6
CONTINUOUS
  0
LAYER
  5
65
330
2
100
AcDbSymbolTableRecord
100
AcDbLayerTableRecord
  2
ZUWAKU
 70
     0
 62
     7
  6
CONTINUOUS
  0
LAYER
  5
143
330
2
100
AcDbSymbolTableRecord
100
AcDbLayerTableRecord
  2
SEIHIN
 70
     0
 62
     3
  6
CONTINUOUS
  0
LAYER
  5
144
330
2
100
AcDbSymbolTableRecord
100
AcDbLayerTableRecord
  2
SUNPOU
 70
     0
 62
     4
  6
CONTINUOUS
  0
LAYER
  5
145
330
2
100
AcDbSymbolTableRecord
100
AcDbLayerTableRecord
  2
CENTER_L
 70
     0
 62
     1
  6
CENTER
  0
LAYER
  5
6BA
330
2
100
AcDbSymbolTableRecord
100
AcDbLayerTableRecord
  2
DEFPOINTS
 70
     0
 62
     7
  6
CONTINUOUS
  0
LAYER
  5
798
330
2
100
AcDbSymbolTableRecord
100
AcDbLayerTableRecord
  2
NOKITOI
 70
     0
 62
     6
  6
CONTINUOUS
  0
ENDTAB
  0
TABLE
  2
STYLE
  5
3
330
0
100
AcDbSymbolTable
 70
     1
  0
STYLE
  5
10
330
3
100
AcDbSymbolTableRecord
100
AcDbTextStyleTableRecord
  2
STANDARD
 70
     0
 40
0.0
 41
1.0
 50
0.0
 71
     0
 42
5.0
  3
TXT
  4
bigfont.shx
  0
ENDTAB
  0
TABLE
  2
VIEW
  5
6
330
0
100
AcDbSymbolTable
 70
     0
  0
ENDTAB
  0
TABLE
  2
UCS
  5
7
330
0
100
AcDbSymbolTable
 70
     0
  0
ENDTAB
  0
TABLE
  2
APPID
  5
9
330
0
100
AcDbSymbolTable
 70
     1
  0
APPID
  5
11
330
9
100
AcDbSymbolTableRecord
100
AcDbRegAppTableRecord
  2
ACAD
 70
     0
  0
ENDTAB
  0
TABLE
  2
DIMSTYLE
  5
A
330
0
100
AcDbSymbolTable
 70
     1
  0
DIMSTYLE
105
1D
102
{ACAD_REACTORS
330
6BF
330
6CF
330
6DC
330
737
330
77D
330
78A
330
797
330
7AF
330
7DD
330
8E3
330
9B8
102
}
330
A
100
AcDbSymbolTableRecord
100
AcDbDimStyleTableRecord
  2
STANDARD
 70
     0
  3

  4

  5

  6

  7

 40
1.0
 41
0.18
 42
0.0625
 43
0.38
 44
0.18
 45
0.0
 46
0.0
 47
0.0
 48
0.0
140
0.18
141
0.09
142
0.0
143
25.4
144
1.0
145
0.0
146
1.0
147
0.09
 71
     0
 72
     0
 73
     1
 74
     1
 75
     0
 76
     0
 77
     0
 78
     0
170
     0
171
     2
172
     0
173
     0
174
     0
175
     0
176
     0
177
     0
178
     0
270
     2
271
     4
272
     4
273
     2
274
     2
340
10
275
     0
280
     0
281
     0
282
     0
283
     1
284
     0
285
     0
286
     0
287
     3
288
     0
  0
ENDTAB
  0
TABLE
  2
BLOCK_RECORD
  5
1
330
0
100
AcDbSymbolTable
 70
    12
  0
BLOCK_RECORD
  5
1A
102
{ACAD_XDICTIONARY
360
973
102
}
330
1
100
AcDbSymbolTableRecord
100
AcDbBlockTableRecord
  2
*MODEL_SPACE
  0
BLOCK_RECORD
  5
17
102
{ACAD_XDICTIONARY
360
971
102
}
330
1
100
AcDbSymbolTableRecord
100
AcDbBlockTableRecord
  2
*PAPER_SPACE
  0
BLOCK_RECORD
  5
6D
330
1
100
AcDbSymbolTableRecord
100
AcDbBlockTableRecord
  2
_OPEN
  0
BLOCK_RECORD
  5
6B2
330
1
100
AcDbSymbolTableRecord
100
AcDbBlockTableRecord
  2
*D1
  0
BLOCK_RECORD
  5
6C1
330
1
100
AcDbSymbolTableRecord
100
AcDbBlockTableRecord
  2
*D2
  0
BLOCK_RECORD
  5
6D0
330
1
100
AcDbSymbolTableRecord
100
AcDbBlockTableRecord
  2
*D3
  0
BLOCK_RECORD
  5
72B
330
1
100
AcDbSymbolTableRecord
100
AcDbBlockTableRecord
  2
*D4
  0
BLOCK_RECORD
  5
76F
330
1
100
AcDbSymbolTableRecord
100
AcDbBlockTableRecord
  2
*D5
  0
BLOCK_RECORD
  5
77E
330
1
100
AcDbSymbolTableRecord
100
AcDbBlockTableRecord
  2
*D6
  0
BLOCK_RECORD
  5
78B
330
1
100
AcDbSymbolTableRecord
100
AcDbBlockTableRecord
  2
*D7
  0
BLOCK_RECORD
  5
7A3
330
1
100
AcDbSymbolTableRecord
100
AcDbBlockTableRecord
  2
*D8
  0
BLOCK_RECORD
  5
7D1
330
1
100
AcDbSymbolTableRecord
100
AcDbBlockTableRecord
  2
*D9
  0
BLOCK_RECORD
  5
8D7
330
1
100
AcDbSymbolTableRecord
100
AcDbBlockTableRecord
  2
*D10
  0
BLOCK_RECORD
  5
9B9
330
1
100
AcDbSymbolTableRecord
100
AcDbBlockTableRecord
  2
*D11
  0
ENDTAB
  0
ENDSEC
  0
SECTION
  2
BLOCKS
  0
BLOCK
  5
1B
330
1A
100
AcDbEntity
  8
0
100
AcDbBlockBegin
  2
*MODEL_SPACE
 70
     0
 10
0.0
 20
0.0
 30
0.0
  3
*MODEL_SPACE
  1

  0
ENDBLK
  5
1C
330
1A
100
AcDbEntity
  8
0
100
AcDbBlockEnd
  0
BLOCK
  5
18
330
17
100
AcDbEntity
 67
     1
  8
0
100
AcDbBlockBegin
  2
*PAPER_SPACE
 70
     0
 10
0.0
 20
0.0
 30
0.0
  3
*PAPER_SPACE
  1

  0
ENDBLK
  5
19
330
17
100
AcDbEntity
 67
     1
  8
0
100
AcDbBlockEnd
  0
BLOCK
  5
6E
330
6D
100
AcDbEntity
  8
0
100
AcDbBlockBegin
  2
_OPEN
 70
     0
 10
0.0
 20
0.0
 30
0.0
  3
_OPEN
  1

  0
LINE
  5
6F
330
6D
100
AcDbEntity
  8
0
  6
BYBLOCK
 62
     0
100
AcDbLine
 10
-1.0
 20
0.1666666666666666
 30
0.0
 11
0.0
 21
0.0
 31
0.0
  0
LINE
  5
70
330
6D
100
AcDbEntity
  8
0
  6
BYBLOCK
 62
     0
100
AcDbLine
 10
0.0
 20
0.0
 30
0.0
 11
-1.0
 21
-0.1666666666666666
 31
0.0
  0
LINE
  5
71
330
6D
100
AcDbEntity
  8
0
  6
BYBLOCK
 62
     0
100
AcDbLine
 10
0.0
 20
0.0
 30
0.0
 11
-1.0
 21
0.0
 31
0.0
  0
ENDBLK
  5
72
330
6D
100
AcDbEntity
  8
0
100
AcDbBlockEnd
  0
BLOCK
  5
899
330
6B2
100
AcDbEntity
  8
0
 48
5.0
100
AcDbBlockBegin
  2
*D1
 70
     1
 10
0.0
 20
0.0
 30
0.0
  3
*D1
  1

  0
LINE
  5
89A
330
6B2
100
AcDbEntity
  8
0
  6
BYBLOCK
 62
     4
 48
5.0
100
AcDbLine
 10
165.3583438517761
 20
248.3071081559858
 30
0.0
 11
165.3583438517761
 21
267.8003694479034
 31
0.0
  0
LINE
  5
89B
330
6B2
100
AcDbEntity
  8
0
  6
BYBLOCK
 62
     4
 48
5.0
100
AcDbLine
 10
247.3583438517761
 20
248.3069081559858
 30
0.0
 11
247.3583438517761
 21
267.8003694479034
 31
0.0
  0
LINE
  5
89C
330
6B2
100
AcDbEntity
  8
0
  6
BYBLOCK
 62
     4
 48
5.0
100
AcDbLine
 10
172.3583438517761
 20
264.8003694479034
 30
0.0
 11
240.3583438517761
 21
264.8003694479034
 31
0.0
  0
INSERT
  5
89D
330
6B2
100
AcDbEntity
  8
0
  6
BYBLOCK
 62
     4
 48
5.0
100
AcDbBlockReference
  2
_OPEN
 10
165.3583438517761
 20
264.8003694479034
 30
0.0
 41
7.0
 42
7.0
 43
7.0
 50
180.0
  0
INSERT
  5
89E
330
6B2
100
AcDbEntity
  8
0
  6
BYBLOCK
 62
     4
 48
5.0
100
AcDbBlockReference
  2
_OPEN
 10
247.3583438517761
 20
264.8003694479034
 30
0.0
 41
7.0
 42
7.0
 43
7.0
  0
MTEXT
  5
89F
330
6B2
100
AcDbEntity
  8
0
  6
BYBLOCK
 62
     4
 48
5.0
100
AcDbMText
 10
206.3583438517761
 20
269.8003694479034
 30
0.0
 40
6.0
 41
0.0
 71
     5
 72
     1
  1
\A1;φ82
1001
ACAD
1000
MTEXTBEGIN
1070
    73
1070
     1
1070
    44
1040
1.0
1070
    74
1070
     0
1000
MTEXTEND
1000
MTEXTBEGIN
1070
    73
1070
     1
1070
    44
1040
1.0
1070
    74
1070
     0
1000
MTEXTEND
1000
MTEXTBEGIN
1070
    73
1070
     1
1070
    44
1040
1.0
1070
    74
1070
     0
1000
MTEXTEND
  0
POINT
  5
8A0
330
6B2
100
AcDbEntity
  8
DEFPOINTS
  6
BYBLOCK
 62
     0
 48
5.0
100
AcDbPoint
 10
165.3583438517761
 20
242.3071081559858
 30
0.0
  0
POINT
  5
8A1
330
6B2
100
AcDbEntity
  8
DEFPOINTS
  6
BYBLOCK
 62
     0
 48
5.0
100
AcDbPoint
 10
247.3583438517761
 20
242.3069081559858
 30
0.0
  0
POINT
  5
8A2
330
6B2
100
AcDbEntity
  8
DEFPOINTS
  6
BYBLOCK
 62
     0
 48
5.0
100
AcDbPoint
 10
247.3583438517761
 20
264.8003694479034
 30
0.0
  0
ENDBLK
  5
8A3
330
6B2
100
AcDbEntity
  8
0
 48
5.0
100
AcDbBlockEnd
  0
BLOCK
  5
8A4
330
6C1
100
AcDbEntity
  8
0
 48
5.0
100
AcDbBlockBegin
  2
*D2
 70
     1
 10
0.0
 20
0.0
 30
0.0
  3
*D2
  1

  0
LINE
  5
9D4
330
6C1
100
AcDbEntity
  8
SUNPOU
 62
     4
 48
5.0
100
AcDbLine
 10
248.5154350186227
 20
208.8069048497661
 30
0.0
 11
274.8360063310046
 21
208.8069048497661
 31
0.0
  0
LINE
  5
9D5
330
6C1
100
AcDbEntity
  8
SUNPOU
 62
     4
 48
5.0
100
AcDbLine
 10
247.3582438517761
 20
198.8069081559858
 30
0.0
 11
274.8360063310046
 21
198.8069081559858
 31
0.0
  0
LINE
  5
9D6
330
6C1
100
AcDbEntity
  8
SUNPOU
 62
     4
 48
5.0
100
AcDbLine
 10
271.8360063310047
 20
215.8069048497662
 30
0.0
 11
271.8360063310047
 21
222.8069048497661
 31
0.0
  0
LINE
  5
9D7
330
6C1
100
AcDbEntity
  8
SUNPOU
 62
     4
 48
5.0
100
AcDbLine
 10
271.8360063310047
 20
191.8069081559858
 30
0.0
 11
271.8360063310047
 21
163.4069081559858
 31
0.0
  0
LINE
  5
9D8
330
6C1
100
AcDbEntity
  8
SUNPOU
 62
     4
 48
5.0
100
AcDbLine
 10
271.8360063310047
 20
208.8069048497661
 30
0.0
 11
271.8360063310047
 21
198.8069081559858
 31
0.0
  0
INSERT
  5
9D9
330
6C1
100
AcDbEntity
  8
SUNPOU
 62
     4
 48
5.0
100
AcDbBlockReference
  2
_OPEN
 10
271.8360063310047
 20
208.8069048497661
 30
0.0
 41
7.0
 42
7.0
 43
7.0
 50
270.0
  0
INSERT
  5
9DA
330
6C1
100
AcDbEntity
  8
SUNPOU
 62
     4
 48
5.0
100
AcDbBlockReference
  2
_OPEN
 10
271.8360063310047
 20
198.8069081559858
 30
0.0
 41
7.0
 42
7.0
 43
7.0
 50
90.0
  0
MTEXT
  5
9DB
330
6C1
100
AcDbEntity
  8
SUNPOU
 62
     4
 48
5.0
100
AcDbMText
 10
266.8360063310046
 20
174.1069081559858
 30
0.0
 40
6.0
 41
0.0
 71
     5
 72
     1
  1
\A1;\U+203B 10
 11
0.0000000000000001
 21
1.0
 31
0.0
1001
ACAD
1000
MTEXTBEGIN
1070
    73
1070
     1
1070
    44
1040
1.0
1070
    74
1070
     0
1000
MTEXTEND
  0
POINT
  5
9DC
330
6C1
100
AcDbEntity
  8
DEFPOINTS
 62
     0
 48
5.0
100
AcDbPoint
 10
242.5154350186227
 20
208.8069048497661
 30
0.0
  0
POINT
  5
9DD
330
6C1
100
AcDbEntity
  8
DEFPOINTS
 62
     0
 48
5.0
100
AcDbPoint
 10
241.3582438517761
 20
198.8069081559858
 30
0.0
  0
POINT
  5
9DE
330
6C1
100
AcDbEntity
  8
DEFPOINTS
 62
     0
 48
5.0
100
AcDbPoint
 10
271.8360063310047
 20
198.8069081559858
 30
0.0
  0
ENDBLK
  5
8B0
330
6C1
100
AcDbEntity
  8
0
 48
5.0
100
AcDbBlockEnd
  0
BLOCK
  5
8B1
330
6D0
100
AcDbEntity
  8
0
 48
5.0
100
AcDbBlockBegin
  2
*D3
 70
     1
 10
0.0
 20
0.0
 30
0.0
  3
*D3
  1

  0
LINE
  5
8B2
330
6D0
100
AcDbEntity
  8
0
  6
BYBLOCK
 62
     4
 48
5.0
100
AcDbLine
 10
253.3583438517761
 20
242.3069081559858
 30
0.0
 11
291.681817838652
 21
242.3069081559858
 31
0.0
  0
LINE
  5
8B3
330
6D0
100
AcDbEntity
  8
0
  6
BYBLOCK
 62
     4
 48
5.0
100
AcDbLine
 10
247.3582438517761
 20
198.8069081559858
 30
0.0
 11
291.681817838652
 21
198.8069081559858
 31
0.0
  0
LINE
  5
8B4
330
6D0
100
AcDbEntity
  8
0
  6
BYBLOCK
 62
     4
 48
5.0
100
AcDbLine
 10
288.681817838652
 20
235.3069081559858
 30
0.0
 11
288.681817838652
 21
205.8069081559858
 31
0.0
  0
INSERT
  5
8B5
330
6D0
100
AcDbEntity
  8
0
  6
BYBLOCK
 62
     4
 48
5.0
100
AcDbBlockReference
  2
_OPEN
 10
288.681817838652
 20
242.3069081559858
 30
0.0
 41
7.0
 42
7.0
 43
7.0
 50
90.0
  0
INSERT
  5
8B6
330
6D0
100
AcDbEntity
  8
0
  6
BYBLOCK
 62
     4
 48
5.0
100
AcDbBlockReference
  2
_OPEN
 10
288.681817838652
 20
198.8069081559858
 30
0.0
 41
7.0
 42
7.0
 43
7.0
 50
270.0
  0
MTEXT
  5
8B7
330
6D0
100
AcDbEntity
  8
0
  6
BYBLOCK
 62
     4
 48
5.0
100
AcDbMText
 10
283.681817838652
 20
220.5569081559858
 30
0.0
 40
6.0
 41
0.0
 71
     5
 72
     1
  1
\A1;44
 11
0.0
 21
1.0
 31
0.0
1001
ACAD
1000
MTEXTBEGIN
1070
    73
1070
     1
1070
    44
1040
1.0
1070
    74
1070
     0
1000
MTEXTEND
1000
MTEXTBEGIN
1070
    73
1070
     1
1070
    44
1040
1.0
1070
    74
1070
     0
1000
MTEXTEND
1000
MTEXTBEGIN
1070
    73
1070
     1
1070
    44
1040
1.0
1070
    74
1070
     0
1000
MTEXTEND
  0
POINT
  5
8B8
330
6D0
100
AcDbEntity
  8
DEFPOINTS
  6
BYBLOCK
 62
     0
 48
5.0
100
AcDbPoint
 10
247.3583438517761
 20
242.3069081559858
 30
0.0
  0
POINT
  5
8B9
330
6D0
100
AcDbEntity
  8
DEFPOINTS
  6
BYBLOCK
 62
     0
 48
5.0
100
AcDbPoint
 10
241.3582438517761
 20
198.8069081559858
 30
0.0
  0
POINT
  5
8BA
330
6D0
100
AcDbEntity
  8
DEFPOINTS
  6
BYBLOCK
 62
     0
 48
5.0
100
AcDbPoint
 10
288.681817838652
 20
198.8069081559858
 30
0.0
  0
ENDBLK
  5
8BB
330
6D0
100
AcDbEntity
  8
0
 48
5.0
100
AcDbBlockEnd
  0
BLOCK
  5
82B
330
72B
100
AcDbEntity
  8
0
 48
5.0
100
AcDbBlockBegin
  2
*D4
 70
     1
 10
0.0
 20
0.0
 30
0.0
  3
*D4
  1

  0
LINE
  5
82C
330
72B
100
AcDbEntity
  8
0
  6
BYBLOCK
 62
     4
 48
5.0
100
AcDbLine
 10
375.3059462971064
 20
204.8948563766207
 30
0.0
 11
375.3059462971064
 21
177.1504151867782
 31
0.0
  0
LINE
  5
82D
330
72B
100
AcDbEntity
  8
0
  6
BYBLOCK
 62
     4
 48
5.0
100
AcDbLine
 10
435.3359462971062
 20
204.8948563766196
 30
0.0
 11
435.3359462971062
 21
177.1504151867782
 31
0.0
  0
LINE
  5
82E
330
72B
100
AcDbEntity
  8
0
  6
BYBLOCK
 62
     4
 48
5.0
100
AcDbLine
 10
382.3059462971063
 20
180.1504151867782
 30
0.0
 11
428.3359462971062
 21
180.1504151867782
 31
0.0
  0
INSERT
  5
82F
330
72B
100
AcDbEntity
  8
0
  6
BYBLOCK
 62
     4
 48
5.0
100
AcDbBlockReference
  2
_OPEN
 10
375.3059462971064
 20
180.1504151867782
 30
0.0
 41
7.0
 42
7.0
 43
7.0
 50
180.0
  0
INSERT
  5
830
330
72B
100
AcDbEntity
  8
0
  6
BYBLOCK
 62
     4
 48
5.0
100
AcDbBlockReference
  2
_OPEN
 10
435.3359462971062
 20
180.1504151867782
 30
0.0
 41
7.0
 42
7.0
 43
7.0
  0
MTEXT
  5
831
330
72B
100
AcDbEntity
  8
0
  6
BYBLOCK
 62
     4
 48
5.0
100
AcDbMText
 10
405.3209462971063
 20
185.1504151867782
 30
0.0
 40
6.0
 41
0.0
 71
     5
 72
     1
  1
\A1;φ60
1001
ACAD
1000
MTEXTBEGIN
1070
    73
1070
     1
1070
    44
1040
1.0
1070
    74
1070
     0
1000
MTEXTEND
1000
MTEXTBEGIN
1070
    73
1070
     1
1070
    44
1040
1.0
1070
    74
1070
     0
1000
MTEXTEND
1000
MTEXTBEGIN
1070
    73
1070
     1
1070
    44
1040
1.0
1070
    74
1070
     0
1000
MTEXTEND
  0
POINT
  5
832
330
72B
100
AcDbEntity
  8
DEFPOINTS
  6
BYBLOCK
 62
     0
 48
5.0
100
AcDbPoint
 10
375.3059462971064
 20
210.8948563766207
 30
0.0
  0
POINT
  5
833
330
72B
100
AcDbEntity
  8
DEFPOINTS
  6
BYBLOCK
 62
     0
 48
5.0
100
AcDbPoint
 10
435.3359462971062
 20
210.8948563766196
 30
0.0
  0
POINT
  5
834
330
72B
100
AcDbEntity
  8
DEFPOINTS
  6
BYBLOCK
 62
     0
 48
5.0
100
AcDbPoint
 10
435.3359462971062
 20
180.1504151867782
 30
0.0
  0
ENDBLK
  5
835
330
72B
100
AcDbEntity
  8
0
 48
5.0
100
AcDbBlockEnd
  0
BLOCK
  5
770
330
76F
100
AcDbEntity
  8
0
 48
5.0
100
AcDbBlockBegin
  2
*D5
 70
     1
 10
0.0
 20
0.0
 30
0.0
  3
*D5
  1

  0
LINE
  5
771
330
76F
100
AcDbEntity
  8
0
  6
BYBLOCK
 62
     4
 48
5.0
100
AcDbLine
 10
450.3320245971073
 20
229.1070081559857
 30
0.0
 11
496.2086522420358
 21
229.1070081559857
 31
0.0
  0
LINE
  5
772
330
76F
100
AcDbEntity
  8
0
  6
BYBLOCK
 62
     4
 48
5.0
100
AcDbLine
 10
439.6708462971064
 20
209.1070081559857
 30
0.0
 11
496.2086522420358
 21
209.1070081559857
 31
0.0
  0
LINE
  5
773
330
76F
100
AcDbEntity
  8
0
  6
BYBLOCK
 62
     4
 48
5.0
100
AcDbLine
 10
493.2086522420359
 20
236.1070081559858
 30
0.0
 11
493.2086522420359
 21
243.1070081559858
 31
0.0
  0
LINE
  5
774
330
76F
100
AcDbEntity
  8
0
  6
BYBLOCK
 62
     4
 48
5.0
100
AcDbLine
 10
493.2086522420359
 20
202.1070081559857
 30
0.0
 11
493.2086522420359
 21
195.1070081559857
 31
0.0
  0
LINE
  5
775
330
76F
100
AcDbEntity
  8
0
  6
BYBLOCK
 62
     4
 48
5.0
100
AcDbLine
 10
493.2086522420359
 20
229.1070081559857
 30
0.0
 11
493.2086522420359
 21
209.1070081559857
 31
0.0
  0
INSERT
  5
776
330
76F
100
AcDbEntity
  8
0
  6
BYBLOCK
 62
     4
 48
5.0
100
AcDbBlockReference
  2
_OPEN
 10
493.2086522420359
 20
229.1070081559857
 30
0.0
 41
7.0
 42
7.0
 43
7.0
 50
270.0
  0
INSERT
  5
777
330
76F
100
AcDbEntity
  8
0
  6
BYBLOCK
 62
     4
 48
5.0
100
AcDbBlockReference
  2
_OPEN
 10
493.2086522420359
 20
209.1070081559857
 30
0.0
 41
7.0
 42
7.0
 43
7.0
 50
90.0
  0
MTEXT
  5
778
330
76F
100
AcDbEntity
  8
0
  6
BYBLOCK
 62
     4
 48
5.0
100
AcDbMText
 10
488.2086522420358
 20
219.1070081559857
 30
0.0
 40
6.0
 41
0.0
 71
     5
 72
     1
  1
\A1;20
 11
0.0
 21
1.0
 31
0.0
1001
ACAD
1000
MTEXTBEGIN
1070
    73
1070
     1
1070
    44
1040
1.0
1070
    74
1070
     0
1000
MTEXTEND
1000
MTEXTBEGIN
1070
    73
1070
     1
1070
    44
1040
1.0
1070
    74
1070
     0
1000
MTEXTEND
1000
MTEXTBEGIN
1070
    73
1070
     1
1070
    44
1040
1.0
1070
    74
1070
     0
1000
MTEXTEND
  0
POINT
  5
779
330
76F
100
AcDbEntity
  8
DEFPOINTS
  6
BYBLOCK
 62
     0
 48
5.0
100
AcDbPoint
 10
444.3320245971072
 20
229.1070081559857
 30
0.0
  0
POINT
  5
77A
330
76F
100
AcDbEntity
  8
DEFPOINTS
  6
BYBLOCK
 62
     0
 48
5.0
100
AcDbPoint
 10
433.6708462971064
 20
209.1070081559857
 30
0.0
  0
POINT
  5
77B
330
76F
100
AcDbEntity
  8
DEFPOINTS
  6
BYBLOCK
 62
     0
 48
5.0
100
AcDbPoint
 10
493.2086522420359
 20
209.1070081559857
 30
0.0
  0
ENDBLK
  5
77C
330
76F
100
AcDbEntity
  8
0
 48
5.0
100
AcDbBlockEnd
  0
BLOCK
  5
8BC
330
77E
100
AcDbEntity
  8
0
 48
5.0
100
AcDbBlockBegin
  2
*D6
 70
     1
 10
0.0
 20
0.0
 30
0.0
  3
*D6
  1

  0
LINE
  5
8BD
330
77E
100
AcDbEntity
  8
0
  6
BYBLOCK
 62
     4
 48
5.0
100
AcDbLine
 10
378.5819865971073
 20
259.2320081559857
 30
0.0
 11
378.5819865971073
 21
285.5499666671114
 31
0.0
  0
LINE
  5
8BE
330
77E
100
AcDbEntity
  8
0
  6
BYBLOCK
 62
     4
 48
5.0
100
AcDbLine
 10
432.0820195971073
 20
259.2320081559857
 30
0.0
 11
432.0820195971073
 21
285.5499666671114
 31
0.0
  0
LINE
  5
8BF
330
77E
100
AcDbEntity
  8
0
  6
BYBLOCK
 62
     4
 48
5.0
100
AcDbLine
 10
385.5819865971072
 20
282.5499666671114
 30
0.0
 11
425.0820195971073
 21
282.5499666671114
 31
0.0
  0
INSERT
  5
8C0
330
77E
100
AcDbEntity
  8
0
  6
BYBLOCK
 62
     4
 48
5.0
100
AcDbBlockReference
  2
_OPEN
 10
378.5819865971073
 20
282.5499666671114
 30
0.0
 41
7.0
 42
7.0
 43
7.0
 50
180.0
  0
INSERT
  5
8C1
330
77E
100
AcDbEntity
  8
0
  6
BYBLOCK
 62
     4
 48
5.0
100
AcDbBlockReference
  2
_OPEN
 10
432.0820195971073
 20
282.5499666671114
 30
0.0
 41
7.0
 42
7.0
 43
7.0
  0
MTEXT
  5
8C2
330
77E
100
AcDbEntity
  8
0
  6
BYBLOCK
 62
     4
 48
5.0
100
AcDbMText
 10
405.3320030971073
 20
287.5499666671114
 30
0.0
 40
6.0
 41
0.0
 71
     5
 72
     1
  1
\A1;φ54
1001
ACAD
1000
MTEXTBEGIN
1070
    73
1070
     1
1070
    44
1040
1.0
1070
    74
1070
     0
1000
MTEXTEND
1000
MTEXTBEGIN
1070
    73
1070
     1
1070
    44
1040
1.0
1070
    74
1070
     0
1000
MTEXTEND
1000
MTEXTBEGIN
1070
    73
1070
     1
1070
    44
1040
1.0
1070
    74
1070
     0
1000
MTEXTEND
  0
POINT
  5
8C3
330
77E
100
AcDbEntity
  8
DEFPOINTS
  6
BYBLOCK
 62
     0
 48
5.0
100
AcDbPoint
 10
378.5819865971073
 20
253.2320081559857
 30
0.0
  0
POINT
  5
8C4
330
77E
100
AcDbEntity
  8
DEFPOINTS
  6
BYBLOCK
 62
     0
 48
5.0
100
AcDbPoint
 10
432.0820195971073
 20
253.2320081559857
 30
0.0
  0
POINT
  5
8C5
330
77E
100
AcDbEntity
  8
DEFPOINTS
  6
BYBLOCK
 62
     0
 48
5.0
100
AcDbPoint
 10
432.0820195971073
 20
282.5499666671114
 30
0.0
  0
ENDBLK
  5
8C6
330
77E
100
AcDbEntity
  8
0
 48
5.0
100
AcDbBlockEnd
  0
BLOCK
  5
8C7
330
78B
100
AcDbEntity
  8
0
 48
5.0
100
AcDbBlockBegin
  2
*D7
 70
     1
 10
0.0
 20
0.0
 30
0.0
  3
*D7
  1

  0
LINE
  5
8C8
330
78B
100
AcDbEntity
  8
0
  6
BYBLOCK
 62
     4
 48
5.0
100
AcDbLine
 10
444.3320245971072
 20
251.1070081559858
 30
0.0
 11
444.3320245971072
 21
302.2358471825859
 31
0.0
  0
LINE
  5
8C9
330
78B
100
AcDbEntity
  8
0
  6
BYBLOCK
 62
     4
 48
5.0
100
AcDbLine
 10
366.4052245971073
 20
251.1071081559858
 30
0.0
 11
366.4052245971073
 21
302.2358471825859
 31
0.0
  0
LINE
  5
8CA
330
78B
100
AcDbEntity
  8
0
  6
BYBLOCK
 62
     4
 48
5.0
100
AcDbLine
 10
437.3320245971073
 20
299.2358471825859
 30
0.0
 11
373.4052245971073
 21
299.2358471825859
 31
0.0
  0
INSERT
  5
8CB
330
78B
100
AcDbEntity
  8
0
  6
BYBLOCK
 62
     4
 48
5.0
100
AcDbBlockReference
  2
_OPEN
 10
444.3320245971072
 20
299.2358471825859
 30
0.0
 41
7.0
 42
7.0
 43
7.0
  0
INSERT
  5
8CC
330
78B
100
AcDbEntity
  8
0
  6
BYBLOCK
 62
     4
 48
5.0
100
AcDbBlockReference
  2
_OPEN
 10
366.4052245971073
 20
299.2358471825859
 30
0.0
 41
7.0
 42
7.0
 43
7.0
 50
180.0
  0
MTEXT
  5
8CD
330
78B
100
AcDbEntity
  8
0
  6
BYBLOCK
 62
     4
 48
5.0
100
AcDbMText
 10
405.3686245971073
 20
304.2358471825859
 30
0.0
 40
6.0
 41
0.0
 71
     5
 72
     1
  1
\A1;φ78
1001
ACAD
1000
MTEXTBEGIN
1070
    73
1070
     1
1070
    44
1040
1.0
1070
    74
1070
     0
1000
MTEXTEND
1000
MTEXTBEGIN
1070
    73
1070
     1
1070
    44
1040
1.0
1070
    74
1070
     0
1000
MTEXTEND
1000
MTEXTBEGIN
1070
    73
1070
     1
1070
    44
1040
1.0
1070
    74
1070
     0
1000
MTEXTEND
  0
POINT
  5
8CE
330
78B
100
AcDbEntity
  8
DEFPOINTS
  6
BYBLOCK
 62
     0
 48
5.0
100
AcDbPoint
 10
444.3320245971072
 20
245.1070081559858
 30
0.0
  0
POINT
  5
8CF
330
78B
100
AcDbEntity
  8
DEFPOINTS
  6
BYBLOCK
 62
     0
 48
5.0
100
AcDbPoint
 10
366.4052245971073
 20
245.1071081559859
 30
0.0
  0
POINT
  5
8D0
330
78B
100
AcDbEntity
  8
DEFPOINTS
  6
BYBLOCK
 62
     0
 48
5.0
100
AcDbPoint
 10
366.4052245971073
 20
299.2358471825859
 30
0.0
  0
ENDBLK
  5
8D1
330
78B
100
AcDbEntity
  8
0
 48
5.0
100
AcDbBlockEnd
  0
BLOCK
  5
931
330
7A3
100
AcDbEntity
  8
0
 48
5.0
100
AcDbBlockBegin
  2
*D8
 70
     1
 10
0.0
 20
0.0
 30
0.0
  3
*D8
  1

  0
LINE
  5
932
330
7A3
100
AcDbEntity
  8
0
  6
BYBLOCK
 62
     4
 48
5.0
100
AcDbLine
 10
674.6573549570179
 20
315.3070081559858
 30
0.0
 11
674.6573549570179
 21
276.4939882166777
 31
0.0
  0
LINE
  5
933
330
7A3
100
AcDbEntity
  8
0
  6
BYBLOCK
 62
     4
 48
5.0
100
AcDbLine
 10
613.6573549571252
 20
315.3071227241764
 30
0.0
 11
613.6573549571252
 21
276.4939882166777
 31
0.0
  0
LINE
  5
934
330
7A3
100
AcDbEntity
  8
0
  6
BYBLOCK
 62
     4
 48
5.0
100
AcDbLine
 10
667.6573549570179
 20
279.4939882166777
 30
0.0
 11
620.6573549571252
 21
279.4939882166777
 31
0.0
  0
INSERT
  5
935
330
7A3
100
AcDbEntity
  8
0
  6
BYBLOCK
 62
     4
 48
5.0
100
AcDbBlockReference
  2
_OPEN
 10
674.6573549570179
 20
279.4939882166777
 30
0.0
 41
7.0
 42
7.0
 43
7.0
  0
INSERT
  5
936
330
7A3
100
AcDbEntity
  8
0
  6
BYBLOCK
 62
     4
 48
5.0
100
AcDbBlockReference
  2
_OPEN
 10
613.6573549571252
 20
279.4939882166777
 30
0.0
 41
7.0
 42
7.0
 43
7.0
 50
180.0
  0
MTEXT
  5
937
330
7A3
100
AcDbEntity
  8
0
  6
BYBLOCK
 62
     4
 48
5.0
100
AcDbMText
 10
644.1573549570716
 20
284.4939882166777
 30
0.0
 40
6.0
 41
0.0
 71
     5
 72
     1
  1
\A1;穴径　φ61
1001
ACAD
1000
MTEXTBEGIN
1070
    73
1070
     1
1070
    44
1040
1.0
1070
    74
1070
     0
1000
MTEXTEND
1000
MTEXTBEGIN
1070
    73
1070
     1
1070
    44
1040
1.0
1070
    74
1070
     0
1000
MTEXTEND
1000
MTEXTBEGIN
1070
    73
1070
     1
1070
    44
1040
1.0
1070
    74
1070
     0
1000
MTEXTEND
  0
POINT
  5
938
330
7A3
100
AcDbEntity
  8
DEFPOINTS
  6
BYBLOCK
 62
     0
 48
5.0
100
AcDbPoint
 10
674.6573549570179
 20
321.3070081559858
 30
0.0
  0
POINT
  5
939
330
7A3
100
AcDbEntity
  8
DEFPOINTS
  6
BYBLOCK
 62
     0
 48
5.0
100
AcDbPoint
 10
613.6573549571252
 20
321.3071227241764
 30
0.0
  0
POINT
  5
93A
330
7A3
100
AcDbEntity
  8
DEFPOINTS
  6
BYBLOCK
 62
     0
 48
5.0
100
AcDbPoint
 10
613.6573549571252
 20
279.4939882166777
 30
0.0
  0
ENDBLK
  5
93B
330
7A3
100
AcDbEntity
  8
0
 48
5.0
100
AcDbBlockEnd
  0
BLOCK
  5
7D2
330
7D1
100
AcDbEntity
  8
0
 48
5.0
100
AcDbBlockBegin
  2
*D9
 70
     1
 10
0.0
 20
0.0
 30
0.0
  3
*D9
  1

  0
LINE
  5
7D3
330
7D1
100
AcDbEntity
  8
0
  6
BYBLOCK
 62
     4
 48
5.0
100
AcDbLine
 10
419.9475245971073
 20
251.1104081559857
 30
0.0
 11
515.6255256973832
 21
251.1104081559857
 31
0.0
  0
LINE
  5
7D4
330
7D1
100
AcDbEntity
  8
0
  6
BYBLOCK
 62
     4
 48
5.0
100
AcDbLine
 10
439.6708462971064
 20
209.1070081559858
 30
0.0
 11
515.6255256973832
 21
209.1070081559858
 31
0.0
  0
LINE
  5
7D5
330
7D1
100
AcDbEntity
  8
0
  6
BYBLOCK
 62
     4
 48
5.0
100
AcDbLine
 10
512.6255256973831
 20
244.1104081559858
 30
0.0
 11
512.6255256973831
 21
216.1070081559858
 31
0.0
  0
INSERT
  5
7D6
330
7D1
100
AcDbEntity
  8
0
  6
BYBLOCK
 62
     4
 48
5.0
100
AcDbBlockReference
  2
_OPEN
 10
512.6255256973831
 20
251.1104081559857
 30
0.0
 41
7.0
 42
7.0
 43
7.0
 50
90.0
  0
INSERT
  5
7D7
330
7D1
100
AcDbEntity
  8
0
  6
BYBLOCK
 62
     4
 48
5.0
100
AcDbBlockReference
  2
_OPEN
 10
512.6255256973831
 20
209.1070081559858
 30
0.0
 41
7.0
 42
7.0
 43
7.0
 50
270.0
  0
MTEXT
  5
7D8
330
7D1
100
AcDbEntity
  8
0
  6
BYBLOCK
 62
     4
 48
5.0
100
AcDbMText
 10
507.6255256973832
 20
230.1087081559857
 30
0.0
 40
6.0
 41
0.0
 71
     5
 72
     1
  1
\A1;42
 11
0.0
 21
1.0
 31
0.0
1001
ACAD
1000
MTEXTBEGIN
1070
    73
1070
     1
1070
    44
1040
1.0
1070
    74
1070
     0
1000
MTEXTEND
1000
MTEXTBEGIN
1070
    73
1070
     1
1070
    44
1040
1.0
1070
    74
1070
     0
1000
MTEXTEND
1000
MTEXTBEGIN
1070
    73
1070
     1
1070
    44
1040
1.0
1070
    74
1070
     0
1000
MTEXTEND
  0
POINT
  5
7D9
330
7D1
100
AcDbEntity
  8
DEFPOINTS
  6
BYBLOCK
 62
     0
 48
5.0
100
AcDbPoint
 10
413.9475245971072
 20
251.1104081559857
 30
0.0
  0
POINT
  5
7DA
330
7D1
100
AcDbEntity
  8
DEFPOINTS
  6
BYBLOCK
 62
     0
 48
5.0
100
AcDbPoint
 10
433.6708462971064
 20
209.1070081559858
 30
0.0
  0
POINT
  5
7DB
330
7D1
100
AcDbEntity
  8
DEFPOINTS
  6
BYBLOCK
 62
     0
 48
5.0
100
AcDbPoint
 10
512.6255256973831
 20
209.1070081559858
 30
0.0
  0
ENDBLK
  5
7DC
330
7D1
100
AcDbEntity
  8
0
 48
5.0
100
AcDbBlockEnd
  0
BLOCK
  5
905
330
8D7
100
AcDbEntity
  8
0
 48
5.0
100
AcDbBlockBegin
  2
*D10
 70
     1
 10
0.0
 20
0.0
 30
0.0
  3
*D10
  1

  0
LINE
  5
906
330
8D7
100
AcDbEntity
  8
0
  6
BYBLOCK
 62
     4
 48
5.0
100
AcDbLine
 10
235.5583438517761
 20
183.8070081559857
 30
0.0
 11
235.5583438517761
 21
161.251031779501
 31
0.0
  0
LINE
  5
907
330
8D7
100
AcDbEntity
  8
0
  6
BYBLOCK
 62
     4
 48
5.0
100
AcDbLine
 10
177.1581438517761
 20
183.8070081559857
 30
0.0
 11
177.1581438517761
 21
161.251031779501
 31
0.0
  0
LINE
  5
908
330
8D7
100
AcDbEntity
  8
0
  6
BYBLOCK
 62
     4
 48
5.0
100
AcDbLine
 10
228.5583438517761
 20
164.251031779501
 30
0.0
 11
184.1581438517761
 21
164.251031779501
 31
0.0
  0
INSERT
  5
909
330
8D7
100
AcDbEntity
  8
0
  6
BYBLOCK
 62
     4
 48
5.0
100
AcDbBlockReference
  2
_OPEN
 10
235.5583438517761
 20
164.251031779501
 30
0.0
 41
7.0
 42
7.0
 43
7.0
  0
INSERT
  5
90A
330
8D7
100
AcDbEntity
  8
0
  6
BYBLOCK
 62
     4
 48
5.0
100
AcDbBlockReference
  2
_OPEN
 10
177.1581438517761
 20
164.251031779501
 30
0.0
 41
7.0
 42
7.0
 43
7.0
 50
180.0
  0
MTEXT
  5
90B
330
8D7
100
AcDbEntity
  8
0
  6
BYBLOCK
 62
     4
 48
5.0
100
AcDbMText
 10
206.3582438517761
 20
169.251031779501
 30
0.0
 40
6.0
 41
0.0
 71
     5
 72
     1
  1
\A1;φ58
1001
ACAD
1000
MTEXTBEGIN
1070
    73
1070
     1
1070
    44
1040
1.0
1070
    74
1070
     0
1000
MTEXTEND
1000
MTEXTBEGIN
1070
    73
1070
     1
1070
    44
1040
1.0
1070
    74
1070
     0
1000
MTEXTEND
1000
MTEXTBEGIN
1070
    73
1070
     1
1070
    44
1040
1.0
1070
    74
1070
     0
1000
MTEXTEND
  0
POINT
  5
90C
330
8D7
100
AcDbEntity
  8
DEFPOINTS
  6
BYBLOCK
 62
     0
 48
5.0
100
AcDbPoint
 10
235.5583438517761
 20
189.8070081559858
 30
0.0
  0
POINT
  5
90D
330
8D7
100
AcDbEntity
  8
DEFPOINTS
  6
BYBLOCK
 62
     0
 48
5.0
100
AcDbPoint
 10
177.1581438517761
 20
189.8070081559858
 30
0.0
  0
POINT
  5
90E
330
8D7
100
AcDbEntity
  8
DEFPOINTS
  6
BYBLOCK
 62
     0
 48
5.0
100
AcDbPoint
 10
177.1581438517761
 20
164.251031779501
 30
0.0
  0
ENDBLK
  5
90F
330
8D7
100
AcDbEntity
  8
0
 48
5.0
100
AcDbBlockEnd
  0
BLOCK
  5
9C3
330
9B9
100
AcDbEntity
  8
0
 48
5.0
100
AcDbBlockBegin
  2
*D11
 70
     1
 10
0.0
 20
0.0
 30
0.0
  3
*D11
  1

  0
LINE
  5
9C5
330
9B9
100
AcDbEntity
  8
SUNPOU
 62
     4
 48
5.0
100
AcDbLine
 10
676.3508897915766
 20
112.8503850013855
 30
0.0
 11
676.3508897915766
 21
74.03736506207747
 31
0.0
  0
LINE
  5
9C6
330
9B9
100
AcDbEntity
  8
SUNPOU
 62
     4
 48
5.0
100
AcDbLine
 10
615.3508897916839
 20
112.8504995695761
 30
0.0
 11
615.3508897916839
 21
74.03736506207747
 31
0.0
  0
LINE
  5
9C7
330
9B9
100
AcDbEntity
  8
SUNPOU
 62
     4
 48
5.0
100
AcDbLine
 10
669.3508897915766
 20
77.03736506207746
 30
0.0
 11
622.3508897916839
 21
77.03736506207746
 31
0.0
  0
INSERT
  5
9C8
330
9B9
100
AcDbEntity
  8
SUNPOU
 62
     4
 48
5.0
100
AcDbBlockReference
  2
_OPEN
 10
676.3508897915766
 20
77.03736506207746
 30
0.0
 41
7.0
 42
7.0
 43
7.0
  0
INSERT
  5
9C9
330
9B9
100
AcDbEntity
  8
SUNPOU
 62
     4
 48
5.0
100
AcDbBlockReference
  2
_OPEN
 10
615.3508897916839
 20
77.03736506207746
 30
0.0
 41
7.0
 42
7.0
 43
7.0
 50
180.0
  0
MTEXT
  5
9CA
330
9B9
100
AcDbEntity
  8
SUNPOU
 62
     4
 48
5.0
100
AcDbMText
 10
645.8508897916303
 20
82.03736506207746
 30
0.0
 40
6.0
 41
0.0
 71
     5
 72
     1
  1
\A1;穴径　φ61
1001
ACAD
1000
MTEXTBEGIN
1070
    73
1070
     1
1070
    44
1040
1.0
1070
    74
1070
     0
1000
MTEXTEND
  0
POINT
  5
9CB
330
9B9
100
AcDbEntity
  8
DEFPOINTS
 62
     0
 48
5.0
100
AcDbPoint
 10
676.3508897915766
 20
118.8503850013855
 30
0.0
  0
POINT
  5
9CC
330
9B9
100
AcDbEntity
  8
DEFPOINTS
 62
     0
 48
5.0
100
AcDbPoint
 10
615.3508897916839
 20
118.8504995695761
 30
0.0
  0
POINT
  5
9CD
330
9B9
100
AcDbEntity
  8
DEFPOINTS
 62
     0
 48
5.0
100
AcDbPoint
 10
615.3508897916839
 20
77.03736506207746
 30
0.0
  0
ENDBLK
  5
9C4
330
9B9
100
AcDbEntity
  8
0
 48
5.0
100
AcDbBlockEnd
  0
ENDSEC
  0
SECTION
  2
ENTITIES
  0
TEXT
  5
11A
330
1A
100
AcDbEntity
  8
ZUWAKU
 62
     7
 48
10.0
100
AcDbText
 10
795.5579444309237
 20
4.974918402528146
 30
0.0
 40
8.0
  1
A1
100
AcDbText
  0
LINE
  5
11B
330
1A
100
AcDbEntity
  8
ZUWAKU
 62
     7
 48
10.0
100
AcDbLine
 10
10.05047808566086
 20
25.78258628282265
 30
0.0
 11
806.0504780856609
 21
25.78258628282253
 31
0.0
  0
LINE
  5
11C
330
1A
100
AcDbEntity
  8
ZUWAKU
  6
CONTINUOUS
 62
     7
100
AcDbLine
 10
806.0504780856609
 20
563.7825862828226
 30
0.0
 11
10.05047808566086
 21
563.7825862828226
 31
0.0
  0
LINE
  5
11D
330
1A
100
AcDbEntity
  8
ZUWAKU
  6
CONTINUOUS
 62
     7
100
AcDbLine
 10
806.0504780856609
 20
13.78258628282265
 30
0.0
 11
10.05047808566086
 21
13.78258628282265
 31
0.0
  0
LINE
  5
11E
330
1A
100
AcDbEntity
  8
ZUWAKU
  6
CONTINUOUS
 62
     7
100
AcDbLine
 10
10.05047808566086
 20
563.7825862828226
 30
0.0
 11
10.05047808566086
 21
13.78258628282265
 31
0.0
  0
LINE
  5
11F
330
1A
100
AcDbEntity
  8
ZUWAKU
 62
     7
 48
10.0
100
AcDbLine
 10
44.55797523147839
 20
13.78258628282265
 30
0.0
 11
44.5579752314784
 21
25.78258628282265
 31
0.0
  0
TEXT
  5
120
330
1A
100
AcDbEntity
  8
ZUWAKU
 62
     7
100
AcDbText
 10
16.05676551180931
 20
15.52294263804401
 30
0.0
 40
8.0
  1
品 種
100
AcDbText
  0
LINE
  5
121
330
1A
100
AcDbEntity
  8
ZUWAKU
 62
     7
 48
10.0
100
AcDbLine
 10
276.1028387068254
 20
13.78258628282265
 30
0.0
 11
276.1028387068254
 21
25.78258628282261
 31
0.0
  0
LINE
  5
122
330
1A
100
AcDbEntity
  8
ZUWAKU
 62
     7
 48
10.0
100
AcDbLine
 10
209.5138526425484
 20
13.78258628282265
 30
0.0
 11
209.5138526425485
 21
25.78258628282263
 31
0.0
  0
TEXT
  5
124
330
1A
100
AcDbEntity
  8
ZUWAKU
 62
     7
100
AcDbText
 10
215.4560837190756
 20
16.18358115302453
 30
0.0
 40
8.0
  1
品名・ｻ ｲ ｽﾞ
100
AcDbText
  0
LINE
  5
126
330
1A
100
AcDbEntity
  8
ZUWAKU
 62
     7
 48
10.0
100
AcDbLine
 10
768.7231079932794
 20
13.78258628282237
 30
0.0
 11
768.7231079932794
 21
25.78258628282254
 31
0.0
  0
LINE
  5
127
330
1A
100
AcDbEntity
  8
ZUWAKU
 62
     7
 48
10.0
100
AcDbLine
 10
733.8119002376948
 20
13.78258628282242
 30
0.0
 11
733.8119002376946
 21
25.78258628282254
 31
0.0
  0
TEXT
  5
128
330
1A
100
AcDbEntity
  8
ZUWAKU
 62
     7
100
AcDbText
 10
739.6955629973526
 20
15.24227755810852
 30
0.0
 40
8.0
  1
尺 度
100
AcDbText
  0
TEXT
  5
129
330
1A
100
AcDbEntity
  8
ZUWAKU
 62
     7
100
AcDbText
 10
779.7374630323229
 20
15.55488920081529
 30
0.0
 40
8.0
  1
1/2
100
AcDbText
  0
TEXT
  5
12B
330
1A
100
AcDbEntity
  8
ZUWAKU
 62
     7
100
AcDbText
 10
620.3363288383084
 20
15.6519090944263
 30
0.0
 40
8.0
  1
品 番
100
AcDbText
  0
LINE
  5
12C
330
1A
100
AcDbEntity
  8
ZUWAKU
 62
     7
 48
10.0
100
AcDbLine
 10
614.3351028194128
 20
13.78258628282232
 30
0.0
 11
614.3351028194128
 21
25.78258628282256
 31
0.0
  0
LINE
  5
12D
330
1A
100
AcDbEntity
  8
ZUWAKU
 62
     7
 48
10.0
100
AcDbLine
 10
648.7607587371021
 20
13.78258628282232
 30
0.0
 11
648.7607587371021
 21
25.78258628282255
 31
0.0
  0
TEXT
  5
12E
330
1A
100
AcDbEntity
  8
ZUWAKU
 62
     7
 48
10.0
100
AcDbText
 10
646.2758615931216
 20
4.949376903717848
 30
0.0
 40
8.0
  1
積水化学工業株式会社  建材
100
AcDbText
  0
LINE
  5
12F
330
1A
100
AcDbEntity
  8
ZUWAKU
  6
CONTINUOUS
 62
     7
100
AcDbLine
 10
806.0504780856609
 20
563.7825862828226
 30
0.0
 11
806.0504780856609
 21
13.78258628282265
 31
0.0
  0
TEXT
  5
354
330
1A
100
AcDbEntity
  8
ZUWAKU
 62
     7
100
AcDbText
 10
50.3519382305086
 20
16.10306189639755
 30
0.0
 40
8.0
  1
自在ドレン
100
AcDbText
  0
TEXT
  5
356
330
1A
100
AcDbEntity
  8
ZUWAKU
 62
     7
100
AcDbText
 10
282.3131429914078
 20
15.64241700452384
 30
0.0
 40
8.0
  1
ＵＴ６０
100
AcDbText
  0
ARC
  5
35A
330
1A
100
AcDbEntity
  8
SEIHIN
 48
5.0
100
AcDbCircle
 10
139.8582438517761
 20
221.5036081559858
 30
0.0
 40
30.000005
100
AcDbArc
 50
0.0
 51
31.788362
  0
LINE
  5
361
330
1A
100
AcDbEntity
  8
SEIHIN
 48
5.0
100
AcDbLine
 10
165.3583438517761
 20
242.3071081559858
 30
0.0
 11
165.3583438517761
 21
237.3071081559858
 31
0.0
  0
LINE
  5
362
330
1A
100
AcDbEntity
  8
SEIHIN
 48
5.0
100
AcDbLine
 10
242.3582438517761
 20
202.8069081559858
 30
0.0
 11
242.8686438517761
 21
222.2889081559858
 31
0.0
  0
LINE
  5
363
330
1A
100
AcDbEntity
  8
SEIHIN
 48
5.0
100
AcDbLine
 10
170.3582438517761
 20
202.8070081559858
 30
0.0
 11
169.848043851776
 21
222.2891081559858
 31
0.0
  0
LINE
  5
36A
330
1A
100
AcDbEntity
  8
CENTER_L
 48
5.0
100
AcDbLine
 10
206.3583188184556
 20
249.3070081560677
 30
0.0
 11
206.3582438517761
 21
185.9732081559858
 31
0.0
  0
LINE
  5
36C
330
1A
100
AcDbEntity
  8
SEIHIN
 48
5.0
100
AcDbLine
 10
242.3582438517761
 20
202.8069081559858
 30
0.0
 11
170.3582412329617
 21
202.807108155993
 31
0.0
  0
LINE
  5
36D
330
1A
100
AcDbEntity
  8
SEIHIN
 48
5.0
100
AcDbLine
 10
177.1581438517761
 20
189.8070081559858
 30
0.0
 11
235.5583438517761
 21
189.8070081559858
 31
0.0
  0
LINE
  5
36E
330
1A
100
AcDbEntity
  8
SEIHIN
 48
5.0
100
AcDbLine
 10
241.3582438517761
 20
198.8069081559858
 30
0.0
 11
171.3582188517583
 21
198.8071081560571
 31
0.0
  0
LINE
  5
37F
330
1A
100
AcDbEntity
  8
SEIHIN
 48
5.0
100
AcDbLine
 10
177.1581438517761
 20
198.8071081559858
 30
0.0
 11
177.1581438517761
 21
189.8070081559858
 31
0.0
  0
LINE
  5
380
330
1A
100
AcDbEntity
  8
SEIHIN
 48
5.0
100
AcDbLine
 10
170.3582438517761
 20
202.8070081559858
 30
0.0
 11
171.3582438517761
 21
198.8070081559858
 31
0.0
  0
LINE
  5
38C
330
1A
100
AcDbEntity
  8
SEIHIN
 48
5.0
100
AcDbLine
 10
235.5583438517761
 20
198.8069081559858
 30
0.0
 11
235.5583438517761
 21
189.8069081559858
 31
0.0
  0
LINE
  5
38D
330
1A
100
AcDbEntity
  8
SEIHIN
 48
5.0
100
AcDbLine
 10
242.3582438517761
 20
202.8069081559858
 30
0.0
 11
241.3582438517761
 21
198.8069081559858
 31
0.0
  0
LINE
  5
39E
330
1A
100
AcDbEntity
  8
SEIHIN
 48
5.0
100
AcDbLine
 10
165.3583438517761
 20
242.3071081559857
 30
0.0
 11
247.3583438517761
 21
242.3069081559858
 31
0.0
  0
LINE
  5
39F
330
1A
100
AcDbEntity
  8
SEIHIN
 48
5.0
100
AcDbLine
 10
165.3583438517761
 20
237.3070081559858
 30
0.0
 11
247.3583438517761
 21
237.3070081559858
 31
0.0
  0
ARC
  5
3D9
330
1A
100
AcDbEntity
  8
SEIHIN
 48
5.0
100
AcDbCircle
 10
272.8583438517761
 20
221.5034081559858
 30
0.0
 40
30.000005
100
AcDbArc
 50
148.2116379999999
 51
179.999809
  0
LINE
  5
3DA
330
1A
100
AcDbEntity
  8
SEIHIN
 48
5.0
100
AcDbLine
 10
247.3583438517761
 20
242.3069081559858
 30
0.0
 11
247.3583438517761
 21
237.3069081559858
 31
0.0
  0
ARC
  5
3F6
330
1A
100
AcDbEntity
  8
SEIHIN
 48
5.0
100
AcDbCircle
 10
206.358443851776
 20
385.0280874797329
 30
0.0
 40
39.5
100
AcDbArc
 50
0.0
 51
359.9998549999999
  0
ARC
  5
3F7
330
1A
100
AcDbEntity
  8
SEIHIN
 48
5.0
100
AcDbCircle
 10
206.358443851776
 20
385.0280874797329
 30
0.0
 40
41.0
100
AcDbArc
 50
0.0
 51
359.99986
  0
LINE
  5
3F8
330
1A
100
AcDbEntity
  8
CENTER_L
 48
5.0
100
AcDbLine
 10
206.358443851776
 20
385.0281874797329
 30
0.0
 11
156.358443851776
 21
385.0281874797329
 31
0.0
  0
LINE
  5
3FC
330
1A
100
AcDbEntity
  8
CENTER_L
 48
5.0
100
AcDbLine
 10
206.3583438517761
 20
338.1921874797329
 30
0.0
 11
206.3586438517761
 21
435.0280874797329
 31
0.0
  0
LINE
  5
400
330
1A
100
AcDbEntity
  8
CENTER_L
 48
5.0
100
AcDbLine
 10
206.358443851776
 20
385.0281874797329
 30
0.0
 11
256.3585438517761
 21
385.0280874797329
 31
0.0
  0
LINE
  5
414
330
1A
100
AcDbEntity
  8
SEIHIN
 48
5.0
100
AcDbLine
 10
670.918513104265
 20
333.2320081559858
 30
0.0
 11
670.918513104265
 21
328.1070081559858
 31
0.0
  0
LINE
  5
415
330
1A
100
AcDbEntity
  8
SEIHIN
 48
5.0
100
AcDbLine
 10
669.1185131042649
 20
326.1047081559858
 30
0.0
 11
669.1185131042649
 21
332.4958081559858
 31
0.0
  0
LINE
  5
416
330
1A
100
AcDbEntity
  8
SEIHIN
 48
5.0
100
AcDbLine
 10
647.168513104265
 20
326.1047081559858
 30
0.0
 11
647.168513104265
 21
346.1047081559858
 31
0.0
  0
LINE
  5
417
330
1A
100
AcDbEntity
  8
SEIHIN
 48
5.0
100
AcDbLine
 10
617.418513104265
 20
333.2321081559858
 30
0.0
 11
617.418513104265
 21
328.1071081559858
 31
0.0
  0
LINE
  5
418
330
1A
100
AcDbEntity
  8
SEIHIN
 48
5.0
100
AcDbLine
 10
619.2185131042649
 20
326.1048081559858
 30
0.0
 11
619.2185131042649
 21
332.4959081559859
 31
0.0
  0
LINE
  5
419
330
1A
100
AcDbEntity
  8
SEIHIN
 48
5.0
100
AcDbLine
 10
641.1685131042649
 20
326.1047081559858
 30
0.0
 11
641.168613104265
 21
346.1047081559858
 31
0.0
  0
LINE
  5
41A
330
1A
100
AcDbEntity
  8
CENTER_L
 48
5.0
100
AcDbLine
 10
644.1574131042649
 20
352.2666081559858
 30
0.0
 11
644.1573131042649
 21
299.0232081559858
 31
0.0
  0
TEXT
  5
41B
330
1A
100
AcDbEntity
  8
ZUWAKU
 62
     7
100
AcDbText
 10
654.2531733678779
 20
15.90287984531518
 30
0.0
 40
8.0
  1
ＧＮ２６
100
AcDbText
  0
LINE
  5
427
330
1A
100
AcDbEntity
  8
SEIHIN
 48
5.0
100
AcDbLine
 10
678.1824131042649
 20
203.7938081559858
 30
0.0
 11
678.3530131042649
 21
210.3069081559858
 31
0.0
  0
LINE
  5
428
330
1A
100
AcDbEntity
  8
SEIHIN
 48
5.0
100
AcDbLine
 10
680.1572131042648
 20
202.8069081559858
 30
0.0
 11
680.667613104265
 21
222.2890081559858
 31
0.0
  0
LINE
  5
429
330
1A
100
AcDbEntity
  8
SEIHIN
 48
5.0
100
AcDbLine
 10
610.1320131042649
 20
203.7939081559858
 30
0.0
 11
609.9615131042648
 21
210.3070081559858
 31
0.0
  0
LINE
  5
42A
330
1A
100
AcDbEntity
  8
SEIHIN
 48
5.0
100
AcDbLine
 10
608.157213104265
 20
202.8070081559858
 30
0.0
 11
607.6470131042649
 21
222.2891081559858
 31
0.0
  0
LINE
  5
42B
330
1A
100
AcDbEntity
  8
SEIHIN
 48
5.0
100
AcDbLine
 10
671.3572131042649
 20
219.3070081559858
 30
0.0
 11
671.6572131042649
 21
189.8070081559858
 31
0.0
  0
LINE
  5
42C
330
1A
100
AcDbEntity
  8
SEIHIN
 48
5.0
100
AcDbLine
 10
673.3572131042649
 20
216.8070081559858
 30
0.0
 11
673.3572131042649
 21
189.8069081559858
 31
0.0
  0
LINE
  5
42D
330
1A
100
AcDbEntity
  8
SEIHIN
 48
5.0
100
AcDbLine
 10
614.9572131042649
 20
216.8071081559858
 30
0.0
 11
614.9571131042649
 21
189.8070081559858
 31
0.0
  0
LINE
  5
42E
330
1A
100
AcDbEntity
  8
SEIHIN
 48
5.0
100
AcDbLine
 10
616.9572131042649
 20
219.3071081559858
 30
0.0
 11
616.657313104265
 21
189.8071081559858
 31
0.0
  0
LINE
  5
432
330
1A
100
AcDbEntity
  8
CENTER_L
 48
5.0
100
AcDbLine
 10
644.1573131042649
 20
248.1766081559858
 30
0.0
 11
644.157213104265
 21
186.2521081559858
 31
0.0
  0
LINE
  5
435
330
1A
100
AcDbEntity
  8
SEIHIN
 48
5.0
100
AcDbLine
 10
644.1573131042649
 20
189.8070081559858
 30
0.0
 11
673.3572131042649
 21
189.8070081559858
 31
0.0
  0
LINE
  5
438
330
1A
100
AcDbEntity
  8
SEIHIN
 48
5.0
100
AcDbLine
 10
644.1571131042649
 20
189.8070081559858
 30
0.0
 11
614.9571131042649
 21
189.8071081559858
 31
0.0
  0
LINE
  5
43C
330
1A
100
AcDbEntity
  8
SEIHIN
 48
5.0
100
AcDbLine
 10
610.6319131042649
 20
203.3070081559858
 30
0.0
 11
614.9572131042649
 21
203.3070081559858
 31
0.0
  0
LINE
  5
43D
330
1A
100
AcDbEntity
  8
SEIHIN
 48
5.0
100
AcDbLine
 10
609.1572131042649
 20
198.8070081559858
 30
0.0
 11
614.9572131042649
 21
198.8070081559858
 31
0.0
  0
ARC
  5
43E
330
1A
100
AcDbEntity
  8
SEIHIN
 48
5.0
100
AcDbCircle
 10
610.6319131042649
 20
203.8070081559858
 30
0.0
 40
0.5000359999999999
100
AcDbArc
 50
181.501106
 51
270.0
  0
LINE
  5
43F
330
1A
100
AcDbEntity
  8
SEIHIN
 48
5.0
100
AcDbLine
 10
608.157213104265
 20
202.8070081559858
 30
0.0
 11
609.1572131042649
 21
198.8070081559858
 31
0.0
  0
LINE
  5
440
330
1A
100
AcDbEntity
  8
SEIHIN
 48
5.0
100
AcDbLine
 10
612.257213104265
 20
203.3070081559858
 30
0.0
 11
611.9572131042649
 21
198.8070081559858
 31
0.0
  0
LINE
  5
445
330
1A
100
AcDbEntity
  8
SEIHIN
 48
5.0
100
AcDbLine
 10
677.6826131042648
 20
203.3069081559858
 30
0.0
 11
673.357313104265
 21
203.3069081559858
 31
0.0
  0
LINE
  5
446
330
1A
100
AcDbEntity
  8
SEIHIN
 48
5.0
100
AcDbLine
 10
679.1572131042649
 20
198.8069081559858
 30
0.0
 11
673.357313104265
 21
198.8069081559858
 31
0.0
  0
LINE
  5
447
330
1A
100
AcDbEntity
  8
SEIHIN
 48
5.0
100
AcDbLine
 10
676.057213104265
 20
203.3069081559858
 30
0.0
 11
676.3572131042649
 21
198.8069081559858
 31
0.0
  0
ARC
  5
448
330
1A
100
AcDbEntity
  8
SEIHIN
 48
5.0
100
AcDbCircle
 10
677.6826131042648
 20
203.8069081559858
 30
0.0
 40
0.499986
100
AcDbArc
 50
270.0
 51
358.4985939999999
  0
LINE
  5
449
330
1A
100
AcDbEntity
  8
SEIHIN
 48
5.0
100
AcDbLine
 10
680.1572131042648
 20
202.8069081559858
 30
0.0
 11
679.1572131042649
 21
198.8069081559858
 31
0.0
  0
LINE
  5
44C
330
1A
100
AcDbEntity
  8
SEIHIN
 48
5.0
100
AcDbLine
 10
644.168513104265
 20
326.1070081559858
 30
0.0
 11
669.1185131042649
 21
326.1070081559858
 31
0.0
  0
LINE
  5
44D
330
1A
100
AcDbEntity
  8
SEIHIN
 48
5.0
100
AcDbLine
 10
644.168513104265
 20
325.1070081559858
 30
0.0
 11
683.1685131042649
 21
325.1070081559858
 31
0.0
  0
LINE
  5
44E
330
1A
100
AcDbEntity
  8
SEIHIN
 48
5.0
100
AcDbLine
 10
644.168513104265
 20
324.1070081559858
 30
0.0
 11
683.1685131042649
 21
324.1070081559858
 31
0.0
  0
LINE
  5
44F
330
1A
100
AcDbEntity
  8
SEIHIN
 48
5.0
100
AcDbLine
 10
615.8074131042649
 20
321.1070081559858
 30
0.0
 11
672.5073131042649
 21
321.1070081559858
 31
0.0
  0
LINE
  5
450
330
1A
100
AcDbEntity
  8
SEIHIN
 48
5.0
100
AcDbLine
 10
672.5073131042649
 20
311.1070081559858
 30
0.0
 11
647.5073131042649
 21
306.1070081559858
 31
0.0
  0
LINE
  5
451
330
1A
100
AcDbEntity
  8
SEIHIN
 48
5.0
100
AcDbLine
 10
674.1723131042649
 20
311.6871081559858
 30
0.0
 11
646.7720131042649
 21
306.1070081559858
 31
0.0
  0
LINE
  5
452
330
1A
100
AcDbEntity
  8
SEIHIN
 48
5.0
100
AcDbLine
 10
673.1573131042649
 20
219.3070081559858
 30
0.0
 11
644.1573131042649
 21
219.3070081559858
 31
0.0
  0
LINE
  5
453
330
1A
100
AcDbEntity
  8
SEIHIN
 48
5.0
100
AcDbLine
 10
644.1573131042649
 20
242.3070081559858
 30
0.0
 11
685.1573131042648
 21
242.3070081559858
 31
0.0
  0
LINE
  5
454
330
1A
100
AcDbEntity
  8
SEIHIN
 48
5.0
100
AcDbLine
 10
674.1723131042649
 20
314.5269081559858
 30
0.0
 11
632.5731131042649
 21
306.1070081559858
 31
0.0
  0
LINE
  5
455
330
1A
100
AcDbEntity
  8
SEIHIN
 48
5.0
100
AcDbLine
 10
674.1724131042649
 20
306.1070081559858
 30
0.0
 11
614.1424131042649
 21
306.1070081559858
 31
0.0
  0
LINE
  5
456
330
1A
100
AcDbEntity
  8
SEIHIN
 48
5.0
100
AcDbLine
 10
672.5073131042649
 20
304.1070081559858
 30
0.0
 11
615.8073131042649
 21
304.1070081559858
 31
0.0
  0
LINE
  5
457
330
1A
100
AcDbEntity
  8
SEIHIN
 48
5.0
100
AcDbLine
 10
630.7004131042649
 20
306.1070081559858
 30
0.0
 11
672.5073131042649
 21
315.1070081559858
 31
0.0
  0
LINE
  5
458
330
1A
100
AcDbEntity
  8
SEIHIN
 48
5.0
100
AcDbLine
 10
672.5073131042649
 20
317.1070081559858
 30
0.0
 11
621.4100131042649
 21
306.1070081559858
 31
0.0
  0
LINE
  5
459
330
1A
100
AcDbEntity
  8
SEIHIN
 48
5.0
100
AcDbLine
 10
661.7720131042649
 20
321.1070081559858
 30
0.0
 11
614.1424131042649
 21
311.4810081559858
 31
0.0
  0
LINE
  5
45A
330
1A
100
AcDbEntity
  8
SEIHIN
 48
5.0
100
AcDbLine
 10
674.1724131042649
 20
317.6871081559858
 30
0.0
 11
616.772313104265
 21
306.1070081559858
 31
0.0
  0
LINE
  5
45B
330
1A
100
AcDbEntity
  8
SEIHIN
 48
5.0
100
AcDbLine
 10
674.1724131042649
 20
320.5269081559858
 30
0.0
 11
614.1424131042649
 21
308.3208081559858
 31
0.0
  0
LINE
  5
45C
330
1A
100
AcDbEntity
  8
SEIHIN
 48
5.0
100
AcDbLine
 10
615.8073131042649
 20
308.9009081559858
 30
0.0
 11
672.5074131042649
 21
321.1070081559858
 31
0.0
  0
LINE
  5
45D
330
1A
100
AcDbEntity
  8
SEIHIN
 48
5.0
100
AcDbLine
 10
663.216913104265
 20
321.1070081559858
 30
0.0
 11
615.8073131042649
 21
310.9009081559858
 31
0.0
  0
LINE
  5
460
330
1A
100
AcDbEntity
  8
SEIHIN
 48
5.0
100
AcDbLine
 10
615.157213104265
 20
219.3071081559858
 30
0.0
 11
644.157213104265
 21
219.3070081559858
 31
0.0
  0
LINE
  5
461
330
1A
100
AcDbEntity
  8
SEIHIN
 48
5.0
100
AcDbLine
 10
644.1573131042649
 20
242.3070081559858
 30
0.0
 11
603.1573131042649
 21
242.3071081559858
 31
0.0
  0
LINE
  5
462
330
1A
100
AcDbEntity
  8
SEIHIN
 48
5.0
100
AcDbLine
 10
612.157313104265
 20
240.3071081559858
 30
0.0
 11
612.157213104265
 21
227.0071081559858
 31
0.0
  0
LINE
  5
463
330
1A
100
AcDbEntity
  8
SEIHIN
 48
5.0
100
AcDbLine
 10
614.1573131042649
 20
242.3071081559858
 30
0.0
 11
614.157213104265
 21
220.3071081559858
 31
0.0
  0
ARC
  5
464
330
1A
100
AcDbEntity
  8
SEIHIN
 48
5.0
100
AcDbCircle
 10
577.657213104265
 20
221.5036081559858
 30
0.0
 40
30.000005
100
AcDbArc
 50
0.0
 51
31.788362
  0
ARC
  5
465
330
1A
100
AcDbEntity
  8
SEIHIN
 48
5.0
100
AcDbCircle
 10
577.657213104265
 20
221.5036081559858
 30
0.0
 40
32.45003599999999
100
AcDbArc
 50
3.18601
 51
33.690214
  0
ARC
  5
466
330
1A
100
AcDbEntity
  8
SEIHIN
 48
5.0
100
AcDbCircle
 10
613.9572131042649
 20
216.8071081559858
 30
0.0
 40
1.0
100
AcDbArc
 50
0.0
 51
90.0
  0
LINE
  5
467
330
1A
100
AcDbEntity
  8
SEIHIN
 48
5.0
100
AcDbLine
 10
609.909113104265
 20
212.3070081559858
 30
0.0
 11
609.6865131042648
 21
220.8070081559858
 31
0.0
  0
ARC
  5
468
330
1A
100
AcDbEntity
  8
SEIHIN
 48
5.0
100
AcDbCircle
 10
612.5822131042649
 20
220.3071081559858
 30
0.0
 40
2.5
100
AcDbArc
 50
180.0
 51
270.0
  0
LINE
  5
469
330
1A
100
AcDbEntity
  8
SEIHIN
 48
5.0
100
AcDbLine
 10
609.9615131042648
 20
210.3070081559858
 30
0.0
 11
614.9572131042649
 21
210.3070081559858
 31
0.0
  0
LINE
  5
46A
330
1A
100
AcDbEntity
  8
SEIHIN
 48
5.0
100
AcDbLine
 10
609.909113104265
 20
212.3070081559858
 30
0.0
 11
614.9572131042649
 21
212.3070081559858
 31
0.0
  0
LINE
  5
46B
330
1A
100
AcDbEntity
  8
SEIHIN
 48
5.0
100
AcDbLine
 10
613.6572131042649
 20
210.3070081559858
 30
0.0
 11
613.6572131042649
 21
212.3070081559858
 31
0.0
  0
LINE
  5
46C
330
1A
100
AcDbEntity
  8
SEIHIN
 48
5.0
100
AcDbLine
 10
614.2531131042649
 20
210.3070081559858
 30
0.0
 11
614.2531131042649
 21
212.3070081559858
 31
0.0
  0
LINE
  5
46D
330
1A
100
AcDbEntity
  8
SEIHIN
 48
5.0
100
AcDbLine
 10
613.9572131042649
 20
217.8071081559858
 30
0.0
 11
612.5822131042649
 21
217.8071081559858
 31
0.0
  0
ARC
  5
46E
330
1A
100
AcDbEntity
  8
SEIHIN
 48
5.0
100
AcDbCircle
 10
609.5574131042649
 20
221.3705081559858
 30
0.0
 40
1.999979
100
AcDbArc
 50
0.0
 51
75.52809499999999
  0
LINE
  5
46F
330
1A
100
AcDbEntity
  8
SEIHIN
 48
5.0
100
AcDbLine
 10
611.657213104265
 20
226.5071081559858
 30
0.0
 11
610.5823131042649
 21
226.5071081559858
 31
0.0
  0
LINE
  5
470
330
1A
100
AcDbEntity
  8
SEIHIN
 48
5.0
100
AcDbLine
 10
611.5822131042649
 20
220.8071081559858
 30
0.0
 11
609.6865131042648
 21
220.8071081559858
 31
0.0
  0
LINE
  5
471
330
1A
100
AcDbEntity
  8
SEIHIN
 48
5.0
100
AcDbLine
 10
611.5823131042649
 20
223.5071081559858
 30
0.0
 11
610.5823131042649
 21
223.5071081559858
 31
0.0
  0
ARC
  5
472
330
1A
100
AcDbEntity
  8
SEIHIN
 48
5.0
100
AcDbCircle
 10
610.5823131042649
 20
224.0071081559858
 30
0.0
 40
0.5
100
AcDbArc
 50
180.0
 51
270.0
  0
ARC
  5
473
330
1A
100
AcDbEntity
  8
SEIHIN
 48
5.0
100
AcDbCircle
 10
610.5823131042649
 20
226.0071081559858
 30
0.0
 40
0.5
100
AcDbArc
 50
90.0
 51
180.0
  0
LINE
  5
474
330
1A
100
AcDbEntity
  8
SEIHIN
 48
5.0
100
AcDbLine
 10
610.0823131042649
 20
226.0071081559858
 30
0.0
 11
610.0823131042649
 21
224.0071081559858
 31
0.0
  0
ARC
  5
475
330
1A
100
AcDbEntity
  8
SEIHIN
 48
5.0
100
AcDbCircle
 10
610.5822131042649
 20
220.3071081559858
 30
0.0
 40
0.5
100
AcDbArc
 50
90.0
 51
180.0
  0
ARC
  5
476
330
1A
100
AcDbEntity
  8
SEIHIN
 48
5.0
100
AcDbCircle
 10
611.657213104265
 20
227.0071081559858
 30
0.0
 40
0.5
100
AcDbArc
 50
270.0
 51
0.0
  0
ARC
  5
477
330
1A
100
AcDbEntity
  8
SEIHIN
 48
5.0
100
AcDbCircle
 10
611.5823131042649
 20
223.0071081559858
 30
0.0
 40
0.5
100
AcDbArc
 50
0.0
 51
90.0
  0
LINE
  5
478
330
1A
100
AcDbEntity
  8
SEIHIN
 48
5.0
100
AcDbLine
 10
612.0823131042649
 20
223.0071081559858
 30
0.0
 11
612.082213104265
 21
221.3071081559858
 31
0.0
  0
ARC
  5
479
330
1A
100
AcDbEntity
  8
SEIHIN
 48
5.0
100
AcDbCircle
 10
615.157213104265
 20
220.3071081559858
 30
0.0
 40
1.0
100
AcDbArc
 50
180.0
 51
270.0
  0
ARC
  5
47A
330
1A
100
AcDbEntity
  8
SEIHIN
 48
5.0
100
AcDbCircle
 10
611.5822131042649
 20
221.3071081559858
 30
0.0
 40
0.5
100
AcDbArc
 50
270.0
 51
0.0
  0
LINE
  5
47B
330
1A
100
AcDbEntity
  8
SEIHIN
 48
5.0
100
AcDbLine
 10
611.5574131042649
 20
221.3705081559858
 30
0.0
 11
611.5572131042649
 21
220.8070081559858
 31
0.0
  0
LINE
  5
47C
330
1A
100
AcDbEntity
  8
SEIHIN
 48
5.0
100
AcDbLine
 10
603.1573131042649
 20
242.3071081559858
 30
0.0
 11
603.1573131042649
 21
237.3070081559858
 31
0.0
  0
LINE
  5
47D
330
1A
100
AcDbEntity
  8
SEIHIN
 48
5.0
100
AcDbLine
 10
604.657313104265
 20
242.3071081559858
 30
0.0
 11
604.657313104265
 21
239.5036081559858
 31
0.0
  0
LINE
  5
47E
330
1A
100
AcDbEntity
  8
SEIHIN
 48
5.0
100
AcDbLine
 10
605.1573131042649
 20
241.3071081559858
 30
0.0
 11
609.1573131042649
 21
240.3071081559858
 31
0.0
  0
LINE
  5
47F
330
1A
100
AcDbEntity
  8
SEIHIN
 48
5.0
100
AcDbLine
 10
608.157313104265
 20
238.3071081559858
 30
0.0
 11
612.157313104265
 21
238.3071081559858
 31
0.0
  0
LINE
  5
480
330
1A
100
AcDbEntity
  8
SEIHIN
 48
5.0
100
AcDbLine
 10
609.1573131042649
 20
240.3071081559858
 30
0.0
 11
612.157313104265
 21
240.3071081559858
 31
0.0
  0
ARC
  5
481
330
1A
100
AcDbEntity
  8
SEIHIN
 48
5.0
100
AcDbCircle
 10
608.157313104265
 20
238.8071081559858
 30
0.0
 40
0.5
100
AcDbArc
 50
180.0
 51
270.0
  0
LINE
  5
482
330
1A
100
AcDbEntity
  8
SEIHIN
 48
5.0
100
AcDbLine
 10
604.657313104265
 20
239.5035081559858
 30
0.0
 11
607.657313104265
 21
239.5035081559858
 31
0.0
  0
LINE
  5
483
330
1A
100
AcDbEntity
  8
SEIHIN
 48
5.0
100
AcDbLine
 10
607.657313104265
 20
240.6821081559858
 30
0.0
 11
607.657313104265
 21
238.8071081559858
 31
0.0
  0
LINE
  5
484
330
1A
100
AcDbEntity
  8
SEIHIN
 48
5.0
100
AcDbLine
 10
605.1573131042649
 20
241.3071081559858
 30
0.0
 11
605.1573131042649
 21
242.3071081559858
 31
0.0
  0
LINE
  5
485
330
1A
100
AcDbEntity
  8
SEIHIN
 48
5.0
100
AcDbLine
 10
620.896813104265
 20
230.8429081559858
 30
0.0
 11
620.896813104265
 21
226.8429081559858
 31
0.0
  0
LINE
  5
486
330
1A
100
AcDbEntity
  8
SEIHIN
 48
5.0
100
AcDbLine
 10
623.0618131042649
 20
230.2628081559857
 30
0.0
 11
623.0618131042649
 21
227.4230081559858
 31
0.0
  0
LINE
  5
487
330
1A
100
AcDbEntity
  8
SEIHIN
 48
5.0
100
AcDbLine
 10
641.6824131042649
 20
230.8871081559858
 30
0.0
 11
623.0616131042649
 21
227.4229081559858
 31
0.0
  0
LINE
  5
488
330
1A
100
AcDbEntity
  8
SEIHIN
 48
5.0
100
AcDbLine
 10
620.896813104265
 20
226.8429081559858
 30
0.0
 11
642.5474131042649
 21
230.3070081559858
 31
0.0
  0
LINE
  5
489
330
1A
100
AcDbEntity
  8
SEIHIN
 48
5.0
100
AcDbLine
 10
641.6824131042649
 20
227.7269081559858
 30
0.0
 11
623.0615131042648
 21
224.2627081559858
 31
0.0
  0
LINE
  5
48A
330
1A
100
AcDbEntity
  8
SEIHIN
 48
5.0
100
AcDbLine
 10
641.6824131042649
 20
224.8871081559858
 30
0.0
 11
623.0615131042648
 21
221.4229081559858
 31
0.0
  0
LINE
  5
48B
330
1A
100
AcDbEntity
  8
SEIHIN
 48
5.0
100
AcDbLine
 10
642.5474131042649
 20
228.3070081559858
 30
0.0
 11
620.896813104265
 21
224.8429081559858
 31
0.0
  0
LINE
  5
48C
330
1A
100
AcDbEntity
  8
SEIHIN
 48
5.0
100
AcDbLine
 10
623.7974131042649
 20
221.3070081559858
 30
0.0
 11
642.5473131042649
 21
224.3069081559858
 31
0.0
  0
LINE
  5
48D
330
1A
100
AcDbEntity
  8
SEIHIN
 48
5.0
100
AcDbLine
 10
622.6289131042649
 20
221.3070081559858
 30
0.0
 11
623.0618131042649
 21
221.4230081559858
 31
0.0
  0
LINE
  5
48E
330
1A
100
AcDbEntity
  8
SEIHIN
 48
5.0
100
AcDbLine
 10
620.896813104265
 20
224.8429081559858
 30
0.0
 11
620.8967131042649
 21
221.3071081559858
 31
0.0
  0
LINE
  5
48F
330
1A
100
AcDbEntity
  8
SEIHIN
 48
5.0
100
AcDbLine
 10
623.7974131042649
 20
221.3070081559858
 30
0.0
 11
620.896813104265
 21
221.3070081559858
 31
0.0
  0
LINE
  5
490
330
1A
100
AcDbEntity
  8
SEIHIN
 48
5.0
100
AcDbLine
 10
620.896813104265
 20
226.8429081559858
 30
0.0
 11
623.0618131042649
 21
227.4230081559858
 31
0.0
  0
LINE
  5
491
330
1A
100
AcDbEntity
  8
SEIHIN
 48
5.0
100
AcDbLine
 10
620.896813104265
 20
224.8429081559858
 30
0.0
 11
623.0618131042649
 21
224.2628081559858
 31
0.0
  0
LINE
  5
492
330
1A
100
AcDbEntity
  8
SEIHIN
 48
5.0
100
AcDbLine
 10
623.0618131042649
 20
224.2628081559858
 30
0.0
 11
623.0618131042649
 21
221.4230081559858
 31
0.0
  0
LINE
  5
493
330
1A
100
AcDbEntity
  8
SEIHIN
 48
5.0
100
AcDbLine
 10
642.5474131042649
 20
222.3070081559858
 30
0.0
 11
642.5474131042649
 21
221.3070081559858
 31
0.0
  0
LINE
  5
494
330
1A
100
AcDbEntity
  8
SEIHIN
 48
5.0
100
AcDbLine
 10
642.5474131042649
 20
228.3070081559858
 30
0.0
 11
642.5474131042649
 21
224.3070081559858
 31
0.0
  0
LINE
  5
495
330
1A
100
AcDbEntity
  8
SEIHIN
 48
5.0
100
AcDbLine
 10
641.6824131042649
 20
221.7269081559858
 30
0.0
 11
638.2829131042649
 21
221.3070081559858
 31
0.0
  0
LINE
  5
496
330
1A
100
AcDbEntity
  8
SEIHIN
 48
5.0
100
AcDbLine
 10
641.6824131042649
 20
221.7269081559858
 30
0.0
 11
641.6824131042649
 21
221.3070081559858
 31
0.0
  0
LINE
  5
497
330
1A
100
AcDbEntity
  8
SEIHIN
 48
5.0
100
AcDbLine
 10
641.6824131042649
 20
227.7269081559858
 30
0.0
 11
641.6824131042649
 21
224.8871081559858
 31
0.0
  0
LINE
  5
498
330
1A
100
AcDbEntity
  8
SEIHIN
 48
5.0
100
AcDbLine
 10
642.5473131042649
 20
222.3070081559858
 30
0.0
 11
636.2973131042649
 21
221.3070081559858
 31
0.0
  0
LINE
  5
499
330
1A
100
AcDbEntity
  8
SEIHIN
 48
5.0
100
AcDbLine
 10
642.5474131042649
 20
221.3070081559858
 30
0.0
 11
636.2973131042649
 21
221.3070081559858
 31
0.0
  0
LINE
  5
49A
330
1A
100
AcDbEntity
  8
SEIHIN
 48
5.0
100
AcDbLine
 10
642.5474131042649
 20
228.3070081559858
 30
0.0
 11
641.6824131042649
 21
227.7269081559858
 31
0.0
  0
LINE
  5
49B
330
1A
100
AcDbEntity
  8
SEIHIN
 48
5.0
100
AcDbLine
 10
642.5474131042649
 20
224.3070081559858
 30
0.0
 11
641.6824131042649
 21
224.8871081559858
 31
0.0
  0
LINE
  5
49C
330
1A
100
AcDbEntity
  8
SEIHIN
 48
5.0
100
AcDbLine
 10
642.5474131042649
 20
222.3070081559858
 30
0.0
 11
641.6824131042649
 21
221.7269081559858
 31
0.0
  0
LINE
  5
49D
330
1A
100
AcDbEntity
  8
SEIHIN
 48
5.0
100
AcDbLine
 10
641.6824131042649
 20
239.7269081559858
 30
0.0
 11
623.0618131042649
 21
236.2628081559857
 31
0.0
  0
LINE
  5
49E
330
1A
100
AcDbEntity
  8
SEIHIN
 48
5.0
100
AcDbLine
 10
641.6824131042649
 20
236.8871081559858
 30
0.0
 11
623.0618131042649
 21
233.4230081559858
 31
0.0
  0
LINE
  5
49F
330
1A
100
AcDbEntity
  8
SEIHIN
 48
5.0
100
AcDbLine
 10
641.6824131042649
 20
233.7269081559858
 30
0.0
 11
623.061713104265
 21
230.2627081559858
 31
0.0
  0
LINE
  5
4A0
330
1A
100
AcDbEntity
  8
SEIHIN
 48
5.0
100
AcDbLine
 10
642.5474131042649
 20
234.3070081559858
 30
0.0
 11
620.896813104265
 21
230.8429081559858
 31
0.0
  0
LINE
  5
4A1
330
1A
100
AcDbEntity
  8
SEIHIN
 48
5.0
100
AcDbLine
 10
620.896813104265
 20
232.8429081559858
 30
0.0
 11
642.5474131042649
 21
236.3070081559858
 31
0.0
  0
LINE
  5
4A2
330
1A
100
AcDbEntity
  8
SEIHIN
 48
5.0
100
AcDbLine
 10
642.5474131042649
 20
240.3070081559858
 30
0.0
 11
620.896813104265
 21
236.8429081559858
 31
0.0
  0
LINE
  5
4A3
330
1A
100
AcDbEntity
  8
SEIHIN
 48
5.0
100
AcDbLine
 10
620.896813104265
 20
238.8429081559858
 30
0.0
 11
630.0473131042649
 21
240.3070081559858
 31
0.0
  0
LINE
  5
4A4
330
1A
100
AcDbEntity
  8
SEIHIN
 48
5.0
100
AcDbLine
 10
627.8136131042649
 20
240.3070081559858
 30
0.0
 11
623.0618131042649
 21
239.4230081559858
 31
0.0
  0
LINE
  5
4A5
330
1A
100
AcDbEntity
  8
SEIHIN
 48
5.0
100
AcDbLine
 10
630.0473131042649
 20
240.3070081559858
 30
0.0
 11
620.896813104265
 21
240.3070081559858
 31
0.0
  0
LINE
  5
4A6
330
1A
100
AcDbEntity
  8
SEIHIN
 48
5.0
100
AcDbLine
 10
623.0618131042649
 20
240.3074081559858
 30
0.0
 11
623.0618131042649
 21
239.4230081559858
 31
0.0
  0
LINE
  5
4A7
330
1A
100
AcDbEntity
  8
SEIHIN
 48
5.0
100
AcDbLine
 10
620.896813104265
 20
240.3071081559858
 30
0.0
 11
620.896813104265
 21
238.8429081559858
 31
0.0
  0
LINE
  5
4A8
330
1A
100
AcDbEntity
  8
SEIHIN
 48
5.0
100
AcDbLine
 10
620.896813104265
 20
236.8429081559858
 30
0.0
 11
620.896813104265
 21
232.8429081559858
 31
0.0
  0
LINE
  5
4A9
330
1A
100
AcDbEntity
  8
SEIHIN
 48
5.0
100
AcDbLine
 10
620.896813104265
 20
238.8429081559858
 30
0.0
 11
623.0618131042649
 21
239.4230081559858
 31
0.0
  0
LINE
  5
4AA
330
1A
100
AcDbEntity
  8
SEIHIN
 48
5.0
100
AcDbLine
 10
623.0618131042649
 20
236.2628081559857
 30
0.0
 11
623.0618131042649
 21
233.4230081559858
 31
0.0
  0
LINE
  5
4AB
330
1A
100
AcDbEntity
  8
SEIHIN
 48
5.0
100
AcDbLine
 10
620.896813104265
 20
236.8429081559858
 30
0.0
 11
623.0618131042649
 21
236.2628081559857
 31
0.0
  0
LINE
  5
4AC
330
1A
100
AcDbEntity
  8
SEIHIN
 48
5.0
100
AcDbLine
 10
620.896813104265
 20
232.8429081559858
 30
0.0
 11
623.0618131042649
 21
233.4230081559858
 31
0.0
  0
LINE
  5
4AD
330
1A
100
AcDbEntity
  8
SEIHIN
 48
5.0
100
AcDbLine
 10
620.896813104265
 20
230.8429081559858
 30
0.0
 11
623.0618131042649
 21
230.2628081559857
 31
0.0
  0
LINE
  5
4AE
330
1A
100
AcDbEntity
  8
SEIHIN
 48
5.0
100
AcDbLine
 10
642.5474131042649
 20
240.3070081559858
 30
0.0
 11
642.5474131042649
 21
236.3070081559858
 31
0.0
  0
LINE
  5
4AF
330
1A
100
AcDbEntity
  8
SEIHIN
 48
5.0
100
AcDbLine
 10
642.5474131042649
 20
234.3070081559858
 30
0.0
 11
642.5474131042649
 21
230.3070081559858
 31
0.0
  0
LINE
  5
4B0
330
1A
100
AcDbEntity
  8
SEIHIN
 48
5.0
100
AcDbLine
 10
641.6824131042649
 20
239.7269081559858
 30
0.0
 11
641.6824131042649
 21
236.8871081559858
 31
0.0
  0
LINE
  5
4B1
330
1A
100
AcDbEntity
  8
SEIHIN
 48
5.0
100
AcDbLine
 10
641.6824131042649
 20
233.7269081559858
 30
0.0
 11
641.6824131042649
 21
230.8871081559858
 31
0.0
  0
LINE
  5
4B2
330
1A
100
AcDbEntity
  8
SEIHIN
 48
5.0
100
AcDbLine
 10
642.5474131042649
 20
234.3070081559858
 30
0.0
 11
641.6824131042649
 21
233.7269081559858
 31
0.0
  0
LINE
  5
4B3
330
1A
100
AcDbEntity
  8
SEIHIN
 48
5.0
100
AcDbLine
 10
642.5474131042649
 20
230.3070081559858
 30
0.0
 11
641.6824131042649
 21
230.8871081559858
 31
0.0
  0
LINE
  5
4B4
330
1A
100
AcDbEntity
  8
SEIHIN
 48
5.0
100
AcDbLine
 10
642.5474131042649
 20
240.3070081559858
 30
0.0
 11
641.6824131042649
 21
239.7269081559858
 31
0.0
  0
LINE
  5
4B5
330
1A
100
AcDbEntity
  8
SEIHIN
 48
5.0
100
AcDbLine
 10
642.5474131042649
 20
236.3070081559858
 30
0.0
 11
641.6824131042649
 21
236.8871081559858
 31
0.0
  0
LINE
  5
4B6
330
1A
100
AcDbEntity
  8
SEIHIN
 48
5.0
100
AcDbLine
 10
631.772213104265
 20
321.1070081559858
 30
0.0
 11
614.1424131042649
 21
317.4810081559858
 31
0.0
  0
LINE
  5
4B7
330
1A
100
AcDbEntity
  8
SEIHIN
 48
5.0
100
AcDbLine
 10
609.168513104265
 20
326.1071081559858
 30
0.0
 11
619.2185131042649
 21
326.1070081559858
 31
0.0
  0
LINE
  5
4B8
330
1A
100
AcDbEntity
  8
SEIHIN
 48
5.0
100
AcDbLine
 10
644.168513104265
 20
325.1070081559858
 30
0.0
 11
605.168513104265
 21
325.1071081559858
 31
0.0
  0
LINE
  5
4B9
330
1A
100
AcDbEntity
  8
SEIHIN
 48
5.0
100
AcDbLine
 10
644.168513104265
 20
324.1070081559858
 30
0.0
 11
605.168513104265
 21
324.1071081559858
 31
0.0
  0
LINE
  5
4BA
330
1A
100
AcDbEntity
  8
SEIHIN
 48
5.0
100
AcDbLine
 10
615.8074131042649
 20
314.9009081559858
 30
0.0
 11
644.6362131042649
 21
321.1070081559858
 31
0.0
  0
LINE
  5
4BB
330
1A
100
AcDbEntity
  8
SEIHIN
 48
5.0
100
AcDbLine
 10
635.345713104265
 20
321.1070081559858
 30
0.0
 11
615.8073131042649
 21
316.9009081559858
 31
0.0
  0
LINE
  5
4BC
330
1A
100
AcDbEntity
  8
SEIHIN
 48
5.0
100
AcDbLine
 10
647.573013104265
 20
321.1070081559858
 30
0.0
 11
614.1424131042649
 21
314.3208081559858
 31
0.0
  0
LINE
  5
4BF
330
1A
100
AcDbEntity
  8
SEIHIN
 48
5.0
100
AcDbLine
 10
615.8073131042649
 20
304.1070081559858
 30
0.0
 11
615.8073131042649
 21
306.1070081559858
 31
0.0
  0
LINE
  5
4C1
330
1A
100
AcDbEntity
  8
SEIHIN
 48
5.0
100
AcDbLine
 10
614.1424131042649
 20
320.3208081559858
 30
0.0
 11
614.1424131042649
 21
317.4810081559858
 31
0.0
  0
LINE
  5
4C2
330
1A
100
AcDbEntity
  8
SEIHIN
 48
5.0
100
AcDbLine
 10
615.8073131042649
 20
308.9009081559858
 30
0.0
 11
615.8073131042649
 21
310.9009081559858
 31
0.0
  0
LINE
  5
4C3
330
1A
100
AcDbEntity
  8
SEIHIN
 48
5.0
100
AcDbLine
 10
615.8073131042649
 20
314.9009081559858
 30
0.0
 11
615.8073131042649
 21
316.9009081559858
 31
0.0
  0
LINE
  5
4C4
330
1A
100
AcDbEntity
  8
SEIHIN
 48
5.0
100
AcDbLine
 10
614.1424131042649
 20
314.3208081559858
 30
0.0
 11
614.1424131042649
 21
311.4810081559858
 31
0.0
  0
LINE
  5
4C5
330
1A
100
AcDbEntity
  8
SEIHIN
 48
5.0
100
AcDbLine
 10
615.8073131042649
 20
314.9009081559858
 30
0.0
 11
614.1424131042649
 21
314.3208081559858
 31
0.0
  0
LINE
  5
4C6
330
1A
100
AcDbEntity
  8
SEIHIN
 48
5.0
100
AcDbLine
 10
615.8073131042649
 20
310.9009081559858
 30
0.0
 11
614.1424131042649
 21
311.4810081559858
 31
0.0
  0
LINE
  5
4C7
330
1A
100
AcDbEntity
  8
SEIHIN
 48
5.0
100
AcDbLine
 10
615.8073131042649
 20
308.9009081559858
 30
0.0
 11
614.1424131042649
 21
308.3208081559858
 31
0.0
  0
LINE
  5
4C8
330
1A
100
AcDbEntity
  8
SEIHIN
 48
5.0
100
AcDbLine
 10
614.1424131042649
 20
308.3208081559858
 30
0.0
 11
614.1424131042649
 21
306.1070081559858
 31
0.0
  0
LINE
  5
4C9
330
1A
100
AcDbEntity
  8
SEIHIN
 48
5.0
100
AcDbLine
 10
615.8073131042649
 20
316.9009081559858
 30
0.0
 11
614.1424131042649
 21
317.4810081559858
 31
0.0
  0
LINE
  5
4CA
330
1A
100
AcDbEntity
  8
SEIHIN
 48
5.0
100
AcDbLine
 10
609.168513104265
 20
326.1071081559858
 30
0.0
 11
605.2416131042649
 21
325.1071081559858
 31
0.0
  0
LINE
  5
4CB
330
1A
100
AcDbEntity
  8
SEIHIN
 48
5.0
100
AcDbLine
 10
605.1795131042649
 20
324.1071081559858
 30
0.0
 11
605.1795131042649
 21
325.1071081559858
 31
0.0
  0
ARC
  5
4CC
330
1A
100
AcDbEntity
  8
SEIHIN
 48
5.0
100
AcDbCircle
 10
615.418513104265
 20
328.1071081559858
 30
0.0
 40
2.0
100
AcDbArc
 50
270.0
 51
0.0
  0
LINE
  5
4CD
330
1A
100
AcDbEntity
  8
SEIHIN
 48
5.0
100
AcDbLine
 10
615.8073131042649
 20
320.9009081559858
 30
0.0
 11
615.8073131042649
 21
324.1070081559858
 31
0.0
  0
LINE
  5
4CE
330
1A
100
AcDbEntity
  8
SEIHIN
 48
5.0
100
AcDbLine
 10
615.8074131042649
 20
320.9009081559858
 30
0.0
 11
616.764913104265
 21
321.1070081559858
 31
0.0
  0
LINE
  5
4CF
330
1A
100
AcDbEntity
  8
SEIHIN
 48
5.0
100
AcDbLine
 10
615.8073131042649
 20
320.9009081559858
 30
0.0
 11
614.1424131042649
 21
320.3208081559858
 31
0.0
  0
LINE
  5
4D0
330
1A
100
AcDbEntity
  8
SEIHIN
 48
5.0
100
AcDbLine
 10
617.5733131042648
 20
321.1070081559858
 30
0.0
 11
614.1424131042649
 21
320.3208081559858
 31
0.0
  0
LINE
  5
4D1
330
1A
100
AcDbEntity
  8
SEIHIN
 48
5.0
100
AcDbLine
 10
644.1574131042649
 20
326.0708081559858
 30
0.0
 11
619.2185131042649
 21
326.0709081559858
 31
0.0
  0
ARC
  5
4D2
330
1A
100
AcDbEntity
  8
SEIHIN
 48
5.0
100
AcDbCircle
 10
710.6573131042648
 20
221.5034081559858
 30
0.0
 40
30.000005
100
AcDbArc
 50
148.2116379999999
 51
179.999809
  0
ARC
  5
4D4
330
1A
100
AcDbEntity
  8
SEIHIN
 48
5.0
100
AcDbCircle
 10
710.6573131042648
 20
221.5034081559858
 30
0.0
 40
32.45003599999999
100
AcDbArc
 50
146.3097859999999
 51
176.8139899999999
  0
LINE
  5
4D5
330
1A
100
AcDbEntity
  8
SEIHIN
 48
5.0
100
AcDbLine
 10
676.1573131042649
 20
240.3070081559858
 30
0.0
 11
676.1573131042649
 21
227.0070081559858
 31
0.0
  0
LINE
  5
4D6
330
1A
100
AcDbEntity
  8
SEIHIN
 48
5.0
100
AcDbLine
 10
674.1573131042649
 20
242.3070081559858
 30
0.0
 11
674.1573131042649
 21
220.3070081559858
 31
0.0
  0
LINE
  5
4D7
330
1A
100
AcDbEntity
  8
SEIHIN
 48
5.0
100
AcDbLine
 10
668.0277131042649
 20
230.0942081559858
 30
0.0
 11
669.0277131042649
 21
229.2810081559858
 31
0.0
  0
LINE
  5
4D8
330
1A
100
AcDbEntity
  8
SEIHIN
 48
5.0
100
AcDbLine
 10
674.1573131042649
 20
230.3070081559858
 30
0.0
 11
669.0277131042649
 21
229.2810081559858
 31
0.0
  0
LINE
  5
4D9
330
1A
100
AcDbEntity
  8
SEIHIN
 48
5.0
100
AcDbLine
 10
671.992313104265
 20
227.7269081559858
 30
0.0
 11
668.0277131042649
 21
226.9339081559858
 31
0.0
  0
LINE
  5
4DA
330
1A
100
AcDbEntity
  8
SEIHIN
 48
5.0
100
AcDbLine
 10
671.992313104265
 20
224.8871081559858
 30
0.0
 11
668.0277131042649
 21
224.0942081559858
 31
0.0
  0
LINE
  5
4DB
330
1A
100
AcDbEntity
  8
SEIHIN
 48
5.0
100
AcDbLine
 10
668.0277131042649
 20
224.0942081559858
 30
0.0
 11
669.0277131042649
 21
223.2811081559858
 31
0.0
  0
LINE
  5
4DC
330
1A
100
AcDbEntity
  8
SEIHIN
 48
5.0
100
AcDbLine
 10
668.0277131042649
 20
226.9339081559858
 30
0.0
 11
668.0277131042649
 21
224.0942081559858
 31
0.0
  0
ARC
  5
4DD
330
1A
100
AcDbEntity
  8
SEIHIN
 48
5.0
100
AcDbCircle
 10
675.732313104265
 20
220.3070081559858
 30
0.0
 40
2.5
100
AcDbArc
 50
270.0
 51
0.0
  0
LINE
  5
4DE
330
1A
100
AcDbEntity
  8
SEIHIN
 48
5.0
100
AcDbLine
 10
678.4054131042648
 20
212.3069081559858
 30
0.0
 11
678.6280131042649
 21
220.8069081559858
 31
0.0
  0
ARC
  5
4DF
330
1A
100
AcDbEntity
  8
SEIHIN
 48
5.0
100
AcDbCircle
 10
674.3572131042649
 20
216.8070081559858
 30
0.0
 40
1.0
100
AcDbArc
 50
90.0
 51
180.0
  0
LINE
  5
4E0
330
1A
100
AcDbEntity
  8
SEIHIN
 48
5.0
100
AcDbLine
 10
678.4054131042648
 20
212.3069081559858
 30
0.0
 11
673.3572131042649
 21
212.3069081559858
 31
0.0
  0
LINE
  5
4E1
330
1A
100
AcDbEntity
  8
SEIHIN
 48
5.0
100
AcDbLine
 10
678.3530131042649
 20
210.3069081559858
 30
0.0
 11
673.3572131042649
 21
210.3069081559858
 31
0.0
  0
LINE
  5
4E2
330
1A
100
AcDbEntity
  8
SEIHIN
 48
5.0
100
AcDbLine
 10
674.3572131042649
 20
217.8070081559858
 30
0.0
 11
675.732313104265
 21
217.8070081559858
 31
0.0
  0
LINE
  5
4E3
330
1A
100
AcDbEntity
  8
SEIHIN
 48
5.0
100
AcDbLine
 10
674.0614131042649
 20
210.3069081559858
 30
0.0
 11
674.0614131042649
 21
212.3069081559858
 31
0.0
  0
LINE
  5
4E4
330
1A
100
AcDbEntity
  8
SEIHIN
 48
5.0
100
AcDbLine
 10
674.657213104265
 20
210.3069081559858
 30
0.0
 11
674.657213104265
 21
212.3069081559858
 31
0.0
  0
ARC
  5
4E5
330
1A
100
AcDbEntity
  8
SEIHIN
 48
5.0
100
AcDbCircle
 10
676.7323131042648
 20
223.0070081559858
 30
0.0
 40
0.5
100
AcDbArc
 50
90.0
 51
180.0
  0
ARC
  5
4E6
330
1A
100
AcDbEntity
  8
SEIHIN
 48
5.0
100
AcDbCircle
 10
676.6573131042648
 20
227.0070081559858
 30
0.0
 40
0.5
100
AcDbArc
 50
180.0
 51
270.0
  0
ARC
  5
4E7
330
1A
100
AcDbEntity
  8
SEIHIN
 48
5.0
100
AcDbCircle
 10
676.7323131042648
 20
221.3070081559858
 30
0.0
 40
0.5
100
AcDbArc
 50
180.0
 51
270.0
  0
LINE
  5
4E8
330
1A
100
AcDbEntity
  8
SEIHIN
 48
5.0
100
AcDbLine
 10
676.2323131042649
 20
223.0070081559858
 30
0.0
 11
676.2323131042649
 21
221.3070081559858
 31
0.0
  0
LINE
  5
4E9
330
1A
100
AcDbEntity
  8
SEIHIN
 48
5.0
100
AcDbLine
 10
671.992313104265
 20
227.7269081559858
 30
0.0
 11
671.992313104265
 21
224.8871081559858
 31
0.0
  0
LINE
  5
4EA
330
1A
100
AcDbEntity
  8
SEIHIN
 48
5.0
100
AcDbLine
 10
669.0277131042649
 20
223.2810081559858
 30
0.0
 11
669.0277131042649
 21
221.3070081559858
 31
0.0
  0
LINE
  5
4EB
330
1A
100
AcDbEntity
  8
SEIHIN
 48
5.0
100
AcDbLine
 10
669.0277131042649
 20
229.2810081559858
 30
0.0
 11
669.0277131042649
 21
227.1339081559858
 31
0.0
  0
LINE
  5
4EC
330
1A
100
AcDbEntity
  8
SEIHIN
 48
5.0
100
AcDbLine
 10
671.992313104265
 20
221.7269081559858
 30
0.0
 11
669.892813104265
 21
221.3070081559858
 31
0.0
  0
LINE
  5
4ED
330
1A
100
AcDbEntity
  8
SEIHIN
 48
5.0
100
AcDbLine
 10
671.992313104265
 20
221.7269081559858
 30
0.0
 11
671.992313104265
 21
221.3070081559858
 31
0.0
  0
ARC
  5
4EE
330
1A
100
AcDbEntity
  8
SEIHIN
 48
5.0
100
AcDbCircle
 10
673.1573131042649
 20
220.3070081559858
 30
0.0
 40
1.0
100
AcDbArc
 50
270.0
 51
0.0
  0
LINE
  5
4EF
330
1A
100
AcDbEntity
  8
SEIHIN
 48
5.0
100
AcDbLine
 10
674.1573131042649
 20
228.3070081559858
 30
0.0
 11
671.992313104265
 21
227.7269081559858
 31
0.0
  0
LINE
  5
4F0
330
1A
100
AcDbEntity
  8
SEIHIN
 48
5.0
100
AcDbLine
 10
674.1573131042649
 20
224.3070081559858
 30
0.0
 11
671.992313104265
 21
224.8871081559858
 31
0.0
  0
LINE
  5
4F1
330
1A
100
AcDbEntity
  8
SEIHIN
 48
5.0
100
AcDbLine
 10
674.1573131042649
 20
222.3070081559858
 30
0.0
 11
671.992313104265
 21
221.7269081559858
 31
0.0
  0
LINE
  5
4F2
330
1A
100
AcDbEntity
  8
SEIHIN
 48
5.0
100
AcDbLine
 10
674.1573131042649
 20
224.3070081559858
 30
0.0
 11
669.0277131042649
 21
223.2810081559858
 31
0.0
  0
LINE
  5
4F3
330
1A
100
AcDbEntity
  8
SEIHIN
 48
5.0
100
AcDbLine
 10
674.1573131042649
 20
221.3070081559858
 30
0.0
 11
669.0278131042649
 21
221.3070081559858
 31
0.0
  0
ARC
  5
4F4
330
1A
100
AcDbEntity
  8
SEIHIN
 48
5.0
100
AcDbCircle
 10
678.7571131042649
 20
221.3704081559858
 30
0.0
 40
1.999979
100
AcDbArc
 50
104.471905
 51
180.0
  0
ARC
  5
4F5
330
1A
100
AcDbEntity
  8
SEIHIN
 48
5.0
100
AcDbCircle
 10
677.7323131042649
 20
224.0070081559858
 30
0.0
 40
0.5
100
AcDbArc
 50
270.0
 51
0.0
  0
ARC
  5
4F6
330
1A
100
AcDbEntity
  8
SEIHIN
 48
5.0
100
AcDbCircle
 10
677.7323131042649
 20
226.0070081559858
 30
0.0
 40
0.5
100
AcDbArc
 50
0.0
 51
90.0
  0
LINE
  5
4F7
330
1A
100
AcDbEntity
  8
SEIHIN
 48
5.0
100
AcDbLine
 10
676.6573131042648
 20
226.5070081559858
 30
0.0
 11
677.7323131042649
 21
226.5070081559858
 31
0.0
  0
LINE
  5
4F8
330
1A
100
AcDbEntity
  8
SEIHIN
 48
5.0
100
AcDbLine
 10
678.2323131042649
 20
226.0070081559858
 30
0.0
 11
678.2323131042649
 21
224.0070081559858
 31
0.0
  0
LINE
  5
4F9
330
1A
100
AcDbEntity
  8
SEIHIN
 48
5.0
100
AcDbLine
 10
676.7323131042648
 20
223.5070081559858
 30
0.0
 11
677.7323131042649
 21
223.5070081559858
 31
0.0
  0
ARC
  5
4FA
330
1A
100
AcDbEntity
  8
SEIHIN
 48
5.0
100
AcDbCircle
 10
677.7323131042649
 20
220.3070081559858
 30
0.0
 40
0.5
100
AcDbArc
 50
0.0
 51
90.0
  0
LINE
  5
4FB
330
1A
100
AcDbEntity
  8
SEIHIN
 48
5.0
100
AcDbLine
 10
676.7323131042648
 20
220.8070081559858
 30
0.0
 11
678.6280131042649
 21
220.8070081559858
 31
0.0
  0
LINE
  5
4FC
330
1A
100
AcDbEntity
  8
SEIHIN
 48
5.0
100
AcDbLine
 10
676.7571131042649
 20
221.3704081559858
 30
0.0
 11
676.757313104265
 21
220.8069081559858
 31
0.0
  0
LINE
  5
4FD
330
1A
100
AcDbEntity
  8
SEIHIN
 48
5.0
100
AcDbLine
 10
671.992313104265
 20
239.7269081559858
 30
0.0
 11
668.0277131042649
 21
238.9339081559858
 31
0.0
  0
LINE
  5
4FE
330
1A
100
AcDbEntity
  8
SEIHIN
 48
5.0
100
AcDbLine
 10
671.992313104265
 20
236.8871081559858
 30
0.0
 11
668.0277131042649
 21
236.0942081559858
 31
0.0
  0
LINE
  5
4FF
330
1A
100
AcDbEntity
  8
SEIHIN
 48
5.0
100
AcDbLine
 10
671.992313104265
 20
233.7269081559858
 30
0.0
 11
668.0277131042649
 21
232.9339081559858
 31
0.0
  0
LINE
  5
500
330
1A
100
AcDbEntity
  8
SEIHIN
 48
5.0
100
AcDbLine
 10
668.0277131042649
 20
236.0942081559858
 30
0.0
 11
669.0277131042649
 21
235.2811081559858
 31
0.0
  0
LINE
  5
501
330
1A
100
AcDbEntity
  8
SEIHIN
 48
5.0
100
AcDbLine
 10
671.992313104265
 20
230.8871081559858
 30
0.0
 11
668.0277131042649
 21
230.0942081559858
 31
0.0
  0
LINE
  5
502
330
1A
100
AcDbEntity
  8
SEIHIN
 48
5.0
100
AcDbLine
 10
668.0277131042649
 20
238.9339081559858
 30
0.0
 11
668.0277131042649
 21
236.0942081559858
 31
0.0
  0
LINE
  5
503
330
1A
100
AcDbEntity
  8
SEIHIN
 48
5.0
100
AcDbLine
 10
668.0277131042649
 20
232.9339081559858
 30
0.0
 11
668.0277131042649
 21
230.0942081559858
 31
0.0
  0
LINE
  5
504
330
1A
100
AcDbEntity
  8
SEIHIN
 48
5.0
100
AcDbLine
 10
683.6573131042648
 20
242.3069081559858
 30
0.0
 11
683.6573131042648
 21
239.5035081559858
 31
0.0
  0
LINE
  5
505
330
1A
100
AcDbEntity
  8
SEIHIN
 48
5.0
100
AcDbLine
 10
683.1573131042648
 20
241.3070081559858
 30
0.0
 11
679.1573131042648
 21
240.3070081559858
 31
0.0
  0
LINE
  5
506
330
1A
100
AcDbEntity
  8
SEIHIN
 48
5.0
100
AcDbLine
 10
677.6573131042648
 20
238.3070081559858
 30
0.0
 11
676.1573131042649
 21
238.3070081559858
 31
0.0
  0
LINE
  5
507
330
1A
100
AcDbEntity
  8
SEIHIN
 48
5.0
100
AcDbLine
 10
679.1573131042648
 20
240.3070081559858
 30
0.0
 11
676.1573131042649
 21
240.3070081559858
 31
0.0
  0
LINE
  5
508
330
1A
100
AcDbEntity
  8
SEIHIN
 48
5.0
100
AcDbLine
 10
671.992313104265
 20
239.7269081559858
 30
0.0
 11
671.992313104265
 21
236.8871081559858
 31
0.0
  0
LINE
  5
509
330
1A
100
AcDbEntity
  8
SEIHIN
 48
5.0
100
AcDbLine
 10
669.0277131042649
 20
235.2811081559858
 30
0.0
 11
669.0277131042649
 21
233.1340081559858
 31
0.0
  0
LINE
  5
50A
330
1A
100
AcDbEntity
  8
SEIHIN
 48
5.0
100
AcDbLine
 10
669.0277131042649
 20
240.3070081559858
 30
0.0
 11
669.0277131042649
 21
239.1340081559858
 31
0.0
  0
LINE
  5
50B
330
1A
100
AcDbEntity
  8
SEIHIN
 48
5.0
100
AcDbLine
 10
671.992313104265
 20
233.7269081559858
 30
0.0
 11
671.992313104265
 21
230.8871081559858
 31
0.0
  0
LINE
  5
50C
330
1A
100
AcDbEntity
  8
SEIHIN
 48
5.0
100
AcDbLine
 10
674.1573131042649
 20
240.3070081559858
 30
0.0
 11
671.992313104265
 21
239.7269081559858
 31
0.0
  0
LINE
  5
50D
330
1A
100
AcDbEntity
  8
SEIHIN
 48
5.0
100
AcDbLine
 10
674.1573131042649
 20
236.3070081559858
 30
0.0
 11
671.992313104265
 21
236.8871081559858
 31
0.0
  0
LINE
  5
50E
330
1A
100
AcDbEntity
  8
SEIHIN
 48
5.0
100
AcDbLine
 10
674.1573131042649
 20
234.3070081559858
 30
0.0
 11
671.992313104265
 21
233.7269081559858
 31
0.0
  0
LINE
  5
50F
330
1A
100
AcDbEntity
  8
SEIHIN
 48
5.0
100
AcDbLine
 10
674.1573131042649
 20
230.3070081559858
 30
0.0
 11
671.992313104265
 21
230.8871081559858
 31
0.0
  0
LINE
  5
510
330
1A
100
AcDbEntity
  8
SEIHIN
 48
5.0
100
AcDbLine
 10
674.1573131042649
 20
236.3070081559858
 30
0.0
 11
669.0277131042649
 21
235.2811081559858
 31
0.0
  0
LINE
  5
511
330
1A
100
AcDbEntity
  8
SEIHIN
 48
5.0
100
AcDbLine
 10
674.1573131042649
 20
240.3070081559858
 30
0.0
 11
669.0277131042649
 21
240.3070081559858
 31
0.0
  0
LINE
  5
512
330
1A
100
AcDbEntity
  8
SEIHIN
 48
5.0
100
AcDbLine
 10
674.1573131042649
 20
240.3070081559858
 30
0.0
 11
669.0278131042649
 21
240.3070081559858
 31
0.0
  0
ARC
  5
513
330
1A
100
AcDbEntity
  8
SEIHIN
 48
5.0
100
AcDbCircle
 10
683.1573131042648
 20
240.3069081559858
 30
0.0
 40
0.5
100
AcDbArc
 50
270.0
 51
0.0
  0
ARC
  5
514
330
1A
100
AcDbEntity
  8
SEIHIN
 48
5.0
100
AcDbCircle
 10
678.1573131042648
 20
239.3069081559858
 30
0.0
 40
0.5
100
AcDbArc
 50
90.0
 51
180.0
  0
LINE
  5
515
330
1A
100
AcDbEntity
  8
SEIHIN
 48
5.0
100
AcDbLine
 10
680.6573131042648
 20
240.6820081559858
 30
0.0
 11
680.6573131042648
 21
239.8069081559858
 31
0.0
  0
LINE
  5
516
330
1A
100
AcDbEntity
  8
SEIHIN
 48
5.0
100
AcDbLine
 10
677.6573131042648
 20
235.8069081559858
 30
0.0
 11
680.7250131042649
 21
234.0358081559858
 31
0.0
  0
LINE
  5
517
330
1A
100
AcDbEntity
  8
SEIHIN
 48
5.0
100
AcDbLine
 10
677.6573131042648
 20
235.8069081559858
 30
0.0
 11
677.6573131042648
 21
239.3069081559858
 31
0.0
  0
LINE
  5
518
330
1A
100
AcDbEntity
  8
SEIHIN
 48
5.0
100
AcDbLine
 10
678.1573131042648
 20
239.8069081559858
 30
0.0
 11
683.1573131042648
 21
239.8069081559858
 31
0.0
  0
LINE
  5
519
330
1A
100
AcDbEntity
  8
SEIHIN
 48
5.0
100
AcDbLine
 10
683.1573131042648
 20
241.3070081559858
 30
0.0
 11
683.1573131042648
 21
242.3070081559858
 31
0.0
  0
LINE
  5
51B
330
1A
100
AcDbEntity
  8
SEIHIN
 48
5.0
100
AcDbLine
 10
685.1573131042648
 20
242.3069081559858
 30
0.0
 11
685.1573131042648
 21
237.3069081559858
 31
0.0
  0
LINE
  5
51D
330
1A
100
AcDbEntity
  8
SEIHIN
 48
5.0
100
AcDbLine
 10
672.5073131042649
 20
304.1070081559858
 30
0.0
 11
672.5073131042649
 21
306.1070081559858
 31
0.0
  0
LINE
  5
521
330
1A
100
AcDbEntity
  8
SEIHIN
 48
5.0
100
AcDbLine
 10
658.571613104265
 20
306.1070081559858
 30
0.0
 11
672.5073131042649
 21
309.1070081559858
 31
0.0
  0
LINE
  5
522
330
1A
100
AcDbEntity
  8
SEIHIN
 48
5.0
100
AcDbLine
 10
674.1723131042649
 20
308.5269081559858
 30
0.0
 11
662.5728131042649
 21
306.1070081559858
 31
0.0
  0
LINE
  5
523
330
1A
100
AcDbEntity
  8
SEIHIN
 48
5.0
100
AcDbLine
 10
672.5074131042649
 20
317.1070081559858
 30
0.0
 11
674.1724131042649
 21
317.6871081559858
 31
0.0
  0
LINE
  5
524
330
1A
100
AcDbEntity
  8
SEIHIN
 48
5.0
100
AcDbLine
 10
674.1724131042649
 20
314.5269081559858
 30
0.0
 11
674.1724131042649
 21
311.6871081559858
 31
0.0
  0
LINE
  5
525
330
1A
100
AcDbEntity
  8
SEIHIN
 48
5.0
100
AcDbLine
 10
674.1724131042649
 20
308.5268081559858
 30
0.0
 11
674.1723131042649
 21
306.1070081559858
 31
0.0
  0
LINE
  5
526
330
1A
100
AcDbEntity
  8
SEIHIN
 48
5.0
100
AcDbLine
 10
672.5073131042649
 20
309.1070081559858
 30
0.0
 11
672.5073131042649
 21
311.1070081559858
 31
0.0
  0
LINE
  5
527
330
1A
100
AcDbEntity
  8
SEIHIN
 48
5.0
100
AcDbLine
 10
672.5073131042649
 20
315.1070081559858
 30
0.0
 11
672.5073131042649
 21
317.1070081559858
 31
0.0
  0
LINE
  5
528
330
1A
100
AcDbEntity
  8
SEIHIN
 48
5.0
100
AcDbLine
 10
672.5074131042649
 20
315.1070081559858
 30
0.0
 11
674.1724131042649
 21
314.5269081559858
 31
0.0
  0
LINE
  5
529
330
1A
100
AcDbEntity
  8
SEIHIN
 48
5.0
100
AcDbLine
 10
672.5074131042649
 20
311.1070081559858
 30
0.0
 11
674.1724131042649
 21
311.6871081559858
 31
0.0
  0
LINE
  5
52A
330
1A
100
AcDbEntity
  8
SEIHIN
 48
5.0
100
AcDbLine
 10
672.5074131042649
 20
309.1070081559858
 30
0.0
 11
674.1724131042649
 21
308.5268081559858
 31
0.0
  0
LINE
  5
52B
330
1A
100
AcDbEntity
  8
SEIHIN
 48
5.0
100
AcDbLine
 10
672.9185131042649
 20
326.1070081559858
 30
0.0
 11
679.1685131042649
 21
326.1069081559858
 31
0.0
  0
LINE
  5
52C
330
1A
100
AcDbEntity
  8
SEIHIN
 48
5.0
100
AcDbLine
 10
679.1685131042649
 20
326.1070081559858
 30
0.0
 11
669.1185131042649
 21
326.1069081559858
 31
0.0
  0
LINE
  5
52D
330
1A
100
AcDbEntity
  8
SEIHIN
 48
5.0
100
AcDbLine
 10
674.1724131042649
 20
320.5269081559858
 30
0.0
 11
674.1724131042649
 21
317.6871081559858
 31
0.0
  0
ARC
  5
52E
330
1A
100
AcDbEntity
  8
SEIHIN
 48
5.0
100
AcDbCircle
 10
672.9185131042649
 20
328.1070081559858
 30
0.0
 40
2.0
100
AcDbArc
 50
180.0
 51
270.0
  0
LINE
  5
52F
330
1A
100
AcDbEntity
  8
SEIHIN
 48
5.0
100
AcDbLine
 10
672.5073131042649
 20
321.1070081559858
 30
0.0
 11
672.5073131042649
 21
324.1070081559858
 31
0.0
  0
LINE
  5
530
330
1A
100
AcDbEntity
  8
SEIHIN
 48
5.0
100
AcDbLine
 10
672.5074131042649
 20
321.1070081559858
 30
0.0
 11
674.1724131042649
 21
320.5269081559858
 31
0.0
  0
LINE
  5
531
330
1A
100
AcDbEntity
  8
SEIHIN
 48
5.0
100
AcDbLine
 10
683.1574131042649
 20
324.1070081559858
 30
0.0
 11
683.1574131042649
 21
325.1070081559858
 31
0.0
  0
LINE
  5
532
330
1A
100
AcDbEntity
  8
SEIHIN
 48
5.0
100
AcDbLine
 10
679.1685131042649
 20
326.1070081559858
 30
0.0
 11
683.0953131042649
 21
325.1070081559858
 31
0.0
  0
LINE
  5
540
330
1A
100
AcDbEntity
  8
SEIHIN
 48
5.0
100
AcDbLine
 10
647.168513104265
 20
344.3104081559858
 30
0.0
 11
652.424013104265
 21
344.3104081559858
 31
0.0
  0
LINE
  5
541
330
1A
100
AcDbEntity
  8
SEIHIN
 48
5.0
100
AcDbLine
 10
644.168513104265
 20
346.1104081559858
 30
0.0
 11
652.7840131042649
 21
346.1104081559858
 31
0.0
  0
ARC
  5
542
330
1A
100
AcDbEntity
  8
SEIHIN
 48
5.0
100
AcDbCircle
 10
623.7185131042649
 20
332.4959081559859
 30
0.0
 40
4.499983999999999
100
AcDbArc
 50
120.9561139999999
 51
180.0
  0
ARC
  5
543
330
1A
100
AcDbEntity
  8
SEIHIN
 48
5.0
100
AcDbCircle
 10
622.4185131042649
 20
333.2320081559858
 30
0.0
 40
5.000037999999999
100
AcDbArc
 50
120.955503
 51
180.0
  0
ARC
  5
546
330
1A
100
AcDbEntity
  8
SEIHIN
 48
5.0
100
AcDbCircle
 10
635.913013104265
 20
339.8104081559858
 30
0.0
 40
4.500026999999999
100
AcDbArc
 50
90.0
 51
120.955459
  0
ARC
  5
547
330
1A
100
AcDbEntity
  8
SEIHIN
 48
5.0
100
AcDbCircle
 10
635.5531131042649
 20
341.1104081559857
 30
0.0
 40
4.999994999999999
100
AcDbArc
 50
90.0
 51
120.9560919999999
  0
LINE
  5
548
330
1A
100
AcDbEntity
  8
SEIHIN
 48
5.0
100
AcDbLine
 10
633.598313104265
 20
343.6695081559858
 30
0.0
 11
621.4038131042649
 21
336.3549081559858
 31
0.0
  0
LINE
  5
549
330
1A
100
AcDbEntity
  8
SEIHIN
 48
5.0
100
AcDbLine
 10
632.981213104265
 20
345.3982081559858
 30
0.0
 11
619.846613104265
 21
337.5199081559857
 31
0.0
  0
LINE
  5
54A
330
1A
100
AcDbEntity
  8
SEIHIN
 48
5.0
100
AcDbLine
 10
644.168513104265
 20
346.1104081559858
 30
0.0
 11
635.5531131042649
 21
346.1104081559858
 31
0.0
  0
LINE
  5
54B
330
1A
100
AcDbEntity
  8
SEIHIN
 48
5.0
100
AcDbLine
 10
641.168613104265
 20
346.1047081559858
 30
0.0
 11
644.168613104265
 21
346.1047081559858
 31
0.0
  0
LINE
  5
54C
330
1A
100
AcDbEntity
  8
SEIHIN
 48
5.0
100
AcDbLine
 10
641.168613104265
 20
344.3104081559858
 30
0.0
 11
635.913113104265
 21
344.3104081559858
 31
0.0
  0
LINE
  5
54D
330
1A
100
AcDbEntity
  8
SEIHIN
 48
5.0
100
AcDbLine
 10
647.168513104265
 20
346.1047081559858
 30
0.0
 11
644.168513104265
 21
346.1047081559858
 31
0.0
  0
ARC
  5
554
330
1A
100
AcDbEntity
  8
SEIHIN
 48
5.0
100
AcDbCircle
 10
664.6185131042649
 20
332.4958081559858
 30
0.0
 40
4.499983999999999
100
AcDbArc
 50
0.0
 51
59.043886
  0
LINE
  5
555
330
1A
100
AcDbEntity
  8
SEIHIN
 48
5.0
100
AcDbLine
 10
655.3559131042649
 20
345.3981081559859
 30
0.0
 11
668.490513104265
 21
337.5198081559858
 31
0.0
  0
LINE
  5
556
330
1A
100
AcDbEntity
  8
SEIHIN
 48
5.0
100
AcDbLine
 10
654.738713104265
 20
343.6694081559859
 30
0.0
 11
666.9333131042649
 21
336.3548081559858
 31
0.0
  0
ARC
  5
557
330
1A
100
AcDbEntity
  8
SEIHIN
 48
5.0
100
AcDbCircle
 10
652.424013104265
 20
339.8104081559858
 30
0.0
 40
4.499983999999999
100
AcDbArc
 50
59.043886
 51
90.0
  0
ARC
  5
558
330
1A
100
AcDbEntity
  8
SEIHIN
 48
5.0
100
AcDbCircle
 10
652.7840131042649
 20
341.1104081559857
 30
0.0
 40
4.999951999999999
100
AcDbArc
 50
59.04331800000001
 51
90.0
  0
ARC
  5
559
330
1A
100
AcDbEntity
  8
SEIHIN
 48
5.0
100
AcDbCircle
 10
665.918513104265
 20
333.2320081559858
 30
0.0
 40
4.999994999999999
100
AcDbArc
 50
0.0
 51
59.043908
  0
LINE
  5
55A
330
1A
100
AcDbEntity
  8
CENTER_L
 48
5.0
100
AcDbLine
 10
405.3209245971073
 20
250.4558081559858
 30
0.0
 11
405.3208614494296
 21
197.1070081559857
 31
0.0
  0
ARC
  5
55F
330
1A
100
AcDbEntity
  8
SEIHIN
 48
5.0
100
AcDbCircle
 10
425.7821245971073
 20
232.4958081559858
 30
0.0
 40
4.499983999999999
100
AcDbArc
 50
0.0
 51
59.043886
  0
LINE
  5
562
330
1A
100
AcDbEntity
  8
SEIHIN
 48
5.0
100
AcDbLine
 10
405.3320245971073
 20
224.1070081559858
 30
0.0
 11
444.3320245971072
 21
224.1070081559858
 31
0.0
  0
LINE
  5
563
330
1A
100
AcDbEntity
  8
SEIHIN
 48
5.0
100
AcDbLine
 10
405.3320245971073
 20
225.1070081559857
 30
0.0
 11
444.3320245971072
 21
225.1070081559857
 31
0.0
  0
ARC
  5
564
330
1A
100
AcDbEntity
  8
SEIHIN
 48
5.0
100
AcDbCircle
 10
427.0820245971073
 20
233.2320081559858
 30
0.0
 40
4.999994999999999
100
AcDbArc
 50
0.0
 51
59.043908
  0
LINE
  5
565
330
1A
100
AcDbEntity
  8
SEIHIN
 48
5.0
100
AcDbLine
 10
440.3320245971072
 20
226.1070081559858
 30
0.0
 11
430.2820245971073
 21
226.1069081559858
 31
0.0
  0
LINE
  5
56F
330
1A
100
AcDbEntity
  8
SEIHIN
 48
5.0
100
AcDbLine
 10
405.3321245971074
 20
246.1104081559858
 30
0.0
 11
396.7167245971073
 21
246.1104081559858
 31
0.0
  0
LINE
  5
570
330
1A
100
AcDbEntity
  8
SEIHIN
 48
5.0
100
AcDbLine
 10
402.3321245971073
 20
244.3104081559858
 30
0.0
 11
397.0766245971074
 21
244.3104081559858
 31
0.0
  0
LINE
  5
571
330
1A
100
AcDbEntity
  8
SEIHIN
 48
5.0
100
AcDbLine
 10
405.3320245971073
 20
224.1070081559858
 30
0.0
 11
366.3320245971072
 21
224.1071081559858
 31
0.0
  0
LINE
  5
572
330
1A
100
AcDbEntity
  8
SEIHIN
 48
5.0
100
AcDbLine
 10
405.3320245971073
 20
225.1070081559857
 30
0.0
 11
366.3320245971072
 21
225.1071081559858
 31
0.0
  0
LINE
  5
573
330
1A
100
AcDbEntity
  8
SEIHIN
 48
5.0
100
AcDbLine
 10
380.3820245971073
 20
226.1070081559858
 30
0.0
 11
405.3209245971073
 21
226.1070081559858
 31
0.0
  0
LINE
  5
574
330
1A
100
AcDbEntity
  8
SEIHIN
 48
5.0
100
AcDbLine
 10
366.3430245971074
 20
224.1071081559858
 30
0.0
 11
366.3430245971074
 21
225.1071081559858
 31
0.0
  0
LINE
  5
576
330
1A
100
AcDbEntity
  8
SEIHIN
 48
5.0
100
AcDbLine
 10
394.1447245971073
 20
245.3982081559858
 30
0.0
 11
381.0101245971074
 21
237.5199081559858
 31
0.0
  0
ARC
  5
577
330
1A
100
AcDbEntity
  8
SEIHIN
 48
5.0
100
AcDbCircle
 10
384.8820245971073
 20
232.4959081559858
 30
0.0
 40
4.499983999999999
100
AcDbArc
 50
120.9561139999999
 51
180.0
  0
ARC
  5
578
330
1A
100
AcDbEntity
  8
SEIHIN
 48
5.0
100
AcDbCircle
 10
383.5820245971073
 20
233.2320081559858
 30
0.0
 40
5.000037999999999
100
AcDbArc
 50
120.955503
 51
180.0
  0
LINE
  5
579
330
1A
100
AcDbEntity
  8
SEIHIN
 48
5.0
100
AcDbLine
 10
370.3320245971073
 20
226.1071081559858
 30
0.0
 11
380.3820245971073
 21
226.1070081559858
 31
0.0
  0
LINE
  5
57A
330
1A
100
AcDbEntity
  8
SEIHIN
 48
5.0
100
AcDbLine
 10
370.3320245971073
 20
226.1071081559858
 30
0.0
 11
366.4052245971073
 21
225.1071081559858
 31
0.0
  0
LINE
  5
57B
330
1A
100
AcDbEntity
  8
SEIHIN
 48
5.0
100
AcDbLine
 10
380.3820245971073
 20
226.1048081559857
 30
0.0
 11
380.3820245971073
 21
232.4959081559858
 31
0.0
  0
ARC
  5
57C
330
1A
100
AcDbEntity
  8
SEIHIN
 48
5.0
100
AcDbCircle
 10
376.5820245971073
 20
228.1071081559858
 30
0.0
 40
2.0
100
AcDbArc
 50
270.0
 51
0.0
  0
LINE
  5
57D
330
1A
100
AcDbEntity
  8
SEIHIN
 48
5.0
100
AcDbLine
 10
378.5820245971073
 20
233.2321081559858
 30
0.0
 11
378.5820245971073
 21
228.1071081559858
 31
0.0
  0
LINE
  5
57E
330
1A
100
AcDbEntity
  8
SEIHIN
 48
5.0
100
AcDbLine
 10
394.7619245971074
 20
243.6695081559858
 30
0.0
 11
382.5673245971073
 21
236.3549081559858
 31
0.0
  0
ARC
  5
57F
330
1A
100
AcDbEntity
  8
SEIHIN
 48
5.0
100
AcDbCircle
 10
396.7166245971073
 20
241.1104081559857
 30
0.0
 40
4.999994999999999
100
AcDbArc
 50
90.0
 51
120.9560919999999
  0
ARC
  5
580
330
1A
100
AcDbEntity
  8
SEIHIN
 48
5.0
100
AcDbCircle
 10
397.0766245971074
 20
239.8104081559858
 30
0.0
 40
4.500026999999999
100
AcDbArc
 50
90.0
 51
120.955459
  0
ARC
  5
581
330
1A
100
AcDbEntity
  8
SEIHIN
 48
5.0
100
AcDbCircle
 10
413.5875245971074
 20
239.8104081559858
 30
0.0
 40
4.500009999999999
100
AcDbArc
 50
59.042794
 51
90.0
  0
ARC
  5
582
330
1A
100
AcDbEntity
  8
SEIHIN
 48
5.0
100
AcDbCircle
 10
413.9475245971072
 20
241.1104081559857
 30
0.0
 40
4.999977999999999
100
AcDbArc
 50
59.04233600000001
 51
90.0
  0
LINE
  5
583
330
1A
100
AcDbEntity
  8
SEIHIN
 48
5.0
100
AcDbLine
 10
405.3209245971073
 20
226.1070081559858
 30
0.0
 11
430.2820245971073
 21
226.1070081559858
 31
0.0
  0
LINE
  5
584
330
1A
100
AcDbEntity
  8
SEIHIN
 48
5.0
100
AcDbLine
 10
402.3320245971072
 20
226.1047081559858
 30
0.0
 11
402.3321245971073
 21
246.1047081559858
 31
0.0
  0
LINE
  5
585
330
1A
100
AcDbEntity
  8
SEIHIN
 48
5.0
100
AcDbLine
 10
408.3320245971073
 20
226.1047081559858
 30
0.0
 11
408.3321245971074
 21
246.1047081559858
 31
0.0
  0
LINE
  5
586
330
1A
100
AcDbEntity
  8
SEIHIN
 48
5.0
100
AcDbLine
 10
405.3321245971074
 20
246.1104081559858
 30
0.0
 11
413.9475245971072
 21
246.1104081559858
 31
0.0
  0
LINE
  5
587
330
1A
100
AcDbEntity
  8
SEIHIN
 48
5.0
100
AcDbLine
 10
408.3321245971074
 20
246.1047081559858
 30
0.0
 11
405.3321245971074
 21
246.1047081559858
 31
0.0
  0
LINE
  5
588
330
1A
100
AcDbEntity
  8
SEIHIN
 48
5.0
100
AcDbLine
 10
402.3321245971073
 20
246.1047081559858
 30
0.0
 11
405.3321245971074
 21
246.1047081559858
 31
0.0
  0
LINE
  5
589
330
1A
100
AcDbEntity
  8
SEIHIN
 48
5.0
100
AcDbLine
 10
408.3320245971073
 20
244.3104081559858
 30
0.0
 11
413.5875245971074
 21
244.3104081559858
 31
0.0
  0
LINE
  5
58A
330
1A
100
AcDbEntity
  8
SEIHIN
 48
5.0
100
AcDbLine
 10
415.9023245971074
 20
243.6694081559859
 30
0.0
 11
428.0968245971073
 21
236.3548081559857
 31
0.0
  0
LINE
  5
58B
330
1A
100
AcDbEntity
  8
SEIHIN
 48
5.0
100
AcDbLine
 10
430.2820245971073
 20
226.1047081559858
 30
0.0
 11
430.2821245971073
 21
232.4958081559858
 31
0.0
  0
LINE
  5
58C
330
1A
100
AcDbEntity
  8
SEIHIN
 48
5.0
100
AcDbLine
 10
416.5194245971073
 20
245.3981081559859
 30
0.0
 11
429.6540245971073
 21
237.5198081559858
 31
0.0
  0
LINE
  5
591
330
1A
100
AcDbEntity
  8
SEIHIN
 48
5.0
100
AcDbLine
 10
444.3210245971073
 20
224.1070081559858
 30
0.0
 11
444.3210245971073
 21
225.1070081559857
 31
0.0
  0
LINE
  5
594
330
1A
100
AcDbEntity
  8
SEIHIN
 48
5.0
100
AcDbLine
 10
434.0820245971072
 20
226.1070081559858
 30
0.0
 11
440.3320245971072
 21
226.1069081559858
 31
0.0
  0
ARC
  5
595
330
1A
100
AcDbEntity
  8
SEIHIN
 48
5.0
100
AcDbCircle
 10
434.0820245971072
 20
228.1070081559858
 30
0.0
 40
2.0
100
AcDbArc
 50
180.0
 51
270.0
  0
LINE
  5
596
330
1A
100
AcDbEntity
  8
SEIHIN
 48
5.0
100
AcDbLine
 10
432.0821245971074
 20
233.2320081559858
 30
0.0
 11
432.0820245971073
 21
228.1070081559858
 31
0.0
  0
LINE
  5
597
330
1A
100
AcDbEntity
  8
SEIHIN
 48
5.0
100
AcDbLine
 10
440.3320245971072
 20
226.1070081559858
 30
0.0
 11
444.2589245971073
 21
225.1070081559857
 31
0.0
  0
LINE
  5
599
330
1A
100
AcDbEntity
  8
CENTER_L
 48
5.0
100
AcDbLine
 10
405.3210245971073
 20
385.0281874797329
 30
0.0
 11
355.3210245971073
 21
385.0281874797329
 31
0.0
  0
LINE
  5
59A
330
1A
100
AcDbEntity
  8
SEIHIN
 48
5.0
100
AcDbLine
 10
408.3209245971073
 20
356.6863874797328
 30
0.0
 11
408.3210245971073
 21
381.0280874797329
 31
0.0
  0
LINE
  5
59B
330
1A
100
AcDbEntity
  8
SEIHIN
 48
5.0
100
AcDbLine
 10
402.3209245971073
 20
356.6864874797328
 30
0.0
 11
402.3210245971073
 21
381.0280874797329
 31
0.0
  0
ARC
  5
59D
330
1A
100
AcDbEntity
  8
SEIHIN
 48
5.0
100
AcDbCircle
 10
405.3210245971073
 20
385.0280874797329
 30
0.0
 40
39.0
100
AcDbArc
 50
0.0
 51
359.999853
  0
ARC
  5
59E
330
1A
100
AcDbEntity
  8
SEIHIN
 48
5.0
100
AcDbCircle
 10
405.3210245971073
 20
385.0280874797329
 30
0.0
 40
35.0
100
AcDbArc
 50
0.0
 51
359.9998359999999
  0
ARC
  5
59F
330
1A
100
AcDbEntity
  8
SEIHIN
 48
5.0
100
AcDbCircle
 10
405.3210245971073
 20
385.0280874797329
 30
0.0
 40
39.0
100
AcDbArc
 50
0.0
 51
359.999853
  0
LINE
  5
5A0
330
1A
100
AcDbEntity
  8
CENTER_L
 48
5.0
100
AcDbLine
 10
405.3209245971073
 20
338.1921874797329
 30
0.0
 11
405.3212245971073
 21
435.0280874797329
 31
0.0
  0
ARC
  5
5A1
330
1A
100
AcDbEntity
  8
SEIHIN
 48
5.0
100
AcDbCircle
 10
405.3210245971073
 20
385.0280874797329
 30
0.0
 40
27.0
100
AcDbArc
 50
0.0
 51
359.9997879999999
  0
LINE
  5
5A4
330
1A
100
AcDbEntity
  8
SEIHIN
 48
5.0
100
AcDbLine
 10
409.3210245971073
 20
388.0280874797329
 30
0.0
 11
433.6627245971073
 21
388.0280874797329
 31
0.0
  0
LINE
  5
5A5
330
1A
100
AcDbEntity
  8
CENTER_L
 48
5.0
100
AcDbLine
 10
405.3210245971073
 20
385.0281874797329
 30
0.0
 11
455.3211245971074
 21
385.0280874797329
 31
0.0
  0
LINE
  5
5A6
330
1A
100
AcDbEntity
  8
SEIHIN
 48
5.0
100
AcDbLine
 10
409.3210245971073
 20
382.0280874797329
 30
0.0
 11
433.6627245971073
 21
382.0280874797329
 31
0.0
  0
LINE
  5
5A7
330
1A
100
AcDbEntity
  8
SEIHIN
 48
5.0
100
AcDbLine
 10
402.3210245971073
 20
389.0280874797329
 30
0.0
 11
402.3210245971073
 21
413.3697874797329
 31
0.0
  0
LINE
  5
5A8
330
1A
100
AcDbEntity
  8
SEIHIN
 48
5.0
100
AcDbLine
 10
408.3210245971073
 20
389.0280874797329
 30
0.0
 11
408.3210245971073
 21
413.3697874797329
 31
0.0
  0
LINE
  5
5A9
330
1A
100
AcDbEntity
  8
SEIHIN
 48
5.0
100
AcDbLine
 10
376.9794245971073
 20
388.0280874797329
 30
0.0
 11
401.3210245971073
 21
388.0280874797329
 31
0.0
  0
LINE
  5
5AA
330
1A
100
AcDbEntity
  8
SEIHIN
 48
5.0
100
AcDbLine
 10
376.9794245971073
 20
382.0280874797329
 30
0.0
 11
401.3210245971073
 21
382.0280874797329
 31
0.0
  0
ARC
  5
5AD
330
1A
100
AcDbEntity
  8
SEIHIN
 48
5.0
100
AcDbCircle
 10
401.3210245971073
 20
381.0280874797329
 30
0.0
 40
1.0
100
AcDbArc
 50
0.0
 51
90.0
  0
ARC
  5
5AE
330
1A
100
AcDbEntity
  8
SEIHIN
 48
5.0
100
AcDbCircle
 10
409.3210245971073
 20
381.0280874797329
 30
0.0
 40
1.0
100
AcDbArc
 50
90.0
 51
180.0
  0
ARC
  5
5AF
330
1A
100
AcDbEntity
  8
SEIHIN
 48
5.0
100
AcDbCircle
 10
401.3210245971073
 20
389.0280874797329
 30
0.0
 40
1.0
100
AcDbArc
 50
270.0
 51
0.0
  0
ARC
  5
5B0
330
1A
100
AcDbEntity
  8
SEIHIN
 48
5.0
100
AcDbCircle
 10
409.3210245971073
 20
389.0280874797329
 30
0.0
 40
1.0
100
AcDbArc
 50
180.0
 51
270.0
  0
CIRCLE
  5
670
330
1A
100
AcDbEntity
  8
SEIHIN
 48
5.0
100
AcDbCircle
 10
206.3584889508561
 20
385.0281874796427
 30
0.0
 40
29.99972193114234
  0
ARC
  5
671
330
1A
100
AcDbEntity
  8
SEIHIN
 48
5.0
100
AcDbCircle
 10
206.3584889508561
 20
385.0281874796427
 30
0.0
 40
27.1996219311367
100
AcDbArc
 50
333.0767205358972
 51
20.83826854154861
  0
CIRCLE
  5
674
330
1A
100
AcDbEntity
  8
SEIHIN
 48
5.0
100
AcDbCircle
 10
206.3584889508561
 20
385.0281874796427
 30
0.0
 40
23.8701219311301
  0
LINE
  5
675
330
1A
100
AcDbEntity
  8
SEIHIN
 48
5.0
100
AcDbLine
 10
204.7483108819384
 20
414.9846666207607
 30
0.0
 11
204.898600928664
 21
412.1886027960445
 31
0.0
  0
LINE
  5
676
330
1A
100
AcDbEntity
  8
SEIHIN
 48
5.0
100
AcDbLine
 10
183.0977108819384
 20
403.9733588848958
 30
0.0
 11
185.2688144948454
 21
402.2050633462333
 31
0.0
  0
LINE
  5
677
330
1A
100
AcDbEntity
  8
SEIHIN
 48
5.0
100
AcDbLine
 10
181.2205060411683
 20
368.6554927967849
 30
0.0
 11
183.566823320612
 21
370.1836797075431
 31
0.0
  0
LINE
  5
678
330
1A
100
AcDbEntity
  8
SEIHIN
 48
5.0
100
AcDbLine
 10
201.5818782693154
 20
355.4111770575421
 30
0.0
 11
202.0277153207422
 21
358.1755557098984
 31
0.0
  0
LINE
  5
679
330
1A
100
AcDbEntity
  8
SEIHIN
 48
5.0
100
AcDbLine
 10
233.1066499294614
 20
371.4444030213834
 30
0.0
 11
230.6100426032922
 21
372.7122799353411
 31
0.0
  0
LINE
  5
67A
330
1A
100
AcDbEntity
  8
SEIHIN
 48
5.0
100
AcDbLine
 10
234.3958777013143
 20
395.7000264964912
 30
0.0
 11
231.7789370369806
 21
394.7039433827969
 31
0.0
  0
ARC
  5
67B
330
1A
100
AcDbEntity
  8
SEIHIN
 48
5.0
100
AcDbCircle
 10
206.3584889508561
 20
385.0281874796427
 30
0.0
 40
27.1996219311367
100
AcDbArc
 50
93.0767205358966
 51
140.8382685415475
  0
ARC
  5
67C
330
1A
100
AcDbEntity
  8
SEIHIN
 48
5.0
100
AcDbCircle
 10
206.3584889508561
 20
385.0281874796427
 30
0.0
 40
27.1996219311367
100
AcDbArc
 50
213.0767205358958
 51
260.8382685415479
  0
LINE
  5
684
330
1A
100
AcDbEntity
  8
SEIHIN
 48
5.0
100
AcDbLine
 10
433.6708462971064
 20
204.1070081559857
 30
0.0
 11
376.9708462971063
 21
204.1070081559857
 31
0.0
  0
LINE
  5
68A
330
1A
100
AcDbEntity
  8
SEIHIN
  6
CONTINUOUS
 62
     3
 48
5.0
100
AcDbLine
 10
375.3059462971064
 20
220.8948563766207
 30
0.0
 11
375.3059462971064
 21
205.8948563766207
 31
0.0
  0
LINE
  5
699
330
1A
100
AcDbEntity
  8
SEIHIN
  6
CONTINUOUS
 62
     3
 48
5.0
100
AcDbLine
 10
435.3359462971064
 20
221.113060662335
 30
0.0
 11
435.3359462971061
 21
206.113060662335
 31
0.0
  0
LINE
  5
6A8
330
1A
100
AcDbEntity
  8
SEIHIN
 48
5.0
100
AcDbLine
 10
433.6708462971064
 20
204.1070081559857
 30
0.0
 11
433.6708462971064
 21
206.1070081559857
 31
0.0
  0
LINE
  5
6A9
330
1A
100
AcDbEntity
  8
SEIHIN
 48
5.0
100
AcDbLine
 10
376.9708462971063
 20
204.1070081559857
 30
0.0
 11
376.9708462971063
 21
205.9009081559858
 31
0.0
  0
LINE
  5
6AA
330
1A
100
AcDbEntity
  8
SEIHIN
  6
CONTINUOUS
 62
     3
 48
5.0
100
AcDbLine
 10
435.3359462971063
 20
221.113060662335
 30
0.0
 11
376.9708462971063
 21
220.9009081559857
 31
0.0
  0
LINE
  5
6AB
330
1A
100
AcDbEntity
  8
SEIHIN
  6
CONTINUOUS
 62
     3
 48
5.0
100
AcDbLine
 10
435.3359462971063
 20
206.113060662335
 30
0.0
 11
375.3059462971064
 21
205.8948563766207
 31
0.0
  0
DIMENSION
  5
6BF
330
1A
100
AcDbEntity
  8
SUNPOU
 48
5.0
100
AcDbDimension
  2
*D1
 10
247.3583438517761
 20
264.8003694479034
 30
0.0
 11
206.3583438517761
 21
269.8003694479034
 31
0.0
 70
    32
  1
φ<>
  3
STANDARD
100
AcDbAlignedDimension
 13
165.3583438517761
 23
242.3071081559858
 33
0.0
 14
247.3583438517761
 24
242.3069081559858
 34
0.0
100
AcDbRotatedDimension
1001
ACAD
1000
DSTYLE
1002
{
1070
   140
1040
6.0
1070
    74
1070
     0
1070
   172
1070
     1
1070
    73
1070
     0
1070
   272
1070
     2
1070
    77
1070
     3
1070
   173
1070
     1
1070
   147
1040
2.0
1070
    42
1040
6.0
1070
    44
1040
3.0
1070
    43
1040
14.0
1070
   271
1070
     0
1070
   178
1070
     4
1070
   177
1070
     4
1070
   176
1070
     4
1070
   141
1040
150.0
1070
     7
1000
_OPEN
1070
     6
1000
_OPEN
1070
    41
1040
7.0
1002
}
  0
DIMENSION
  5
6CF
330
1A
100
AcDbEntity
  8
SUNPOU
 48
5.0
100
AcDbDimension
  2
*D2
 10
271.8360063310047
 20
198.8069081559858
 30
0.0
 11
266.8360063310046
 21
174.1069081559858
 31
0.0
 70
    32
  1
\U+203B <>
  3
STANDARD
100
AcDbAlignedDimension
 13
242.5154350186227
 23
208.8069048497661
 33
0.0
 14
241.3582438517761
 24
198.8069081559858
 34
0.0
 50
90.0
100
AcDbRotatedDimension
1001
ACAD
1000
DSTYLE
1002
{
1070
   140
1040
6.0
1070
    74
1070
     0
1070
   172
1070
     1
1070
    73
1070
     0
1070
   272
1070
     2
1070
    77
1070
     3
1070
   173
1070
     1
1070
   147
1040
2.0
1070
    42
1040
6.0
1070
    44
1040
3.0
1070
    43
1040
14.0
1070
   271
1070
     0
1070
   178
1070
     4
1070
   177
1070
     4
1070
   176
1070
     4
1070
   141
1040
150.0
1070
     7
1000
_OPEN
1070
     6
1000
_OPEN
1070
    41
1040
7.0
1002
}
  0
DIMENSION
  5
6DC
330
1A
100
AcDbEntity
  8
SUNPOU
 48
5.0
100
AcDbDimension
  2
*D3
 10
288.681817838652
 20
198.8069081559858
 30
0.0
 11
283.681817838652
 21
220.5569081559858
 31
0.0
 70
    32
  3
STANDARD
100
AcDbAlignedDimension
 13
247.3583438517761
 23
242.3069081559858
 33
0.0
 14
241.3582438517761
 24
198.8069081559858
 34
0.0
 50
90.0
100
AcDbRotatedDimension
1001
ACAD
1000
DSTYLE
1002
{
1070
   140
1040
6.0
1070
    74
1070
     0
1070
   172
1070
     1
1070
    73
1070
     0
1070
   272
1070
     2
1070
    77
1070
     3
1070
   173
1070
     1
1070
   147
1040
2.0
1070
    42
1040
6.0
1070
    44
1040
3.0
1070
    43
1040
14.0
1070
   271
1070
     0
1070
   178
1070
     4
1070
   177
1070
     4
1070
   176
1070
     4
1070
   141
1040
150.0
1070
     7
1000
_OPEN
1070
     6
1000
_OPEN
1070
    41
1040
7.0
1002
}
  0
DIMENSION
  5
737
330
1A
100
AcDbEntity
  8
SUNPOU
 48
5.0
100
AcDbDimension
  2
*D4
 10
435.3359462971062
 20
175.1504151867782
 30
0.0
 11
405.3209462971063
 21
180.1504151867782
 31
0.0
 12
0.0
 22
-5.0
 32
0.0
 70
    32
  1
φ<>
  3
STANDARD
100
AcDbAlignedDimension
 13
375.3059462971064
 23
205.8948563766207
 33
0.0
 14
435.3359462971062
 24
205.8948563766195
 34
0.0
100
AcDbRotatedDimension
1001
ACAD
1000
DSTYLE
1002
{
1070
   140
1040
6.0
1070
    74
1070
     0
1070
   172
1070
     1
1070
    73
1070
     0
1070
   272
1070
     2
1070
    77
1070
     3
1070
   173
1070
     1
1070
   147
1040
2.0
1070
    42
1040
6.0
1070
    44
1040
3.0
1070
    43
1040
14.0
1070
   271
1070
     0
1070
   178
1070
     4
1070
   177
1070
     4
1070
   176
1070
     4
1070
   141
1040
150.0
1070
     7
1000
_OPEN
1070
     6
1000
_OPEN
1070
    41
1040
7.0
1002
}
  0
LINE
  5
763
330
1A
100
AcDbEntity
  8
0
  6
BYBLOCK
 62
     4
 48
5.0
100
AcDbLine
 10
450.3320245971073
 20
224.1070081559858
 30
0.0
 11
476.2561203985256
 21
224.1070081559858
 31
0.0
  0
LINE
  5
764
330
1A
100
AcDbEntity
  8
0
  6
BYBLOCK
 62
     4
 48
5.0
100
AcDbLine
 10
446.3320245971073
 20
226.1070081559858
 30
0.0
 11
476.2561203985256
 21
226.1070081559858
 31
0.0
  0
LINE
  5
765
330
1A
100
AcDbEntity
  8
0
  6
BYBLOCK
 62
     4
 48
5.0
100
AcDbLine
 10
473.2561203985255
 20
217.1070081559857
 30
0.0
 11
473.2561203985255
 21
210.1070081559857
 31
0.0
  0
LINE
  5
766
330
1A
100
AcDbEntity
  8
0
  6
BYBLOCK
 62
     4
 48
5.0
100
AcDbLine
 10
473.2561203985255
 20
233.1070081559857
 30
0.0
 11
473.2561203985255
 21
242.628915046678
 31
0.0
  0
LINE
  5
767
330
1A
100
AcDbEntity
  8
0
  6
BYBLOCK
 62
     4
 48
5.0
100
AcDbLine
 10
473.2561203985255
 20
224.1070081559858
 30
0.0
 11
473.2561203985255
 21
226.1070081559858
 31
0.0
  0
INSERT
  5
768
330
1A
100
AcDbEntity
  8
0
  6
BYBLOCK
 62
     4
 48
5.0
100
AcDbBlockReference
  2
_OPEN
 10
473.2561203985255
 20
224.1070081559858
 30
0.0
 41
7.0
 42
7.0
 43
7.0
 50
90.0
  0
INSERT
  5
769
330
1A
100
AcDbEntity
  8
0
  6
BYBLOCK
 62
     4
 48
5.0
100
AcDbBlockReference
  2
_OPEN
 10
473.2561203985255
 20
226.1070081559858
 30
0.0
 41
7.0
 42
7.0
 43
7.0
 50
270.0
  0
MTEXT
  5
76A
330
1A
100
AcDbEntity
  8
0
  6
BYBLOCK
 62
     4
 48
5.0
100
AcDbMText
 10
468.2561203985255
 20
238.4679768581804
 30
0.0
 40
6.0
 41
0.0
 71
     5
 72
     1
  1
\A1;2
 11
0.0
 21
1.0
 31
0.0
1001
ACAD
1000
MTEXTBEGIN
1070
    73
1070
     1
1070
    44
1040
1.0
1070
    74
1070
     0
1000
MTEXTEND
1000
MTEXTBEGIN
1070
    73
1070
     1
1070
    44
1040
1.0
1070
    74
1070
     0
1000
MTEXTEND
1000
MTEXTBEGIN
1070
    73
1070
     1
1070
    44
1040
1.0
1070
    74
1070
     0
1000
MTEXTEND
  0
POINT
  5
76B
330
1A
100
AcDbEntity
  8
DEFPOINTS
  6
BYBLOCK
 62
     0
 48
5.0
100
AcDbPoint
 10
444.3320245971072
 20
224.1070081559858
 30
0.0
  0
POINT
  5
76C
330
1A
100
AcDbEntity
  8
DEFPOINTS
  6
BYBLOCK
 62
     0
 48
5.0
100
AcDbPoint
 10
440.3320245971072
 20
226.1070081559858
 30
0.0
  0
POINT
  5
76D
330
1A
100
AcDbEntity
  8
DEFPOINTS
  6
BYBLOCK
 62
     0
 48
5.0
100
AcDbPoint
 10
473.2561203985255
 20
226.1070081559858
 30
0.0
  0
DIMENSION
  5
77D
330
1A
100
AcDbEntity
  8
SUNPOU
 48
5.0
100
AcDbDimension
  2
*D5
 10
493.2086522420359
 20
204.1070081559857
 30
0.0
 11
488.2086522420358
 21
214.1070081559858
 31
0.0
 12
0.0
 22
-5.0
 32
0.0
 70
    32
  3
STANDARD
100
AcDbAlignedDimension
 13
444.3320245971072
 23
224.1070081559858
 33
0.0
 14
433.6708462971064
 24
204.1070081559857
 34
0.0
 50
90.0
100
AcDbRotatedDimension
1001
ACAD
1000
DSTYLE
1002
{
1070
   140
1040
6.0
1070
    74
1070
     0
1070
   172
1070
     1
1070
    73
1070
     0
1070
   272
1070
     2
1070
    77
1070
     3
1070
   173
1070
     1
1070
   147
1040
2.0
1070
    42
1040
6.0
1070
    44
1040
3.0
1070
    43
1040
14.0
1070
   271
1070
     0
1070
   178
1070
     4
1070
   177
1070
     4
1070
   176
1070
     4
1070
   141
1040
150.0
1070
     7
1000
_OPEN
1070
     6
1000
_OPEN
1070
    41
1040
7.0
1002
}
  0
DIMENSION
  5
78A
330
1A
100
AcDbEntity
  8
SUNPOU
 48
5.0
100
AcDbDimension
  2
*D6
 10
432.0820195971073
 20
262.5499666671114
 30
0.0
 11
405.3320030971073
 21
267.5499666671114
 31
0.0
 12
0.0
 22
-20.0
 32
0.0
 70
    32
  1
φ<>
  3
STANDARD
100
AcDbAlignedDimension
 13
378.5819865971073
 23
233.2320081559858
 33
0.0
 14
432.0820195971073
 24
233.2320081559858
 34
0.0
100
AcDbRotatedDimension
1001
ACAD
1000
DSTYLE
1002
{
1070
   140
1040
6.0
1070
    74
1070
     0
1070
   172
1070
     1
1070
    73
1070
     0
1070
   272
1070
     2
1070
    77
1070
     3
1070
   173
1070
     1
1070
   147
1040
2.0
1070
    42
1040
6.0
1070
    44
1040
3.0
1070
    43
1040
14.0
1070
   271
1070
     0
1070
   178
1070
     4
1070
   177
1070
     4
1070
   176
1070
     4
1070
   141
1040
150.0
1070
     7
1000
_OPEN
1070
     6
1000
_OPEN
1070
    41
1040
7.0
1002
}
  0
DIMENSION
  5
797
330
1A
100
AcDbEntity
  8
SUNPOU
 48
5.0
100
AcDbDimension
  2
*D7
 10
366.4052245971073
 20
279.2358471825859
 30
0.0
 11
405.3686245971073
 21
284.235847182586
 31
0.0
 12
0.0
 22
-20.0
 32
0.0
 70
    32
  1
φ<>
  3
STANDARD
100
AcDbAlignedDimension
 13
444.3320245971072
 23
225.1070081559857
 33
0.0
 14
366.4052245971073
 24
225.1071081559858
 34
0.0
100
AcDbRotatedDimension
1001
ACAD
1000
DSTYLE
1002
{
1070
   140
1040
6.0
1070
    74
1070
     0
1070
   172
1070
     1
1070
    73
1070
     0
1070
   272
1070
     2
1070
    77
1070
     3
1070
   173
1070
     1
1070
   147
1040
2.0
1070
    42
1040
6.0
1070
    44
1040
3.0
1070
    43
1040
14.0
1070
   271
1070
     0
1070
   178
1070
     4
1070
   177
1070
     4
1070
   176
1070
     4
1070
   141
1040
150.0
1070
     7
1000
_OPEN
1070
     6
1000
_OPEN
1070
    41
1040
7.0
1002
}
  0
LINE
  5
79A
330
1A
100
AcDbEntity
  8
NOKITOI
 48
5.0
100
AcDbLine
 10
674.6573596524357
 20
323.8070081559858
 30
0.0
 11
674.657354957018
 21
321.3070081559858
 31
0.0
  0
LINE
  5
79E
330
1A
100
AcDbEntity
  8
NOKITOI
 48
5.0
100
AcDbLine
 10
674.6573596524354
 20
323.8070081559858
 30
0.0
 11
694.6573596524707
 21
323.8070081559858
 31
0.0
  0
LINE
  5
79F
330
1A
100
AcDbEntity
  8
NOKITOI
 48
5.0
100
AcDbLine
 10
674.6573549570179
 20
321.3070081559858
 30
0.0
 11
694.6573549570531
 21
321.3070081559858
 31
0.0
  0
LINE
  5
7A0
330
1A
100
AcDbEntity
  8
NOKITOI
 48
5.0
100
AcDbLine
 10
613.6573549571253
 20
321.3071227241763
 30
0.0
 11
593.6573549572312
 21
321.3071978508587
 31
0.0
  0
LINE
  5
7A1
330
1A
100
AcDbEntity
  8
NOKITOI
 48
5.0
100
AcDbLine
 10
613.657359652543
 20
323.8071227241764
 30
0.0
 11
593.6573596526488
 21
323.8071978508587
 31
0.0
  0
LINE
  5
7A2
330
1A
100
AcDbEntity
  8
NOKITOI
 48
5.0
100
AcDbLine
 10
613.6573596525428
 20
323.8071227241764
 30
0.0
 11
613.6573549571252
 21
321.3071227241764
 31
0.0
  0
DIMENSION
  5
7AF
330
1A
100
AcDbEntity
  8
SUNPOU
 48
5.0
100
AcDbDimension
  2
*D8
 10
613.6573549571252
 20
279.4939882166777
 30
0.0
 11
644.1573549570716
 21
284.4939882166777
 31
0.0
 70
    32
  1
穴径　φ<>
  3
STANDARD
100
AcDbAlignedDimension
 13
674.6573549570179
 23
321.3070081559858
 33
0.0
 14
613.6573549571252
 24
321.3071227241764
 34
0.0
100
AcDbRotatedDimension
1001
ACAD
1000
DSTYLE
1002
{
1070
   140
1040
6.0
1070
    74
1070
     0
1070
   172
1070
     1
1070
    73
1070
     0
1070
   272
1070
     2
1070
    77
1070
     3
1070
   173
1070
     1
1070
   147
1040
2.0
1070
    42
1040
6.0
1070
    44
1040
3.0
1070
    43
1040
14.0
1070
   271
1070
     0
1070
   178
1070
     4
1070
   177
1070
     4
1070
   176
1070
     4
1070
   141
1040
150.0
1070
     7
1000
_OPEN
1070
     6
1000
_OPEN
1070
    41
1040
7.0
1002
}
  0
DIMENSION
  5
7DD
330
1A
100
AcDbEntity
  8
SUNPOU
 48
5.0
100
AcDbDimension
  2
*D9
 10
512.6255256973831
 20
204.1070081559857
 30
0.0
 11
507.6255256973832
 21
225.1087081559858
 31
0.0
 12
0.0
 22
-5.0
 32
0.0
 70
    32
  3
STANDARD
100
AcDbAlignedDimension
 13
413.9475245971072
 23
246.1104081559858
 33
0.0
 14
433.6708462971064
 24
204.1070081559857
 34
0.0
 50
90.0
100
AcDbRotatedDimension
1001
ACAD
1000
DSTYLE
1002
{
1070
   140
1040
6.0
1070
    74
1070
     0
1070
   172
1070
     1
1070
    73
1070
     0
1070
   272
1070
     2
1070
    77
1070
     3
1070
   173
1070
     1
1070
   147
1040
2.0
1070
    42
1040
6.0
1070
    44
1040
3.0
1070
    43
1040
14.0
1070
   271
1070
     0
1070
   178
1070
     4
1070
   177
1070
     4
1070
   176
1070
     4
1070
   141
1040
150.0
1070
     7
1000
_OPEN
1070
     6
1000
_OPEN
1070
    41
1040
7.0
1002
}
  0
LINE
  5
810
330
1A
100
AcDbEntity
  8
SEIHIN
  6
CONTINUOUS
 62
     3
 48
5.0
100
AcDbLine
 10
376.9708462971063
 20
220.9009081559857
 30
0.0
 11
375.3059462971064
 21
220.8948563766206
 31
0.0
  0
LINE
  5
811
330
1A
100
AcDbEntity
  8
SEIHIN
 48
5.0
100
AcDbLine
 10
433.6708462971064
 20
221.1070081559857
 30
0.0
 11
433.6708462971064
 21
224.1070081559858
 31
0.0
  0
LINE
  5
812
330
1A
100
AcDbEntity
  8
SEIHIN
 48
5.0
100
AcDbLine
 10
376.9708462971063
 20
220.9009081559857
 30
0.0
 11
376.9708462971063
 21
224.1070081559858
 31
0.0
  0
LINE
  5
813
330
1A
100
AcDbEntity
  8
SEIHIN
  6
CONTINUOUS
 62
     4
100
AcDbLine
 10
376.9708462971063
 20
220.9009081559857
 30
0.0
 11
377.0798924753652
 21
205.9013045301893
 31
0.0
  0
LINE
  5
814
330
1A
100
AcDbEntity
  8
SEIHIN
  6
CONTINUOUS
 62
     4
100
AcDbLine
 10
433.6708462971064
 20
221.1070081559857
 30
0.0
 11
433.7798924753651
 21
206.1074045301893
 31
0.0
  0
DIMENSION
  5
8E3
330
1A
100
AcDbEntity
  8
SUNPOU
 48
5.0
100
AcDbDimension
  2
*D10
 10
177.1581438517761
 20
164.251031779501
 30
0.0
 11
206.3582438517761
 21
169.251031779501
 31
0.0
 70
    32
  1
φ<>
  3
STANDARD
100
AcDbAlignedDimension
 13
235.5583438517761
 23
189.8070081559858
 33
0.0
 14
177.1581438517761
 24
189.8070081559858
 34
0.0
100
AcDbRotatedDimension
1001
ACAD
1000
DSTYLE
1002
{
1070
   140
1040
6.0
1070
    74
1070
     0
1070
   172
1070
     1
1070
    73
1070
     0
1070
   272
1070
     2
1070
    77
1070
     3
1070
   173
1070
     1
1070
   147
1040
2.0
1070
    42
1040
6.0
1070
    44
1040
3.0
1070
    43
1040
14.0
1070
   271
1070
     0
1070
   178
1070
     4
1070
   177
1070
     4
1070
   176
1070
     4
1070
   141
1040
150.0
1070
     7
1000
_OPEN
1070
     6
1000
_OPEN
1070
    41
1040
7.0
1002
}
  0
MTEXT
  5
9D3
330
1A
100
AcDbEntity
  8
SUNPOU
 62
     4
 48
5.0
100
AcDbMText
 10
645.8508897916303
 20
82.03736506207746
 30
0.0
 40
6.0
 41
0.0
 71
     5
 72
     1
  1
\U+203B　たて樋部品差込寸法を示す
1001
ACAD
1000
MTEXTBEGIN
1070
    73
1070
     1
1070
    44
1040
1.0
1070
    74
1070
     0
1000
MTEXTEND
  0
VIEWPORT
  5
22
330
17
100
AcDbEntity
 67
     1
  8
0
100
AcDbViewport
 10
313.6808219178082
 20
148.5
 30
0.0
 40
627.3616438356165
 41
297.0
 68
     2
 69
     1
1001
ACAD
1000
MVIEW
1002
{
1070
    16
1010
0.0
1020
0.0
1030
0.0
1010
0.0
1020
0.0
1030
1.0
1040
0.0
1040
297.0
1040
313.6808219178082
1040
148.5
1040
50.0
1040
0.0
1040
0.0
1070
     0
1070
   100
1070
     1
1070
     0
1070
     0
1070
     0
1070
     0
1070
     0
1040
0.0
1040
0.0
1040
0.0
1040
1.0
1040
1.0
1040
10.0
1040
10.0
1070
     0
1002
{
1002
}
1002
}
  0
VIEWPORT
  5
64
330
17
100
AcDbEntity
 67
     1
  8
VIEWPORT
100
AcDbViewport
 10
210.0
 20
148.5
 30
0.0
 40
420.0
 41
297.0
 68
     1
 69
     2
1001
ACAD
1000
MVIEW
1002
{
1070
    16
1010
0.0
1020
0.0
1030
0.0
1010
0.0
1020
0.0
1030
1.0
1040
0.0
1040
605.8799999999998
1040
420.0
1040
297.0
1040
50.0
1040
0.0
1040
0.0
1070
     0
1070
   100
1070
     1
1070
     0
1070
     0
1070
     0
1070
     0
1070
     0
1040
0.0
1040
0.0
1040
0.0
1040
10.0
1040
10.0
1040
0.0
1040
0.0
1070
     0
1002
{
1002
}
1002
}
  0
ENDSEC
  0
SECTION
  2
OBJECTS
  0
DICTIONARY
  5
C
330
0
100
AcDbDictionary
  3
ACAD_GROUP
350
D
  3
ACAD_LAYOUT
350
944
  3
ACAD_MLINESTYLE
350
E
  3
ACAD_PLOTSETTINGS
350
945
1001
ACAD
1000
TREAT_AS_HARD
1070
     0
  0
DICTIONARY
  5
973
330
1A
100
AcDbDictionary
  3
ACAD_LAYOUTSELFREF
350
9E1
1001
ACAD
1000
TREAT_AS_HARD
1070
     1
  0
DICTIONARY
  5
971
330
17
100
AcDbDictionary
  3
ACAD_LAYOUTSELFREF
350
9E0
1001
ACAD
1000
TREAT_AS_HARD
1070
     1
  0
DICTIONARY
  5
D
102
{ACAD_REACTORS
330
C
102
}
330
C
100
AcDbDictionary
1001
ACAD
1000
TREAT_AS_HARD
1070
     0
  0
DICTIONARY
  5
944
102
{ACAD_REACTORS
330
C
102
}
330
C
100
AcDbDictionary
1001
ACAD
1000
TREAT_AS_HARD
1070
     0
  0
DICTIONARY
  5
E
102
{ACAD_REACTORS
330
C
102
}
330
C
100
AcDbDictionary
  3
STANDARD
350
13
1001
ACAD
1000
TREAT_AS_HARD
1070
     0
  0
DICTIONARY
  5
945
102
{ACAD_REACTORS
330
C
102
}
330
C
100
AcDbDictionary
1001
ACAD
1000
TREAT_AS_HARD
1070
     0
  0
XRECORD
  5
9E1
102
{ACAD_REACTORS
330
973
102
}
330
973
100
AcDbXrecord
340
1A
  0
XRECORD
  5
9E0
102
{ACAD_REACTORS
330
971
102
}
330
971
100
AcDbXrecord
340
17
  0
MLINESTYLE
  5
13
102
{ACAD_REACTORS
330
E
102
}
330
E
100
AcDbMlineStyle
  2
STANDARD
 70
     0
  3

 62
     0
 51
90.0
 52
90.0
 71
     2
 49
0.5
 62
   256
  6
BYLAYER
 49
-0.5
 62
   256
  6
BYLAYER
  0
ENDSEC
  0
EOF
