  0
SECTION
  2
HEADER
  9
$ACADVER
  1
AC1014
  9
$ACADMAINTVER
 70
     9
  9
$DWGCODEPAGE
  3
ANSI_932
  9
$INSBASE
 10
0.0
 20
0.0
 30
0.0
  9
$EXTMIN
 10
-0.0256328098773793
 20
-0.0181261901288963
 30
-0.0015258207003583
  9
$EXTMAX
 10
797.6000995626677
 20
551.6452344786116
 30
0.0000000349246037
  9
$LIMMIN
 10
0.0
 20
0.0
  9
$LIMMAX
 10
840.0
 20
594.0
  9
$ORTHOMODE
 70
     0
  9
$REGENMODE
 70
     1
  9
$FILLMODE
 70
     1
  9
$QTEXTMODE
 70
     0
  9
$MIRRTEXT
 70
     1
  9
$DRAGMODE
 70
     2
  9
$LTSCALE
 40
2.0
  9
$OSMODE
 70
    37
  9
$ATTMODE
 70
     1
  9
$TEXTSIZE
 40
5.0
  9
$TRACEWID
 40
1.0
  9
$TEXTSTYLE
  7
STANDARD
  9
$CLAYER
  8
SUNPOU
  9
$CELTYPE
  6
BYLAYER
  9
$CECOLOR
 62
   256
  9
$CELTSCALE
 40
1.0
  9
$DELOBJ
 70
     1
  9
$DISPSILH
 70
     0
  9
$DIMSCALE
 40
1.0
  9
$DIMASZ
 40
7.0
  9
$DIMEXO
 40
6.0
  9
$DIMDLI
 40
14.0
  9
$DIMRND
 40
0.0
  9
$DIMDLE
 40
0.0
  9
$DIMEXE
 40
3.0
  9
$DIMTP
 40
0.0
  9
$DIMTM
 40
0.0
  9
$DIMTXT
 40
6.0
  9
$DIMCEN
 40
150.0
  9
$DIMTSZ
 40
0.0
  9
$DIMTOL
 70
     0
  9
$DIMLIM
 70
     0
  9
$DIMTIH
 70
     0
  9
$DIMTOH
 70
     0
  9
$DIMSE1
 70
     0
  9
$DIMSE2
 70
     0
  9
$DIMTAD
 70
     3
  9
$DIMZIN
 70
     0
  9
$DIMBLK
  1

  9
$DIMASO
 70
     1
  9
$DIMSHO
 70
     1
  9
$DIMPOST
  1

  9
$DIMAPOST
  1

  9
$DIMALT
 70
     0
  9
$DIMALTD
 70
     2
  9
$DIMALTF
 40
25.4
  9
$DIMLFAC
 40
1.0
  9
$DIMTOFL
 70
     1
  9
$DIMTVP
 40
0.0
  9
$DIMTIX
 70
     0
  9
$DIMSOXD
 70
     0
  9
$DIMSAH
 70
     1
  9
$DIMBLK1
  1
OPEN
  9
$DIMBLK2
  1
OPEN
  9
$DIMSTYLE
  2
STANDARD
  9
$DIMCLRD
 70
   256
  9
$DIMCLRE
 70
   256
  9
$DIMCLRT
 70
   256
  9
$DIMTFAC
 40
1.0
  9
$DIMGAP
 40
2.0
  9
$DIMJUST
 70
     0
  9
$DIMSD1
 70
     0
  9
$DIMSD2
 70
     0
  9
$DIMTOLJ
 70
     1
  9
$DIMTZIN
 70
     0
  9
$DIMALTZ
 70
     0
  9
$DIMALTTZ
 70
     0
  9
$DIMFIT
 70
     5
  9
$DIMUPT
 70
     0
  9
$DIMUNIT
 70
     2
  9
$DIMDEC
 70
     0
  9
$DIMTDEC
 70
     0
  9
$DIMALTU
 70
     2
  9
$DIMALTTD
 70
     2
  9
$DIMTXSTY
  7
STANDARD
  9
$DIMAUNIT
 70
     0
  9
$LUNITS
 70
     2
  9
$LUPREC
 70
     4
  9
$SKETCHINC
 40
1.0
  9
$FILLETRAD
 40
20.0
  9
$AUNITS
 70
     0
  9
$AUPREC
 70
     0
  9
$MENU
  1
.
  9
$ELEVATION
 40
0.0
  9
$PELEVATION
 40
0.0
  9
$THICKNESS
 40
0.0
  9
$LIMCHECK
 70
     0
  9
$BLIPMODE
 70
     0
  9
$CHAMFERA
 40
20.0
  9
$CHAMFERB
 40
20.0
  9
$CHAMFERC
 40
40.0
  9
$CHAMFERD
 40
0.0
  9
$SKPOLY
 70
     0
  9
$TDCREATE
 40
2451023.646678588
  9
$TDUPDATE
 40
2454515.416783275
  9
$TDINDWG
 40
0.0619015394
  9
$TDUSRTIMER
 40
0.0619015394
  9
$USRTIMER
 70
     1
  9
$ANGBASE
 50
0.0
  9
$ANGDIR
 70
     0
  9
$PDMODE
 70
     0
  9
$PDSIZE
 40
0.0
  9
$PLINEWID
 40
0.0
  9
$COORDS
 70
     2
  9
$SPLFRAME
 70
     0
  9
$SPLINETYPE
 70
     6
  9
$SPLINESEGS
 70
     8
  9
$ATTDIA
 70
     0
  9
$ATTREQ
 70
     1
  9
$HANDLING
 70
 10241
  9
$HANDSEED
  5
318F
  9
$SURFTAB1
 70
     6
  9
$SURFTAB2
 70
     6
  9
$SURFTYPE
 70
     6
  9
$SURFU
 70
     6
  9
$SURFV
 70
     6
  9
$UCSNAME
  2

  9
$UCSORG
 10
0.0
 20
0.0
 30
0.0
  9
$UCSXDIR
 10
1.0
 20
0.0
 30
0.0
  9
$UCSYDIR
 10
0.0
 20
1.0
 30
0.0
  9
$PUCSNAME
  2

  9
$PUCSORG
 10
0.0
 20
0.0
 30
0.0
  9
$PUCSXDIR
 10
1.0
 20
0.0
 30
0.0
  9
$PUCSYDIR
 10
0.0
 20
1.0
 30
0.0
  9
$USERI1
 70
     0
  9
$USERI2
 70
     0
  9
$USERI3
 70
     0
  9
$USERI4
 70
     0
  9
$USERI5
 70
     0
  9
$USERR1
 40
0.0
  9
$USERR2
 40
0.0
  9
$USERR3
 40
0.0
  9
$USERR4
 40
0.0
  9
$USERR5
 40
0.0
  9
$WORLDVIEW
 70
     1
  9
$SHADEDGE
 70
     3
  9
$SHADEDIF
 70
    70
  9
$TILEMODE
 70
     1
  9
$MAXACTVP
 70
    16
  9
$PINSBASE
 10
0.0
 20
0.0
 30
0.0
  9
$PLIMCHECK
 70
     0
  9
$PEXTMIN
 10
0.0
 20
0.0
 30
0.0
  9
$PEXTMAX
 10
420.0
 20
297.0
 30
0.0
  9
$PLIMMIN
 10
0.0
 20
0.0
  9
$PLIMMAX
 10
420.0
 20
297.0
  9
$UNITMODE
 70
     0
  9
$VISRETAIN
 70
     0
  9
$PLINEGEN
 70
     0
  9
$PSLTSCALE
 70
     1
  9
$TREEDEPTH
 70
  3020
  9
$PICKSTYLE
 70
     1
  9
$CMLSTYLE
  2
STANDARD
  9
$CMLJUST
 70
     0
  9
$CMLSCALE
 40
1.0
  9
$PROXYGRAPHICS
 70
     1
  9
$MEASUREMENT
 70
     1
  0
ENDSEC
  0
SECTION
  2
CLASSES
  0
CLASS
  1
ACDBDICTIONARYWDFLT
  2
AcDbDictionaryWithDefault
  3
AutoCAD 2000
 90
        0
280
     0
281
     0
  0
CLASS
  1
ACDBPLACEHOLDER
  2
AcDbPlaceHolder
  3
AutoCAD 2000
 90
        0
280
     0
281
     0
  0
CLASS
  1
LAYOUT
  2
AcDbLayout
  3
AutoCAD 2000
 90
        0
280
     0
281
     0
  0
CLASS
  1
LONG_TRANSACTION
  2
AcDbLongTransaction
  3
AutoCAD 2000
 90
        0
280
     0
281
     0
  0
CLASS
  1
LWPOLYLINE
  2
AcDbPolyline
  3
AutoCAD 2000
 90
        0
280
     0
281
     1
  0
CLASS
  1
HATCH
  2
AcDbHatch
  3
AutoCAD 2000
 90
        0
280
     0
281
     1
  0
CLASS
  1
XRECORD
  2
AcDbXrecord
  3
AutoCAD 2000
 90
        0
280
     0
281
     0
  0
CLASS
  1
LONG_TRANSACTION
  2
AcDbLongTransaction
  3
AutoCAD 2000
 90
        0
280
     0
281
     0
  0
CLASS
  1
LWPOLYLINE
  2
AcDbPolyline
  3
AutoCAD 2000
 90
        0
280
     0
281
     1
  0
CLASS
  1
HATCH
  2
AcDbHatch
  3
AutoCAD 2000
 90
        0
280
     0
281
     1
  0
CLASS
  1
XRECORD
  2
AcDbXrecord
  3
AutoCAD 2000
 90
        0
280
     0
281
     0
  0
CLASS
  1
LONG_TRANSACTION
  2
AcDbLongTransaction
  3
AutoCAD 2000
 90
        0
280
     0
281
     0
  0
CLASS
  1
LWPOLYLINE
  2
AcDbPolyline
  3
AutoCAD 2000
 90
        0
280
     0
281
     1
  0
CLASS
  1
HATCH
  2
AcDbHatch
  3
AutoCAD 2000
 90
        0
280
     0
281
     1
  0
CLASS
  1
XRECORD
  2
AcDbXrecord
  3
AutoCAD 2000
 90
        0
280
     0
281
     0
  0
CLASS
  1
LONG_TRANSACTION
  2
AcDbLongTransaction
  3
AutoCAD 2000
 90
        0
280
     0
281
     0
  0
CLASS
  1
LWPOLYLINE
  2
AcDbPolyline
  3
AutoCAD 2000
 90
        0
280
     0
281
     1
  0
CLASS
  1
HATCH
  2
AcDbHatch
  3
AutoCAD 2000
 90
        0
280
     0
281
     1
  0
CLASS
  1
XRECORD
  2
AcDbXrecord
  3
AutoCAD 2000
 90
        0
280
     0
281
     0
  0
CLASS
  1
LONG_TRANSACTION
  2
AcDbLongTransaction
  3
AutoCAD 2000
 90
        0
280
     0
281
     0
  0
CLASS
  1
LWPOLYLINE
  2
AcDbPolyline
  3
AutoCAD 2000
 90
        0
280
     0
281
     1
  0
CLASS
  1
HATCH
  2
AcDbHatch
  3
AutoCAD 2000
 90
        0
280
     0
281
     1
  0
CLASS
  1
XRECORD
  2
AcDbXrecord
  3
AutoCAD 2000
 90
        0
280
     0
281
     0
  0
CLASS
  1
LONG_TRANSACTION
  2
AcDbLongTransaction
  3
AutoCAD 2000
 90
        0
280
     0
281
     0
  0
CLASS
  1
LWPOLYLINE
  2
AcDbPolyline
  3
AutoCAD 2000
 90
        0
280
     0
281
     1
  0
CLASS
  1
HATCH
  2
AcDbHatch
  3
AutoCAD 2000
 90
        0
280
     0
281
     1
  0
CLASS
  1
XRECORD
  2
AcDbXrecord
  3
AutoCAD 2000
 90
        0
280
     0
281
     0
  0
CLASS
  1
LONG_TRANSACTION
  2
AcDbLongTransaction
  3
AutoCAD 2000
 90
        0
280
     0
281
     0
  0
CLASS
  1
LWPOLYLINE
  2
AcDbPolyline
  3
AutoCAD 2000
 90
        0
280
     0
281
     1
  0
CLASS
  1
HATCH
  2
AcDbHatch
  3
AutoCAD 2000
 90
        0
280
     0
281
     1
  0
CLASS
  1
XRECORD
  2
AcDbXrecord
  3
AutoCAD 2000
 90
        0
280
     0
281
     0
  0
CLASS
  1
LONG_TRANSACTION
  2
AcDbLongTransaction
  3
AutoCAD 2000
 90
        0
280
     0
281
     0
  0
CLASS
  1
LWPOLYLINE
  2
AcDbPolyline
  3
AutoCAD 2000
 90
        0
280
     0
281
     1
  0
CLASS
  1
HATCH
  2
AcDbHatch
  3
AutoCAD 2000
 90
        0
280
     0
281
     1
  0
CLASS
  1
XRECORD
  2
AcDbXrecord
  3
AutoCAD 2000
 90
        0
280
     0
281
     0
  0
ENDSEC
  0
SECTION
  2
TABLES
  0
TABLE
  2
VPORT
  5
8
330
0
100
AcDbSymbolTable
 70
     2
  0
VPORT
  5
3163
330
8
100
AcDbSymbolTableRecord
100
AcDbViewportTableRecord
  2
*ACTIVE
 70
     0
 10
0.0
 20
0.0
 11
1.0
 21
1.0
 12
396.3131032581171
 22
273.5379107246964
 13
0.0
 23
0.0
 14
5.0
 24
5.0
 15
0.0
 25
0.0
 16
0.0
 26
0.0
 36
1.0
 17
0.0
 27
0.0
 37
0.0
 40
698.2028158447685
 41
1.570153061224489
 42
50.0
 43
0.0
 44
0.0
 50
0.0
 51
0.0
 71
     0
 72
   100
 73
     1
 74
     0
 75
     0
 76
     0
 77
     0
 78
     0
  0
ENDTAB
  0
TABLE
  2
LTYPE
  5
5
330
0
100
AcDbSymbolTable
 70
     3
  0
LTYPE
  5
14
330
5
100
AcDbSymbolTableRecord
100
AcDbLinetypeTableRecord
  2
BYBLOCK
 70
     0
  3

 72
    65
 73
     0
 40
0.0
  0
LTYPE
  5
15
330
5
100
AcDbSymbolTableRecord
100
AcDbLinetypeTableRecord
  2
BYLAYER
 70
     0
  3

 72
    65
 73
     0
 40
0.0
  0
LTYPE
  5
16
330
5
100
AcDbSymbolTableRecord
100
AcDbLinetypeTableRecord
  2
CONTINUOUS
 70
     0
  3
Solid line
 72
    65
 73
     0
 40
0.0
  0
LTYPE
  5
115
330
5
100
AcDbSymbolTableRecord
100
AcDbLinetypeTableRecord
  2
PHANTOM
 70
     0
  3
______  __  __  ______  __  __  ______  __  __ 
 72
    65
 73
     6
 40
2.5
 49
1.25
 74
     0
 49
-0.25
 74
     0
 49
0.25
 74
     0
 49
-0.25
 74
     0
 49
0.25
 74
     0
 49
-0.25
 74
     0
  0
LTYPE
  5
135
330
5
100
AcDbSymbolTableRecord
100
AcDbLinetypeTableRecord
  2
CENTER
 70
     0
  3
____ _ ____ _ ____ _ ____ _ ____ _ ____ _ ____ 
 72
    65
 73
     4
 40
2.0
 49
1.25
 74
     0
 49
-0.25
 74
     0
 49
0.25
 74
     0
 49
-0.25
 74
     0
  0
ENDTAB
  0
TABLE
  2
LAYER
  5
2
330
0
100
AcDbSymbolTable
 70
     9
  0
LAYER
  5
F
330
2
100
AcDbSymbolTableRecord
100
AcDbLayerTableRecord
  2
0
 70
     0
 62
     7
  6
CONTINUOUS
  0
LAYER
  5
62
330
2
100
AcDbSymbolTableRecord
100
AcDbLayerTableRecord
  2
VIEWPORT
 70
     0
 62
     7
  6
CONTINUOUS
  0
LAYER
  5
65
330
2
100
AcDbSymbolTableRecord
100
AcDbLayerTableRecord
  2
ZUWAKU
 70
     0
 62
     7
  6
CONTINUOUS
  0
LAYER
  5
1D7
330
2
100
AcDbSymbolTableRecord
100
AcDbLayerTableRecord
  2
SEIHIN
 70
     0
 62
     3
  6
CONTINUOUS
  0
LAYER
  5
1D9
330
2
100
AcDbSymbolTableRecord
100
AcDbLayerTableRecord
  2
SUNPOU
 70
     0
 62
     4
  6
CONTINUOUS
  0
LAYER
  5
1DA
330
2
100
AcDbSymbolTableRecord
100
AcDbLayerTableRecord
  2
DEFPOINTS
 70
     0
 62
     7
  6
CONTINUOUS
  0
LAYER
  5
11D9
330
2
100
AcDbSymbolTableRecord
100
AcDbLayerTableRecord
  2
MOJI
 70
     0
 62
     2
  6
CONTINUOUS
  0
LAYER
  5
2A53
330
2
100
AcDbSymbolTableRecord
100
AcDbLayerTableRecord
  2
NOKITOI
 70
     0
 62
     8
  6
PHANTOM
  0
LAYER
  5
2A54
330
2
100
AcDbSymbolTableRecord
100
AcDbLayerTableRecord
  2
CENTER_L
 70
     0
 62
     1
  6
CENTER
  0
ENDTAB
  0
TABLE
  2
STYLE
  5
3
330
0
100
AcDbSymbolTable
 70
     2
  0
STYLE
  5
10
330
3
100
AcDbSymbolTableRecord
100
AcDbTextStyleTableRecord
  2
STANDARD
 70
     0
 40
0.0
 41
1.0
 50
0.0
 71
     0
 42
5.0
  3
TXT
  4
bigfont.shx
  0
STYLE
  5
11DA
330
3
100
AcDbSymbolTableRecord
100
AcDbTextStyleTableRecord
  2
ｽﾀｲﾙ1
 70
     0
 40
0.0
 41
1.0
 50
0.0
 71
     0
 42
2.5
  3
MS PGothic.ttf
  4

1001
ACAD
1000
MS PGothic
1071
    32818
  0
ENDTAB
  0
TABLE
  2
VIEW
  5
6
330
0
100
AcDbSymbolTable
 70
     0
  0
ENDTAB
  0
TABLE
  2
UCS
  5
7
330
0
100
AcDbSymbolTable
 70
     0
  0
ENDTAB
  0
TABLE
  2
APPID
  5
9
330
0
100
AcDbSymbolTable
 70
     1
  0
APPID
  5
11
330
9
100
AcDbSymbolTableRecord
100
AcDbRegAppTableRecord
  2
ACAD
 70
     0
  0
ENDTAB
  0
TABLE
  2
DIMSTYLE
  5
A
330
0
100
AcDbSymbolTable
 70
     1
  0
DIMSTYLE
105
1D
102
{ACAD_REACTORS
330
2F34
330
2F3A
330
2F61
330
2F62
330
2F67
330
2F83
330
2F84
330
2F85
330
2F99
330
2FA5
330
2FA6
330
2FAF
330
2FFE
102
}
330
A
100
AcDbSymbolTableRecord
100
AcDbDimStyleTableRecord
  2
STANDARD
 70
     0
  3

  4

  5

  6

  7

 40
1.0
 41
0.18
 42
0.0625
 43
0.38
 44
0.18
 45
0.0
 46
0.0
 47
0.0
 48
0.0
140
0.18
141
0.09
142
0.0
143
25.4
144
1.0
145
0.0
146
1.0
147
0.09
 71
     0
 72
     0
 73
     1
 74
     1
 75
     0
 76
     0
 77
     0
 78
     0
170
     0
171
     2
172
     0
173
     0
174
     0
175
     0
176
     0
177
     0
178
     0
270
     2
271
     4
272
     4
273
     2
274
     2
340
10
275
     0
280
     0
281
     0
282
     0
283
     1
284
     0
285
     0
286
     0
287
     3
288
     0
  0
ENDTAB
  0
TABLE
  2
BLOCK_RECORD
  5
1
330
0
100
AcDbSymbolTable
 70
    14
  0
BLOCK_RECORD
  5
1A
102
{ACAD_XDICTIONARY
360
8E1
102
}
330
1
100
AcDbSymbolTableRecord
100
AcDbBlockTableRecord
  2
*MODEL_SPACE
  0
BLOCK_RECORD
  5
17
102
{ACAD_XDICTIONARY
360
8DF
102
}
330
1
100
AcDbSymbolTableRecord
100
AcDbBlockTableRecord
  2
*PAPER_SPACE
  0
BLOCK_RECORD
  5
6D
330
1
100
AcDbSymbolTableRecord
100
AcDbBlockTableRecord
  2
_OPEN
  0
BLOCK_RECORD
  5
3046
330
1
100
AcDbSymbolTableRecord
100
AcDbBlockTableRecord
  2
*D1
  0
BLOCK_RECORD
  5
3052
330
1
100
AcDbSymbolTableRecord
100
AcDbBlockTableRecord
  2
*D2
  0
BLOCK_RECORD
  5
305E
330
1
100
AcDbSymbolTableRecord
100
AcDbBlockTableRecord
  2
*D3
  0
BLOCK_RECORD
  5
306A
330
1
100
AcDbSymbolTableRecord
100
AcDbBlockTableRecord
  2
*D4
  0
BLOCK_RECORD
  5
3076
330
1
100
AcDbSymbolTableRecord
100
AcDbBlockTableRecord
  2
*D5
  0
BLOCK_RECORD
  5
3081
330
1
100
AcDbSymbolTableRecord
100
AcDbBlockTableRecord
  2
*D6
  0
BLOCK_RECORD
  5
308D
330
1
100
AcDbSymbolTableRecord
100
AcDbBlockTableRecord
  2
*D7
  0
BLOCK_RECORD
  5
3099
330
1
100
AcDbSymbolTableRecord
100
AcDbBlockTableRecord
  2
*D8
  0
BLOCK_RECORD
  5
30A7
330
1
100
AcDbSymbolTableRecord
100
AcDbBlockTableRecord
  2
*D9
  0
BLOCK_RECORD
  5
30B5
330
1
100
AcDbSymbolTableRecord
100
AcDbBlockTableRecord
  2
*D10
  0
BLOCK_RECORD
  5
30C1
330
1
100
AcDbSymbolTableRecord
100
AcDbBlockTableRecord
  2
*D11
  0
BLOCK_RECORD
  5
30CD
330
1
100
AcDbSymbolTableRecord
100
AcDbBlockTableRecord
  2
*D12
  0
BLOCK_RECORD
  5
30D9
330
1
100
AcDbSymbolTableRecord
100
AcDbBlockTableRecord
  2
*D13
  0
ENDTAB
  0
ENDSEC
  0
SECTION
  2
BLOCKS
  0
BLOCK
  5
1B
330
1A
100
AcDbEntity
  8
0
100
AcDbBlockBegin
  2
*MODEL_SPACE
 70
     0
 10
0.0
 20
0.0
 30
0.0
  3
*MODEL_SPACE
  1

  0
ENDBLK
  5
1C
330
1A
100
AcDbEntity
  8
0
100
AcDbBlockEnd
  0
BLOCK
  5
18
330
17
100
AcDbEntity
 67
     1
  8
0
100
AcDbBlockBegin
  2
*PAPER_SPACE
 70
     0
 10
0.0
 20
0.0
 30
0.0
  3
*PAPER_SPACE
  1

  0
ENDBLK
  5
19
330
17
100
AcDbEntity
 67
     1
  8
0
100
AcDbBlockEnd
  0
BLOCK
  5
6E
330
6D
100
AcDbEntity
  8
0
100
AcDbBlockBegin
  2
_OPEN
 70
     0
 10
0.0
 20
0.0
 30
0.0
  3
_OPEN
  1

  0
LINE
  5
6F
330
6D
100
AcDbEntity
  8
0
  6
BYBLOCK
 62
     0
100
AcDbLine
 10
-1.0
 20
0.1666666666666666
 30
0.0
 11
0.0
 21
0.0
 31
0.0
  0
LINE
  5
70
330
6D
100
AcDbEntity
  8
0
  6
BYBLOCK
 62
     0
100
AcDbLine
 10
0.0
 20
0.0
 30
0.0
 11
-1.0
 21
-0.1666666666666666
 31
0.0
  0
LINE
  5
71
330
6D
100
AcDbEntity
  8
0
  6
BYBLOCK
 62
     0
100
AcDbLine
 10
0.0
 20
0.0
 30
0.0
 11
-1.0
 21
0.0
 31
0.0
  0
ENDBLK
  5
72
330
6D
100
AcDbEntity
  8
0
100
AcDbBlockEnd
  0
BLOCK
  5
3050
330
3046
100
AcDbEntity
  8
0
100
AcDbBlockBegin
  2
*D1
 70
     1
 10
0.0
 20
0.0
 30
0.0
  3
*D1
  1

  0
LINE
  5
30E5
330
3046
100
AcDbEntity
  8
SUNPOU
 62
     4
100
AcDbLine
 10
461.8602139856402
 20
353.286529190433
 30
0.0
 11
410.1267260188619
 21
353.286529190433
 31
0.0
  0
LINE
  5
30E6
330
3046
100
AcDbEntity
  8
SUNPOU
 62
     4
100
AcDbLine
 10
509.4179139856404
 20
198.0513291904329
 30
0.0
 11
410.1267260188619
 21
198.051329190433
 31
0.0
  0
LINE
  5
30E7
330
3046
100
AcDbEntity
  8
SUNPOU
 62
     4
100
AcDbLine
 10
413.126726018862
 20
346.286529190433
 30
0.0
 11
413.126726018862
 21
205.051329190433
 31
0.0
  0
INSERT
  5
30E8
330
3046
100
AcDbEntity
  8
SUNPOU
 62
     4
100
AcDbBlockReference
  2
_OPEN
 10
413.126726018862
 20
353.286529190433
 30
0.0
 41
7.0
 42
7.0
 43
7.0
 50
90.0
  0
INSERT
  5
30E9
330
3046
100
AcDbEntity
  8
SUNPOU
 62
     4
100
AcDbBlockReference
  2
_OPEN
 10
413.126726018862
 20
198.051329190433
 30
0.0
 41
7.0
 42
7.0
 43
7.0
 50
270.0
  0
MTEXT
  5
30EA
330
3046
100
AcDbEntity
  8
SUNPOU
 62
     4
100
AcDbMText
 10
408.1267260188619
 20
275.6689291904331
 30
0.0
 40
6.0
 41
0.0
 71
     5
 72
     1
  1
\A1;155
 11
0.0000000000000001
 21
1.0
 31
0.0
1001
ACAD
1000
MTEXTBEGIN
1070
    73
1070
     1
1070
    44
1040
1.0
1070
    74
1070
     0
1000
MTEXTEND
  0
POINT
  5
30EB
330
3046
100
AcDbEntity
  8
DEFPOINTS
 62
     0
100
AcDbPoint
 10
467.8602139856403
 20
353.286529190433
 30
0.0
  0
POINT
  5
30EC
330
3046
100
AcDbEntity
  8
DEFPOINTS
 62
     0
100
AcDbPoint
 10
515.4179139856402
 20
198.0513291904329
 30
0.0
  0
POINT
  5
30ED
330
3046
100
AcDbEntity
  8
DEFPOINTS
 62
     0
100
AcDbPoint
 10
413.126726018862
 20
198.051329190433
 30
0.0
  0
ENDBLK
  5
3051
330
3046
100
AcDbEntity
  8
0
100
AcDbBlockEnd
  0
BLOCK
  5
305C
330
3052
100
AcDbEntity
  8
0
100
AcDbBlockBegin
  2
*D2
 70
     1
 10
0.0
 20
0.0
 30
0.0
  3
*D2
  1

  0
LINE
  5
30EE
330
3052
100
AcDbEntity
  8
SUNPOU
 62
     4
100
AcDbLine
 10
309.5891607311154
 20
285.1106291904329
 30
0.0
 11
309.5891607311154
 21
162.5088584588995
 31
0.0
  0
LINE
  5
30EF
330
3052
100
AcDbEntity
  8
SUNPOU
 62
     4
100
AcDbLine
 10
185.5888607311155
 20
285.1107291904329
 30
0.0
 11
185.5888607311155
 21
162.5088584588995
 31
0.0
  0
LINE
  5
30F0
330
3052
100
AcDbEntity
  8
SUNPOU
 62
     4
100
AcDbLine
 10
302.5891607311154
 20
165.5088584588995
 30
0.0
 11
192.5888607311155
 21
165.5088584588995
 31
0.0
  0
INSERT
  5
30F1
330
3052
100
AcDbEntity
  8
SUNPOU
 62
     4
100
AcDbBlockReference
  2
_OPEN
 10
309.5891607311154
 20
165.5088584588995
 30
0.0
 41
7.0
 42
7.0
 43
7.0
  0
INSERT
  5
30F2
330
3052
100
AcDbEntity
  8
SUNPOU
 62
     4
100
AcDbBlockReference
  2
_OPEN
 10
185.5888607311155
 20
165.5088584588995
 30
0.0
 41
7.0
 42
7.0
 43
7.0
 50
180.0
  0
MTEXT
  5
30F3
330
3052
100
AcDbEntity
  8
SUNPOU
 62
     4
100
AcDbMText
 10
247.5890107311154
 20
170.5088584588995
 30
0.0
 40
6.0
 41
0.0
 71
     5
 72
     1
  1
\A1;124
1001
ACAD
1000
MTEXTBEGIN
1070
    73
1070
     1
1070
    44
1040
1.0
1070
    74
1070
     0
1000
MTEXTEND
  0
POINT
  5
30F4
330
3052
100
AcDbEntity
  8
DEFPOINTS
 62
     0
100
AcDbPoint
 10
309.5891607311154
 20
291.1106291904329
 30
0.0
  0
POINT
  5
30F5
330
3052
100
AcDbEntity
  8
DEFPOINTS
 62
     0
100
AcDbPoint
 10
185.5888607311155
 20
291.1107291904329
 30
0.0
  0
POINT
  5
30F6
330
3052
100
AcDbEntity
  8
DEFPOINTS
 62
     0
100
AcDbPoint
 10
185.5888607311155
 20
165.5088584588995
 30
0.0
  0
ENDBLK
  5
305D
330
3052
100
AcDbEntity
  8
0
100
AcDbBlockEnd
  0
BLOCK
  5
3068
330
305E
100
AcDbEntity
  8
0
100
AcDbBlockBegin
  2
*D3
 70
     1
 10
0.0
 20
0.0
 30
0.0
  3
*D3
  1

  0
LINE
  5
30F7
330
305E
100
AcDbEntity
  8
SUNPOU
 62
     4
100
AcDbLine
 10
327.5891607311155
 20
360.252129190433
 30
0.0
 11
327.5891607311155
 21
408.6630440965518
 31
0.0
  0
LINE
  5
30F8
330
305E
100
AcDbEntity
  8
SUNPOU
 62
     4
100
AcDbLine
 10
167.5889607311154
 20
360.252229190433
 30
0.0
 11
167.5889607311154
 21
408.6630440965518
 31
0.0
  0
LINE
  5
30F9
330
305E
100
AcDbEntity
  8
SUNPOU
 62
     4
100
AcDbLine
 10
320.5891607311155
 20
405.6630440965518
 30
0.0
 11
174.5889607311154
 21
405.6630440965518
 31
0.0
  0
INSERT
  5
30FA
330
305E
100
AcDbEntity
  8
SUNPOU
 62
     4
100
AcDbBlockReference
  2
_OPEN
 10
327.5891607311155
 20
405.6630440965518
 30
0.0
 41
7.0
 42
7.0
 43
7.0
  0
INSERT
  5
30FB
330
305E
100
AcDbEntity
  8
SUNPOU
 62
     4
100
AcDbBlockReference
  2
_OPEN
 10
167.5889607311154
 20
405.6630440965518
 30
0.0
 41
7.0
 42
7.0
 43
7.0
 50
180.0
  0
MTEXT
  5
30FC
330
305E
100
AcDbEntity
  8
SUNPOU
 62
     4
100
AcDbMText
 10
247.5890607311155
 20
410.6630440965518
 30
0.0
 40
6.0
 41
0.0
 71
     5
 72
     1
  1
\A1;160
1001
ACAD
1000
MTEXTBEGIN
1070
    73
1070
     1
1070
    44
1040
1.0
1070
    74
1070
     0
1000
MTEXTEND
  0
POINT
  5
30FD
330
305E
100
AcDbEntity
  8
DEFPOINTS
 62
     0
100
AcDbPoint
 10
327.5891607311155
 20
354.252129190433
 30
0.0
  0
POINT
  5
30FE
330
305E
100
AcDbEntity
  8
DEFPOINTS
 62
     0
100
AcDbPoint
 10
167.5889607311154
 20
354.2522291904329
 30
0.0
  0
POINT
  5
30FF
330
305E
100
AcDbEntity
  8
DEFPOINTS
 62
     0
100
AcDbPoint
 10
167.5889607311154
 20
405.6630440965518
 30
0.0
  0
ENDBLK
  5
3069
330
305E
100
AcDbEntity
  8
0
100
AcDbBlockEnd
  0
BLOCK
  5
3074
330
306A
100
AcDbEntity
  8
0
100
AcDbBlockBegin
  2
*D4
 70
     1
 10
0.0
 20
0.0
 30
0.0
  3
*D4
  1

  0
LINE
  5
3100
330
306A
100
AcDbEntity
  8
SUNPOU
 62
     4
100
AcDbLine
 10
327.5891590387181
 20
359.3145291904328
 30
0.0
 11
327.5891590387181
 21
391.2300189429002
 31
0.0
  0
LINE
  5
3101
330
306A
100
AcDbEntity
  8
SUNPOU
 62
     4
100
AcDbLine
 10
272.5890532608033
 20
359.3145291904328
 30
0.0
 11
272.5890532608033
 21
391.2300189429002
 31
0.0
  0
LINE
  5
3102
330
306A
100
AcDbEntity
  8
SUNPOU
 62
     4
100
AcDbLine
 10
320.5891590387181
 20
388.2300189429002
 30
0.0
 11
279.5890532608033
 21
388.2300189429002
 31
0.0
  0
INSERT
  5
3103
330
306A
100
AcDbEntity
  8
SUNPOU
 62
     4
100
AcDbBlockReference
  2
_OPEN
 10
327.5891590387181
 20
388.2300189429002
 30
0.0
 41
7.0
 42
7.0
 43
7.0
  0
INSERT
  5
3104
330
306A
100
AcDbEntity
  8
SUNPOU
 62
     4
100
AcDbBlockReference
  2
_OPEN
 10
272.5890532608033
 20
388.2300189429002
 30
0.0
 41
7.0
 42
7.0
 43
7.0
 50
180.0
  0
MTEXT
  5
3105
330
306A
100
AcDbEntity
  8
SUNPOU
 62
     4
100
AcDbMText
 10
300.0891061497607
 20
393.2300189429001
 30
0.0
 40
6.0
 41
0.0
 71
     5
 72
     1
  1
\A1;※a 55
1001
ACAD
1000
MTEXTBEGIN
1070
    73
1070
     1
1070
    44
1040
1.0
1070
    74
1070
     0
1000
MTEXTEND
  0
POINT
  5
3106
330
306A
100
AcDbEntity
  8
DEFPOINTS
 62
     0
100
AcDbPoint
 10
327.5891590387181
 20
353.3145291904328
 30
0.0
  0
POINT
  5
3107
330
306A
100
AcDbEntity
  8
DEFPOINTS
 62
     0
100
AcDbPoint
 10
272.5890532608033
 20
353.3145291904328
 30
0.0
  0
POINT
  5
3108
330
306A
100
AcDbEntity
  8
DEFPOINTS
 62
     0
100
AcDbPoint
 10
272.5890532608033
 20
388.2300189429002
 30
0.0
  0
ENDBLK
  5
3075
330
306A
100
AcDbEntity
  8
0
100
AcDbBlockEnd
  0
BLOCK
  5
307F
330
3076
100
AcDbEntity
  8
0
100
AcDbBlockBegin
  2
*D5
 70
     1
 10
0.0
 20
0.0
 30
0.0
  3
*D5
  1

  0
LINE
  5
3187
330
3076
100
AcDbEntity
  8
SUNPOU
 62
     4
100
AcDbLine
 10
222.5890532608131
 20
359.3145604404891
 30
0.0
 11
222.5890532608131
 21
391.2300189429002
 31
0.0
  0
LINE
  5
3188
330
3076
100
AcDbEntity
  8
SUNPOU
 62
     4
100
AcDbLine
 10
265.5890532608033
 20
388.2300189429002
 30
0.0
 11
229.589053260813
 21
388.2300189429002
 31
0.0
  0
INSERT
  5
3189
330
3076
100
AcDbEntity
  8
SUNPOU
 62
     4
100
AcDbBlockReference
  2
_OPEN
 10
272.5890532608033
 20
388.2300189429002
 30
0.0
 41
7.0
 42
7.0
 43
7.0
  0
INSERT
  5
318A
330
3076
100
AcDbEntity
  8
SUNPOU
 62
     4
100
AcDbBlockReference
  2
_OPEN
 10
222.5890532608131
 20
388.2300189429002
 30
0.0
 41
7.0
 42
7.0
 43
7.0
 50
180.0
  0
MTEXT
  5
318B
330
3076
100
AcDbEntity
  8
SUNPOU
 62
     4
100
AcDbMText
 10
247.5890532608082
 20
393.2300189429001
 30
0.0
 40
6.0
 41
0.0
 71
     5
 72
     1
  1
\A1;50
  0
POINT
  5
318C
330
3076
100
AcDbEntity
  8
DEFPOINTS
 62
     0
100
AcDbPoint
 10
272.5890532608033
 20
353.3145291904328
 30
0.0
  0
POINT
  5
318D
330
3076
100
AcDbEntity
  8
DEFPOINTS
 62
     0
100
AcDbPoint
 10
222.5890532608131
 20
353.3145604404891
 30
0.0
  0
POINT
  5
318E
330
3076
100
AcDbEntity
  8
DEFPOINTS
 62
     0
100
AcDbPoint
 10
222.5890532608131
 20
388.2300189429002
 30
0.0
  0
ENDBLK
  5
3080
330
3076
100
AcDbEntity
  8
0
100
AcDbBlockEnd
  0
BLOCK
  5
308B
330
3081
100
AcDbEntity
  8
0
100
AcDbBlockBegin
  2
*D6
 70
     1
 10
0.0
 20
0.0
 30
0.0
  3
*D6
  1

  0
LINE
  5
3111
330
3081
100
AcDbEntity
  8
SUNPOU
 62
     4
100
AcDbLine
 10
581.3180139856402
 20
207.0512291904329
 30
0.0
 11
581.3180139856402
 21
143.1372059711154
 31
0.0
  0
LINE
  5
3112
330
3081
100
AcDbEntity
  8
SUNPOU
 62
     4
100
AcDbLine
 10
507.9181139856403
 20
207.0513291904329
 30
0.0
 11
507.9181139856403
 21
143.1372059711154
 31
0.0
  0
LINE
  5
3113
330
3081
100
AcDbEntity
  8
SUNPOU
 62
     4
100
AcDbLine
 10
574.3180139856401
 20
146.1372059711154
 30
0.0
 11
514.9181139856402
 21
146.1372059711154
 31
0.0
  0
INSERT
  5
3114
330
3081
100
AcDbEntity
  8
SUNPOU
 62
     4
100
AcDbBlockReference
  2
_OPEN
 10
581.3180139856402
 20
146.1372059711154
 30
0.0
 41
7.0
 42
7.0
 43
7.0
  0
INSERT
  5
3115
330
3081
100
AcDbEntity
  8
SUNPOU
 62
     4
100
AcDbBlockReference
  2
_OPEN
 10
507.9181139856403
 20
146.1372059711154
 30
0.0
 41
7.0
 42
7.0
 43
7.0
 50
180.0
  0
MTEXT
  5
3116
330
3081
100
AcDbEntity
  8
SUNPOU
 62
     4
100
AcDbMText
 10
544.6180639856402
 20
151.1372059711154
 30
0.0
 40
6.0
 41
0.0
 71
     5
 72
     1
  1
\A1;73
1001
ACAD
1000
MTEXTBEGIN
1070
    73
1070
     1
1070
    44
1040
1.0
1070
    74
1070
     0
1000
MTEXTEND
  0
POINT
  5
3117
330
3081
100
AcDbEntity
  8
DEFPOINTS
 62
     0
100
AcDbPoint
 10
581.3180139856402
 20
213.0512291904329
 30
0.0
  0
POINT
  5
3118
330
3081
100
AcDbEntity
  8
DEFPOINTS
 62
     0
100
AcDbPoint
 10
507.9181139856403
 20
213.0513291904329
 30
0.0
  0
POINT
  5
3119
330
3081
100
AcDbEntity
  8
DEFPOINTS
 62
     0
100
AcDbPoint
 10
507.9181139856403
 20
146.1372059711154
 30
0.0
  0
ENDBLK
  5
308C
330
3081
100
AcDbEntity
  8
0
100
AcDbBlockEnd
  0
BLOCK
  5
3097
330
308D
100
AcDbEntity
  8
0
100
AcDbBlockBegin
  2
*D7
 70
     1
 10
0.0
 20
0.0
 30
0.0
  3
*D7
  1

  0
LINE
  5
311A
330
308D
100
AcDbEntity
  8
SUNPOU
 62
     4
100
AcDbLine
 10
573.8183139856403
 20
192.0512291904329
 30
0.0
 11
573.8183139856403
 21
162.6516267934721
 31
0.0
  0
LINE
  5
311B
330
308D
100
AcDbEntity
  8
SUNPOU
 62
     4
100
AcDbLine
 10
515.4179139856402
 20
192.0513291904329
 30
0.0
 11
515.4179139856402
 21
162.6516267934721
 31
0.0
  0
LINE
  5
311C
330
308D
100
AcDbEntity
  8
SUNPOU
 62
     4
100
AcDbLine
 10
566.8183139856402
 20
165.6516267934721
 30
0.0
 11
522.4179139856403
 21
165.6516267934721
 31
0.0
  0
INSERT
  5
311D
330
308D
100
AcDbEntity
  8
SUNPOU
 62
     4
100
AcDbBlockReference
  2
_OPEN
 10
573.8183139856403
 20
165.6516267934721
 30
0.0
 41
7.0
 42
7.0
 43
7.0
  0
INSERT
  5
311E
330
308D
100
AcDbEntity
  8
SUNPOU
 62
     4
100
AcDbBlockReference
  2
_OPEN
 10
515.4179139856402
 20
165.6516267934721
 30
0.0
 41
7.0
 42
7.0
 43
7.0
 50
180.0
  0
MTEXT
  5
311F
330
308D
100
AcDbEntity
  8
SUNPOU
 62
     4
100
AcDbMText
 10
544.6181139856403
 20
170.6516267934721
 30
0.0
 40
6.0
 41
0.0
 71
     5
 72
     1
  1
\A1;φ58
1001
ACAD
1000
MTEXTBEGIN
1070
    73
1070
     1
1070
    44
1040
1.0
1070
    74
1070
     0
1000
MTEXTEND
  0
POINT
  5
3120
330
308D
100
AcDbEntity
  8
DEFPOINTS
 62
     0
100
AcDbPoint
 10
573.8183139856403
 20
198.0512291904329
 30
0.0
  0
POINT
  5
3121
330
308D
100
AcDbEntity
  8
DEFPOINTS
 62
     0
100
AcDbPoint
 10
515.4179139856402
 20
198.0513291904329
 30
0.0
  0
POINT
  5
3122
330
308D
100
AcDbEntity
  8
DEFPOINTS
 62
     0
100
AcDbPoint
 10
515.4179139856402
 20
165.6516267934721
 30
0.0
  0
ENDBLK
  5
3098
330
308D
100
AcDbEntity
  8
0
100
AcDbBlockEnd
  0
BLOCK
  5
30A5
330
3099
100
AcDbEntity
  8
0
100
AcDbBlockBegin
  2
*D8
 70
     1
 10
0.0
 20
0.0
 30
0.0
  3
*D8
  1

  0
LINE
  5
3123
330
3099
100
AcDbEntity
  8
SUNPOU
 62
     4
100
AcDbLine
 10
526.6182139856403
 20
276.8469291904328
 30
0.0
 11
526.6182139856403
 21
266.3722915166836
 31
0.0
  0
LINE
  5
3124
330
3099
100
AcDbEntity
  8
SUNPOU
 62
     4
100
AcDbLine
 10
544.6182139856403
 20
266.6293270355487
 30
0.0
 11
544.6182139856403
 21
272.3722915166836
 31
0.0
  0
LINE
  5
3125
330
3099
100
AcDbEntity
  8
SUNPOU
 62
     4
100
AcDbLine
 10
519.6182139856403
 20
269.3722915166836
 30
0.0
 11
512.6182139856402
 21
269.3722915166836
 31
0.0
  0
LINE
  5
3126
330
3099
100
AcDbEntity
  8
SUNPOU
 62
     4
100
AcDbLine
 10
551.6182139856403
 20
269.3722915166836
 30
0.0
 11
558.6182139856402
 21
269.3722915166836
 31
0.0
  0
LINE
  5
3127
330
3099
100
AcDbEntity
  8
SUNPOU
 62
     4
100
AcDbLine
 10
526.6182139856403
 20
269.3722915166836
 30
0.0
 11
544.6182139856403
 21
269.3722915166836
 31
0.0
  0
INSERT
  5
3128
330
3099
100
AcDbEntity
  8
SUNPOU
 62
     4
100
AcDbBlockReference
  2
_OPEN
 10
526.6182139856403
 20
269.3722915166836
 30
0.0
 41
7.0
 42
7.0
 43
7.0
  0
INSERT
  5
3129
330
3099
100
AcDbEntity
  8
SUNPOU
 62
     4
100
AcDbBlockReference
  2
_OPEN
 10
544.6182139856403
 20
269.3722915166836
 30
0.0
 41
7.0
 42
7.0
 43
7.0
 50
180.0
  0
MTEXT
  5
312A
330
3099
100
AcDbEntity
  8
SUNPOU
 62
     4
100
AcDbMText
 10
535.6182139856403
 20
274.3722915166836
 30
0.0
 40
6.0
 41
0.0
 71
     5
 72
     1
  1
\A1;18
1001
ACAD
1000
MTEXTBEGIN
1070
    73
1070
     1
1070
    44
1040
1.0
1070
    74
1070
     0
1000
MTEXTEND
  0
POINT
  5
312B
330
3099
100
AcDbEntity
  8
DEFPOINTS
 62
     0
100
AcDbPoint
 10
526.6182139856403
 20
282.8469291904328
 30
0.0
  0
POINT
  5
312C
330
3099
100
AcDbEntity
  8
DEFPOINTS
 62
     0
100
AcDbPoint
 10
544.6182139856403
 20
260.6293270355487
 30
0.0
  0
POINT
  5
312D
330
3099
100
AcDbEntity
  8
DEFPOINTS
 62
     0
100
AcDbPoint
 10
544.6182139856403
 20
269.3722915166836
 30
0.0
  0
ENDBLK
  5
30A6
330
3099
100
AcDbEntity
  8
0
100
AcDbBlockEnd
  0
BLOCK
  5
30B3
330
30A7
100
AcDbEntity
  8
0
100
AcDbBlockBegin
  2
*D9
 70
     1
 10
0.0
 20
0.0
 30
0.0
  3
*D9
  1

  0
LINE
  5
312E
330
30A7
100
AcDbEntity
  8
SUNPOU
 62
     4
100
AcDbLine
 10
585.6180139856403
 20
209.0511291904328
 30
0.0
 11
625.0068412453906
 21
209.0511291904328
 31
0.0
  0
LINE
  5
312F
330
30A7
100
AcDbEntity
  8
SUNPOU
 62
     4
100
AcDbLine
 10
587.4036981989704
 20
219.0511240885188
 30
0.0
 11
625.0068412453906
 21
219.0511240885188
 31
0.0
  0
LINE
  5
3130
330
30A7
100
AcDbEntity
  8
SUNPOU
 62
     4
100
AcDbLine
 10
622.0068412453906
 20
202.0511291904328
 30
0.0
 11
622.0068412453906
 21
195.0511291904328
 31
0.0
  0
LINE
  5
3131
330
30A7
100
AcDbEntity
  8
SUNPOU
 62
     4
100
AcDbLine
 10
622.0068412453906
 20
226.0511240885187
 30
0.0
 11
622.0068412453907
 21
260.8511240885188
 31
0.0
  0
LINE
  5
3132
330
30A7
100
AcDbEntity
  8
SUNPOU
 62
     4
100
AcDbLine
 10
622.0068412453906
 20
209.0511291904328
 30
0.0
 11
622.0068412453906
 21
219.0511240885188
 31
0.0
  0
INSERT
  5
3133
330
30A7
100
AcDbEntity
  8
SUNPOU
 62
     4
100
AcDbBlockReference
  2
_OPEN
 10
622.0068412453906
 20
209.0511291904328
 30
0.0
 41
7.0
 42
7.0
 43
7.0
 50
90.0
  0
INSERT
  5
3134
330
30A7
100
AcDbEntity
  8
SUNPOU
 62
     4
100
AcDbBlockReference
  2
_OPEN
 10
622.0068412453906
 20
219.0511240885188
 30
0.0
 41
7.0
 42
7.0
 43
7.0
 50
270.0
  0
MTEXT
  5
3135
330
30A7
100
AcDbEntity
  8
SUNPOU
 62
     4
100
AcDbMText
 10
617.0068412453907
 20
246.9511240885189
 30
0.0
 40
6.0
 41
0.0
 71
     5
 72
     1
  1
\A1;※b 10
 11
0.0000000000000001
 21
1.0
 31
0.0
1001
ACAD
1000
MTEXTBEGIN
1070
    73
1070
     1
1070
    44
1040
1.0
1070
    74
1070
     0
1000
MTEXTEND
  0
POINT
  5
3136
330
30A7
100
AcDbEntity
  8
DEFPOINTS
 62
     0
100
AcDbPoint
 10
579.6180139856403
 20
209.0511291904328
 30
0.0
  0
POINT
  5
3137
330
30A7
100
AcDbEntity
  8
DEFPOINTS
 62
     0
100
AcDbPoint
 10
581.4036981989704
 20
219.0511240885188
 30
0.0
  0
POINT
  5
3138
330
30A7
100
AcDbEntity
  8
DEFPOINTS
 62
     0
100
AcDbPoint
 10
622.0068412453906
 20
219.0511240885188
 30
0.0
  0
ENDBLK
  5
30B4
330
30A7
100
AcDbEntity
  8
0
100
AcDbBlockEnd
  0
BLOCK
  5
30BF
330
30B5
100
AcDbEntity
  8
0
100
AcDbBlockBegin
  2
*D10
 70
     1
 10
0.0
 20
0.0
 30
0.0
  3
*D10
  1

  0
LINE
  5
3139
330
30B5
100
AcDbEntity
  8
SUNPOU
 62
     4
100
AcDbLine
 10
586.4032139856401
 20
358.2869291904328
 30
0.0
 11
586.4032139856401
 21
408.5022868697098
 31
0.0
  0
LINE
  5
313A
330
30B5
100
AcDbEntity
  8
SUNPOU
 62
     4
100
AcDbLine
 10
466.8332139856403
 20
358.2869291904328
 30
0.0
 11
466.8332139856403
 21
408.5022868697098
 31
0.0
  0
LINE
  5
313B
330
30B5
100
AcDbEntity
  8
SUNPOU
 62
     4
100
AcDbLine
 10
579.4032139856401
 20
405.5022868697098
 30
0.0
 11
473.8332139856403
 21
405.5022868697098
 31
0.0
  0
INSERT
  5
313C
330
30B5
100
AcDbEntity
  8
SUNPOU
 62
     4
100
AcDbBlockReference
  2
_OPEN
 10
586.4032139856401
 20
405.5022868697098
 30
0.0
 41
7.0
 42
7.0
 43
7.0
  0
INSERT
  5
313D
330
30B5
100
AcDbEntity
  8
SUNPOU
 62
     4
100
AcDbBlockReference
  2
_OPEN
 10
466.8332139856403
 20
405.5022868697098
 30
0.0
 41
7.0
 42
7.0
 43
7.0
 50
180.0
  0
MTEXT
  5
313E
330
30B5
100
AcDbEntity
  8
SUNPOU
 62
     4
100
AcDbMText
 10
526.6182139856403
 20
410.5022868697098
 30
0.0
 40
6.0
 41
0.0
 71
     5
 72
     1
  1
\A1;120
1001
ACAD
1000
MTEXTBEGIN
1070
    73
1070
     1
1070
    44
1040
1.0
1070
    74
1070
     0
1000
MTEXTEND
  0
POINT
  5
313F
330
30B5
100
AcDbEntity
  8
DEFPOINTS
 62
     0
100
AcDbPoint
 10
586.4032139856401
 20
352.2869291904328
 30
0.0
  0
POINT
  5
3140
330
30B5
100
AcDbEntity
  8
DEFPOINTS
 62
     0
100
AcDbPoint
 10
466.8332139856403
 20
352.2869291904328
 30
0.0
  0
POINT
  5
3141
330
30B5
100
AcDbEntity
  8
DEFPOINTS
 62
     0
100
AcDbPoint
 10
466.8332139856403
 20
405.5022868697098
 30
0.0
  0
ENDBLK
  5
30C0
330
30B5
100
AcDbEntity
  8
0
100
AcDbBlockEnd
  0
BLOCK
  5
30CB
330
30C1
100
AcDbEntity
  8
0
100
AcDbBlockBegin
  2
*D11
 70
     1
 10
0.0
 20
0.0
 30
0.0
  3
*D11
  1

  0
LINE
  5
3142
330
30C1
100
AcDbEntity
  8
SUNPOU
 62
     4
100
AcDbLine
 10
586.4032139856401
 20
358.2869291904328
 30
0.0
 11
586.4032139856401
 21
390.7603996004926
 31
0.0
  0
LINE
  5
3143
330
30C1
100
AcDbEntity
  8
SUNPOU
 62
     4
100
AcDbLine
 10
526.6182139856403
 20
316.6513291904328
 30
0.0
 11
526.6182139856403
 21
390.7603996004926
 31
0.0
  0
LINE
  5
3144
330
30C1
100
AcDbEntity
  8
SUNPOU
 62
     4
100
AcDbLine
 10
579.4032139856401
 20
387.7603996004927
 30
0.0
 11
533.6182139856402
 21
387.7603996004927
 31
0.0
  0
INSERT
  5
3145
330
30C1
100
AcDbEntity
  8
SUNPOU
 62
     4
100
AcDbBlockReference
  2
_OPEN
 10
586.4032139856401
 20
387.7603996004927
 30
0.0
 41
7.0
 42
7.0
 43
7.0
  0
INSERT
  5
3146
330
30C1
100
AcDbEntity
  8
SUNPOU
 62
     4
100
AcDbBlockReference
  2
_OPEN
 10
526.6182139856403
 20
387.7603996004927
 30
0.0
 41
7.0
 42
7.0
 43
7.0
 50
180.0
  0
MTEXT
  5
3147
330
30C1
100
AcDbEntity
  8
SUNPOU
 62
     4
100
AcDbMText
 10
556.5107139856402
 20
392.7603996004926
 30
0.0
 40
6.0
 41
0.0
 71
     5
 72
     1
  1
\A1;60
1001
ACAD
1000
MTEXTBEGIN
1070
    73
1070
     1
1070
    44
1040
1.0
1070
    74
1070
     0
1000
MTEXTEND
  0
POINT
  5
3148
330
30C1
100
AcDbEntity
  8
DEFPOINTS
 62
     0
100
AcDbPoint
 10
586.4032139856401
 20
352.2869291904328
 30
0.0
  0
POINT
  5
3149
330
30C1
100
AcDbEntity
  8
DEFPOINTS
 62
     0
100
AcDbPoint
 10
526.6182139856403
 20
310.6513291904328
 30
0.0
  0
POINT
  5
314A
330
30C1
100
AcDbEntity
  8
DEFPOINTS
 62
     0
100
AcDbPoint
 10
526.6182139856403
 20
387.7603996004927
 30
0.0
  0
ENDBLK
  5
30CC
330
30C1
100
AcDbEntity
  8
0
100
AcDbBlockEnd
  0
BLOCK
  5
30D7
330
30CD
100
AcDbEntity
  8
0
100
AcDbBlockBegin
  2
*D12
 70
     1
 10
0.0
 20
0.0
 30
0.0
  3
*D12
  1

  0
LINE
  5
314B
330
30CD
100
AcDbEntity
  8
SUNPOU
 62
     4
100
AcDbLine
 10
461.8602139856402
 20
353.286529190433
 30
0.0
 11
428.1135168311894
 21
353.286529190433
 31
0.0
  0
LINE
  5
314C
330
30CD
100
AcDbEntity
  8
SUNPOU
 62
     4
100
AcDbLine
 10
483.8794139856402
 20
297.0512291904329
 30
0.0
 11
428.1135168311894
 21
297.0512291904329
 31
0.0
  0
LINE
  5
314D
330
30CD
100
AcDbEntity
  8
SUNPOU
 62
     4
100
AcDbLine
 10
431.1135168311893
 20
346.286529190433
 30
0.0
 11
431.1135168311893
 21
304.0512291904328
 31
0.0
  0
INSERT
  5
314E
330
30CD
100
AcDbEntity
  8
SUNPOU
 62
     4
100
AcDbBlockReference
  2
_OPEN
 10
431.1135168311893
 20
353.286529190433
 30
0.0
 41
7.0
 42
7.0
 43
7.0
 50
90.0
  0
INSERT
  5
314F
330
30CD
100
AcDbEntity
  8
SUNPOU
 62
     4
100
AcDbBlockReference
  2
_OPEN
 10
431.1135168311893
 20
297.0512291904329
 30
0.0
 41
7.0
 42
7.0
 43
7.0
 50
270.0
  0
MTEXT
  5
3150
330
30CD
100
AcDbEntity
  8
SUNPOU
 62
     4
100
AcDbMText
 10
426.1135168311893
 20
325.168879190433
 30
0.0
 40
6.0
 41
0.0
 71
     5
 72
     1
  1
\A1;56
 11
0.0000000000000001
 21
1.0
 31
0.0
1001
ACAD
1000
MTEXTBEGIN
1070
    73
1070
     1
1070
    44
1040
1.0
1070
    74
1070
     0
1000
MTEXTEND
  0
POINT
  5
3151
330
30CD
100
AcDbEntity
  8
DEFPOINTS
 62
     0
100
AcDbPoint
 10
467.8602139856403
 20
353.286529190433
 30
0.0
  0
POINT
  5
3152
330
30CD
100
AcDbEntity
  8
DEFPOINTS
 62
     0
100
AcDbPoint
 10
489.8794139856403
 20
297.0512291904329
 30
0.0
  0
POINT
  5
3153
330
30CD
100
AcDbEntity
  8
DEFPOINTS
 62
     0
100
AcDbPoint
 10
431.1135168311893
 20
297.0512291904329
 30
0.0
  0
ENDBLK
  5
30D8
330
30CD
100
AcDbEntity
  8
0
100
AcDbBlockEnd
  0
BLOCK
  5
30E3
330
30D9
100
AcDbEntity
  8
0
100
AcDbBlockBegin
  2
*D13
 70
     1
 10
0.0
 20
0.0
 30
0.0
  3
*D13
  1

  0
LINE
  5
3154
330
30D9
100
AcDbEntity
  8
SUNPOU
 62
     4
100
AcDbLine
 10
592.4032139856401
 20
353.3142886498925
 30
0.0
 11
628.5351657974997
 21
353.3142886498925
 31
0.0
  0
LINE
  5
3155
330
30D9
100
AcDbEntity
  8
SUNPOU
 62
     4
100
AcDbLine
 10
569.3570139856401
 20
297.0512291904329
 30
0.0
 11
628.5351657974997
 21
297.0512291904329
 31
0.0
  0
LINE
  5
3156
330
30D9
100
AcDbEntity
  8
SUNPOU
 62
     4
100
AcDbLine
 10
625.5351657974998
 20
346.3142886498925
 30
0.0
 11
625.5351657974998
 21
304.0512291904328
 31
0.0
  0
INSERT
  5
3157
330
30D9
100
AcDbEntity
  8
SUNPOU
 62
     4
100
AcDbBlockReference
  2
_OPEN
 10
625.5351657974998
 20
353.3142886498925
 30
0.0
 41
7.0
 42
7.0
 43
7.0
 50
90.0
  0
INSERT
  5
3158
330
30D9
100
AcDbEntity
  8
SUNPOU
 62
     4
100
AcDbBlockReference
  2
_OPEN
 10
625.5351657974998
 20
297.0512291904329
 30
0.0
 41
7.0
 42
7.0
 43
7.0
 50
270.0
  0
MTEXT
  5
3159
330
30D9
100
AcDbEntity
  8
SUNPOU
 62
     4
100
AcDbMText
 10
620.5351657974996
 20
325.1827589201627
 30
0.0
 40
6.0
 41
0.0
 71
     5
 72
     1
  1
\A1;56
 11
0.0000000000000001
 21
1.0
 31
0.0
1001
ACAD
1000
MTEXTBEGIN
1070
    73
1070
     1
1070
    44
1040
1.0
1070
    74
1070
     0
1000
MTEXTEND
  0
POINT
  5
315A
330
30D9
100
AcDbEntity
  8
DEFPOINTS
 62
     0
100
AcDbPoint
 10
586.4032139856401
 20
353.3142886498925
 30
0.0
  0
POINT
  5
315B
330
30D9
100
AcDbEntity
  8
DEFPOINTS
 62
     0
100
AcDbPoint
 10
563.3570139856401
 20
297.0512291904329
 30
0.0
  0
POINT
  5
315C
330
30D9
100
AcDbEntity
  8
DEFPOINTS
 62
     0
100
AcDbPoint
 10
625.5351657974998
 20
297.0512291904329
 30
0.0
  0
ENDBLK
  5
30E4
330
30D9
100
AcDbEntity
  8
0
100
AcDbBlockEnd
  0
ENDSEC
  0
SECTION
  2
ENTITIES
  0
LINE
  5
1390
330
1A
100
AcDbEntity
  8
ZUWAKU
100
AcDbLine
 10
208.646601303624
 20
15.19999986828872
 30
0.0
 11
447.4243639845474
 21
15.19999986828871
 31
0.0
  0
LINE
  5
1391
330
1A
100
AcDbEntity
  8
ZUWAKU
100
AcDbLine
 10
208.646601303624
 20
15.59999986828871
 30
0.0
 11
447.4243639845474
 21
15.59999986828872
 31
0.0
  0
LINE
  5
1392
330
1A
100
AcDbEntity
  8
ZUWAKU
100
AcDbLine
 10
208.646601303624
 20
15.39999986828871
 30
0.0
 11
447.4243639845474
 21
15.39999986828871
 31
0.0
  0
LINE
  5
1393
330
1A
100
AcDbEntity
  8
ZUWAKU
100
AcDbLine
 10
0.0000000135560185
 20
30.79999986828869
 30
0.0
 11
797.4000000135559
 21
30.79999986828869
 31
0.0
  0
LINE
  5
1394
330
1A
100
AcDbEntity
  8
ZUWAKU
100
AcDbLine
 10
0.0000000135560185
 20
30.59999986828869
 30
0.0
 11
797.4000000135559
 21
30.59999986828869
 31
0.0
  0
LINE
  5
1395
330
1A
100
AcDbEntity
  8
ZUWAKU
100
AcDbLine
 10
0.0000000135560185
 20
30.39999986828869
 30
0.0
 11
797.4000000135559
 21
30.39999986828869
 31
0.0
  0
LINE
  5
1396
330
1A
100
AcDbEntity
  8
ZUWAKU
100
AcDbLine
 10
0.0000000135560185
 20
30.19999986828868
 30
0.0
 11
797.4000000135559
 21
30.19999986828868
 31
0.0
  0
LINE
  5
1397
330
1A
100
AcDbEntity
  8
ZUWAKU
100
AcDbLine
 10
0.0000000135560185
 20
29.99999986828868
 30
0.0
 11
797.4000000135559
 21
29.99999986828868
 31
0.0
  0
LWPOLYLINE
  5
1398
330
1A
100
AcDbEntity
  8
ZUWAKU
100
AcDbPolyline
 90
        4
 70
     1
 43
0.0
 10
0.2000000135559503
 20
551.3999998682887
 10
0.2000000135559503
 20
0.1999998682887281
 10
797.4000000135559
 20
0.1999998682887511
 10
797.4000000135561
 20
551.3999998682887
  0
LWPOLYLINE
  5
1399
330
1A
100
AcDbEntity
  8
ZUWAKU
100
AcDbPolyline
 90
        4
 70
     1
 43
0.0
 10
0.6000000135559276
 20
550.9999998682888
 10
0.6000000135559276
 20
0.5999998682887054
 10
797.0000000135562
 20
0.5999998682887516
 10
797.000000013556
 20
550.9999998682888
  0
LWPOLYLINE
  5
139A
330
1A
100
AcDbEntity
  8
ZUWAKU
100
AcDbPolyline
 90
        4
 70
     1
 43
0.0
 10
0.0000000135560185
 20
551.5999998682887
 10
0.0000000135560185
 20
-0.0000001317113174
 10
797.6000000135561
 20
-0.0000001317112499
 10
797.6000000135561
 20
551.5999998682888
  0
LWPOLYLINE
  5
139B
330
1A
100
AcDbEntity
  8
ZUWAKU
100
AcDbPolyline
 90
        4
 70
     1
 43
0.0
 10
0.4000000135559958
 20
551.1999998682887
 10
0.4000000135559958
 20
0.3999998682887735
 10
797.200000013556
 20
0.3999998682887504
 10
797.200000013556
 20
551.1999998682887
  0
LWPOLYLINE
  5
139C
330
1A
100
AcDbEntity
  8
ZUWAKU
100
AcDbPolyline
 90
        4
 70
     1
 43
0.0
 10
0.800000013555973
 20
550.7999998682887
 10
0.800000013555973
 20
0.7999998682887508
 10
796.8000000135559
 20
0.7999998682887508
 10
796.8000000135559
 20
550.7999998682887
  0
TEXT
  5
139D
330
1A
100
AcDbEntity
  8
MOJI
100
AcDbText
 10
92.95778960172516
 20
12.74117799856344
 30
0.0
 40
6.0
  1
ライナートップＸ７０Ｕ
 41
0.9
  7
ｽﾀｲﾙ1
100
AcDbText
  0
HATCH
  5
139E
330
1A
100
AcDbEntity
  8
ZUWAKU
100
AcDbHatch
 10
0.0
 20
0.0
 30
0.0
210
0.0
220
0.0
230
1.0
  2
ANSI37
 70
     0
 71
     0
 91
        8
 92
        7
 72
     1
 73
     1
 93
       24
 10
14.50226267467587
 20
17.64484834927226
 42
-0.1989123673796348
 10
14.09221216833714
 20
18.63479784293331
 42
0.0
 10
14.09221216833714
 20
19.92499986828869
 42
-0.4142135623730912
 10
14.61721216833711
 20
20.44999986828868
 42
0.0
 10
17.59221216833702
 20
20.44999986828868
 42
0.4142135623731546
 10
18.11721216833712
 20
20.97499986828867
 42
0.0
 10
18.11721216833712
 20
22.72499986828869
 42
0.4142135623731586
 10
17.59221216833702
 20
23.24999986828868
 42
0.0
 10
14.09221216833714
 20
23.24999986828868
 42
0.4142135623730928
 10
11.29221216833718
 20
20.44999986828871
 42
0.0
 10
11.29221216833718
 20
18.63479784293344
 42
0.1989123673796619
 10
12.52236368735361
 20
15.66494936194983
 42
0.0
 10
15.43216166199829
 20
12.75515138730518
 42
-0.1989123673796613
 10
15.84221216833714
 20
11.76520189364399
 42
0.0
 10
15.84221216833714
 20
10.47499986828867
 42
-0.4142135623730911
 10
15.31721216833716
 20
9.949999868288685
 42
0.0
 10
12.34221216833725
 20
9.949999868288685
 42
0.4142135623731526
 10
11.81721216833716
 20
9.424999868288697
 42
0.0
 10
11.81721216833716
 20
7.674999868288676
 42
0.4142135623731526
 10
12.34221216833725
 20
7.149999868288688
 42
0.0
 10
15.84221216833714
 20
7.149999868288688
 42
0.4142135623731044
 10
18.64221216833721
 20
9.949999868288664
 42
0.0
 10
18.64221216833721
 20
11.76520189364393
 42
0.1989123673796604
 10
17.41206064932066
 20
14.73505037462747
 42
0.0
 97
        0
 92
        7
 72
     1
 73
     1
 93
       16
 10
23.54221216833718
 20
19.04999986828869
 42
-0.4142135623730935
 10
24.94221216833716
 20
20.44999986828868
 42
0.0
 10
26.86721216833712
 20
20.44999986828868
 42
0.4142135623731546
 10
27.39221216833721
 20
20.97499986828867
 42
0.0
 10
27.39221216833721
 20
22.72499986828869
 42
0.4142135623730951
 10
26.86721216833723
 20
23.24999986828868
 42
0.0
 10
24.94221216833705
 20
23.24999986828864
 42
0.4142135623730892
 10
20.74221216833711
 20
19.04999986828862
 42
0.0
 10
20.74221216833711
 20
11.34999986828871
 42
0.4142135623730969
 10
24.94221216833716
 20
7.149999868288688
 42
0.0
 10
26.86721216833712
 20
7.149999868288688
 42
0.4142135623731526
 10
27.39221216833721
 20
7.674999868288676
 42
0.0
 10
27.39221216833721
 20
9.424999868288697
 42
0.4142135623730891
 10
26.86721216833723
 20
9.949999868288685
 42
0.0
 10
24.94221216833716
 20
9.949999868288685
 42
-0.4142135623730928
 10
23.54221216833718
 20
11.34999986828867
 42
0.0
 97
        0
 92
        7
 72
     1
 73
     1
 93
        2
 10
24.24221216833712
 20
15.19999986828868
 42
1.0
 10
27.74221216833712
 20
15.19999986828868
 42
1.0
 97
        0
 92
        7
 72
     1
 73
     1
 93
       26
 10
37.31485865051513
 20
19.20504706185211
 42
0.0
 10
38.37649828365295
 20
22.5669059001217
 42
0.5069206636600134
 10
37.87586738445759
 20
23.24999986828868
 42
0.0
 10
36.17697800484836
 20
23.24999986828868
 42
0.3272098845218764
 10
35.676347105653
 20
22.88309383645565
 42
0.0
 10
33.80807723102122
 20
16.96690590012176
 42
-0.3272098845219541
 10
33.30744633182575
 20
16.59999986828868
 42
0.0
 10
33.1672121683373
 20
16.59999986828868
 42
-0.4142135623731526
 10
32.64221216833721
 20
17.12499986828867
 42
0.0
 10
32.64221216833721
 20
22.72499986828869
 42
0.4142135623730951
 10
32.11721216833723
 20
23.24999986828868
 42
0.0
 10
30.36721216833711
 20
23.24999986828868
 42
0.4142135623730871
 10
29.84221216833714
 20
22.7249998682887
 42
0.0
 10
29.84221216833714
 20
7.674999868288676
 42
0.4142135623730891
 10
30.36721216833711
 20
7.149999868288688
 42
0.0
 10
32.11721216833712
 20
7.149999868288688
 42
0.4142135623731526
 10
32.64221216833721
 20
7.674999868288676
 42
0.0
 10
32.64221216833721
 20
13.27499986828869
 42
-0.4142135623731526
 10
33.1672121683373
 20
13.79999986828868
 42
0.0
 10
33.30744633182587
 20
13.79999986828868
 42
-0.3272098845218915
 10
33.80807723102122
 20
13.43309383645561
 42
0.0
 10
35.676347105653
 20
7.516905900121759
 42
0.3272098845218902
 10
36.17697800484836
 20
7.149999868288688
 42
0.0
 10
37.87586738445759
 20
7.149999868288688
 42
0.5069206636600335
 10
38.37649828365295
 20
7.833093836455695
 42
0.0
 10
36.05010690517929
 20
15.19999986828882
 42
0.0
 97
        0
 92
        7
 72
     1
 73
     1
 93
        8
 10
43.49221216833711
 20
22.7249998682887
 42
0.4142135623731546
 10
42.96721216833702
 20
23.24999986828868
 42
0.0
 10
41.21721216833726
 20
23.24999986828868
 42
0.4142135623731507
 10
40.69221216833716
 20
22.7249998682887
 42
0.0
 10
40.69221216833716
 20
7.674999868288676
 42
0.4142135623731526
 10
41.21721216833726
 20
7.149999868288688
 42
0.0
 10
42.96721216833702
 20
7.149999868288688
 42
0.4142135623731526
 10
43.49221216833711
 20
7.674999868288676
 42
0.0
 97
        0
 92
        7
 72
     1
 73
     1
 93
       24
 10
48.3922121683372
 20
19.92499986828869
 42
-0.4142135623731546
 10
48.9172121683373
 20
20.44999986828868
 42
0.0
 10
51.89221216833721
 20
20.44999986828868
 42
0.4142135623730911
 10
52.41721216833719
 20
20.97499986828867
 42
0.0
 10
52.41721216833719
 20
22.72499986828869
 42
0.4142135623730952
 10
51.89221216833721
 20
23.24999986828868
 42
0.0
 10
48.3922121683372
 20
23.24999986828868
 42
0.4142135623731048
 10
45.59221216833714
 20
20.44999986828871
 42
0.0
 10
45.59221216833714
 20
18.63479784293344
 42
0.1989123673796613
 10
46.82236368735368
 20
15.66494936194989
 42
0.0
 10
49.73216166199836
 20
12.75515138730522
 42
-0.1989123673796402
 10
50.14221216833721
 20
11.76520189364415
 42
0.0
 10
50.14221216833721
 20
10.47499986828867
 42
-0.4142135623730911
 10
49.61721216833723
 20
9.949999868288685
 42
0.0
 10
46.64221216833721
 20
9.949999868288685
 42
0.4142135623731526
 10
46.11721216833712
 20
9.424999868288697
 42
0.0
 10
46.11721216833712
 20
7.674999868288676
 42
0.4142135623730891
 10
46.64221216833709
 20
7.149999868288688
 42
0.0
 10
50.14221216833721
 20
7.149999868288688
 42
0.4142135623730925
 10
52.94221216833716
 20
9.949999868288664
 42
0.0
 10
52.94221216833716
 20
11.76520189364393
 42
0.1989123673796675
 10
51.71206064932062
 20
14.73505037462759
 42
0.0
 10
48.80226267467605
 20
17.6448483492721
 42
-0.1989123673796652
 10
48.3922121683372
 20
18.63479784293327
 42
0.0
 97
        0
 92
        7
 72
     1
 73
     1
 93
       16
 10
57.84221216833714
 20
22.72499986828867
 42
0.414213562373103
 10
57.31721216833716
 20
23.24999986828868
 42
0.0
 10
55.56721216833716
 20
23.24999986828868
 42
0.4142135623730871
 10
55.04221216833719
 20
22.7249998682887
 42
0.0
 10
55.04221216833719
 20
9.949999868288664
 42
0.4142135623730926
 10
57.84221216833714
 20
7.149999868288688
 42
0.0
 10
61.34221216833714
 20
7.149999868288688
 42
0.4142135623731044
 10
64.14221216833721
 20
9.949999868288664
 42
0.0
 10
64.14221216833721
 20
22.72499986828869
 42
0.4142135623730951
 10
63.61721216833723
 20
23.24999986828868
 42
0.0
 10
61.86721216833712
 20
23.24999986828868
 42
0.4142135623730871
 10
61.34221216833714
 20
22.7249998682887
 42
0.0
 10
61.34221216833714
 20
10.99999986828866
 42
-0.414213562373088
 10
60.29221216833718
 20
9.949999868288685
 42
0.0
 10
58.89221216833721
 20
9.949999868288685
 42
-0.4142135623731197
 10
57.84221216833714
 20
10.99999986828866
 42
0.0
 97
        0
 92
        7
 72
     1
 73
     1
 93
        8
 10
69.04221216833718
 20
22.7249998682887
 42
0.4142135623730871
 10
68.51721216833721
 20
23.24999986828868
 42
0.0
 10
66.76721216833721
 20
23.24999986828868
 42
0.4142135623731507
 10
66.24221216833712
 20
22.7249998682887
 42
0.0
 10
66.24221216833712
 20
7.674999868288676
 42
0.4142135623730891
 10
66.76721216833709
 20
7.149999868288688
 42
0.0
 10
68.51721216833721
 20
7.149999868288688
 42
0.4142135623730891
 10
69.04221216833718
 20
7.674999868288676
 42
0.0
 97
        0
 75
     0
 76
     1
 52
0.0
 41
0.2
 77
     0
 78
     2
 53
45.0
 43
-900.942304321123
 44
-13.20000013171124
 45
-0.4490128060534576
 46
0.4490128060534577
 79
     0
 53
135.0
 43
-900.942304321123
 44
-13.20000013171124
 45
-0.4490128060534577
 46
-0.4490128060534576
 79
     0
 47
0.057451373970553
 98
        8
 10
16.07985497657932
 20
15.16717351417423
 10
22.40451501999519
 20
18.84406205073969
 10
25.16436789921567
 20
15.5118815143594
 10
30.91405999519315
 20
16.20129751473018
 10
41.83847203251275
 20
16.6609097822718
 10
46.89820090868557
 20
19.41857618469589
 10
56.55768598595637
 20
18.72915778338369
 10
67.82707963317875
 20
19.18877005092531
  0
LINE
  5
139F
330
1A
100
AcDbEntity
  8
ZUWAKU
100
AcDbLine
 10
24.94221216833716
 20
23.24999986828864
 30
0.0
 11
26.86721216833712
 21
23.24999986828868
 31
0.0
  0
LINE
  5
13A0
330
1A
100
AcDbEntity
  8
ZUWAKU
100
AcDbLine
 10
26.86721216833712
 20
20.44999986828868
 30
0.0
 11
24.94221216833716
 21
20.44999986828868
 31
0.0
  0
LINE
  5
13A1
330
1A
100
AcDbEntity
  8
ZUWAKU
100
AcDbLine
 10
24.94221216833716
 20
9.949999868288685
 30
0.0
 11
26.86721216833712
 21
9.949999868288685
 31
0.0
  0
LINE
  5
13A2
330
1A
100
AcDbEntity
  8
ZUWAKU
100
AcDbLine
 10
26.86721216833712
 20
7.149999868288688
 30
0.0
 11
24.94221216833716
 21
7.149999868288688
 31
0.0
  0
CIRCLE
  5
13A3
330
1A
100
AcDbEntity
  8
ZUWAKU
100
AcDbCircle
 10
25.99221216833711
 20
15.19999986828868
 30
0.0
 40
1.75
  0
ARC
  5
13A4
330
1A
100
AcDbEntity
  8
ZUWAKU
100
AcDbCircle
 10
15.49221216833712
 20
18.63479784293338
 30
0.0
 40
1.399999999999999
100
AcDbArc
 50
180.0000000000016
 51
224.9999999999988
  0
LINE
  5
13A5
330
1A
100
AcDbEntity
  8
ZUWAKU
100
AcDbLine
 10
23.54221216833718
 20
19.04999986828868
 30
0.0
 11
23.54221216833718
 21
11.34999986828869
 31
0.0
  0
LINE
  5
13A6
330
1A
100
AcDbEntity
  8
ZUWAKU
100
AcDbLine
 10
20.74221216833711
 20
11.34999986828869
 30
0.0
 11
20.74221216833711
 21
19.04999986828864
 31
0.0
  0
ARC
  5
13A7
330
1A
100
AcDbEntity
  8
ZUWAKU
100
AcDbCircle
 10
15.49221216833712
 20
18.63479784293338
 30
0.0
 40
4.199999999999999
100
AcDbArc
 50
180.0
 51
225.0
  0
ARC
  5
13A8
330
1A
100
AcDbEntity
  8
ZUWAKU
100
AcDbCircle
 10
15.84221216833714
 20
9.949999868288685
 30
0.0
 40
2.799999999999999
100
AcDbArc
 50
270.0
 51
0.0
  0
ARC
  5
13A9
330
1A
100
AcDbEntity
  8
ZUWAKU
100
AcDbCircle
 10
24.94221216833716
 20
11.34999986828869
 30
0.0
 40
4.199999999999999
100
AcDbArc
 50
180.0
 51
270.0
  0
ARC
  5
13AA
330
1A
100
AcDbEntity
  8
ZUWAKU
100
AcDbCircle
 10
14.44221216833716
 20
11.76520189364399
 30
0.0
 40
4.199999999999999
100
AcDbArc
 50
0.0
 51
45.0
  0
LINE
  5
13AB
330
1A
100
AcDbEntity
  8
ZUWAKU
100
AcDbLine
 10
17.41206064932066
 20
14.73505037462751
 30
0.0
 11
14.50226267467598
 21
17.64484834927218
 31
0.0
  0
LINE
  5
13AC
330
1A
100
AcDbEntity
  8
ZUWAKU
100
AcDbLine
 10
15.84221216833714
 20
10.47499986828869
 30
0.0
 11
15.84221216833714
 21
11.76520189364403
 31
0.0
  0
ARC
  5
13AD
330
1A
100
AcDbEntity
  8
ZUWAKU
100
AcDbCircle
 10
15.31721216833716
 20
10.47499986828869
 30
0.0
 40
0.525
100
AcDbArc
 50
270.0
 51
0.0
  0
ARC
  5
13AE
330
1A
100
AcDbEntity
  8
ZUWAKU
100
AcDbCircle
 10
14.44221216833716
 20
11.76520189364403
 30
0.0
 40
1.399999999999999
100
AcDbArc
 50
0.0
 51
45.0
  0
LINE
  5
13AF
330
1A
100
AcDbEntity
  8
ZUWAKU
100
AcDbLine
 10
11.81721216833716
 20
7.674999868288686
 30
0.0
 11
11.81721216833716
 21
9.424999868288686
 31
0.0
  0
ARC
  5
13B0
330
1A
100
AcDbEntity
  8
ZUWAKU
100
AcDbCircle
 10
12.34221216833714
 20
7.674999868288686
 30
0.0
 40
0.525
100
AcDbArc
 50
180.0
 51
270.0
  0
ARC
  5
13B1
330
1A
100
AcDbEntity
  8
ZUWAKU
100
AcDbCircle
 10
12.34221216833714
 20
9.424999868288686
 30
0.0
 40
0.525
100
AcDbArc
 50
90.0
 51
180.0
  0
LINE
  5
13B2
330
1A
100
AcDbEntity
  8
ZUWAKU
100
AcDbLine
 10
12.34221216833714
 20
7.149999868288688
 30
0.0
 11
15.84221216833714
 21
7.149999868288688
 31
0.0
  0
LINE
  5
13B3
330
1A
100
AcDbEntity
  8
ZUWAKU
100
AcDbLine
 10
12.34221216833714
 20
9.949999868288685
 30
0.0
 11
15.31721216833716
 21
9.949999868288685
 31
0.0
  0
LINE
  5
13B4
330
1A
100
AcDbEntity
  8
ZUWAKU
100
AcDbLine
 10
12.52236368735361
 20
15.66494936194986
 30
0.0
 11
15.43216166199829
 21
12.7551513873052
 31
0.0
  0
LINE
  5
13B5
330
1A
100
AcDbEntity
  8
ZUWAKU
100
AcDbLine
 10
18.64221216833721
 20
9.949999868288685
 30
0.0
 11
18.64221216833721
 21
11.76520189364403
 31
0.0
  0
ARC
  5
13B6
330
1A
100
AcDbEntity
  8
ZUWAKU
100
AcDbCircle
 10
24.94221216833716
 20
11.34999986828869
 30
0.0
 40
1.399999999999999
100
AcDbArc
 50
180.0
 51
270.0
  0
ARC
  5
13B7
330
1A
100
AcDbEntity
  8
ZUWAKU
100
AcDbCircle
 10
17.59221216833714
 20
22.72499986828868
 30
0.0
 40
0.525
100
AcDbArc
 50
0.0
 51
90.0
  0
ARC
  5
13B8
330
1A
100
AcDbEntity
  8
ZUWAKU
100
AcDbCircle
 10
17.59221216833714
 20
20.97499986828868
 30
0.0
 40
0.525
100
AcDbArc
 50
270.0
 51
0.0
  0
LINE
  5
13B9
330
1A
100
AcDbEntity
  8
ZUWAKU
100
AcDbLine
 10
14.09221216833714
 20
23.24999986828868
 30
0.0
 11
17.59221216833714
 21
23.24999986828868
 31
0.0
  0
ARC
  5
13BA
330
1A
100
AcDbEntity
  8
ZUWAKU
100
AcDbCircle
 10
14.61721216833711
 20
19.92499986828868
 30
0.0
 40
0.525
100
AcDbArc
 50
90.0
 51
180.0
  0
LINE
  5
13BB
330
1A
100
AcDbEntity
  8
ZUWAKU
100
AcDbLine
 10
14.09221216833714
 20
19.92499986828868
 30
0.0
 11
14.09221216833714
 21
18.63479784293334
 31
0.0
  0
LINE
  5
13BC
330
1A
100
AcDbEntity
  8
ZUWAKU
100
AcDbLine
 10
17.59221216833714
 20
20.44999986828868
 30
0.0
 11
14.61721216833711
 21
20.44999986828868
 31
0.0
  0
LINE
  5
13BD
330
1A
100
AcDbEntity
  8
ZUWAKU
100
AcDbLine
 10
11.29221216833718
 20
20.44999986828868
 30
0.0
 11
11.29221216833718
 21
18.63479784293334
 31
0.0
  0
ARC
  5
13BE
330
1A
100
AcDbEntity
  8
ZUWAKU
100
AcDbCircle
 10
14.09221216833714
 20
20.44999986828868
 30
0.0
 40
2.799999999999999
100
AcDbArc
 50
90.0
 51
180.0
  0
LINE
  5
13BF
330
1A
100
AcDbEntity
  8
ZUWAKU
100
AcDbLine
 10
18.11721216833712
 20
22.72499986828868
 30
0.0
 11
18.11721216833712
 21
20.97499986828868
 31
0.0
  0
ARC
  5
13C0
330
1A
100
AcDbEntity
  8
ZUWAKU
100
AcDbCircle
 10
24.94221216833716
 20
19.04999986828868
 30
0.0
 40
1.399999999999999
100
AcDbArc
 50
90.0
 51
180.0
  0
ARC
  5
13C1
330
1A
100
AcDbEntity
  8
ZUWAKU
100
AcDbCircle
 10
24.94221216833716
 20
19.04999986828864
 30
0.0
 40
4.199999999999999
100
AcDbArc
 50
90.0
 51
180.0
  0
LINE
  5
13C2
330
1A
100
AcDbEntity
  8
ZUWAKU
100
AcDbLine
 10
79.32662956154422
 20
29.99999986828868
 30
0.0
 11
79.32662956154445
 21
0.7999998682887508
 31
0.0
  0
LINE
  5
13C3
330
1A
100
AcDbEntity
  8
ZUWAKU
100
AcDbLine
 10
79.52662956154426
 20
29.99999986828868
 30
0.0
 11
79.52662956154449
 21
0.7999998682887508
 31
0.0
  0
LINE
  5
13C4
330
1A
100
AcDbEntity
  8
ZUWAKU
100
AcDbLine
 10
79.12662956154441
 20
29.99999986828868
 30
0.0
 11
79.12662956154441
 21
0.7999998682887508
 31
0.0
  0
LINE
  5
13C5
330
1A
100
AcDbEntity
  8
ZUWAKU
100
AcDbLine
 10
64.14221216833721
 20
9.949999868288685
 30
0.0
 11
64.14221216833721
 21
22.72499986828868
 31
0.0
  0
LINE
  5
13C6
330
1A
100
AcDbEntity
  8
ZUWAKU
100
AcDbLine
 10
61.34221216833714
 20
22.72499986828868
 30
0.0
 11
61.34221216833714
 21
10.99999986828868
 31
0.0
  0
LINE
  5
13C7
330
1A
100
AcDbEntity
  8
ZUWAKU
100
AcDbLine
 10
69.04221216833718
 20
7.674999868288686
 30
0.0
 11
69.04221216833718
 21
22.72499986828868
 31
0.0
  0
LINE
  5
13C8
330
1A
100
AcDbEntity
  8
ZUWAKU
100
AcDbLine
 10
66.24221216833712
 20
22.72499986828868
 30
0.0
 11
66.24221216833712
 21
7.674999868288686
 31
0.0
  0
ARC
  5
13C9
330
1A
100
AcDbEntity
  8
ZUWAKU
100
AcDbCircle
 10
49.79221216833718
 20
18.63479784293338
 30
0.0
 40
1.399999999999999
100
AcDbArc
 50
180.0000000000016
 51
224.9999999999988
  0
ARC
  5
13CA
330
1A
100
AcDbEntity
  8
ZUWAKU
100
AcDbCircle
 10
49.79221216833718
 20
18.63479784293338
 30
0.0
 40
4.199999999999999
100
AcDbArc
 50
180.0
 51
225.0
  0
LINE
  5
13CB
330
1A
100
AcDbEntity
  8
ZUWAKU
100
AcDbLine
 10
37.31485865051513
 20
19.20504706185211
 30
0.0
 11
36.05010690517929
 21
15.1999998682887
 31
0.0
  0
LINE
  5
13CC
330
1A
100
AcDbEntity
  8
ZUWAKU
100
AcDbLine
 10
40.69221216833716
 20
22.72499986828868
 30
0.0
 11
40.69221216833716
 21
7.674999868288686
 31
0.0
  0
LINE
  5
13CD
330
1A
100
AcDbEntity
  8
ZUWAKU
100
AcDbLine
 10
43.49221216833711
 20
7.674999868288686
 30
0.0
 11
43.49221216833711
 21
22.72499986828868
 31
0.0
  0
LINE
  5
13CE
330
1A
100
AcDbEntity
  8
ZUWAKU
100
AcDbLine
 10
55.04221216833719
 20
22.72499986828868
 30
0.0
 11
55.04221216833719
 21
9.949999868288685
 31
0.0
  0
LINE
  5
13CF
330
1A
100
AcDbEntity
  8
ZUWAKU
100
AcDbLine
 10
57.84221216833714
 20
10.99999986828868
 30
0.0
 11
57.84221216833714
 21
22.72499986828868
 31
0.0
  0
LINE
  5
13D0
330
1A
100
AcDbEntity
  8
ZUWAKU
100
AcDbLine
 10
32.64221216833721
 20
17.12499986828869
 30
0.0
 11
32.64221216833721
 21
22.72499986828868
 31
0.0
  0
LINE
  5
13D1
330
1A
100
AcDbEntity
  8
ZUWAKU
100
AcDbLine
 10
29.84221216833714
 20
22.72499986828868
 30
0.0
 11
29.84221216833714
 21
7.674999868288686
 31
0.0
  0
LINE
  5
13D2
330
1A
100
AcDbEntity
  8
ZUWAKU
100
AcDbLine
 10
35.676347105653
 20
22.88309383645565
 30
0.0
 11
33.80807723102122
 21
16.96690590012171
 31
0.0
  0
LINE
  5
13D3
330
1A
100
AcDbEntity
  8
ZUWAKU
100
AcDbLine
 10
60.29221216833718
 20
9.949999868288685
 30
0.0
 11
58.89221216833721
 21
9.949999868288685
 31
0.0
  0
LINE
  5
13D4
330
1A
100
AcDbEntity
  8
ZUWAKU
100
AcDbLine
 10
57.84221216833714
 20
7.149999868288688
 30
0.0
 11
61.34221216833714
 21
7.149999868288688
 31
0.0
  0
LINE
  5
13D5
330
1A
100
AcDbEntity
  8
ZUWAKU
100
AcDbLine
 10
41.21721216833714
 20
7.149999868288688
 30
0.0
 11
42.96721216833714
 21
7.149999868288688
 31
0.0
  0
LINE
  5
13D6
330
1A
100
AcDbEntity
  8
ZUWAKU
100
AcDbLine
 10
35.676347105653
 20
7.516905900121713
 30
0.0
 11
33.80807723102122
 21
13.43309383645565
 31
0.0
  0
ARC
  5
13D7
330
1A
100
AcDbEntity
  8
ZUWAKU
100
AcDbCircle
 10
33.30744633182587
 20
17.12499986828869
 30
0.0
 40
0.525
100
AcDbArc
 50
270.0
 51
342.4744316262769
  0
LINE
  5
13D8
330
1A
100
AcDbEntity
  8
ZUWAKU
100
AcDbLine
 10
33.30744633182587
 20
16.59999986828868
 30
0.0
 11
33.16721216833718
 21
16.59999986828868
 31
0.0
  0
LINE
  5
13D9
330
1A
100
AcDbEntity
  8
ZUWAKU
100
AcDbLine
 10
33.16721216833718
 20
13.79999986828868
 30
0.0
 11
33.30744633182587
 21
13.79999986828868
 31
0.0
  0
ARC
  5
13DA
330
1A
100
AcDbEntity
  8
ZUWAKU
100
AcDbCircle
 10
33.16721216833718
 20
17.12499986828869
 30
0.0
 40
0.525
100
AcDbArc
 50
180.0
 51
270.0
  0
LINE
  5
13DB
330
1A
100
AcDbEntity
  8
ZUWAKU
100
AcDbLine
 10
30.36721216833711
 20
7.149999868288688
 30
0.0
 11
32.11721216833712
 21
7.149999868288688
 31
0.0
  0
ARC
  5
13DC
330
1A
100
AcDbEntity
  8
ZUWAKU
100
AcDbCircle
 10
32.11721216833712
 20
7.674999868288686
 30
0.0
 40
0.525
100
AcDbArc
 50
270.0
 51
0.0
  0
LINE
  5
13DD
330
1A
100
AcDbEntity
  8
ZUWAKU
100
AcDbLine
 10
32.64221216833721
 20
7.674999868288686
 30
0.0
 11
32.64221216833721
 21
13.27499986828868
 31
0.0
  0
LINE
  5
13DE
330
1A
100
AcDbEntity
  8
ZUWAKU
100
AcDbLine
 10
27.39221216833721
 20
9.424999868288686
 30
0.0
 11
27.39221216833721
 21
7.674999868288686
 31
0.0
  0
ARC
  5
13DF
330
1A
100
AcDbEntity
  8
ZUWAKU
100
AcDbCircle
 10
26.86721216833712
 20
7.674999868288686
 30
0.0
 40
0.525
100
AcDbArc
 50
270.0
 51
0.0
  0
ARC
  5
13E0
330
1A
100
AcDbEntity
  8
ZUWAKU
100
AcDbCircle
 10
26.86721216833712
 20
9.424999868288686
 30
0.0
 40
0.525
100
AcDbArc
 50
0.0
 51
90.0
  0
ARC
  5
13E1
330
1A
100
AcDbEntity
  8
ZUWAKU
100
AcDbCircle
 10
30.36721216833711
 20
7.674999868288686
 30
0.0
 40
0.525
100
AcDbArc
 50
180.0
 51
270.0
  0
ARC
  5
13E2
330
1A
100
AcDbEntity
  8
ZUWAKU
100
AcDbCircle
 10
33.30744633182587
 20
13.27499986828868
 30
0.0
 40
0.525
100
AcDbArc
 50
17.52556837372303
 51
90.0
  0
ARC
  5
13E3
330
1A
100
AcDbEntity
  8
ZUWAKU
100
AcDbCircle
 10
33.16721216833718
 20
13.27499986828868
 30
0.0
 40
0.525
100
AcDbArc
 50
90.0
 51
180.0
  0
ARC
  5
13E4
330
1A
100
AcDbEntity
  8
ZUWAKU
100
AcDbCircle
 10
41.21721216833714
 20
7.674999868288686
 30
0.0
 40
0.525
100
AcDbArc
 50
180.0
 51
270.0
  0
LINE
  5
13E5
330
1A
100
AcDbEntity
  8
ZUWAKU
100
AcDbLine
 10
36.17697800484847
 20
7.149999868288688
 30
0.0
 11
37.87586738445748
 21
7.149999868288688
 31
0.0
  0
ARC
  5
13E6
330
1A
100
AcDbEntity
  8
ZUWAKU
100
AcDbCircle
 10
37.87586738445748
 20
7.674999868288686
 30
0.0
 40
0.525
100
AcDbArc
 50
270.0
 51
17.52556837372303
  0
LINE
  5
13E7
330
1A
100
AcDbEntity
  8
ZUWAKU
100
AcDbLine
 10
38.37649828365295
 20
7.83309383645566
 30
0.0
 11
36.05010690517929
 21
15.1999998682887
 31
0.0
  0
ARC
  5
13E8
330
1A
100
AcDbEntity
  8
ZUWAKU
100
AcDbCircle
 10
36.17697800484847
 20
7.674999868288686
 30
0.0
 40
0.525
100
AcDbArc
 50
197.525568373723
 51
270.0
  0
ARC
  5
13E9
330
1A
100
AcDbEntity
  8
ZUWAKU
100
AcDbCircle
 10
57.84221216833714
 20
9.949999868288685
 30
0.0
 40
2.799999999999999
100
AcDbArc
 50
180.0
 51
270.0
  0
ARC
  5
13EA
330
1A
100
AcDbEntity
  8
ZUWAKU
100
AcDbCircle
 10
50.14221216833721
 20
9.949999868288685
 30
0.0
 40
2.799999999999999
100
AcDbArc
 50
270.0
 51
0.0
  0
LINE
  5
13EB
330
1A
100
AcDbEntity
  8
ZUWAKU
100
AcDbLine
 10
51.71206064932073
 20
14.73505037462751
 30
0.0
 11
48.80226267467595
 21
17.64484834927218
 31
0.0
  0
LINE
  5
13EC
330
1A
100
AcDbEntity
  8
ZUWAKU
100
AcDbLine
 10
50.14221216833721
 20
10.47499986828869
 30
0.0
 11
50.14221216833721
 21
11.76520189364403
 31
0.0
  0
ARC
  5
13ED
330
1A
100
AcDbEntity
  8
ZUWAKU
100
AcDbCircle
 10
48.74221216833712
 20
11.76520189364403
 30
0.0
 40
1.399999999999999
100
AcDbArc
 50
0.0
 51
45.0
  0
ARC
  5
13EE
330
1A
100
AcDbEntity
  8
ZUWAKU
100
AcDbCircle
 10
49.61721216833712
 20
10.47499986828869
 30
0.0
 40
0.525
100
AcDbArc
 50
270.0
 51
0.0
  0
LINE
  5
13EF
330
1A
100
AcDbEntity
  8
ZUWAKU
100
AcDbLine
 10
46.11721216833712
 20
7.674999868288686
 30
0.0
 11
46.11721216833712
 21
9.424999868288686
 31
0.0
  0
ARC
  5
13F0
330
1A
100
AcDbEntity
  8
ZUWAKU
100
AcDbCircle
 10
46.64221216833721
 20
7.674999868288686
 30
0.0
 40
0.525
100
AcDbArc
 50
180.0
 51
270.0
  0
ARC
  5
13F1
330
1A
100
AcDbEntity
  8
ZUWAKU
100
AcDbCircle
 10
42.96721216833714
 20
7.674999868288686
 30
0.0
 40
0.525
100
AcDbArc
 50
270.0
 51
0.0
  0
ARC
  5
13F2
330
1A
100
AcDbEntity
  8
ZUWAKU
100
AcDbCircle
 10
46.64221216833721
 20
9.424999868288686
 30
0.0
 40
0.525
100
AcDbArc
 50
90.0
 51
180.0
  0
LINE
  5
13F3
330
1A
100
AcDbEntity
  8
ZUWAKU
100
AcDbLine
 10
46.64221216833721
 20
9.949999868288685
 30
0.0
 11
49.61721216833712
 21
9.949999868288685
 31
0.0
  0
LINE
  5
13F4
330
1A
100
AcDbEntity
  8
ZUWAKU
100
AcDbLine
 10
46.64221216833721
 20
7.149999868288688
 30
0.0
 11
50.14221216833721
 21
7.149999868288688
 31
0.0
  0
LINE
  5
13F5
330
1A
100
AcDbEntity
  8
ZUWAKU
100
AcDbLine
 10
46.82236368735368
 20
15.66494936194986
 30
0.0
 11
49.73216166199836
 21
12.7551513873052
 31
0.0
  0
LINE
  5
13F6
330
1A
100
AcDbEntity
  8
ZUWAKU
100
AcDbLine
 10
52.94221216833716
 20
9.949999868288685
 30
0.0
 11
52.94221216833716
 21
11.76520189364403
 31
0.0
  0
ARC
  5
13F7
330
1A
100
AcDbEntity
  8
ZUWAKU
100
AcDbCircle
 10
48.74221216833712
 20
11.76520189364399
 30
0.0
 40
4.199999999999999
100
AcDbArc
 50
0.0
 51
45.0
  0
ARC
  5
13F8
330
1A
100
AcDbEntity
  8
ZUWAKU
100
AcDbCircle
 10
58.89221216833721
 20
10.99999986828868
 30
0.0
 40
1.049999999999999
100
AcDbArc
 50
180.0
 51
270.0
  0
ARC
  5
13F9
330
1A
100
AcDbEntity
  8
ZUWAKU
100
AcDbCircle
 10
61.34221216833714
 20
9.949999868288685
 30
0.0
 40
2.799999999999999
100
AcDbArc
 50
270.0
 51
0.0
  0
LINE
  5
13FA
330
1A
100
AcDbEntity
  8
ZUWAKU
100
AcDbLine
 10
66.76721216833721
 20
7.149999868288688
 30
0.0
 11
68.51721216833721
 21
7.149999868288688
 31
0.0
  0
ARC
  5
13FB
330
1A
100
AcDbEntity
  8
ZUWAKU
100
AcDbCircle
 10
66.76721216833721
 20
7.674999868288686
 30
0.0
 40
0.525
100
AcDbArc
 50
180.0
 51
270.0
  0
ARC
  5
13FC
330
1A
100
AcDbEntity
  8
ZUWAKU
100
AcDbCircle
 10
60.29221216833718
 20
10.99999986828868
 30
0.0
 40
1.049999999999999
100
AcDbArc
 50
270.0
 51
0.0
  0
ARC
  5
13FD
330
1A
100
AcDbEntity
  8
ZUWAKU
100
AcDbCircle
 10
68.51721216833721
 20
7.674999868288686
 30
0.0
 40
0.525
100
AcDbArc
 50
270.0
 51
0.0
  0
LINE
  5
13FE
330
1A
100
AcDbEntity
  8
ZUWAKU
100
AcDbLine
 10
42.96721216833714
 20
23.24999986828868
 30
0.0
 11
41.21721216833714
 21
23.24999986828868
 31
0.0
  0
ARC
  5
13FF
330
1A
100
AcDbEntity
  8
ZUWAKU
100
AcDbCircle
 10
32.11721216833712
 20
22.72499986828868
 30
0.0
 40
0.525
100
AcDbArc
 50
0.0
 51
90.0
  0
LINE
  5
1400
330
1A
100
AcDbEntity
  8
ZUWAKU
100
AcDbLine
 10
32.11721216833712
 20
23.24999986828868
 30
0.0
 11
30.36721216833711
 21
23.24999986828868
 31
0.0
  0
ARC
  5
1401
330
1A
100
AcDbEntity
  8
ZUWAKU
100
AcDbCircle
 10
26.86721216833712
 20
22.72499986828868
 30
0.0
 40
0.525
100
AcDbArc
 50
0.0
 51
90.0
  0
ARC
  5
1402
330
1A
100
AcDbEntity
  8
ZUWAKU
100
AcDbCircle
 10
30.36721216833711
 20
22.72499986828868
 30
0.0
 40
0.525
100
AcDbArc
 50
90.0
 51
180.0
  0
ARC
  5
1403
330
1A
100
AcDbEntity
  8
ZUWAKU
100
AcDbCircle
 10
26.86721216833712
 20
20.97499986828868
 30
0.0
 40
0.525
100
AcDbArc
 50
270.0
 51
0.0
  0
LINE
  5
1404
330
1A
100
AcDbEntity
  8
ZUWAKU
100
AcDbLine
 10
27.39221216833721
 20
22.72499986828868
 30
0.0
 11
27.39221216833721
 21
20.97499986828868
 31
0.0
  0
ARC
  5
1405
330
1A
100
AcDbEntity
  8
ZUWAKU
100
AcDbCircle
 10
41.21721216833714
 20
22.72499986828868
 30
0.0
 40
0.525
100
AcDbArc
 50
90.0
 51
180.0
  0
LINE
  5
1406
330
1A
100
AcDbEntity
  8
ZUWAKU
100
AcDbLine
 10
36.17697800484847
 20
23.24999986828868
 30
0.0
 11
37.87586738445748
 21
23.24999986828868
 31
0.0
  0
ARC
  5
1407
330
1A
100
AcDbEntity
  8
ZUWAKU
100
AcDbCircle
 10
37.87586738445748
 20
22.72499986828868
 30
0.0
 40
0.525
100
AcDbArc
 50
342.4744316262769
 51
90.0
  0
LINE
  5
1408
330
1A
100
AcDbEntity
  8
ZUWAKU
100
AcDbLine
 10
38.37649828365295
 20
22.56690590012171
 30
0.0
 11
37.31485865051513
 21
19.20504706185211
 31
0.0
  0
ARC
  5
1409
330
1A
100
AcDbEntity
  8
ZUWAKU
100
AcDbCircle
 10
36.17697800484847
 20
22.72499986828868
 30
0.0
 40
0.525
100
AcDbArc
 50
90.0
 51
162.4744316262769
  0
LINE
  5
140A
330
1A
100
AcDbEntity
  8
ZUWAKU
100
AcDbLine
 10
48.3922121683372
 20
23.24999986828868
 30
0.0
 11
51.89221216833721
 21
23.24999986828868
 31
0.0
  0
LINE
  5
140B
330
1A
100
AcDbEntity
  8
ZUWAKU
100
AcDbLine
 10
51.89221216833721
 20
20.44999986828868
 30
0.0
 11
48.91721216833719
 21
20.44999986828868
 31
0.0
  0
ARC
  5
140C
330
1A
100
AcDbEntity
  8
ZUWAKU
100
AcDbCircle
 10
48.91721216833719
 20
19.92499986828868
 30
0.0
 40
0.525
100
AcDbArc
 50
90.0
 51
180.0
  0
LINE
  5
140D
330
1A
100
AcDbEntity
  8
ZUWAKU
100
AcDbLine
 10
48.3922121683372
 20
19.92499986828868
 30
0.0
 11
48.3922121683372
 21
18.63479784293334
 31
0.0
  0
ARC
  5
140E
330
1A
100
AcDbEntity
  8
ZUWAKU
100
AcDbCircle
 10
42.96721216833714
 20
22.72499986828868
 30
0.0
 40
0.525
100
AcDbArc
 50
0.0
 51
90.0
  0
LINE
  5
140F
330
1A
100
AcDbEntity
  8
ZUWAKU
100
AcDbLine
 10
45.59221216833714
 20
20.44999986828868
 30
0.0
 11
45.59221216833714
 21
18.63479784293334
 31
0.0
  0
ARC
  5
1410
330
1A
100
AcDbEntity
  8
ZUWAKU
100
AcDbCircle
 10
48.3922121683372
 20
20.44999986828868
 30
0.0
 40
2.799999999999999
100
AcDbArc
 50
90.0
 51
180.0
  0
ARC
  5
1411
330
1A
100
AcDbEntity
  8
ZUWAKU
100
AcDbCircle
 10
57.31721216833716
 20
22.72499986828868
 30
0.0
 40
0.525
100
AcDbArc
 50
0.0
 51
90.0
  0
ARC
  5
1412
330
1A
100
AcDbEntity
  8
ZUWAKU
100
AcDbCircle
 10
55.56721216833716
 20
22.72499986828868
 30
0.0
 40
0.525
100
AcDbArc
 50
90.0
 51
180.0
  0
LINE
  5
1413
330
1A
100
AcDbEntity
  8
ZUWAKU
100
AcDbLine
 10
57.31721216833716
 20
23.24999986828868
 30
0.0
 11
55.56721216833716
 21
23.24999986828868
 31
0.0
  0
ARC
  5
1414
330
1A
100
AcDbEntity
  8
ZUWAKU
100
AcDbCircle
 10
51.89221216833721
 20
22.72499986828868
 30
0.0
 40
0.525
100
AcDbArc
 50
0.0
 51
90.0
  0
ARC
  5
1415
330
1A
100
AcDbEntity
  8
ZUWAKU
100
AcDbCircle
 10
51.89221216833721
 20
20.97499986828868
 30
0.0
 40
0.525
100
AcDbArc
 50
270.0
 51
0.0
  0
LINE
  5
1416
330
1A
100
AcDbEntity
  8
ZUWAKU
100
AcDbLine
 10
52.41721216833719
 20
22.72499986828868
 30
0.0
 11
52.41721216833719
 21
20.97499986828868
 31
0.0
  0
LINE
  5
1417
330
1A
100
AcDbEntity
  8
ZUWAKU
100
AcDbLine
 10
68.51721216833721
 20
23.24999986828868
 30
0.0
 11
66.76721216833721
 21
23.24999986828868
 31
0.0
  0
ARC
  5
1418
330
1A
100
AcDbEntity
  8
ZUWAKU
100
AcDbCircle
 10
66.76721216833721
 20
22.72499986828868
 30
0.0
 40
0.525
100
AcDbArc
 50
90.0
 51
180.0
  0
ARC
  5
1419
330
1A
100
AcDbEntity
  8
ZUWAKU
100
AcDbCircle
 10
63.61721216833712
 20
22.72499986828868
 30
0.0
 40
0.525
100
AcDbArc
 50
0.0
 51
90.0
  0
LINE
  5
141A
330
1A
100
AcDbEntity
  8
ZUWAKU
100
AcDbLine
 10
63.61721216833712
 20
23.24999986828868
 30
0.0
 11
61.86721216833712
 21
23.24999986828868
 31
0.0
  0
ARC
  5
141B
330
1A
100
AcDbEntity
  8
ZUWAKU
100
AcDbCircle
 10
61.86721216833712
 20
22.72499986828868
 30
0.0
 40
0.525
100
AcDbArc
 50
90.0
 51
180.0
  0
ARC
  5
141C
330
1A
100
AcDbEntity
  8
ZUWAKU
100
AcDbCircle
 10
68.51721216833721
 20
22.72499986828868
 30
0.0
 40
0.525
100
AcDbArc
 50
0.0
 51
90.0
  0
TEXT
  5
141D
330
1A
100
AcDbEntity
  8
MOJI
100
AcDbText
 10
239.827202694407
 20
18.00492092569607
 30
0.0
 40
5.599999999999999
  1
伸縮のきチーズ
 41
0.9
  7
ｽﾀｲﾙ1
100
AcDbText
  0
TEXT
  5
141E
330
1A
100
AcDbEntity
  8
MOJI
100
AcDbText
 10
239.827202694407
 20
3.204920925696104
 30
0.0
 40
5.599999999999999
  1
Ｘ７０Ｕ－Ｙ６０・ＵＴ６０
 41
0.9
  7
ｽﾀｲﾙ1
100
AcDbText
  0
LINE
  5
141F
330
1A
100
AcDbEntity
  8
ZUWAKU
100
AcDbLine
 10
208.2466013036239
 20
29.99999986828868
 30
0.0
 11
208.2466013036239
 21
0.7999998682887508
 31
0.0
  0
LINE
  5
1420
330
1A
100
AcDbEntity
  8
ZUWAKU
100
AcDbLine
 10
208.6466013036238
 20
29.99999986828868
 30
0.0
 11
208.646601303624
 21
0.7999998682887508
 31
0.0
  0
LINE
  5
1421
330
1A
100
AcDbEntity
  8
ZUWAKU
100
AcDbLine
 10
208.4466013036237
 20
29.99999986828868
 30
0.0
 11
208.446601303624
 21
0.7999998682887508
 31
0.0
  0
TEXT
  5
1422
330
1A
100
AcDbEntity
  8
ZUWAKU
100
AcDbText
 10
209.7240463258335
 20
9.6553564066743
 30
0.0
 40
4.0
  1
サイズ
 41
0.9
  7
ｽﾀｲﾙ1
100
AcDbText
  0
TEXT
  5
1423
330
1A
100
AcDbEntity
  8
ZUWAKU
100
AcDbText
 10
209.7240463258333
 20
24.05535640667426
 30
0.0
 40
4.0
  1
品名
 41
0.9
  7
ｽﾀｲﾙ1
100
AcDbText
  0
LINE
  5
1424
330
1A
100
AcDbEntity
  8
ZUWAKU
100
AcDbLine
 10
648.8172025237602
 20
15.19999986828871
 30
0.0
 11
697.2490105620972
 21
15.19999986828871
 31
0.0
  0
LINE
  5
1425
330
1A
100
AcDbEntity
  8
ZUWAKU
100
AcDbLine
 10
648.8172025237604
 20
15.39999986828872
 30
0.0
 11
697.2490105620972
 21
15.39999986828871
 31
0.0
  0
LINE
  5
1426
330
1A
100
AcDbEntity
  8
ZUWAKU
100
AcDbLine
 10
648.8172025237602
 20
15.59999986828871
 30
0.0
 11
697.2490105620972
 21
15.59999986828871
 31
0.0
  0
TEXT
  5
1427
330
1A
100
AcDbEntity
  8
ZUWAKU
100
AcDbText
 10
658.2039377008584
 20
18.00492092569607
 30
0.0
 40
5.599999999999999
  1
　　．　　．　　
 41
0.9
  7
ｽﾀｲﾙ1
100
AcDbText
  0
LINE
  5
1428
330
1A
100
AcDbEntity
  8
ZUWAKU
100
AcDbLine
 10
505.1991795116968
 20
15.19999986828872
 30
0.0
 11
552.5269557796685
 21
15.19999986828872
 31
0.0
  0
LINE
  5
1429
330
1A
100
AcDbEntity
  8
ZUWAKU
100
AcDbLine
 10
505.1991795116968
 20
15.39999986828871
 30
0.0
 11
552.5269557796685
 21
15.39999986828871
 31
0.0
  0
LINE
  5
142A
330
1A
100
AcDbEntity
  8
ZUWAKU
100
AcDbLine
 10
505.1991795116968
 20
15.59999986828871
 30
0.0
 11
552.5269557796685
 21
15.59999986828871
 31
0.0
  0
TEXT
  5
142B
330
1A
100
AcDbEntity
  8
MOJI
100
AcDbText
 10
463.246432004558
 20
11.94261758994866
 30
0.0
 40
5.599999999999999
  1
ＧＰ５９□
 41
0.9
  7
ｽﾀｲﾙ1
100
AcDbText
  0
LINE
  5
142C
330
1A
100
AcDbEntity
  8
ZUWAKU
100
AcDbLine
 10
447.6243639845472
 20
29.99999986828868
 30
0.0
 11
447.6243639845474
 21
0.7999998682887508
 31
0.0
  0
LINE
  5
142D
330
1A
100
AcDbEntity
  8
ZUWAKU
100
AcDbLine
 10
447.8243639845472
 20
29.99999986828868
 30
0.0
 11
447.8243639845475
 21
0.7999998682887508
 31
0.0
  0
LINE
  5
142E
330
1A
100
AcDbEntity
  8
ZUWAKU
100
AcDbLine
 10
447.4243639845474
 20
29.99999986828868
 30
0.0
 11
447.4243639845474
 21
0.7999998682887508
 31
0.0
  0
TEXT
  5
142F
330
1A
100
AcDbEntity
  8
MOJI
100
AcDbText
 10
528.0409079858689
 20
18.00492092569607
 30
0.0
 40
5.599999999999999
  1
Ａ３
 41
0.9
  7
ｽﾀｲﾙ1
100
AcDbText
  0
LINE
  5
1430
330
1A
100
AcDbEntity
  8
ZUWAKU
100
AcDbLine
 10
504.9991795116969
 20
29.99999986828868
 30
0.0
 11
504.999179511697
 21
0.7999998682887508
 31
0.0
  0
LINE
  5
1431
330
1A
100
AcDbEntity
  8
ZUWAKU
100
AcDbLine
 10
505.1991795116968
 20
29.99999986828868
 30
0.0
 11
505.1991795116971
 21
0.7999998682887508
 31
0.0
  0
LINE
  5
1432
330
1A
100
AcDbEntity
  8
ZUWAKU
100
AcDbLine
 10
504.799179511697
 20
29.99999986828868
 30
0.0
 11
504.799179511697
 21
0.7999998682887508
 31
0.0
  0
TEXT
  5
1433
330
1A
100
AcDbEntity
  8
ZUWAKU
100
AcDbText
 10
461.6981352414684
 20
2.908329108177895
 30
0.0
 40
3.0
  1
□には色品番が入ります
 41
0.9
  7
ｽﾀｲﾙ1
100
AcDbText
  0
TEXT
  5
1434
330
1A
100
AcDbEntity
  8
ZUWAKU
100
AcDbText
 10
506.6766245339067
 20
9.6553564066743
 30
0.0
 40
4.0
  1
縮尺
 41
0.9
  7
ｽﾀｲﾙ1
100
AcDbText
  0
TEXT
  5
1435
330
1A
100
AcDbEntity
  8
MOJI
100
AcDbText
 10
528.0409079858689
 20
3.204920925696104
 30
0.0
 40
5.599999999999999
  1
１/２
 41
0.9
  7
ｽﾀｲﾙ1
100
AcDbText
  0
TEXT
  5
1436
330
1A
100
AcDbEntity
  8
ZUWAKU
100
AcDbText
 10
449.3018090067569
 20
24.05535640667426
 30
0.0
 40
4.0
  1
品番
 41
0.9
  7
ｽﾀｲﾙ1
100
AcDbText
  0
TEXT
  5
1437
330
1A
100
AcDbEntity
  8
ZUWAKU
100
AcDbText
 10
506.6766245339065
 20
24.05535640667426
 30
0.0
 40
4.0
  1
用紙
 41
0.9
  7
ｽﾀｲﾙ1
100
AcDbText
  0
LINE
  5
1438
330
1A
100
AcDbEntity
  8
ZUWAKU
100
AcDbLine
 10
648.6172025237603
 20
29.99999986828868
 30
0.0
 11
648.6172025237606
 21
0.7999998682887508
 31
0.0
  0
LINE
  5
1439
330
1A
100
AcDbEntity
  8
ZUWAKU
100
AcDbLine
 10
648.8172025237604
 20
29.99999986828868
 30
0.0
 11
648.8172025237607
 21
0.7999998682887508
 31
0.0
  0
LINE
  5
143A
330
1A
100
AcDbEntity
  8
ZUWAKU
100
AcDbLine
 10
648.4172025237605
 20
29.99999986828868
 30
0.0
 11
648.4172025237605
 21
0.7999998682887508
 31
0.0
  0
LINE
  5
143B
330
1A
100
AcDbEntity
  8
ZUWAKU
100
AcDbLine
 10
552.7269557796683
 20
29.99999986828868
 30
0.0
 11
552.7269557796684
 21
0.7999998682887508
 31
0.0
  0
LINE
  5
143C
330
1A
100
AcDbEntity
  8
ZUWAKU
100
AcDbLine
 10
552.9269557796683
 20
29.99999986828868
 30
0.0
 11
552.9269557796685
 21
0.7999998682887508
 31
0.0
  0
LINE
  5
143D
330
1A
100
AcDbEntity
  8
ZUWAKU
100
AcDbLine
 10
552.5269557796685
 20
29.99999986828868
 30
0.0
 11
552.5269557796685
 21
0.7999998682887508
 31
0.0
  0
TEXT
  5
143E
330
1A
100
AcDbEntity
  8
ZUWAKU
100
AcDbText
 10
650.29464754597
 20
24.05535640667426
 30
0.0
 40
4.0
  1
DATE
 41
0.9
  7
ｽﾀｲﾙ1
100
AcDbText
  0
LINE
  5
143F
330
1A
100
AcDbEntity
  8
ZUWAKU
100
AcDbLine
 10
697.2490105620972
 20
29.99999986828868
 30
0.0
 11
697.2490105620972
 21
0.7999998682887508
 31
0.0
  0
LINE
  5
1440
330
1A
100
AcDbEntity
  8
ZUWAKU
100
AcDbLine
 10
697.4490105620973
 20
29.99999986828868
 30
0.0
 11
697.4490105620973
 21
0.7999998682887508
 31
0.0
  0
LINE
  5
1441
330
1A
100
AcDbEntity
  8
ZUWAKU
100
AcDbLine
 10
697.6490105620971
 20
29.99999986828868
 30
0.0
 11
697.6490105620974
 21
0.7999998682887508
 31
0.0
  0
LINE
  5
1442
330
1A
100
AcDbEntity
  8
ZUWAKU
100
AcDbLine
 10
697.8490105620972
 20
29.99999986828868
 30
0.0
 11
697.8490105620974
 21
0.7999998682887508
 31
0.0
  0
TEXT
  5
1443
330
1A
100
AcDbEntity
  8
ZUWAKU
100
AcDbText
 10
708.5280842057998
 20
17.55383920397548
 30
0.0
 40
6.0
  1
積水化学工業株式会社
 41
0.9
  7
ｽﾀｲﾙ1
100
AcDbText
  0
TEXT
  5
1444
330
1A
100
AcDbEntity
  8
ZUWAKU
100
AcDbText
 10
708.5280842057998
 20
6.648840182142748
 30
0.0
 40
6.0
  1
建材事業部
 41
0.9
  7
ｽﾀｲﾙ1
100
AcDbText
  0
TEXT
  5
19F7
330
1A
100
AcDbEntity
  8
SUNPOU
  6
CONTINUOUS
 62
     4
100
AcDbText
 10
662.0678926987356
 20
40.35075795860296
 30
0.0
 40
6.0
  1
※b エルボの差込み寸法を示す
100
AcDbText
  0
TEXT
  5
19F8
330
1A
100
AcDbEntity
  8
SUNPOU
  6
CONTINUOUS
 62
     4
100
AcDbText
 10
662.0678926987356
 20
49.67114064507768
 30
0.0
 40
6.0
  1
※a のきといの縁切り間隔寸法を示す
100
AcDbText
  0
DIMENSION
  5
2F34
330
1A
100
AcDbEntity
  8
SUNPOU
100
AcDbDimension
  2
*D1
 10
413.126726018862
 20
198.051329190433
 30
0.0
 11
408.1267260188619
 21
275.6689291904331
 31
0.0
 70
    32
  3
STANDARD
100
AcDbAlignedDimension
 13
467.8602139856403
 23
353.286529190433
 33
0.0
 14
515.4179139856402
 24
198.0513291904329
 34
0.0
 50
90.0
100
AcDbRotatedDimension
1001
ACAD
1000
DSTYLE
1002
{
1070
   140
1040
6.0
1070
    74
1070
     0
1070
   172
1070
     1
1070
    73
1070
     0
1070
   272
1070
     2
1070
    77
1070
     3
1070
   173
1070
     1
1070
   147
1040
2.0
1070
    42
1040
6.0
1070
    44
1040
3.0
1070
    43
1040
14.0
1070
   271
1070
     0
1070
   178
1070
     4
1070
   177
1070
     4
1070
   176
1070
     4
1070
   141
1040
150.0
1070
     7
1000
_OPEN
1070
     6
1000
_OPEN
1070
    41
1040
7.0
1002
}
  0
LINE
  5
2F35
330
1A
100
AcDbEntity
  8
SEIHIN
  6
CONTINUOUS
 62
     3
 48
16.0
100
AcDbLine
 10
309.5891607311154
 20
291.1106291904329
 30
0.0
 11
309.5891607311154
 21
297.051529190433
 31
0.0
  0
LINE
  5
2F36
330
1A
100
AcDbEntity
  8
SEIHIN
  6
CONTINUOUS
 62
     3
 48
16.0
100
AcDbLine
 10
300.5891607311155
 20
291.1107291904329
 30
0.0
 11
300.5891607311155
 21
297.051529190433
 31
0.0
  0
LINE
  5
2F37
330
1A
100
AcDbEntity
  8
SEIHIN
  6
CONTINUOUS
 62
     3
 48
16.0
100
AcDbLine
 10
194.5888607311155
 20
291.110829190433
 30
0.0
 11
194.5888607311155
 21
297.0516291904329
 31
0.0
  0
LINE
  5
2F38
330
1A
100
AcDbEntity
  8
SEIHIN
  6
CONTINUOUS
 62
     3
 48
16.0
100
AcDbLine
 10
185.5888607311155
 20
291.1107291904329
 30
0.0
 11
185.5888607311155
 21
297.0516291904329
 31
0.0
  0
LINE
  5
2F39
330
1A
100
AcDbEntity
  8
CENTER_L
  6
CENTER
 62
     1
 48
5.0
100
AcDbLine
 10
247.5889607311155
 20
191.2755291904328
 30
0.0
 11
247.5890607311155
 21
366.396629190433
 31
0.0
  0
DIMENSION
  5
2F3A
330
1A
100
AcDbEntity
  8
SUNPOU
100
AcDbDimension
  2
*D2
 10
185.5888607311155
 20
165.5088584588995
 30
0.0
 11
247.5890107311154
 21
170.5088584588995
 31
0.0
 70
    32
  3
STANDARD
100
AcDbAlignedDimension
 13
309.5891607311154
 23
291.1106291904329
 33
0.0
 14
185.5888607311155
 24
291.1107291904329
 34
0.0
100
AcDbRotatedDimension
1001
ACAD
1000
DSTYLE
1002
{
1070
   140
1040
6.0
1070
    74
1070
     0
1070
   172
1070
     1
1070
    73
1070
     0
1070
   272
1070
     2
1070
    77
1070
     3
1070
   173
1070
     1
1070
   147
1040
2.0
1070
    42
1040
6.0
1070
    44
1040
3.0
1070
    43
1040
14.0
1070
   271
1070
     0
1070
   178
1070
     4
1070
   177
1070
     4
1070
   176
1070
     4
1070
   141
1040
150.0
1070
     7
1000
_OPEN
1070
     6
1000
_OPEN
1070
    41
1040
7.0
1002
}
  0
LINE
  5
2F3B
330
1A
100
AcDbEntity
  8
SEIHIN
  6
CONTINUOUS
 62
     3
 48
16.0
100
AcDbLine
 10
247.5889607311155
 20
290.551529190433
 30
0.0
 11
300.1323607311155
 21
290.551529190433
 31
0.0
  0
ARC
  5
2F3C
330
1A
100
AcDbEntity
  8
SEIHIN
  6
CONTINUOUS
 62
     3
 48
16.0
100
AcDbCircle
 10
292.3709715028229
 20
267.8967473203676
 30
0.0
 40
14.99997002031178
100
AcDbArc
 50
121.5678857389678
 51
176.9998313363421
  0
LINE
  5
2F3D
330
1A
100
AcDbEntity
  8
SEIHIN
  6
CONTINUOUS
 62
     3
 48
16.0
100
AcDbLine
 10
284.2887607311154
 20
213.0512291904329
 30
0.0
 11
247.5887607311156
 21
213.0513291904329
 31
0.0
  0
LINE
  5
2F3E
330
1A
100
AcDbEntity
  8
SEIHIN
  6
CONTINUOUS
 62
     3
 48
16.0
100
AcDbLine
 10
247.5887607311156
 20
209.0512291904329
 30
0.0
 11
282.5887607311154
 21
209.0512291904329
 31
0.0
  0
LINE
  5
2F3F
330
1A
100
AcDbEntity
  8
SEIHIN
  6
CONTINUOUS
 62
     3
 48
16.0
100
AcDbLine
 10
247.5890607311155
 20
234.0512291904328
 30
0.0
 11
284.5890607311155
 21
234.0512291904328
 31
0.0
  0
LINE
  5
2F40
330
1A
100
AcDbEntity
  8
SEIHIN
  6
CONTINUOUS
 62
     3
 48
16.0
100
AcDbLine
 10
276.7889607311154
 20
209.0513291904329
 30
0.0
 11
276.7889607311154
 21
198.0513291904329
 31
0.0
  0
LINE
  5
2F41
330
1A
100
AcDbEntity
  8
SEIHIN
  6
CONTINUOUS
 62
     3
 48
16.0
100
AcDbLine
 10
218.3890607311155
 20
209.0513291904329
 30
0.0
 11
218.3889607311155
 21
198.0513291904329
 31
0.0
  0
LINE
  5
2F42
330
1A
100
AcDbEntity
  8
SEIHIN
  6
CONTINUOUS
 62
     3
 48
16.0
100
AcDbLine
 10
218.3889607311155
 20
198.0513291904329
 30
0.0
 11
247.5889607311155
 21
198.0512291904329
 31
0.0
  0
LINE
  5
2F43
330
1A
100
AcDbEntity
  8
SEIHIN
  6
CONTINUOUS
 62
     3
 48
16.0
100
AcDbLine
 10
276.7889607311154
 20
198.0513291904329
 30
0.0
 11
247.5890607311155
 21
198.0512291904329
 31
0.0
  0
ARC
  5
2F44
330
1A
100
AcDbEntity
  8
SEIHIN
  6
CONTINUOUS
 62
     3
 48
16.0
100
AcDbCircle
 10
202.8070470856121
 20
267.8968521574473
 30
0.0
 40
14.99996740347811
100
AcDbArc
 50
2.999768188974627
 51
58.43209523579413
  0
LINE
  5
2F45
330
1A
100
AcDbEntity
  8
SEIHIN
  6
CONTINUOUS
 62
     3
 48
16.0
100
AcDbLine
 10
210.8891607311155
 20
213.0513291904329
 30
0.0
 11
247.5891607311155
 21
213.0512291904329
 31
0.0
  0
LINE
  5
2F46
330
1A
100
AcDbEntity
  8
SEIHIN
  6
CONTINUOUS
 62
     3
 48
16.0
100
AcDbLine
 10
247.5891607311155
 20
209.0512291904329
 30
0.0
 11
212.5891607311155
 21
209.0513291904329
 31
0.0
  0
LINE
  5
2F47
330
1A
100
AcDbEntity
  8
SEIHIN
  6
CONTINUOUS
 62
     3
 48
16.0
100
AcDbLine
 10
247.5889607311155
 20
234.0512291904328
 30
0.0
 11
210.5889607311155
 21
234.0512291904328
 31
0.0
  0
LINE
  5
2F48
330
1A
100
AcDbEntity
  8
SEIHIN
  6
CONTINUOUS
 62
     3
 48
16.0
100
AcDbLine
 10
247.5890607311155
 20
290.551529190433
 30
0.0
 11
195.0456607311154
 21
290.551529190433
 31
0.0
  0
LINE
  5
2F49
330
1A
100
AcDbEntity
  8
SEIHIN
  6
CONTINUOUS
 62
     3
 48
16.0
100
AcDbLine
 10
210.5889607311155
 20
234.0515291904329
 30
0.0
 11
208.7739607311155
 21
268.6841291904328
 31
0.0
  0
LINE
  5
2F4A
330
1A
100
AcDbEntity
  8
SEIHIN
  6
CONTINUOUS
 62
     3
 48
16.0
100
AcDbLine
 10
210.8891607311155
 20
213.0513291904329
 30
0.0
 11
210.5891607311155
 21
234.0513291904329
 31
0.0
  0
LINE
  5
2F4B
330
1A
100
AcDbEntity
  8
SEIHIN
  6
CONTINUOUS
 62
     3
 48
16.0
100
AcDbLine
 10
210.8891607311155
 20
213.0513291904329
 30
0.0
 11
212.5891607311155
 21
209.0513291904329
 31
0.0
  0
ARC
  5
2F4C
330
1A
100
AcDbEntity
  8
SEIHIN
  6
CONTINUOUS
 62
     3
 48
16.0
100
AcDbCircle
 10
193.7945707079646
 20
267.8991123934513
 30
0.0
 40
15.00004575743753
100
AcDbArc
 50
2.999904600338625
 51
58.41803799562646
  0
LINE
  5
2F4D
330
1A
100
AcDbEntity
  8
SEIHIN
  6
CONTINUOUS
 62
     3
 48
16.0
100
AcDbLine
 10
186.0651607311155
 20
290.2588291904328
 30
0.0
 11
201.6503607311155
 21
280.677529190433
 31
0.0
  0
LINE
  5
2F4E
330
1A
100
AcDbEntity
  8
SEIHIN
  6
CONTINUOUS
 62
     3
 48
16.0
100
AcDbLine
 10
195.0653607311154
 20
290.2588291904328
 30
0.0
 11
210.6597607311155
 21
280.6771291904329
 31
0.0
  0
LINE
  5
2F4F
330
1A
100
AcDbEntity
  8
SEIHIN
  6
CONTINUOUS
 62
     3
 48
16.0
100
AcDbLine
 10
193.7042607311155
 20
290.551529190433
 30
0.0
 11
186.2735607311155
 21
290.551629190433
 31
0.0
  0
ARC
  5
2F50
330
1A
100
AcDbEntity
  8
SEIHIN
  6
CONTINUOUS
 62
     3
 48
16.0
100
AcDbCircle
 10
186.5888595561142
 20
291.1107312920256
 30
0.0
 40
0.999998825000928
100
AcDbArc
 50
180.0001204125311
 51
238.419268586231
  0
ARC
  5
2F51
330
1A
100
AcDbEntity
  8
SEIHIN
  6
CONTINUOUS
 62
     3
 48
16.0
100
AcDbCircle
 10
195.5888497934959
 20
291.1108487482077
 30
0.0
 40
0.9999890625717199
100
AcDbArc
 50
180.0011205902104
 51
238.4330317080881
  0
LINE
  5
2F52
330
1A
100
AcDbEntity
  8
SEIHIN
  6
CONTINUOUS
 62
     3
 48
16.0
100
AcDbLine
 10
277.3914607311155
 20
268.6818291904328
 30
0.0
 11
275.6012607311154
 21
234.5225291904329
 31
0.0
  0
LINE
  5
2F53
330
1A
100
AcDbEntity
  8
SEIHIN
  6
CONTINUOUS
 62
     3
 48
16.0
100
AcDbLine
 10
217.7865607311155
 20
268.6818291904328
 30
0.0
 11
219.5766607311155
 21
234.5226291904328
 31
0.0
  0
LINE
  5
2F54
330
1A
100
AcDbEntity
  8
SEIHIN
  6
CONTINUOUS
 62
     3
 48
16.0
100
AcDbLine
 10
219.7391607311155
 20
213.0513291904329
 30
0.0
 11
219.5892607311155
 21
234.0513291904329
 31
0.0
  0
LINE
  5
2F55
330
1A
100
AcDbEntity
  8
SEIHIN
  6
CONTINUOUS
 62
     3
 48
16.0
100
AcDbLine
 10
219.7391607311155
 20
213.0513291904329
 30
0.0
 11
220.5891607311155
 21
209.0513291904329
 31
0.0
  0
LINE
  5
2F56
330
1A
100
AcDbEntity
  8
SEIHIN
  6
CONTINUOUS
 62
     3
 48
16.0
100
AcDbLine
 10
275.4387607311155
 20
213.0512291904329
 30
0.0
 11
275.5887607311154
 21
234.0512291904328
 31
0.0
  0
LINE
  5
2F57
330
1A
100
AcDbEntity
  8
SEIHIN
  6
CONTINUOUS
 62
     3
 48
16.0
100
AcDbLine
 10
275.4387607311155
 20
213.0512291904329
 30
0.0
 11
274.5887607311156
 21
209.0512291904329
 31
0.0
  0
LINE
  5
2F58
330
1A
100
AcDbEntity
  8
SEIHIN
  6
CONTINUOUS
 62
     3
 48
16.0
100
AcDbLine
 10
284.5889607311155
 20
234.0515291904329
 30
0.0
 11
286.4040607311155
 21
268.6841291904328
 31
0.0
  0
LINE
  5
2F59
330
1A
100
AcDbEntity
  8
SEIHIN
  6
CONTINUOUS
 62
     3
 48
16.0
100
AcDbLine
 10
284.2887607311154
 20
213.0512291904329
 30
0.0
 11
284.5887607311154
 21
234.0513291904329
 31
0.0
  0
LINE
  5
2F5A
330
1A
100
AcDbEntity
  8
SEIHIN
  6
CONTINUOUS
 62
     3
 48
16.0
100
AcDbLine
 10
284.2887607311154
 20
213.0512291904329
 30
0.0
 11
282.5887607311154
 21
209.0512291904329
 31
0.0
  0
ARC
  5
2F5B
330
1A
100
AcDbEntity
  8
SEIHIN
  6
CONTINUOUS
 62
     3
 48
16.0
100
AcDbCircle
 10
301.3834588122446
 20
267.8991259598184
 30
0.0
 40
14.9999532314274
100
AcDbArc
 50
121.5822154100604
 51
177.0001287690386
  0
LINE
  5
2F5C
330
1A
100
AcDbEntity
  8
SEIHIN
  6
CONTINUOUS
 62
     3
 48
16.0
100
AcDbLine
 10
309.1128607311155
 20
290.2587291904329
 30
0.0
 11
293.5276607311154
 21
280.677529190433
 31
0.0
  0
LINE
  5
2F5D
330
1A
100
AcDbEntity
  8
SEIHIN
  6
CONTINUOUS
 62
     3
 48
16.0
100
AcDbLine
 10
300.1126607311155
 20
290.2587291904329
 30
0.0
 11
284.5182607311155
 21
280.6770291904328
 31
0.0
  0
LINE
  5
2F5E
330
1A
100
AcDbEntity
  8
SEIHIN
  6
CONTINUOUS
 62
     3
 48
16.0
100
AcDbLine
 10
301.4737607311154
 20
290.551529190433
 30
0.0
 11
308.9045607311154
 21
290.551529190433
 31
0.0
  0
ARC
  5
2F5F
330
1A
100
AcDbEntity
  8
SEIHIN
  6
CONTINUOUS
 62
     3
 48
16.0
100
AcDbCircle
 10
299.5891716687352
 20
291.1107487482079
 30
0.0
 40
0.9999890625716179
100
AcDbArc
 50
301.5669682919082
 51
359.9988794097831
  0
ARC
  5
2F60
330
1A
100
AcDbEntity
  8
SEIHIN
  6
CONTINUOUS
 62
     3
 48
16.0
100
AcDbCircle
 10
308.5891619061168
 20
291.1106312920255
 30
0.0
 40
0.9999988250007774
100
AcDbArc
 50
301.5807314137734
 51
359.9998795874721
  0
DIMENSION
  5
2F61
330
1A
100
AcDbEntity
  8
SUNPOU
100
AcDbDimension
  2
*D3
 10
167.5889607311154
 20
405.6630440965518
 30
0.0
 11
247.5890607311155
 21
410.6630440965518
 31
0.0
 70
    32
  3
STANDARD
100
AcDbAlignedDimension
 13
327.5891607311155
 23
354.252129190433
 33
0.0
 14
167.5889607311154
 24
354.2522291904329
 34
0.0
100
AcDbRotatedDimension
1001
ACAD
1000
DSTYLE
1002
{
1070
   140
1040
6.0
1070
    74
1070
     0
1070
   172
1070
     1
1070
    73
1070
     0
1070
   272
1070
     2
1070
    77
1070
     3
1070
   173
1070
     1
1070
   147
1040
2.0
1070
    42
1040
6.0
1070
    44
1040
3.0
1070
    43
1040
14.0
1070
   271
1070
     0
1070
   178
1070
     4
1070
   177
1070
     4
1070
   176
1070
     4
1070
   141
1040
150.0
1070
     7
1000
_OPEN
1070
     6
1000
_OPEN
1070
    41
1040
7.0
1002
}
  0
DIMENSION
  5
2F62
330
1A
100
AcDbEntity
  8
SUNPOU
100
AcDbDimension
  2
*D4
 10
272.5890532608033
 20
388.2300189429002
 30
0.0
 11
300.0891061497607
 21
393.2300189429001
 31
0.0
 70
    32
  1
※a <>
  3
STANDARD
100
AcDbAlignedDimension
 13
327.5891590387181
 23
353.3145291904328
 33
0.0
 14
272.5890532608033
 24
353.3145291904328
 34
0.0
100
AcDbRotatedDimension
1001
ACAD
1000
DSTYLE
1002
{
1070
   140
1040
6.0
1070
    74
1070
     0
1070
   172
1070
     1
1070
    73
1070
     0
1070
   272
1070
     2
1070
    77
1070
     3
1070
   173
1070
     1
1070
   147
1040
2.0
1070
    42
1040
6.0
1070
    44
1040
3.0
1070
    43
1040
14.0
1070
   271
1070
     0
1070
   178
1070
     4
1070
   177
1070
     4
1070
   176
1070
     4
1070
   141
1040
150.0
1070
     7
1000
_OPEN
1070
     6
1000
_OPEN
1070
    41
1040
7.0
1002
}
  0
LINE
  5
2F63
330
1A
100
AcDbEntity
  8
SEIHIN
  6
CONTINUOUS
 62
     3
 48
16.0
100
AcDbLine
 10
247.5889607311155
 20
308.955929190433
 30
0.0
 11
322.5891607311155
 21
308.955929190433
 31
0.0
  0
LINE
  5
2F64
330
1A
100
AcDbEntity
  8
SEIHIN
  6
CONTINUOUS
 62
     3
 48
16.0
100
AcDbLine
 10
247.5889607311155
 20
297.551529190433
 30
0.0
 11
322.5891607311155
 21
297.551529190433
 31
0.0
  0
LINE
  5
2F65
330
1A
100
AcDbEntity
  8
SEIHIN
  6
CONTINUOUS
 62
     3
 48
16.0
100
AcDbLine
 10
247.5889607311155
 20
337.801529190433
 30
0.0
 11
322.5890607311155
 21
337.801529190433
 31
0.0
  0
LINE
  5
2F66
330
1A
100
AcDbEntity
  8
SEIHIN
  6
CONTINUOUS
 62
     3
 48
16.0
100
AcDbLine
 10
247.5889607311155
 20
353.3145291904328
 30
0.0
 11
327.5891607311155
 21
353.3145291904328
 31
0.0
  0
DIMENSION
  5
2F67
330
1A
100
AcDbEntity
  8
SUNPOU
100
AcDbDimension
  2
*D5
 10
222.5890532608131
 20
388.2300189429002
 30
0.0
 11
247.5890532608082
 21
393.2300189429001
 31
0.0
 70
    32
  3
STANDARD
100
AcDbAlignedDimension
 13
272.5890532608033
 23
353.3145291904328
 33
0.0
 14
222.5890532608131
 24
353.3145604404891
 34
0.0
100
AcDbRotatedDimension
1001
ACAD
1000
DSTYLE
1002
{
1070
   287
1070
     4
1070
   287
1070
     4
1070
   287
1070
     4
1070
    41
1040
7.0
1070
    42
1040
6.0
1070
    43
1040
14.0
1070
    44
1040
3.0
1070
    73
1070
     0
1070
    74
1070
     0
1070
    75
1070
     1
1070
    77
1070
     3
1070
   140
1040
6.0
1070
   141
1040
150.0
1070
   147
1040
2.0
1070
   172
1070
     1
1070
   173
1070
     1
1070
   176
1070
     4
1070
   177
1070
     4
1070
   178
1070
     4
1070
   271
1070
     0
1070
   272
1070
     2
1070
   279
1070
     1
1070
     6
1000
OPEN
1070
     7
1000
OPEN
1002
}
  0
LINE
  5
2F68
330
1A
100
AcDbEntity
  8
SEIHIN
  6
CONTINUOUS
 62
     3
 48
16.0
100
AcDbLine
 10
247.5891607311155
 20
308.9558291904328
 30
0.0
 11
172.5889607311154
 21
308.956029190433
 31
0.0
  0
LINE
  5
2F69
330
1A
100
AcDbEntity
  8
SEIHIN
  6
CONTINUOUS
 62
     3
 48
16.0
100
AcDbLine
 10
247.5891607311155
 20
337.801529190433
 30
0.0
 11
172.5889607311154
 21
337.8016291904328
 31
0.0
  0
LINE
  5
2F6A
330
1A
100
AcDbEntity
  8
SEIHIN
  6
CONTINUOUS
 62
     3
 48
16.0
100
AcDbLine
 10
247.5891607311155
 20
353.3145291904328
 30
0.0
 11
167.5889607311154
 21
353.314629190433
 31
0.0
  0
LINE
  5
2F6B
330
1A
100
AcDbEntity
  8
SEIHIN
  6
CONTINUOUS
 62
     3
 48
16.0
100
AcDbLine
 10
247.5890607311155
 20
297.551529190433
 30
0.0
 11
172.5889607311154
 21
297.5516291904328
 31
0.0
  0
LINE
  5
2F6C
330
1A
100
AcDbEntity
  8
SEIHIN
  6
CONTINUOUS
 62
     3
 48
16.0
100
AcDbLine
 10
172.5889607311154
 20
353.3144291904329
 30
0.0
 11
172.5889607311154
 21
297.551529190433
 31
0.0
  0
LINE
  5
2F6D
330
1A
100
AcDbEntity
  8
SEIHIN
  6
CONTINUOUS
 62
     3
 48
16.0
100
AcDbLine
 10
167.5889607311154
 20
354.2522291904329
 30
0.0
 11
167.5889607311154
 21
298.8515291904329
 31
0.0
  0
LINE
  5
2F6E
330
1A
100
AcDbEntity
  8
SEIHIN
  6
CONTINUOUS
 62
     3
 48
16.0
100
AcDbLine
 10
167.5889607311154
 20
298.8516291904329
 30
0.0
 11
172.5889607311154
 21
297.551529190433
 31
0.0
  0
LINE
  5
2F6F
330
1A
100
AcDbEntity
  8
SEIHIN
  6
CONTINUOUS
 62
     3
 48
16.0
100
AcDbLine
 10
167.5889607311154
 20
310.255829190433
 30
0.0
 11
172.5889607311154
 21
308.9557291904329
 31
0.0
  0
LINE
  5
2F70
330
1A
100
AcDbEntity
  8
SEIHIN
  6
CONTINUOUS
 62
     3
 48
16.0
100
AcDbLine
 10
167.5889607311154
 20
339.1014291904328
 30
0.0
 11
172.5889607311154
 21
337.8014291904328
 31
0.0
  0
ARC
  5
2F71
330
1A
100
AcDbEntity
  8
SEIHIN
  6
CONTINUOUS
 62
     3
 48
16.0
100
AcDbCircle
 10
185.0888607311155
 20
297.0516291904329
 30
0.0
 40
0.4999999999999716
100
AcDbArc
 50
0.0000000000097707
 51
90.00000000000978
  0
ARC
  5
2F72
330
1A
100
AcDbEntity
  8
SEIHIN
  6
CONTINUOUS
 62
     3
 48
16.0
100
AcDbCircle
 10
194.0888607311155
 20
297.0516291904329
 30
0.0
 40
0.4999999999999148
100
AcDbArc
 50
0.0000000000032569
 51
90.00000000000325
  0
LINE
  5
2F73
330
1A
100
AcDbEntity
  8
SEIHIN
  6
CONTINUOUS
 62
     3
 48
16.0
100
AcDbLine
 10
184.5889607311155
 20
354.2524291904328
 30
0.0
 11
167.5889607311154
 21
354.2524291904328
 31
0.0
  0
LINE
  5
2F74
330
1A
100
AcDbEntity
  8
SEIHIN
  6
CONTINUOUS
 62
     3
 48
16.0
100
AcDbLine
 10
184.5889607311155
 20
354.2522291904329
 30
0.0
 11
184.5889607311155
 21
353.3144291904329
 31
0.0
  0
LINE
  5
2F75
330
1A
100
AcDbEntity
  8
SEIHIN
  6
CONTINUOUS
 62
     3
 48
16.0
100
AcDbLine
 10
327.5891607311155
 20
354.252129190433
 30
0.0
 11
327.5890607311155
 21
298.851429190433
 31
0.0
  0
LINE
  5
2F76
330
1A
100
AcDbEntity
  8
SEIHIN
  6
CONTINUOUS
 62
     3
 48
16.0
100
AcDbLine
 10
322.5891607311155
 20
353.3143291904329
 30
0.0
 11
322.5890607311155
 21
297.551529190433
 31
0.0
  0
ARC
  5
2F77
330
1A
100
AcDbEntity
  8
SEIHIN
  6
CONTINUOUS
 62
     3
 48
16.0
100
AcDbCircle
 10
301.0891607311155
 20
297.051529190433
 30
0.0
 40
0.4999999999999432
100
AcDbArc
 50
90.00000000000651
 51
180.0000000000065
  0
ARC
  5
2F78
330
1A
100
AcDbEntity
  8
SEIHIN
  6
CONTINUOUS
 62
     3
 48
16.0
100
AcDbCircle
 10
310.0891607311154
 20
297.0515291904329
 30
0.0
 40
0.5000000000000569
100
AcDbArc
 50
89.99999999999349
 51
179.9999999999934
  0
LINE
  5
2F79
330
1A
100
AcDbEntity
  8
SEIHIN
  6
CONTINUOUS
 62
     3
 48
16.0
100
AcDbLine
 10
327.5891607311155
 20
298.8515291904329
 30
0.0
 11
322.5890607311155
 21
297.551529190433
 31
0.0
  0
LINE
  5
2F7A
330
1A
100
AcDbEntity
  8
SEIHIN
  6
CONTINUOUS
 62
     3
 48
16.0
100
AcDbLine
 10
327.5891607311155
 20
310.2557291904328
 30
0.0
 11
322.5890607311155
 21
308.955629190433
 31
0.0
  0
LINE
  5
2F7B
330
1A
100
AcDbEntity
  8
SEIHIN
  6
CONTINUOUS
 62
     3
 48
16.0
100
AcDbLine
 10
327.5891607311155
 20
339.101329190433
 30
0.0
 11
322.5890607311155
 21
337.8012291904328
 31
0.0
  0
LINE
  5
2F7C
330
1A
100
AcDbEntity
  8
SEIHIN
  6
CONTINUOUS
 62
     3
 48
16.0
100
AcDbLine
 10
310.5891607311155
 20
354.2523291904328
 30
0.0
 11
327.5891607311155
 21
354.2523291904328
 31
0.0
  0
LINE
  5
2F7D
330
1A
100
AcDbEntity
  8
SEIHIN
  6
CONTINUOUS
 62
     3
 48
16.0
100
AcDbLine
 10
310.5891607311155
 20
354.252129190433
 30
0.0
 11
310.5891607311155
 21
353.3143291904329
 31
0.0
  0
LINE
  5
2F7E
330
1A
100
AcDbEntity
  8
SEIHIN
  6
CONTINUOUS
 62
     3
 48
16.0
100
AcDbLine
 10
584.6048139856402
 20
336.8403291904328
 30
0.0
 11
581.6326139856403
 21
234.0512291904328
 31
0.0
  0
LINE
  5
2F7F
330
1A
100
AcDbEntity
  8
SEIHIN
  6
CONTINUOUS
 62
     3
 48
16.0
100
AcDbLine
 10
496.6182139856401
 20
290.338729190433
 30
0.0
 11
496.6182139856401
 21
296.551229190433
 31
0.0
  0
LINE
  5
2F80
330
1A
100
AcDbEntity
  8
SEIHIN
  6
CONTINUOUS
 62
     3
 48
16.0
100
AcDbLine
 10
505.6182139856402
 20
290.338729190433
 30
0.0
 11
505.6182139856402
 21
296.551229190433
 31
0.0
  0
LINE
  5
2F81
330
1A
100
AcDbEntity
  8
CENTER_L
  6
CENTER
 62
     1
 48
5.0
100
AcDbLine
 10
526.6182139856403
 20
282.8469291904328
 30
0.0
 11
526.6182139856403
 21
310.6513291904328
 31
0.0
  0
ARC
  5
2F82
330
1A
100
AcDbEntity
  8
SEIHIN
  6
CONTINUOUS
 62
     3
 48
16.0
100
AcDbCircle
 10
583.2519334722596
 20
290.051548121584
 30
0.0
 40
8.99998106887007
100
AcDbArc
 50
90.00012405593521
 51
178.3434015869848
  0
DIMENSION
  5
2F83
330
1A
100
AcDbEntity
  8
SUNPOU
100
AcDbDimension
  2
*D6
 10
507.9181139856403
 20
146.1372059711154
 30
0.0
 11
544.6180639856402
 21
151.1372059711154
 31
0.0
 70
    32
  3
STANDARD
100
AcDbAlignedDimension
 13
581.3180139856402
 23
213.0512291904329
 33
0.0
 14
507.9181139856403
 24
213.0513291904329
 34
0.0
100
AcDbRotatedDimension
1001
ACAD
1000
DSTYLE
1002
{
1070
   140
1040
6.0
1070
    74
1070
     0
1070
   172
1070
     1
1070
    73
1070
     0
1070
   272
1070
     2
1070
    77
1070
     3
1070
   173
1070
     1
1070
   147
1040
2.0
1070
    42
1040
6.0
1070
    44
1040
3.0
1070
    43
1040
14.0
1070
   271
1070
     0
1070
   178
1070
     4
1070
   177
1070
     4
1070
   176
1070
     4
1070
   141
1040
150.0
1070
     7
1000
_OPEN
1070
     6
1000
_OPEN
1070
    41
1040
7.0
1002
}
  0
DIMENSION
  5
2F84
330
1A
100
AcDbEntity
  8
SUNPOU
100
AcDbDimension
  2
*D7
 10
515.4179139856402
 20
165.6516267934721
 30
0.0
 11
544.6181139856403
 21
170.6516267934721
 31
0.0
 70
    32
  1
φ<>
  3
STANDARD
100
AcDbAlignedDimension
 13
573.8183139856403
 23
198.0512291904329
 33
0.0
 14
515.4179139856402
 24
198.0513291904329
 34
0.0
100
AcDbRotatedDimension
1001
ACAD
1000
DSTYLE
1002
{
1070
   140
1040
6.0
1070
    74
1070
     0
1070
   172
1070
     1
1070
    73
1070
     0
1070
   272
1070
     2
1070
    77
1070
     3
1070
   173
1070
     1
1070
   147
1040
2.0
1070
    42
1040
6.0
1070
    44
1040
3.0
1070
    43
1040
14.0
1070
   271
1070
     0
1070
   178
1070
     4
1070
   177
1070
     4
1070
   176
1070
     4
1070
   141
1040
150.0
1070
     7
1000
_OPEN
1070
     6
1000
_OPEN
1070
    41
1040
7.0
1002
}
  0
DIMENSION
  5
2F85
330
1A
100
AcDbEntity
  8
SUNPOU
100
AcDbDimension
  2
*D8
 10
544.6182139856403
 20
269.3722915166836
 30
0.0
 11
535.6182139856403
 21
274.3722915166836
 31
0.0
 70
    32
  3
STANDARD
100
AcDbAlignedDimension
 13
526.6182139856403
 23
282.8469291904328
 33
0.0
 14
544.6182139856403
 24
260.6293270355487
 34
0.0
100
AcDbRotatedDimension
1001
ACAD
1000
DSTYLE
1002
{
1070
   140
1040
6.0
1070
    74
1070
     0
1070
   172
1070
     1
1070
    73
1070
     0
1070
   272
1070
     2
1070
    77
1070
     3
1070
   173
1070
     1
1070
   147
1040
2.0
1070
    42
1040
6.0
1070
    44
1040
3.0
1070
    43
1040
14.0
1070
   271
1070
     0
1070
   178
1070
     4
1070
   177
1070
     4
1070
   176
1070
     4
1070
   141
1040
150.0
1070
     7
1000
_OPEN
1070
     6
1000
_OPEN
1070
    41
1040
7.0
1002
}
  0
LINE
  5
2F86
330
1A
100
AcDbEntity
  8
SEIHIN
  6
CONTINUOUS
 62
     3
 48
16.0
100
AcDbLine
 10
507.9181139856403
 20
213.0513291904329
 30
0.0
 11
544.6181139856403
 21
213.0512291904329
 31
0.0
  0
LINE
  5
2F87
330
1A
100
AcDbEntity
  8
SEIHIN
  6
CONTINUOUS
 62
     3
 48
16.0
100
AcDbLine
 10
544.6182139856403
 20
234.0512291904328
 30
0.0
 11
507.61821398564
 21
234.0512291904328
 31
0.0
  0
LINE
  5
2F88
330
1A
100
AcDbEntity
  8
SEIHIN
  6
CONTINUOUS
 62
     3
 48
16.0
100
AcDbLine
 10
544.6181139856403
 20
209.0512291904329
 30
0.0
 11
509.6181139856403
 21
209.0513291904329
 31
0.0
  0
LINE
  5
2F89
330
1A
100
AcDbEntity
  8
SEIHIN
  6
CONTINUOUS
 62
     3
 48
16.0
100
AcDbLine
 10
515.4179139856402
 20
198.0513291904329
 30
0.0
 11
544.6179139856401
 21
198.0512291904329
 31
0.0
  0
LINE
  5
2F8A
330
1A
100
AcDbEntity
  8
SEIHIN
  6
CONTINUOUS
 62
     3
 48
16.0
100
AcDbLine
 10
506.0343139856404
 20
290.0513291904329
 30
0.0
 11
574.2481139856404
 21
290.0512291904328
 31
0.0
  0
LINE
  5
2F8B
330
1A
100
AcDbEntity
  8
SEIHIN
  6
CONTINUOUS
 62
     3
 48
16.0
100
AcDbLine
 10
515.4180139856403
 20
209.0514291904329
 30
0.0
 11
515.4179139856402
 21
198.0513291904329
 31
0.0
  0
LINE
  5
2F8C
330
1A
100
AcDbEntity
  8
SEIHIN
  6
CONTINUOUS
 62
     3
 48
16.0
100
AcDbLine
 10
516.6043139856401
 20
234.0512291904328
 30
0.0
 11
514.5400139856404
 21
273.4404291904329
 31
0.0
  0
LINE
  5
2F8D
330
1A
100
AcDbEntity
  8
SEIHIN
  6
CONTINUOUS
 62
     3
 48
16.0
100
AcDbLine
 10
507.5920139856402
 20
234.0512291904328
 30
0.0
 11
505.5265139856403
 21
273.4619291904329
 31
0.0
  0
LINE
  5
2F8E
330
1A
100
AcDbEntity
  8
SEIHIN
  6
CONTINUOUS
 62
     3
 48
16.0
100
AcDbLine
 10
507.9181139856403
 20
213.0513291904329
 30
0.0
 11
509.6181139856403
 21
209.0513291904329
 31
0.0
  0
LINE
  5
2F8F
330
1A
100
AcDbEntity
  8
SEIHIN
  6
CONTINUOUS
 62
     3
 48
16.0
100
AcDbLine
 10
507.9181139856403
 20
213.0513291904329
 30
0.0
 11
507.61821398564
 21
234.0513291904329
 31
0.0
  0
LINE
  5
2F90
330
1A
100
AcDbEntity
  8
SEIHIN
  6
CONTINUOUS
 62
     3
 48
16.0
100
AcDbLine
 10
516.7681139856401
 20
213.0513291904329
 30
0.0
 11
516.6182139856401
 21
234.0513291904329
 31
0.0
  0
LINE
  5
2F91
330
1A
100
AcDbEntity
  8
SEIHIN
  6
CONTINUOUS
 62
     3
 48
16.0
100
AcDbLine
 10
516.7681139856401
 20
213.0513291904329
 30
0.0
 11
517.6181139856403
 21
209.0513291904329
 31
0.0
  0
LINE
  5
2F92
330
1A
100
AcDbEntity
  8
SEIHIN
  6
CONTINUOUS
 62
     3
 48
16.0
100
AcDbLine
 10
505.7708139856401
 20
289.8077291904328
 30
0.0
 11
513.0275139856401
 21
278.2269291904329
 31
0.0
  0
LINE
  5
2F93
330
1A
100
AcDbEntity
  8
SEIHIN
  6
CONTINUOUS
 62
     3
 48
16.0
100
AcDbLine
 10
496.7708139856401
 20
289.8077291904328
 30
0.0
 11
504.0141139856403
 21
278.2484291904328
 31
0.0
  0
ARC
  5
2F94
330
1A
100
AcDbEntity
  8
SEIHIN
  6
CONTINUOUS
 62
     3
 48
16.0
100
AcDbCircle
 10
495.5401861751218
 20
272.9387172034634
 30
0.0
 40
10.00002469609161
100
AcDbArc
 50
2.999145881355143
 51
32.07100966035252
  0
LINE
  5
2F95
330
1A
100
AcDbEntity
  8
SEIHIN
  6
CONTINUOUS
 62
     3
 48
16.0
100
AcDbLine
 10
497.6182139856403
 20
290.0513291904329
 30
0.0
 11
504.7520139856403
 21
290.0513291904329
 31
0.0
  0
ARC
  5
2F96
330
1A
100
AcDbEntity
  8
SEIHIN
  6
CONTINUOUS
 62
     3
 48
16.0
100
AcDbCircle
 10
497.6182259254978
 20
290.3386876499851
 30
0.0
 40
1.000011940720437
100
AcDbArc
 50
179.9976199360811
 51
212.0698083093126
  0
ARC
  5
2F97
330
1A
100
AcDbEntity
  8
SEIHIN
  6
CONTINUOUS
 62
     3
 48
16.0
100
AcDbCircle
 10
506.6182259254978
 20
290.3386876499847
 30
0.0
 40
1.000011940720323
100
AcDbArc
 50
179.9976199360582
 51
212.0698083092891
  0
ARC
  5
2F98
330
1A
100
AcDbEntity
  8
SEIHIN
  6
CONTINUOUS
 62
     3
 48
16.0
100
AcDbCircle
 10
504.5537083073338
 20
272.9170471600473
 30
0.0
 40
10.00001149250882
100
AcDbArc
 50
3.000125457527742
 51
32.07220680693003
  0
DIMENSION
  5
2F99
330
1A
100
AcDbEntity
  8
SUNPOU
100
AcDbDimension
  2
*D9
 10
622.0068412453906
 20
219.0511240885188
 30
0.0
 11
617.0068412453907
 21
246.9511240885189
 31
0.0
 70
    32
  1
※b <>
  3
STANDARD
100
AcDbAlignedDimension
 13
579.6180139856403
 23
209.0511291904328
 33
0.0
 14
581.4036981989704
 24
219.0511240885188
 34
0.0
 50
90.0
100
AcDbRotatedDimension
1001
ACAD
1000
DSTYLE
1002
{
1070
   140
1040
6.0
1070
    74
1070
     0
1070
   172
1070
     1
1070
    73
1070
     0
1070
   272
1070
     2
1070
    77
1070
     3
1070
   173
1070
     1
1070
   147
1040
2.0
1070
    42
1040
6.0
1070
    44
1040
3.0
1070
    43
1040
14.0
1070
   271
1070
     0
1070
   178
1070
     4
1070
   177
1070
     4
1070
   176
1070
     4
1070
   141
1040
150.0
1070
     7
1000
_OPEN
1070
     6
1000
_OPEN
1070
    41
1040
7.0
1002
}
  0
LINE
  5
2F9A
330
1A
100
AcDbEntity
  8
SEIHIN
  6
CONTINUOUS
 62
     3
 48
16.0
100
AcDbLine
 10
573.8183139856403
 20
209.0512291904329
 30
0.0
 11
573.8183139856403
 21
198.0512291904329
 31
0.0
  0
LINE
  5
2F9B
330
1A
100
AcDbEntity
  8
CENTER_L
  6
CENTER
 62
     1
 48
5.0
100
AcDbLine
 10
544.6182139856403
 20
194.7588291904328
 30
0.0
 11
544.6182139856403
 21
260.6293270355487
 31
0.0
  0
LINE
  5
2F9C
330
1A
100
AcDbEntity
  8
SEIHIN
  6
CONTINUOUS
 62
     3
 48
16.0
100
AcDbLine
 10
573.8183139856403
 20
198.0512291904329
 30
0.0
 11
544.6182139856403
 21
198.0512291904329
 31
0.0
  0
LINE
  5
2F9D
330
1A
100
AcDbEntity
  8
SEIHIN
  6
CONTINUOUS
 62
     3
 48
16.0
100
AcDbLine
 10
572.6289139856403
 20
234.0512291904328
 30
0.0
 11
574.2556139856401
 21
290.3117291904329
 31
0.0
  0
LINE
  5
2F9E
330
1A
100
AcDbEntity
  8
SEIHIN
  6
CONTINUOUS
 62
     3
 48
16.0
100
AcDbLine
 10
544.6180139856403
 20
209.0512291904329
 30
0.0
 11
579.6180139856403
 21
209.0511291904328
 31
0.0
  0
LINE
  5
2F9F
330
1A
100
AcDbEntity
  8
SEIHIN
  6
CONTINUOUS
 62
     3
 48
16.0
100
AcDbLine
 10
581.3180139856402
 20
213.0512291904329
 30
0.0
 11
544.6180139856403
 21
213.0512291904329
 31
0.0
  0
LINE
  5
2FA0
330
1A
100
AcDbEntity
  8
SEIHIN
  6
CONTINUOUS
 62
     3
 48
16.0
100
AcDbLine
 10
544.6182139856403
 20
234.0512291904328
 30
0.0
 11
581.6182139856403
 21
234.0512291904328
 31
0.0
  0
LINE
  5
2FA1
330
1A
100
AcDbEntity
  8
SEIHIN
  6
CONTINUOUS
 62
     3
 48
16.0
100
AcDbLine
 10
572.4680139856402
 20
213.0512291904329
 30
0.0
 11
572.6179139856401
 21
234.0512291904328
 31
0.0
  0
LINE
  5
2FA2
330
1A
100
AcDbEntity
  8
SEIHIN
  6
CONTINUOUS
 62
     3
 48
16.0
100
AcDbLine
 10
572.4680139856402
 20
213.0512291904329
 30
0.0
 11
571.6180139856403
 21
209.0512291904329
 31
0.0
  0
LINE
  5
2FA3
330
1A
100
AcDbEntity
  8
SEIHIN
  6
CONTINUOUS
 62
     3
 48
16.0
100
AcDbLine
 10
581.3180139856402
 20
213.0512291904329
 30
0.0
 11
581.6179139856401
 21
234.0512291904328
 31
0.0
  0
LINE
  5
2FA4
330
1A
100
AcDbEntity
  8
SEIHIN
  6
CONTINUOUS
 62
     3
 48
16.0
100
AcDbLine
 10
581.3180139856402
 20
213.0512291904329
 30
0.0
 11
579.6180139856403
 21
209.0511291904328
 31
0.0
  0
DIMENSION
  5
2FA5
330
1A
100
AcDbEntity
  8
SUNPOU
100
AcDbDimension
  2
*D10
 10
466.8332139856403
 20
405.5022868697098
 30
0.0
 11
526.6182139856403
 21
410.5022868697098
 31
0.0
 70
    32
  3
STANDARD
100
AcDbAlignedDimension
 13
586.4032139856401
 23
352.2869291904328
 33
0.0
 14
466.8332139856403
 24
352.2869291904328
 34
0.0
100
AcDbRotatedDimension
1001
ACAD
1000
DSTYLE
1002
{
1070
   140
1040
6.0
1070
    74
1070
     0
1070
   172
1070
     1
1070
    73
1070
     0
1070
   272
1070
     2
1070
    77
1070
     3
1070
   173
1070
     1
1070
   147
1040
2.0
1070
    42
1040
6.0
1070
    44
1040
3.0
1070
    43
1040
14.0
1070
   271
1070
     0
1070
   178
1070
     4
1070
   177
1070
     4
1070
   176
1070
     4
1070
   141
1040
150.0
1070
     7
1000
_OPEN
1070
     6
1000
_OPEN
1070
    41
1040
7.0
1002
}
  0
DIMENSION
  5
2FA6
330
1A
100
AcDbEntity
  8
SUNPOU
100
AcDbDimension
  2
*D11
 10
526.6182139856403
 20
387.7603996004927
 30
0.0
 11
556.5107139856402
 21
392.7603996004926
 31
0.0
 70
    32
  3
STANDARD
100
AcDbAlignedDimension
 13
586.4032139856401
 23
352.2869291904328
 33
0.0
 14
526.6182139856403
 24
310.6513291904328
 34
0.0
100
AcDbRotatedDimension
1001
ACAD
1000
DSTYLE
1002
{
1070
   140
1040
6.0
1070
    74
1070
     0
1070
   172
1070
     1
1070
    73
1070
     0
1070
   272
1070
     2
1070
    77
1070
     3
1070
   173
1070
     1
1070
   147
1040
2.0
1070
    42
1040
6.0
1070
    44
1040
3.0
1070
    43
1040
14.0
1070
   271
1070
     0
1070
   178
1070
     4
1070
   177
1070
     4
1070
   176
1070
     4
1070
   141
1040
150.0
1070
     7
1000
_OPEN
1070
     6
1000
_OPEN
1070
    41
1040
7.0
1002
}
  0
LINE
  5
2FA7
330
1A
100
AcDbEntity
  8
SEIHIN
  6
CONTINUOUS
 48
16.0
100
AcDbLine
 10
562.0141139856403
 20
298.351329190433
 30
0.0
 11
526.6182139856403
 21
298.351329190433
 31
0.0
  0
LINE
  5
2FA8
330
1A
100
AcDbEntity
  8
SEIHIN
  6
CONTINUOUS
 62
     3
 48
16.0
100
AcDbLine
 10
563.3570139856401
 20
297.0512291904329
 30
0.0
 11
526.6182139856403
 21
297.0512291904329
 31
0.0
  0
LINE
  5
2FA9
330
1A
100
AcDbEntity
  8
SEIHIN
  6
CONTINUOUS
 62
     3
 48
16.0
100
AcDbLine
 10
526.6182139856403
 20
299.351329190433
 30
0.0
 11
561.0742139856402
 21
299.351329190433
 31
0.0
  0
LINE
  5
2FAA
330
1A
100
AcDbEntity
  8
SEIHIN
  6
CONTINUOUS
 62
     3
 48
16.0
100
AcDbLine
 10
526.6182139856403
 20
301.1513291904329
 30
0.0
 11
559.5333139856404
 21
301.1513291904329
 31
0.0
  0
LINE
  5
2FAB
330
1A
100
AcDbEntity
  8
NOKITOI
  6
PHANTOM
 62
     8
 48
5.0
100
AcDbLine
 10
550.4178139856403
 20
302.4446791904328
 30
0.0
 11
535.6634139856402
 21
302.4446791904328
 31
0.0
  0
LINE
  5
2FAC
330
1A
100
AcDbEntity
  8
NOKITOI
  6
PHANTOM
 62
     8
 48
5.0
100
AcDbLine
 10
493.5029139856403
 20
301.1513791904328
 30
0.0
 11
559.7335139856403
 21
301.151279190433
 31
0.0
  0
LINE
  5
2FAD
330
1A
100
AcDbEntity
  8
NOKITOI
  6
PHANTOM
 62
     8
 48
5.0
100
AcDbLine
 10
559.7335139856403
 20
301.151279190433
 30
0.0
 11
493.5029139856403
 21
301.1513791904328
 31
0.0
  0
LINE
  5
2FAE
330
1A
100
AcDbEntity
  8
NOKITOI
  6
PHANTOM
 62
     8
 48
5.0
100
AcDbLine
 10
498.8186139856403
 20
302.4447791904329
 30
0.0
 11
554.4178139856403
 21
302.4446791904328
 31
0.0
  0
DIMENSION
  5
2FAF
330
1A
100
AcDbEntity
  8
SUNPOU
100
AcDbDimension
  2
*D12
 10
431.1135168311893
 20
297.0512291904329
 30
0.0
 11
426.1135168311893
 21
325.168879190433
 31
0.0
 70
    32
  3
STANDARD
100
AcDbAlignedDimension
 13
467.8602139856403
 23
353.286529190433
 33
0.0
 14
489.8794139856403
 24
297.0512291904329
 34
0.0
 50
90.0
100
AcDbRotatedDimension
1001
ACAD
1000
DSTYLE
1002
{
1070
   140
1040
6.0
1070
    74
1070
     0
1070
   172
1070
     1
1070
    73
1070
     0
1070
   272
1070
     2
1070
    77
1070
     3
1070
   173
1070
     1
1070
   147
1040
2.0
1070
    42
1040
6.0
1070
    44
1040
3.0
1070
    43
1040
14.0
1070
   271
1070
     0
1070
   178
1070
     4
1070
   177
1070
     4
1070
   176
1070
     4
1070
   141
1040
150.0
1070
     7
1000
_OPEN
1070
     6
1000
_OPEN
1070
    41
1040
7.0
1002
}
  0
ARC
  5
2FB0
330
1A
100
AcDbEntity
  8
NOKITOI
  6
PHANTOM
 62
     8
 48
5.0
100
AcDbCircle
 10
474.8423639856402
 20
350.153929190433
 30
0.0
 40
0.9949500012563332
100
AcDbArc
 50
359.9971206704047
 51
89.99712067040476
  0
LINE
  5
2FB1
330
1A
100
AcDbEntity
  8
SEIHIN
  6
CONTINUOUS
 62
     3
 48
16.0
100
AcDbLine
 10
475.3599139856403
 20
338.3013291904329
 30
0.0
 11
477.1962139856403
 21
338.3013291904329
 31
0.0
  0
LINE
  5
2FB2
330
1A
100
AcDbEntity
  8
SEIHIN
  6
CONTINUOUS
 62
     3
 48
16.0
100
AcDbLine
 10
480.7061139856402
 20
311.787529190433
 30
0.0
 11
475.3599139856403
 21
338.3013291904329
 31
0.0
  0
ARC
  5
2FB3
330
1A
100
AcDbEntity
  8
SEIHIN
  6
CONTINUOUS
 62
     3
 48
16.0
100
AcDbCircle
 10
476.533212542292
 20
352.0021316582079
 30
0.0
 40
2.250002467775467
100
AcDbArc
 50
270.0000367545216
 51
150.6449188014956
  0
LINE
  5
2FB4
330
1A
100
AcDbEntity
  8
SEIHIN
  6
CONTINUOUS
 48
16.0
100
AcDbLine
 10
474.3403139856403
 20
338.2990291904329
 30
0.0
 11
479.8603139856401
 21
310.9227291904329
 31
0.0
  0
LINE
  5
2FB5
330
1A
100
AcDbEntity
  8
SEIHIN
  6
CONTINUOUS
 62
     3
 48
16.0
100
AcDbLine
 10
473.2763139856403
 20
336.9989291904329
 30
0.0
 11
478.7738139856402
 21
309.7341291904328
 31
0.0
  0
LINE
  5
2FB6
330
1A
100
AcDbEntity
  8
SEIHIN
  6
CONTINUOUS
 62
     3
 48
16.0
100
AcDbLine
 10
476.0147139856401
 20
340.101329190433
 30
0.0
 11
470.1332139856401
 21
340.101329190433
 31
0.0
  0
LINE
  5
2FB7
330
1A
100
AcDbEntity
  8
SEIHIN
  6
CONTINUOUS
 62
     3
 48
16.0
100
AcDbLine
 10
476.5332139856403
 20
351.0513291904327
 30
0.0
 11
470.1602139856403
 21
351.223529190433
 31
0.0
  0
LINE
  5
2FB8
330
1A
100
AcDbEntity
  8
NOKITOI
  6
PHANTOM
 62
     8
 48
5.0
100
AcDbLine
 10
476.4594139856403
 20
341.1493791904327
 30
0.0
 11
470.6112139856403
 21
341.1493791904327
 31
0.0
  0
LINE
  5
2FB9
330
1A
100
AcDbEntity
  8
NOKITOI
  6
PHANTOM
 62
     8
 48
5.0
100
AcDbLine
 10
475.8373139856401
 20
345.9490791904329
 30
0.0
 11
474.5439139856403
 21
345.9490791904329
 31
0.0
  0
LINE
  5
2FBA
330
1A
100
AcDbEntity
  8
NOKITOI
  6
PHANTOM
 62
     8
 48
5.0
100
AcDbLine
 10
472.8997139856403
 20
342.442879190433
 30
0.0
 11
477.6703139856403
 21
342.442879190433
 31
0.0
  0
ARC
  5
2FBB
330
1A
100
AcDbEntity
  8
NOKITOI
  6
PHANTOM
 62
     8
 48
5.0
100
AcDbCircle
 10
470.6112139856403
 20
342.1443791904327
 30
0.0
 40
0.9950000000000045
100
AcDbArc
 50
180.0
 51
270.0
  0
LINE
  5
2FBC
330
1A
100
AcDbEntity
  8
SEIHIN
  6
CONTINUOUS
 48
16.0
100
AcDbLine
 10
468.1332139856403
 20
352.2518291904328
 30
0.0
 11
468.1332139856403
 21
340.101329190433
 31
0.0
  0
LINE
  5
2FBD
330
1A
100
AcDbEntity
  8
SEIHIN
  6
CONTINUOUS
 62
     3
 48
16.0
100
AcDbLine
 10
469.1332139856402
 20
349.9239291904328
 30
0.0
 11
469.1332139856402
 21
341.101329190433
 31
0.0
  0
LINE
  5
2FBE
330
1A
100
AcDbEntity
  8
SEIHIN
  6
CONTINUOUS
 62
     3
 48
16.0
100
AcDbLine
 10
466.8332139856403
 20
352.2869291904328
 30
0.0
 11
466.8332139856403
 21
338.8013291904329
 31
0.0
  0
ARC
  5
2FBF
330
1A
100
AcDbEntity
  8
SEIHIN
  6
CONTINUOUS
 62
     3
 48
16.0
100
AcDbCircle
 10
467.8332139856403
 20
338.8013291904328
 30
0.0
 40
0.9999999999999147
100
AcDbArc
 50
179.9999999999951
 51
269.9999999999951
  0
ARC
  5
2FC0
330
1A
100
AcDbEntity
  8
SEIHIN
  6
CONTINUOUS
 62
     3
 48
16.0
100
AcDbCircle
 10
470.1332139856401
 20
341.101329190433
 30
0.0
 40
1.0
100
AcDbArc
 50
180.0
 51
270.0
  0
LINE
  5
2FC1
330
1A
100
AcDbEntity
  8
SEIHIN
  6
CONTINUOUS
 48
16.0
100
AcDbLine
 10
469.1332139856402
 20
339.101329190433
 30
0.0
 11
473.3600139856401
 21
339.101329190433
 31
0.0
  0
LINE
  5
2FC2
330
1A
100
AcDbEntity
  8
SEIHIN
  6
CONTINUOUS
 62
     3
 48
16.0
100
AcDbLine
 10
467.8332139856401
 20
337.8013291904329
 30
0.0
 11
472.2960139856403
 21
337.8013291904329
 31
0.0
  0
ARC
  5
2FC3
330
1A
100
AcDbEntity
  8
SEIHIN
  6
CONTINUOUS
 48
16.0
100
AcDbCircle
 10
469.1332139856402
 20
340.1013291904329
 30
0.0
 40
0.9999999999999147
100
AcDbArc
 50
179.9999999999951
 51
269.9999999999951
  0
ARC
  5
2FC4
330
1A
100
AcDbEntity
  8
SEIHIN
  6
CONTINUOUS
 48
16.0
100
AcDbCircle
 10
473.3600363992651
 20
338.1013108457693
 30
0.0
 40
1.000018344914744
100
AcDbArc
 50
11.40335365591488
 51
90.00128418255771
  0
ARC
  5
2FC5
330
1A
100
AcDbEntity
  8
SEIHIN
  6
CONTINUOUS
 62
     3
 48
16.0
100
AcDbCircle
 10
472.2960243240544
 20
336.8013207280046
 30
0.0
 40
1.000008462481842
100
AcDbArc
 50
11.39704541169199
 51
90.00059234248814
  0
ARC
  5
2FC6
330
1A
100
AcDbEntity
  8
SEIHIN
  6
CONTINUOUS
 62
     3
 48
16.0
100
AcDbCircle
 10
467.8331962753268
 20
352.2869119520296
 30
0.0
 40
0.9999822898350055
100
AcDbArc
 50
88.45178341027569
 51
179.9990122947605
  0
ARC
  5
2FC7
330
1A
100
AcDbEntity
  8
SEIHIN
  6
CONTINUOUS
 48
16.0
100
AcDbCircle
 10
469.1331962753267
 20
352.2518119520297
 30
0.0
 40
0.9999822898349785
100
AcDbArc
 50
88.45178341027244
 51
179.9990122947622
  0
ARC
  5
2FC8
330
1A
100
AcDbEntity
  8
SEIHIN
  6
CONTINUOUS
 62
     3
 48
16.0
100
AcDbCircle
 10
470.417579110073
 20
349.9645583049355
 30
0.0
 40
1.285007586671994
100
AcDbArc
 50
101.5535063078137
 51
181.8118685387403
  0
LINE
  5
2FC9
330
1A
100
AcDbEntity
  8
SEIHIN
  6
CONTINUOUS
 62
     3
 48
16.0
100
AcDbLine
 10
467.8602139856403
 20
353.286529190433
 30
0.0
 11
474.5721139856403
 21
353.1051291904328
 31
0.0
  0
LINE
  5
2FCA
330
1A
100
AcDbEntity
  8
NOKITOI
  6
PHANTOM
 62
     8
 48
5.0
100
AcDbLine
 10
473.0514139856402
 20
349.8553791904328
 30
0.0
 11
472.4022139856402
 21
349.8553791904328
 31
0.0
  0
ARC
  5
2FCB
330
1A
100
AcDbEntity
  8
NOKITOI
  6
PHANTOM
 62
     8
 48
5.0
100
AcDbCircle
 10
470.6112139856403
 20
350.1538791904329
 30
0.0
 40
0.9950000000000613
100
AcDbArc
 50
90.00000000000325
 51
180.0000000000032
  0
LINE
  5
2FCC
330
1A
100
AcDbEntity
  8
NOKITOI
  6
PHANTOM
 62
     8
 48
5.0
100
AcDbLine
 10
474.5439139856403
 20
345.9490791904329
 30
0.0
 11
474.5439139856403
 21
348.3629791904329
 31
0.0
  0
LINE
  5
2FCD
330
1A
100
AcDbEntity
  8
NOKITOI
  6
PHANTOM
 62
     8
 48
5.0
100
AcDbLine
 10
470.9097139856402
 20
348.3629791904329
 30
0.0
 11
470.9097139856402
 21
344.4327791904329
 31
0.0
  0
ARC
  5
2FCE
330
1A
100
AcDbEntity
  8
NOKITOI
  6
PHANTOM
 62
     8
 48
5.0
100
AcDbCircle
 10
472.8996639856402
 20
344.432829190433
 30
0.0
 40
1.989950000628206
100
AcDbArc
 50
180.0014396286237
 51
270.0014396286237
  0
ARC
  5
2FCF
330
1A
100
AcDbEntity
  8
NOKITOI
  6
PHANTOM
 62
     8
 48
5.0
100
AcDbCircle
 10
472.4021639856402
 20
348.3629291904328
 30
0.0
 40
1.49245000083754
100
AcDbArc
 50
89.99808047909004
 51
179.99808047909
  0
LINE
  5
2FD0
330
1A
100
AcDbEntity
  8
NOKITOI
  6
PHANTOM
 62
     8
 48
5.0
100
AcDbLine
 10
469.6162139856403
 20
342.1443791904327
 30
0.0
 11
469.6162139856403
 21
350.1538791904327
 31
0.0
  0
ARC
  5
2FD1
330
1A
100
AcDbEntity
  8
NOKITOI
  6
PHANTOM
 62
     8
 48
5.0
100
AcDbCircle
 10
473.0514139856402
 20
348.3629791904329
 30
0.0
 40
1.492399999999918
100
AcDbArc
 50
0.0000000000016284
 51
90.00000000000161
  0
LINE
  5
2FD2
330
1A
100
AcDbEntity
  8
NOKITOI
  6
PHANTOM
 62
     8
 48
5.0
100
AcDbLine
 10
470.6112139856403
 20
351.1488791904329
 30
0.0
 11
474.8424139856402
 21
351.1488791904329
 31
0.0
  0
LINE
  5
2FD3
330
1A
100
AcDbEntity
  8
NOKITOI
  6
PHANTOM
 62
     8
 48
5.0
100
AcDbLine
 10
483.6013139856402
 20
314.2729791904327
 30
0.0
 11
477.6703139856403
 21
342.442879190433
 31
0.0
  0
LINE
  5
2FD4
330
1A
100
AcDbEntity
  8
SEIHIN
  6
CONTINUOUS
 48
16.0
100
AcDbLine
 10
491.2222139856401
 20
298.351329190433
 30
0.0
 11
526.6182139856403
 21
298.351329190433
 31
0.0
  0
LINE
  5
2FD5
330
1A
100
AcDbEntity
  8
SEIHIN
  6
CONTINUOUS
 62
     3
 48
16.0
100
AcDbLine
 10
526.6182139856403
 20
301.1513291904329
 30
0.0
 11
493.7030139856402
 21
301.1513291904329
 31
0.0
  0
LINE
  5
2FD6
330
1A
100
AcDbEntity
  8
SEIHIN
  6
CONTINUOUS
 62
     3
 48
16.0
100
AcDbLine
 10
526.6182139856403
 20
299.351329190433
 30
0.0
 11
492.1621139856401
 21
299.351329190433
 31
0.0
  0
LINE
  5
2FD7
330
1A
100
AcDbEntity
  8
SEIHIN
  6
CONTINUOUS
 62
     3
 48
16.0
100
AcDbLine
 10
489.8794139856403
 20
297.0512291904329
 30
0.0
 11
526.6182139856403
 21
297.0512291904329
 31
0.0
  0
LINE
  5
2FD8
330
1A
100
AcDbEntity
  8
SEIHIN
  6
CONTINUOUS
 62
     3
 48
16.0
100
AcDbLine
 10
482.2457139856401
 20
313.2584291904328
 30
0.0
 11
476.9950139856403
 21
339.2990291904329
 31
0.0
  0
LINE
  5
2FD9
330
1A
100
AcDbEntity
  8
NOKITOI
  6
PHANTOM
 62
     8
 48
5.0
100
AcDbLine
 10
482.4927139856403
 20
313.2600791904328
 30
0.0
 11
476.6541139856401
 21
340.991379190433
 31
0.0
  0
ARC
  5
2FDA
330
1A
100
AcDbEntity
  8
SEIHIN
  6
CONTINUOUS
 48
16.0
100
AcDbCircle
 10
479.0257946440716
 20
299.0561511169855
 30
0.0
 40
11.19999790759571
100
AcDbArc
 50
1.386376606127842
 51
81.44488682306752
  0
ARC
  5
2FDB
330
1A
100
AcDbEntity
  8
SEIHIN
  6
CONTINUOUS
 62
     3
 48
16.0
100
AcDbCircle
 10
479.0258585035808
 20
299.0560797504466
 30
0.0
 40
12.20002392625987
100
AcDbArc
 50
5.630842181347981
 51
78.37219158312989
  0
ARC
  5
2FDC
330
1A
100
AcDbEntity
  8
SEIHIN
  6
CONTINUOUS
 62
     3
 48
16.0
100
AcDbCircle
 10
479.0258297459602
 20
299.0561121848401
 30
0.0
 40
13.99997191390969
100
AcDbArc
 50
11.90821529670924
 51
73.73897633475746
  0
ARC
  5
2FDD
330
1A
100
AcDbEntity
  8
SEIHIN
  6
CONTINUOUS
 62
     3
 48
16.0
100
AcDbCircle
 10
492.1621506106217
 20
300.3512960018313
 30
0.0
 40
0.9999668120690676
100
AcDbArc
 50
185.6338046569119
 51
269.9979014734827
  0
ARC
  5
2FDE
330
1A
100
AcDbEntity
  8
NOKITOI
  6
PHANTOM
 62
     8
 48
5.0
100
AcDbCircle
 10
479.732621055427
 20
300.0450712175392
 30
0.0
 40
12.93471022655885
100
AcDbArc
 50
8.676219579621381
 51
74.45245455808955
  0
LINE
  5
2FDF
330
1A
100
AcDbEntity
  8
NOKITOI
  6
PHANTOM
 62
     8
 48
5.0
100
AcDbLine
 10
496.9573139856402
 20
309.8410791904329
 30
0.0
 11
490.7364139856403
 21
309.8410791904329
 31
0.0
  0
ARC
  5
2FE0
330
1A
100
AcDbEntity
  8
NOKITOI
  6
PHANTOM
 62
     8
 48
5.0
100
AcDbCircle
 10
479.7326191826535
 20
300.0450685746648
 30
0.0
 40
14.23472333170272
100
AcDbArc
 50
11.37541821407426
 51
40.79334907830808
  0
LINE
  5
2FE1
330
1A
100
AcDbEntity
  8
NOKITOI
  6
PHANTOM
 62
     8
 48
5.0
100
AcDbLine
 10
498.6197139856403
 20
311.1410791904329
 30
0.0
 11
488.7090139856403
 21
311.1410791904329
 31
0.0
  0
ARC
  5
2FE2
330
1A
100
AcDbEntity
  8
SEIHIN
  6
CONTINUOUS
 62
     3
 48
16.0
100
AcDbCircle
 10
479.025830525424
 20
299.0561097833996
 30
0.0
 40
9.900043039299609
100
AcDbArc
 50
354.7104166644861
 51
86.16885830978635
  0
ARC
  5
2FE3
330
1A
100
AcDbEntity
  8
SEIHIN
  6
CONTINUOUS
 62
     3
 48
16.0
100
AcDbCircle
 10
489.8794323723152
 20
298.0512090225261
 30
0.0
 40
0.9999798322623554
100
AcDbArc
 50
174.7085483276158
 51
269.9989464998763
  0
ARC
  5
2FE4
330
1A
100
AcDbEntity
  8
SEIHIN
  6
CONTINUOUS
 48
16.0
100
AcDbCircle
 10
491.2222688506977
 20
299.351275637565
 30
0.0
 40
0.999946448637177
100
AcDbArc
 50
181.3836981003174
 51
269.9968562954071
  0
ARC
  5
2FE5
330
1A
100
AcDbEntity
  8
NOKITOI
  6
PHANTOM
 62
     8
 48
5.0
100
AcDbCircle
 10
484.5749338674116
 20
314.4779568533529
 30
0.0
 40
0.995060928010462
100
AcDbArc
 50
191.8877567214149
 51
251.452486792293
  0
ARC
  5
2FE6
330
1A
100
AcDbEntity
  8
SEIHIN
  6
CONTINUOUS
 48
16.0
100
AcDbCircle
 10
480.8406018421146
 20
311.120440744331
 30
0.0
 40
1.000027069681631
100
AcDbArc
 50
191.4028559258902
 51
261.4493396171043
  0
ARC
  5
2FE7
330
1A
100
AcDbEntity
  8
SEIHIN
  6
CONTINUOUS
 62
     3
 48
16.0
100
AcDbCircle
 10
483.2259900074356
 20
313.4561552931003
 30
0.0
 40
1.000018345123338
100
AcDbArc
 50
191.4038070977544
 51
253.7415329160862
  0
ARC
  5
2FE8
330
1A
100
AcDbEntity
  8
SEIHIN
  6
CONTINUOUS
 62
     3
 48
16.0
100
AcDbCircle
 10
481.6862977159289
 20
311.9852455234447
 30
0.0
 40
1.00002396981676
100
AcDbArc
 50
191.4031710767991
 51
258.3765455362758
  0
ARC
  5
2FE9
330
1A
100
AcDbEntity
  8
SEIHIN
  6
CONTINUOUS
 62
     3
 48
16.0
100
AcDbCircle
 10
479.7540624727806
 20
309.9317743135461
 30
0.0
 40
0.999975345311865
100
AcDbArc
 50
191.3995707359474
 51
266.1726533348232
  0
ARC
  5
2FEA
330
1A
100
AcDbEntity
  8
NOKITOI
  6
PHANTOM
 62
     8
 48
5.0
100
AcDbCircle
 10
483.4663540100278
 20
313.465036526207
 30
0.0
 40
0.9949785960395137
100
AcDbArc
 50
191.8875585738779
 51
254.4495841050099
  0
ARC
  5
2FEB
330
1A
100
AcDbEntity
  8
NOKITOI
  6
PHANTOM
 62
     8
 48
5.0
100
AcDbCircle
 10
479.7326878244311
 20
300.0450390809489
 30
0.0
 40
14.22848866365036
100
AcDbArc
 50
51.52529185494284
 51
71.45345265407154
  0
ARC
  5
2FEC
330
1A
100
AcDbEntity
  8
NOKITOI
  6
PHANTOM
 62
     8
 48
5.0
100
AcDbCircle
 10
490.7364176449434
 20
309.5410871823125
 30
0.0
 40
0.2999920081427447
100
AcDbArc
 50
90.00069889403132
 51
220.79672841758
  0
ARC
  5
2FED
330
1A
100
AcDbEntity
  8
NOKITOI
  6
PHANTOM
 62
     8
 48
5.0
100
AcDbCircle
 10
488.7090172979993
 20
311.3400780346474
 30
0.0
 40
0.1989988442421132
100
AcDbArc
 50
231.5280949042413
 51
269.9990463050561
  0
LINE
  5
2FEE
330
1A
100
AcDbEntity
  8
NOKITOI
  6
PHANTOM
 62
     8
 48
5.0
100
AcDbLine
 10
498.6196139856402
 20
302.6437791904329
 30
0.0
 11
498.6197139856403
 21
311.1410791904329
 31
0.0
  0
LINE
  5
2FEF
330
1A
100
AcDbEntity
  8
NOKITOI
  6
PHANTOM
 62
     8
 48
5.0
100
AcDbLine
 10
497.3196139856402
 20
302.9513791904329
 30
0.0
 11
497.3196139856402
 21
309.478679190433
 31
0.0
  0
LINE
  5
2FF0
330
1A
100
AcDbEntity
  8
NOKITOI
  6
PHANTOM
 62
     8
 48
5.0
100
AcDbLine
 10
494.1778139856402
 20
302.4513791904328
 30
0.0
 11
496.8196139856401
 21
302.4513791904328
 31
0.0
  0
ARC
  5
2FF1
330
1A
100
AcDbEntity
  8
SEIHIN
  6
CONTINUOUS
 62
     3
 48
16.0
100
AcDbCircle
 10
493.7029945024168
 20
302.1513449926832
 30
0.0
 40
1.000015802440038
100
AcDbArc
 50
191.9122003293656
 51
270.00111628884
  0
ARC
  5
2FF2
330
1A
100
AcDbEntity
  8
SEIHIN
  6
CONTINUOUS
 62
     3
 48
16.0
100
AcDbCircle
 10
496.1182139856401
 20
296.5512291904328
 30
0.0
 40
0.4999999999999432
100
AcDbArc
 50
0.0000000000065138
 51
90.00000000000651
  0
ARC
  5
2FF3
330
1A
100
AcDbEntity
  8
NOKITOI
  6
PHANTOM
 62
     8
 48
5.0
100
AcDbCircle
 10
493.5029215996579
 20
302.1463726501889
 30
0.0
 40
0.9949934597852239
100
AcDbArc
 50
188.6761125650601
 51
269.9995615538234
  0
ARC
  5
2FF4
330
1A
100
AcDbEntity
  8
NOKITOI
  6
PHANTOM
 62
     8
 48
5.0
100
AcDbCircle
 10
496.81961398564
 20
302.9513791904329
 30
0.0
 40
0.5000000000000569
100
AcDbArc
 50
270.0000000000065
 51
0.0000000000065138
  0
ARC
  5
2FF5
330
1A
100
AcDbEntity
  8
NOKITOI
  6
PHANTOM
 62
     8
 48
5.0
100
AcDbCircle
 10
494.1778909445121
 20
302.9513980547211
 30
0.0
 40
0.5000188648192144
100
AcDbArc
 50
191.3867288554418
 51
270.0026402191978
  0
ARC
  5
2FF6
330
1A
100
AcDbEntity
  8
NOKITOI
  6
PHANTOM
 62
     8
 48
5.0
100
AcDbCircle
 10
498.8186139856403
 20
302.6437791904329
 30
0.0
 40
0.1990000000000691
100
AcDbArc
 50
179.9999999999837
 51
269.9999999999837
  0
ARC
  5
2FF7
330
1A
100
AcDbEntity
  8
SEIHIN
  6
CONTINUOUS
 62
     3
 48
16.0
100
AcDbCircle
 10
505.1182139856402
 20
296.5512291904327
 30
0.0
 40
0.5000000000000569
100
AcDbArc
 50
0.0000000000195413
 51
90.00000000001953
  0
LINE
  5
2FF8
330
1A
100
AcDbEntity
  8
NOKITOI
  6
PHANTOM
 62
     8
 48
5.0
100
AcDbLine
 10
497.8146139856402
 20
310.3359791904328
 30
0.0
 11
496.9573139856402
 21
309.8410791904329
 31
0.0
  0
LINE
  5
2FF9
330
1A
100
AcDbEntity
  8
NOKITOI
  6
PHANTOM
 62
     8
 48
5.0
100
AcDbLine
 10
497.8146139856402
 20
310.3359791904328
 30
0.0
 11
497.3196139856402
 21
309.478679190433
 31
0.0
  0
ARC
  5
2FFA
330
1A
100
AcDbEntity
  8
SEIHIN
  6
CONTINUOUS
 62
     3
 48
16.0
100
AcDbCircle
 10
476.0147363992651
 20
339.1013108457693
 30
0.0
 40
1.000018344914744
100
AcDbArc
 50
11.40335365591488
 51
90.00128418255771
  0
ARC
  5
2FFB
330
1A
100
AcDbEntity
  8
NOKITOI
  6
PHANTOM
 62
     8
 48
5.0
100
AcDbCircle
 10
476.459395543026
 20
340.9503941538697
 30
0.0
 40
0.1989850374177657
100
AcDbArc
 50
11.88631382809341
 51
89.99468963106487
  0
LINE
  5
2FFC
330
1A
100
AcDbEntity
  8
SEIHIN
  6
CONTINUOUS
 62
     3
 48
16.0
100
AcDbLine
 10
476.5332139856403
 20
349.751329190433
 30
0.0
 11
476.5332139856403
 21
351.0513291904327
 31
0.0
  0
LINE
  5
2FFD
330
1A
100
AcDbEntity
  8
NOKITOI
  6
PHANTOM
 62
     8
 48
5.0
100
AcDbLine
 10
475.8373139856401
 20
350.1538791904327
 30
0.0
 11
475.8373139856401
 21
345.9490791904329
 31
0.0
  0
DIMENSION
  5
2FFE
330
1A
100
AcDbEntity
  8
SUNPOU
100
AcDbDimension
  2
*D13
 10
625.5351657974998
 20
297.0512291904329
 30
0.0
 11
620.5351657974996
 21
325.1827589201627
 31
0.0
 70
    32
  3
STANDARD
100
AcDbAlignedDimension
 13
586.4032139856401
 23
353.3142886498925
 33
0.0
 14
563.3570139856401
 24
297.0512291904329
 34
0.0
 50
90.0
100
AcDbRotatedDimension
1001
ACAD
1000
DSTYLE
1002
{
1070
   140
1040
6.0
1070
    74
1070
     0
1070
   172
1070
     1
1070
    73
1070
     0
1070
   272
1070
     2
1070
    77
1070
     3
1070
   173
1070
     1
1070
   147
1040
2.0
1070
    42
1040
6.0
1070
    44
1040
3.0
1070
    43
1040
14.0
1070
   271
1070
     0
1070
   178
1070
     4
1070
   177
1070
     4
1070
   176
1070
     4
1070
   141
1040
150.0
1070
     7
1000
_OPEN
1070
     6
1000
_OPEN
1070
    41
1040
7.0
1002
}
  0
LINE
  5
2FFF
330
1A
100
AcDbEntity
  8
SEIHIN
  6
CONTINUOUS
 48
16.0
100
AcDbLine
 10
585.1032139856402
 20
352.2518291904328
 30
0.0
 11
585.1032139856402
 21
340.101329190433
 31
0.0
  0
ARC
  5
3000
330
1A
100
AcDbEntity
  8
NOKITOI
  6
PHANTOM
 62
     8
 48
5.0
100
AcDbCircle
 10
582.6254139856404
 20
342.1441791904329
 30
0.0
 40
0.9949999999999192
100
AcDbArc
 50
269.9999999999951
 51
359.9999999999951
  0
LINE
  5
3001
330
1A
100
AcDbEntity
  8
SEIHIN
  6
CONTINUOUS
 62
     3
 48
16.0
100
AcDbLine
 10
586.4032139856401
 20
352.2869291904328
 30
0.0
 11
586.4032139856401
 21
338.8013291904329
 31
0.0
  0
LINE
  5
3002
330
1A
100
AcDbEntity
  8
SEIHIN
  6
CONTINUOUS
 62
     3
 48
16.0
100
AcDbLine
 10
584.1032139856404
 20
349.9239291904328
 30
0.0
 11
584.1032139856404
 21
341.101329190433
 31
0.0
  0
LINE
  5
3003
330
1A
100
AcDbEntity
  8
NOKITOI
  6
PHANTOM
 62
     8
 48
5.0
100
AcDbLine
 10
575.0901139856401
 20
340.1812791904328
 30
0.0
 11
577.3992139856401
 21
351.1486791904328
 31
0.0
  0
ARC
  5
3004
330
1A
100
AcDbEntity
  8
SEIHIN
  6
CONTINUOUS
 62
     3
 48
16.0
100
AcDbCircle
 10
573.4823047769735
 20
309.9317211241864
 30
0.0
 40
0.9999263298060332
100
AcDbArc
 50
273.8310216865131
 51
348.6029720481207
  0
LINE
  5
3005
330
1A
100
AcDbEntity
  8
SEIHIN
  6
CONTINUOUS
 48
16.0
100
AcDbLine
 10
578.8960524294086
 20
338.29898710089
 30
0.0
 11
573.3760139856401
 21
310.9227291904329
 31
0.0
  0
LINE
  5
3006
330
1A
100
AcDbEntity
  8
SEIHIN
  6
CONTINUOUS
 62
     3
 48
16.0
100
AcDbLine
 10
572.5302139856403
 20
311.787529190433
 30
0.0
 11
577.8764139856402
 21
338.3013291904329
 31
0.0
  0
LINE
  5
3007
330
1A
100
AcDbEntity
  8
SEIHIN
  6
CONTINUOUS
 62
     3
 48
16.0
100
AcDbLine
 10
570.9906139856403
 20
313.2584291904328
 30
0.0
 11
576.2413139856403
 21
339.2990291904329
 31
0.0
  0
LINE
  5
3008
330
1A
100
AcDbEntity
  8
NOKITOI
  6
PHANTOM
 62
     8
 48
5.0
100
AcDbLine
 10
570.7438139856403
 20
313.2598791904328
 30
0.0
 11
576.5825139856401
 21
340.9912791904328
 31
0.0
  0
LINE
  5
3009
330
1A
100
AcDbEntity
  8
NOKITOI
  6
PHANTOM
 62
     8
 48
5.0
100
AcDbLine
 10
569.6351139856403
 20
314.2723791904329
 30
0.0
 11
575.0901139856401
 21
340.1812791904328
 31
0.0
  0
LINE
  5
300A
330
1A
100
AcDbEntity
  8
NOKITOI
  6
PHANTOM
 62
     8
 48
5.0
100
AcDbLine
 10
559.0586139856403
 20
302.4512791904329
 30
0.0
 11
556.4169139856403
 21
302.4512791904329
 31
0.0
  0
LINE
  5
300B
330
1A
100
AcDbEntity
  8
NOKITOI
  6
PHANTOM
 62
     8
 48
5.0
100
AcDbLine
 10
554.6169139856401
 20
311.1407791904328
 30
0.0
 11
564.5974139856401
 21
311.1406791904329
 31
0.0
  0
LINE
  5
300C
330
1A
100
AcDbEntity
  8
NOKITOI
  6
PHANTOM
 62
     8
 48
5.0
100
AcDbLine
 10
562.49981398564
 20
309.8406791904328
 30
0.0
 11
556.2792139856403
 21
309.8406791904328
 31
0.0
  0
LINE
  5
300D
330
1A
100
AcDbEntity
  8
NOKITOI
  6
PHANTOM
 62
     8
 48
5.0
100
AcDbLine
 10
554.6168139856403
 20
302.6437791904329
 30
0.0
 11
554.6169139856401
 21
311.1407791904328
 31
0.0
  0
LINE
  5
300E
330
1A
100
AcDbEntity
  8
NOKITOI
  6
PHANTOM
 62
     8
 48
5.0
100
AcDbLine
 10
555.9169139856403
 20
309.4783791904328
 30
0.0
 11
555.9169139856403
 21
302.9512791904328
 31
0.0
  0
ARC
  5
300F
330
1A
100
AcDbEntity
  8
NOKITOI
  6
PHANTOM
 62
     8
 48
5.0
100
AcDbCircle
 10
556.4169139856402
 20
302.9512791904329
 30
0.0
 40
0.4999999999999432
100
AcDbArc
 50
180.0000000000065
 51
270.0000000000065
  0
ARC
  5
3010
330
1A
100
AcDbEntity
  8
NOKITOI
  6
PHANTOM
 62
     8
 48
5.0
100
AcDbCircle
 10
554.4177639856402
 20
302.6437291904329
 30
0.0
 40
0.1990500062799141
100
AcDbArc
 50
270.0143923080609
 51
0.0143923080609163
  0
LINE
  5
3011
330
1A
100
AcDbEntity
  8
NOKITOI
  6
PHANTOM
 62
     8
 48
5.0
100
AcDbLine
 10
555.42191398564
 20
310.3356791904328
 30
0.0
 11
556.2792139856403
 21
309.8406791904328
 31
0.0
  0
LINE
  5
3012
330
1A
100
AcDbEntity
  8
NOKITOI
  6
PHANTOM
 62
     8
 48
5.0
100
AcDbLine
 10
555.42191398564
 20
310.3356791904328
 30
0.0
 11
555.9169139856403
 21
309.4783791904328
 31
0.0
  0
ARC
  5
3013
330
1A
100
AcDbEntity
  8
NOKITOI
  6
PHANTOM
 62
     8
 48
5.0
100
AcDbCircle
 10
573.503772440331
 20
300.0448943258766
 30
0.0
 40
14.23462403148678
100
AcDbArc
 50
139.2075062369004
 51
168.6237859483832
  0
ARC
  5
3014
330
1A
100
AcDbEntity
  8
SEIHIN
  6
CONTINUOUS
 48
16.0
100
AcDbCircle
 10
574.210525677413
 20
299.0561424446832
 30
0.0
 40
11.19999046986436
100
AcDbArc
 50
98.5545620007919
 51
178.6135780951439
  0
ARC
  5
3015
330
1A
100
AcDbEntity
  8
SEIHIN
  6
CONTINUOUS
 62
     3
 48
16.0
100
AcDbCircle
 10
574.2105432078122
 20
299.0561607212604
 30
0.0
 40
14.00000591324428
100
AcDbArc
 50
106.2607485347259
 51
168.0920170530357
  0
ARC
  5
3016
330
1A
100
AcDbEntity
  8
SEIHIN
  6
CONTINUOUS
 62
     3
 48
16.0
100
AcDbCircle
 10
574.2105256153313
 20
299.0561421059293
 30
0.0
 40
12.19997416739438
100
AcDbArc
 50
101.6281257201568
 51
174.3694290436716
  0
ARC
  5
3017
330
1A
100
AcDbEntity
  8
NOKITOI
  6
PHANTOM
 62
     8
 48
5.0
100
AcDbCircle
 10
573.5037028293194
 20
300.0450666089587
 30
0.0
 40
12.93449408578155
100
AcDbArc
 50
105.5473332353541
 51
171.324061764301
  0
ARC
  5
3018
330
1A
100
AcDbEntity
  8
NOKITOI
  6
PHANTOM
 62
     8
 48
5.0
100
AcDbCircle
 10
573.5038084522284
 20
300.0449729501675
 30
0.0
 40
12.93461262833301
100
AcDbArc
 50
105.5476727870197
 51
171.3237222126367
  0
ARC
  5
3019
330
1A
100
AcDbEntity
  8
SEIHIN
  6
CONTINUOUS
 62
     3
 48
16.0
100
AcDbCircle
 10
574.2105395201435
 20
299.0561591511852
 30
0.0
 40
9.899989911608981
100
AcDbArc
 50
93.83082628705802
 51
185.2898987386704
  0
ARC
  5
301A
330
1A
100
AcDbEntity
  8
SEIHIN
  6
CONTINUOUS
 62
     3
 48
16.0
100
AcDbCircle
 10
563.3569955989651
 20
298.0512090225262
 30
0.0
 40
0.9999798322624402
100
AcDbArc
 50
270.0010535001187
 51
5.291451672377637
  0
ARC
  5
301B
330
1A
100
AcDbEntity
  8
SEIHIN
  6
CONTINUOUS
 48
16.0
100
AcDbCircle
 10
562.0141103307227
 20
299.3513256229202
 30
0.0
 40
0.9999964324939869
100
AcDbArc
 50
270.0002094120958
 51
358.613506278814
  0
ARC
  5
301C
330
1A
100
AcDbEntity
  8
SEIHIN
  6
CONTINUOUS
 62
     3
 48
16.0
100
AcDbCircle
 10
561.0742322708309
 20
300.3513457601584
 30
0.0
 40
1.000016569892602
100
AcDbArc
 50
269.9989523531098
 51
354.363611832939
  0
ARC
  5
301D
330
1A
100
AcDbEntity
  8
SEIHIN
  6
CONTINUOUS
 62
     3
 48
16.0
100
AcDbCircle
 10
559.5333334688636
 20
302.151344992683
 30
0.0
 40
1.000015802439856
100
AcDbArc
 50
269.9988837111697
 51
348.0877996706426
  0
ARC
  5
301E
330
1A
100
AcDbEntity
  8
NOKITOI
  6
PHANTOM
 62
     8
 48
5.0
100
AcDbCircle
 10
559.7335639137362
 20
302.1463220780316
 30
0.0
 40
0.9950428888512103
100
AcDbArc
 50
269.9971250795227
 51
351.3214426795074
  0
ARC
  5
301F
330
1A
100
AcDbEntity
  8
NOKITOI
  6
PHANTOM
 62
     8
 48
5.0
100
AcDbCircle
 10
559.0586370267685
 20
302.9512980547211
 30
0.0
 40
0.5000188648190603
100
AcDbArc
 50
269.9973597808037
 51
348.6132711445597
  0
ARC
  5
3020
330
1A
100
AcDbEntity
  8
NOKITOI
  6
PHANTOM
 62
     8
 48
5.0
100
AcDbCircle
 10
573.5038284891889
 20
300.0449871146213
 30
0.0
 40
14.22809199964113
100
AcDbArc
 50
108.5474584936563
 51
128.7537062451649
  0
ARC
  5
3021
330
1A
100
AcDbEntity
  8
NOKITOI
  6
PHANTOM
 62
     8
 48
5.0
100
AcDbCircle
 10
562.4998276634916
 20
309.540649326739
 30
0.0
 40
0.3000298640056128
100
AcDbArc
 50
319.219058422278
 51
90.00261201719894
  0
ARC
  5
3022
330
1A
100
AcDbEntity
  8
SEIHIN
  6
CONTINUOUS
 62
     3
 48
16.0
100
AcDbCircle
 10
570.0103196616673
 20
313.4561353699498
 30
0.0
 40
1.000032346993145
100
AcDbArc
 50
286.2652935977716
 51
348.5975191752927
  0
ARC
  5
3023
330
1A
100
AcDbEntity
  8
SEIHIN
  6
CONTINUOUS
 62
     3
 48
16.0
100
AcDbCircle
 10
571.5500302553516
 20
311.9852455234447
 30
0.0
 40
1.000023969816785
100
AcDbArc
 50
281.6234544637225
 51
348.5968289232008
  0
ARC
  5
3024
330
1A
100
AcDbEntity
  8
NOKITOI
  6
PHANTOM
 62
     8
 48
5.0
100
AcDbCircle
 10
569.7701883224924
 20
313.4649584418204
 30
0.0
 40
0.9949690575286499
100
AcDbArc
 50
285.5437330810334
 51
348.1110361155297
  0
ARC
  5
3025
330
1A
100
AcDbEntity
  8
NOKITOI
  6
PHANTOM
 62
     8
 48
5.0
100
AcDbCircle
 10
568.6615575551914
 20
314.4774281422018
 30
0.0
 40
0.9950135261271753
100
AcDbArc
 50
288.5445751594488
 51
348.1074736523479
  0
ARC
  5
3026
330
1A
100
AcDbEntity
  8
SEIHIN
  6
CONTINUOUS
 48
16.0
100
AcDbCircle
 10
572.3957167406995
 20
311.1204318119802
 30
0.0
 40
1.00003450690707
100
AcDbArc
 50
278.5569340935937
 51
348.5977520871735
  0
LINE
  5
3027
330
1A
100
AcDbEntity
  8
SEIHIN
  6
CONTINUOUS
 62
     3
 48
16.0
100
AcDbLine
 10
579.9600139856404
 20
336.9989291904329
 30
0.0
 11
574.4625139856402
 21
309.7341291904328
 31
0.0
  0
LINE
  5
3028
330
1A
100
AcDbEntity
  8
SEIHIN
  6
CONTINUOUS
 62
     3
 48
16.0
100
AcDbLine
 10
583.2519139856401
 20
299.051529190433
 30
0.0
 11
583.5122139856403
 21
299.051529190433
 31
0.0
  0
LINE
  5
3029
330
1A
100
AcDbEntity
  8
SEIHIN
  6
CONTINUOUS
 48
16.0
100
AcDbLine
 10
584.1032139856404
 20
339.101329190433
 30
0.0
 11
579.8763234890823
 21
339.101329190433
 31
0.0
  0
LINE
  5
302A
330
1A
100
AcDbEntity
  8
SEIHIN
  6
CONTINUOUS
 62
     3
 48
16.0
100
AcDbLine
 10
577.2216139856403
 20
340.101329190433
 30
0.0
 11
583.1032139856404
 21
340.101329190433
 31
0.0
  0
LINE
  5
302B
330
1A
100
AcDbEntity
  8
SEIHIN
  6
CONTINUOUS
 48
16.0
100
AcDbLine
 10
585.4032139856401
 20
337.8013291904329
 30
0.0
 11
579.6142139856401
 21
337.8013291904329
 31
0.0
  0
LINE
  5
302C
330
1A
100
AcDbEntity
  8
NOKITOI
  6
PHANTOM
 62
     8
 48
5.0
100
AcDbLine
 10
576.7772139856401
 20
341.1491791904329
 30
0.0
 11
582.6254139856403
 21
341.1491791904329
 31
0.0
  0
ARC
  5
302D
330
1A
100
AcDbEntity
  8
SEIHIN
  6
CONTINUOUS
 48
16.0
100
AcDbCircle
 10
579.8763234890823
 20
338.101329190433
 30
0.0
 40
1.0
100
AcDbArc
 50
90.0
 51
168.5999666795692
  0
ARC
  5
302E
330
1A
100
AcDbEntity
  8
SEIHIN
  6
CONTINUOUS
 62
     3
 48
16.0
100
AcDbCircle
 10
577.2215915720153
 20
339.1013108457694
 30
0.0
 40
1.000018344914625
100
AcDbArc
 50
89.99871581745205
 51
168.5966463440915
  0
LINE
  5
302F
330
1A
100
AcDbEntity
  8
SEIHIN
  6
CONTINUOUS
 62
     3
 48
16.0
100
AcDbLine
 10
577.8764139856402
 20
338.3013291904329
 30
0.0
 11
576.0401139856403
 21
338.3013291904329
 31
0.0
  0
ARC
  5
3030
330
1A
100
AcDbEntity
  8
NOKITOI
  6
PHANTOM
 62
     8
 48
5.0
100
AcDbCircle
 10
576.7772324282544
 20
340.9502941538696
 30
0.0
 40
0.1989850374179911
100
AcDbArc
 50
90.00531036897097
 51
168.1136861719429
  0
ARC
  5
3031
330
1A
100
AcDbEntity
  8
SEIHIN
  6
CONTINUOUS
 48
16.0
100
AcDbCircle
 10
579.614203647226
 20
336.8013207280047
 30
0.0
 40
1.000008462481653
100
AcDbArc
 50
89.99940765751835
 51
168.6029545883147
  0
ARC
  5
3032
330
1A
100
AcDbEntity
  8
SEIHIN
  6
CONTINUOUS
 62
     3
 48
16.0
100
AcDbCircle
 10
580.940303647226
 20
336.8013207280047
 30
0.0
 40
1.000008462481653
100
AcDbArc
 50
89.99940765751835
 51
168.6029545883147
  0
ARC
  5
3033
330
1A
100
AcDbEntity
  8
SEIHIN
  6
CONTINUOUS
 48
16.0
100
AcDbCircle
 10
584.1032139856404
 20
340.1013291904329
 30
0.0
 40
0.9999999999999147
100
AcDbArc
 50
270.0000000000049
 51
0.0000000000048853
  0
ARC
  5
3034
330
1A
100
AcDbEntity
  8
SEIHIN
  6
CONTINUOUS
 48
16.0
100
AcDbCircle
 10
584.1032139856404
 20
340.1013291904329
 30
0.0
 40
0.9999999999999147
100
AcDbArc
 50
270.0000000000049
 51
0.0000000000048853
  0
ARC
  5
3035
330
1A
100
AcDbEntity
  8
SEIHIN
  6
CONTINUOUS
 62
     3
 48
16.0
100
AcDbCircle
 10
585.4031776469605
 20
338.8012889924514
 30
0.0
 40
1.000036339487399
100
AcDbArc
 50
275.7756042581632
 51
0.0023030909960067
  0
ARC
  5
3036
330
1A
100
AcDbEntity
  8
SEIHIN
  6
CONTINUOUS
 62
     3
 48
16.0
100
AcDbCircle
 10
583.1032139856404
 20
341.101329190433
 30
0.0
 40
1.0
100
AcDbArc
 50
270.0
 51
0.0
  0
ARC
  5
3037
330
1A
100
AcDbEntity
  8
SEIHIN
  6
CONTINUOUS
 62
     3
 48
16.0
100
AcDbCircle
 10
585.6045475711209
 20
336.8114652840168
 30
0.0
 40
1.000050213896455
100
AcDbArc
 50
95.78112386247086
 51
178.3460733348806
  0
ARC
  5
3038
330
1A
100
AcDbEntity
  8
SEIHIN
  6
CONTINUOUS
 62
     3
 48
16.0
100
AcDbCircle
 10
576.7031154289886
 20
352.0021316582079
 30
0.0
 40
2.250002467775443
100
AcDbArc
 50
29.35508119850437
 51
269.9999632454783
  0
LINE
  5
3039
330
1A
100
AcDbEntity
  8
SEIHIN
  6
CONTINUOUS
 62
     3
 48
16.0
100
AcDbLine
 10
576.7031139856404
 20
351.0513291904327
 30
0.0
 11
583.0761139856401
 21
351.223529190433
 31
0.0
  0
LINE
  5
303A
330
1A
100
AcDbEntity
  8
SEIHIN
  6
CONTINUOUS
 62
     3
 48
16.0
100
AcDbLine
 10
585.3761139856403
 20
353.286529190433
 30
0.0
 11
578.6643139856403
 21
353.1051291904328
 31
0.0
  0
LINE
  5
303B
330
1A
100
AcDbEntity
  8
NOKITOI
  6
PHANTOM
 62
     8
 48
5.0
100
AcDbLine
 10
582.3204139856403
 20
349.848679190433
 30
0.0
 11
578.4540139856401
 21
349.848679190433
 31
0.0
  0
LINE
  5
303C
330
1A
100
AcDbEntity
  8
NOKITOI
  6
PHANTOM
 62
     8
 48
5.0
100
AcDbLine
 10
582.6254139856403
 20
351.1487791904329
 30
0.0
 11
577.4217139856403
 21
351.1486791904328
 31
0.0
  0
LINE
  5
303D
330
1A
100
AcDbEntity
  8
NOKITOI
  6
PHANTOM
 62
     8
 48
5.0
100
AcDbLine
 10
582.3204139856403
 20
342.4491791904328
 30
0.0
 11
576.8961139856403
 21
342.4492791904329
 31
0.0
  0
LINE
  5
303E
330
1A
100
AcDbEntity
  8
SEIHIN
  6
CONTINUOUS
 62
     3
 48
16.0
100
AcDbLine
 10
576.7031139856404
 20
349.751329190433
 30
0.0
 11
576.7031139856404
 21
351.0513291904327
 31
0.0
  0
LINE
  5
303F
330
1A
100
AcDbEntity
  8
NOKITOI
  6
PHANTOM
 62
     8
 48
5.0
100
AcDbLine
 10
578.4540139856401
 20
349.848679190433
 30
0.0
 11
576.8961139856403
 21
342.4492791904329
 31
0.0
  0
ARC
  5
3040
330
1A
100
AcDbEntity
  8
SEIHIN
  6
CONTINUOUS
 48
16.0
100
AcDbCircle
 10
584.1032316959537
 20
352.2518119520297
 30
0.0
 40
0.9999822898349785
100
AcDbArc
 50
0.0009877052377809
 51
91.54821658972755
  0
ARC
  5
3041
330
1A
100
AcDbEntity
  8
SEIHIN
  6
CONTINUOUS
 62
     3
 48
16.0
100
AcDbCircle
 10
585.4032303434076
 20
352.2869132701279
 30
0.0
 40
0.9999836423591807
100
AcDbArc
 50
0.0009121812018295
 51
91.55386874206751
  0
ARC
  5
3042
330
1A
100
AcDbEntity
  8
SEIHIN
  6
CONTINUOUS
 62
     3
 48
16.0
100
AcDbCircle
 10
582.8188818538446
 20
349.9645645801162
 30
0.0
 40
1.284974808958525
100
AcDbArc
 50
358.1878052836801
 51
78.45224751143563
  0
ARC
  5
3043
330
1A
100
AcDbEntity
  8
NOKITOI
  6
PHANTOM
 62
     8
 48
5.0
100
AcDbCircle
 10
582.6254139856403
 20
350.1537791904329
 30
0.0
 40
0.9950000000000613
100
AcDbArc
 50
359.9999999999967
 51
89.99999999999674
  0
LINE
  5
3044
330
1A
100
AcDbEntity
  8
NOKITOI
  6
PHANTOM
 62
     8
 48
5.0
100
AcDbLine
 10
582.3204139856403
 20
342.4491791904328
 30
0.0
 11
582.3204139856403
 21
349.848679190433
 31
0.0
  0
LINE
  5
3045
330
1A
100
AcDbEntity
  8
NOKITOI
  6
PHANTOM
 62
     8
 48
5.0
100
AcDbLine
 10
583.6204139856403
 20
342.1441791904328
 30
0.0
 11
583.6204139856403
 21
350.1537791904328
 31
0.0
  0
VIEWPORT
  5
22
330
17
100
AcDbEntity
 67
     1
  8
0
100
AcDbViewport
 10
313.6808219178082
 20
148.5
 30
0.0
 40
627.3616438356165
 41
297.0
 68
     2
 69
     1
1001
ACAD
1000
MVIEW
1002
{
1070
    16
1010
0.0
1020
0.0
1030
0.0
1010
0.0
1020
0.0
1030
1.0
1040
0.0
1040
297.0
1040
313.6808219178082
1040
148.5
1040
50.0
1040
0.0
1040
0.0
1070
     0
1070
   100
1070
     1
1070
     0
1070
     0
1070
     0
1070
     0
1070
     0
1040
0.0
1040
0.0
1040
0.0
1040
1.0
1040
1.0
1040
10.0
1040
10.0
1070
     0
1002
{
1002
}
1002
}
  0
VIEWPORT
  5
64
330
17
100
AcDbEntity
 67
     1
  8
VIEWPORT
100
AcDbViewport
 10
210.0
 20
148.5
 30
0.0
 40
420.0
 41
297.0
 68
     1
 69
     2
1001
ACAD
1000
MVIEW
1002
{
1070
    16
1010
0.0
1020
0.0
1030
0.0
1010
0.0
1020
0.0
1030
1.0
1040
0.0
1040
605.8799999999998
1040
420.0
1040
297.0
1040
50.0
1040
0.0
1040
0.0
1070
     0
1070
   100
1070
     1
1070
     0
1070
     0
1070
     0
1070
     0
1070
     0
1040
0.0
1040
0.0
1040
0.0
1040
10.0
1040
10.0
1040
0.0
1040
0.0
1070
     0
1002
{
1002
}
1002
}
  0
ENDSEC
  0
SECTION
  2
OBJECTS
  0
DICTIONARY
  5
C
330
0
100
AcDbDictionary
  3
ACAD_GROUP
350
D
  3
ACAD_LAYOUT
350
884
  3
ACAD_MLINESTYLE
350
E
  3
ACAD_PLOTSETTINGS
350
885
  3
ACAD_PLOTSTYLENAME
350
882
  3
ACDBHEADERROUNDTRIPXREC
350
3164
  0
DICTIONARY
  5
8E1
330
1A
100
AcDbDictionary
280
     1
  3
ACAD_LAYOUTSELFREF
360
3186
  0
DICTIONARY
  5
8DF
330
17
100
AcDbDictionary
280
     1
  3
ACAD_LAYOUTSELFREF
360
3185
  0
DICTIONARY
  5
D
102
{ACAD_REACTORS
330
C
102
}
330
C
100
AcDbDictionary
  0
DICTIONARY
  5
884
102
{ACAD_REACTORS
330
C
102
}
330
C
100
AcDbDictionary
  0
DICTIONARY
  5
E
102
{ACAD_REACTORS
330
C
102
}
330
C
100
AcDbDictionary
  3
STANDARD
350
13
  0
DICTIONARY
  5
885
102
{ACAD_REACTORS
330
C
102
}
330
C
100
AcDbDictionary
  0
ACDBDICTIONARYWDFLT
  5
882
102
{ACAD_REACTORS
330
C
102
}
330
C
100
AcDbDictionary
281
     1
  3
Normal
350
883
100
AcDbDictionaryWithDefault
340
883
1001
ACAD
1000
TREAT_AS_HARD
1070
     0
1000
TREAT_AS_HARD
1070
     0
1000
TREAT_AS_HARD
1070
     0
1000
TREAT_AS_HARD
1070
     0
1000
TREAT_AS_HARD
1070
     0
1000
TREAT_AS_HARD
1070
     0
1000
TREAT_AS_HARD
1070
     0
  0
DICTIONARY
  5
3164
102
{ACAD_REACTORS
330
C
102
}
330
C
100
AcDbDictionary
  3
TSTACKALIGN
350
3165
  3
TSTACKSIZE
350
3166
  3
HYPERLINKBASE
350
3167
  3
STYLESHEET
350
3168
  3
LAYOUTDICT
350
3169
  3
PLOTSETDICT
350
316A
  3
PLOTSTYLNAMDICT
350
316B
  3
LWETCUNION
350
316C
  3
INSUNITS
350
316D
  3
CEPSNTYPE
350
316E
  3
FINGERPRINTGUID
350
316F
  3
VERSIONGUID
350
3170
  3
PSVPSCALE
350
3171
  3
DIMSTYLEDATA
350
3172
  3
PUCSORTHOREF
350
3173
  3
PUCSORTHOVIEW
350
3174
  3
PUCSBASE
350
3175
  3
PUCSORGTOP
350
3176
  3
PUCSORGBOTTOM
350
3177
  3
PUCSORGLEFT
350
3178
  3
PUCSORGRIGHT
350
3179
  3
PUCSORGFRONT
350
317A
  3
PUCSORGBACK
350
317B
  3
UCSORTHOREF
350
317C
  3
UCSORTHOVIEW
350
317D
  3
UCSBASE
350
317E
  3
UCSORGTOP
350
317F
  3
UCSORGBOTTOM
350
3180
  3
UCSORGLEFT
350
3181
  3
UCSORGRIGHT
350
3182
  3
UCSORGFRONT
350
3183
  3
UCSORGBACK
350
3184
  0
XRECORD
  5
3186
102
{ACAD_REACTORS
330
8E1
102
}
330
8E1
100
AcDbXrecord
340
1A
  0
XRECORD
  5
3185
102
{ACAD_REACTORS
330
8DF
102
}
330
8DF
100
AcDbXrecord
340
17
  0
MLINESTYLE
  5
13
102
{ACAD_REACTORS
330
E
102
}
330
E
100
AcDbMlineStyle
  2
STANDARD
 70
     0
  3

 62
     0
 51
90.0
 52
90.0
 71
     2
 49
0.5
 62
   256
  6
BYLAYER
 49
-0.5
 62
   256
  6
BYLAYER
  0
ACDBPLACEHOLDER
  5
883
102
{ACAD_REACTORS
330
882
102
}
330
882
100
AcDbPlaceHolder
280
     0
  0
XRECORD
  5
3165
102
{ACAD_REACTORS
330
3164
102
}
330
3164
100
AcDbXrecord
 90
        1
  0
XRECORD
  5
3166
102
{ACAD_REACTORS
330
3164
102
}
330
3164
100
AcDbXrecord
 90
       70
  0
XRECORD
  5
3167
102
{ACAD_REACTORS
330
3164
102
}
330
3164
100
AcDbXrecord
  1

  0
XRECORD
  5
3168
102
{ACAD_REACTORS
330
3164
102
}
330
3164
100
AcDbXrecord
  1
systemprinter.ctb
  0
XRECORD
  5
3169
102
{ACAD_REACTORS
330
3164
102
}
330
3164
100
AcDbXrecord
340
884
  0
XRECORD
  5
316A
102
{ACAD_REACTORS
330
3164
102
}
330
3164
100
AcDbXrecord
340
885
  0
XRECORD
  5
316B
102
{ACAD_REACTORS
330
3164
102
}
330
3164
100
AcDbXrecord
340
882
  0
XRECORD
  5
316C
102
{ACAD_REACTORS
330
3164
102
}
330
3164
100
AcDbXrecord
 90
    10781
  0
XRECORD
  5
316D
102
{ACAD_REACTORS
330
3164
102
}
330
3164
100
AcDbXrecord
 90
        0
  0
XRECORD
  5
316E
102
{ACAD_REACTORS
330
3164
102
}
330
3164
100
AcDbXrecord
 90
        0
  0
XRECORD
  5
316F
102
{ACAD_REACTORS
330
3164
102
}
330
3164
100
AcDbXrecord
  1
{8EA77232-D3C6-11D3-932C-444553540000}
  0
XRECORD
  5
3170
102
{ACAD_REACTORS
330
3164
102
}
330
3164
100
AcDbXrecord
  1
{836A4E92-002D-4F10-B395-6C8B1B88E5B7}
  0
XRECORD
  5
3171
102
{ACAD_REACTORS
330
3164
102
}
330
3164
100
AcDbXrecord
 40
0.0
  0
XRECORD
  5
3172
102
{ACAD_REACTORS
330
3164
102
}
330
3164
100
AcDbXrecord
1000
DSTYLE
1002
{
1070
   279
 70
     2
1070
   341
340
6D
1070
   343
340
6D
1070
   344
340
6D
1070
   371
 70
    -1
1070
   372
 70
    -1
1002
}
  0
XRECORD
  5
3173
102
{ACAD_REACTORS
330
3164
102
}
330
3164
100
AcDbXrecord
340
0
  0
XRECORD
  5
3174
102
{ACAD_REACTORS
330
3164
102
}
330
3164
100
AcDbXrecord
 70
     0
  0
XRECORD
  5
3175
102
{ACAD_REACTORS
330
3164
102
}
330
3164
100
AcDbXrecord
340
0
  0
XRECORD
  5
3176
102
{ACAD_REACTORS
330
3164
102
}
330
3164
100
AcDbXrecord
 10
0.0
 20
0.0
 30
0.0
  0
XRECORD
  5
3177
102
{ACAD_REACTORS
330
3164
102
}
330
3164
100
AcDbXrecord
 10
0.0
 20
0.0
 30
0.0
  0
XRECORD
  5
3178
102
{ACAD_REACTORS
330
3164
102
}
330
3164
100
AcDbXrecord
 10
0.0
 20
0.0
 30
0.0
  0
XRECORD
  5
3179
102
{ACAD_REACTORS
330
3164
102
}
330
3164
100
AcDbXrecord
 10
0.0
 20
0.0
 30
0.0
  0
XRECORD
  5
317A
102
{ACAD_REACTORS
330
3164
102
}
330
3164
100
AcDbXrecord
 10
0.0
 20
0.0
 30
0.0
  0
XRECORD
  5
317B
102
{ACAD_REACTORS
330
3164
102
}
330
3164
100
AcDbXrecord
 10
0.0
 20
0.0
 30
0.0
  0
XRECORD
  5
317C
102
{ACAD_REACTORS
330
3164
102
}
330
3164
100
AcDbXrecord
340
0
  0
XRECORD
  5
317D
102
{ACAD_REACTORS
330
3164
102
}
330
3164
100
AcDbXrecord
 70
     0
  0
XRECORD
  5
317E
102
{ACAD_REACTORS
330
3164
102
}
330
3164
100
AcDbXrecord
340
0
  0
XRECORD
  5
317F
102
{ACAD_REACTORS
330
3164
102
}
330
3164
100
AcDbXrecord
 10
0.0
 20
0.0
 30
0.0
  0
XRECORD
  5
3180
102
{ACAD_REACTORS
330
3164
102
}
330
3164
100
AcDbXrecord
 10
0.0
 20
0.0
 30
0.0
  0
XRECORD
  5
3181
102
{ACAD_REACTORS
330
3164
102
}
330
3164
100
AcDbXrecord
 10
0.0
 20
0.0
 30
0.0
  0
XRECORD
  5
3182
102
{ACAD_REACTORS
330
3164
102
}
330
3164
100
AcDbXrecord
 10
0.0
 20
0.0
 30
0.0
  0
XRECORD
  5
3183
102
{ACAD_REACTORS
330
3164
102
}
330
3164
100
AcDbXrecord
 10
0.0
 20
0.0
 30
0.0
  0
XRECORD
  5
3184
102
{ACAD_REACTORS
330
3164
102
}
330
3164
100
AcDbXrecord
 10
0.0
 20
0.0
 30
0.0
  0
ENDSEC
  0
EOF
