  0
SECTION
  2
HEADER
  9
$ACADVER
  1
AC1012
  9
$DWGCODEPAGE
  3
dos932
  9
$INSBASE
 10
0.0
 20
0.0
 30
0.0
  9
$EXTMIN
 10
10.05047808566086
 20
4.949376903717846
 30
0.0
  9
$EXTMAX
 10
806.2246110975902
 20
563.7825862828226
 30
0.0
  9
$LIMMIN
 10
0.0
 20
0.0
  9
$LIMMAX
 10
840.0
 20
594.0
  9
$ORTHOMODE
 70
     0
  9
$REGENMODE
 70
     1
  9
$FILLMODE
 70
     1
  9
$QTEXTMODE
 70
     0
  9
$MIRRTEXT
 70
     1
  9
$DRAGMODE
 70
     2
  9
$LTSCALE
 40
2.0
  9
$OSMODE
 70
    37
  9
$ATTMODE
 70
     1
  9
$TEXTSIZE
 40
5.0
  9
$TRACEWID
 40
1.0
  9
$TEXTSTYLE
  7
STANDARD
  9
$CLAYER
  8
SUNPOU
  9
$CELTYPE
  6
BYLAYER
  9
$CECOLOR
 62
   256
  9
$CELTSCALE
 40
5.0
  9
$DELOBJ
 70
     1
  9
$DISPSILH
 70
     0
  9
$DIMSCALE
 40
1.0
  9
$DIMASZ
 40
7.0
  9
$DIMEXO
 40
6.0
  9
$DIMDLI
 40
14.0
  9
$DIMRND
 40
0.0
  9
$DIMDLE
 40
0.0
  9
$DIMEXE
 40
3.0
  9
$DIMTP
 40
0.0
  9
$DIMTM
 40
0.0
  9
$DIMTXT
 40
6.0
  9
$DIMCEN
 40
150.0
  9
$DIMTSZ
 40
0.0
  9
$DIMTOL
 70
     0
  9
$DIMLIM
 70
     0
  9
$DIMTIH
 70
     0
  9
$DIMTOH
 70
     0
  9
$DIMSE1
 70
     0
  9
$DIMSE2
 70
     0
  9
$DIMTAD
 70
     3
  9
$DIMZIN
 70
     0
  9
$DIMBLK
  1

  9
$DIMASO
 70
     1
  9
$DIMSHO
 70
     1
  9
$DIMPOST
  1

  9
$DIMAPOST
  1

  9
$DIMALT
 70
     0
  9
$DIMALTD
 70
     2
  9
$DIMALTF
 40
25.4
  9
$DIMLFAC
 40
1.0
  9
$DIMTOFL
 70
     1
  9
$DIMTVP
 40
0.0
  9
$DIMTIX
 70
     0
  9
$DIMSOXD
 70
     0
  9
$DIMSAH
 70
     1
  9
$DIMBLK1
  1
OPEN
  9
$DIMBLK2
  1
OPEN
  9
$DIMSTYLE
  2
STANDARD
  9
$DIMCLRD
 70
   256
  9
$DIMCLRE
 70
   256
  9
$DIMCLRT
 70
   256
  9
$DIMTFAC
 40
1.0
  9
$DIMGAP
 40
2.0
  9
$DIMJUST
 70
     0
  9
$DIMSD1
 70
     0
  9
$DIMSD2
 70
     0
  9
$DIMTOLJ
 70
     1
  9
$DIMTZIN
 70
     0
  9
$DIMALTZ
 70
     0
  9
$DIMALTTZ
 70
     0
  9
$DIMFIT
 70
     3
  9
$DIMUPT
 70
     0
  9
$DIMUNIT
 70
     2
  9
$DIMDEC
 70
     0
  9
$DIMTDEC
 70
     0
  9
$DIMALTU
 70
     2
  9
$DIMALTTD
 70
     2
  9
$DIMTXSTY
  7
STANDARD
  9
$DIMAUNIT
 70
     0
  9
$LUNITS
 70
     2
  9
$LUPREC
 70
     4
  9
$SKETCHINC
 40
1.0
  9
$FILLETRAD
 40
20.0
  9
$AUNITS
 70
     0
  9
$AUPREC
 70
     0
  9
$MENU
  1
.
  9
$ELEVATION
 40
0.0
  9
$PELEVATION
 40
0.0
  9
$THICKNESS
 40
0.0
  9
$LIMCHECK
 70
     0
  9
$BLIPMODE
 70
     0
  9
$CHAMFERA
 40
20.0
  9
$CHAMFERB
 40
20.0
  9
$CHAMFERC
 40
40.0
  9
$CHAMFERD
 40
0.0
  9
$SKPOLY
 70
     0
  9
$TDCREATE
 40
2451275.415415509
  9
$TDUPDATE
 40
2452393.718246354
  9
$TDINDWG
 40
0.0276339931
  9
$TDUSRTIMER
 40
0.0276339931
  9
$USRTIMER
 70
     1
  9
$ANGBASE
 50
0.0
  9
$ANGDIR
 70
     0
  9
$PDMODE
 70
     0
  9
$PDSIZE
 40
0.0
  9
$PLINEWID
 40
0.0
  9
$COORDS
 70
     1
  9
$SPLFRAME
 70
     0
  9
$SPLINETYPE
 70
     6
  9
$SPLINESEGS
 70
     8
  9
$ATTDIA
 70
     0
  9
$ATTREQ
 70
     1
  9
$HANDLING
 70
 10241
  9
$HANDSEED
  5
C3F
  9
$SURFTAB1
 70
     6
  9
$SURFTAB2
 70
     6
  9
$SURFTYPE
 70
     6
  9
$SURFU
 70
     6
  9
$SURFV
 70
     6
  9
$UCSNAME
  2

  9
$UCSORG
 10
0.0
 20
0.0
 30
0.0
  9
$UCSXDIR
 10
1.0
 20
0.0
 30
0.0
  9
$UCSYDIR
 10
0.0
 20
1.0
 30
0.0
  9
$PUCSNAME
  2

  9
$PUCSORG
 10
0.0
 20
0.0
 30
0.0
  9
$PUCSXDIR
 10
1.0
 20
0.0
 30
0.0
  9
$PUCSYDIR
 10
0.0
 20
1.0
 30
0.0
  9
$USERI1
 70
     0
  9
$USERI2
 70
     0
  9
$USERI3
 70
     0
  9
$USERI4
 70
     0
  9
$USERI5
 70
     0
  9
$USERR1
 40
0.0
  9
$USERR2
 40
0.0
  9
$USERR3
 40
0.0
  9
$USERR4
 40
0.0
  9
$USERR5
 40
0.0
  9
$WORLDVIEW
 70
     1
  9
$SHADEDGE
 70
     3
  9
$SHADEDIF
 70
    70
  9
$TILEMODE
 70
     1
  9
$MAXACTVP
 70
    16
  9
$PINSBASE
 10
0.0
 20
0.0
 30
0.0
  9
$PLIMCHECK
 70
     0
  9
$PEXTMIN
 10
0.0
 20
0.0
 30
0.0
  9
$PEXTMAX
 10
420.0
 20
297.0
 30
0.0
  9
$PLIMMIN
 10
0.0
 20
0.0
  9
$PLIMMAX
 10
420.0
 20
297.0
  9
$UNITMODE
 70
     0
  9
$VISRETAIN
 70
     0
  9
$PLINEGEN
 70
     0
  9
$PSLTSCALE
 70
     1
  9
$TREEDEPTH
 70
  3020
  9
$PICKSTYLE
 70
     1
  9
$CMLSTYLE
  2
STANDARD
  9
$CMLJUST
 70
     0
  9
$CMLSCALE
 40
1.0
  9
$SAVEIMAGES
 70
     1
  0
ENDSEC
  0
SECTION
  2
CLASSES
  0
CLASS
  1
ACDBDICTIONARYWDFLT
  2
AcDbDictionaryWithDefault
  3
AutoCAD 2000
 90
    32768
280
     0
281
     0
  0
CLASS
  1
ACDBPLACEHOLDER
  2
AcDbPlaceHolder
  3
AutoCAD 2000
 90
    32768
280
     0
281
     0
  0
CLASS
  1
LAYOUT
  2
AcDbLayout
  3
AutoCAD 2000
 90
    32768
280
     0
281
     0
  0
CLASS
  1
LONG_TRANSACTION
  2
AcDbLongTransaction
  3
AutoCAD 2000
 90
    32768
280
     0
281
     0
  0
CLASS
  1
LWPOLYLINE
  2
AcDbPolyline
  3
AutoCAD 2000
 90
    32768
280
     0
281
     1
  0
CLASS
  1
HATCH
  2
AcDbHatch
  3
AutoCAD 2000
 90
    32768
280
     0
281
     1
  0
CLASS
  1
XRECORD
  2
AcDbXrecord
  3
AutoCAD 2000
 90
    32768
280
     0
281
     0
  0
CLASS
  1
LONG_TRANSACTION
  2
AcDbLongTransaction
  3
AutoCAD 2000
 90
    32768
280
     0
281
     0
  0
CLASS
  1
LWPOLYLINE
  2
AcDbPolyline
  3
AutoCAD 2000
 90
    32768
280
     0
281
     1
  0
CLASS
  1
HATCH
  2
AcDbHatch
  3
AutoCAD 2000
 90
    32768
280
     0
281
     1
  0
CLASS
  1
XRECORD
  2
AcDbXrecord
  3
AutoCAD 2000
 90
    32768
280
     0
281
     0
  0
CLASS
  1
LONG_TRANSACTION
  2
AcDbLongTransaction
  3
AutoCAD 2000
 90
    32768
280
     0
281
     0
  0
CLASS
  1
LWPOLYLINE
  2
AcDbPolyline
  3
AutoCAD 2000
 90
    32768
280
     0
281
     1
  0
CLASS
  1
HATCH
  2
AcDbHatch
  3
AutoCAD 2000
 90
    32768
280
     0
281
     1
  0
CLASS
  1
XRECORD
  2
AcDbXrecord
  3
AutoCAD 2000
 90
    32768
280
     0
281
     0
  0
ENDSEC
  0
SECTION
  2
TABLES
  0
TABLE
  2
VPORT
  5
8
330
0
100
AcDbSymbolTable
 70
     2
  0
VPORT
  5
C34
330
8
100
AcDbSymbolTableRecord
100
AcDbViewportTableRecord
  2
*ACTIVE
 70
     0
 10
0.0
 20
0.0
 11
1.0
 21
1.0
 12
526.2192238192246
 22
282.2968666868806
 13
0.0
 23
0.0
 14
5.0
 24
5.0
 15
0.0
 25
0.0
 16
0.0
 26
0.0
 36
1.0
 17
0.0
 27
0.0
 37
0.0
 40
599.4569182414082
 41
2.169459962756052
 42
50.0
 43
0.0
 44
0.0
 50
0.0
 51
0.0
 71
     0
 72
   100
 73
     1
 74
     0
 75
     0
 76
     0
 77
     0
 78
     0
  0
ENDTAB
  0
TABLE
  2
LTYPE
  5
5
330
0
100
AcDbSymbolTable
 70
     2
  0
LTYPE
  5
14
330
5
100
AcDbSymbolTableRecord
100
AcDbLinetypeTableRecord
  2
BYBLOCK
 70
     0
  3

 72
    65
 73
     0
 40
0.0
  0
LTYPE
  5
15
330
5
100
AcDbSymbolTableRecord
100
AcDbLinetypeTableRecord
  2
BYLAYER
 70
     0
  3

 72
    65
 73
     0
 40
0.0
  0
LTYPE
  5
16
330
5
100
AcDbSymbolTableRecord
100
AcDbLinetypeTableRecord
  2
CONTINUOUS
 70
     0
  3
Solid line
 72
    65
 73
     0
 40
0.0
  0
LTYPE
  5
135
330
5
100
AcDbSymbolTableRecord
100
AcDbLinetypeTableRecord
  2
CENTER
 70
     0
  3
____ _ ____ _ ____ _ ____ _ ____ _ ____ _ ____ 
 72
    65
 73
     4
 40
2.0
 49
1.25
 74
     0
 49
-0.25
 74
     0
 49
0.25
 74
     0
 49
-0.25
 74
     0
  0
ENDTAB
  0
TABLE
  2
LAYER
  5
2
330
0
100
AcDbSymbolTable
 70
     8
  0
LAYER
  5
F
330
2
100
AcDbSymbolTableRecord
100
AcDbLayerTableRecord
  2
0
 70
     0
 62
     7
  6
CONTINUOUS
  0
LAYER
  5
62
330
2
100
AcDbSymbolTableRecord
100
AcDbLayerTableRecord
  2
VIEWPORT
 70
     0
 62
     7
  6
CONTINUOUS
  0
LAYER
  5
65
330
2
100
AcDbSymbolTableRecord
100
AcDbLayerTableRecord
  2
ZUWAKU
 70
     0
 62
     7
  6
CONTINUOUS
  0
LAYER
  5
143
330
2
100
AcDbSymbolTableRecord
100
AcDbLayerTableRecord
  2
SEIHIN
 70
     0
 62
     3
  6
CONTINUOUS
  0
LAYER
  5
144
330
2
100
AcDbSymbolTableRecord
100
AcDbLayerTableRecord
  2
SUNPOU
 70
     0
 62
     4
  6
CONTINUOUS
  0
LAYER
  5
145
330
2
100
AcDbSymbolTableRecord
100
AcDbLayerTableRecord
  2
CENTER_L
 70
     0
 62
     1
  6
CENTER
  0
LAYER
  5
9CD
330
2
100
AcDbSymbolTableRecord
100
AcDbLayerTableRecord
  2
NOKITOI
 70
     0
 62
     6
  6
CONTINUOUS
  0
LAYER
  5
9DA
330
2
100
AcDbSymbolTableRecord
100
AcDbLayerTableRecord
  2
DEFPOINTS
 70
     0
 62
     7
  6
CONTINUOUS
  0
ENDTAB
  0
TABLE
  2
STYLE
  5
3
330
0
100
AcDbSymbolTable
 70
     1
  0
STYLE
  5
10
330
3
100
AcDbSymbolTableRecord
100
AcDbTextStyleTableRecord
  2
STANDARD
 70
     0
 40
0.0
 41
1.0
 50
0.0
 71
     0
 42
5.0
  3
TXT
  4
bigfont.shx
  0
ENDTAB
  0
TABLE
  2
VIEW
  5
6
330
0
100
AcDbSymbolTable
 70
     0
  0
ENDTAB
  0
TABLE
  2
UCS
  5
7
330
0
100
AcDbSymbolTable
 70
     0
  0
ENDTAB
  0
TABLE
  2
APPID
  5
9
330
0
100
AcDbSymbolTable
 70
     1
  0
APPID
  5
11
330
9
100
AcDbSymbolTableRecord
100
AcDbRegAppTableRecord
  2
ACAD
 70
     0
  0
ENDTAB
  0
TABLE
  2
DIMSTYLE
  5
A
330
0
100
AcDbSymbolTable
 70
     1
  0
DIMSTYLE
105
1D
102
{ACAD_REACTORS
330
9DF
330
9EC
330
9F8
330
A05
330
A12
330
A1F
330
A8F
330
A9C
330
AA9
330
AB8
330
AC5
330
AD2
330
B5E
102
}
330
A
100
AcDbSymbolTableRecord
100
AcDbDimStyleTableRecord
  2
STANDARD
 70
     0
  3

  4

  5

  6

  7

 40
1.0
 41
0.18
 42
0.0625
 43
0.38
 44
0.18
 45
0.0
 46
0.0
 47
0.0
 48
0.0
140
0.18
141
0.09
142
0.0
143
25.4
144
1.0
145
0.0
146
1.0
147
0.09
 71
     0
 72
     0
 73
     1
 74
     1
 75
     0
 76
     0
 77
     0
 78
     0
170
     0
171
     2
172
     0
173
     0
174
     0
175
     0
176
     0
177
     0
178
     0
270
     2
271
     4
272
     4
273
     2
274
     2
340
10
275
     0
280
     0
281
     0
282
     0
283
     1
284
     0
285
     0
286
     0
287
     3
288
     0
  0
ENDTAB
  0
TABLE
  2
BLOCK_RECORD
  5
1
330
0
100
AcDbSymbolTable
 70
    14
  0
BLOCK_RECORD
  5
1A
102
{ACAD_XDICTIONARY
360
BE2
102
}
330
1
100
AcDbSymbolTableRecord
100
AcDbBlockTableRecord
  2
*MODEL_SPACE
  0
BLOCK_RECORD
  5
17
102
{ACAD_XDICTIONARY
360
BE0
102
}
330
1
100
AcDbSymbolTableRecord
100
AcDbBlockTableRecord
  2
*PAPER_SPACE
  0
BLOCK_RECORD
  5
6D
330
1
100
AcDbSymbolTableRecord
100
AcDbBlockTableRecord
  2
_OPEN
  0
BLOCK_RECORD
  5
9D2
330
1
100
AcDbSymbolTableRecord
100
AcDbBlockTableRecord
  2
*D1
  0
BLOCK_RECORD
  5
9E0
330
1
100
AcDbSymbolTableRecord
100
AcDbBlockTableRecord
  2
*D2
  0
BLOCK_RECORD
  5
9ED
330
1
100
AcDbSymbolTableRecord
100
AcDbBlockTableRecord
  2
*D3
  0
BLOCK_RECORD
  5
9F9
330
1
100
AcDbSymbolTableRecord
100
AcDbBlockTableRecord
  2
*D4
  0
BLOCK_RECORD
  5
A06
330
1
100
AcDbSymbolTableRecord
100
AcDbBlockTableRecord
  2
*D5
  0
BLOCK_RECORD
  5
A13
330
1
100
AcDbSymbolTableRecord
100
AcDbBlockTableRecord
  2
*D6
  0
BLOCK_RECORD
  5
A83
330
1
100
AcDbSymbolTableRecord
100
AcDbBlockTableRecord
  2
*D7
  0
BLOCK_RECORD
  5
A90
330
1
100
AcDbSymbolTableRecord
100
AcDbBlockTableRecord
  2
*D8
  0
BLOCK_RECORD
  5
A9D
330
1
100
AcDbSymbolTableRecord
100
AcDbBlockTableRecord
  2
*D9
  0
BLOCK_RECORD
  5
AAA
330
1
100
AcDbSymbolTableRecord
100
AcDbBlockTableRecord
  2
*D10
  0
BLOCK_RECORD
  5
AB9
330
1
100
AcDbSymbolTableRecord
100
AcDbBlockTableRecord
  2
*D11
  0
BLOCK_RECORD
  5
AC6
330
1
100
AcDbSymbolTableRecord
100
AcDbBlockTableRecord
  2
*D12
  0
BLOCK_RECORD
  5
B52
330
1
100
AcDbSymbolTableRecord
100
AcDbBlockTableRecord
  2
*D13
  0
ENDTAB
  0
ENDSEC
  0
SECTION
  2
BLOCKS
  0
BLOCK
  5
1B
330
1A
100
AcDbEntity
  8
0
100
AcDbBlockBegin
  2
*MODEL_SPACE
 70
     0
 10
0.0
 20
0.0
 30
0.0
  3
*MODEL_SPACE
  1

  0
ENDBLK
  5
1C
330
1A
100
AcDbEntity
  8
0
100
AcDbBlockEnd
  0
BLOCK
  5
18
330
17
100
AcDbEntity
 67
     1
  8
0
100
AcDbBlockBegin
  2
*PAPER_SPACE
 70
     0
 10
0.0
 20
0.0
 30
0.0
  3
*PAPER_SPACE
  1

  0
ENDBLK
  5
19
330
17
100
AcDbEntity
 67
     1
  8
0
100
AcDbBlockEnd
  0
BLOCK
  5
6E
330
6D
100
AcDbEntity
  8
0
100
AcDbBlockBegin
  2
_OPEN
 70
     0
 10
0.0
 20
0.0
 30
0.0
  3
_OPEN
  1

  0
LINE
  5
6F
330
6D
100
AcDbEntity
  8
0
  6
BYBLOCK
 62
     0
100
AcDbLine
 10
-1.0
 20
0.1666666666666666
 30
0.0
 11
0.0
 21
0.0
 31
0.0
  0
LINE
  5
70
330
6D
100
AcDbEntity
  8
0
  6
BYBLOCK
 62
     0
100
AcDbLine
 10
0.0
 20
0.0
 30
0.0
 11
-1.0
 21
-0.1666666666666666
 31
0.0
  0
LINE
  5
71
330
6D
100
AcDbEntity
  8
0
  6
BYBLOCK
 62
     0
100
AcDbLine
 10
0.0
 20
0.0
 30
0.0
 11
-1.0
 21
0.0
 31
0.0
  0
ENDBLK
  5
72
330
6D
100
AcDbEntity
  8
0
100
AcDbBlockEnd
  0
BLOCK
  5
A78
330
9D2
100
AcDbEntity
  8
0
 48
5.0
100
AcDbBlockBegin
  2
*D1
 70
     1
 10
0.0
 20
0.0
 30
0.0
  3
*D1
  1

  0
LINE
  5
A79
330
9D2
100
AcDbEntity
  8
0
  6
BYBLOCK
 62
     4
 48
5.0
100
AcDbLine
 10
212.9001292902455
 20
270.8594991394327
 30
0.0
 11
212.9001292902455
 21
287.9050788179865
 31
0.0
  0
LINE
  5
A7A
330
9D2
100
AcDbEntity
  8
0
  6
BYBLOCK
 62
     4
 48
5.0
100
AcDbLine
 10
102.8999292902455
 20
270.8594991394327
 30
0.0
 11
102.8999292902455
 21
287.9050788179865
 31
0.0
  0
LINE
  5
A7B
330
9D2
100
AcDbEntity
  8
0
  6
BYBLOCK
 62
     4
 48
5.0
100
AcDbLine
 10
205.9001292902455
 20
284.9050788179865
 30
0.0
 11
109.8999292902455
 21
284.9050788179865
 31
0.0
  0
INSERT
  5
A7C
330
9D2
100
AcDbEntity
  8
0
  6
BYBLOCK
 62
     4
 48
5.0
100
AcDbBlockReference
  2
_OPEN
 10
212.9001292902455
 20
284.9050788179865
 30
0.0
 41
7.0
 42
7.0
 43
7.0
  0
INSERT
  5
A7D
330
9D2
100
AcDbEntity
  8
0
  6
BYBLOCK
 62
     4
 48
5.0
100
AcDbBlockReference
  2
_OPEN
 10
102.8999292902455
 20
284.9050788179865
 30
0.0
 41
7.0
 42
7.0
 43
7.0
 50
180.0
  0
MTEXT
  5
A7E
330
9D2
100
AcDbEntity
  8
0
  6
BYBLOCK
 62
     4
 48
5.0
100
AcDbMText
 10
157.9000292902455
 20
289.9050788179865
 30
0.0
 40
6.0
 41
0.0
 71
     5
 72
     1
  1
\A1;φ110
1001
ACAD
1000
MTEXTBEGIN
1070
    73
1070
     1
1070
    44
1040
1.0
1070
    74
1070
     0
1000
MTEXTEND
1000
MTEXTBEGIN
1070
    73
1070
     1
1070
    44
1040
1.0
1070
    74
1070
     0
1000
MTEXTEND
1000
MTEXTBEGIN
1070
    73
1070
     1
1070
    44
1040
1.0
1070
    74
1070
     0
1000
MTEXTEND
  0
POINT
  5
A7F
330
9D2
100
AcDbEntity
  8
DEFPOINTS
  6
BYBLOCK
 62
     0
 48
5.0
100
AcDbPoint
 10
212.9001292902455
 20
264.8594991394328
 30
0.0
  0
POINT
  5
A80
330
9D2
100
AcDbEntity
  8
DEFPOINTS
  6
BYBLOCK
 62
     0
 48
5.0
100
AcDbPoint
 10
102.8999292902455
 20
264.8594991394328
 30
0.0
  0
POINT
  5
A81
330
9D2
100
AcDbEntity
  8
DEFPOINTS
  6
BYBLOCK
 62
     0
 48
5.0
100
AcDbPoint
 10
102.8999292902455
 20
284.9050788179865
 30
0.0
  0
ENDBLK
  5
A82
330
9D2
100
AcDbEntity
  8
0
 48
5.0
100
AcDbBlockEnd
  0
BLOCK
  5
9E1
330
9E0
100
AcDbEntity
  8
0
 48
5.0
100
AcDbBlockBegin
  2
*D2
 70
     1
 10
0.0
 20
0.0
 30
0.0
  3
*D2
  1

  0
LINE
  5
9E2
330
9E0
100
AcDbEntity
  8
0
  6
BYBLOCK
 62
     4
 48
5.0
100
AcDbLine
 10
208.6718292902455
 20
255.8593991394327
 30
0.0
 11
232.0128824067924
 21
255.8593991394327
 31
0.0
  0
LINE
  5
9E3
330
9E0
100
AcDbEntity
  8
0
  6
BYBLOCK
 62
     4
 48
5.0
100
AcDbLine
 10
204.3500292902455
 20
212.8593991394327
 30
0.0
 11
232.0128824067924
 21
212.8593991394327
 31
0.0
  0
LINE
  5
9E4
330
9E0
100
AcDbEntity
  8
0
  6
BYBLOCK
 62
     4
 48
5.0
100
AcDbLine
 10
229.0128824067924
 20
248.8593991394327
 30
0.0
 11
229.0128824067924
 21
219.8593991394327
 31
0.0
  0
INSERT
  5
9E5
330
9E0
100
AcDbEntity
  8
0
  6
BYBLOCK
 62
     4
 48
5.0
100
AcDbBlockReference
  2
_OPEN
 10
229.0128824067924
 20
255.8593991394327
 30
0.0
 41
7.0
 42
7.0
 43
7.0
 50
90.0
  0
INSERT
  5
9E6
330
9E0
100
AcDbEntity
  8
0
  6
BYBLOCK
 62
     4
 48
5.0
100
AcDbBlockReference
  2
_OPEN
 10
229.0128824067924
 20
212.8593991394327
 30
0.0
 41
7.0
 42
7.0
 43
7.0
 50
270.0
  0
MTEXT
  5
9E7
330
9E0
100
AcDbEntity
  8
0
  6
BYBLOCK
 62
     4
 48
5.0
100
AcDbMText
 10
224.0128824067924
 20
234.3593991394327
 30
0.0
 40
6.0
 41
0.0
 71
     5
 72
     1
  1
\A1;43
 11
0.0
 21
1.0
 31
0.0
1001
ACAD
1000
MTEXTBEGIN
1070
    73
1070
     1
1070
    44
1040
1.0
1070
    74
1070
     0
1000
MTEXTEND
1000
MTEXTBEGIN
1070
    73
1070
     1
1070
    44
1040
1.0
1070
    74
1070
     0
1000
MTEXTEND
1000
MTEXTBEGIN
1070
    73
1070
     1
1070
    44
1040
1.0
1070
    74
1070
     0
1000
MTEXTEND
  0
POINT
  5
9E8
330
9E0
100
AcDbEntity
  8
DEFPOINTS
  6
BYBLOCK
 62
     0
 48
5.0
100
AcDbPoint
 10
202.6718292902455
 20
255.8593991394327
 30
0.0
  0
POINT
  5
9E9
330
9E0
100
AcDbEntity
  8
DEFPOINTS
  6
BYBLOCK
 62
     0
 48
5.0
100
AcDbPoint
 10
198.3500292902455
 20
212.8593991394327
 30
0.0
  0
POINT
  5
9EA
330
9E0
100
AcDbEntity
  8
DEFPOINTS
  6
BYBLOCK
 62
     0
 48
5.0
100
AcDbPoint
 10
229.0128824067924
 20
212.8593991394327
 30
0.0
  0
ENDBLK
  5
9EB
330
9E0
100
AcDbEntity
  8
0
 48
5.0
100
AcDbBlockEnd
  0
BLOCK
  5
9EE
330
9ED
100
AcDbEntity
  8
0
 48
5.0
100
AcDbBlockBegin
  2
*D3
 70
     1
 10
0.0
 20
0.0
 30
0.0
  3
*D3
  1

  0
LINE
  5
C37
330
9ED
100
AcDbEntity
  8
SUNPOU
  6
CONTINUOUS
 62
     4
 48
5.0
100
AcDbLine
 10
211.2170494055167
 20
161.5701914411162
 30
0.0
 11
242.1811025220636
 21
161.5701914411162
 31
0.0
  0
LINE
  5
C38
330
9ED
100
AcDbEntity
  8
SUNPOU
  6
CONTINUOUS
 62
     4
 48
5.0
100
AcDbLine
 10
239.1811025220636
 20
194.5701914411163
 30
0.0
 11
239.1811025220636
 21
168.5701914411162
 31
0.0
  0
INSERT
  5
C39
330
9ED
100
AcDbEntity
  8
SUNPOU
  6
CONTINUOUS
 62
     4
 48
5.0
100
AcDbBlockReference
  2
_OPEN
 10
239.1811025220636
 20
201.5701914411163
 30
0.0
 41
7.0
 42
7.0
 43
7.0
 50
90.0
  0
INSERT
  5
C3A
330
9ED
100
AcDbEntity
  8
SUNPOU
  6
CONTINUOUS
 62
     4
 48
5.0
100
AcDbBlockReference
  2
_OPEN
 10
239.1811025220636
 20
161.5701914411162
 30
0.0
 41
7.0
 42
7.0
 43
7.0
 50
270.0
  0
MTEXT
  5
C3B
330
9ED
100
AcDbEntity
  8
SUNPOU
  6
CONTINUOUS
 62
     4
 48
5.0
100
AcDbMText
 10
234.1811025220635
 20
181.5701914411163
 30
0.0
 40
6.0
 41
0.0
 71
     5
 72
     1
  1
\A1;40
 11
0.0000000000000001
 21
1.0
 31
0.0
  0
POINT
  5
C3C
330
9ED
100
AcDbEntity
  8
DEFPOINTS
  6
CONTINUOUS
 62
     0
 48
5.0
100
AcDbPoint
 10
208.5182494055167
 20
201.5701914411163
 30
0.0
  0
POINT
  5
C3D
330
9ED
100
AcDbEntity
  8
DEFPOINTS
  6
CONTINUOUS
 62
     0
 48
5.0
100
AcDbPoint
 10
205.2170494055167
 20
161.5701914411162
 30
0.0
  0
POINT
  5
C3E
330
9ED
100
AcDbEntity
  8
DEFPOINTS
  6
CONTINUOUS
 62
     0
 48
5.0
100
AcDbPoint
 10
239.1811025220636
 20
161.5701914411162
 30
0.0
  0
ENDBLK
  5
9F7
330
9ED
100
AcDbEntity
  8
0
 48
5.0
100
AcDbBlockEnd
  0
BLOCK
  5
9FA
330
9F9
100
AcDbEntity
  8
0
 48
5.0
100
AcDbBlockBegin
  2
*D4
 70
     1
 10
0.0
 20
0.0
 30
0.0
  3
*D4
  1

  0
LINE
  5
9FB
330
9F9
100
AcDbEntity
  8
0
  6
BYBLOCK
 62
     4
 48
5.0
100
AcDbLine
 10
218.9001292902455
 20
264.8594991394328
 30
0.0
 11
252.8553302368272
 21
264.8594991394328
 31
0.0
  0
LINE
  5
9FC
330
9F9
100
AcDbEntity
  8
0
  6
BYBLOCK
 62
     4
 48
5.0
100
AcDbLine
 10
201.0488292902455
 20
172.8593991394326
 30
0.0
 11
252.8553302368272
 21
172.8593991394326
 31
0.0
  0
LINE
  5
9FD
330
9F9
100
AcDbEntity
  8
0
  6
BYBLOCK
 62
     4
 48
5.0
100
AcDbLine
 10
249.8553302368272
 20
257.8594991394327
 30
0.0
 11
249.8553302368272
 21
179.8593991394326
 31
0.0
  0
INSERT
  5
9FE
330
9F9
100
AcDbEntity
  8
0
  6
BYBLOCK
 62
     4
 48
5.0
100
AcDbBlockReference
  2
_OPEN
 10
249.8553302368272
 20
264.8594991394328
 30
0.0
 41
7.0
 42
7.0
 43
7.0
 50
90.0
  0
INSERT
  5
9FF
330
9F9
100
AcDbEntity
  8
0
  6
BYBLOCK
 62
     4
 48
5.0
100
AcDbBlockReference
  2
_OPEN
 10
249.8553302368272
 20
172.8593991394326
 30
0.0
 41
7.0
 42
7.0
 43
7.0
 50
270.0
  0
MTEXT
  5
A00
330
9F9
100
AcDbEntity
  8
0
  6
BYBLOCK
 62
     4
 48
5.0
100
AcDbMText
 10
244.8553302368273
 20
218.8594491394327
 30
0.0
 40
6.0
 41
0.0
 71
     5
 72
     1
  1
\A1;92
 11
0.0
 21
1.0
 31
0.0
1001
ACAD
1000
MTEXTBEGIN
1070
    73
1070
     1
1070
    44
1040
1.0
1070
    74
1070
     0
1000
MTEXTEND
1000
MTEXTBEGIN
1070
    73
1070
     1
1070
    44
1040
1.0
1070
    74
1070
     0
1000
MTEXTEND
1000
MTEXTBEGIN
1070
    73
1070
     1
1070
    44
1040
1.0
1070
    74
1070
     0
1000
MTEXTEND
  0
POINT
  5
A01
330
9F9
100
AcDbEntity
  8
DEFPOINTS
  6
BYBLOCK
 62
     0
 48
5.0
100
AcDbPoint
 10
212.9001292902455
 20
264.8594991394328
 30
0.0
  0
POINT
  5
A02
330
9F9
100
AcDbEntity
  8
DEFPOINTS
  6
BYBLOCK
 62
     0
 48
5.0
100
AcDbPoint
 10
195.0488292902455
 20
172.8593991394326
 30
0.0
  0
POINT
  5
A03
330
9F9
100
AcDbEntity
  8
DEFPOINTS
  6
BYBLOCK
 62
     0
 48
5.0
100
AcDbPoint
 10
249.8553302368272
 20
172.8593991394326
 30
0.0
  0
ENDBLK
  5
A04
330
9F9
100
AcDbEntity
  8
0
 48
5.0
100
AcDbBlockEnd
  0
BLOCK
  5
A36
330
A06
100
AcDbEntity
  8
0
 48
5.0
100
AcDbBlockBegin
  2
*D5
 70
     1
 10
0.0
 20
0.0
 30
0.0
  3
*D5
  1

  0
LINE
  5
A37
330
A06
100
AcDbEntity
  8
0
  6
BYBLOCK
 62
     4
 48
5.0
100
AcDbLine
 10
119.8156292902455
 20
170.8594991394327
 30
0.0
 11
119.8156292902455
 21
144.1599899508619
 31
0.0
  0
LINE
  5
A38
330
A06
100
AcDbEntity
  8
0
  6
BYBLOCK
 62
     4
 48
5.0
100
AcDbLine
 10
195.9843292902455
 20
170.8594991394327
 30
0.0
 11
195.9843292902455
 21
144.1599899508619
 31
0.0
  0
LINE
  5
A39
330
A06
100
AcDbEntity
  8
0
  6
BYBLOCK
 62
     4
 48
5.0
100
AcDbLine
 10
126.8156292902455
 20
147.1599899508619
 30
0.0
 11
188.9843292902455
 21
147.1599899508619
 31
0.0
  0
INSERT
  5
A3A
330
A06
100
AcDbEntity
  8
0
  6
BYBLOCK
 62
     4
 48
5.0
100
AcDbBlockReference
  2
_OPEN
 10
119.8156292902455
 20
147.1599899508619
 30
0.0
 41
7.0
 42
7.0
 43
7.0
 50
180.0
  0
INSERT
  5
A3B
330
A06
100
AcDbEntity
  8
0
  6
BYBLOCK
 62
     4
 48
5.0
100
AcDbBlockReference
  2
_OPEN
 10
195.9843292902455
 20
147.1599899508619
 30
0.0
 41
7.0
 42
7.0
 43
7.0
  0
MTEXT
  5
A3C
330
A06
100
AcDbEntity
  8
0
  6
BYBLOCK
 62
     4
 48
5.0
100
AcDbMText
 10
157.8999792902455
 20
152.1599899508619
 30
0.0
 40
6.0
 41
0.0
 71
     5
 72
     1
  1
\A1;φ76
1001
ACAD
1000
MTEXTBEGIN
1070
    73
1070
     1
1070
    44
1040
1.0
1070
    74
1070
     0
1000
MTEXTEND
1000
MTEXTBEGIN
1070
    73
1070
     1
1070
    44
1040
1.0
1070
    74
1070
     0
1000
MTEXTEND
1000
MTEXTBEGIN
1070
    73
1070
     1
1070
    44
1040
1.0
1070
    74
1070
     0
1000
MTEXTEND
  0
POINT
  5
A3D
330
A06
100
AcDbEntity
  8
DEFPOINTS
  6
BYBLOCK
 62
     0
 48
5.0
100
AcDbPoint
 10
119.8156292902455
 20
176.8594991394327
 30
0.0
  0
POINT
  5
A3E
330
A06
100
AcDbEntity
  8
DEFPOINTS
  6
BYBLOCK
 62
     0
 48
5.0
100
AcDbPoint
 10
195.9843292902455
 20
176.8594991394327
 30
0.0
  0
POINT
  5
A3F
330
A06
100
AcDbEntity
  8
DEFPOINTS
  6
BYBLOCK
 62
     0
 48
5.0
100
AcDbPoint
 10
195.9843292902455
 20
147.1599899508619
 30
0.0
  0
ENDBLK
  5
A40
330
A06
100
AcDbEntity
  8
0
 48
5.0
100
AcDbBlockEnd
  0
BLOCK
  5
A57
330
A13
100
AcDbEntity
  8
0
 48
5.0
100
AcDbBlockBegin
  2
*D6
 70
     1
 10
0.0
 20
0.0
 30
0.0
  3
*D6
  1

  0
LINE
  5
A58
330
A13
100
AcDbEntity
  8
0
  6
BYBLOCK
 62
     4
 48
5.0
100
AcDbLine
 10
198.3500292902455
 20
206.8593991394327
 30
0.0
 11
198.3500292902455
 21
122.9684362789066
 31
0.0
  0
LINE
  5
A59
330
A13
100
AcDbEntity
  8
0
  6
BYBLOCK
 62
     4
 48
5.0
100
AcDbLine
 10
117.4500292902454
 20
206.8595991394328
 30
0.0
 11
117.4500292902454
 21
122.9684362789066
 31
0.0
  0
LINE
  5
A5A
330
A13
100
AcDbEntity
  8
0
  6
BYBLOCK
 62
     4
 48
5.0
100
AcDbLine
 10
191.3500292902455
 20
125.9684362789066
 30
0.0
 11
124.4500292902454
 21
125.9684362789066
 31
0.0
  0
INSERT
  5
A5B
330
A13
100
AcDbEntity
  8
0
  6
BYBLOCK
 62
     4
 48
5.0
100
AcDbBlockReference
  2
_OPEN
 10
198.3500292902455
 20
125.9684362789066
 30
0.0
 41
7.0
 42
7.0
 43
7.0
  0
INSERT
  5
A5C
330
A13
100
AcDbEntity
  8
0
  6
BYBLOCK
 62
     4
 48
5.0
100
AcDbBlockReference
  2
_OPEN
 10
117.4500292902454
 20
125.9684362789066
 30
0.0
 41
7.0
 42
7.0
 43
7.0
 50
180.0
  0
MTEXT
  5
A5D
330
A13
100
AcDbEntity
  8
0
  6
BYBLOCK
 62
     4
 48
5.0
100
AcDbMText
 10
157.9000292902455
 20
130.9684362789066
 30
0.0
 40
6.0
 41
0.0
 71
     5
 72
     1
  1
\A1;φ81
1001
ACAD
1000
MTEXTBEGIN
1070
    73
1070
     1
1070
    44
1040
1.0
1070
    74
1070
     0
1000
MTEXTEND
1000
MTEXTBEGIN
1070
    73
1070
     1
1070
    44
1040
1.0
1070
    74
1070
     0
1000
MTEXTEND
1000
MTEXTBEGIN
1070
    73
1070
     1
1070
    44
1040
1.0
1070
    74
1070
     0
1000
MTEXTEND
  0
POINT
  5
A5E
330
A13
100
AcDbEntity
  8
DEFPOINTS
  6
BYBLOCK
 62
     0
 48
5.0
100
AcDbPoint
 10
198.3500292902455
 20
212.8593991394327
 30
0.0
  0
POINT
  5
A5F
330
A13
100
AcDbEntity
  8
DEFPOINTS
  6
BYBLOCK
 62
     0
 48
5.0
100
AcDbPoint
 10
117.4500292902454
 20
212.8595991394328
 30
0.0
  0
POINT
  5
A60
330
A13
100
AcDbEntity
  8
DEFPOINTS
  6
BYBLOCK
 62
     0
 48
5.0
100
AcDbPoint
 10
117.4500292902454
 20
125.9684362789066
 30
0.0
  0
ENDBLK
  5
A61
330
A13
100
AcDbEntity
  8
0
 48
5.0
100
AcDbBlockEnd
  0
BLOCK
  5
B24
330
A83
100
AcDbEntity
  8
0
 48
5.0
100
AcDbBlockBegin
  2
*D7
 70
     1
 10
0.0
 20
0.0
 30
0.0
  3
*D7
  1

  0
LINE
  5
B25
330
A83
100
AcDbEntity
  8
0
  6
BYBLOCK
 62
     4
 48
5.0
100
AcDbLine
 10
403.3508616643509
 20
263.5552223167451
 30
0.0
 11
403.3508616643509
 21
307.0527506396056
 31
0.0
  0
LINE
  5
B26
330
A83
100
AcDbEntity
  8
0
  6
BYBLOCK
 62
     4
 48
5.0
100
AcDbLine
 10
332.9508616643508
 20
263.5552223167451
 30
0.0
 11
332.9508616643508
 21
307.0527506396056
 31
0.0
  0
LINE
  5
B27
330
A83
100
AcDbEntity
  8
0
  6
BYBLOCK
 62
     4
 48
5.0
100
AcDbLine
 10
396.3508616643509
 20
304.0527506396056
 30
0.0
 11
339.9508616643509
 21
304.0527506396056
 31
0.0
  0
INSERT
  5
B28
330
A83
100
AcDbEntity
  8
0
  6
BYBLOCK
 62
     4
 48
5.0
100
AcDbBlockReference
  2
_OPEN
 10
403.3508616643509
 20
304.0527506396056
 30
0.0
 41
7.0
 42
7.0
 43
7.0
  0
INSERT
  5
B29
330
A83
100
AcDbEntity
  8
0
  6
BYBLOCK
 62
     4
 48
5.0
100
AcDbBlockReference
  2
_OPEN
 10
332.9508616643508
 20
304.0527506396056
 30
0.0
 41
7.0
 42
7.0
 43
7.0
 50
180.0
  0
MTEXT
  5
B2A
330
A83
100
AcDbEntity
  8
0
  6
BYBLOCK
 62
     4
 48
5.0
100
AcDbMText
 10
368.1508616643509
 20
309.0527506396056
 30
0.0
 40
6.0
 41
0.0
 71
     5
 72
     1
  1
\A1;φ70
1001
ACAD
1000
MTEXTBEGIN
1070
    73
1070
     1
1070
    44
1040
1.0
1070
    74
1070
     0
1000
MTEXTEND
1000
MTEXTBEGIN
1070
    73
1070
     1
1070
    44
1040
1.0
1070
    74
1070
     0
1000
MTEXTEND
1000
MTEXTBEGIN
1070
    73
1070
     1
1070
    44
1040
1.0
1070
    74
1070
     0
1000
MTEXTEND
  0
POINT
  5
B2B
330
A83
100
AcDbEntity
  8
DEFPOINTS
  6
BYBLOCK
 62
     0
 48
5.0
100
AcDbPoint
 10
403.3508616643509
 20
257.5552223167452
 30
0.0
  0
POINT
  5
B2C
330
A83
100
AcDbEntity
  8
DEFPOINTS
  6
BYBLOCK
 62
     0
 48
5.0
100
AcDbPoint
 10
332.9508616643508
 20
257.5552223167452
 30
0.0
  0
POINT
  5
B2D
330
A83
100
AcDbEntity
  8
DEFPOINTS
  6
BYBLOCK
 62
     0
 48
5.0
100
AcDbPoint
 10
332.9508616643508
 20
304.0527506396056
 30
0.0
  0
ENDBLK
  5
B2E
330
A83
100
AcDbEntity
  8
0
 48
5.0
100
AcDbBlockEnd
  0
BLOCK
  5
B45
330
A90
100
AcDbEntity
  8
0
 48
5.0
100
AcDbBlockBegin
  2
*D8
 70
     1
 10
0.0
 20
0.0
 30
0.0
  3
*D8
  1

  0
LINE
  5
B46
330
A90
100
AcDbEntity
  8
0
  6
BYBLOCK
 62
     4
 48
5.0
100
AcDbLine
 10
418.1508616643508
 20
246.9428223167451
 30
0.0
 11
418.1508616643508
 21
328.9392672098629
 31
0.0
  0
LINE
  5
B47
330
A90
100
AcDbEntity
  8
0
  6
BYBLOCK
 62
     4
 48
5.0
100
AcDbLine
 10
318.1508616643509
 20
246.9429223167451
 30
0.0
 11
318.1508616643509
 21
328.9392672098629
 31
0.0
  0
LINE
  5
B48
330
A90
100
AcDbEntity
  8
0
  6
BYBLOCK
 62
     4
 48
5.0
100
AcDbLine
 10
411.1508616643509
 20
325.9392672098629
 30
0.0
 11
325.1508616643509
 21
325.9392672098629
 31
0.0
  0
INSERT
  5
B49
330
A90
100
AcDbEntity
  8
0
  6
BYBLOCK
 62
     4
 48
5.0
100
AcDbBlockReference
  2
_OPEN
 10
418.1508616643508
 20
325.9392672098629
 30
0.0
 41
7.0
 42
7.0
 43
7.0
  0
INSERT
  5
B4A
330
A90
100
AcDbEntity
  8
0
  6
BYBLOCK
 62
     4
 48
5.0
100
AcDbBlockReference
  2
_OPEN
 10
318.1508616643509
 20
325.9392672098629
 30
0.0
 41
7.0
 42
7.0
 43
7.0
 50
180.0
  0
MTEXT
  5
B4B
330
A90
100
AcDbEntity
  8
0
  6
BYBLOCK
 62
     4
 48
5.0
100
AcDbMText
 10
368.1508616643509
 20
330.9392672098629
 30
0.0
 40
6.0
 41
0.0
 71
     5
 72
     1
  1
\A1;φ100
1001
ACAD
1000
MTEXTBEGIN
1070
    73
1070
     1
1070
    44
1040
1.0
1070
    74
1070
     0
1000
MTEXTEND
1000
MTEXTBEGIN
1070
    73
1070
     1
1070
    44
1040
1.0
1070
    74
1070
     0
1000
MTEXTEND
1000
MTEXTBEGIN
1070
    73
1070
     1
1070
    44
1040
1.0
1070
    74
1070
     0
1000
MTEXTEND
  0
POINT
  5
B4C
330
A90
100
AcDbEntity
  8
DEFPOINTS
  6
BYBLOCK
 62
     0
 48
5.0
100
AcDbPoint
 10
418.1508616643508
 20
240.9428223167451
 30
0.0
  0
POINT
  5
B4D
330
A90
100
AcDbEntity
  8
DEFPOINTS
  6
BYBLOCK
 62
     0
 48
5.0
100
AcDbPoint
 10
318.1508616643509
 20
240.9429223167451
 30
0.0
  0
POINT
  5
B4E
330
A90
100
AcDbEntity
  8
DEFPOINTS
  6
BYBLOCK
 62
     0
 48
5.0
100
AcDbPoint
 10
318.1508616643509
 20
325.9392672098629
 30
0.0
  0
ENDBLK
  5
B4F
330
A90
100
AcDbEntity
  8
0
 48
5.0
100
AcDbBlockEnd
  0
BLOCK
  5
B03
330
A9D
100
AcDbEntity
  8
0
 48
5.0
100
AcDbBlockBegin
  2
*D9
 70
     1
 10
0.0
 20
0.0
 30
0.0
  3
*D9
  1

  0
LINE
  5
B04
330
A9D
100
AcDbEntity
  8
0
  6
BYBLOCK
 62
     4
 48
5.0
100
AcDbLine
 10
407.000727735898
 20
198.7429726847735
 30
0.0
 11
407.000727735898
 21
172.7546102565875
 31
0.0
  0
LINE
  5
B05
330
A9D
100
AcDbEntity
  8
0
  6
BYBLOCK
 62
     4
 48
5.0
100
AcDbLine
 10
329.3008835538328
 20
198.7430223167451
 30
0.0
 11
329.3008835538328
 21
172.7546102565875
 31
0.0
  0
LINE
  5
B06
330
A9D
100
AcDbEntity
  8
0
  6
BYBLOCK
 62
     4
 48
5.0
100
AcDbLine
 10
400.000727735898
 20
175.7546102565875
 30
0.0
 11
336.3008835538328
 21
175.7546102565875
 31
0.0
  0
INSERT
  5
B07
330
A9D
100
AcDbEntity
  8
0
  6
BYBLOCK
 62
     4
 48
5.0
100
AcDbBlockReference
  2
_OPEN
 10
407.000727735898
 20
175.7546102565875
 30
0.0
 41
7.0
 42
7.0
 43
7.0
  0
INSERT
  5
B08
330
A9D
100
AcDbEntity
  8
0
  6
BYBLOCK
 62
     4
 48
5.0
100
AcDbBlockReference
  2
_OPEN
 10
329.3008835538328
 20
175.7546102565875
 30
0.0
 41
7.0
 42
7.0
 43
7.0
 50
180.0
  0
MTEXT
  5
B09
330
A9D
100
AcDbEntity
  8
0
  6
BYBLOCK
 62
     4
 48
5.0
100
AcDbMText
 10
368.1508056448654
 20
180.7546102565875
 30
0.0
 40
6.0
 41
0.0
 71
     5
 72
     1
  1
\A1;φ78
1001
ACAD
1000
MTEXTBEGIN
1070
    73
1070
     1
1070
    44
1040
1.0
1070
    74
1070
     0
1000
MTEXTEND
1000
MTEXTBEGIN
1070
    73
1070
     1
1070
    44
1040
1.0
1070
    74
1070
     0
1000
MTEXTEND
1000
MTEXTBEGIN
1070
    73
1070
     1
1070
    44
1040
1.0
1070
    74
1070
     0
1000
MTEXTEND
  0
POINT
  5
B0A
330
A9D
100
AcDbEntity
  8
DEFPOINTS
  6
BYBLOCK
 62
     0
 48
5.0
100
AcDbPoint
 10
407.000727735898
 20
204.7429726847735
 30
0.0
  0
POINT
  5
B0B
330
A9D
100
AcDbEntity
  8
DEFPOINTS
  6
BYBLOCK
 62
     0
 48
5.0
100
AcDbPoint
 10
329.3008835538328
 20
204.7430223167451
 30
0.0
  0
POINT
  5
B0C
330
A9D
100
AcDbEntity
  8
DEFPOINTS
  6
BYBLOCK
 62
     0
 48
5.0
100
AcDbPoint
 10
329.3008835538328
 20
175.7546102565875
 30
0.0
  0
ENDBLK
  5
B0D
330
A9D
100
AcDbEntity
  8
0
 48
5.0
100
AcDbBlockEnd
  0
BLOCK
  5
AE0
330
AAA
100
AcDbEntity
  8
0
 48
5.0
100
AcDbBlockBegin
  2
*D10
 70
     1
 10
0.0
 20
0.0
 30
0.0
  3
*D10
  1

  0
LINE
  5
AE1
330
AAA
100
AcDbEntity
  8
0
  6
BYBLOCK
 62
     4
 48
5.0
100
AcDbLine
 10
424.1508616643509
 20
240.9428223167451
 30
0.0
 11
444.0560091518237
 21
240.9428223167451
 31
0.0
  0
LINE
  5
AE2
330
AAA
100
AcDbEntity
  8
0
  6
BYBLOCK
 62
     4
 48
5.0
100
AcDbLine
 10
424.1508616643509
 20
237.7429223167451
 30
0.0
 11
444.0560091518237
 21
237.7429223167451
 31
0.0
  0
LINE
  5
AE3
330
AAA
100
AcDbEntity
  8
0
  6
BYBLOCK
 62
     4
 48
5.0
100
AcDbLine
 10
441.0560091518236
 20
230.7429223167451
 30
0.0
 11
441.0560091518236
 21
223.7429223167451
 31
0.0
  0
LINE
  5
AE4
330
AAA
100
AcDbEntity
  8
0
  6
BYBLOCK
 62
     4
 48
5.0
100
AcDbLine
 10
441.0560091518236
 20
247.9428223167451
 30
0.0
 11
441.0560091518236
 21
262.9428223167451
 31
0.0
  0
LINE
  5
AE5
330
AAA
100
AcDbEntity
  8
0
  6
BYBLOCK
 62
     4
 48
5.0
100
AcDbLine
 10
441.0560091518236
 20
237.7429223167451
 30
0.0
 11
441.0560091518236
 21
240.9428223167451
 31
0.0
  0
INSERT
  5
AE6
330
AAA
100
AcDbEntity
  8
0
  6
BYBLOCK
 62
     4
 48
5.0
100
AcDbBlockReference
  2
_OPEN
 10
441.0560091518236
 20
237.7429223167451
 30
0.0
 41
7.0
 42
7.0
 43
7.0
 50
90.0
  0
INSERT
  5
AE7
330
AAA
100
AcDbEntity
  8
0
  6
BYBLOCK
 62
     4
 48
5.0
100
AcDbBlockReference
  2
_OPEN
 10
441.0560091518236
 20
240.9428223167451
 30
0.0
 41
7.0
 42
7.0
 43
7.0
 50
270.0
  0
MTEXT
  5
AE8
330
AAA
100
AcDbEntity
  8
0
  6
BYBLOCK
 62
     4
 48
5.0
100
AcDbMText
 10
436.0560091518236
 20
258.9428223167451
 30
0.0
 40
6.0
 41
0.0
 71
     5
 72
     1
  1
\A1;3
 11
0.0
 21
1.0
 31
0.0
1001
ACAD
1000
MTEXTBEGIN
1070
    73
1070
     1
1070
    44
1040
1.0
1070
    74
1070
     0
1000
MTEXTEND
1000
MTEXTBEGIN
1070
    73
1070
     1
1070
    44
1040
1.0
1070
    74
1070
     0
1000
MTEXTEND
1000
MTEXTBEGIN
1070
    73
1070
     1
1070
    44
1040
1.0
1070
    74
1070
     0
1000
MTEXTEND
  0
POINT
  5
AE9
330
AAA
100
AcDbEntity
  8
DEFPOINTS
  6
BYBLOCK
 62
     0
 48
5.0
100
AcDbPoint
 10
418.1508616643508
 20
240.9428223167451
 30
0.0
  0
POINT
  5
AEA
330
AAA
100
AcDbEntity
  8
DEFPOINTS
  6
BYBLOCK
 62
     0
 48
5.0
100
AcDbPoint
 10
418.1508616643508
 20
237.7429223167451
 30
0.0
  0
POINT
  5
AEB
330
AAA
100
AcDbEntity
  8
DEFPOINTS
  6
BYBLOCK
 62
     0
 48
5.0
100
AcDbPoint
 10
441.0560091518236
 20
237.7429223167451
 30
0.0
  0
ENDBLK
  5
AEC
330
AAA
100
AcDbEntity
  8
0
 48
5.0
100
AcDbBlockEnd
  0
BLOCK
  5
ABA
330
AB9
100
AcDbEntity
  8
0
 48
5.0
100
AcDbBlockBegin
  2
*D11
 70
     1
 10
0.0
 20
0.0
 30
0.0
  3
*D11
  1

  0
LINE
  5
ABB
330
AB9
100
AcDbEntity
  8
0
  6
BYBLOCK
 62
     4
 48
5.0
100
AcDbLine
 10
424.1508616643509
 20
237.7429223167451
 30
0.0
 11
464.72560894056
 21
237.7429223167451
 31
0.0
  0
LINE
  5
ABC
330
AB9
100
AcDbEntity
  8
0
  6
BYBLOCK
 62
     4
 48
5.0
100
AcDbLine
 10
411.1508835538328
 20
202.7429223167451
 30
0.0
 11
464.72560894056
 21
202.7429223167451
 31
0.0
  0
LINE
  5
ABD
330
AB9
100
AcDbEntity
  8
0
  6
BYBLOCK
 62
     4
 48
5.0
100
AcDbLine
 10
461.72560894056
 20
230.7429223167451
 30
0.0
 11
461.72560894056
 21
209.7429223167451
 31
0.0
  0
INSERT
  5
ABE
330
AB9
100
AcDbEntity
  8
0
  6
BYBLOCK
 62
     4
 48
5.0
100
AcDbBlockReference
  2
_OPEN
 10
461.72560894056
 20
237.7429223167451
 30
0.0
 41
7.0
 42
7.0
 43
7.0
 50
90.0
  0
INSERT
  5
ABF
330
AB9
100
AcDbEntity
  8
0
  6
BYBLOCK
 62
     4
 48
5.0
100
AcDbBlockReference
  2
_OPEN
 10
461.72560894056
 20
202.7429223167451
 30
0.0
 41
7.0
 42
7.0
 43
7.0
 50
270.0
  0
MTEXT
  5
AC0
330
AB9
100
AcDbEntity
  8
0
  6
BYBLOCK
 62
     4
 48
5.0
100
AcDbMText
 10
456.72560894056
 20
220.2429223167451
 30
0.0
 40
6.0
 41
0.0
 71
     5
 72
     1
  1
\A1;35
 11
0.0
 21
1.0
 31
0.0
1001
ACAD
1000
MTEXTBEGIN
1070
    73
1070
     1
1070
    44
1040
1.0
1070
    74
1070
     0
1000
MTEXTEND
1000
MTEXTBEGIN
1070
    73
1070
     1
1070
    44
1040
1.0
1070
    74
1070
     0
1000
MTEXTEND
1000
MTEXTBEGIN
1070
    73
1070
     1
1070
    44
1040
1.0
1070
    74
1070
     0
1000
MTEXTEND
  0
POINT
  5
AC1
330
AB9
100
AcDbEntity
  8
DEFPOINTS
  6
BYBLOCK
 62
     0
 48
5.0
100
AcDbPoint
 10
418.1508616643508
 20
237.7429223167451
 30
0.0
  0
POINT
  5
AC2
330
AB9
100
AcDbEntity
  8
DEFPOINTS
  6
BYBLOCK
 62
     0
 48
5.0
100
AcDbPoint
 10
405.1508835538327
 20
202.7429223167451
 30
0.0
  0
POINT
  5
AC3
330
AB9
100
AcDbEntity
  8
DEFPOINTS
  6
BYBLOCK
 62
     0
 48
5.0
100
AcDbPoint
 10
461.72560894056
 20
202.7429223167451
 30
0.0
  0
ENDBLK
  5
AC4
330
AB9
100
AcDbEntity
  8
0
 48
5.0
100
AcDbBlockEnd
  0
BLOCK
  5
AC7
330
AC6
100
AcDbEntity
  8
0
 48
5.0
100
AcDbBlockBegin
  2
*D12
 70
     1
 10
0.0
 20
0.0
 30
0.0
  3
*D12
  1

  0
LINE
  5
AC8
330
AC6
100
AcDbEntity
  8
0
  6
BYBLOCK
 62
     4
 48
5.0
100
AcDbLine
 10
398.4758616643509
 20
285.942922316745
 30
0.0
 11
482.618699742632
 21
285.942922316745
 31
0.0
  0
LINE
  5
AC9
330
AC6
100
AcDbEntity
  8
0
  6
BYBLOCK
 62
     4
 48
5.0
100
AcDbLine
 10
411.1508835538328
 20
202.7429223167451
 30
0.0
 11
482.618699742632
 21
202.7429223167451
 31
0.0
  0
LINE
  5
ACA
330
AC6
100
AcDbEntity
  8
0
  6
BYBLOCK
 62
     4
 48
5.0
100
AcDbLine
 10
479.618699742632
 20
278.942922316745
 30
0.0
 11
479.618699742632
 21
209.7429223167451
 31
0.0
  0
INSERT
  5
ACB
330
AC6
100
AcDbEntity
  8
0
  6
BYBLOCK
 62
     4
 48
5.0
100
AcDbBlockReference
  2
_OPEN
 10
479.618699742632
 20
285.942922316745
 30
0.0
 41
7.0
 42
7.0
 43
7.0
 50
90.0
  0
INSERT
  5
ACC
330
AC6
100
AcDbEntity
  8
0
  6
BYBLOCK
 62
     4
 48
5.0
100
AcDbBlockReference
  2
_OPEN
 10
479.618699742632
 20
202.7429223167451
 30
0.0
 41
7.0
 42
7.0
 43
7.0
 50
270.0
  0
MTEXT
  5
ACD
330
AC6
100
AcDbEntity
  8
0
  6
BYBLOCK
 62
     4
 48
5.0
100
AcDbMText
 10
474.618699742632
 20
244.3429223167451
 30
0.0
 40
6.0
 41
0.0
 71
     5
 72
     1
  1
\A1;83
 11
0.0
 21
1.0
 31
0.0
1001
ACAD
1000
MTEXTBEGIN
1070
    73
1070
     1
1070
    44
1040
1.0
1070
    74
1070
     0
1000
MTEXTEND
1000
MTEXTBEGIN
1070
    73
1070
     1
1070
    44
1040
1.0
1070
    74
1070
     0
1000
MTEXTEND
1000
MTEXTBEGIN
1070
    73
1070
     1
1070
    44
1040
1.0
1070
    74
1070
     0
1000
MTEXTEND
  0
POINT
  5
ACE
330
AC6
100
AcDbEntity
  8
DEFPOINTS
  6
BYBLOCK
 62
     0
 48
5.0
100
AcDbPoint
 10
392.4758616643509
 20
285.942922316745
 30
0.0
  0
POINT
  5
ACF
330
AC6
100
AcDbEntity
  8
DEFPOINTS
  6
BYBLOCK
 62
     0
 48
5.0
100
AcDbPoint
 10
405.1508835538327
 20
202.7429223167451
 30
0.0
  0
POINT
  5
AD0
330
AC6
100
AcDbEntity
  8
DEFPOINTS
  6
BYBLOCK
 62
     0
 48
5.0
100
AcDbPoint
 10
479.618699742632
 20
202.7429223167451
 30
0.0
  0
ENDBLK
  5
AD1
330
AC6
100
AcDbEntity
  8
0
 48
5.0
100
AcDbBlockEnd
  0
BLOCK
  5
B96
330
B52
100
AcDbEntity
  8
0
 48
5.0
100
AcDbBlockBegin
  2
*D13
 70
     1
 10
0.0
 20
0.0
 30
0.0
  3
*D13
  1

  0
LINE
  5
B97
330
B52
100
AcDbEntity
  8
0
  6
BYBLOCK
 62
     4
 48
5.0
100
AcDbLine
 10
704.4614988238546
 20
372.2204645806099
 30
0.0
 11
704.4614988238546
 21
321.8383161046844
 31
0.0
  0
LINE
  5
B98
330
B52
100
AcDbEntity
  8
0
  6
BYBLOCK
 62
     4
 48
5.0
100
AcDbLine
 10
625.4614991490406
 20
372.5475890911561
 30
0.0
 11
625.4614991490406
 21
321.8383161046844
 31
0.0
  0
LINE
  5
B99
330
B52
100
AcDbEntity
  8
0
  6
BYBLOCK
 62
     4
 48
5.0
100
AcDbLine
 10
697.4614988238546
 20
324.8383161046845
 30
0.0
 11
632.4614991490406
 21
324.8383161046845
 31
0.0
  0
INSERT
  5
B9A
330
B52
100
AcDbEntity
  8
0
  6
BYBLOCK
 62
     4
 48
5.0
100
AcDbBlockReference
  2
_OPEN
 10
704.4614988238546
 20
324.8383161046845
 30
0.0
 41
7.0
 42
7.0
 43
7.0
  0
INSERT
  5
B9B
330
B52
100
AcDbEntity
  8
0
  6
BYBLOCK
 62
     4
 48
5.0
100
AcDbBlockReference
  2
_OPEN
 10
625.4614991490406
 20
324.8383161046845
 30
0.0
 41
7.0
 42
7.0
 43
7.0
 50
180.0
  0
MTEXT
  5
B9C
330
B52
100
AcDbEntity
  8
0
  6
BYBLOCK
 62
     4
 48
5.0
100
AcDbMText
 10
664.9614989864476
 20
329.8383161046845
 30
0.0
 40
6.0
 41
0.0
 71
     5
 72
     1
  1
\A1;穴径 φ79
1001
ACAD
1000
MTEXTBEGIN
1070
    73
1070
     1
1070
    44
1040
1.0
1070
    74
1070
     0
1000
MTEXTEND
1000
MTEXTBEGIN
1070
    73
1070
     1
1070
    44
1040
1.0
1070
    74
1070
     0
1000
MTEXTEND
1000
MTEXTBEGIN
1070
    73
1070
     1
1070
    44
1040
1.0
1070
    74
1070
     0
1000
MTEXTEND
  0
POINT
  5
B9D
330
B52
100
AcDbEntity
  8
DEFPOINTS
  6
BYBLOCK
 62
     0
 48
5.0
100
AcDbPoint
 10
704.4614988238546
 20
378.2204645806099
 30
0.0
  0
POINT
  5
B9E
330
B52
100
AcDbEntity
  8
DEFPOINTS
  6
BYBLOCK
 62
     0
 48
5.0
100
AcDbPoint
 10
625.4614991490406
 20
378.5475890911561
 30
0.0
  0
POINT
  5
B9F
330
B52
100
AcDbEntity
  8
DEFPOINTS
  6
BYBLOCK
 62
     0
 48
5.0
100
AcDbPoint
 10
625.4614991490406
 20
324.8383161046845
 30
0.0
  0
ENDBLK
  5
BA0
330
B52
100
AcDbEntity
  8
0
 48
5.0
100
AcDbBlockEnd
  0
ENDSEC
  0
SECTION
  2
ENTITIES
  0
TEXT
  5
11A
330
1A
100
AcDbEntity
  8
ZUWAKU
 62
     7
 48
10.0
100
AcDbText
 10
795.5579444309237
 20
4.974918402528146
 30
0.0
 40
8.0
  1
A1
100
AcDbText
  0
LINE
  5
11B
330
1A
100
AcDbEntity
  8
ZUWAKU
 62
     7
 48
10.0
100
AcDbLine
 10
10.05047808566086
 20
25.78258628282265
 30
0.0
 11
806.0504780856609
 21
25.78258628282253
 31
0.0
  0
LINE
  5
11C
330
1A
100
AcDbEntity
  8
ZUWAKU
  6
CONTINUOUS
 62
     7
100
AcDbLine
 10
806.0504780856609
 20
563.7825862828226
 30
0.0
 11
10.05047808566086
 21
563.7825862828226
 31
0.0
  0
LINE
  5
11D
330
1A
100
AcDbEntity
  8
ZUWAKU
  6
CONTINUOUS
 62
     7
100
AcDbLine
 10
806.0504780856609
 20
13.78258628282265
 30
0.0
 11
10.05047808566086
 21
13.78258628282265
 31
0.0
  0
LINE
  5
11E
330
1A
100
AcDbEntity
  8
ZUWAKU
  6
CONTINUOUS
 62
     7
100
AcDbLine
 10
10.05047808566086
 20
563.7825862828226
 30
0.0
 11
10.05047808566086
 21
13.78258628282265
 31
0.0
  0
LINE
  5
11F
330
1A
100
AcDbEntity
  8
ZUWAKU
 62
     7
 48
10.0
100
AcDbLine
 10
44.55797523147839
 20
13.78258628282265
 30
0.0
 11
44.5579752314784
 21
25.78258628282265
 31
0.0
  0
TEXT
  5
120
330
1A
100
AcDbEntity
  8
ZUWAKU
 62
     7
100
AcDbText
 10
16.05676551180931
 20
15.52294263804401
 30
0.0
 40
8.0
  1
品 種
100
AcDbText
  0
LINE
  5
121
330
1A
100
AcDbEntity
  8
ZUWAKU
 62
     7
 48
10.0
100
AcDbLine
 10
276.1028387068254
 20
13.78258628282265
 30
0.0
 11
276.1028387068254
 21
25.78258628282261
 31
0.0
  0
LINE
  5
122
330
1A
100
AcDbEntity
  8
ZUWAKU
 62
     7
 48
10.0
100
AcDbLine
 10
209.5138526425484
 20
13.78258628282265
 30
0.0
 11
209.5138526425485
 21
25.78258628282263
 31
0.0
  0
TEXT
  5
124
330
1A
100
AcDbEntity
  8
ZUWAKU
 62
     7
100
AcDbText
 10
215.4560837190756
 20
16.18358115302453
 30
0.0
 40
8.0
  1
品名・ｻ ｲ ｽﾞ
100
AcDbText
  0
LINE
  5
126
330
1A
100
AcDbEntity
  8
ZUWAKU
 62
     7
 48
10.0
100
AcDbLine
 10
768.7231079932794
 20
13.78258628282237
 30
0.0
 11
768.7231079932794
 21
25.78258628282254
 31
0.0
  0
LINE
  5
127
330
1A
100
AcDbEntity
  8
ZUWAKU
 62
     7
 48
10.0
100
AcDbLine
 10
733.8119002376948
 20
13.78258628282242
 30
0.0
 11
733.8119002376946
 21
25.78258628282254
 31
0.0
  0
TEXT
  5
128
330
1A
100
AcDbEntity
  8
ZUWAKU
 62
     7
100
AcDbText
 10
739.6955629973526
 20
15.24227755810852
 30
0.0
 40
8.0
  1
尺 度
100
AcDbText
  0
TEXT
  5
129
330
1A
100
AcDbEntity
  8
ZUWAKU
 62
     7
100
AcDbText
 10
779.7374630323229
 20
15.55488920081529
 30
0.0
 40
8.0
  1
1/2
100
AcDbText
  0
TEXT
  5
12B
330
1A
100
AcDbEntity
  8
ZUWAKU
 62
     7
100
AcDbText
 10
620.3363288383084
 20
15.6519090944263
 30
0.0
 40
8.0
  1
品 番
100
AcDbText
  0
LINE
  5
12C
330
1A
100
AcDbEntity
  8
ZUWAKU
 62
     7
 48
10.0
100
AcDbLine
 10
614.3351028194128
 20
13.78258628282232
 30
0.0
 11
614.3351028194128
 21
25.78258628282256
 31
0.0
  0
LINE
  5
12D
330
1A
100
AcDbEntity
  8
ZUWAKU
 62
     7
 48
10.0
100
AcDbLine
 10
648.7607587371021
 20
13.78258628282232
 30
0.0
 11
648.7607587371021
 21
25.78258628282255
 31
0.0
  0
TEXT
  5
12E
330
1A
100
AcDbEntity
  8
ZUWAKU
 62
     7
 48
10.0
100
AcDbText
 10
646.2758615931216
 20
4.949376903717848
 30
0.0
 40
8.0
  1
積水化学工業株式会社  建材
100
AcDbText
  0
LINE
  5
12F
330
1A
100
AcDbEntity
  8
ZUWAKU
  6
CONTINUOUS
 62
     7
100
AcDbLine
 10
806.0504780856609
 20
563.7825862828226
 30
0.0
 11
806.0504780856609
 21
13.78258628282265
 31
0.0
  0
LINE
  5
458
330
1A
100
AcDbEntity
  8
CENTER_L
 48
5.0
100
AcDbLine
 10
168.0681494055166
 20
154.7179914411163
 30
0.0
 11
168.0682170203028
 21
260.5702914411163
 31
0.0
  0
TEXT
  5
459
330
1A
100
AcDbEntity
  8
ZUWAKU
 62
     7
100
AcDbText
 10
50.3519382305086
 20
16.10306189639755
 30
0.0
 40
8.0
  1
自在ドレン
100
AcDbText
  0
TEXT
  5
465
330
1A
100
AcDbEntity
  8
ZUWAKU
 62
     7
100
AcDbText
 10
282.3131429914078
 20
15.64241700452384
 30
0.0
 40
8.0
  1
ＶＵ・ＶＰ７５（内カン合）
100
AcDbText
  0
LINE
  5
477
330
1A
100
AcDbEntity
  8
SEIHIN
  6
CONTINUOUS
100
AcDbLine
 10
157.5682494055167
 20
161.5701914411162
 30
0.0
 11
130.9193494055167
 21
161.5702914411163
 31
0.0
  0
LINE
  5
47A
330
1A
100
AcDbEntity
  8
SEIHIN
  6
CONTINUOUS
100
AcDbLine
 10
129.9838494055167
 20
165.5702914411163
 30
0.0
 11
157.0682494055167
 21
165.5702914411163
 31
0.0
  0
LINE
  5
481
330
1A
100
AcDbEntity
  8
SEIHIN
  6
CONTINUOUS
100
AcDbLine
 10
127.0082494055167
 20
208.5702914411163
 30
0.0
 11
126.0255494055167
 21
244.3049914411162
 31
0.0
  0
LINE
  5
482
330
1A
100
AcDbEntity
  8
SEIHIN
  6
CONTINUOUS
100
AcDbLine
 10
129.9838494055167
 20
165.5702914411163
 30
0.0
 11
128.8268494055167
 21
201.3053914411162
 31
0.0
  0
LINE
  5
487
330
1A
100
AcDbEntity
  8
SEIHIN
  6
CONTINUOUS
100
AcDbLine
 10
130.9193494055167
 20
161.5702914411163
 30
0.0
 11
129.9838494055167
 21
165.5702914411163
 31
0.0
  0
ARC
  5
488
330
1A
100
AcDbEntity
  8
SEIHIN
  6
CONTINUOUS
100
AcDbCircle
 10
128.5291522159555
 20
201.2702887328074
 30
0.0
 40
0.3000027083221008
100
AcDbArc
 50
2.120926288224743
 51
90.00053674944183
  0
LINE
  5
489
330
1A
100
AcDbEntity
  8
SEIHIN
  6
CONTINUOUS
100
AcDbLine
 10
127.0082494055167
 20
208.5702914411163
 30
0.0
 11
127.6182494055166
 21
204.5702914411163
 31
0.0
  0
LINE
  5
48A
330
1A
100
AcDbEntity
  8
SEIHIN
  6
CONTINUOUS
100
AcDbLine
 10
127.6182494055166
 20
204.5702914411163
 30
0.0
 11
127.6182494055166
 21
201.5702914411163
 31
0.0
  0
LINE
  5
491
330
1A
100
AcDbEntity
  8
SEIHIN
  6
CONTINUOUS
100
AcDbLine
 10
122.7800494055167
 20
244.7139914411163
 30
0.0
 11
113.5517494055167
 21
250.2786914411164
 31
0.0
  0
LINE
  5
492
330
1A
100
AcDbEntity
  8
SEIHIN
  6
CONTINUOUS
100
AcDbLine
 10
113.0681494055167
 20
253.5702914411163
 30
0.0
 11
113.0681494055167
 21
251.1349914411163
 31
0.0
  0
ARC
  5
493
330
1A
100
AcDbEntity
  8
SEIHIN
  6
CONTINUOUS
100
AcDbCircle
 10
114.0681718850115
 20
251.1349516362163
 30
0.0
 40
1.00002248028695
100
AcDbArc
 50
179.99771939849
 51
238.9081937623124
  0
ARC
  5
496
330
1A
100
AcDbEntity
  8
SEIHIN
  6
CONTINUOUS
100
AcDbCircle
 10
125.7275222311955
 20
244.2703177767615
 30
0.0
 40
0.2999736655856366
100
AcDbArc
 50
1.790686685411885
 51
89.99480963133605
  0
ARC
  5
497
330
1A
100
AcDbEntity
  8
SEIHIN
  6
CONTINUOUS
100
AcDbCircle
 10
123.2965225124917
 20
245.5702711032025
 30
0.0
 40
0.9999796647586292
100
AcDbArc
 50
238.9033268161278
 51
269.9958111936936
  0
LINE
  5
4A7
330
1A
100
AcDbEntity
  8
SEIHIN
  6
CONTINUOUS
100
AcDbLine
 10
209.1282494055167
 20
208.5701914411163
 30
0.0
 11
210.1109494055167
 21
244.3048914411163
 31
0.0
  0
LINE
  5
4AF
330
1A
100
AcDbEntity
  8
SEIHIN
  6
CONTINUOUS
100
AcDbLine
 10
178.0682494055167
 20
162.0701914411163
 30
0.0
 11
178.0682494055167
 21
168.5701914411162
 31
0.0
  0
LINE
  5
4B0
330
1A
100
AcDbEntity
  8
SEIHIN
  6
CONTINUOUS
100
AcDbLine
 10
179.0682494055167
 20
169.5701914411162
 30
0.0
 11
179.0682494055167
 21
161.5701914411162
 31
0.0
  0
LINE
  5
4B1
330
1A
100
AcDbEntity
  8
SEIHIN
  6
CONTINUOUS
100
AcDbLine
 10
158.0682494055167
 20
162.0701914411163
 30
0.0
 11
158.0682494055167
 21
168.5701914411162
 31
0.0
  0
LINE
  5
4B2
330
1A
100
AcDbEntity
  8
SEIHIN
  6
CONTINUOUS
100
AcDbLine
 10
157.0682494055167
 20
169.5701914411162
 30
0.0
 11
157.0682494055167
 21
161.5701914411162
 31
0.0
  0
LINE
  5
4B3
330
1A
100
AcDbEntity
  8
SEIHIN
  6
CONTINUOUS
100
AcDbLine
 10
206.1525494055167
 20
165.5702914411163
 30
0.0
 11
207.3096494055167
 21
201.3052914411163
 31
0.0
  0
LINE
  5
4B4
330
1A
100
AcDbEntity
  8
SEIHIN
  6
CONTINUOUS
100
AcDbLine
 10
178.5682494055167
 20
161.5701914411162
 30
0.0
 11
205.2170494055167
 21
161.5701914411162
 31
0.0
  0
LINE
  5
4B5
330
1A
100
AcDbEntity
  8
SEIHIN
  6
CONTINUOUS
100
AcDbLine
 10
206.1525494055167
 20
165.5702914411163
 30
0.0
 11
179.0682494055167
 21
165.5702914411163
 31
0.0
  0
ARC
  5
4B8
330
1A
100
AcDbEntity
  8
SEIHIN
  6
CONTINUOUS
100
AcDbCircle
 10
157.5682494055166
 20
162.0701914411163
 30
0.0
 40
0.5000000000000427
100
AcDbArc
 50
270.0000000000049
 51
0.0000000000048853
  0
ARC
  5
4B9
330
1A
100
AcDbEntity
  8
SEIHIN
  6
CONTINUOUS
100
AcDbCircle
 10
178.5682494055167
 20
162.0701914411163
 30
0.0
 40
0.5000000000000427
100
AcDbArc
 50
179.9999999999951
 51
269.9999999999951
  0
LINE
  5
4BE
330
1A
100
AcDbEntity
  8
SEIHIN
  6
CONTINUOUS
100
AcDbLine
 10
205.2170494055167
 20
161.5701914411162
 30
0.0
 11
206.1525494055167
 21
165.5701914411162
 31
0.0
  0
LINE
  5
4BF
330
1A
100
AcDbEntity
  8
SEIHIN
  6
CONTINUOUS
100
AcDbLine
 10
127.6182341555109
 20
204.5703914411539
 30
0.0
 11
208.5182494055167
 21
204.5701914411163
 31
0.0
  0
LINE
  5
4C0
330
1A
100
AcDbEntity
  8
SEIHIN
  6
CONTINUOUS
100
AcDbLine
 10
127.6182494055166
 20
201.5703914411163
 30
0.0
 11
208.5182494055167
 21
201.5701914411163
 31
0.0
  0
LINE
  5
4C1
330
1A
100
AcDbEntity
  8
SEIHIN
  6
CONTINUOUS
100
AcDbLine
 10
209.1282494055167
 20
208.5701914411163
 30
0.0
 11
127.0082466555284
 21
208.570391441123
 31
0.0
  0
LINE
  5
4C2
330
1A
100
AcDbEntity
  8
SEIHIN
  6
CONTINUOUS
100
AcDbLine
 10
158.5682494055167
 20
169.0701914411162
 30
0.0
 11
177.5682494055167
 21
169.0701914411162
 31
0.0
  0
LINE
  5
4C3
330
1A
100
AcDbEntity
  8
SEIHIN
  6
CONTINUOUS
100
AcDbLine
 10
178.5682494055167
 20
170.0701914411162
 30
0.0
 11
157.5682494055167
 21
170.0701914411162
 31
0.0
  0
ARC
  5
4C6
330
1A
100
AcDbEntity
  8
SEIHIN
  6
CONTINUOUS
100
AcDbCircle
 10
157.5682494055167
 20
169.5701914411162
 30
0.0
 40
0.5
100
AcDbArc
 50
90.0
 51
180.0
  0
ARC
  5
4C7
330
1A
100
AcDbEntity
  8
SEIHIN
  6
CONTINUOUS
100
AcDbCircle
 10
158.5682494055167
 20
168.5701914411162
 30
0.0
 40
0.5
100
AcDbArc
 50
90.0
 51
180.0
  0
ARC
  5
4C8
330
1A
100
AcDbEntity
  8
SEIHIN
  6
CONTINUOUS
100
AcDbCircle
 10
177.5682494055167
 20
168.5701914411162
 30
0.0
 40
0.5
100
AcDbArc
 50
0.0
 51
90.0
  0
ARC
  5
4C9
330
1A
100
AcDbEntity
  8
SEIHIN
  6
CONTINUOUS
100
AcDbCircle
 10
178.5682494055167
 20
169.5701914411162
 30
0.0
 40
0.5
100
AcDbArc
 50
0.0
 51
90.0
  0
ARC
  5
4CA
330
1A
100
AcDbEntity
  8
SEIHIN
  6
CONTINUOUS
100
AcDbCircle
 10
207.607244665134
 20
201.2701868745192
 30
0.0
 40
0.3000045666346041
100
AcDbArc
 50
89.99909466736768
 51
177.8596201930775
  0
LINE
  5
4CB
330
1A
100
AcDbEntity
  8
SEIHIN
  6
CONTINUOUS
100
AcDbLine
 10
208.5182494055167
 20
204.5701914411163
 30
0.0
 11
208.5182494055167
 21
201.5701914411163
 31
0.0
  0
LINE
  5
4CC
330
1A
100
AcDbEntity
  8
SEIHIN
  6
CONTINUOUS
100
AcDbLine
 10
209.1282494055167
 20
208.5701914411163
 30
0.0
 11
208.5182494055167
 21
204.5702914411163
 31
0.0
  0
LINE
  5
4D9
330
1A
100
AcDbEntity
  8
SEIHIN
  6
CONTINUOUS
100
AcDbLine
 10
213.3564494055166
 20
244.7138914411163
 30
0.0
 11
222.5846494055167
 21
250.2785914411163
 31
0.0
  0
LINE
  5
4DB
330
1A
100
AcDbEntity
  8
SEIHIN
  6
CONTINUOUS
100
AcDbLine
 10
223.0683494055167
 20
253.5702914411163
 30
0.0
 11
113.0681494055167
 21
253.5702914411163
 31
0.0
  0
LINE
  5
4DC
330
1A
100
AcDbEntity
  8
SEIHIN
  6
CONTINUOUS
100
AcDbLine
 10
222.8935494055166
 20
250.5701914411163
 30
0.0
 11
113.2427527505136
 21
250.5703914414748
 31
0.0
  0
LINE
  5
4E6
330
1A
100
AcDbEntity
  8
SEIHIN
  6
CONTINUOUS
100
AcDbLine
 10
123.2823784634281
 20
244.5703914725443
 30
0.0
 11
212.8400494055167
 21
244.5701914411163
 31
0.0
  0
ARC
  5
4E9
330
1A
100
AcDbEntity
  8
SEIHIN
  6
CONTINUOUS
100
AcDbCircle
 10
212.8401302187322
 20
245.5703139206107
 30
0.0
 40
1.000022482759794
100
AcDbArc
 50
269.9953698479146
 51
301.0848954840907
  0
ARC
  5
4EA
330
1A
100
AcDbEntity
  8
SEIHIN
  6
CONTINUOUS
100
AcDbCircle
 10
210.4089250131425
 20
244.2702678013124
 30
0.0
 40
0.3000236407953867
100
AcDbArc
 50
89.99534176677354
 51
178.2000631460556
  0
LINE
  5
50F
330
1A
100
AcDbEntity
  8
SEIHIN
  6
CONTINUOUS
100
AcDbLine
 10
223.0682494055167
 20
253.5702914411163
 30
0.0
 11
223.0682494055167
 21
251.1348914411163
 31
0.0
  0
ARC
  5
510
330
1A
100
AcDbEntity
  8
SEIHIN
  6
CONTINUOUS
100
AcDbCircle
 10
222.0682697434302
 20
251.1349274560467
 30
0.0
 40
0.9999796627349654
100
AcDbArc
 50
301.0904208320862
 51
359.9979364545217
  0
LINE
  5
536
330
1A
100
AcDbEntity
  8
CENTER_L
 48
5.0
100
AcDbLine
 10
105.5682494055167
 20
403.4539146184285
 30
0.0
 11
230.5683494055167
 21
403.4536146184287
 31
0.0
  0
LINE
  5
54C
330
1A
100
AcDbEntity
  8
CENTER_L
 48
5.0
100
AcDbLine
 10
168.0682494055167
 20
465.4536374361521
 30
0.0
 11
168.0682494055167
 21
340.3304146184287
 31
0.0
  0
TEXT
  5
572
330
1A
100
AcDbEntity
  8
ZUWAKU
 62
     7
100
AcDbText
 10
654.2531733678779
 20
15.90287984531518
 30
0.0
 40
8.0
  1
ＧＰ８８
100
AcDbText
  0
LINE
  5
576
330
1A
100
AcDbEntity
  8
SEIHIN
  6
CONTINUOUS
100
AcDbLine
 10
687.6535156657783
 20
247.983976537583
 30
0.0
 11
696.8818156657782
 21
253.5486765375831
 31
0.0
  0
LINE
  5
577
330
1A
100
AcDbEntity
  8
SEIHIN
  6
CONTINUOUS
100
AcDbLine
 10
687.1528156657785
 20
249.783976537583
 30
0.0
 11
692.8818156657783
 21
253.2385765375831
 31
0.0
  0
LINE
  5
578
330
1A
100
AcDbEntity
  8
SEIHIN
  6
CONTINUOUS
100
AcDbLine
 10
697.3654156657783
 20
256.840276537583
 30
0.0
 11
642.3653156657787
 21
256.840276537583
 31
0.0
  0
LINE
  5
579
330
1A
100
AcDbEntity
  8
SEIHIN
  6
CONTINUOUS
100
AcDbLine
 10
642.3653156657787
 20
253.5301765375831
 30
0.0
 11
693.1906156657783
 21
253.5301765375831
 31
0.0
  0
LINE
  5
57D
330
1A
100
AcDbEntity
  8
SEIHIN
  6
CONTINUOUS
100
AcDbLine
 10
681.3654156657785
 20
211.8402765375831
 30
0.0
 11
681.3654156657785
 21
247.640376537583
 31
0.0
  0
LINE
  5
57E
330
1A
100
AcDbEntity
  8
SEIHIN
  6
CONTINUOUS
100
AcDbLine
 10
683.4253156657783
 20
211.8402765375831
 30
0.0
 11
684.4077156657784
 21
247.562776537583
 31
0.0
  0
LINE
  5
57F
330
1A
100
AcDbEntity
  8
SEIHIN
  6
CONTINUOUS
100
AcDbLine
 10
603.3652156657783
 20
211.840376537583
 30
0.0
 11
603.3652156657783
 21
247.640376537583
 31
0.0
  0
LINE
  5
580
330
1A
100
AcDbEntity
  8
SEIHIN
  6
CONTINUOUS
100
AcDbLine
 10
601.3052156657784
 20
211.840376537583
 30
0.0
 11
600.3229156657786
 21
247.5628765375831
 31
0.0
  0
LINE
  5
581
330
1A
100
AcDbEntity
  8
CENTER_L
 48
5.0
100
AcDbLine
 10
642.3653156657787
 20
160.7872765375831
 30
0.0
 11
642.3654156657784
 21
267.7073765375831
 31
0.0
  0
LINE
  5
582
330
1A
100
AcDbEntity
  8
SEIHIN
  6
CONTINUOUS
100
AcDbLine
 10
605.0173156657783
 20
206.6403765375831
 30
0.0
 11
642.3653156657787
 21
206.6402765375831
 31
0.0
  0
LINE
  5
583
330
1A
100
AcDbEntity
  8
SEIHIN
  6
CONTINUOUS
100
AcDbLine
 10
631.8653156657785
 20
164.8402765375831
 30
0.0
 11
605.2164156657786
 21
164.840376537583
 31
0.0
  0
LINE
  5
584
330
1A
100
AcDbEntity
  8
SEIHIN
  6
CONTINUOUS
100
AcDbLine
 10
606.2164156657786
 20
164.840376537583
 30
0.0
 11
606.5153156657786
 21
206.6403765375831
 31
0.0
  0
LINE
  5
585
330
1A
100
AcDbEntity
  8
SEIHIN
  6
CONTINUOUS
100
AcDbLine
 10
603.1236156657785
 20
204.5830765375831
 30
0.0
 11
604.2809156657786
 21
168.840376537583
 31
0.0
  0
LINE
  5
586
330
1A
100
AcDbEntity
  8
SEIHIN
  6
CONTINUOUS
100
AcDbLine
 10
605.2164156657786
 20
164.840376537583
 30
0.0
 11
604.2809156657786
 21
168.840376537583
 31
0.0
  0
ARC
  5
587
330
1A
100
AcDbEntity
  8
SEIHIN
  6
CONTINUOUS
100
AcDbCircle
 10
602.8261978183154
 20
204.540391996713
 30
0.0
 40
0.2999845414009456
100
AcDbArc
 50
8.199626722005112
 51
89.99659120999263
  0
LINE
  5
588
330
1A
100
AcDbEntity
  8
SEIHIN
  6
CONTINUOUS
100
AcDbLine
 10
601.9152156657784
 20
207.8403765375831
 30
0.0
 11
601.9152156657784
 21
204.8403765375831
 31
0.0
  0
LINE
  5
589
330
1A
100
AcDbEntity
  8
SEIHIN
  6
CONTINUOUS
100
AcDbLine
 10
601.9590156657784
 20
204.8403765375831
 30
0.0
 11
601.9152156657784
 21
204.8403765375831
 31
0.0
  0
LINE
  5
58A
330
1A
100
AcDbEntity
  8
SEIHIN
  6
CONTINUOUS
100
AcDbLine
 10
601.9152156657784
 20
204.8403765375831
 30
0.0
 11
602.8262156657783
 21
204.8403765375831
 31
0.0
  0
LINE
  5
58B
330
1A
100
AcDbEntity
  8
SEIHIN
  6
CONTINUOUS
100
AcDbLine
 10
601.3520156657786
 20
211.5333765375831
 30
0.0
 11
601.9152156657784
 21
207.8403765375831
 31
0.0
  0
LINE
  5
58C
330
1A
100
AcDbEntity
  8
SEIHIN
  6
CONTINUOUS
100
AcDbLine
 10
603.3652156657783
 20
211.840376537583
 30
0.0
 11
604.0287156657785
 21
207.4895765375831
 31
0.0
  0
ARC
  5
58D
330
1A
100
AcDbEntity
  8
SEIHIN
  6
CONTINUOUS
100
AcDbCircle
 10
605.0172951196682
 20
207.6403941872715
 30
0.0
 40
1.000017649899449
100
AcDbArc
 50
188.6741592373117
 51
270.0011771846191
  0
LINE
  5
58E
330
1A
100
AcDbEntity
  8
SEIHIN
  6
CONTINUOUS
100
AcDbLine
 10
678.5142156657784
 20
164.8402765375831
 30
0.0
 11
678.2154156657784
 21
206.6402765375831
 31
0.0
  0
LINE
  5
58F
330
1A
100
AcDbEntity
  8
SEIHIN
  6
CONTINUOUS
100
AcDbLine
 10
681.6070156657783
 20
204.5830765375831
 30
0.0
 11
680.4497156657783
 21
168.8402765375831
 31
0.0
  0
LINE
  5
590
330
1A
100
AcDbEntity
  8
SEIHIN
  6
CONTINUOUS
100
AcDbLine
 10
652.3653156657785
 20
165.340276537583
 30
0.0
 11
652.3653156657785
 21
171.840276537583
 31
0.0
  0
LINE
  5
591
330
1A
100
AcDbEntity
  8
SEIHIN
  6
CONTINUOUS
100
AcDbLine
 10
632.3653156657785
 20
165.3403765375831
 30
0.0
 11
632.3653156657785
 21
171.840276537583
 31
0.0
  0
LINE
  5
592
330
1A
100
AcDbEntity
  8
SEIHIN
  6
CONTINUOUS
100
AcDbLine
 10
652.8653156657785
 20
164.8402765375831
 30
0.0
 11
679.5142156657784
 21
164.8402765375831
 31
0.0
  0
ARC
  5
593
330
1A
100
AcDbEntity
  8
SEIHIN
  6
CONTINUOUS
100
AcDbCircle
 10
631.8653156657785
 20
165.3403765375831
 30
0.0
 40
0.5000000000000427
100
AcDbArc
 50
270.0000000000065
 51
0.0000000000048853
  0
ARC
  5
594
330
1A
100
AcDbEntity
  8
SEIHIN
  6
CONTINUOUS
100
AcDbCircle
 10
652.8653156657785
 20
165.340276537583
 30
0.0
 40
0.4999999999999432
100
AcDbArc
 50
180.0000000000048
 51
270.0000000000065
  0
LINE
  5
595
330
1A
100
AcDbEntity
  8
SEIHIN
  6
CONTINUOUS
100
AcDbLine
 10
679.5142156657784
 20
164.8402765375831
 30
0.0
 11
680.4497156657783
 21
168.8402765375831
 31
0.0
  0
LINE
  5
596
330
1A
100
AcDbEntity
  8
SEIHIN
  6
CONTINUOUS
100
AcDbLine
 10
679.7133156657783
 20
206.6402765375831
 30
0.0
 11
642.3653156657787
 21
206.6402765375831
 31
0.0
  0
LINE
  5
597
330
1A
100
AcDbEntity
  8
SEIHIN
  6
CONTINUOUS
100
AcDbLine
 10
642.3653156657787
 20
172.340276537583
 30
0.0
 11
632.8653156657785
 21
172.340276537583
 31
0.0
  0
ARC
  5
598
330
1A
100
AcDbEntity
  8
SEIHIN
  6
CONTINUOUS
100
AcDbCircle
 10
632.8653156657785
 20
171.840276537583
 30
0.0
 40
0.5
100
AcDbArc
 50
90.0
 51
180.0
  0
LINE
  5
599
330
1A
100
AcDbEntity
  8
SEIHIN
  6
CONTINUOUS
100
AcDbLine
 10
642.3653156657787
 20
172.340276537583
 30
0.0
 11
651.8653156657786
 21
172.340276537583
 31
0.0
  0
ARC
  5
59A
330
1A
100
AcDbEntity
  8
SEIHIN
  6
CONTINUOUS
100
AcDbCircle
 10
651.8653156657786
 20
171.840276537583
 30
0.0
 40
0.5
100
AcDbArc
 50
0.0
 51
90.0
  0
ARC
  5
59B
330
1A
100
AcDbEntity
  8
SEIHIN
  6
CONTINUOUS
100
AcDbCircle
 10
681.9043681224784
 20
204.5402353682328
 30
0.0
 40
0.3000411731170172
100
AcDbArc
 50
89.99092114455001
 51
171.7717118956567
  0
LINE
  5
59C
330
1A
100
AcDbEntity
  8
SEIHIN
  6
CONTINUOUS
100
AcDbLine
 10
683.3785156657784
 20
211.5332765375831
 30
0.0
 11
682.8153156657783
 21
207.840276537583
 31
0.0
  0
LINE
  5
59D
330
1A
100
AcDbEntity
  8
SEIHIN
  6
CONTINUOUS
100
AcDbLine
 10
682.8153156657783
 20
207.840276537583
 30
0.0
 11
682.8153156657783
 21
204.840276537583
 31
0.0
  0
LINE
  5
59E
330
1A
100
AcDbEntity
  8
SEIHIN
  6
CONTINUOUS
100
AcDbLine
 10
681.3654156657785
 20
211.8402765375831
 30
0.0
 11
680.7019156657784
 21
207.4895765375831
 31
0.0
  0
ARC
  5
59F
330
1A
100
AcDbEntity
  8
SEIHIN
  6
CONTINUOUS
100
AcDbCircle
 10
679.7133362118886
 20
207.6402941872717
 30
0.0
 40
1.000017649899633
100
AcDbArc
 50
269.9988228153744
 51
351.3258407626803
  0
LINE
  5
5A0
330
1A
100
AcDbEntity
  8
SEIHIN
  6
CONTINUOUS
100
AcDbLine
 10
682.7716156657784
 20
204.840276537583
 30
0.0
 11
682.8153156657783
 21
204.840276537583
 31
0.0
  0
LINE
  5
5A1
330
1A
100
AcDbEntity
  8
SEIHIN
  6
CONTINUOUS
100
AcDbLine
 10
682.8153156657783
 20
204.840276537583
 30
0.0
 11
681.9044156657782
 21
204.840276537583
 31
0.0
  0
LINE
  5
5A2
330
1A
100
AcDbEntity
  8
SEIHIN
  6
CONTINUOUS
100
AcDbLine
 10
587.3652156657783
 20
256.8403765375831
 30
0.0
 11
642.3653156657787
 21
256.840276537583
 31
0.0
  0
LINE
  5
5A3
330
1A
100
AcDbEntity
  8
SEIHIN
  6
CONTINUOUS
100
AcDbLine
 10
642.3653156657787
 20
249.6403765375831
 30
0.0
 11
598.0942156657784
 21
249.6404765375831
 31
0.0
  0
LINE
  5
5A4
330
1A
100
AcDbEntity
  8
SEIHIN
  6
CONTINUOUS
100
AcDbLine
 10
642.3653156657787
 20
253.5301765375831
 30
0.0
 11
591.5400156657783
 21
253.530276537583
 31
0.0
  0
LINE
  5
5A5
330
1A
100
AcDbEntity
  8
SEIHIN
  6
CONTINUOUS
100
AcDbLine
 10
597.5778156657784
 20
249.7840765375831
 30
0.0
 11
591.8488156657783
 21
253.238676537583
 31
0.0
  0
LINE
  5
5A6
330
1A
100
AcDbEntity
  8
SEIHIN
  6
CONTINUOUS
100
AcDbLine
 10
597.0771156657783
 20
247.984076537583
 30
0.0
 11
587.8488156657783
 21
253.548776537583
 31
0.0
  0
LINE
  5
5A7
330
1A
100
AcDbEntity
  8
SEIHIN
  6
CONTINUOUS
100
AcDbLine
 10
591.3652156657783
 20
256.8403765375831
 30
0.0
 11
591.3652156657783
 21
254.0949765375831
 31
0.0
  0
ARC
  5
5A8
330
1A
100
AcDbEntity
  8
SEIHIN
  6
CONTINUOUS
100
AcDbCircle
 10
592.3651953278647
 20
254.0950125525135
 30
0.0
 40
0.9999796627349113
100
AcDbArc
 50
180.0020635454835
 51
238.9095791679194
  0
LINE
  5
5A9
330
1A
100
AcDbEntity
  8
SEIHIN
  6
CONTINUOUS
100
AcDbLine
 10
587.3652156657783
 20
256.8403765375831
 30
0.0
 11
587.3652156657783
 21
254.4050765375831
 31
0.0
  0
ARC
  5
5AA
330
1A
100
AcDbEntity
  8
SEIHIN
  6
CONTINUOUS
100
AcDbCircle
 10
588.3651953278648
 20
254.4051125525135
 30
0.0
 40
0.9999796627349965
100
AcDbArc
 50
180.0020635454811
 51
238.9095791679165
  0
LINE
  5
5AB
330
1A
100
AcDbEntity
  8
SEIHIN
  6
CONTINUOUS
100
AcDbLine
 10
607.7350156657785
 20
239.095876537583
 30
0.0
 11
607.7350156657785
 21
240.6044765375831
 31
0.0
  0
ARC
  5
5AC
330
1A
100
AcDbEntity
  8
SEIHIN
  6
CONTINUOUS
100
AcDbCircle
 10
609.0849989863349
 20
238.2165982738113
 30
0.0
 40
0.500016679916052
100
AcDbArc
 50
359.9975092948161
 51
74.9996631129229
  0
ARC
  5
5AD
330
1A
100
AcDbEntity
  8
SEIHIN
  6
CONTINUOUS
100
AcDbCircle
 10
609.0850472827778
 20
237.4839177422633
 30
0.0
 40
0.4999683846986664
100
AcDbArc
 50
284.9960899815505
 51
359.995277992875
  0
ARC
  5
5AE
330
1A
100
AcDbEntity
  8
SEIHIN
  6
CONTINUOUS
100
AcDbCircle
 10
609.0849989863349
 20
229.4838548013549
 30
0.0
 40
0.5000166799161006
100
AcDbArc
 50
285.0003368870821
 51
0.0024907051887263
  0
ARC
  5
5AF
330
1A
100
AcDbEntity
  8
SEIHIN
  6
CONTINUOUS
100
AcDbCircle
 10
609.0849989863349
 20
230.2165982738113
 30
0.0
 40
0.500016679916052
100
AcDbArc
 50
359.9975092948161
 51
74.9996631129229
  0
ARC
  5
5B0
330
1A
100
AcDbEntity
  8
SEIHIN
  6
CONTINUOUS
100
AcDbCircle
 10
609.0849989863349
 20
225.4838548013549
 30
0.0
 40
0.5000166799159888
100
AcDbArc
 50
285.000336887072
 51
0.0024907051789566
  0
ARC
  5
5B1
330
1A
100
AcDbEntity
  8
SEIHIN
  6
CONTINUOUS
100
AcDbCircle
 10
609.0849989863349
 20
226.2165982738113
 30
0.0
 40
0.500016679916052
100
AcDbArc
 50
359.9975092948161
 51
74.9996631129229
  0
ARC
  5
5B2
330
1A
100
AcDbEntity
  8
SEIHIN
  6
CONTINUOUS
100
AcDbCircle
 10
609.0849989863349
 20
234.2165982738113
 30
0.0
 40
0.500016679916052
100
AcDbArc
 50
359.9975092948161
 51
74.9996631129229
  0
ARC
  5
5B3
330
1A
100
AcDbEntity
  8
SEIHIN
  6
CONTINUOUS
100
AcDbCircle
 10
609.0849989863349
 20
233.4838548013549
 30
0.0
 40
0.5000166799161006
100
AcDbArc
 50
285.0003368870821
 51
0.0024907051887263
  0
ARC
  5
5B4
330
1A
100
AcDbEntity
  8
SEIHIN
  6
CONTINUOUS
100
AcDbCircle
 10
609.0849989863349
 20
222.2165982738113
 30
0.0
 40
0.500016679916052
100
AcDbArc
 50
359.9975092948161
 51
74.9996631129229
  0
ARC
  5
5B5
330
1A
100
AcDbEntity
  8
SEIHIN
  6
CONTINUOUS
100
AcDbCircle
 10
609.0849989863349
 20
221.4838548013549
 30
0.0
 40
0.5000166799159888
100
AcDbArc
 50
285.000336887072
 51
0.0024907051789566
  0
LINE
  5
5B6
330
1A
100
AcDbEntity
  8
SEIHIN
  6
CONTINUOUS
100
AcDbLine
 10
607.7350156657785
 20
227.095876537583
 30
0.0
 11
607.7350156657785
 21
228.6044765375831
 31
0.0
  0
LINE
  5
5B7
330
1A
100
AcDbEntity
  8
SEIHIN
  6
CONTINUOUS
100
AcDbLine
 10
605.2154156657786
 20
226.8360765375831
 30
0.0
 11
609.2042156657785
 21
226.6207765375831
 31
0.0
  0
LINE
  5
5B8
330
1A
100
AcDbEntity
  8
SEIHIN
  6
CONTINUOUS
100
AcDbLine
 10
605.2154156657786
 20
225.336076537583
 30
0.0
 11
609.2042156657785
 21
225.1207765375831
 31
0.0
  0
LINE
  5
5B9
330
1A
100
AcDbEntity
  8
SEIHIN
  6
CONTINUOUS
100
AcDbLine
 10
609.2144156657785
 20
226.6995765375831
 30
0.0
 11
607.7350156657785
 21
227.095876537583
 31
0.0
  0
LINE
  5
5BA
330
1A
100
AcDbEntity
  8
SEIHIN
  6
CONTINUOUS
100
AcDbLine
 10
605.2154156657786
 20
226.452476537583
 30
0.0
 11
605.2154156657786
 21
225.7197765375831
 31
0.0
  0
ARC
  5
5BB
330
1A
100
AcDbEntity
  8
SEIHIN
  6
CONTINUOUS
100
AcDbCircle
 10
604.715398986335
 20
225.7197548013549
 30
0.0
 40
0.5000166799160447
100
AcDbArc
 50
285.000336887077
 51
0.0024907051838415
  0
ARC
  5
5BC
330
1A
100
AcDbEntity
  8
SEIHIN
  6
CONTINUOUS
100
AcDbCircle
 10
604.7154472827778
 20
226.4524353329028
 30
0.0
 40
0.4999683846986815
100
AcDbArc
 50
0.0047220071249444
 51
75.00391001844938
  0
LINE
  5
5BD
330
1A
100
AcDbEntity
  8
SEIHIN
  6
CONTINUOUS
100
AcDbLine
 10
605.2154156657786
 20
222.452476537583
 30
0.0
 11
605.2154156657786
 21
221.7197765375831
 31
0.0
  0
LINE
  5
5BE
330
1A
100
AcDbEntity
  8
SEIHIN
  6
CONTINUOUS
100
AcDbLine
 10
605.2154156657786
 20
221.336076537583
 30
0.0
 11
609.2042156657785
 21
221.1207765375831
 31
0.0
  0
LINE
  5
5BF
330
1A
100
AcDbEntity
  8
SEIHIN
  6
CONTINUOUS
100
AcDbLine
 10
605.2154156657786
 20
222.836076537583
 30
0.0
 11
609.2042156657785
 21
222.6207765375831
 31
0.0
  0
LINE
  5
5C0
330
1A
100
AcDbEntity
  8
SEIHIN
  6
CONTINUOUS
100
AcDbLine
 10
609.2144156657785
 20
222.6995765375831
 30
0.0
 11
607.7350156657785
 21
223.0958765375831
 31
0.0
  0
LINE
  5
5C1
330
1A
100
AcDbEntity
  8
SEIHIN
  6
CONTINUOUS
100
AcDbLine
 10
607.7350156657785
 20
223.0958765375831
 30
0.0
 11
607.7350156657785
 21
224.6044765375831
 31
0.0
  0
LINE
  5
5C2
330
1A
100
AcDbEntity
  8
SEIHIN
  6
CONTINUOUS
100
AcDbLine
 10
609.2144156657785
 20
221.000976537583
 30
0.0
 11
608.6152156657785
 21
220.8402765375831
 31
0.0
  0
ARC
  5
5C3
330
1A
100
AcDbEntity
  8
SEIHIN
  6
CONTINUOUS
100
AcDbCircle
 10
604.715398986335
 20
221.7197548013549
 30
0.0
 40
0.5000166799160447
100
AcDbArc
 50
285.000336887077
 51
0.0024907051838415
  0
ARC
  5
5C4
330
1A
100
AcDbEntity
  8
SEIHIN
  6
CONTINUOUS
100
AcDbCircle
 10
604.7154472827778
 20
222.4524353329028
 30
0.0
 40
0.4999683846986815
100
AcDbArc
 50
0.0047220071249444
 51
75.00391001844938
  0
LINE
  5
5C5
330
1A
100
AcDbEntity
  8
SEIHIN
  6
CONTINUOUS
100
AcDbLine
 10
609.2144156657785
 20
225.0008765375831
 30
0.0
 11
607.7350156657785
 21
224.6044765375831
 31
0.0
  0
LINE
  5
5C6
330
1A
100
AcDbEntity
  8
SEIHIN
  6
CONTINUOUS
100
AcDbLine
 10
604.8448156657785
 20
222.935376537583
 30
0.0
 11
603.3654156657785
 21
223.3317765375831
 31
0.0
  0
LINE
  5
5C7
330
1A
100
AcDbEntity
  8
SEIHIN
  6
CONTINUOUS
100
AcDbLine
 10
604.8448156657785
 20
225.2367765375831
 30
0.0
 11
603.3654156657785
 21
224.8402765375831
 31
0.0
  0
LINE
  5
5C8
330
1A
100
AcDbEntity
  8
SEIHIN
  6
CONTINUOUS
100
AcDbLine
 10
604.8448156657785
 20
221.2367765375831
 30
0.0
 11
603.3654156657785
 21
220.8402765375831
 31
0.0
  0
LINE
  5
5C9
330
1A
100
AcDbEntity
  8
SEIHIN
  6
CONTINUOUS
100
AcDbLine
 10
603.3654156657785
 20
223.3317765375831
 30
0.0
 11
607.7350156657785
 21
223.0958765375831
 31
0.0
  0
LINE
  5
5CA
330
1A
100
AcDbEntity
  8
SEIHIN
  6
CONTINUOUS
100
AcDbLine
 10
603.3654156657785
 20
227.3317765375831
 30
0.0
 11
607.7350156657785
 21
227.095876537583
 31
0.0
  0
LINE
  5
5CB
330
1A
100
AcDbEntity
  8
SEIHIN
  6
CONTINUOUS
100
AcDbLine
 10
603.3654156657785
 20
224.8402765375831
 30
0.0
 11
607.7350156657785
 21
224.6044765375831
 31
0.0
  0
LINE
  5
5CC
330
1A
100
AcDbEntity
  8
SEIHIN
  6
CONTINUOUS
100
AcDbLine
 10
604.8448156657785
 20
226.935376537583
 30
0.0
 11
603.3654156657785
 21
227.3317765375831
 31
0.0
  0
LINE
  5
5CD
330
1A
100
AcDbEntity
  8
SEIHIN
  6
CONTINUOUS
100
AcDbLine
 10
608.6152156657785
 20
220.8402765375831
 30
0.0
 11
603.3654156657785
 21
220.8402765375831
 31
0.0
  0
LINE
  5
5CE
330
1A
100
AcDbEntity
  8
SEIHIN
  6
CONTINUOUS
100
AcDbLine
 10
605.2154156657786
 20
238.452476537583
 30
0.0
 11
605.2154156657786
 21
237.719776537583
 31
0.0
  0
LINE
  5
5CF
330
1A
100
AcDbEntity
  8
SEIHIN
  6
CONTINUOUS
100
AcDbLine
 10
609.2144156657785
 20
238.6995765375831
 30
0.0
 11
607.7350156657785
 21
239.095876537583
 31
0.0
  0
LINE
  5
5D0
330
1A
100
AcDbEntity
  8
SEIHIN
  6
CONTINUOUS
100
AcDbLine
 10
609.2144156657785
 20
237.000876537583
 30
0.0
 11
607.7350156657785
 21
236.6044765375831
 31
0.0
  0
LINE
  5
5D1
330
1A
100
AcDbEntity
  8
SEIHIN
  6
CONTINUOUS
100
AcDbLine
 10
605.2154156657786
 20
237.336076537583
 30
0.0
 11
609.2042156657785
 21
237.1207765375831
 31
0.0
  0
LINE
  5
5D2
330
1A
100
AcDbEntity
  8
SEIHIN
  6
CONTINUOUS
100
AcDbLine
 10
605.2154156657786
 20
238.8360765375831
 30
0.0
 11
609.2042156657785
 21
238.6207765375831
 31
0.0
  0
ARC
  5
5D3
330
1A
100
AcDbEntity
  8
SEIHIN
  6
CONTINUOUS
100
AcDbCircle
 10
604.715398986335
 20
237.7197548013549
 30
0.0
 40
0.5000166799159888
100
AcDbArc
 50
285.000336887072
 51
0.0024907051789566
  0
ARC
  5
5D4
330
1A
100
AcDbEntity
  8
SEIHIN
  6
CONTINUOUS
100
AcDbCircle
 10
604.7154472827778
 20
238.4524353329028
 30
0.0
 40
0.4999683846986815
100
AcDbArc
 50
0.0047220071249444
 51
75.00391001844938
  0
LINE
  5
5D5
330
1A
100
AcDbEntity
  8
SEIHIN
  6
CONTINUOUS
100
AcDbLine
 10
605.2154156657786
 20
234.452476537583
 30
0.0
 11
605.2154156657786
 21
233.719776537583
 31
0.0
  0
LINE
  5
5D6
330
1A
100
AcDbEntity
  8
SEIHIN
  6
CONTINUOUS
100
AcDbLine
 10
605.2154156657786
 20
230.452476537583
 30
0.0
 11
605.2154156657786
 21
229.7197765375831
 31
0.0
  0
LINE
  5
5D7
330
1A
100
AcDbEntity
  8
SEIHIN
  6
CONTINUOUS
100
AcDbLine
 10
609.2144156657785
 20
230.6995765375831
 30
0.0
 11
607.7350156657785
 21
231.095876537583
 31
0.0
  0
LINE
  5
5D8
330
1A
100
AcDbEntity
  8
SEIHIN
  6
CONTINUOUS
100
AcDbLine
 10
609.2144156657785
 20
229.000876537583
 30
0.0
 11
607.7350156657785
 21
228.6044765375831
 31
0.0
  0
LINE
  5
5D9
330
1A
100
AcDbEntity
  8
SEIHIN
  6
CONTINUOUS
100
AcDbLine
 10
605.2154156657786
 20
229.336076537583
 30
0.0
 11
609.2042156657785
 21
229.1207765375831
 31
0.0
  0
LINE
  5
5DA
330
1A
100
AcDbEntity
  8
SEIHIN
  6
CONTINUOUS
100
AcDbLine
 10
605.2154156657786
 20
230.8360765375831
 30
0.0
 11
609.2042156657785
 21
230.6207765375831
 31
0.0
  0
LINE
  5
5DB
330
1A
100
AcDbEntity
  8
SEIHIN
  6
CONTINUOUS
100
AcDbLine
 10
609.2144156657785
 20
234.6995765375831
 30
0.0
 11
607.7350156657785
 21
235.095876537583
 31
0.0
  0
LINE
  5
5DC
330
1A
100
AcDbEntity
  8
SEIHIN
  6
CONTINUOUS
100
AcDbLine
 10
609.2144156657785
 20
233.000876537583
 30
0.0
 11
607.7350156657785
 21
232.6044765375831
 31
0.0
  0
LINE
  5
5DD
330
1A
100
AcDbEntity
  8
SEIHIN
  6
CONTINUOUS
100
AcDbLine
 10
605.2154156657786
 20
233.336076537583
 30
0.0
 11
609.2042156657785
 21
233.1207765375831
 31
0.0
  0
LINE
  5
5DE
330
1A
100
AcDbEntity
  8
SEIHIN
  6
CONTINUOUS
100
AcDbLine
 10
605.2154156657786
 20
234.8360765375831
 30
0.0
 11
609.2042156657785
 21
234.6207765375831
 31
0.0
  0
LINE
  5
5DF
330
1A
100
AcDbEntity
  8
SEIHIN
  6
CONTINUOUS
100
AcDbLine
 10
607.7350156657785
 20
231.095876537583
 30
0.0
 11
607.7350156657785
 21
232.6044765375831
 31
0.0
  0
ARC
  5
5E0
330
1A
100
AcDbEntity
  8
SEIHIN
  6
CONTINUOUS
100
AcDbCircle
 10
604.715398986335
 20
233.7197548013549
 30
0.0
 40
0.5000166799159888
100
AcDbArc
 50
285.000336887072
 51
0.0024907051789566
  0
ARC
  5
5E1
330
1A
100
AcDbEntity
  8
SEIHIN
  6
CONTINUOUS
100
AcDbCircle
 10
604.715398986335
 20
234.4524982738112
 30
0.0
 40
0.5000166799160804
100
AcDbArc
 50
359.9975092948129
 51
74.9996631129206
  0
ARC
  5
5E2
330
1A
100
AcDbEntity
  8
SEIHIN
  6
CONTINUOUS
100
AcDbCircle
 10
604.715398986335
 20
229.7197548013549
 30
0.0
 40
0.5000166799160447
100
AcDbArc
 50
285.000336887077
 51
0.0024907051838415
  0
ARC
  5
5E3
330
1A
100
AcDbEntity
  8
SEIHIN
  6
CONTINUOUS
100
AcDbCircle
 10
604.7154472827778
 20
230.4524353329028
 30
0.0
 40
0.4999683846986815
100
AcDbArc
 50
0.0047220071249444
 51
75.00391001844938
  0
LINE
  5
5E4
330
1A
100
AcDbEntity
  8
SEIHIN
  6
CONTINUOUS
100
AcDbLine
 10
607.7350156657785
 20
236.6044765375831
 30
0.0
 11
607.7350156657785
 21
235.095876537583
 31
0.0
  0
LINE
  5
5E5
330
1A
100
AcDbEntity
  8
SEIHIN
  6
CONTINUOUS
100
AcDbLine
 10
604.8448156657785
 20
237.2367765375831
 30
0.0
 11
603.3654156657785
 21
236.840276537583
 31
0.0
  0
LINE
  5
5E6
330
1A
100
AcDbEntity
  8
SEIHIN
  6
CONTINUOUS
100
AcDbLine
 10
604.8448156657785
 20
238.935376537583
 30
0.0
 11
603.3654156657785
 21
239.331776537583
 31
0.0
  0
LINE
  5
5E7
330
1A
100
AcDbEntity
  8
SEIHIN
  6
CONTINUOUS
100
AcDbLine
 10
604.8448156657785
 20
233.2367765375831
 30
0.0
 11
603.3654156657785
 21
232.8402765375831
 31
0.0
  0
LINE
  5
5E8
330
1A
100
AcDbEntity
  8
SEIHIN
  6
CONTINUOUS
100
AcDbLine
 10
604.8448156657785
 20
234.935376537583
 30
0.0
 11
603.3654156657785
 21
235.3317765375831
 31
0.0
  0
LINE
  5
5E9
330
1A
100
AcDbEntity
  8
SEIHIN
  6
CONTINUOUS
100
AcDbLine
 10
604.8448156657785
 20
229.2367765375831
 30
0.0
 11
603.3654156657785
 21
228.840376537583
 31
0.0
  0
LINE
  5
5EA
330
1A
100
AcDbEntity
  8
SEIHIN
  6
CONTINUOUS
100
AcDbLine
 10
604.8448156657785
 20
230.935376537583
 30
0.0
 11
603.3654156657785
 21
231.3317765375831
 31
0.0
  0
LINE
  5
5EB
330
1A
100
AcDbEntity
  8
SEIHIN
  6
CONTINUOUS
100
AcDbLine
 10
603.3654156657785
 20
228.840376537583
 30
0.0
 11
607.7350156657785
 21
228.6044765375831
 31
0.0
  0
LINE
  5
5EC
330
1A
100
AcDbEntity
  8
SEIHIN
  6
CONTINUOUS
100
AcDbLine
 10
603.3654156657785
 20
231.3317765375831
 30
0.0
 11
607.7350156657785
 21
231.095876537583
 31
0.0
  0
LINE
  5
5ED
330
1A
100
AcDbEntity
  8
SEIHIN
  6
CONTINUOUS
100
AcDbLine
 10
603.3654156657785
 20
232.8402765375831
 30
0.0
 11
607.7350156657785
 21
232.6044765375831
 31
0.0
  0
LINE
  5
5EE
330
1A
100
AcDbEntity
  8
SEIHIN
  6
CONTINUOUS
100
AcDbLine
 10
603.3654156657785
 20
235.3317765375831
 30
0.0
 11
607.7350156657785
 21
235.095876537583
 31
0.0
  0
LINE
  5
5EF
330
1A
100
AcDbEntity
  8
SEIHIN
  6
CONTINUOUS
100
AcDbLine
 10
603.3654156657785
 20
236.840276537583
 30
0.0
 11
607.7350156657785
 21
236.6044765375831
 31
0.0
  0
LINE
  5
5F0
330
1A
100
AcDbEntity
  8
SEIHIN
  6
CONTINUOUS
100
AcDbLine
 10
603.3654156657785
 20
239.331776537583
 30
0.0
 11
607.7350156657785
 21
239.095876537583
 31
0.0
  0
LINE
  5
5F1
330
1A
100
AcDbEntity
  8
SEIHIN
  6
CONTINUOUS
100
AcDbLine
 10
609.5850156657786
 20
226.2165765375831
 30
0.0
 11
609.5850156657786
 21
225.483876537583
 31
0.0
  0
LINE
  5
5F2
330
1A
100
AcDbEntity
  8
SEIHIN
  6
CONTINUOUS
100
AcDbLine
 10
609.5850156657786
 20
222.2165765375831
 30
0.0
 11
609.5850156657786
 21
221.483876537583
 31
0.0
  0
LINE
  5
5F3
330
1A
100
AcDbEntity
  8
SEIHIN
  6
CONTINUOUS
100
AcDbLine
 10
609.5850156657786
 20
238.2165765375831
 30
0.0
 11
609.5850156657786
 21
237.4838765375831
 31
0.0
  0
LINE
  5
5F4
330
1A
100
AcDbEntity
  8
SEIHIN
  6
CONTINUOUS
100
AcDbLine
 10
609.5850156657786
 20
230.2165765375831
 30
0.0
 11
609.5850156657786
 21
229.4838765375831
 31
0.0
  0
LINE
  5
5F5
330
1A
100
AcDbEntity
  8
SEIHIN
  6
CONTINUOUS
100
AcDbLine
 10
609.5850156657786
 20
234.2165765375831
 30
0.0
 11
609.5850156657786
 21
233.4838765375831
 31
0.0
  0
ARC
  5
5F6
330
1A
100
AcDbEntity
  8
SEIHIN
  6
CONTINUOUS
100
AcDbCircle
 10
609.0849989863349
 20
242.2165982738113
 30
0.0
 40
0.500016679916052
100
AcDbArc
 50
359.9975092948159
 51
74.99966311292284
  0
ARC
  5
5F7
330
1A
100
AcDbEntity
  8
SEIHIN
  6
CONTINUOUS
100
AcDbCircle
 10
609.0849989863349
 20
241.4838548013549
 30
0.0
 40
0.500016679916043
100
AcDbArc
 50
285.0003368870771
 51
0.002490705184045
  0
ARC
  5
5F8
330
1A
100
AcDbEntity
  8
SEIHIN
  6
CONTINUOUS
100
AcDbCircle
 10
609.0849989863349
 20
245.4838548013549
 30
0.0
 40
0.500016679916043
100
AcDbArc
 50
285.0003368870771
 51
0.002490705184045
  0
LINE
  5
5F9
330
1A
100
AcDbEntity
  8
SEIHIN
  6
CONTINUOUS
100
AcDbLine
 10
609.5848156657786
 20
245.840376537583
 30
0.0
 11
603.3652156657783
 21
245.840376537583
 31
0.0
  0
LINE
  5
5FA
330
1A
100
AcDbEntity
  8
SEIHIN
  6
CONTINUOUS
100
AcDbLine
 10
600.0246156657783
 20
247.840376537583
 30
0.0
 11
597.5935156657784
 21
247.840376537583
 31
0.0
  0
ARC
  5
5FB
330
1A
100
AcDbEntity
  8
SEIHIN
  6
CONTINUOUS
100
AcDbCircle
 10
598.0942887727533
 20
250.6403561996696
 30
0.0
 40
0.9999796647588391
100
AcDbArc
 50
238.9033268161403
 51
269.9958111937046
  0
ARC
  5
5FC
330
1A
100
AcDbEntity
  8
SEIHIN
  6
CONTINUOUS
100
AcDbCircle
 10
597.5935887727533
 20
248.8403561996696
 30
0.0
 40
0.9999796647588194
100
AcDbArc
 50
238.9033268161454
 51
269.9958111937096
  0
ARC
  5
5FD
330
1A
100
AcDbEntity
  8
SEIHIN
  6
CONTINUOUS
100
AcDbCircle
 10
600.0246400581525
 20
247.5403528977792
 30
0.0
 40
0.3000236407954412
100
AcDbArc
 50
1.799936853943957
 51
90.00465823322645
  0
LINE
  5
5FE
330
1A
100
AcDbEntity
  8
SEIHIN
  6
CONTINUOUS
100
AcDbLine
 10
605.2154156657786
 20
245.840376537583
 30
0.0
 11
605.2154156657786
 21
245.719776537583
 31
0.0
  0
LINE
  5
5FF
330
1A
100
AcDbEntity
  8
SEIHIN
  6
CONTINUOUS
100
AcDbLine
 10
605.2154156657786
 20
242.452476537583
 30
0.0
 11
605.2154156657786
 21
241.719776537583
 31
0.0
  0
LINE
  5
600
330
1A
100
AcDbEntity
  8
SEIHIN
  6
CONTINUOUS
100
AcDbLine
 10
609.2144156657785
 20
242.6995765375831
 30
0.0
 11
607.7350156657785
 21
243.0958765375831
 31
0.0
  0
LINE
  5
601
330
1A
100
AcDbEntity
  8
SEIHIN
  6
CONTINUOUS
100
AcDbLine
 10
609.2144156657785
 20
241.0008765375831
 30
0.0
 11
607.7350156657785
 21
240.6044765375831
 31
0.0
  0
LINE
  5
602
330
1A
100
AcDbEntity
  8
SEIHIN
  6
CONTINUOUS
100
AcDbLine
 10
605.2154156657786
 20
241.3360765375831
 30
0.0
 11
609.2042156657785
 21
241.1207765375831
 31
0.0
  0
LINE
  5
603
330
1A
100
AcDbEntity
  8
SEIHIN
  6
CONTINUOUS
100
AcDbLine
 10
605.2154156657786
 20
242.8360765375831
 30
0.0
 11
609.2042156657785
 21
242.6207765375831
 31
0.0
  0
LINE
  5
604
330
1A
100
AcDbEntity
  8
SEIHIN
  6
CONTINUOUS
100
AcDbLine
 10
609.2144156657785
 20
245.0008765375831
 30
0.0
 11
607.7350156657785
 21
244.6044765375831
 31
0.0
  0
LINE
  5
605
330
1A
100
AcDbEntity
  8
SEIHIN
  6
CONTINUOUS
100
AcDbLine
 10
605.2154156657786
 20
245.3360765375831
 30
0.0
 11
609.2042156657785
 21
245.1207765375831
 31
0.0
  0
LINE
  5
606
330
1A
100
AcDbEntity
  8
SEIHIN
  6
CONTINUOUS
100
AcDbLine
 10
607.7350156657785
 20
243.0958765375831
 30
0.0
 11
607.7350156657785
 21
244.6044765375831
 31
0.0
  0
ARC
  5
607
330
1A
100
AcDbEntity
  8
SEIHIN
  6
CONTINUOUS
100
AcDbCircle
 10
604.715398986335
 20
245.7197548013549
 30
0.0
 40
0.5000166799160218
100
AcDbArc
 50
285.0003368870744
 51
0.0024907051824168
  0
ARC
  5
608
330
1A
100
AcDbEntity
  8
SEIHIN
  6
CONTINUOUS
100
AcDbCircle
 10
604.715398986335
 20
241.7197548013549
 30
0.0
 40
0.5000166799160218
100
AcDbArc
 50
285.0003368870744
 51
0.0024907051824168
  0
ARC
  5
609
330
1A
100
AcDbEntity
  8
SEIHIN
  6
CONTINUOUS
100
AcDbCircle
 10
604.7154472827778
 20
242.4524353329028
 30
0.0
 40
0.4999683846986815
100
AcDbArc
 50
0.0047220071249444
 51
75.00391001844938
  0
ARC
  5
60A
330
1A
100
AcDbEntity
  8
SEIHIN
  6
CONTINUOUS
100
AcDbCircle
 10
601.3652156657784
 20
247.6403765375831
 30
0.0
 40
1.999999999999943
100
AcDbArc
 50
359.9999999999963
 51
89.99999999999674
  0
LINE
  5
60B
330
1A
100
AcDbEntity
  8
SEIHIN
  6
CONTINUOUS
100
AcDbLine
 10
604.8448156657785
 20
245.236776537583
 30
0.0
 11
603.3654156657785
 21
244.840276537583
 31
0.0
  0
LINE
  5
60C
330
1A
100
AcDbEntity
  8
SEIHIN
  6
CONTINUOUS
100
AcDbLine
 10
604.8448156657785
 20
241.236776537583
 30
0.0
 11
603.3654156657785
 21
240.840276537583
 31
0.0
  0
LINE
  5
60D
330
1A
100
AcDbEntity
  8
SEIHIN
  6
CONTINUOUS
100
AcDbLine
 10
604.8448156657785
 20
242.935376537583
 30
0.0
 11
603.3654156657785
 21
243.331776537583
 31
0.0
  0
LINE
  5
60E
330
1A
100
AcDbEntity
  8
SEIHIN
  6
CONTINUOUS
100
AcDbLine
 10
603.3654156657785
 20
240.840276537583
 30
0.0
 11
607.7350156657785
 21
240.6044765375831
 31
0.0
  0
LINE
  5
60F
330
1A
100
AcDbEntity
  8
SEIHIN
  6
CONTINUOUS
100
AcDbLine
 10
603.3654156657785
 20
243.331776537583
 30
0.0
 11
607.7350156657785
 21
243.0958765375831
 31
0.0
  0
LINE
  5
610
330
1A
100
AcDbEntity
  8
SEIHIN
  6
CONTINUOUS
100
AcDbLine
 10
603.3654156657785
 20
244.840276537583
 30
0.0
 11
607.7350156657785
 21
244.6044765375831
 31
0.0
  0
LINE
  5
611
330
1A
100
AcDbEntity
  8
SEIHIN
  6
CONTINUOUS
100
AcDbLine
 10
609.5850156657786
 20
242.2165765375831
 30
0.0
 11
609.5850156657786
 21
241.4838765375831
 31
0.0
  0
LINE
  5
612
330
1A
100
AcDbEntity
  8
SEIHIN
  6
CONTINUOUS
100
AcDbLine
 10
609.5850156657786
 20
245.840376537583
 30
0.0
 11
609.5850156657786
 21
245.4838765375831
 31
0.0
  0
LINE
  5
613
330
1A
100
AcDbEntity
  8
SEIHIN
  6
CONTINUOUS
100
AcDbLine
 10
642.3653156657787
 20
249.6403765375831
 30
0.0
 11
686.6364156657782
 21
249.6403765375831
 31
0.0
  0
LINE
  5
614
330
1A
100
AcDbEntity
  8
SEIHIN
  6
CONTINUOUS
100
AcDbLine
 10
676.9958156657783
 20
239.095876537583
 30
0.0
 11
676.9958156657783
 21
240.6043765375831
 31
0.0
  0
LINE
  5
615
330
1A
100
AcDbEntity
  8
SEIHIN
  6
CONTINUOUS
100
AcDbLine
 10
676.9958156657783
 20
227.095876537583
 30
0.0
 11
676.9958156657783
 21
228.604376537583
 31
0.0
  0
LINE
  5
616
330
1A
100
AcDbEntity
  8
SEIHIN
  6
CONTINUOUS
100
AcDbLine
 10
675.5164156657786
 20
226.6994765375831
 30
0.0
 11
676.9958156657783
 21
227.095876537583
 31
0.0
  0
LINE
  5
617
330
1A
100
AcDbEntity
  8
SEIHIN
  6
CONTINUOUS
100
AcDbLine
 10
675.1458156657784
 20
226.2165765375831
 30
0.0
 11
675.1458156657784
 21
225.483876537583
 31
0.0
  0
LINE
  5
618
330
1A
100
AcDbEntity
  8
SEIHIN
  6
CONTINUOUS
100
AcDbLine
 10
679.8859156657783
 20
226.935376537583
 30
0.0
 11
681.3654156657785
 21
227.3317765375831
 31
0.0
  0
LINE
  5
619
330
1A
100
AcDbEntity
  8
SEIHIN
  6
CONTINUOUS
100
AcDbLine
 10
679.5153156657784
 20
226.4523765375831
 30
0.0
 11
679.5153156657784
 21
225.7196765375831
 31
0.0
  0
LINE
  5
61A
330
1A
100
AcDbEntity
  8
SEIHIN
  6
CONTINUOUS
100
AcDbLine
 10
681.3654156657785
 20
227.3317765375831
 30
0.0
 11
676.9958156657783
 21
227.095876537583
 31
0.0
  0
LINE
  5
61B
330
1A
100
AcDbEntity
  8
SEIHIN
  6
CONTINUOUS
100
AcDbLine
 10
679.5153156657784
 20
226.8360765375831
 30
0.0
 11
675.5265156657783
 21
226.6206765375831
 31
0.0
  0
LINE
  5
61C
330
1A
100
AcDbEntity
  8
SEIHIN
  6
CONTINUOUS
100
AcDbLine
 10
679.5153156657784
 20
225.336076537583
 30
0.0
 11
675.5265156657783
 21
225.1207765375831
 31
0.0
  0
ARC
  5
61D
330
1A
100
AcDbEntity
  8
SEIHIN
  6
CONTINUOUS
100
AcDbCircle
 10
680.0153323452221
 20
226.4523982738111
 30
0.0
 40
0.5000166799160643
100
AcDbArc
 50
105.0003368870697
 51
180.0024907051732
  0
ARC
  5
61E
330
1A
100
AcDbEntity
  8
SEIHIN
  6
CONTINUOUS
100
AcDbCircle
 10
680.0152840487792
 20
225.7197177422634
 30
0.0
 40
0.4999683846987383
100
AcDbArc
 50
180.0047220071322
 51
255.0039100184513
  0
ARC
  5
61F
330
1A
100
AcDbEntity
  8
SEIHIN
  6
CONTINUOUS
100
AcDbCircle
 10
675.645832345222
 20
225.4838548013549
 30
0.0
 40
0.5000166799159951
100
AcDbArc
 50
179.997509294821
 51
254.9996631129279
  0
ARC
  5
620
330
1A
100
AcDbEntity
  8
SEIHIN
  6
CONTINUOUS
100
AcDbCircle
 10
675.6457969950814
 20
226.2165522002324
 30
0.0
 40
0.4999813298950898
100
AcDbArc
 50
105.0090925089485
 51
179.997211040899
  0
LINE
  5
621
330
1A
100
AcDbEntity
  8
SEIHIN
  6
CONTINUOUS
100
AcDbLine
 10
676.1156156657785
 20
220.8402765375831
 30
0.0
 11
681.3654156657785
 21
220.8402765375831
 31
0.0
  0
LINE
  5
622
330
1A
100
AcDbEntity
  8
SEIHIN
  6
CONTINUOUS
100
AcDbLine
 10
679.8859156657783
 20
221.2367765375831
 30
0.0
 11
681.3654156657785
 21
220.8402765375831
 31
0.0
  0
LINE
  5
623
330
1A
100
AcDbEntity
  8
SEIHIN
  6
CONTINUOUS
100
AcDbLine
 10
679.8859156657783
 20
222.935376537583
 30
0.0
 11
681.3654156657785
 21
223.3317765375831
 31
0.0
  0
LINE
  5
624
330
1A
100
AcDbEntity
  8
SEIHIN
  6
CONTINUOUS
100
AcDbLine
 10
679.5153156657784
 20
222.4523765375831
 30
0.0
 11
679.5153156657784
 21
221.7196765375831
 31
0.0
  0
LINE
  5
625
330
1A
100
AcDbEntity
  8
SEIHIN
  6
CONTINUOUS
100
AcDbLine
 10
679.5153156657784
 20
222.836076537583
 30
0.0
 11
675.5265156657783
 21
222.620676537583
 31
0.0
  0
LINE
  5
626
330
1A
100
AcDbEntity
  8
SEIHIN
  6
CONTINUOUS
100
AcDbLine
 10
681.3654156657785
 20
224.8402765375831
 30
0.0
 11
676.9958156657783
 21
224.604376537583
 31
0.0
  0
LINE
  5
627
330
1A
100
AcDbEntity
  8
SEIHIN
  6
CONTINUOUS
100
AcDbLine
 10
679.5153156657784
 20
221.336076537583
 30
0.0
 11
675.5265156657783
 21
221.1207765375831
 31
0.0
  0
LINE
  5
628
330
1A
100
AcDbEntity
  8
SEIHIN
  6
CONTINUOUS
100
AcDbLine
 10
675.5164156657786
 20
222.699476537583
 30
0.0
 11
676.9958156657783
 21
223.0958765375831
 31
0.0
  0
LINE
  5
629
330
1A
100
AcDbEntity
  8
SEIHIN
  6
CONTINUOUS
100
AcDbLine
 10
675.1458156657784
 20
222.2165765375831
 30
0.0
 11
675.1458156657784
 21
221.483876537583
 31
0.0
  0
LINE
  5
62A
330
1A
100
AcDbEntity
  8
SEIHIN
  6
CONTINUOUS
100
AcDbLine
 10
681.3654156657785
 20
223.3317765375831
 30
0.0
 11
676.9958156657783
 21
223.0958765375831
 31
0.0
  0
LINE
  5
62B
330
1A
100
AcDbEntity
  8
SEIHIN
  6
CONTINUOUS
100
AcDbLine
 10
675.5164156657786
 20
221.0008765375831
 30
0.0
 11
676.1156156657785
 21
220.8402765375831
 31
0.0
  0
LINE
  5
62C
330
1A
100
AcDbEntity
  8
SEIHIN
  6
CONTINUOUS
100
AcDbLine
 10
676.9958156657783
 20
223.0958765375831
 30
0.0
 11
676.9958156657783
 21
224.604376537583
 31
0.0
  0
ARC
  5
62D
330
1A
100
AcDbEntity
  8
SEIHIN
  6
CONTINUOUS
100
AcDbCircle
 10
680.0152840487792
 20
221.7197177422634
 30
0.0
 40
0.4999683846987383
100
AcDbArc
 50
180.0047220071322
 51
255.0039100184513
  0
ARC
  5
62E
330
1A
100
AcDbEntity
  8
SEIHIN
  6
CONTINUOUS
100
AcDbCircle
 10
680.0153323452221
 20
222.4523982738111
 30
0.0
 40
0.5000166799160574
100
AcDbArc
 50
105.0003368870699
 51
180.002490705174
  0
ARC
  5
62F
330
1A
100
AcDbEntity
  8
SEIHIN
  6
CONTINUOUS
100
AcDbCircle
 10
675.6457969950811
 20
222.2165522002323
 30
0.0
 40
0.4999813298950192
100
AcDbArc
 50
105.0090925089372
 51
179.9972110408942
  0
ARC
  5
630
330
1A
100
AcDbEntity
  8
SEIHIN
  6
CONTINUOUS
100
AcDbCircle
 10
675.645832345222
 20
221.4838548013549
 30
0.0
 40
0.5000166799159951
100
AcDbArc
 50
179.997509294821
 51
254.9996631129279
  0
LINE
  5
631
330
1A
100
AcDbEntity
  8
SEIHIN
  6
CONTINUOUS
100
AcDbLine
 10
679.8859156657783
 20
225.2367765375831
 30
0.0
 11
681.3654156657785
 21
224.8402765375831
 31
0.0
  0
LINE
  5
632
330
1A
100
AcDbEntity
  8
SEIHIN
  6
CONTINUOUS
100
AcDbLine
 10
675.5164156657786
 20
225.0008765375831
 30
0.0
 11
676.9958156657783
 21
224.604376537583
 31
0.0
  0
LINE
  5
633
330
1A
100
AcDbEntity
  8
SEIHIN
  6
CONTINUOUS
100
AcDbLine
 10
679.8859156657783
 20
238.935376537583
 30
0.0
 11
681.3654156657785
 21
239.331776537583
 31
0.0
  0
LINE
  5
634
330
1A
100
AcDbEntity
  8
SEIHIN
  6
CONTINUOUS
100
AcDbLine
 10
679.5153156657784
 20
238.452376537583
 30
0.0
 11
679.5153156657784
 21
237.7196765375831
 31
0.0
  0
LINE
  5
635
330
1A
100
AcDbEntity
  8
SEIHIN
  6
CONTINUOUS
100
AcDbLine
 10
679.8859156657783
 20
237.2367765375831
 30
0.0
 11
681.3654156657785
 21
236.840276537583
 31
0.0
  0
LINE
  5
636
330
1A
100
AcDbEntity
  8
SEIHIN
  6
CONTINUOUS
100
AcDbLine
 10
679.5153156657784
 20
238.8360765375831
 30
0.0
 11
675.5265156657783
 21
238.6206765375831
 31
0.0
  0
LINE
  5
637
330
1A
100
AcDbEntity
  8
SEIHIN
  6
CONTINUOUS
100
AcDbLine
 10
679.5153156657784
 20
237.336076537583
 30
0.0
 11
675.5265156657783
 21
237.1207765375831
 31
0.0
  0
LINE
  5
638
330
1A
100
AcDbEntity
  8
SEIHIN
  6
CONTINUOUS
100
AcDbLine
 10
681.3654156657785
 20
239.331776537583
 30
0.0
 11
676.9958156657783
 21
239.095876537583
 31
0.0
  0
LINE
  5
639
330
1A
100
AcDbEntity
  8
SEIHIN
  6
CONTINUOUS
100
AcDbLine
 10
681.3654156657785
 20
236.840276537583
 30
0.0
 11
676.9958156657783
 21
236.604376537583
 31
0.0
  0
LINE
  5
63A
330
1A
100
AcDbEntity
  8
SEIHIN
  6
CONTINUOUS
100
AcDbLine
 10
675.5164156657786
 20
237.000876537583
 30
0.0
 11
676.9958156657783
 21
236.604376537583
 31
0.0
  0
LINE
  5
63B
330
1A
100
AcDbEntity
  8
SEIHIN
  6
CONTINUOUS
100
AcDbLine
 10
675.1458156657784
 20
238.2165765375831
 30
0.0
 11
675.1458156657784
 21
237.4838765375831
 31
0.0
  0
LINE
  5
63C
330
1A
100
AcDbEntity
  8
SEIHIN
  6
CONTINUOUS
100
AcDbLine
 10
675.5164156657786
 20
238.6994765375831
 30
0.0
 11
676.9958156657783
 21
239.095876537583
 31
0.0
  0
ARC
  5
63D
330
1A
100
AcDbEntity
  8
SEIHIN
  6
CONTINUOUS
100
AcDbCircle
 10
680.0153323452221
 20
238.4523982738111
 30
0.0
 40
0.5000166799161065
100
AcDbArc
 50
105.0003368870751
 51
180.0024907051765
  0
ARC
  5
63E
330
1A
100
AcDbEntity
  8
SEIHIN
  6
CONTINUOUS
100
AcDbCircle
 10
680.0152840487792
 20
237.7197177422634
 30
0.0
 40
0.4999683846987383
100
AcDbArc
 50
180.0047220071322
 51
255.0039100184513
  0
ARC
  5
63F
330
1A
100
AcDbEntity
  8
SEIHIN
  6
CONTINUOUS
100
AcDbCircle
 10
675.645832345222
 20
237.4838548013549
 30
0.0
 40
0.5000166799161088
100
AcDbArc
 50
179.9975092948113
 51
254.9996631129178
  0
ARC
  5
640
330
1A
100
AcDbEntity
  8
SEIHIN
  6
CONTINUOUS
100
AcDbCircle
 10
675.6457969950814
 20
238.2165522002324
 30
0.0
 40
0.4999813298950898
100
AcDbArc
 50
105.0090925089485
 51
179.997211040899
  0
LINE
  5
641
330
1A
100
AcDbEntity
  8
SEIHIN
  6
CONTINUOUS
100
AcDbLine
 10
681.3654156657785
 20
235.3317765375831
 30
0.0
 11
676.9958156657783
 21
235.095876537583
 31
0.0
  0
LINE
  5
642
330
1A
100
AcDbEntity
  8
SEIHIN
  6
CONTINUOUS
100
AcDbLine
 10
679.8859156657783
 20
233.2367765375831
 30
0.0
 11
681.3654156657785
 21
232.8402765375831
 31
0.0
  0
LINE
  5
643
330
1A
100
AcDbEntity
  8
SEIHIN
  6
CONTINUOUS
100
AcDbLine
 10
679.5153156657784
 20
234.452376537583
 30
0.0
 11
679.5153156657784
 21
233.7196765375831
 31
0.0
  0
LINE
  5
644
330
1A
100
AcDbEntity
  8
SEIHIN
  6
CONTINUOUS
100
AcDbLine
 10
679.5153156657784
 20
230.452376537583
 30
0.0
 11
679.5153156657784
 21
229.7196765375831
 31
0.0
  0
LINE
  5
645
330
1A
100
AcDbEntity
  8
SEIHIN
  6
CONTINUOUS
100
AcDbLine
 10
679.8859156657783
 20
230.935376537583
 30
0.0
 11
681.3654156657785
 21
231.3317765375831
 31
0.0
  0
LINE
  5
646
330
1A
100
AcDbEntity
  8
SEIHIN
  6
CONTINUOUS
100
AcDbLine
 10
679.8859156657783
 20
234.935376537583
 30
0.0
 11
681.3654156657785
 21
235.3317765375831
 31
0.0
  0
LINE
  5
647
330
1A
100
AcDbEntity
  8
SEIHIN
  6
CONTINUOUS
100
AcDbLine
 10
679.8859156657783
 20
229.2367765375831
 30
0.0
 11
681.3654156657785
 21
228.8402765375831
 31
0.0
  0
LINE
  5
648
330
1A
100
AcDbEntity
  8
SEIHIN
  6
CONTINUOUS
100
AcDbLine
 10
675.5164156657786
 20
230.6994765375831
 30
0.0
 11
676.9958156657783
 21
231.095876537583
 31
0.0
  0
LINE
  5
649
330
1A
100
AcDbEntity
  8
SEIHIN
  6
CONTINUOUS
100
AcDbLine
 10
679.5153156657784
 20
233.336076537583
 30
0.0
 11
675.5265156657783
 21
233.1207765375831
 31
0.0
  0
LINE
  5
64A
330
1A
100
AcDbEntity
  8
SEIHIN
  6
CONTINUOUS
100
AcDbLine
 10
681.3654156657785
 20
232.8402765375831
 30
0.0
 11
676.9958156657783
 21
232.604376537583
 31
0.0
  0
LINE
  5
64B
330
1A
100
AcDbEntity
  8
SEIHIN
  6
CONTINUOUS
100
AcDbLine
 10
675.5164156657786
 20
233.000876537583
 30
0.0
 11
676.9958156657783
 21
232.604376537583
 31
0.0
  0
LINE
  5
64C
330
1A
100
AcDbEntity
  8
SEIHIN
  6
CONTINUOUS
100
AcDbLine
 10
675.1458156657784
 20
234.2165765375831
 30
0.0
 11
675.1458156657784
 21
233.4838765375831
 31
0.0
  0
LINE
  5
64D
330
1A
100
AcDbEntity
  8
SEIHIN
  6
CONTINUOUS
100
AcDbLine
 10
675.5164156657786
 20
234.6994765375831
 30
0.0
 11
676.9958156657783
 21
235.095876537583
 31
0.0
  0
LINE
  5
64E
330
1A
100
AcDbEntity
  8
SEIHIN
  6
CONTINUOUS
100
AcDbLine
 10
679.5153156657784
 20
230.8360765375831
 30
0.0
 11
675.5265156657783
 21
230.6206765375831
 31
0.0
  0
LINE
  5
64F
330
1A
100
AcDbEntity
  8
SEIHIN
  6
CONTINUOUS
100
AcDbLine
 10
679.5153156657784
 20
229.336076537583
 30
0.0
 11
675.5265156657783
 21
229.1207765375831
 31
0.0
  0
LINE
  5
650
330
1A
100
AcDbEntity
  8
SEIHIN
  6
CONTINUOUS
100
AcDbLine
 10
681.3654156657785
 20
231.3317765375831
 30
0.0
 11
676.9958156657783
 21
231.095876537583
 31
0.0
  0
LINE
  5
651
330
1A
100
AcDbEntity
  8
SEIHIN
  6
CONTINUOUS
100
AcDbLine
 10
681.3654156657785
 20
228.8402765375831
 30
0.0
 11
676.9958156657783
 21
228.604376537583
 31
0.0
  0
LINE
  5
652
330
1A
100
AcDbEntity
  8
SEIHIN
  6
CONTINUOUS
100
AcDbLine
 10
675.5164156657786
 20
229.000876537583
 30
0.0
 11
676.9958156657783
 21
228.604376537583
 31
0.0
  0
LINE
  5
653
330
1A
100
AcDbEntity
  8
SEIHIN
  6
CONTINUOUS
100
AcDbLine
 10
675.1458156657784
 20
230.2165765375831
 30
0.0
 11
675.1458156657784
 21
229.4838765375831
 31
0.0
  0
LINE
  5
654
330
1A
100
AcDbEntity
  8
SEIHIN
  6
CONTINUOUS
100
AcDbLine
 10
679.5153156657784
 20
234.8360765375831
 30
0.0
 11
675.5265156657783
 21
234.6206765375831
 31
0.0
  0
LINE
  5
655
330
1A
100
AcDbEntity
  8
SEIHIN
  6
CONTINUOUS
100
AcDbLine
 10
676.9958156657783
 20
231.095876537583
 30
0.0
 11
676.9958156657783
 21
232.604376537583
 31
0.0
  0
ARC
  5
656
330
1A
100
AcDbEntity
  8
SEIHIN
  6
CONTINUOUS
100
AcDbCircle
 10
680.0153323452221
 20
230.4523982738111
 30
0.0
 40
0.5000166799161065
100
AcDbArc
 50
105.0003368870751
 51
180.0024907051765
  0
ARC
  5
657
330
1A
100
AcDbEntity
  8
SEIHIN
  6
CONTINUOUS
100
AcDbCircle
 10
680.0152840487792
 20
229.7197177422634
 30
0.0
 40
0.4999683846987383
100
AcDbArc
 50
180.0047220071322
 51
255.0039100184513
  0
ARC
  5
658
330
1A
100
AcDbEntity
  8
SEIHIN
  6
CONTINUOUS
100
AcDbCircle
 10
680.0153323452221
 20
234.4523982738111
 30
0.0
 40
0.5000166799161065
100
AcDbArc
 50
105.0003368870751
 51
180.0024907051765
  0
ARC
  5
659
330
1A
100
AcDbEntity
  8
SEIHIN
  6
CONTINUOUS
100
AcDbCircle
 10
680.0152840487792
 20
233.7197177422634
 30
0.0
 40
0.4999683846987383
100
AcDbArc
 50
180.0047220071322
 51
255.0039100184513
  0
ARC
  5
65A
330
1A
100
AcDbEntity
  8
SEIHIN
  6
CONTINUOUS
100
AcDbCircle
 10
675.645832345222
 20
233.4838548013549
 30
0.0
 40
0.5000166799161088
100
AcDbArc
 50
179.9975092948113
 51
254.9996631129178
  0
ARC
  5
65B
330
1A
100
AcDbEntity
  8
SEIHIN
  6
CONTINUOUS
100
AcDbCircle
 10
675.6457969950814
 20
234.2165522002324
 30
0.0
 40
0.4999813298950898
100
AcDbArc
 50
105.0090925089485
 51
179.997211040899
  0
ARC
  5
65C
330
1A
100
AcDbEntity
  8
SEIHIN
  6
CONTINUOUS
100
AcDbCircle
 10
675.645832345222
 20
229.4838548013549
 30
0.0
 40
0.5000166799161088
100
AcDbArc
 50
179.9975092948113
 51
254.9996631129178
  0
ARC
  5
65D
330
1A
100
AcDbEntity
  8
SEIHIN
  6
CONTINUOUS
100
AcDbCircle
 10
675.6457969950814
 20
230.2165522002324
 30
0.0
 40
0.4999813298950898
100
AcDbArc
 50
105.0090925089485
 51
179.997211040899
  0
LINE
  5
65E
330
1A
100
AcDbEntity
  8
SEIHIN
  6
CONTINUOUS
100
AcDbLine
 10
676.9958156657783
 20
236.604376537583
 30
0.0
 11
676.9958156657783
 21
235.095876537583
 31
0.0
  0
ARC
  5
65F
330
1A
100
AcDbEntity
  8
SEIHIN
  6
CONTINUOUS
100
AcDbCircle
 10
683.3654156657785
 20
247.6403765375831
 30
0.0
 40
2.000000000000042
100
AcDbArc
 50
90.00000000000161
 51
180.0000000000012
  0
LINE
  5
660
330
1A
100
AcDbEntity
  8
SEIHIN
  6
CONTINUOUS
100
AcDbLine
 10
675.5164156657786
 20
245.0008765375831
 30
0.0
 11
676.9958156657783
 21
244.6043765375831
 31
0.0
  0
LINE
  5
661
330
1A
100
AcDbEntity
  8
SEIHIN
  6
CONTINUOUS
100
AcDbLine
 10
679.8859156657783
 20
242.935376537583
 30
0.0
 11
681.3654156657785
 21
243.331776537583
 31
0.0
  0
LINE
  5
662
330
1A
100
AcDbEntity
  8
SEIHIN
  6
CONTINUOUS
100
AcDbLine
 10
679.5153156657784
 20
242.452376537583
 30
0.0
 11
679.5153156657784
 21
241.7196765375831
 31
0.0
  0
LINE
  5
663
330
1A
100
AcDbEntity
  8
SEIHIN
  6
CONTINUOUS
100
AcDbLine
 10
679.8859156657783
 20
241.236776537583
 30
0.0
 11
681.3654156657785
 21
240.840276537583
 31
0.0
  0
LINE
  5
664
330
1A
100
AcDbEntity
  8
SEIHIN
  6
CONTINUOUS
100
AcDbLine
 10
679.5153156657784
 20
245.840376537583
 30
0.0
 11
679.5153156657784
 21
245.719676537583
 31
0.0
  0
LINE
  5
665
330
1A
100
AcDbEntity
  8
SEIHIN
  6
CONTINUOUS
100
AcDbLine
 10
679.8859156657783
 20
245.236776537583
 30
0.0
 11
681.3654156657785
 21
244.840276537583
 31
0.0
  0
LINE
  5
666
330
1A
100
AcDbEntity
  8
SEIHIN
  6
CONTINUOUS
100
AcDbLine
 10
675.1458156657784
 20
245.840376537583
 30
0.0
 11
681.3654156657785
 21
245.840376537583
 31
0.0
  0
LINE
  5
667
330
1A
100
AcDbEntity
  8
SEIHIN
  6
CONTINUOUS
100
AcDbLine
 10
675.5164156657786
 20
241.0008765375831
 30
0.0
 11
676.9958156657783
 21
240.6043765375831
 31
0.0
  0
LINE
  5
668
330
1A
100
AcDbEntity
  8
SEIHIN
  6
CONTINUOUS
100
AcDbLine
 10
675.1458156657784
 20
242.2165765375831
 30
0.0
 11
675.1458156657784
 21
241.4838765375831
 31
0.0
  0
LINE
  5
669
330
1A
100
AcDbEntity
  8
SEIHIN
  6
CONTINUOUS
100
AcDbLine
 10
675.5164156657786
 20
242.6994765375831
 30
0.0
 11
676.9958156657783
 21
243.0958765375831
 31
0.0
  0
LINE
  5
66A
330
1A
100
AcDbEntity
  8
SEIHIN
  6
CONTINUOUS
100
AcDbLine
 10
675.1458156657784
 20
245.840376537583
 30
0.0
 11
675.1458156657784
 21
245.4838765375831
 31
0.0
  0
LINE
  5
66B
330
1A
100
AcDbEntity
  8
SEIHIN
  6
CONTINUOUS
100
AcDbLine
 10
679.5153156657784
 20
242.8360765375831
 30
0.0
 11
675.5265156657783
 21
242.6206765375831
 31
0.0
  0
LINE
  5
66C
330
1A
100
AcDbEntity
  8
SEIHIN
  6
CONTINUOUS
100
AcDbLine
 10
679.5153156657784
 20
241.3360765375831
 30
0.0
 11
675.5265156657783
 21
241.1207765375831
 31
0.0
  0
LINE
  5
66D
330
1A
100
AcDbEntity
  8
SEIHIN
  6
CONTINUOUS
100
AcDbLine
 10
681.3654156657785
 20
243.331776537583
 30
0.0
 11
676.9958156657783
 21
243.0958765375831
 31
0.0
  0
LINE
  5
66E
330
1A
100
AcDbEntity
  8
SEIHIN
  6
CONTINUOUS
100
AcDbLine
 10
681.3654156657785
 20
240.840276537583
 30
0.0
 11
676.9958156657783
 21
240.6043765375831
 31
0.0
  0
LINE
  5
66F
330
1A
100
AcDbEntity
  8
SEIHIN
  6
CONTINUOUS
100
AcDbLine
 10
679.5153156657784
 20
245.3360765375831
 30
0.0
 11
675.5265156657783
 21
245.1207765375831
 31
0.0
  0
LINE
  5
670
330
1A
100
AcDbEntity
  8
SEIHIN
  6
CONTINUOUS
100
AcDbLine
 10
681.3654156657785
 20
244.840276537583
 30
0.0
 11
676.9958156657783
 21
244.6043765375831
 31
0.0
  0
LINE
  5
671
330
1A
100
AcDbEntity
  8
SEIHIN
  6
CONTINUOUS
100
AcDbLine
 10
676.9958156657783
 20
243.0958765375831
 30
0.0
 11
676.9958156657783
 21
244.6043765375831
 31
0.0
  0
ARC
  5
672
330
1A
100
AcDbEntity
  8
SEIHIN
  6
CONTINUOUS
100
AcDbCircle
 10
675.645832345222
 20
241.4838548013549
 30
0.0
 40
0.500016679916052
100
AcDbArc
 50
179.9975092948159
 51
254.9996631129228
  0
ARC
  5
673
330
1A
100
AcDbEntity
  8
SEIHIN
  6
CONTINUOUS
100
AcDbCircle
 10
675.6457969950814
 20
242.2165522002324
 30
0.0
 40
0.4999813298950898
100
AcDbArc
 50
105.0090925089485
 51
179.997211040899
  0
ARC
  5
674
330
1A
100
AcDbEntity
  8
SEIHIN
  6
CONTINUOUS
100
AcDbCircle
 10
680.0153323452221
 20
242.4523982738111
 30
0.0
 40
0.5000166799161047
100
AcDbArc
 50
105.0003368870752
 51
180.0024907051767
  0
ARC
  5
675
330
1A
100
AcDbEntity
  8
SEIHIN
  6
CONTINUOUS
100
AcDbCircle
 10
680.0152840487792
 20
241.7197177422633
 30
0.0
 40
0.4999683846987951
100
AcDbArc
 50
180.004722007129
 51
255.0039100184458
  0
ARC
  5
676
330
1A
100
AcDbEntity
  8
SEIHIN
  6
CONTINUOUS
100
AcDbCircle
 10
680.0152840487792
 20
245.7197177422633
 30
0.0
 40
0.4999683846986815
100
AcDbArc
 50
180.0047220071338
 51
255.0039100184571
  0
ARC
  5
677
330
1A
100
AcDbEntity
  8
SEIHIN
  6
CONTINUOUS
100
AcDbCircle
 10
675.645832345222
 20
245.4838548013549
 30
0.0
 40
0.500016679916052
100
AcDbArc
 50
179.9975092948159
 51
254.9996631129228
  0
LINE
  5
678
330
1A
100
AcDbEntity
  8
SEIHIN
  6
CONTINUOUS
100
AcDbLine
 10
684.7060156657782
 20
247.840376537583
 30
0.0
 11
687.1371156657783
 21
247.840376537583
 31
0.0
  0
ARC
  5
679
330
1A
100
AcDbEntity
  8
SEIHIN
  6
CONTINUOUS
100
AcDbCircle
 10
686.6364964789943
 20
250.640399017078
 30
0.0
 40
1.000022482760174
100
AcDbArc
 50
269.9953698478902
 51
301.084895484072
  0
ARC
  5
67A
330
1A
100
AcDbEntity
  8
SEIHIN
  6
CONTINUOUS
100
AcDbCircle
 10
687.1371964789942
 20
248.8403990170777
 30
0.0
 40
1.000022482759956
100
AcDbArc
 50
269.9953698479
 51
301.0848954840764
  0
ARC
  5
67B
330
1A
100
AcDbEntity
  8
SEIHIN
  6
CONTINUOUS
100
AcDbCircle
 10
684.7059912734043
 20
247.5403528977792
 30
0.0
 40
0.3000236407954151
100
AcDbArc
 50
89.99534176678441
 51
178.2000631460614
  0
LINE
  5
687
330
1A
100
AcDbEntity
  8
SEIHIN
  6
CONTINUOUS
100
AcDbLine
 10
693.3654156657783
 20
256.840276537583
 30
0.0
 11
693.3654156657783
 21
254.0949765375831
 31
0.0
  0
LINE
  5
688
330
1A
100
AcDbEntity
  8
SEIHIN
  6
CONTINUOUS
100
AcDbLine
 10
697.3654156657783
 20
256.840276537583
 30
0.0
 11
697.3654156657783
 21
254.4050765375831
 31
0.0
  0
ARC
  5
689
330
1A
100
AcDbEntity
  8
SEIHIN
  6
CONTINUOUS
100
AcDbCircle
 10
696.3654190032896
 20
254.4050824467912
 30
0.0
 40
0.9999966625062617
100
AcDbArc
 50
301.0842804396456
 51
359.9996614261887
  0
ARC
  5
68A
330
1A
100
AcDbEntity
  8
SEIHIN
  6
CONTINUOUS
100
AcDbCircle
 10
692.3654190032896
 20
254.0949824467911
 30
0.0
 40
0.9999966625061958
100
AcDbArc
 50
301.0842804396442
 51
359.9996614261863
  0
LINE
  5
68D
330
1A
100
AcDbEntity
  8
SEIHIN
  6
CONTINUOUS
100
AcDbLine
 10
679.5654156657786
 20
381.7345765375831
 30
0.0
 11
692.3654156657782
 21
381.7345765375831
 31
0.0
  0
LINE
  5
68E
330
1A
100
AcDbEntity
  8
SEIHIN
  6
CONTINUOUS
100
AcDbLine
 10
679.9209156657784
 20
381.7345765375831
 30
0.0
 11
692.3654156657782
 21
381.7345765375831
 31
0.0
  0
LINE
  5
68F
330
1A
100
AcDbEntity
  8
SEIHIN
  6
CONTINUOUS
100
AcDbLine
 10
642.3653156657787
 20
378.5345765375832
 30
0.0
 11
692.3654156657782
 21
378.5345765375832
 31
0.0
  0
LINE
  5
691
330
1A
100
AcDbEntity
  8
SEIHIN
  6
CONTINUOUS
100
AcDbLine
 10
677.2185156657785
 20
400.8430765375831
 30
0.0
 11
669.8397156657786
 21
424.420276537583
 31
0.0
  0
LINE
  5
692
330
1A
100
AcDbEntity
  8
SEIHIN
  6
CONTINUOUS
100
AcDbLine
 10
620.2461156657785
 20
419.433276537583
 30
0.0
 11
613.8111156657785
 21
398.8718765375831
 31
0.0
  0
LINE
  5
693
330
1A
100
AcDbEntity
  8
SEIHIN
  6
CONTINUOUS
100
AcDbLine
 10
639.0654156657785
 20
423.4346765375831
 30
0.0
 11
639.0654156657785
 21
381.7343765375831
 31
0.0
  0
LINE
  5
694
330
1A
100
AcDbEntity
  8
SEIHIN
  6
CONTINUOUS
100
AcDbLine
 10
607.5124156657785
 20
400.8430765375831
 30
0.0
 11
614.8911156657784
 21
424.420276537583
 31
0.0
  0
LINE
  5
695
330
1A
100
AcDbEntity
  8
SEIHIN
  6
CONTINUOUS
100
AcDbLine
 10
645.6655156657784
 20
423.4346765375831
 30
0.0
 11
645.6654156657785
 21
381.7343765375831
 31
0.0
  0
LINE
  5
696
330
1A
100
AcDbEntity
  8
SEIHIN
  6
CONTINUOUS
100
AcDbLine
 10
664.4848156657783
 20
419.433276537583
 30
0.0
 11
670.9198156657783
 21
398.8717765375831
 31
0.0
  0
LINE
  5
697
330
1A
100
AcDbEntity
  8
CENTER_L
 48
5.0
100
AcDbLine
 10
642.3654156657784
 20
335.112176537583
 30
0.0
 11
642.3655156657786
 21
435.6962765375829
 31
0.0
  0
LINE
  5
698
330
1A
100
AcDbEntity
  8
SEIHIN
  6
CONTINUOUS
100
AcDbLine
 10
617.3654156657784
 20
381.7343765375831
 30
0.0
 11
642.3654156657784
 21
381.7343765375831
 31
0.0
  0
LINE
  5
699
330
1A
100
AcDbEntity
  8
SEIHIN
  6
CONTINUOUS
100
AcDbLine
 10
642.3654156657784
 20
374.8346765375831
 30
0.0
 11
605.3654156657784
 21
374.8346765375831
 31
0.0
  0
LINE
  5
69A
330
1A
100
AcDbEntity
  8
SEIHIN
  6
CONTINUOUS
100
AcDbLine
 10
642.3654156657784
 20
343.5345765375831
 30
0.0
 11
605.3653156657786
 21
343.5346765375831
 31
0.0
  0
LINE
  5
69B
330
1A
100
AcDbEntity
  8
SEIHIN
  6
CONTINUOUS
100
AcDbLine
 10
652.4623156657782
 20
374.8346765375831
 30
0.0
 11
605.3654156657784
 21
372.2888765375831
 31
0.0
  0
LINE
  5
69C
330
1A
100
AcDbEntity
  8
SEIHIN
  6
CONTINUOUS
100
AcDbLine
 10
642.3655156657786
 20
378.5345765375832
 30
0.0
 11
592.3654156657784
 21
378.5346765375832
 31
0.0
  0
LINE
  5
69D
330
1A
100
AcDbEntity
  8
SEIHIN
  6
CONTINUOUS
100
AcDbLine
 10
603.5153156657786
 20
345.5346765375831
 30
0.0
 11
642.3654156657784
 21
345.5346765375831
 31
0.0
  0
LINE
  5
69E
330
1A
100
AcDbEntity
  8
SEIHIN
  6
CONTINUOUS
100
AcDbLine
 10
643.3379156657785
 20
374.8346765375831
 30
0.0
 11
603.9170156657785
 21
372.8052765375831
 31
0.0
  0
LINE
  5
69F
330
1A
100
AcDbEntity
  8
SEIHIN
  6
CONTINUOUS
100
AcDbLine
 10
604.0854156657785
 20
350.313876537583
 30
0.0
 11
680.6460156657785
 21
354.255276537583
 31
0.0
  0
LINE
  5
6A0
330
1A
100
AcDbEntity
  8
SEIHIN
  6
CONTINUOUS
100
AcDbLine
 10
680.6568156657784
 20
352.7557765375831
 30
0.0
 11
604.0569156657785
 21
348.8124765375831
 31
0.0
  0
LINE
  5
6A1
330
1A
100
AcDbEntity
  8
SEIHIN
  6
CONTINUOUS
100
AcDbLine
 10
605.3654156657784
 20
350.7802765375831
 30
0.0
 11
679.3654156657785
 21
354.7802765375831
 31
0.0
  0
LINE
  5
6A2
330
1A
100
AcDbEntity
  8
SEIHIN
  6
CONTINUOUS
100
AcDbLine
 10
679.3654156657785
 20
352.2888765375831
 30
0.0
 11
605.3654156657784
 21
348.2888765375831
 31
0.0
  0
LINE
  5
6A3
330
1A
100
AcDbEntity
  8
SEIHIN
  6
CONTINUOUS
100
AcDbLine
 10
604.1307156657786
 20
346.3162765375831
 30
0.0
 11
680.6749156657783
 21
350.2567765375831
 31
0.0
  0
LINE
  5
6A4
330
1A
100
AcDbEntity
  8
SEIHIN
  6
CONTINUOUS
100
AcDbLine
 10
605.3654156657784
 20
346.7802765375831
 30
0.0
 11
679.3654156657785
 21
350.7802765375831
 31
0.0
  0
LINE
  5
6A5
330
1A
100
AcDbEntity
  8
SEIHIN
  6
CONTINUOUS
100
AcDbLine
 10
680.6858156657783
 20
348.757276537583
 30
0.0
 11
618.0844156657785
 21
345.5346765375831
 31
0.0
  0
LINE
  5
6A6
330
1A
100
AcDbEntity
  8
SEIHIN
  6
CONTINUOUS
100
AcDbLine
 10
605.3654156657784
 20
354.7802765375831
 30
0.0
 11
679.3654156657785
 21
358.7802765375831
 31
0.0
  0
LINE
  5
6A7
330
1A
100
AcDbEntity
  8
SEIHIN
  6
CONTINUOUS
100
AcDbLine
 10
679.3654156657785
 20
356.2888765375831
 30
0.0
 11
605.3654156657784
 21
352.2888765375831
 31
0.0
  0
LINE
  5
6A8
330
1A
100
AcDbEntity
  8
SEIHIN
  6
CONTINUOUS
100
AcDbLine
 10
604.0662156657786
 20
354.3129765375831
 30
0.0
 11
680.6170156657786
 21
358.2537765375831
 31
0.0
  0
LINE
  5
6A9
330
1A
100
AcDbEntity
  8
SEIHIN
  6
CONTINUOUS
100
AcDbLine
 10
680.6278156657783
 20
356.7542765375831
 30
0.0
 11
604.0783156657785
 21
352.8135765375831
 31
0.0
  0
LINE
  5
6AA
330
1A
100
AcDbEntity
  8
SEIHIN
  6
CONTINUOUS
100
AcDbLine
 10
605.3654156657784
 20
358.7802765375831
 30
0.0
 11
679.3654156657785
 21
362.7802765375831
 31
0.0
  0
LINE
  5
6AB
330
1A
100
AcDbEntity
  8
SEIHIN
  6
CONTINUOUS
100
AcDbLine
 10
679.3654156657785
 20
360.2888765375831
 30
0.0
 11
605.3654156657784
 21
356.2888765375831
 31
0.0
  0
LINE
  5
6AC
330
1A
100
AcDbEntity
  8
SEIHIN
  6
CONTINUOUS
100
AcDbLine
 10
604.0339156657785
 20
358.3112765375831
 30
0.0
 11
680.5880156657785
 21
362.2522765375831
 31
0.0
  0
LINE
  5
6AD
330
1A
100
AcDbEntity
  8
SEIHIN
  6
CONTINUOUS
100
AcDbLine
 10
680.5988156657783
 20
360.7527765375829
 30
0.0
 11
604.0460156657786
 21
356.8119765375831
 31
0.0
  0
LINE
  5
6AE
330
1A
100
AcDbEntity
  8
SEIHIN
  6
CONTINUOUS
100
AcDbLine
 10
605.3654156657784
 20
362.7802765375831
 30
0.0
 11
679.3654156657785
 21
366.7802765375831
 31
0.0
  0
LINE
  5
6AF
330
1A
100
AcDbEntity
  8
SEIHIN
  6
CONTINUOUS
100
AcDbLine
 10
679.3654156657785
 20
364.2888765375831
 30
0.0
 11
605.3654156657784
 21
360.2888765375831
 31
0.0
  0
LINE
  5
6B0
330
1A
100
AcDbEntity
  8
SEIHIN
  6
CONTINUOUS
100
AcDbLine
 10
604.0017156657786
 20
362.309576537583
 30
0.0
 11
680.5590156657784
 21
366.250776537583
 31
0.0
  0
LINE
  5
6B1
330
1A
100
AcDbEntity
  8
SEIHIN
  6
CONTINUOUS
100
AcDbLine
 10
680.5698156657784
 20
364.7513765375831
 30
0.0
 11
604.0138156657784
 21
360.8102765375829
 31
0.0
  0
LINE
  5
6B2
330
1A
100
AcDbEntity
  8
SEIHIN
  6
CONTINUOUS
100
AcDbLine
 10
605.3654156657784
 20
366.7802765375831
 30
0.0
 11
679.3654156657785
 21
370.7802765375831
 31
0.0
  0
LINE
  5
6B3
330
1A
100
AcDbEntity
  8
SEIHIN
  6
CONTINUOUS
100
AcDbLine
 10
679.3654156657785
 20
368.2888765375831
 30
0.0
 11
605.3654156657784
 21
364.2888765375831
 31
0.0
  0
LINE
  5
6B4
330
1A
100
AcDbEntity
  8
SEIHIN
  6
CONTINUOUS
100
AcDbLine
 10
603.9694156657784
 20
366.307976537583
 30
0.0
 11
680.5301156657785
 21
370.2492765375829
 31
0.0
  0
LINE
  5
6B5
330
1A
100
AcDbEntity
  8
SEIHIN
  6
CONTINUOUS
100
AcDbLine
 10
680.5409156657783
 20
368.749876537583
 30
0.0
 11
603.9815156657785
 21
364.8086765375829
 31
0.0
  0
LINE
  5
6B6
330
1A
100
AcDbEntity
  8
SEIHIN
  6
CONTINUOUS
100
AcDbLine
 10
605.3654156657784
 20
370.7802765375831
 30
0.0
 11
679.3654156657785
 21
374.7802765375831
 31
0.0
  0
LINE
  5
6B7
330
1A
100
AcDbEntity
  8
SEIHIN
  6
CONTINUOUS
100
AcDbLine
 10
679.3654156657785
 20
372.2888765375831
 30
0.0
 11
605.3654156657784
 21
368.2888765375831
 31
0.0
  0
LINE
  5
6B8
330
1A
100
AcDbEntity
  8
SEIHIN
  6
CONTINUOUS
100
AcDbLine
 10
603.9372156657785
 20
370.3062765375832
 30
0.0
 11
680.5011156657785
 21
374.2477765375831
 31
0.0
  0
LINE
  5
6B9
330
1A
100
AcDbEntity
  8
SEIHIN
  6
CONTINUOUS
100
AcDbLine
 10
680.5119156657783
 20
372.7483765375829
 30
0.0
 11
603.9493156657786
 21
368.8069765375831
 31
0.0
  0
LINE
  5
6BB
330
1A
100
AcDbEntity
  8
SEIHIN
  6
CONTINUOUS
100
AcDbLine
 10
605.3654156657784
 20
356.2888765375831
 30
0.0
 11
605.3654156657784
 21
354.7802765375831
 31
0.0
  0
LINE
  5
6BF
330
1A
100
AcDbEntity
  8
SEIHIN
  6
CONTINUOUS
100
AcDbLine
 10
605.3654156657784
 20
345.5346765375831
 30
0.0
 11
605.3654156657784
 21
343.5345765375831
 31
0.0
  0
LINE
  5
6C0
330
1A
100
AcDbEntity
  8
SEIHIN
  6
CONTINUOUS
100
AcDbLine
 10
605.3654156657784
 20
348.2888765375831
 30
0.0
 11
605.3654156657784
 21
346.7802765375831
 31
0.0
  0
LINE
  5
6C1
330
1A
100
AcDbEntity
  8
SEIHIN
  6
CONTINUOUS
100
AcDbLine
 10
605.3654156657784
 20
352.2888765375831
 30
0.0
 11
605.3654156657784
 21
350.7802765375831
 31
0.0
  0
LINE
  5
6C2
330
1A
100
AcDbEntity
  8
SEIHIN
  6
CONTINUOUS
100
AcDbLine
 10
603.5155156657785
 20
349.9008765375829
 30
0.0
 11
603.5155156657785
 21
349.1682765375831
 31
0.0
  0
LINE
  5
6C3
330
1A
100
AcDbEntity
  8
SEIHIN
  6
CONTINUOUS
100
AcDbLine
 10
603.5155156657785
 20
353.9008765375831
 30
0.0
 11
603.5155156657785
 21
353.1682765375831
 31
0.0
  0
ARC
  5
6C4
330
1A
100
AcDbEntity
  8
SEIHIN
  6
CONTINUOUS
100
AcDbCircle
 10
604.0155452890236
 20
349.900915149566
 30
0.0
 40
0.5000296247358403
100
AcDbArc
 50
105.0133380218547
 51
180.004424345195
  0
ARC
  5
6C5
330
1A
100
AcDbEntity
  8
SEIHIN
  6
CONTINUOUS
100
AcDbCircle
 10
604.0155806423347
 20
349.1681918663176
 30
0.0
 40
0.5000649837243669
100
AcDbArc
 50
179.990298648497
 51
254.9954171277653
  0
ARC
  5
6C6
330
1A
100
AcDbEntity
  8
SEIHIN
  6
CONTINUOUS
100
AcDbCircle
 10
604.0155452890235
 20
353.900915149566
 30
0.0
 40
0.5000296247357707
100
AcDbArc
 50
105.0133380218501
 51
180.0044243451885
  0
ARC
  5
6C7
330
1A
100
AcDbEntity
  8
SEIHIN
  6
CONTINUOUS
100
AcDbCircle
 10
604.0155806423347
 20
353.1681918663176
 30
0.0
 40
0.5000649837243669
100
AcDbArc
 50
179.990298648497
 51
254.9954171277653
  0
LINE
  5
6C8
330
1A
100
AcDbEntity
  8
SEIHIN
  6
CONTINUOUS
100
AcDbLine
 10
603.5155156657785
 20
345.9008765375829
 30
0.0
 11
603.5155156657785
 21
345.5346765375831
 31
0.0
  0
ARC
  5
6C9
330
1A
100
AcDbEntity
  8
SEIHIN
  6
CONTINUOUS
100
AcDbCircle
 10
604.0155452890236
 20
345.900915149566
 30
0.0
 40
0.5000296247358403
100
AcDbArc
 50
105.0133380218547
 51
180.004424345195
  0
LINE
  5
6CA
330
1A
100
AcDbEntity
  8
SEIHIN
  6
CONTINUOUS
100
AcDbLine
 10
603.8860156657785
 20
350.3839765375831
 30
0.0
 11
605.3655156657785
 21
350.7802765375831
 31
0.0
  0
LINE
  5
6CB
330
1A
100
AcDbEntity
  8
SEIHIN
  6
CONTINUOUS
100
AcDbLine
 10
603.8861156657784
 20
348.6853765375832
 30
0.0
 11
605.3655156657785
 21
348.2888765375831
 31
0.0
  0
LINE
  5
6CC
330
1A
100
AcDbEntity
  8
SEIHIN
  6
CONTINUOUS
100
AcDbLine
 10
603.8860156657785
 20
346.3839765375831
 30
0.0
 11
605.3655156657785
 21
346.7802765375831
 31
0.0
  0
LINE
  5
6CD
330
1A
100
AcDbEntity
  8
SEIHIN
  6
CONTINUOUS
100
AcDbLine
 10
603.8860156657785
 20
354.3839765375831
 30
0.0
 11
605.3655156657785
 21
354.7802765375831
 31
0.0
  0
LINE
  5
6CE
330
1A
100
AcDbEntity
  8
SEIHIN
  6
CONTINUOUS
100
AcDbLine
 10
603.8861156657784
 20
352.6853765375832
 30
0.0
 11
605.3655156657785
 21
352.2888765375831
 31
0.0
  0
LINE
  5
6CF
330
1A
100
AcDbEntity
  8
SEIHIN
  6
CONTINUOUS
100
AcDbLine
 10
605.1654156657786
 20
381.7345765375831
 30
0.0
 11
592.3654156657784
 21
381.7345765375831
 31
0.0
  0
LINE
  5
6D0
330
1A
100
AcDbEntity
  8
SEIHIN
  6
CONTINUOUS
100
AcDbLine
 10
604.8100156657784
 20
381.7345765375831
 30
0.0
 11
592.3654156657784
 21
381.7345765375831
 31
0.0
  0
LINE
  5
6D1
330
1A
100
AcDbEntity
  8
SEIHIN
  6
CONTINUOUS
100
AcDbLine
 10
592.3654156657784
 20
378.5346765375831
 30
0.0
 11
592.3654156657784
 21
381.7345765375831
 31
0.0
  0
ARC
  5
6D2
330
1A
100
AcDbEntity
  8
SEIHIN
  6
CONTINUOUS
100
AcDbCircle
 10
603.1654156657785
 20
376.3346765375831
 30
0.0
 40
2.199999999999988
100
AcDbArc
 50
359.9999999999955
 51
89.99999999999557
  0
LINE
  5
6D3
330
1A
100
AcDbEntity
  8
SEIHIN
  6
CONTINUOUS
100
AcDbLine
 10
603.9050156657785
 20
374.304676537583
 30
0.0
 11
614.2002156657786
 21
374.8346765375831
 31
0.0
  0
LINE
  5
6D4
330
1A
100
AcDbEntity
  8
SEIHIN
  6
CONTINUOUS
100
AcDbLine
 10
605.3654156657784
 20
368.2888765375831
 30
0.0
 11
605.3654156657784
 21
366.7802765375831
 31
0.0
  0
LINE
  5
6D5
330
1A
100
AcDbEntity
  8
SEIHIN
  6
CONTINUOUS
100
AcDbLine
 10
605.3654156657784
 20
360.2888765375831
 30
0.0
 11
605.3654156657784
 21
358.7802765375831
 31
0.0
  0
LINE
  5
6D6
330
1A
100
AcDbEntity
  8
SEIHIN
  6
CONTINUOUS
100
AcDbLine
 10
605.3654156657784
 20
364.2888765375831
 30
0.0
 11
605.3654156657784
 21
362.7802765375831
 31
0.0
  0
LINE
  5
6D7
330
1A
100
AcDbEntity
  8
SEIHIN
  6
CONTINUOUS
100
AcDbLine
 10
603.5155156657785
 20
357.9008765375831
 30
0.0
 11
603.5155156657785
 21
357.1682765375831
 31
0.0
  0
LINE
  5
6D8
330
1A
100
AcDbEntity
  8
SEIHIN
  6
CONTINUOUS
100
AcDbLine
 10
603.5155156657785
 20
361.9008765375831
 30
0.0
 11
603.5155156657785
 21
361.1682765375831
 31
0.0
  0
LINE
  5
6D9
330
1A
100
AcDbEntity
  8
SEIHIN
  6
CONTINUOUS
100
AcDbLine
 10
603.5155156657785
 20
365.900876537583
 30
0.0
 11
603.5155156657785
 21
365.1682765375831
 31
0.0
  0
ARC
  5
6DA
330
1A
100
AcDbEntity
  8
SEIHIN
  6
CONTINUOUS
100
AcDbCircle
 10
604.0155452890235
 20
357.900915149566
 30
0.0
 40
0.5000296247357707
100
AcDbArc
 50
105.0133380218501
 51
180.0044243451885
  0
ARC
  5
6DB
330
1A
100
AcDbEntity
  8
SEIHIN
  6
CONTINUOUS
100
AcDbCircle
 10
604.0155452890235
 20
361.900915149566
 30
0.0
 40
0.5000296247356938
100
AcDbArc
 50
105.0133380218423
 51
180.004424345182
  0
ARC
  5
6DC
330
1A
100
AcDbEntity
  8
SEIHIN
  6
CONTINUOUS
100
AcDbCircle
 10
604.0155806423347
 20
361.1681918663176
 30
0.0
 40
0.5000649837243669
100
AcDbArc
 50
179.990298648497
 51
254.9954171277653
  0
ARC
  5
6DD
330
1A
100
AcDbEntity
  8
SEIHIN
  6
CONTINUOUS
100
AcDbCircle
 10
604.0155452890235
 20
365.900915149566
 30
0.0
 40
0.5000296247356938
100
AcDbArc
 50
105.0133380218423
 51
180.004424345182
  0
ARC
  5
6DE
330
1A
100
AcDbEntity
  8
SEIHIN
  6
CONTINUOUS
100
AcDbCircle
 10
604.0155806423347
 20
365.1681918663176
 30
0.0
 40
0.5000649837243669
100
AcDbArc
 50
179.990298648497
 51
254.9954171277653
  0
ARC
  5
6DF
330
1A
100
AcDbEntity
  8
SEIHIN
  6
CONTINUOUS
100
AcDbCircle
 10
604.0155806423347
 20
357.1681918663176
 30
0.0
 40
0.5000649837243669
100
AcDbArc
 50
179.990298648497
 51
254.9954171277653
  0
LINE
  5
6E0
330
1A
100
AcDbEntity
  8
SEIHIN
  6
CONTINUOUS
100
AcDbLine
 10
603.8860156657785
 20
358.3839765375831
 30
0.0
 11
605.3655156657785
 21
358.7802765375831
 31
0.0
  0
LINE
  5
6E1
330
1A
100
AcDbEntity
  8
SEIHIN
  6
CONTINUOUS
100
AcDbLine
 10
603.8861156657784
 20
356.6853765375832
 30
0.0
 11
605.3655156657785
 21
356.2888765375831
 31
0.0
  0
LINE
  5
6E2
330
1A
100
AcDbEntity
  8
SEIHIN
  6
CONTINUOUS
100
AcDbLine
 10
603.8860156657785
 20
362.3839765375831
 30
0.0
 11
605.3655156657785
 21
362.7802765375831
 31
0.0
  0
LINE
  5
6E3
330
1A
100
AcDbEntity
  8
SEIHIN
  6
CONTINUOUS
100
AcDbLine
 10
603.8861156657784
 20
360.6853765375831
 30
0.0
 11
605.3655156657785
 21
360.2888765375831
 31
0.0
  0
LINE
  5
6E4
330
1A
100
AcDbEntity
  8
SEIHIN
  6
CONTINUOUS
100
AcDbLine
 10
603.8860156657785
 20
366.3839765375831
 30
0.0
 11
605.3655156657785
 21
366.7802765375831
 31
0.0
  0
LINE
  5
6E5
330
1A
100
AcDbEntity
  8
SEIHIN
  6
CONTINUOUS
100
AcDbLine
 10
603.8861156657784
 20
364.6853765375831
 30
0.0
 11
605.3655156657785
 21
364.2888765375831
 31
0.0
  0
LINE
  5
6E6
330
1A
100
AcDbEntity
  8
SEIHIN
  6
CONTINUOUS
100
AcDbLine
 10
605.3654156657784
 20
376.334676537583
 30
0.0
 11
605.3654156657784
 21
374.7802765375831
 31
0.0
  0
LINE
  5
6E7
330
1A
100
AcDbEntity
  8
SEIHIN
  6
CONTINUOUS
100
AcDbLine
 10
605.3654156657784
 20
374.7802765375831
 30
0.0
 11
606.3709156657785
 21
374.8346765375831
 31
0.0
  0
LINE
  5
6E8
330
1A
100
AcDbEntity
  8
SEIHIN
  6
CONTINUOUS
100
AcDbLine
 10
605.3654156657784
 20
372.2888765375831
 30
0.0
 11
605.3654156657784
 21
370.7802765375831
 31
0.0
  0
LINE
  5
6E9
330
1A
100
AcDbEntity
  8
SEIHIN
  6
CONTINUOUS
100
AcDbLine
 10
603.5155156657785
 20
369.9008765375829
 30
0.0
 11
603.5155156657785
 21
369.1682765375831
 31
0.0
  0
LINE
  5
6EA
330
1A
100
AcDbEntity
  8
SEIHIN
  6
CONTINUOUS
100
AcDbLine
 10
603.5155156657785
 20
373.9008765375829
 30
0.0
 11
603.5155156657785
 21
373.1682765375829
 31
0.0
  0
ARC
  5
6EB
330
1A
100
AcDbEntity
  8
SEIHIN
  6
CONTINUOUS
100
AcDbCircle
 10
604.0155452890235
 20
369.9009151495659
 30
0.0
 40
0.5000296247357707
100
AcDbArc
 50
105.0133380218501
 51
180.0044243451885
  0
ARC
  5
6EC
330
1A
100
AcDbEntity
  8
SEIHIN
  6
CONTINUOUS
100
AcDbCircle
 10
604.0155806423347
 20
369.1681918663176
 30
0.0
 40
0.5000649837243669
100
AcDbArc
 50
179.990298648497
 51
254.9954171277653
  0
ARC
  5
6ED
330
1A
100
AcDbEntity
  8
SEIHIN
  6
CONTINUOUS
100
AcDbCircle
 10
604.0155452890235
 20
373.9009151495659
 30
0.0
 40
0.5000296247357707
100
AcDbArc
 50
105.0133380218501
 51
180.0044243451885
  0
ARC
  5
6EE
330
1A
100
AcDbEntity
  8
SEIHIN
  6
CONTINUOUS
100
AcDbCircle
 10
604.0155806423345
 20
373.1681918663175
 30
0.0
 40
0.5000649837241963
100
AcDbArc
 50
179.9902986485101
 51
254.9954171277808
  0
LINE
  5
6EF
330
1A
100
AcDbEntity
  8
SEIHIN
  6
CONTINUOUS
100
AcDbLine
 10
603.8860156657785
 20
370.3839765375831
 30
0.0
 11
605.3655156657785
 21
370.7802765375831
 31
0.0
  0
LINE
  5
6F0
330
1A
100
AcDbEntity
  8
SEIHIN
  6
CONTINUOUS
100
AcDbLine
 10
603.8861156657784
 20
368.6853765375831
 30
0.0
 11
605.3655156657785
 21
368.2888765375831
 31
0.0
  0
LINE
  5
6F1
330
1A
100
AcDbEntity
  8
SEIHIN
  6
CONTINUOUS
100
AcDbLine
 10
603.8860156657785
 20
374.3839765375831
 30
0.0
 11
605.3655156657785
 21
374.7802765375831
 31
0.0
  0
LINE
  5
6F2
330
1A
100
AcDbEntity
  8
SEIHIN
  6
CONTINUOUS
100
AcDbLine
 10
603.8861156657784
 20
372.6853765375831
 30
0.0
 11
605.3655156657785
 21
372.2888765375831
 31
0.0
  0
LINE
  5
6F3
330
1A
100
AcDbEntity
  8
SEIHIN
  6
CONTINUOUS
100
AcDbLine
 10
599.0643156657786
 20
379.5346765375829
 30
0.0
 11
617.3654156657784
 21
379.5346765375829
 31
0.0
  0
LINE
  5
6F4
330
1A
100
AcDbEntity
  8
SEIHIN
  6
CONTINUOUS
100
AcDbLine
 10
617.3654156657784
 20
380.5346765375831
 30
0.0
 11
602.5280156657786
 21
380.5346765375831
 31
0.0
  0
LINE
  5
6F5
330
1A
100
AcDbEntity
  8
SEIHIN
  6
CONTINUOUS
100
AcDbLine
 10
607.1654156657785
 20
383.7345765375831
 30
0.0
 11
607.1654156657785
 21
398.3469765375831
 31
0.0
  0
LINE
  5
6F6
330
1A
100
AcDbEntity
  8
SEIHIN
  6
CONTINUOUS
100
AcDbLine
 10
599.0643156657786
 20
379.5346765375829
 30
0.0
 11
602.5282156657783
 21
380.5346765375831
 31
0.0
  0
LINE
  5
6F7
330
1A
100
AcDbEntity
  8
SEIHIN
  6
CONTINUOUS
100
AcDbLine
 10
599.0640156657784
 20
381.7345765375831
 30
0.0
 11
599.0640156657784
 21
379.5346765375829
 31
0.0
  0
ARC
  5
6F8
330
1A
100
AcDbEntity
  8
SEIHIN
  6
CONTINUOUS
100
AcDbCircle
 10
605.1654156657786
 20
383.7345765375831
 30
0.0
 40
2.0
100
AcDbArc
 50
270.0
 51
0.0
  0
ARC
  5
6F9
330
1A
100
AcDbEntity
  8
SEIHIN
  6
CONTINUOUS
100
AcDbCircle
 10
604.8100756688452
 20
378.7345465370496
 30
0.0
 40
3.000030001133472
100
AcDbArc
 50
36.87257146544221
 51
90.0011459627025
  0
ARC
  5
6FA
330
1A
100
AcDbEntity
  8
SEIHIN
  6
CONTINUOUS
100
AcDbCircle
 10
614.7655274950364
 20
398.5731539390943
 30
0.0
 40
7.600011829652081
100
AcDbArc
 50
162.6220484501056
 51
180.0005835227651
  0
LINE
  5
6FB
330
1A
100
AcDbEntity
  8
SEIHIN
  6
CONTINUOUS
100
AcDbLine
 10
613.7655156657785
 20
398.3469765375831
 30
0.0
 11
613.7654156657784
 21
380.5346765375831
 31
0.0
  0
LINE
  5
6FC
330
1A
100
AcDbEntity
  8
SEIHIN
  6
CONTINUOUS
100
AcDbLine
 10
617.3654156657784
 20
381.7345765375831
 30
0.0
 11
617.3654156657784
 21
379.5346765375829
 31
0.0
  0
ARC
  5
6FD
330
1A
100
AcDbEntity
  8
SEIHIN
  6
CONTINUOUS
100
AcDbCircle
 10
614.765540927641
 20
398.5733418307169
 30
0.0
 40
1.00002527552296
100
AcDbArc
 50
162.6308375124519
 51
180.0094703596381
  0
LINE
  5
6FE
330
1A
100
AcDbEntity
  8
SEIHIN
  6
CONTINUOUS
100
AcDbLine
 10
613.7769156657785
 20
398.7241765375831
 30
0.0
 11
610.5148156657785
 21
399.2227765375831
 31
0.0
  0
LINE
  5
6FF
330
1A
100
AcDbEntity
  8
SEIHIN
  6
CONTINUOUS
100
AcDbLine
 10
679.3654156657785
 20
356.2888765375831
 30
0.0
 11
679.3654156657785
 21
354.7802765375831
 31
0.0
  0
LINE
  5
700
330
1A
100
AcDbEntity
  8
SEIHIN
  6
CONTINUOUS
100
AcDbLine
 10
642.3654156657784
 20
343.5345765375831
 30
0.0
 11
679.3655156657784
 21
343.5345765375831
 31
0.0
  0
LINE
  5
701
330
1A
100
AcDbEntity
  8
SEIHIN
  6
CONTINUOUS
100
AcDbLine
 10
681.2155156657784
 20
345.5345765375831
 30
0.0
 11
642.3654156657784
 21
345.5346765375831
 31
0.0
  0
LINE
  5
702
330
1A
100
AcDbEntity
  8
SEIHIN
  6
CONTINUOUS
100
AcDbLine
 10
679.3654156657785
 20
348.2888765375831
 30
0.0
 11
628.4121156657784
 21
345.5346765375831
 31
0.0
  0
LINE
  5
703
330
1A
100
AcDbEntity
  8
SEIHIN
  6
CONTINUOUS
100
AcDbLine
 10
656.3208156657785
 20
345.5346765375831
 30
0.0
 11
679.3654156657785
 21
346.7802765375831
 31
0.0
  0
LINE
  5
708
330
1A
100
AcDbEntity
  8
SEIHIN
  6
CONTINUOUS
100
AcDbLine
 10
666.6479156657786
 20
345.5346765375831
 30
0.0
 11
680.7039156657784
 21
346.2582765375831
 31
0.0
  0
LINE
  5
709
330
1A
100
AcDbEntity
  8
SEIHIN
  6
CONTINUOUS
100
AcDbLine
 10
679.3654156657785
 20
345.5345765375831
 30
0.0
 11
679.3654156657785
 21
343.5345765375831
 31
0.0
  0
LINE
  5
70A
330
1A
100
AcDbEntity
  8
SEIHIN
  6
CONTINUOUS
100
AcDbLine
 10
681.2155156657784
 20
353.9008765375831
 30
0.0
 11
681.2155156657784
 21
353.1682765375831
 31
0.0
  0
LINE
  5
70B
330
1A
100
AcDbEntity
  8
SEIHIN
  6
CONTINUOUS
100
AcDbLine
 10
681.2155156657784
 20
349.9008765375829
 30
0.0
 11
681.2155156657784
 21
349.1682765375831
 31
0.0
  0
LINE
  5
70C
330
1A
100
AcDbEntity
  8
SEIHIN
  6
CONTINUOUS
100
AcDbLine
 10
680.8449156657784
 20
350.3838765375831
 30
0.0
 11
679.3654156657785
 21
350.7802765375831
 31
0.0
  0
LINE
  5
70D
330
1A
100
AcDbEntity
  8
SEIHIN
  6
CONTINUOUS
100
AcDbLine
 10
680.8449156657784
 20
348.6851765375831
 30
0.0
 11
679.3654156657785
 21
348.2888765375831
 31
0.0
  0
LINE
  5
70E
330
1A
100
AcDbEntity
  8
SEIHIN
  6
CONTINUOUS
100
AcDbLine
 10
680.8449156657784
 20
354.3838765375831
 30
0.0
 11
679.3654156657785
 21
354.7802765375831
 31
0.0
  0
LINE
  5
70F
330
1A
100
AcDbEntity
  8
SEIHIN
  6
CONTINUOUS
100
AcDbLine
 10
680.8449156657784
 20
352.6851765375831
 30
0.0
 11
679.3654156657785
 21
352.2888765375831
 31
0.0
  0
LINE
  5
710
330
1A
100
AcDbEntity
  8
SEIHIN
  6
CONTINUOUS
100
AcDbLine
 10
680.8449156657784
 20
346.3838765375831
 30
0.0
 11
679.3654156657785
 21
346.7802765375831
 31
0.0
  0
LINE
  5
711
330
1A
100
AcDbEntity
  8
SEIHIN
  6
CONTINUOUS
100
AcDbLine
 10
679.3654156657785
 20
348.2888765375831
 30
0.0
 11
679.3654156657785
 21
346.7802765375831
 31
0.0
  0
LINE
  5
712
330
1A
100
AcDbEntity
  8
SEIHIN
  6
CONTINUOUS
100
AcDbLine
 10
679.3654156657785
 20
352.2888765375831
 30
0.0
 11
679.3654156657785
 21
350.7802765375831
 31
0.0
  0
ARC
  5
713
330
1A
100
AcDbEntity
  8
SEIHIN
  6
CONTINUOUS
100
AcDbCircle
 10
680.7154989863347
 20
349.9008982738113
 30
0.0
 40
0.5000166799161088
100
AcDbArc
 50
359.9975092947965
 51
74.99966311289772
  0
ARC
  5
714
330
1A
100
AcDbEntity
  8
SEIHIN
  6
CONTINUOUS
100
AcDbCircle
 10
680.7154506892223
 20
349.1681918663176
 30
0.0
 40
0.5000649837243662
100
AcDbArc
 50
285.0045828722346
 51
0.0097013515029177
  0
ARC
  5
715
330
1A
100
AcDbEntity
  8
SEIHIN
  6
CONTINUOUS
100
AcDbCircle
 10
680.7154989863347
 20
353.9008982738113
 30
0.0
 40
0.500016679916052
100
AcDbArc
 50
359.9975092948031
 51
74.99966311290234
  0
ARC
  5
716
330
1A
100
AcDbEntity
  8
SEIHIN
  6
CONTINUOUS
100
AcDbCircle
 10
680.7154506892223
 20
353.1681918663176
 30
0.0
 40
0.5000649837243662
100
AcDbArc
 50
285.0045828722346
 51
0.0097013515029177
  0
LINE
  5
717
330
1A
100
AcDbEntity
  8
SEIHIN
  6
CONTINUOUS
100
AcDbLine
 10
681.2155156657784
 20
345.9008765375829
 30
0.0
 11
681.2155156657784
 21
345.5345765375831
 31
0.0
  0
ARC
  5
718
330
1A
100
AcDbEntity
  8
SEIHIN
  6
CONTINUOUS
100
AcDbCircle
 10
680.7154989863347
 20
345.9008982738113
 30
0.0
 40
0.5000166799161088
100
AcDbArc
 50
359.9975092947965
 51
74.99966311289772
  0
LINE
  5
719
330
1A
100
AcDbEntity
  8
SEIHIN
  6
CONTINUOUS
100
AcDbLine
 10
642.3654156657784
 20
374.8346765375831
 30
0.0
 11
679.3654156657785
 21
374.834576537583
 31
0.0
  0
LINE
  5
71A
330
1A
100
AcDbEntity
  8
SEIHIN
  6
CONTINUOUS
100
AcDbLine
 10
667.3654156657782
 20
381.7343765375831
 30
0.0
 11
642.3654156657784
 21
381.734476537583
 31
0.0
  0
ARC
  5
71B
330
1A
100
AcDbEntity
  8
SEIHIN
  6
CONTINUOUS
100
AcDbCircle
 10
642.3653221170496
 20
388.5498775121124
 30
0.0
 40
11.1713990258622
100
AcDbArc
 50
89.9995202080489
 51
107.1808545829817
  0
ARC
  5
71C
330
1A
100
AcDbEntity
  8
SEIHIN
  6
CONTINUOUS
100
AcDbCircle
 10
642.3655092145073
 20
388.5498775121116
 30
0.0
 40
11.17139902586297
100
AcDbArc
 50
72.81914541701883
 51
90.00047979195166
  0
ARC
  5
71D
330
1A
100
AcDbEntity
  8
SEIHIN
  6
CONTINUOUS
100
AcDbCircle
 10
681.5654656657787
 20
376.334526537583
 30
0.0
 40
2.200050000568258
100
AcDbArc
 50
89.99869785278917
 51
179.9986978527891
  0
LINE
  5
71E
330
1A
100
AcDbEntity
  8
SEIHIN
  6
CONTINUOUS
100
AcDbLine
 10
679.3654156657785
 20
368.2888765375831
 30
0.0
 11
679.3654156657785
 21
366.7802765375831
 31
0.0
  0
LINE
  5
71F
330
1A
100
AcDbEntity
  8
SEIHIN
  6
CONTINUOUS
100
AcDbLine
 10
681.2155156657784
 20
357.9008765375831
 30
0.0
 11
681.2155156657784
 21
357.1682765375831
 31
0.0
  0
LINE
  5
720
330
1A
100
AcDbEntity
  8
SEIHIN
  6
CONTINUOUS
100
AcDbLine
 10
680.8449156657784
 20
358.3838765375831
 30
0.0
 11
679.3654156657785
 21
358.7802765375831
 31
0.0
  0
LINE
  5
721
330
1A
100
AcDbEntity
  8
SEIHIN
  6
CONTINUOUS
100
AcDbLine
 10
681.2155156657784
 20
361.9008765375831
 30
0.0
 11
681.2155156657784
 21
361.1682765375831
 31
0.0
  0
LINE
  5
722
330
1A
100
AcDbEntity
  8
SEIHIN
  6
CONTINUOUS
100
AcDbLine
 10
680.8449156657784
 20
362.383876537583
 30
0.0
 11
679.3654156657785
 21
362.7802765375831
 31
0.0
  0
LINE
  5
723
330
1A
100
AcDbEntity
  8
SEIHIN
  6
CONTINUOUS
100
AcDbLine
 10
680.8449156657784
 20
360.6851765375831
 30
0.0
 11
679.3654156657785
 21
360.2888765375831
 31
0.0
  0
LINE
  5
724
330
1A
100
AcDbEntity
  8
SEIHIN
  6
CONTINUOUS
100
AcDbLine
 10
681.2155156657784
 20
365.900876537583
 30
0.0
 11
681.2155156657784
 21
365.1682765375831
 31
0.0
  0
LINE
  5
725
330
1A
100
AcDbEntity
  8
SEIHIN
  6
CONTINUOUS
100
AcDbLine
 10
680.8449156657784
 20
366.383876537583
 30
0.0
 11
679.3654156657785
 21
366.7802765375831
 31
0.0
  0
LINE
  5
726
330
1A
100
AcDbEntity
  8
SEIHIN
  6
CONTINUOUS
100
AcDbLine
 10
680.8449156657784
 20
364.6851765375831
 30
0.0
 11
679.3654156657785
 21
364.2888765375831
 31
0.0
  0
LINE
  5
727
330
1A
100
AcDbEntity
  8
SEIHIN
  6
CONTINUOUS
100
AcDbLine
 10
679.3654156657785
 20
360.2888765375831
 30
0.0
 11
679.3654156657785
 21
358.7802765375831
 31
0.0
  0
LINE
  5
728
330
1A
100
AcDbEntity
  8
SEIHIN
  6
CONTINUOUS
100
AcDbLine
 10
679.3654156657785
 20
364.2888765375831
 30
0.0
 11
679.3654156657785
 21
362.7802765375831
 31
0.0
  0
ARC
  5
729
330
1A
100
AcDbEntity
  8
SEIHIN
  6
CONTINUOUS
100
AcDbCircle
 10
680.7154989863347
 20
357.9008982738113
 30
0.0
 40
0.500016679916052
100
AcDbArc
 50
359.9975092948031
 51
74.99966311290234
  0
ARC
  5
72A
330
1A
100
AcDbEntity
  8
SEIHIN
  6
CONTINUOUS
100
AcDbCircle
 10
680.715498986335
 20
361.9008982738113
 30
0.0
 40
0.5000166799159383
100
AcDbArc
 50
359.9975092948096
 51
74.99966311291323
  0
ARC
  5
72B
330
1A
100
AcDbEntity
  8
SEIHIN
  6
CONTINUOUS
100
AcDbCircle
 10
680.7154506892223
 20
361.1681918663176
 30
0.0
 40
0.5000649837243662
100
AcDbArc
 50
285.0045828722346
 51
0.0097013515029177
  0
ARC
  5
72C
330
1A
100
AcDbEntity
  8
SEIHIN
  6
CONTINUOUS
100
AcDbCircle
 10
680.715498986335
 20
365.9008982738113
 30
0.0
 40
0.5000166799159383
100
AcDbArc
 50
359.9975092948096
 51
74.99966311291323
  0
ARC
  5
72D
330
1A
100
AcDbEntity
  8
SEIHIN
  6
CONTINUOUS
100
AcDbCircle
 10
680.7154506892223
 20
365.1681918663176
 30
0.0
 40
0.5000649837243662
100
AcDbArc
 50
285.0045828722346
 51
0.0097013515029177
  0
LINE
  5
72E
330
1A
100
AcDbEntity
  8
SEIHIN
  6
CONTINUOUS
100
AcDbLine
 10
680.8449156657784
 20
356.6851765375831
 30
0.0
 11
679.3654156657785
 21
356.2888765375831
 31
0.0
  0
ARC
  5
72F
330
1A
100
AcDbEntity
  8
SEIHIN
  6
CONTINUOUS
100
AcDbCircle
 10
680.7154506892223
 20
357.1681918663176
 30
0.0
 40
0.5000649837243662
100
AcDbArc
 50
285.0045828722346
 51
0.0097013515029177
  0
LINE
  5
730
330
1A
100
AcDbEntity
  8
SEIHIN
  6
CONTINUOUS
100
AcDbLine
 10
679.3654156657785
 20
376.334576537583
 30
0.0
 11
679.3654156657785
 21
374.7802765375831
 31
0.0
  0
LINE
  5
731
330
1A
100
AcDbEntity
  8
SEIHIN
  6
CONTINUOUS
100
AcDbLine
 10
681.2155156657784
 20
369.9008765375829
 30
0.0
 11
681.2155156657784
 21
369.1682765375831
 31
0.0
  0
LINE
  5
732
330
1A
100
AcDbEntity
  8
SEIHIN
  6
CONTINUOUS
100
AcDbLine
 10
680.8449156657784
 20
370.383876537583
 30
0.0
 11
679.3654156657785
 21
370.7802765375831
 31
0.0
  0
LINE
  5
733
330
1A
100
AcDbEntity
  8
SEIHIN
  6
CONTINUOUS
100
AcDbLine
 10
680.8449156657784
 20
368.6851765375831
 30
0.0
 11
679.3654156657785
 21
368.2888765375831
 31
0.0
  0
LINE
  5
734
330
1A
100
AcDbEntity
  8
SEIHIN
  6
CONTINUOUS
100
AcDbLine
 10
681.2155156657784
 20
373.9008765375829
 30
0.0
 11
681.2155156657784
 21
373.1682765375829
 31
0.0
  0
LINE
  5
735
330
1A
100
AcDbEntity
  8
SEIHIN
  6
CONTINUOUS
100
AcDbLine
 10
680.8449156657784
 20
374.383876537583
 30
0.0
 11
679.3654156657785
 21
374.7802765375831
 31
0.0
  0
LINE
  5
736
330
1A
100
AcDbEntity
  8
SEIHIN
  6
CONTINUOUS
100
AcDbLine
 10
680.8449156657784
 20
372.6851765375831
 30
0.0
 11
679.3654156657785
 21
372.2888765375831
 31
0.0
  0
LINE
  5
737
330
1A
100
AcDbEntity
  8
SEIHIN
  6
CONTINUOUS
100
AcDbLine
 10
679.3654156657785
 20
372.2888765375831
 30
0.0
 11
679.3654156657785
 21
370.7802765375831
 31
0.0
  0
ARC
  5
738
330
1A
100
AcDbEntity
  8
SEIHIN
  6
CONTINUOUS
100
AcDbCircle
 10
680.7154989863347
 20
369.9008982738112
 30
0.0
 40
0.500016679916052
100
AcDbArc
 50
359.9975092948031
 51
74.99966311290234
  0
ARC
  5
739
330
1A
100
AcDbEntity
  8
SEIHIN
  6
CONTINUOUS
100
AcDbCircle
 10
680.7154506892223
 20
369.1681918663176
 30
0.0
 40
0.5000649837243662
100
AcDbArc
 50
285.0045828722346
 51
0.0097013515029177
  0
ARC
  5
73A
330
1A
100
AcDbEntity
  8
SEIHIN
  6
CONTINUOUS
100
AcDbCircle
 10
680.7154989863347
 20
373.9008982738112
 30
0.0
 40
0.500016679916052
100
AcDbArc
 50
359.9975092948031
 51
74.99966311290234
  0
ARC
  5
73B
330
1A
100
AcDbEntity
  8
SEIHIN
  6
CONTINUOUS
100
AcDbCircle
 10
680.7154506892224
 20
373.1681918663175
 30
0.0
 40
0.5000649837242271
100
AcDbArc
 50
285.0045828722254
 51
0.009701351489894
  0
LINE
  5
73C
330
1A
100
AcDbEntity
  8
SEIHIN
  6
CONTINUOUS
100
AcDbLine
 10
667.3654156657782
 20
380.5345765375832
 30
0.0
 11
682.2028156657784
 21
380.5345765375832
 31
0.0
  0
LINE
  5
73D
330
1A
100
AcDbEntity
  8
SEIHIN
  6
CONTINUOUS
100
AcDbLine
 10
685.6665156657784
 20
379.5345765375831
 30
0.0
 11
667.3654156657782
 21
379.5345765375831
 31
0.0
  0
LINE
  5
73E
330
1A
100
AcDbEntity
  8
SEIHIN
  6
CONTINUOUS
100
AcDbLine
 10
670.9654156657784
 20
398.3468765375831
 30
0.0
 11
670.9654156657784
 21
380.5346765375831
 31
0.0
  0
LINE
  5
73F
330
1A
100
AcDbEntity
  8
SEIHIN
  6
CONTINUOUS
100
AcDbLine
 10
667.3654156657782
 20
381.7345765375831
 30
0.0
 11
667.3654156657782
 21
379.5345765375831
 31
0.0
  0
LINE
  5
740
330
1A
100
AcDbEntity
  8
SEIHIN
  6
CONTINUOUS
100
AcDbLine
 10
670.9539156657785
 20
398.7241765375831
 30
0.0
 11
674.2161156657784
 21
399.222676537583
 31
0.0
  0
ARC
  5
741
330
1A
100
AcDbEntity
  8
SEIHIN
  6
CONTINUOUS
100
AcDbCircle
 10
669.9653904039169
 20
398.5732418307165
 30
0.0
 40
1.000025275522273
100
AcDbArc
 50
359.9905296403992
 51
17.36916248758591
  0
LINE
  5
742
330
1A
100
AcDbEntity
  8
SEIHIN
  6
CONTINUOUS
100
AcDbLine
 10
677.5654156657785
 20
383.7345765375831
 30
0.0
 11
677.5655156657785
 21
398.3468765375831
 31
0.0
  0
LINE
  5
743
330
1A
100
AcDbEntity
  8
SEIHIN
  6
CONTINUOUS
100
AcDbLine
 10
685.6665156657784
 20
379.5345765375831
 30
0.0
 11
682.2027156657784
 21
380.5346765375831
 31
0.0
  0
ARC
  5
744
330
1A
100
AcDbEntity
  8
SEIHIN
  6
CONTINUOUS
100
AcDbCircle
 10
679.9209156657782
 20
378.7345765375831
 30
0.0
 40
3.000000000000014
100
AcDbArc
 50
89.99999999999674
 51
143.1301023541537
  0
ARC
  5
745
330
1A
100
AcDbEntity
  8
SEIHIN
  6
CONTINUOUS
100
AcDbCircle
 10
679.5654156657786
 20
383.7345765375831
 30
0.0
 40
2.0
100
AcDbArc
 50
180.0
 51
270.0
  0
LINE
  5
746
330
1A
100
AcDbEntity
  8
SEIHIN
  6
CONTINUOUS
100
AcDbLine
 10
685.6668156657786
 20
381.7345765375831
 30
0.0
 11
685.6668156657786
 21
379.5345765375831
 31
0.0
  0
ARC
  5
747
330
1A
100
AcDbEntity
  8
SEIHIN
  6
CONTINUOUS
100
AcDbCircle
 10
669.9654038365206
 20
398.5731539390943
 30
0.0
 40
7.60001182965208
100
AcDbArc
 50
359.9994164772348
 51
17.37795154989439
  0
LINE
  5
748
330
1A
100
AcDbEntity
  8
SEIHIN
  6
CONTINUOUS
100
AcDbLine
 10
642.3655156657786
 20
426.734576537583
 30
0.0
 11
618.0405156657785
 21
426.734676537583
 31
0.0
  0
LINE
  5
749
330
1A
100
AcDbEntity
  8
SEIHIN
  6
CONTINUOUS
100
AcDbLine
 10
639.0654156657785
 20
420.134576537583
 30
0.0
 11
621.2004156657785
 21
420.1346765375832
 31
0.0
  0
ARC
  5
74A
330
1A
100
AcDbEntity
  8
SEIHIN
  6
CONTINUOUS
100
AcDbCircle
 10
625.6654156657786
 20
423.434676537583
 30
0.0
 40
3.299999999999897
100
AcDbArc
 50
90.0
 51
270.0
  0
ARC
  5
74B
330
1A
100
AcDbEntity
  8
SEIHIN
  6
CONTINUOUS
100
AcDbCircle
 10
618.0405024993047
 20
423.4346668618537
 30
0.0
 40
3.300009675755465
100
AcDbArc
 50
89.99977139964473
 51
162.622338918165
  0
LINE
  5
74C
330
1A
100
AcDbEntity
  8
SEIHIN
  6
CONTINUOUS
100
AcDbLine
 10
620.6082156657785
 20
419.9404765375829
 30
0.0
 11
618.3473156657785
 21
423.017076537583
 31
0.0
  0
ARC
  5
74D
330
1A
100
AcDbEntity
  8
SEIHIN
  6
CONTINUOUS
100
AcDbCircle
 10
621.200466541213
 20
419.134713926481
 30
0.0
 40
0.9999626123963233
100
AcDbArc
 50
90.00291505666334
 51
162.628039184879
  0
LINE
  5
74E
330
1A
100
AcDbEntity
  8
SEIHIN
  6
CONTINUOUS
100
AcDbLine
 10
642.3654156657784
 20
426.734576537583
 30
0.0
 11
666.6904156657783
 21
426.734576537583
 31
0.0
  0
LINE
  5
74F
330
1A
100
AcDbEntity
  8
SEIHIN
  6
CONTINUOUS
100
AcDbLine
 10
645.6655156657784
 20
420.134576537583
 30
0.0
 11
663.5305156657782
 21
420.134576537583
 31
0.0
  0
ARC
  5
750
330
1A
100
AcDbEntity
  8
SEIHIN
  6
CONTINUOUS
100
AcDbCircle
 10
642.3654656657785
 20
423.4346265375831
 30
0.0
 40
3.29995000037876
100
AcDbArc
 50
89.99913186897536
 51
179.9991318689753
  0
ARC
  5
751
330
1A
100
AcDbEntity
  8
SEIHIN
  6
CONTINUOUS
100
AcDbCircle
 10
642.3654656657785
 20
423.434626537583
 30
0.0
 40
3.299950000378874
100
AcDbArc
 50
0.0008681310266002
 51
90.0008681310266
  0
ARC
  5
752
330
1A
100
AcDbEntity
  8
SEIHIN
  6
CONTINUOUS
100
AcDbCircle
 10
659.0655156657783
 20
423.434676537583
 30
0.0
 40
3.299999999999897
100
AcDbArc
 50
270.0
 51
90.0
  0
ARC
  5
753
330
1A
100
AcDbEntity
  8
SEIHIN
  6
CONTINUOUS
100
AcDbCircle
 10
666.6904968709159
 20
423.4346168618538
 30
0.0
 40
3.299959676728428
100
AcDbArc
 50
17.37884241133063
 51
90.00140992985093
  0
LINE
  5
754
330
1A
100
AcDbEntity
  8
SEIHIN
  6
CONTINUOUS
100
AcDbLine
 10
664.1226156657785
 20
419.9404765375829
 30
0.0
 11
666.3836156657782
 21
423.0171765375829
 31
0.0
  0
ARC
  5
755
330
1A
100
AcDbEntity
  8
SEIHIN
  6
CONTINUOUS
100
AcDbCircle
 10
663.530485107301
 20
419.1345989930871
 30
0.0
 40
0.9999775449626728
100
AcDbArc
 50
17.37859335142849
 51
89.99824908890985
  0
LINE
  5
75A
330
1A
100
AcDbEntity
  8
SEIHIN
  6
CONTINUOUS
100
AcDbLine
 10
692.3654156657782
 20
378.5345765375832
 30
0.0
 11
692.3654156657782
 21
381.7345765375831
 31
0.0
  0
LINE
  5
764
330
1A
100
AcDbEntity
  8
CENTER_L
 48
5.0
100
AcDbLine
 10
378.3190200112
 20
154.4537146184287
 30
0.0
 11
378.319081779622
 21
251.1534146184286
 31
0.0
  0
LINE
  5
765
330
1A
100
AcDbEntity
  8
SEIHIN
  6
CONTINUOUS
100
AcDbLine
 10
343.465981779622
 20
218.7622146184287
 30
0.0
 11
350.8447817796221
 21
242.3394146184287
 31
0.0
  0
LINE
  5
766
330
1A
100
AcDbEntity
  8
SEIHIN
  6
CONTINUOUS
100
AcDbLine
 10
356.199681779622
 20
237.3524146184286
 30
0.0
 11
349.7646817796221
 21
216.7909146184287
 31
0.0
  0
LINE
  5
767
330
1A
100
AcDbEntity
  8
SEIHIN
  6
CONTINUOUS
100
AcDbLine
 10
375.0190817796221
 20
241.3537146184286
 30
0.0
 11
375.0190817796221
 21
199.6535146184287
 31
0.0
  0
LINE
  5
768
330
1A
100
AcDbEntity
  8
SEIHIN
  6
CONTINUOUS
100
AcDbLine
 10
381.6190817796219
 20
241.3537146184286
 30
0.0
 11
381.6189817796221
 21
199.6535146184287
 31
0.0
  0
LINE
  5
769
330
1A
100
AcDbEntity
  8
SEIHIN
  6
CONTINUOUS
100
AcDbLine
 10
400.438481779622
 20
237.3524146184286
 30
0.0
 11
406.8734817796221
 21
216.7909146184287
 31
0.0
  0
LINE
  5
76A
330
1A
100
AcDbEntity
  8
SEIHIN
  6
CONTINUOUS
100
AcDbLine
 10
413.1721817796219
 20
218.7621146184286
 30
0.0
 11
405.7933817796221
 21
242.3393146184285
 31
0.0
  0
ARC
  5
76B
330
1A
100
AcDbEntity
  8
SEIHIN
  6
CONTINUOUS
100
AcDbCircle
 10
378.3189882308939
 20
206.469015592958
 30
0.0
 40
11.17139902586229
100
AcDbArc
 50
89.99952020805176
 51
107.1808545829846
  0
LINE
  5
783
330
1A
100
AcDbEntity
  8
SEIHIN
  6
CONTINUOUS
100
AcDbLine
 10
353.3190817796221
 20
198.4537146184287
 30
0.0
 11
338.481581779622
 21
198.4537146184287
 31
0.0
  0
LINE
  5
784
330
1A
100
AcDbEntity
  8
SEIHIN
  6
CONTINUOUS
100
AcDbLine
 10
335.017881779622
 20
197.4537146184287
 30
0.0
 11
353.3190817796221
 21
197.4537146184287
 31
0.0
  0
LINE
  5
785
330
1A
100
AcDbEntity
  8
SEIHIN
  6
CONTINUOUS
100
AcDbLine
 10
343.119081779622
 20
201.6537146184286
 30
0.0
 11
343.119081779622
 21
216.2660146184287
 31
0.0
  0
LINE
  5
786
330
1A
100
AcDbEntity
  8
SEIHIN
  6
CONTINUOUS
100
AcDbLine
 10
341.119081779622
 20
199.6537146184286
 30
0.0
 11
328.3190817796221
 21
199.6537146184286
 31
0.0
  0
LINE
  5
787
330
1A
100
AcDbEntity
  8
SEIHIN
  6
CONTINUOUS
100
AcDbLine
 10
340.763581779622
 20
199.6537146184286
 30
0.0
 11
328.318981779622
 21
199.6537146184286
 31
0.0
  0
LINE
  5
78A
330
1A
100
AcDbEntity
  8
SEIHIN
  6
CONTINUOUS
100
AcDbLine
 10
328.318981779622
 20
196.4537146184287
 30
0.0
 11
328.318981779622
 21
199.6537146184286
 31
0.0
  0
LINE
  5
78E
330
1A
100
AcDbEntity
  8
SEIHIN
  6
CONTINUOUS
100
AcDbLine
 10
335.017881779622
 20
197.4537146184287
 30
0.0
 11
338.4817817796221
 21
198.4538146184287
 31
0.0
  0
LINE
  5
78F
330
1A
100
AcDbEntity
  8
SEIHIN
  6
CONTINUOUS
100
AcDbLine
 10
335.017681779622
 20
199.6537146184286
 30
0.0
 11
335.017681779622
 21
197.4537146184287
 31
0.0
  0
ARC
  5
790
330
1A
100
AcDbEntity
  8
SEIHIN
  6
CONTINUOUS
100
AcDbCircle
 10
340.7635817796221
 20
196.6537146184286
 30
0.0
 40
3.000000000000006
100
AcDbArc
 50
36.86989764584434
 51
90.00000000000019
  0
ARC
  5
791
330
1A
100
AcDbEntity
  8
SEIHIN
  6
CONTINUOUS
100
AcDbCircle
 10
341.119081779622
 20
201.6537146184286
 30
0.0
 40
2.0
100
AcDbArc
 50
270.0
 51
0.0
  0
ARC
  5
793
330
1A
100
AcDbEntity
  8
SEIHIN
  6
CONTINUOUS
100
AcDbCircle
 10
339.118981779622
 20
194.2537146184287
 30
0.0
 40
2.199999999999974
100
AcDbArc
 50
359.9999999999988
 51
89.99999999999889
  0
ARC
  5
794
330
1A
100
AcDbEntity
  8
SEIHIN
  6
CONTINUOUS
100
AcDbCircle
 10
350.7190936088799
 20
216.4922920199398
 30
0.0
 40
7.60001182965205
100
AcDbArc
 50
162.6220484501048
 51
180.0005835227644
  0
LINE
  5
795
330
1A
100
AcDbEntity
  8
SEIHIN
  6
CONTINUOUS
100
AcDbLine
 10
349.7190817796221
 20
216.2660146184287
 30
0.0
 11
349.718981779622
 21
198.4537146184287
 31
0.0
  0
LINE
  5
796
330
1A
100
AcDbEntity
  8
SEIHIN
  6
CONTINUOUS
100
AcDbLine
 10
353.3190817796221
 20
199.6537146184286
 30
0.0
 11
353.3190817796221
 21
197.4537146184287
 31
0.0
  0
LINE
  5
797
330
1A
100
AcDbEntity
  8
SEIHIN
  6
CONTINUOUS
100
AcDbLine
 10
349.7305817796221
 20
216.6433146184287
 30
0.0
 11
346.4683817796221
 21
217.1418146184286
 31
0.0
  0
ARC
  5
798
330
1A
100
AcDbEntity
  8
SEIHIN
  6
CONTINUOUS
100
AcDbCircle
 10
350.7191070414839
 20
216.4923799115625
 30
0.0
 40
1.000025275522412
100
AcDbArc
 50
162.6308375124374
 51
180.0094703596239
  0
LINE
  5
7AB
330
1A
100
AcDbEntity
  8
SEIHIN
  6
CONTINUOUS
100
AcDbLine
 10
421.620181779622
 20
197.4537146184287
 30
0.0
 11
403.3190817796221
 21
197.4537146184287
 31
0.0
  0
LINE
  5
7AC
330
1A
100
AcDbEntity
  8
SEIHIN
  6
CONTINUOUS
100
AcDbLine
 10
403.3190817796221
 20
198.4537146184287
 30
0.0
 11
418.1564817796221
 21
198.4537146184287
 31
0.0
  0
LINE
  5
7AE
330
1A
100
AcDbEntity
  8
SEIHIN
  6
CONTINUOUS
100
AcDbLine
 10
328.318981779622
 20
196.4537146184287
 30
0.0
 11
428.3190817796221
 21
196.4537146184287
 31
0.0
  0
LINE
  5
7B1
330
1A
100
AcDbEntity
  8
SEIHIN
  6
CONTINUOUS
100
AcDbLine
 10
406.919081779622
 20
216.2660146184287
 30
0.0
 11
406.919081779622
 21
198.4537146184287
 31
0.0
  0
LINE
  5
7B2
330
1A
100
AcDbEntity
  8
SEIHIN
  6
CONTINUOUS
100
AcDbLine
 10
403.3190817796221
 20
199.6535146184287
 30
0.0
 11
353.3190817796222
 21
199.6535146184287
 31
0.0
  0
LINE
  5
7B3
330
1A
100
AcDbEntity
  8
SEIHIN
  6
CONTINUOUS
100
AcDbLine
 10
403.3190817796221
 20
199.6537146184286
 30
0.0
 11
403.3190817796221
 21
197.4537146184287
 31
0.0
  0
ARC
  5
7B4
330
1A
100
AcDbEntity
  8
SEIHIN
  6
CONTINUOUS
100
AcDbCircle
 10
378.3188568945216
 20
206.4690485918927
 30
0.0
 40
11.17136602879946
100
AcDbArc
 50
72.81738361647818
 51
89.99884660773846
  0
ARC
  5
7B5
330
1A
100
AcDbEntity
  8
SEIHIN
  6
CONTINUOUS
100
AcDbCircle
 10
405.9191042351263
 20
216.4920677025144
 30
0.0
 40
0.9999775552881843
100
AcDbArc
 50
0.0084178507947321
 51
17.38876211331377
  0
LINE
  5
7B6
330
1A
100
AcDbEntity
  8
SEIHIN
  6
CONTINUOUS
100
AcDbLine
 10
406.9075817796219
 20
216.6433146184287
 30
0.0
 11
410.1697817796219
 21
217.1418146184286
 31
0.0
  0
LINE
  5
7B7
330
1A
100
AcDbEntity
  8
SEIHIN
  6
CONTINUOUS
100
AcDbLine
 10
413.5190817796221
 20
201.6537146184286
 30
0.0
 11
413.5190817796221
 21
216.2660146184287
 31
0.0
  0
LINE
  5
7B8
330
1A
100
AcDbEntity
  8
SEIHIN
  6
CONTINUOUS
100
AcDbLine
 10
415.8744817796219
 20
199.6537146184286
 30
0.0
 11
428.3190817796221
 21
199.6536146184287
 31
0.0
  0
LINE
  5
7B9
330
1A
100
AcDbEntity
  8
SEIHIN
  6
CONTINUOUS
100
AcDbLine
 10
415.5190817796221
 20
199.6537146184286
 30
0.0
 11
428.3190817796221
 21
199.6536146184287
 31
0.0
  0
LINE
  5
7BD
330
1A
100
AcDbEntity
  8
SEIHIN
  6
CONTINUOUS
100
AcDbLine
 10
421.620181779622
 20
197.4537146184287
 30
0.0
 11
418.1562817796221
 21
198.4537146184287
 31
0.0
  0
ARC
  5
7BE
330
1A
100
AcDbEntity
  8
SEIHIN
  6
CONTINUOUS
100
AcDbCircle
 10
415.8744217765553
 20
196.6535846178955
 30
0.0
 40
3.000030001133251
100
AcDbArc
 50
89.99885403730182
 51
143.1274285345615
  0
ARC
  5
7BF
330
1A
100
AcDbEntity
  8
SEIHIN
  6
CONTINUOUS
100
AcDbCircle
 10
415.5190817796221
 20
201.6537146184286
 30
0.0
 40
2.0
100
AcDbArc
 50
180.0
 51
270.0
  0
ARC
  5
7C1
330
1A
100
AcDbEntity
  8
SEIHIN
  6
CONTINUOUS
100
AcDbCircle
 10
417.519081779622
 20
194.2536146184286
 30
0.0
 40
2.199999999999988
100
AcDbArc
 50
89.99999999999852
 51
179.9999999999985
  0
LINE
  5
7C2
330
1A
100
AcDbEntity
  8
SEIHIN
  6
CONTINUOUS
100
AcDbLine
 10
421.620381779622
 20
199.6536146184287
 30
0.0
 11
421.620381779622
 21
197.4537146184287
 31
0.0
  0
LINE
  5
7C4
330
1A
100
AcDbEntity
  8
SEIHIN
  6
CONTINUOUS
100
AcDbLine
 10
428.3190817796221
 20
196.4537146184287
 30
0.0
 11
428.3190817796221
 21
199.6536146184287
 31
0.0
  0
ARC
  5
7C6
330
1A
100
AcDbEntity
  8
SEIHIN
  6
CONTINUOUS
100
AcDbCircle
 10
405.9190848842288
 20
216.4921943034311
 30
0.0
 40
7.599996895420503
100
AcDbArc
 50
0.0001531531709093
 51
17.37796874684084
  0
ARC
  5
7C7
330
1A
100
AcDbEntity
  8
SEIHIN
  6
CONTINUOUS
100
AcDbCircle
 10
378.3192817796221
 20
435.3536146184286
 30
0.0
 40
3.299999999999926
100
AcDbArc
 50
90.00000000000049
 51
180.0000000000004
  0
ARC
  5
7C8
330
1A
100
AcDbEntity
  8
SEIHIN
  6
CONTINUOUS
100
AcDbCircle
 10
378.3191317796221
 20
423.4536646184286
 30
0.0
 40
3.299950000378845
100
AcDbArc
 50
179.9991318689748
 51
269.9991318689748
  0
ARC
  5
7C9
330
1A
100
AcDbEntity
  8
SEIHIN
  6
CONTINUOUS
100
AcDbCircle
 10
378.3191317796221
 20
426.9036646184286
 30
0.0
 40
3.299950000378845
100
AcDbArc
 50
90.00086813102512
 51
180.000868131025
  0
ARC
  5
7CA
330
1A
100
AcDbEntity
  8
SEIHIN
  6
CONTINUOUS
100
AcDbCircle
 10
378.319131779622
 20
403.4537146184287
 30
0.0
 40
13.39994999999993
100
AcDbArc
 50
0.0
 51
180.0
  0
ARC
  5
7CB
330
1A
100
AcDbEntity
  8
SEIHIN
  6
CONTINUOUS
100
AcDbCircle
 10
378.3191317796221
 20
380.0038646184286
 30
0.0
 40
3.299950000378902
100
AcDbArc
 50
179.9991318689739
 51
269.9991318689739
  0
ARC
  5
7CC
330
1A
100
AcDbEntity
  8
SEIHIN
  6
CONTINUOUS
100
AcDbCircle
 10
378.3191317796219
 20
383.4537646184285
 30
0.0
 40
3.299950000378732
100
AcDbArc
 50
90.00086813102315
 51
180.0008681310231
  0
ARC
  5
7CD
330
1A
100
AcDbEntity
  8
SEIHIN
  6
CONTINUOUS
100
AcDbCircle
 10
378.3192817796221
 20
371.5538146184286
 30
0.0
 40
3.299999999999926
100
AcDbArc
 50
179.9999999999995
 51
269.9999999999994
  0
ARC
  5
7CE
330
1A
100
AcDbEntity
  8
SEIHIN
  6
CONTINUOUS
100
AcDbCircle
 10
378.3191317794355
 20
403.4537146182421
 30
0.0
 40
13.3999500001865
100
AcDbArc
 50
179.999572417163
 51
0.0000000007979405
  0
ARC
  5
7CF
330
1A
100
AcDbEntity
  8
SEIHIN
  6
CONTINUOUS
100
AcDbCircle
 10
378.319081779622
 20
241.3537146184286
 30
0.0
 40
3.299999999999954
100
AcDbArc
 50
90.0
 51
180.0
  0
LINE
  5
7D4
330
1A
100
AcDbEntity
  8
CENTER_L
 48
5.0
100
AcDbLine
 10
321.3190817796422
 20
403.4539014184391
 30
0.0
 11
435.3190817796019
 21
403.4536278186581
 31
0.0
  0
ARC
  5
7D8
330
1A
100
AcDbEntity
  8
SEIHIN
  6
CONTINUOUS
100
AcDbCircle
 10
378.3190752439284
 20
403.4537080827728
 30
0.0
 40
34.49983722092051
100
AcDbArc
 50
93.51036387887402
 51
176.4892815965547
  0
LINE
  5
7D9
330
1A
100
AcDbEntity
  8
SEIHIN
  6
CONTINUOUS
100
AcDbLine
 10
361.069181779622
 20
433.3315146184286
 30
0.0
 11
353.3191817796221
 21
446.7550146184287
 31
0.0
  0
ARC
  5
7DA
330
1A
100
AcDbEntity
  8
SEIHIN
  6
CONTINUOUS
100
AcDbCircle
 10
378.3191317796964
 20
403.4537646183544
 30
0.0
 40
45.99995891448533
100
AcDbArc
 50
119.9999576332197
 51
150.0000423667804
  0
LINE
  5
7DB
330
1A
100
AcDbEntity
  8
SEIHIN
  6
CONTINUOUS
100
AcDbLine
 10
375.0190817796221
 20
238.0537146184286
 30
0.0
 11
357.153981779622
 21
238.0537146184286
 31
0.0
  0
ARC
  5
7DC
330
1A
100
AcDbEntity
  8
SEIHIN
  6
CONTINUOUS
100
AcDbCircle
 10
361.619081779622
 20
241.3537646184286
 30
0.0
 40
3.299949999999967
100
AcDbArc
 50
90.0
 51
270.0
  0
ARC
  5
7DD
330
1A
100
AcDbEntity
  8
SEIHIN
  6
CONTINUOUS
100
AcDbCircle
 10
353.9941132252648
 20
241.3537377261662
 30
0.0
 40
3.299976892412223
100
AcDbArc
 50
90.00054597431294
 51
162.6209379191225
  0
ARC
  5
7DE
330
1A
100
AcDbEntity
  8
SEIHIN
  6
CONTINUOUS
100
AcDbCircle
 10
357.1540123380992
 20
237.0537370739328
 30
0.0
 40
0.9999775449626415
100
AcDbArc
 50
90.00175091109181
 51
162.6214066485725
  0
LINE
  5
7DF
330
1A
100
AcDbEntity
  8
SEIHIN
  6
CONTINUOUS
100
AcDbLine
 10
356.5618817796221
 20
237.8595146184287
 30
0.0
 11
354.300881779622
 21
240.9362146184285
 31
0.0
  0
ARC
  5
7E0
330
1A
100
AcDbEntity
  8
SEIHIN
  6
CONTINUOUS
100
AcDbCircle
 10
378.3190917825172
 20
403.453704615484
 30
0.0
 40
19.9999505963156
100
AcDbArc
 50
189.4644085935361
 51
260.5352428697294
  0
ARC
  5
7E1
330
1A
100
AcDbEntity
  8
SEIHIN
  6
CONTINUOUS
100
AcDbCircle
 10
378.319081779622
 20
403.4537146184285
 30
0.0
 40
34.49983722077538
100
AcDbArc
 50
183.510541141189
 51
266.4894588588109
  0
LINE
  5
7E2
330
1A
100
AcDbEntity
  8
SEIHIN
  6
CONTINUOUS
100
AcDbLine
 10
348.441381779622
 20
386.2038146184286
 30
0.0
 11
335.017881779622
 21
378.4537146184287
 31
0.0
  0
ARC
  5
7E3
330
1A
100
AcDbEntity
  8
SEIHIN
  6
CONTINUOUS
100
AcDbCircle
 10
378.3191500807547
 20
403.4536463171672
 30
0.0
 40
45.99991561321679
100
AcDbArc
 50
209.9998186252785
 51
239.9998410809099
  0
LINE
  5
7E4
330
1A
100
AcDbEntity
  8
SEIHIN
  6
CONTINUOUS
100
AcDbLine
 10
375.019181779622
 20
371.5538146184286
 30
0.0
 11
375.019181779622
 21
383.4537146184286
 31
0.0
  0
LINE
  5
7E5
330
1A
100
AcDbEntity
  8
SEIHIN
  6
CONTINUOUS
100
AcDbLine
 10
361.069181779622
 20
373.5760146184286
 30
0.0
 11
353.3191817796221
 21
360.1524146184287
 31
0.0
  0
LINE
  5
7E6
330
1A
100
AcDbEntity
  8
SEIHIN
  6
CONTINUOUS
100
AcDbLine
 10
348.441381779622
 20
420.7036146184284
 30
0.0
 11
335.017881779622
 21
428.4537146184287
 31
0.0
  0
ARC
  5
7E7
330
1A
100
AcDbEntity
  8
SEIHIN
  6
CONTINUOUS
100
AcDbCircle
 10
346.419131779622
 20
403.4536646184286
 30
0.0
 40
3.299950000378703
100
AcDbArc
 50
89.99913186897464
 51
179.9991318689743
  0
ARC
  5
7E8
330
1A
100
AcDbEntity
  8
SEIHIN
  6
CONTINUOUS
100
AcDbCircle
 10
346.419181779622
 20
403.4538146184286
 30
0.0
 40
3.299999999999883
100
AcDbArc
 50
180.0000000000009
 51
270.0000000000007
  0
ARC
  5
7E9
330
1A
100
AcDbEntity
  8
SEIHIN
  6
CONTINUOUS
100
AcDbCircle
 10
378.3190717766775
 20
403.4537046155334
 30
0.0
 40
19.99995059631563
100
AcDbArc
 50
99.46440859353588
 51
170.5352428697293
  0
ARC
  5
7EA
330
1A
100
AcDbEntity
  8
SEIHIN
  6
CONTINUOUS
100
AcDbCircle
 10
358.3190817796221
 20
403.4537146184286
 30
0.0
 40
3.299999999999897
100
AcDbArc
 50
0.0000000000009869
 51
90.00000000000101
  0
ARC
  5
7EB
330
1A
100
AcDbEntity
  8
SEIHIN
  6
CONTINUOUS
100
AcDbCircle
 10
358.319081779622
 20
403.4537146184286
 30
0.0
 40
3.300000000000011
100
AcDbArc
 50
270.000000000001
 51
0.0000000000009869
  0
ARC
  5
7EC
330
1A
100
AcDbEntity
  8
SEIHIN
  6
CONTINUOUS
100
AcDbCircle
 10
354.869181779622
 20
403.4537146184286
 30
0.0
 40
3.299999999999926
100
AcDbArc
 50
89.99999999999852
 51
179.9999999999985
  0
ARC
  5
7ED
330
1A
100
AcDbEntity
  8
SEIHIN
  6
CONTINUOUS
100
AcDbCircle
 10
354.8691817796221
 20
403.4537146184287
 30
0.0
 40
3.300000000000039
100
AcDbArc
 50
179.9999999999995
 51
269.9999999999994
  0
LINE
  5
7EE
330
1A
100
AcDbEntity
  8
SEIHIN
  6
CONTINUOUS
100
AcDbLine
 10
346.419181779622
 20
400.1538146184286
 30
0.0
 11
358.3191817796221
 21
400.1537146184286
 31
0.0
  0
LINE
  5
7EF
330
1A
100
AcDbEntity
  8
SEIHIN
  6
CONTINUOUS
100
AcDbLine
 10
346.419181779622
 20
406.7536146184285
 30
0.0
 11
358.3191817796221
 21
406.7537146184285
 31
0.0
  0
LINE
  5
7F0
330
1A
100
AcDbEntity
  8
SEIHIN
  6
CONTINUOUS
100
AcDbLine
 10
375.019181779622
 20
435.3536146184286
 30
0.0
 11
375.019181779622
 21
423.4537146184287
 31
0.0
  0
ARC
  5
7F2
330
1A
100
AcDbEntity
  8
SEIHIN
  6
CONTINUOUS
100
AcDbCircle
 10
378.3191317795452
 20
403.453664618352
 30
0.0
 40
34.4998901886746
100
AcDbArc
 50
3.510618938543935
 51
86.48938106145568
  0
LINE
  5
7F3
330
1A
100
AcDbEntity
  8
SEIHIN
  6
CONTINUOUS
100
AcDbLine
 10
395.5690817796221
 20
433.3314146184285
 30
0.0
 11
403.3191817796221
 21
446.7550146184287
 31
0.0
  0
ARC
  5
7F4
330
1A
100
AcDbEntity
  8
SEIHIN
  6
CONTINUOUS
100
AcDbCircle
 10
378.3191317795481
 20
403.4536646183544
 30
0.0
 40
46.00000891450251
100
AcDbArc
 50
30.00006550194198
 51
59.9999344980586
  0
LINE
  5
7F5
330
1A
100
AcDbEntity
  8
CENTER_L
 48
5.0
100
AcDbLine
 10
378.319081779622
 20
460.4537646186925
 30
0.0
 11
378.319081779622
 21
346.4537646184046
 31
0.0
  0
LINE
  5
7F6
330
1A
100
AcDbEntity
  8
SEIHIN
  6
CONTINUOUS
100
AcDbLine
 10
381.6190817796219
 20
238.0537146184286
 30
0.0
 11
399.4841817796221
 21
238.0537146184286
 31
0.0
  0
LINE
  5
7F7
330
1A
100
AcDbEntity
  8
SEIHIN
  6
CONTINUOUS
100
AcDbLine
 10
353.9941444662876
 20
244.6537146184286
 30
0.0
 11
402.644081779622
 21
244.6537146184286
 31
0.0
  0
ARC
  5
7F8
330
1A
100
AcDbEntity
  8
SEIHIN
  6
CONTINUOUS
100
AcDbCircle
 10
378.3190317796221
 20
241.3537646184286
 30
0.0
 40
3.299950000378789
100
AcDbArc
 50
359.9991318689759
 51
89.99913186897586
  0
ARC
  5
7F9
330
1A
100
AcDbEntity
  8
SEIHIN
  6
CONTINUOUS
100
AcDbCircle
 10
399.4841512211448
 20
237.0537370739328
 30
0.0
 40
0.9999775449626371
100
AcDbArc
 50
17.37859335142742
 51
89.99824908890822
  0
ARC
  5
7FA
330
1A
100
AcDbEntity
  8
SEIHIN
  6
CONTINUOUS
100
AcDbCircle
 10
395.0190817796221
 20
241.3537646184286
 30
0.0
 40
3.299949999999967
100
AcDbArc
 50
270.0
 51
90.0
  0
LINE
  5
7FB
330
1A
100
AcDbEntity
  8
SEIHIN
  6
CONTINUOUS
100
AcDbLine
 10
400.076281779622
 20
237.8595146184287
 30
0.0
 11
402.337281779622
 21
240.9362146184285
 31
0.0
  0
ARC
  5
7FC
330
1A
100
AcDbEntity
  8
SEIHIN
  6
CONTINUOUS
100
AcDbCircle
 10
402.6440949460958
 20
241.3537049426994
 30
0.0
 40
3.300009675755506
100
AcDbArc
 50
17.37766108183144
 51
90.0002286003518
  0
ARC
  5
7FD
330
1A
100
AcDbEntity
  8
SEIHIN
  6
CONTINUOUS
100
AcDbCircle
 10
378.3191350474496
 20
403.4537678862655
 30
0.0
 40
34.49988712699927
100
AcDbArc
 50
273.5104474256158
 51
356.4893753123726
  0
ARC
  5
7FE
330
1A
100
AcDbEntity
  8
SEIHIN
  6
CONTINUOUS
100
AcDbCircle
 10
378.3191417826694
 20
403.4537746215252
 30
0.0
 40
20.00000813768177
100
AcDbArc
 50
279.4645263292019
 51
350.5351251340634
  0
LINE
  5
7FF
330
1A
100
AcDbEntity
  8
SEIHIN
  6
CONTINUOUS
100
AcDbLine
 10
408.196981779622
 20
386.2038146184286
 30
0.0
 11
421.6204817796221
 21
378.4538146184286
 31
0.0
  0
ARC
  5
800
330
1A
100
AcDbEntity
  8
SEIHIN
  6
CONTINUOUS
100
AcDbCircle
 10
378.3192000809034
 20
403.4538329198386
 30
0.0
 40
45.99998391466285
100
AcDbArc
 50
299.9998414206994
 51
329.9998182854885
  0
LINE
  5
801
330
1A
100
AcDbEntity
  8
SEIHIN
  6
CONTINUOUS
100
AcDbLine
 10
395.5690817796221
 20
373.5760146184286
 30
0.0
 11
403.3191817796221
 21
360.1525146184286
 31
0.0
  0
LINE
  5
802
330
1A
100
AcDbEntity
  8
SEIHIN
  6
CONTINUOUS
100
AcDbLine
 10
381.6190817796219
 20
371.5538146184286
 30
0.0
 11
381.6191817796221
 21
383.4537146184286
 31
0.0
  0
ARC
  5
803
330
1A
100
AcDbEntity
  8
SEIHIN
  6
CONTINUOUS
100
AcDbCircle
 10
378.319081779622
 20
371.5538146184286
 30
0.0
 40
3.299999999999926
100
AcDbArc
 50
270.0000000000005
 51
0.0000000000004935
  0
ARC
  5
804
330
1A
100
AcDbEntity
  8
SEIHIN
  6
CONTINUOUS
100
AcDbCircle
 10
378.319181779622
 20
380.0039146184285
 30
0.0
 40
3.300000000000096
100
AcDbArc
 50
270.0000000000014
 51
0.0000000000014804
  0
ARC
  5
805
330
1A
100
AcDbEntity
  8
SEIHIN
  6
CONTINUOUS
100
AcDbCircle
 10
378.3191817796222
 20
383.4537146184286
 30
0.0
 40
3.299999999999926
100
AcDbArc
 50
0.0000000000014804
 51
90.00000000000147
  0
LINE
  5
806
330
1A
100
AcDbEntity
  8
SEIHIN
  6
CONTINUOUS
100
AcDbLine
 10
408.196981779622
 20
420.7036146184284
 30
0.0
 11
421.6204817796221
 21
428.4537146184287
 31
0.0
  0
ARC
  5
807
330
1A
100
AcDbEntity
  8
SEIHIN
  6
CONTINUOUS
100
AcDbCircle
 10
410.2190817796221
 20
403.4538146184287
 30
0.0
 40
3.299999999999982
100
AcDbArc
 50
269.9999999999974
 51
359.9999999999975
  0
ARC
  5
808
330
1A
100
AcDbEntity
  8
SEIHIN
  6
CONTINUOUS
100
AcDbCircle
 10
410.2190817796221
 20
403.4536146184286
 30
0.0
 40
3.299999999999982
100
AcDbArc
 50
0.0000000000024673
 51
90.00000000000248
  0
ARC
  5
809
330
1A
100
AcDbEntity
  8
SEIHIN
  6
CONTINUOUS
100
AcDbCircle
 10
378.3191317794783
 20
403.4536646182848
 30
0.0
 40
20.00001635978383
100
AcDbArc
 50
9.46484188727854
 51
80.53515811272161
  0
ARC
  5
80A
330
1A
100
AcDbEntity
  8
SEIHIN
  6
CONTINUOUS
100
AcDbCircle
 10
398.319131779622
 20
403.4537646184286
 30
0.0
 40
3.299950000378703
100
AcDbArc
 50
90.00086813102363
 51
180.0008681310236
  0
ARC
  5
80B
330
1A
100
AcDbEntity
  8
SEIHIN
  6
CONTINUOUS
100
AcDbCircle
 10
401.7690817796221
 20
403.4537146184286
 30
0.0
 40
3.299999999999897
100
AcDbArc
 50
0.0000000000009869
 51
90.00000000000101
  0
ARC
  5
80C
330
1A
100
AcDbEntity
  8
SEIHIN
  6
CONTINUOUS
100
AcDbCircle
 10
401.769081779622
 20
403.4537146184286
 30
0.0
 40
3.300000000000011
100
AcDbArc
 50
270.000000000001
 51
0.0000000000009869
  0
LINE
  5
80D
330
1A
100
AcDbEntity
  8
SEIHIN
  6
CONTINUOUS
100
AcDbLine
 10
410.219081779622
 20
400.1538146184286
 30
0.0
 11
398.319081779622
 21
400.1537146184286
 31
0.0
  0
ARC
  5
80E
330
1A
100
AcDbEntity
  8
SEIHIN
  6
CONTINUOUS
100
AcDbCircle
 10
398.3191317796221
 20
403.4536646184286
 30
0.0
 40
3.299950000378817
100
AcDbArc
 50
179.9991318689743
 51
269.9991318689743
  0
LINE
  5
80F
330
1A
100
AcDbEntity
  8
SEIHIN
  6
CONTINUOUS
100
AcDbLine
 10
410.219081779622
 20
406.7536146184285
 30
0.0
 11
398.319081779622
 21
406.7537146184285
 31
0.0
  0
ARC
  5
810
330
1A
100
AcDbEntity
  8
SEIHIN
  6
CONTINUOUS
100
AcDbCircle
 10
378.3191817796221
 20
426.9036146184286
 30
0.0
 40
3.300000000000039
100
AcDbArc
 50
359.9999999999994
 51
89.9999999999995
  0
LINE
  5
811
330
1A
100
AcDbEntity
  8
SEIHIN
  6
CONTINUOUS
100
AcDbLine
 10
381.6190817796219
 20
435.3536146184286
 30
0.0
 11
381.6191817796221
 21
423.4537146184287
 31
0.0
  0
ARC
  5
812
330
1A
100
AcDbEntity
  8
SEIHIN
  6
CONTINUOUS
100
AcDbCircle
 10
378.3191817796221
 20
423.4537146184287
 30
0.0
 40
3.300000000000039
100
AcDbArc
 50
270.0000000000005
 51
0.0000000000004935
  0
ARC
  5
813
330
1A
100
AcDbEntity
  8
SEIHIN
  6
CONTINUOUS
100
AcDbCircle
 10
378.319081779622
 20
435.3536146184286
 30
0.0
 40
3.299999999999926
100
AcDbArc
 50
359.9999999999994
 51
89.9999999999995
  0
CIRCLE
  5
921
330
1A
100
AcDbEntity
  8
SEIHIN
  6
CONTINUOUS
100
AcDbCircle
 10
168.0682545897092
 20
403.4537646185361
 30
0.0
 40
54.99987281761614
  0
CIRCLE
  5
922
330
1A
100
AcDbEntity
  8
SEIHIN
  6
CONTINUOUS
100
AcDbCircle
 10
168.0682545897092
 20
403.4537646185361
 30
0.0
 40
50.99987281760462
  0
CIRCLE
  5
923
330
1A
100
AcDbEntity
  8
SEIHIN
  6
CONTINUOUS
100
AcDbCircle
 10
168.0682545897092
 20
403.4537646185361
 30
0.0
 40
44.54913109350838
  0
CIRCLE
  5
924
330
1A
100
AcDbEntity
  8
SEIHIN
  6
CONTINUOUS
100
AcDbCircle
 10
168.0682545897092
 20
403.4537646185361
 30
0.0
 40
38.99987281757029
  0
ARC
  5
925
330
1A
100
AcDbEntity
  8
SEIHIN
  6
CONTINUOUS
100
AcDbCircle
 10
168.0682545897092
 20
403.4537646185361
 30
0.0
 40
37.14977281756485
100
AcDbArc
 50
92.61756198759757
 51
147.3821629928808
  0
LINE
  5
927
330
1A
100
AcDbEntity
  8
SEIHIN
  6
CONTINUOUS
100
AcDbLine
 10
202.698527407167
 20
421.3907176589804
 30
0.0
 11
201.0557151846896
 21
420.5398134271781
 31
0.0
  0
LINE
  5
928
330
1A
100
AcDbEntity
  8
SEIHIN
  6
CONTINUOUS
100
AcDbLine
 10
202.6984413094624
 20
385.516645353122
 30
0.0
 11
201.055633171341
 21
386.3675574704069
 31
0.0
  0
LINE
  5
930
330
1A
100
AcDbEntity
  8
SEIHIN
  6
CONTINUOUS
100
AcDbLine
 10
135.2192611814671
 20
424.475984098218
 30
0.0
 11
136.7775719736342
 21
423.4787190958063
 31
0.0
  0
LINE
  5
931
330
1A
100
AcDbEntity
  8
SEIHIN
  6
CONTINUOUS
100
AcDbLine
 10
166.2871621843926
 20
442.412945688348
 30
0.0
 11
166.3716547434966
 21
440.5647760485486
 31
0.0
  0
LINE
  5
932
330
1A
100
AcDbEntity
  8
SEIHIN
  6
CONTINUOUS
100
AcDbLine
 10
166.2869751804937
 20
364.4945920984099
 30
0.0
 11
166.3714766108039
 21
366.342761332624
 31
0.0
  0
LINE
  5
933
330
1A
100
AcDbEntity
  8
SEIHIN
  6
CONTINUOUS
100
AcDbLine
 10
135.2191602752727
 20
382.4317028141385
 30
0.0
 11
136.7774758542901
 21
383.428960336653
 31
0.0
  0
ARC
  5
935
330
1A
100
AcDbEntity
  8
SEIHIN
  6
CONTINUOUS
100
AcDbCircle
 10
168.0682545897092
 20
403.4537646185361
 30
0.0
 40
37.14977281756485
100
AcDbArc
 50
212.6175619875976
 51
267.3821629928808
  0
ARC
  5
936
330
1A
100
AcDbEntity
  8
SEIHIN
  6
CONTINUOUS
100
AcDbCircle
 10
168.0682545897092
 20
403.4537646185361
 30
0.0
 40
37.14977281756485
100
AcDbArc
 50
332.6175619875977
 51
27.38216299288078
  0
CIRCLE
  5
938
330
1A
100
AcDbEntity
  8
SEIHIN
  6
CONTINUOUS
100
AcDbCircle
 10
168.0682545897092
 20
403.4537646185361
 30
0.0
 40
35.84987281756109
  0
CIRCLE
  5
93D
330
1A
100
AcDbEntity
  8
SEIHIN
  6
CONTINUOUS
100
AcDbCircle
 10
378.319081779622
 20
403.4537646185486
 30
0.0
 40
50.000000000144
  0
LINE
  5
93F
330
1A
100
AcDbEntity
  8
SEIHIN
  6
CONTINUOUS
100
AcDbLine
 10
339.469103669104
 20
192.7539196181584
 30
0.0
 11
417.1689852827505
 21
192.7537096184782
 31
0.0
  0
LINE
  5
942
330
1A
100
AcDbEntity
  8
SEIHIN
  6
CONTINUOUS
100
AcDbLine
 10
417.1691036691038
 20
163.4537146184286
 30
0.0
 11
339.469103669104
 21
163.4539146179138
 31
0.0
  0
LINE
  5
943
330
1A
100
AcDbEntity
  8
SEIHIN
  6
CONTINUOUS
100
AcDbLine
 10
341.3190036691039
 20
161.4537146184287
 30
0.0
 11
415.319103669104
 21
161.4537146184287
 31
0.0
  0
LINE
  5
969
330
1A
100
AcDbEntity
  8
SEIHIN
  6
CONTINUOUS
100
AcDbLine
 10
341.3190036691038
 20
163.4538146184286
 30
0.0
 11
341.3190036691038
 21
161.4537146184287
 31
0.0
  0
LINE
  5
991
330
1A
100
AcDbEntity
  8
SEIHIN
  6
CONTINUOUS
100
AcDbLine
 10
339.469103669104
 20
192.7538146184286
 30
0.0
 11
339.469103669104
 21
163.4538146184287
 31
0.0
  0
LINE
  5
992
330
1A
100
AcDbEntity
  8
SEIHIN
  6
CONTINUOUS
 62
     4
100
AcDbLine
 10
341.3190036691038
 20
192.7538146184286
 30
0.0
 11
341.3190036691038
 21
163.4538146184286
 31
0.0
  0
LINE
  5
994
330
1A
100
AcDbEntity
  8
SEIHIN
  6
CONTINUOUS
100
AcDbLine
 10
341.3190036691038
 20
194.2538146184285
 30
0.0
 11
341.3190036691038
 21
192.6994146184286
 31
0.0
  0
LINE
  5
99B
330
1A
100
AcDbEntity
  8
SEIHIN
  6
CONTINUOUS
100
AcDbLine
 10
415.3190036691039
 20
163.4537146184286
 30
0.0
 11
415.3190036691039
 21
161.4537146184287
 31
0.0
  0
LINE
  5
9C4
330
1A
100
AcDbEntity
  8
SEIHIN
  6
CONTINUOUS
100
AcDbLine
 10
415.3190036691039
 20
194.2537146184285
 30
0.0
 11
415.3190036691039
 21
192.6994146184286
 31
0.0
  0
LINE
  5
9C5
330
1A
100
AcDbEntity
  8
SEIHIN
  6
CONTINUOUS
 62
     4
100
AcDbLine
 10
415.319085282823
 20
192.7537673497373
 30
0.0
 11
415.3190478511708
 21
163.4537673497612
 31
0.0
  0
LINE
  5
9C6
330
1A
100
AcDbEntity
  8
SEIHIN
  6
CONTINUOUS
100
AcDbLine
 10
417.1689852828213
 20
192.7537649864331
 30
0.0
 11
417.1689478511692
 21
163.453764986457
 31
0.0
  0
DIMENSION
  5
9DF
330
1A
100
AcDbEntity
  8
SUNPOU
  6
CONTINUOUS
 48
5.0
100
AcDbDimension
  2
*D1
 10
113.0681494055167
 20
273.6158711196701
 30
0.0
 11
168.0682494055167
 21
278.6158711196701
 31
0.0
 12
10.16822011527119
 22
-11.28920769831643
 32
0.0
 70
    32
  1
φ<>
  3
STANDARD
100
AcDbAlignedDimension
 13
223.0683494055167
 23
253.5702914411163
 33
0.0
 14
113.0681494055167
 24
253.5702914411163
 34
0.0
100
AcDbRotatedDimension
1001
ACAD
1000
DSTYLE
1002
{
1070
   140
1040
6.0
1070
    74
1070
     0
1070
   172
1070
     1
1070
    73
1070
     0
1070
   272
1070
     2
1070
    77
1070
     3
1070
   173
1070
     1
1070
   147
1040
2.0
1070
    42
1040
6.0
1070
    44
1040
3.0
1070
    43
1040
14.0
1070
   271
1070
     0
1070
   178
1070
     4
1070
   177
1070
     4
1070
   176
1070
     4
1070
   141
1040
150.0
1070
     7
1000
_OPEN
1070
     6
1000
_OPEN
1070
    41
1040
7.0
1002
}
  0
DIMENSION
  5
9EC
330
1A
100
AcDbEntity
  8
SUNPOU
  6
CONTINUOUS
 48
5.0
100
AcDbDimension
  2
*D2
 10
239.1811025220636
 20
201.5701914411163
 30
0.0
 11
234.1811025220636
 21
223.0701914411163
 31
0.0
 12
10.16822011527119
 22
-11.28920769831643
 32
0.0
 70
    32
  3
STANDARD
100
AcDbAlignedDimension
 13
212.8400494055167
 23
244.5701914411163
 33
0.0
 14
208.5182494055167
 24
201.5701914411163
 34
0.0
 50
90.0
100
AcDbRotatedDimension
1001
ACAD
1000
DSTYLE
1002
{
1070
   140
1040
6.0
1070
    74
1070
     0
1070
   172
1070
     1
1070
    73
1070
     0
1070
   272
1070
     2
1070
    77
1070
     3
1070
   173
1070
     1
1070
   147
1040
2.0
1070
    42
1040
6.0
1070
    44
1040
3.0
1070
    43
1040
14.0
1070
   271
1070
     0
1070
   178
1070
     4
1070
   177
1070
     4
1070
   176
1070
     4
1070
   141
1040
150.0
1070
     7
1000
_OPEN
1070
     6
1000
_OPEN
1070
    41
1040
7.0
1002
}
  0
DIMENSION
  5
9F8
330
1A
100
AcDbEntity
  8
SUNPOU
  6
CONTINUOUS
 48
5.0
100
AcDbDimension
  2
*D3
 10
239.1811025220636
 20
161.5701914411162
 30
0.0
 11
234.1811025220635
 21
181.5701914411163
 31
0.0
 70
    32
  3
STANDARD
100
AcDbAlignedDimension
 13
208.5182494055167
 23
201.5701914411163
 33
0.0
 14
205.2170494055167
 24
161.5701914411162
 34
0.0
 50
90.0
100
AcDbRotatedDimension
1001
ACAD
1000
DSTYLE
1002
{
1070
   287
1070
     4
1070
   287
1070
     4
1070
   287
1070
     4
1070
    41
1040
7.0
1070
    42
1040
6.0
1070
    43
1040
14.0
1070
    44
1040
3.0
1070
    73
1070
     0
1070
    74
1070
     0
1070
    75
1070
     1
1070
    77
1070
     3
1070
   140
1040
6.0
1070
   141
1040
150.0
1070
   147
1040
2.0
1070
   172
1070
     1
1070
   173
1070
     1
1070
   176
1070
     4
1070
   177
1070
     4
1070
   178
1070
     4
1070
   271
1070
     0
1070
   272
1070
     2
1070
   279
1070
     1
1070
     6
1000
OPEN
1070
     7
1000
OPEN
1002
}
  0
DIMENSION
  5
A05
330
1A
100
AcDbEntity
  8
SUNPOU
  6
CONTINUOUS
 48
5.0
100
AcDbDimension
  2
*D4
 10
260.0235503520984
 20
161.5701914411162
 30
0.0
 11
255.0235503520984
 21
207.5702414411163
 31
0.0
 12
10.16822011527119
 22
-11.28920769831643
 32
0.0
 70
    32
  3
STANDARD
100
AcDbAlignedDimension
 13
223.0683494055167
 23
253.5702914411163
 33
0.0
 14
205.2170494055167
 24
161.5701914411162
 34
0.0
 50
90.0
100
AcDbRotatedDimension
1001
ACAD
1000
DSTYLE
1002
{
1070
   140
1040
6.0
1070
    74
1070
     0
1070
   172
1070
     1
1070
    73
1070
     0
1070
   272
1070
     2
1070
    77
1070
     3
1070
   173
1070
     1
1070
   147
1040
2.0
1070
    42
1040
6.0
1070
    44
1040
3.0
1070
    43
1040
14.0
1070
   271
1070
     0
1070
   178
1070
     4
1070
   177
1070
     4
1070
   176
1070
     4
1070
   141
1040
150.0
1070
     7
1000
_OPEN
1070
     6
1000
_OPEN
1070
    41
1040
7.0
1002
}
  0
DIMENSION
  5
A12
330
1A
100
AcDbEntity
  8
SUNPOU
  6
CONTINUOUS
 48
5.0
100
AcDbDimension
  2
*D5
 10
206.1525494055167
 20
135.8707822525454
 30
0.0
 11
168.0681994055167
 21
140.8707822525455
 31
0.0
 12
10.16822011527119
 22
-11.28920769831643
 32
0.0
 70
    32
  1
φ<>
  3
STANDARD
100
AcDbAlignedDimension
 13
129.9838494055167
 23
165.5702914411163
 33
0.0
 14
206.1525494055167
 24
165.5702914411163
 34
0.0
100
AcDbRotatedDimension
1001
ACAD
1000
DSTYLE
1002
{
1070
   140
1040
6.0
1070
    74
1070
     0
1070
   172
1070
     1
1070
    73
1070
     0
1070
   272
1070
     2
1070
    77
1070
     3
1070
   173
1070
     1
1070
   147
1040
2.0
1070
    42
1040
6.0
1070
    44
1040
3.0
1070
    43
1040
14.0
1070
   271
1070
     0
1070
   178
1070
     4
1070
   177
1070
     4
1070
   176
1070
     4
1070
   141
1040
150.0
1070
     7
1000
_OPEN
1070
     6
1000
_OPEN
1070
    41
1040
7.0
1002
}
  0
DIMENSION
  5
A1F
330
1A
100
AcDbEntity
  8
SUNPOU
  6
CONTINUOUS
 48
5.0
100
AcDbDimension
  2
*D6
 10
127.6182494055166
 20
114.6792285805902
 30
0.0
 11
168.0682494055167
 21
119.6792285805902
 31
0.0
 12
10.16822011527119
 22
-11.28920769831643
 32
0.0
 70
    32
  1
φ<>
  3
STANDARD
100
AcDbAlignedDimension
 13
208.5182494055167
 23
201.5701914411163
 33
0.0
 14
127.6182494055166
 24
201.5703914411163
 34
0.0
100
AcDbRotatedDimension
1001
ACAD
1000
DSTYLE
1002
{
1070
   140
1040
6.0
1070
    74
1070
     0
1070
   172
1070
     1
1070
    73
1070
     0
1070
   272
1070
     2
1070
    77
1070
     3
1070
   173
1070
     1
1070
   147
1040
2.0
1070
    42
1040
6.0
1070
    44
1040
3.0
1070
    43
1040
14.0
1070
   271
1070
     0
1070
   178
1070
     4
1070
   177
1070
     4
1070
   176
1070
     4
1070
   141
1040
150.0
1070
     7
1000
_OPEN
1070
     6
1000
_OPEN
1070
    41
1040
7.0
1002
}
  0
DIMENSION
  5
A8F
330
1A
100
AcDbEntity
  8
SUNPOU
  6
CONTINUOUS
 48
5.0
100
AcDbDimension
  2
*D7
 10
343.119081779622
 20
262.7635429412892
 30
0.0
 11
378.3190817796221
 21
267.7635429412891
 31
0.0
 12
10.16822011527119
 22
-41.28920769831643
 32
0.0
 70
    32
  1
φ<>
  3
STANDARD
100
AcDbAlignedDimension
 13
413.5190817796221
 23
216.2660146184287
 33
0.0
 14
343.119081779622
 24
216.2660146184287
 34
0.0
100
AcDbRotatedDimension
1001
ACAD
1000
DSTYLE
1002
{
1070
   140
1040
6.0
1070
    74
1070
     0
1070
   172
1070
     1
1070
    73
1070
     0
1070
   272
1070
     2
1070
    77
1070
     3
1070
   173
1070
     1
1070
   147
1040
2.0
1070
    42
1040
6.0
1070
    44
1040
3.0
1070
    43
1040
14.0
1070
   271
1070
     0
1070
   178
1070
     4
1070
   177
1070
     4
1070
   176
1070
     4
1070
   141
1040
150.0
1070
     7
1000
_OPEN
1070
     6
1000
_OPEN
1070
    41
1040
7.0
1002
}
  0
DIMENSION
  5
A9C
330
1A
100
AcDbEntity
  8
SUNPOU
  6
CONTINUOUS
 48
5.0
100
AcDbDimension
  2
*D8
 10
328.3190817796221
 20
284.6500595115464
 30
0.0
 11
378.3190817796221
 21
289.6500595115464
 31
0.0
 12
10.16822011527119
 22
-41.28920769831643
 32
0.0
 70
    32
  1
φ<>
  3
STANDARD
100
AcDbAlignedDimension
 13
428.3190817796221
 23
199.6536146184287
 33
0.0
 14
328.3190817796221
 24
199.6537146184286
 34
0.0
100
AcDbRotatedDimension
1001
ACAD
1000
DSTYLE
1002
{
1070
   140
1040
6.0
1070
    74
1070
     0
1070
   172
1070
     1
1070
    73
1070
     0
1070
   272
1070
     2
1070
    77
1070
     3
1070
   173
1070
     1
1070
   147
1040
2.0
1070
    42
1040
6.0
1070
    44
1040
3.0
1070
    43
1040
14.0
1070
   271
1070
     0
1070
   178
1070
     4
1070
   177
1070
     4
1070
   176
1070
     4
1070
   141
1040
150.0
1070
     7
1000
_OPEN
1070
     6
1000
_OPEN
1070
    41
1040
7.0
1002
}
  0
DIMENSION
  5
AA9
330
1A
100
AcDbEntity
  8
SUNPOU
  6
CONTINUOUS
 48
5.0
100
AcDbDimension
  2
*D9
 10
339.469103669104
 20
134.465402558271
 30
0.0
 11
378.3190257601366
 21
139.465402558271
 31
0.0
 12
10.16822011527119
 22
-41.28920769831643
 32
0.0
 70
    32
  1
φ<>
  3
STANDARD
100
AcDbAlignedDimension
 13
417.1689478511692
 23
163.453764986457
 33
0.0
 14
339.469103669104
 24
163.4538146184287
 34
0.0
100
AcDbRotatedDimension
1001
ACAD
1000
DSTYLE
1002
{
1070
   140
1040
6.0
1070
    74
1070
     0
1070
   172
1070
     1
1070
    73
1070
     0
1070
   272
1070
     2
1070
    77
1070
     3
1070
   173
1070
     1
1070
   147
1040
2.0
1070
    42
1040
6.0
1070
    44
1040
3.0
1070
    43
1040
14.0
1070
   271
1070
     0
1070
   178
1070
     4
1070
   177
1070
     4
1070
   176
1070
     4
1070
   141
1040
150.0
1070
     7
1000
_OPEN
1070
     6
1000
_OPEN
1070
    41
1040
7.0
1002
}
  0
DIMENSION
  5
AB8
330
1A
100
AcDbEntity
  8
SUNPOU
  6
CONTINUOUS
 48
5.0
100
AcDbDimension
  2
*D10
 10
451.2242292670948
 20
196.4537146184287
 30
0.0
 11
446.2242292670948
 21
217.6536146184287
 31
0.0
 12
10.16822011527119
 22
-41.28920769831643
 32
0.0
 70
    32
  3
STANDARD
100
AcDbAlignedDimension
 13
428.3190817796221
 23
199.6536146184287
 33
0.0
 14
428.3190817796221
 24
196.4537146184287
 34
0.0
 50
90.0
100
AcDbRotatedDimension
1001
ACAD
1000
DSTYLE
1002
{
1070
   140
1040
6.0
1070
    74
1070
     0
1070
   172
1070
     1
1070
    73
1070
     0
1070
   272
1070
     2
1070
    77
1070
     3
1070
   173
1070
     1
1070
   280
1070
     1
1070
   147
1040
2.0
1070
    42
1040
6.0
1070
    44
1040
3.0
1070
    43
1040
14.0
1070
   271
1070
     0
1070
   178
1070
     4
1070
   177
1070
     4
1070
   176
1070
     4
1070
   141
1040
150.0
1070
     7
1000
_OPEN
1070
     6
1000
_OPEN
1070
    41
1040
7.0
1002
}
  0
DIMENSION
  5
AC5
330
1A
100
AcDbEntity
  8
SUNPOU
  6
CONTINUOUS
 48
5.0
100
AcDbDimension
  2
*D11
 10
471.8938290558312
 20
161.4537146184287
 30
0.0
 11
466.8938290558312
 21
178.9537146184287
 31
0.0
 12
10.16822011527119
 22
-41.28920769831643
 32
0.0
 70
    32
  3
STANDARD
100
AcDbAlignedDimension
 13
428.3190817796221
 23
196.4537146184287
 33
0.0
 14
415.319103669104
 24
161.4537146184287
 34
0.0
 50
90.0
100
AcDbRotatedDimension
1001
ACAD
1000
DSTYLE
1002
{
1070
   140
1040
6.0
1070
    74
1070
     0
1070
   172
1070
     1
1070
    73
1070
     0
1070
   272
1070
     2
1070
    77
1070
     3
1070
   173
1070
     1
1070
   147
1040
2.0
1070
    42
1040
6.0
1070
    44
1040
3.0
1070
    43
1040
14.0
1070
   271
1070
     0
1070
   178
1070
     4
1070
   177
1070
     4
1070
   176
1070
     4
1070
   141
1040
150.0
1070
     7
1000
_OPEN
1070
     6
1000
_OPEN
1070
    41
1040
7.0
1002
}
  0
DIMENSION
  5
AD2
330
1A
100
AcDbEntity
  8
SUNPOU
  6
CONTINUOUS
 48
5.0
100
AcDbDimension
  2
*D12
 10
489.7869198579033
 20
161.4537146184287
 30
0.0
 11
484.7869198579032
 21
203.0537146184286
 31
0.0
 12
10.16822011527119
 22
-41.28920769831643
 32
0.0
 70
    32
  3
STANDARD
100
AcDbAlignedDimension
 13
402.644081779622
 23
244.6537146184286
 33
0.0
 14
415.319103669104
 24
161.4537146184287
 34
0.0
 50
90.0
100
AcDbRotatedDimension
1001
ACAD
1000
DSTYLE
1002
{
1070
   140
1040
6.0
1070
    74
1070
     0
1070
   172
1070
     1
1070
    73
1070
     0
1070
   272
1070
     2
1070
    77
1070
     3
1070
   173
1070
     1
1070
   147
1040
2.0
1070
    42
1040
6.0
1070
    44
1040
3.0
1070
    43
1040
14.0
1070
   271
1070
     0
1070
   178
1070
     4
1070
   177
1070
     4
1070
   176
1070
     4
1070
   141
1040
150.0
1070
     7
1000
_OPEN
1070
     6
1000
_OPEN
1070
    41
1040
7.0
1002
}
  0
DIMENSION
  5
B5E
330
1A
100
AcDbEntity
  8
SUNPOU
  6
CONTINUOUS
 48
5.0
100
AcDbDimension
  2
*D13
 10
602.8654509923829
 20
316.9358703255225
 30
0.0
 11
642.36545082979
 21
321.9358703255224
 31
0.0
 12
-22.59604815665761
 22
-7.902445779162007
 32
0.0
 70
    32
  1
穴径 φ<>
  3
STANDARD
100
AcDbAlignedDimension
 13
681.865450667197
 23
370.3180188014479
 33
0.0
 14
602.8654509923829
 24
370.6451433119941
 34
0.0
100
AcDbRotatedDimension
1001
ACAD
1000
DSTYLE
1002
{
1070
   140
1040
6.0
1070
    74
1070
     0
1070
   172
1070
     1
1070
    73
1070
     0
1070
   272
1070
     2
1070
    77
1070
     3
1070
   173
1070
     1
1070
   147
1040
2.0
1070
    42
1040
6.0
1070
    44
1040
3.0
1070
    43
1040
14.0
1070
   271
1070
     0
1070
   178
1070
     4
1070
   177
1070
     4
1070
   176
1070
     4
1070
   141
1040
150.0
1070
     7
1000
_OPEN
1070
     6
1000
_OPEN
1070
    41
1040
7.0
1002
}
  0
LINE
  5
BA1
330
1A
100
AcDbEntity
  8
NOKITOI
  6
CONTINUOUS
 62
     6
100
AcDbLine
 10
603.0155156657786
 20
378.2346552374251
 30
0.0
 11
576.0155156657786
 21
378.2347092373171
 31
0.0
  0
LINE
  5
BA2
330
1A
100
AcDbEntity
  8
NOKITOI
  6
CONTINUOUS
 62
     6
100
AcDbLine
 10
603.0155156657786
 20
375.7346552374202
 30
0.0
 11
576.0155156657786
 21
375.7347092373121
 31
0.0
  0
LINE
  5
BA3
330
1A
100
AcDbEntity
  8
NOKITOI
  6
CONTINUOUS
 62
     6
100
AcDbLine
 10
603.0155156657786
 20
378.2346552374251
 30
0.0
 11
603.0155156657785
 21
375.7346552374202
 31
0.0
  0
LINE
  5
BA9
330
1A
100
AcDbEntity
  8
NOKITOI
  6
CONTINUOUS
 62
     6
 48
5.0
100
AcDbLine
 10
681.7153964388618
 20
375.7345769945558
 30
0.0
 11
708.7153964389157
 21
375.73457730803
 31
0.0
  0
LINE
  5
BAA
330
1A
100
AcDbEntity
  8
NOKITOI
  6
CONTINUOUS
 62
     6
 48
5.0
100
AcDbLine
 10
681.7154014098264
 20
378.2345769945558
 30
0.0
 11
708.7154014098804
 21
378.23457730803
 31
0.0
  0
LINE
  5
BAB
330
1A
100
AcDbEntity
  8
NOKITOI
  6
CONTINUOUS
 62
     6
 48
5.0
100
AcDbLine
 10
681.7154014098264
 20
378.2345769945558
 30
0.0
 11
681.7153964388619
 21
375.7345769945558
 31
0.0
  0
VIEWPORT
  5
22
330
17
100
AcDbEntity
 67
     1
  8
0
100
AcDbViewport
 10
313.6808219178082
 20
148.5
 30
0.0
 40
627.3616438356165
 41
297.0
 68
     2
 69
     1
1001
ACAD
1000
MVIEW
1002
{
1070
    16
1010
0.0
1020
0.0
1030
0.0
1010
0.0
1020
0.0
1030
1.0
1040
0.0
1040
297.0
1040
313.6808219178082
1040
148.5
1040
50.0
1040
0.0
1040
0.0
1070
     0
1070
   100
1070
     1
1070
     0
1070
     0
1070
     0
1070
     0
1070
     0
1040
0.0
1040
0.0
1040
0.0
1040
1.0
1040
1.0
1040
10.0
1040
10.0
1070
     0
1002
{
1002
}
1002
}
  0
VIEWPORT
  5
64
330
17
100
AcDbEntity
 67
     1
  8
VIEWPORT
100
AcDbViewport
 10
210.0
 20
148.5
 30
0.0
 40
420.0
 41
297.0
 68
     1
 69
     2
1001
ACAD
1000
MVIEW
1002
{
1070
    16
1010
0.0
1020
0.0
1030
0.0
1010
0.0
1020
0.0
1030
1.0
1040
0.0
1040
605.8799999999998
1040
420.0
1040
297.0
1040
50.0
1040
0.0
1040
0.0
1070
     0
1070
   100
1070
     1
1070
     0
1070
     0
1070
     0
1070
     0
1070
     0
1040
0.0
1040
0.0
1040
0.0
1040
10.0
1040
10.0
1040
0.0
1040
0.0
1070
     0
1002
{
1002
}
1002
}
  0
ENDSEC
  0
SECTION
  2
OBJECTS
  0
DICTIONARY
  5
C
330
0
100
AcDbDictionary
  3
ACAD_GROUP
350
D
  3
ACAD_LAYOUT
350
BB5
  3
ACAD_MLINESTYLE
350
E
  3
ACAD_PLOTSETTINGS
350
BB6
1001
ACAD
1000
TREAT_AS_HARD
1070
     0
  0
DICTIONARY
  5
BE2
330
1A
100
AcDbDictionary
  3
ACAD_LAYOUTSELFREF
350
C36
1001
ACAD
1000
TREAT_AS_HARD
1070
     1
  0
DICTIONARY
  5
BE0
330
17
100
AcDbDictionary
  3
ACAD_LAYOUTSELFREF
350
C35
1001
ACAD
1000
TREAT_AS_HARD
1070
     1
  0
DICTIONARY
  5
D
102
{ACAD_REACTORS
330
C
102
}
330
C
100
AcDbDictionary
1001
ACAD
1000
TREAT_AS_HARD
1070
     0
  0
DICTIONARY
  5
BB5
102
{ACAD_REACTORS
330
C
102
}
330
C
100
AcDbDictionary
1001
ACAD
1000
TREAT_AS_HARD
1070
     0
  0
DICTIONARY
  5
E
102
{ACAD_REACTORS
330
C
102
}
330
C
100
AcDbDictionary
  3
STANDARD
350
13
1001
ACAD
1000
TREAT_AS_HARD
1070
     0
  0
DICTIONARY
  5
BB6
102
{ACAD_REACTORS
330
C
102
}
330
C
100
AcDbDictionary
1001
ACAD
1000
TREAT_AS_HARD
1070
     0
  0
XRECORD
  5
C36
102
{ACAD_REACTORS
330
BE2
102
}
330
BE2
100
AcDbXrecord
340
1A
  0
XRECORD
  5
C35
102
{ACAD_REACTORS
330
BE0
102
}
330
BE0
100
AcDbXrecord
340
17
  0
MLINESTYLE
  5
13
102
{ACAD_REACTORS
330
E
102
}
330
E
100
AcDbMlineStyle
  2
STANDARD
 70
     0
  3

 62
     0
 51
90.0
 52
90.0
 71
     2
 49
0.5
 62
   256
  6
BYLAYER
 49
-0.5
 62
   256
  6
BYLAYER
  0
ENDSEC
  0
EOF
