  0
SECTION
  2
HEADER
  9
$ACADVER
  1
AC1012
  9
$DWGCODEPAGE
  3
dos932
  9
$INSBASE
 10
0.0
 20
0.0
 30
0.0
  9
$EXTMIN
 10
10.05047808566086
 20
4.949376903717846
 30
0.0
  9
$EXTMAX
 10
806.2246110975902
 20
563.7825862828226
 30
0.0
  9
$LIMMIN
 10
0.0
 20
0.0
  9
$LIMMAX
 10
840.0
 20
594.0
  9
$ORTHOMODE
 70
     0
  9
$REGENMODE
 70
     1
  9
$FILLMODE
 70
     1
  9
$QTEXTMODE
 70
     0
  9
$MIRRTEXT
 70
     1
  9
$DRAGMODE
 70
     2
  9
$LTSCALE
 40
2.0
  9
$OSMODE
 70
    37
  9
$ATTMODE
 70
     1
  9
$TEXTSIZE
 40
5.0
  9
$TRACEWID
 40
1.0
  9
$TEXTSTYLE
  7
STANDARD
  9
$CLAYER
  8
SUNPOU
  9
$CELTYPE
  6
BYLAYER
  9
$CECOLOR
 62
     4
  9
$CELTSCALE
 40
5.0
  9
$DELOBJ
 70
     1
  9
$DISPSILH
 70
     0
  9
$DIMSCALE
 40
1.0
  9
$DIMASZ
 40
7.0
  9
$DIMEXO
 40
6.0
  9
$DIMDLI
 40
14.0
  9
$DIMRND
 40
0.0
  9
$DIMDLE
 40
0.0
  9
$DIMEXE
 40
3.0
  9
$DIMTP
 40
0.0
  9
$DIMTM
 40
0.0
  9
$DIMTXT
 40
6.0
  9
$DIMCEN
 40
150.0
  9
$DIMTSZ
 40
0.0
  9
$DIMTOL
 70
     0
  9
$DIMLIM
 70
     0
  9
$DIMTIH
 70
     0
  9
$DIMTOH
 70
     0
  9
$DIMSE1
 70
     0
  9
$DIMSE2
 70
     0
  9
$DIMTAD
 70
     3
  9
$DIMZIN
 70
     0
  9
$DIMBLK
  1

  9
$DIMASO
 70
     1
  9
$DIMSHO
 70
     1
  9
$DIMPOST
  1

  9
$DIMAPOST
  1

  9
$DIMALT
 70
     0
  9
$DIMALTD
 70
     2
  9
$DIMALTF
 40
25.4
  9
$DIMLFAC
 40
1.0
  9
$DIMTOFL
 70
     1
  9
$DIMTVP
 40
0.0
  9
$DIMTIX
 70
     0
  9
$DIMSOXD
 70
     0
  9
$DIMSAH
 70
     1
  9
$DIMBLK1
  1
OPEN
  9
$DIMBLK2
  1
OPEN
  9
$DIMSTYLE
  2
STANDARD
  9
$DIMCLRD
 70
   256
  9
$DIMCLRE
 70
   256
  9
$DIMCLRT
 70
   256
  9
$DIMTFAC
 40
1.0
  9
$DIMGAP
 40
2.0
  9
$DIMJUST
 70
     0
  9
$DIMSD1
 70
     0
  9
$DIMSD2
 70
     0
  9
$DIMTOLJ
 70
     1
  9
$DIMTZIN
 70
     0
  9
$DIMALTZ
 70
     0
  9
$DIMALTTZ
 70
     0
  9
$DIMFIT
 70
     3
  9
$DIMUPT
 70
     0
  9
$DIMUNIT
 70
     2
  9
$DIMDEC
 70
     0
  9
$DIMTDEC
 70
     0
  9
$DIMALTU
 70
     2
  9
$DIMALTTD
 70
     2
  9
$DIMTXSTY
  7
STANDARD
  9
$DIMAUNIT
 70
     0
  9
$LUNITS
 70
     2
  9
$LUPREC
 70
     4
  9
$SKETCHINC
 40
1.0
  9
$FILLETRAD
 40
20.0
  9
$AUNITS
 70
     0
  9
$AUPREC
 70
     0
  9
$MENU
  1
.
  9
$ELEVATION
 40
0.0
  9
$PELEVATION
 40
0.0
  9
$THICKNESS
 40
0.0
  9
$LIMCHECK
 70
     0
  9
$BLIPMODE
 70
     0
  9
$CHAMFERA
 40
20.0
  9
$CHAMFERB
 40
20.0
  9
$CHAMFERC
 40
40.0
  9
$CHAMFERD
 40
0.0
  9
$SKPOLY
 70
     0
  9
$TDCREATE
 40
2451274.496022801
  9
$TDUPDATE
 40
2452393.717351898
  9
$TDINDWG
 40
0.2649596875
  9
$TDUSRTIMER
 40
0.2649596875
  9
$USRTIMER
 70
     1
  9
$ANGBASE
 50
0.0
  9
$ANGDIR
 70
     0
  9
$PDMODE
 70
     0
  9
$PDSIZE
 40
0.0
  9
$PLINEWID
 40
0.0
  9
$COORDS
 70
     1
  9
$SPLFRAME
 70
     0
  9
$SPLINETYPE
 70
     6
  9
$SPLINESEGS
 70
     8
  9
$ATTDIA
 70
     0
  9
$ATTREQ
 70
     1
  9
$HANDLING
 70
 10241
  9
$HANDSEED
  5
E65
  9
$SURFTAB1
 70
     6
  9
$SURFTAB2
 70
     6
  9
$SURFTYPE
 70
     6
  9
$SURFU
 70
     6
  9
$SURFV
 70
     6
  9
$UCSNAME
  2

  9
$UCSORG
 10
0.0
 20
0.0
 30
0.0
  9
$UCSXDIR
 10
1.0
 20
0.0
 30
0.0
  9
$UCSYDIR
 10
0.0
 20
1.0
 30
0.0
  9
$PUCSNAME
  2

  9
$PUCSORG
 10
0.0
 20
0.0
 30
0.0
  9
$PUCSXDIR
 10
1.0
 20
0.0
 30
0.0
  9
$PUCSYDIR
 10
0.0
 20
1.0
 30
0.0
  9
$USERI1
 70
     0
  9
$USERI2
 70
     0
  9
$USERI3
 70
     0
  9
$USERI4
 70
     0
  9
$USERI5
 70
     0
  9
$USERR1
 40
0.0
  9
$USERR2
 40
0.0
  9
$USERR3
 40
0.0
  9
$USERR4
 40
0.0
  9
$USERR5
 40
0.0
  9
$WORLDVIEW
 70
     1
  9
$SHADEDGE
 70
     3
  9
$SHADEDIF
 70
    70
  9
$TILEMODE
 70
     1
  9
$MAXACTVP
 70
    16
  9
$PINSBASE
 10
0.0
 20
0.0
 30
0.0
  9
$PLIMCHECK
 70
     0
  9
$PEXTMIN
 10
0.0
 20
0.0
 30
0.0
  9
$PEXTMAX
 10
420.0
 20
297.0
 30
0.0
  9
$PLIMMIN
 10
0.0
 20
0.0
  9
$PLIMMAX
 10
420.0
 20
297.0
  9
$UNITMODE
 70
     0
  9
$VISRETAIN
 70
     0
  9
$PLINEGEN
 70
     0
  9
$PSLTSCALE
 70
     1
  9
$TREEDEPTH
 70
  3020
  9
$PICKSTYLE
 70
     1
  9
$CMLSTYLE
  2
STANDARD
  9
$CMLJUST
 70
     0
  9
$CMLSCALE
 40
1.0
  9
$SAVEIMAGES
 70
     1
  0
ENDSEC
  0
SECTION
  2
CLASSES
  0
CLASS
  1
ACDBDICTIONARYWDFLT
  2
AcDbDictionaryWithDefault
  3
AutoCAD 2000
 90
    32768
280
     0
281
     0
  0
CLASS
  1
ACDBPLACEHOLDER
  2
AcDbPlaceHolder
  3
AutoCAD 2000
 90
    32768
280
     0
281
     0
  0
CLASS
  1
LAYOUT
  2
AcDbLayout
  3
AutoCAD 2000
 90
    32768
280
     0
281
     0
  0
CLASS
  1
LONG_TRANSACTION
  2
AcDbLongTransaction
  3
AutoCAD 2000
 90
    32768
280
     0
281
     0
  0
CLASS
  1
LWPOLYLINE
  2
AcDbPolyline
  3
AutoCAD 2000
 90
    32768
280
     0
281
     1
  0
CLASS
  1
HATCH
  2
AcDbHatch
  3
AutoCAD 2000
 90
    32768
280
     0
281
     1
  0
CLASS
  1
XRECORD
  2
AcDbXrecord
  3
AutoCAD 2000
 90
    32768
280
     0
281
     0
  0
CLASS
  1
LONG_TRANSACTION
  2
AcDbLongTransaction
  3
AutoCAD 2000
 90
    32768
280
     0
281
     0
  0
CLASS
  1
LWPOLYLINE
  2
AcDbPolyline
  3
AutoCAD 2000
 90
    32768
280
     0
281
     1
  0
CLASS
  1
HATCH
  2
AcDbHatch
  3
AutoCAD 2000
 90
    32768
280
     0
281
     1
  0
CLASS
  1
XRECORD
  2
AcDbXrecord
  3
AutoCAD 2000
 90
    32768
280
     0
281
     0
  0
CLASS
  1
LONG_TRANSACTION
  2
AcDbLongTransaction
  3
AutoCAD 2000
 90
    32768
280
     0
281
     0
  0
CLASS
  1
LWPOLYLINE
  2
AcDbPolyline
  3
AutoCAD 2000
 90
    32768
280
     0
281
     1
  0
CLASS
  1
HATCH
  2
AcDbHatch
  3
AutoCAD 2000
 90
    32768
280
     0
281
     1
  0
CLASS
  1
XRECORD
  2
AcDbXrecord
  3
AutoCAD 2000
 90
    32768
280
     0
281
     0
  0
ENDSEC
  0
SECTION
  2
TABLES
  0
TABLE
  2
VPORT
  5
8
330
0
100
AcDbSymbolTable
 70
     2
  0
VPORT
  5
E5A
330
8
100
AcDbSymbolTableRecord
100
AcDbViewportTableRecord
  2
*ACTIVE
 70
     0
 10
0.0
 20
0.0
 11
1.0
 21
1.0
 12
517.0408476027671
 22
291.6000532101627
 13
0.0
 23
0.0
 14
5.0
 24
5.0
 15
0.0
 25
0.0
 16
0.0
 26
0.0
 36
1.0
 17
0.0
 27
0.0
 37
0.0
 40
585.7377382164536
 41
2.169459962756052
 42
50.0
 43
0.0
 44
0.0
 50
0.0
 51
0.0
 71
     0
 72
   100
 73
     1
 74
     0
 75
     0
 76
     0
 77
     0
 78
     0
  0
ENDTAB
  0
TABLE
  2
LTYPE
  5
5
330
0
100
AcDbSymbolTable
 70
     2
  0
LTYPE
  5
14
330
5
100
AcDbSymbolTableRecord
100
AcDbLinetypeTableRecord
  2
BYBLOCK
 70
     0
  3

 72
    65
 73
     0
 40
0.0
  0
LTYPE
  5
15
330
5
100
AcDbSymbolTableRecord
100
AcDbLinetypeTableRecord
  2
BYLAYER
 70
     0
  3

 72
    65
 73
     0
 40
0.0
  0
LTYPE
  5
16
330
5
100
AcDbSymbolTableRecord
100
AcDbLinetypeTableRecord
  2
CONTINUOUS
 70
     0
  3
Solid line
 72
    65
 73
     0
 40
0.0
  0
LTYPE
  5
135
330
5
100
AcDbSymbolTableRecord
100
AcDbLinetypeTableRecord
  2
CENTER
 70
     0
  3
____ _ ____ _ ____ _ ____ _ ____ _ ____ _ ____ 
 72
    65
 73
     4
 40
2.0
 49
1.25
 74
     0
 49
-0.25
 74
     0
 49
0.25
 74
     0
 49
-0.25
 74
     0
  0
ENDTAB
  0
TABLE
  2
LAYER
  5
2
330
0
100
AcDbSymbolTable
 70
     8
  0
LAYER
  5
F
330
2
100
AcDbSymbolTableRecord
100
AcDbLayerTableRecord
  2
0
 70
     0
 62
     7
  6
CONTINUOUS
  0
LAYER
  5
62
330
2
100
AcDbSymbolTableRecord
100
AcDbLayerTableRecord
  2
VIEWPORT
 70
     0
 62
     7
  6
CONTINUOUS
  0
LAYER
  5
65
330
2
100
AcDbSymbolTableRecord
100
AcDbLayerTableRecord
  2
ZUWAKU
 70
     0
 62
     7
  6
CONTINUOUS
  0
LAYER
  5
143
330
2
100
AcDbSymbolTableRecord
100
AcDbLayerTableRecord
  2
SEIHIN
 70
     0
 62
     3
  6
CONTINUOUS
  0
LAYER
  5
144
330
2
100
AcDbSymbolTableRecord
100
AcDbLayerTableRecord
  2
SUNPOU
 70
     0
 62
     4
  6
CONTINUOUS
  0
LAYER
  5
145
330
2
100
AcDbSymbolTableRecord
100
AcDbLayerTableRecord
  2
CENTER_L
 70
     0
 62
     1
  6
CENTER
  0
LAYER
  5
BFF
330
2
100
AcDbSymbolTableRecord
100
AcDbLayerTableRecord
  2
NOKITOI
 70
     0
 62
     6
  6
CONTINUOUS
  0
LAYER
  5
C08
330
2
100
AcDbSymbolTableRecord
100
AcDbLayerTableRecord
  2
DEFPOINTS
 70
     0
 62
     7
  6
CONTINUOUS
  0
ENDTAB
  0
TABLE
  2
STYLE
  5
3
330
0
100
AcDbSymbolTable
 70
     1
  0
STYLE
  5
10
330
3
100
AcDbSymbolTableRecord
100
AcDbTextStyleTableRecord
  2
STANDARD
 70
     0
 40
0.0
 41
1.0
 50
0.0
 71
     0
 42
5.0
  3
TXT
  4
bigfont.shx
  0
ENDTAB
  0
TABLE
  2
VIEW
  5
6
330
0
100
AcDbSymbolTable
 70
     0
  0
ENDTAB
  0
TABLE
  2
UCS
  5
7
330
0
100
AcDbSymbolTable
 70
     0
  0
ENDTAB
  0
TABLE
  2
APPID
  5
9
330
0
100
AcDbSymbolTable
 70
     1
  0
APPID
  5
11
330
9
100
AcDbSymbolTableRecord
100
AcDbRegAppTableRecord
  2
ACAD
 70
     0
  0
ENDTAB
  0
TABLE
  2
DIMSTYLE
  5
A
330
0
100
AcDbSymbolTable
 70
     1
  0
DIMSTYLE
105
1D
102
{ACAD_REACTORS
330
C0D
330
C3B
330
C48
330
C57
330
C64
330
C71
330
C98
330
D19
330
D56
330
D63
330
DB2
330
DBE
330
DCB
102
}
330
A
100
AcDbSymbolTableRecord
100
AcDbDimStyleTableRecord
  2
STANDARD
 70
     0
  3

  4

  5

  6

  7

 40
1.0
 41
0.18
 42
0.0625
 43
0.38
 44
0.18
 45
0.0
 46
0.0
 47
0.0
 48
0.0
140
0.18
141
0.09
142
0.0
143
25.4
144
1.0
145
0.0
146
1.0
147
0.09
 71
     0
 72
     0
 73
     1
 74
     1
 75
     0
 76
     0
 77
     0
 78
     0
170
     0
171
     2
172
     0
173
     0
174
     0
175
     0
176
     0
177
     0
178
     0
270
     2
271
     4
272
     4
273
     2
274
     2
340
10
275
     0
280
     0
281
     0
282
     0
283
     1
284
     0
285
     0
286
     0
287
     3
288
     0
  0
ENDTAB
  0
TABLE
  2
BLOCK_RECORD
  5
1
330
0
100
AcDbSymbolTable
 70
    14
  0
BLOCK_RECORD
  5
1A
102
{ACAD_XDICTIONARY
360
E08
102
}
330
1
100
AcDbSymbolTableRecord
100
AcDbBlockTableRecord
  2
*MODEL_SPACE
  0
BLOCK_RECORD
  5
17
102
{ACAD_XDICTIONARY
360
E06
102
}
330
1
100
AcDbSymbolTableRecord
100
AcDbBlockTableRecord
  2
*PAPER_SPACE
  0
BLOCK_RECORD
  5
6D
330
1
100
AcDbSymbolTableRecord
100
AcDbBlockTableRecord
  2
_OPEN
  0
BLOCK_RECORD
  5
C00
330
1
100
AcDbSymbolTableRecord
100
AcDbBlockTableRecord
  2
*D1
  0
BLOCK_RECORD
  5
C2F
330
1
100
AcDbSymbolTableRecord
100
AcDbBlockTableRecord
  2
*D2
  0
BLOCK_RECORD
  5
C3C
330
1
100
AcDbSymbolTableRecord
100
AcDbBlockTableRecord
  2
*D3
  0
BLOCK_RECORD
  5
C49
330
1
100
AcDbSymbolTableRecord
100
AcDbBlockTableRecord
  2
*D4
  0
BLOCK_RECORD
  5
C58
330
1
100
AcDbSymbolTableRecord
100
AcDbBlockTableRecord
  2
*D5
  0
BLOCK_RECORD
  5
C65
330
1
100
AcDbSymbolTableRecord
100
AcDbBlockTableRecord
  2
*D6
  0
BLOCK_RECORD
  5
C8C
330
1
100
AcDbSymbolTableRecord
100
AcDbBlockTableRecord
  2
*D7
  0
BLOCK_RECORD
  5
D0D
330
1
100
AcDbSymbolTableRecord
100
AcDbBlockTableRecord
  2
*D8
  0
BLOCK_RECORD
  5
D4A
330
1
100
AcDbSymbolTableRecord
100
AcDbBlockTableRecord
  2
*D9
  0
BLOCK_RECORD
  5
D57
330
1
100
AcDbSymbolTableRecord
100
AcDbBlockTableRecord
  2
*D10
  0
BLOCK_RECORD
  5
DA6
330
1
100
AcDbSymbolTableRecord
100
AcDbBlockTableRecord
  2
*D11
  0
BLOCK_RECORD
  5
DB3
330
1
100
AcDbSymbolTableRecord
100
AcDbBlockTableRecord
  2
*D12
  0
BLOCK_RECORD
  5
DBF
330
1
100
AcDbSymbolTableRecord
100
AcDbBlockTableRecord
  2
*D13
  0
ENDTAB
  0
ENDSEC
  0
SECTION
  2
BLOCKS
  0
BLOCK
  5
1B
330
1A
100
AcDbEntity
  8
0
100
AcDbBlockBegin
  2
*MODEL_SPACE
 70
     0
 10
0.0
 20
0.0
 30
0.0
  3
*MODEL_SPACE
  1

  0
ENDBLK
  5
1C
330
1A
100
AcDbEntity
  8
0
100
AcDbBlockEnd
  0
BLOCK
  5
18
330
17
100
AcDbEntity
 67
     1
  8
0
100
AcDbBlockBegin
  2
*PAPER_SPACE
 70
     0
 10
0.0
 20
0.0
 30
0.0
  3
*PAPER_SPACE
  1

  0
ENDBLK
  5
19
330
17
100
AcDbEntity
 67
     1
  8
0
100
AcDbBlockEnd
  0
BLOCK
  5
6E
330
6D
100
AcDbEntity
  8
0
100
AcDbBlockBegin
  2
_OPEN
 70
     0
 10
0.0
 20
0.0
 30
0.0
  3
_OPEN
  1

  0
LINE
  5
6F
330
6D
100
AcDbEntity
  8
0
  6
BYBLOCK
 62
     0
100
AcDbLine
 10
-1.0
 20
0.1666666666666666
 30
0.0
 11
0.0
 21
0.0
 31
0.0
  0
LINE
  5
70
330
6D
100
AcDbEntity
  8
0
  6
BYBLOCK
 62
     0
100
AcDbLine
 10
0.0
 20
0.0
 30
0.0
 11
-1.0
 21
-0.1666666666666666
 31
0.0
  0
LINE
  5
71
330
6D
100
AcDbEntity
  8
0
  6
BYBLOCK
 62
     0
100
AcDbLine
 10
0.0
 20
0.0
 30
0.0
 11
-1.0
 21
0.0
 31
0.0
  0
ENDBLK
  5
72
330
6D
100
AcDbEntity
  8
0
100
AcDbBlockEnd
  0
BLOCK
  5
C24
330
C00
100
AcDbEntity
  8
0
 48
5.0
100
AcDbBlockBegin
  2
*D1
 70
     1
 10
0.0
 20
0.0
 30
0.0
  3
*D1
  1

  0
LINE
  5
C25
330
C00
100
AcDbEntity
  8
0
  6
BYBLOCK
 62
     4
 48
5.0
100
AcDbLine
 10
232.7292323841412
 20
204.7103925209805
 30
0.0
 11
232.7292323841412
 21
220.9559940556498
 31
0.0
  0
LINE
  5
C26
330
C00
100
AcDbEntity
  8
0
  6
BYBLOCK
 62
     4
 48
5.0
100
AcDbLine
 10
92.72923238414115
 20
204.7095925289807
 30
0.0
 11
92.72923238414115
 21
220.9559940556498
 31
0.0
  0
LINE
  5
C27
330
C00
100
AcDbEntity
  8
0
  6
BYBLOCK
 62
     4
 48
5.0
100
AcDbLine
 10
225.7292323841412
 20
217.9559940556498
 30
0.0
 11
99.72923238414116
 21
217.9559940556498
 31
0.0
  0
INSERT
  5
C28
330
C00
100
AcDbEntity
  8
0
  6
BYBLOCK
 62
     4
 48
5.0
100
AcDbBlockReference
  2
_OPEN
 10
232.7292323841412
 20
217.9559940556498
 30
0.0
 41
7.0
 42
7.0
 43
7.0
  0
INSERT
  5
C29
330
C00
100
AcDbEntity
  8
0
  6
BYBLOCK
 62
     4
 48
5.0
100
AcDbBlockReference
  2
_OPEN
 10
92.72923238414115
 20
217.9559940556498
 30
0.0
 41
7.0
 42
7.0
 43
7.0
 50
180.0
  0
MTEXT
  5
C2A
330
C00
100
AcDbEntity
  8
0
  6
BYBLOCK
 62
     4
 48
5.0
100
AcDbMText
 10
162.7292323841412
 20
222.9559940556498
 30
0.0
 40
6.0
 41
0.0
 71
     5
 72
     1
  1
\A1;φ140
1001
ACAD
1000
MTEXTBEGIN
1070
    73
1070
     1
1070
    44
1040
1.0
1070
    74
1070
     0
1000
MTEXTEND
1000
MTEXTBEGIN
1070
    73
1070
     1
1070
    44
1040
1.0
1070
    74
1070
     0
1000
MTEXTEND
1000
MTEXTBEGIN
1070
    73
1070
     1
1070
    44
1040
1.0
1070
    74
1070
     0
1000
MTEXTEND
  0
POINT
  5
C2B
330
C00
100
AcDbEntity
  8
DEFPOINTS
  6
BYBLOCK
 62
     0
 48
5.0
100
AcDbPoint
 10
232.7292323841412
 20
198.7103925209805
 30
0.0
  0
POINT
  5
C2C
330
C00
100
AcDbEntity
  8
DEFPOINTS
  6
BYBLOCK
 62
     0
 48
5.0
100
AcDbPoint
 10
92.72923238414115
 20
198.7095925289807
 30
0.0
  0
POINT
  5
C2D
330
C00
100
AcDbEntity
  8
DEFPOINTS
  6
BYBLOCK
 62
     0
 48
5.0
100
AcDbPoint
 10
92.72923238414115
 20
217.9559940556498
 30
0.0
  0
ENDBLK
  5
C2E
330
C00
100
AcDbEntity
  8
0
 48
5.0
100
AcDbBlockEnd
  0
BLOCK
  5
CD0
330
C2F
100
AcDbEntity
  8
0
 48
5.0
100
AcDbBlockBegin
  2
*D2
 70
     1
 10
0.0
 20
0.0
 30
0.0
  3
*D2
  1

  0
LINE
  5
CD1
330
C2F
100
AcDbEntity
  8
0
  6
BYBLOCK
 62
     4
 48
5.0
100
AcDbLine
 10
456.6092217384804
 20
232.2078925209806
 30
0.0
 11
456.6092217384804
 21
286.0222129950568
 31
0.0
  0
LINE
  5
CD2
330
C2F
100
AcDbEntity
  8
0
  6
BYBLOCK
 62
     4
 48
5.0
100
AcDbLine
 10
362.5091217384804
 20
232.2078925209806
 30
0.0
 11
362.5091217384804
 21
286.0222129950568
 31
0.0
  0
LINE
  5
CD3
330
C2F
100
AcDbEntity
  8
0
  6
BYBLOCK
 62
     4
 48
5.0
100
AcDbLine
 10
449.6092217384804
 20
283.0222129950568
 30
0.0
 11
369.5091217384804
 21
283.0222129950568
 31
0.0
  0
INSERT
  5
CD4
330
C2F
100
AcDbEntity
  8
0
  6
BYBLOCK
 62
     4
 48
5.0
100
AcDbBlockReference
  2
_OPEN
 10
456.6092217384804
 20
283.0222129950568
 30
0.0
 41
7.0
 42
7.0
 43
7.0
  0
INSERT
  5
CD5
330
C2F
100
AcDbEntity
  8
0
  6
BYBLOCK
 62
     4
 48
5.0
100
AcDbBlockReference
  2
_OPEN
 10
362.5091217384804
 20
283.0222129950568
 30
0.0
 41
7.0
 42
7.0
 43
7.0
 50
180.0
  0
MTEXT
  5
CD6
330
C2F
100
AcDbEntity
  8
0
  6
BYBLOCK
 62
     4
 48
5.0
100
AcDbMText
 10
409.5591717384804
 20
288.0222129950568
 30
0.0
 40
6.0
 41
0.0
 71
     5
 72
     1
  1
\A1;φ94
1001
ACAD
1000
MTEXTBEGIN
1070
    73
1070
     1
1070
    44
1040
1.0
1070
    74
1070
     0
1000
MTEXTEND
1000
MTEXTBEGIN
1070
    73
1070
     1
1070
    44
1040
1.0
1070
    74
1070
     0
1000
MTEXTEND
1000
MTEXTBEGIN
1070
    73
1070
     1
1070
    44
1040
1.0
1070
    74
1070
     0
1000
MTEXTEND
  0
POINT
  5
CD7
330
C2F
100
AcDbEntity
  8
DEFPOINTS
  6
BYBLOCK
 62
     0
 48
5.0
100
AcDbPoint
 10
456.6092217384804
 20
226.2078925209806
 30
0.0
  0
POINT
  5
CD8
330
C2F
100
AcDbEntity
  8
DEFPOINTS
  6
BYBLOCK
 62
     0
 48
5.0
100
AcDbPoint
 10
362.5091217384804
 20
226.2078925209806
 30
0.0
  0
POINT
  5
CD9
330
C2F
100
AcDbEntity
  8
DEFPOINTS
  6
BYBLOCK
 62
     0
 48
5.0
100
AcDbPoint
 10
362.5091217384804
 20
283.0222129950568
 30
0.0
  0
ENDBLK
  5
CDA
330
C2F
100
AcDbEntity
  8
0
 48
5.0
100
AcDbBlockEnd
  0
BLOCK
  5
CAF
330
C3C
100
AcDbEntity
  8
0
 48
5.0
100
AcDbBlockBegin
  2
*D3
 70
     1
 10
0.0
 20
0.0
 30
0.0
  3
*D3
  1

  0
LINE
  5
CB0
330
C3C
100
AcDbEntity
  8
0
  6
BYBLOCK
 62
     4
 48
5.0
100
AcDbLine
 10
474.5591217384805
 20
211.6102925209807
 30
0.0
 11
474.5591217384805
 21
306.0307020853931
 31
0.0
  0
LINE
  5
CB1
330
C3C
100
AcDbEntity
  8
0
  6
BYBLOCK
 62
     4
 48
5.0
100
AcDbLine
 10
344.5591217384805
 20
211.6103925209806
 30
0.0
 11
344.5591217384805
 21
306.0307020853931
 31
0.0
  0
LINE
  5
CB2
330
C3C
100
AcDbEntity
  8
0
  6
BYBLOCK
 62
     4
 48
5.0
100
AcDbLine
 10
467.5591217384805
 20
303.0307020853931
 30
0.0
 11
351.5591217384804
 21
303.0307020853931
 31
0.0
  0
INSERT
  5
CB3
330
C3C
100
AcDbEntity
  8
0
  6
BYBLOCK
 62
     4
 48
5.0
100
AcDbBlockReference
  2
_OPEN
 10
474.5591217384805
 20
303.0307020853931
 30
0.0
 41
7.0
 42
7.0
 43
7.0
  0
INSERT
  5
CB4
330
C3C
100
AcDbEntity
  8
0
  6
BYBLOCK
 62
     4
 48
5.0
100
AcDbBlockReference
  2
_OPEN
 10
344.5591217384805
 20
303.0307020853931
 30
0.0
 41
7.0
 42
7.0
 43
7.0
 50
180.0
  0
MTEXT
  5
CB5
330
C3C
100
AcDbEntity
  8
0
  6
BYBLOCK
 62
     4
 48
5.0
100
AcDbMText
 10
409.5591217384805
 20
308.0307020853931
 30
0.0
 40
6.0
 41
0.0
 71
     5
 72
     1
  1
\A1;φ130
1001
ACAD
1000
MTEXTBEGIN
1070
    73
1070
     1
1070
    44
1040
1.0
1070
    74
1070
     0
1000
MTEXTEND
1000
MTEXTBEGIN
1070
    73
1070
     1
1070
    44
1040
1.0
1070
    74
1070
     0
1000
MTEXTEND
1000
MTEXTBEGIN
1070
    73
1070
     1
1070
    44
1040
1.0
1070
    74
1070
     0
1000
MTEXTEND
  0
POINT
  5
CB6
330
C3C
100
AcDbEntity
  8
DEFPOINTS
  6
BYBLOCK
 62
     0
 48
5.0
100
AcDbPoint
 10
474.5591217384805
 20
205.6102925209807
 30
0.0
  0
POINT
  5
CB7
330
C3C
100
AcDbEntity
  8
DEFPOINTS
  6
BYBLOCK
 62
     0
 48
5.0
100
AcDbPoint
 10
344.5591217384805
 20
205.6103925209806
 30
0.0
  0
POINT
  5
CB8
330
C3C
100
AcDbEntity
  8
DEFPOINTS
  6
BYBLOCK
 62
     0
 48
5.0
100
AcDbPoint
 10
344.5591217384805
 20
303.0307020853931
 30
0.0
  0
ENDBLK
  5
CB9
330
C3C
100
AcDbEntity
  8
0
 48
5.0
100
AcDbBlockEnd
  0
BLOCK
  5
C7F
330
C49
100
AcDbEntity
  8
0
 48
5.0
100
AcDbBlockBegin
  2
*D4
 70
     1
 10
0.0
 20
0.0
 30
0.0
  3
*D4
  1

  0
LINE
  5
C80
330
C49
100
AcDbEntity
  8
0
  6
BYBLOCK
 62
     4
 48
5.0
100
AcDbLine
 10
480.5591217384805
 20
205.6102925209807
 30
0.0
 11
501.8769219052053
 21
205.6102925209807
 31
0.0
  0
LINE
  5
C81
330
C49
100
AcDbEntity
  8
0
  6
BYBLOCK
 62
     4
 48
5.0
100
AcDbLine
 10
480.5592217384804
 20
202.4102925209807
 30
0.0
 11
501.8769219052053
 21
202.4102925209807
 31
0.0
  0
LINE
  5
C82
330
C49
100
AcDbEntity
  8
0
  6
BYBLOCK
 62
     4
 48
5.0
100
AcDbLine
 10
498.8769219052053
 20
195.4102925209807
 30
0.0
 11
498.8769219052053
 21
188.4102925209807
 31
0.0
  0
LINE
  5
C83
330
C49
100
AcDbEntity
  8
0
  6
BYBLOCK
 62
     4
 48
5.0
100
AcDbLine
 10
498.8769219052053
 20
212.6102925209806
 30
0.0
 11
498.8769219052053
 21
227.6102925209806
 31
0.0
  0
LINE
  5
C84
330
C49
100
AcDbEntity
  8
0
  6
BYBLOCK
 62
     4
 48
5.0
100
AcDbLine
 10
498.8769219052053
 20
202.4102925209807
 30
0.0
 11
498.8769219052053
 21
205.6102925209807
 31
0.0
  0
INSERT
  5
C85
330
C49
100
AcDbEntity
  8
0
  6
BYBLOCK
 62
     4
 48
5.0
100
AcDbBlockReference
  2
_OPEN
 10
498.8769219052053
 20
202.4102925209807
 30
0.0
 41
7.0
 42
7.0
 43
7.0
 50
90.0
  0
INSERT
  5
C86
330
C49
100
AcDbEntity
  8
0
  6
BYBLOCK
 62
     4
 48
5.0
100
AcDbBlockReference
  2
_OPEN
 10
498.8769219052053
 20
205.6102925209807
 30
0.0
 41
7.0
 42
7.0
 43
7.0
 50
270.0
  0
MTEXT
  5
C87
330
C49
100
AcDbEntity
  8
0
  6
BYBLOCK
 62
     4
 48
5.0
100
AcDbMText
 10
493.8769219052053
 20
223.6102925209806
 30
0.0
 40
6.0
 41
0.0
 71
     5
 72
     1
  1
\A1;3
 11
0.0
 21
1.0
 31
0.0
1001
ACAD
1000
MTEXTBEGIN
1070
    73
1070
     1
1070
    44
1040
1.0
1070
    74
1070
     0
1000
MTEXTEND
1000
MTEXTBEGIN
1070
    73
1070
     1
1070
    44
1040
1.0
1070
    74
1070
     0
1000
MTEXTEND
1000
MTEXTBEGIN
1070
    73
1070
     1
1070
    44
1040
1.0
1070
    74
1070
     0
1000
MTEXTEND
  0
POINT
  5
C88
330
C49
100
AcDbEntity
  8
DEFPOINTS
  6
BYBLOCK
 62
     0
 48
5.0
100
AcDbPoint
 10
474.5591217384805
 20
205.6102925209807
 30
0.0
  0
POINT
  5
C89
330
C49
100
AcDbEntity
  8
DEFPOINTS
  6
BYBLOCK
 62
     0
 48
5.0
100
AcDbPoint
 10
474.5592217384803
 20
202.4102925209807
 30
0.0
  0
POINT
  5
C8A
330
C49
100
AcDbEntity
  8
DEFPOINTS
  6
BYBLOCK
 62
     0
 48
5.0
100
AcDbPoint
 10
498.8769219052053
 20
202.4102925209807
 30
0.0
  0
ENDBLK
  5
C8B
330
C49
100
AcDbEntity
  8
0
 48
5.0
100
AcDbBlockEnd
  0
BLOCK
  5
C59
330
C58
100
AcDbEntity
  8
0
 48
5.0
100
AcDbBlockBegin
  2
*D5
 70
     1
 10
0.0
 20
0.0
 30
0.0
  3
*D5
  1

  0
LINE
  5
C5A
330
C58
100
AcDbEntity
  8
0
  6
BYBLOCK
 62
     4
 48
5.0
100
AcDbLine
 10
480.5592217384804
 20
202.4102925209807
 30
0.0
 11
519.873278005846
 21
202.4102925209807
 31
0.0
  0
LINE
  5
C5B
330
C58
100
AcDbEntity
  8
0
  6
BYBLOCK
 62
     4
 48
5.0
100
AcDbLine
 10
464.5579976967523
 20
162.4101925211136
 30
0.0
 11
519.873278005846
 21
162.4101925211136
 31
0.0
  0
LINE
  5
C5C
330
C58
100
AcDbEntity
  8
0
  6
BYBLOCK
 62
     4
 48
5.0
100
AcDbLine
 10
516.873278005846
 20
195.4102925209807
 30
0.0
 11
516.873278005846
 21
169.4101925211136
 31
0.0
  0
INSERT
  5
C5D
330
C58
100
AcDbEntity
  8
0
  6
BYBLOCK
 62
     4
 48
5.0
100
AcDbBlockReference
  2
_OPEN
 10
516.873278005846
 20
202.4102925209807
 30
0.0
 41
7.0
 42
7.0
 43
7.0
 50
90.0
  0
INSERT
  5
C5E
330
C58
100
AcDbEntity
  8
0
  6
BYBLOCK
 62
     4
 48
5.0
100
AcDbBlockReference
  2
_OPEN
 10
516.873278005846
 20
162.4101925211136
 30
0.0
 41
7.0
 42
7.0
 43
7.0
 50
270.0
  0
MTEXT
  5
C5F
330
C58
100
AcDbEntity
  8
0
  6
BYBLOCK
 62
     4
 48
5.0
100
AcDbMText
 10
511.873278005846
 20
182.4102425210472
 30
0.0
 40
6.0
 41
0.0
 71
     5
 72
     1
  1
\A1;40
 11
0.0
 21
1.0
 31
0.0
1001
ACAD
1000
MTEXTBEGIN
1070
    73
1070
     1
1070
    44
1040
1.0
1070
    74
1070
     0
1000
MTEXTEND
1000
MTEXTBEGIN
1070
    73
1070
     1
1070
    44
1040
1.0
1070
    74
1070
     0
1000
MTEXTEND
1000
MTEXTBEGIN
1070
    73
1070
     1
1070
    44
1040
1.0
1070
    74
1070
     0
1000
MTEXTEND
  0
POINT
  5
C60
330
C58
100
AcDbEntity
  8
DEFPOINTS
  6
BYBLOCK
 62
     0
 48
5.0
100
AcDbPoint
 10
474.5592217384803
 20
202.4102925209807
 30
0.0
  0
POINT
  5
C61
330
C58
100
AcDbEntity
  8
DEFPOINTS
  6
BYBLOCK
 62
     0
 48
5.0
100
AcDbPoint
 10
458.5579976967523
 20
162.4101925211136
 30
0.0
  0
POINT
  5
C62
330
C58
100
AcDbEntity
  8
DEFPOINTS
  6
BYBLOCK
 62
     0
 48
5.0
100
AcDbPoint
 10
516.873278005846
 20
162.4101925211136
 30
0.0
  0
ENDBLK
  5
C63
330
C58
100
AcDbEntity
  8
0
 48
5.0
100
AcDbBlockEnd
  0
BLOCK
  5
C66
330
C65
100
AcDbEntity
  8
0
 48
5.0
100
AcDbBlockBegin
  2
*D6
 70
     1
 10
0.0
 20
0.0
 30
0.0
  3
*D6
  1

  0
LINE
  5
C67
330
C65
100
AcDbEntity
  8
0
  6
BYBLOCK
 62
     4
 48
5.0
100
AcDbLine
 10
449.2938217384804
 20
260.6103925209806
 30
0.0
 11
538.6300433627286
 21
260.6103925209806
 31
0.0
  0
LINE
  5
C68
330
C65
100
AcDbEntity
  8
0
  6
BYBLOCK
 62
     4
 48
5.0
100
AcDbLine
 10
464.5579976967523
 20
162.4101925211136
 30
0.0
 11
538.6300433627286
 21
162.4101925211136
 31
0.0
  0
LINE
  5
C69
330
C65
100
AcDbEntity
  8
0
  6
BYBLOCK
 62
     4
 48
5.0
100
AcDbLine
 10
535.6300433627287
 20
253.6103925209806
 30
0.0
 11
535.6300433627287
 21
169.4101925211136
 31
0.0
  0
INSERT
  5
C6A
330
C65
100
AcDbEntity
  8
0
  6
BYBLOCK
 62
     4
 48
5.0
100
AcDbBlockReference
  2
_OPEN
 10
535.6300433627287
 20
260.6103925209806
 30
0.0
 41
7.0
 42
7.0
 43
7.0
 50
90.0
  0
INSERT
  5
C6B
330
C65
100
AcDbEntity
  8
0
  6
BYBLOCK
 62
     4
 48
5.0
100
AcDbBlockReference
  2
_OPEN
 10
535.6300433627287
 20
162.4101925211136
 30
0.0
 41
7.0
 42
7.0
 43
7.0
 50
270.0
  0
MTEXT
  5
C6C
330
C65
100
AcDbEntity
  8
0
  6
BYBLOCK
 62
     4
 48
5.0
100
AcDbMText
 10
530.6300433627286
 20
211.5102925210471
 30
0.0
 40
6.0
 41
0.0
 71
     5
 72
     1
  1
\A1;98
 11
0.0
 21
1.0
 31
0.0
1001
ACAD
1000
MTEXTBEGIN
1070
    73
1070
     1
1070
    44
1040
1.0
1070
    74
1070
     0
1000
MTEXTEND
1000
MTEXTBEGIN
1070
    73
1070
     1
1070
    44
1040
1.0
1070
    74
1070
     0
1000
MTEXTEND
1000
MTEXTBEGIN
1070
    73
1070
     1
1070
    44
1040
1.0
1070
    74
1070
     0
1000
MTEXTEND
  0
POINT
  5
C6D
330
C65
100
AcDbEntity
  8
DEFPOINTS
  6
BYBLOCK
 62
     0
 48
5.0
100
AcDbPoint
 10
443.2938217384805
 20
260.6103925209806
 30
0.0
  0
POINT
  5
C6E
330
C65
100
AcDbEntity
  8
DEFPOINTS
  6
BYBLOCK
 62
     0
 48
5.0
100
AcDbPoint
 10
458.5579976967523
 20
162.4101925211136
 30
0.0
  0
POINT
  5
C6F
330
C65
100
AcDbEntity
  8
DEFPOINTS
  6
BYBLOCK
 62
     0
 48
5.0
100
AcDbPoint
 10
535.6300433627287
 20
162.4101925211136
 30
0.0
  0
ENDBLK
  5
C70
330
C65
100
AcDbEntity
  8
0
 48
5.0
100
AcDbBlockEnd
  0
BLOCK
  5
CF1
330
C8C
100
AcDbEntity
  8
0
 48
5.0
100
AcDbBlockBegin
  2
*D7
 70
     1
 10
0.0
 20
0.0
 30
0.0
  3
*D7
  1

  0
LINE
  5
CF2
330
C8C
100
AcDbEntity
  8
0
  6
BYBLOCK
 62
     4
 48
5.0
100
AcDbLine
 10
460.407897696752
 20
158.4101887455956
 30
0.0
 11
460.407897696752
 21
133.2004331657522
 31
0.0
  0
LINE
  5
CF3
330
C8C
100
AcDbEntity
  8
0
  6
BYBLOCK
 62
     4
 48
5.0
100
AcDbLine
 10
358.7080293431696
 20
158.4102441111737
 30
0.0
 11
358.7080293431696
 21
133.2004331657522
 31
0.0
  0
LINE
  5
CF4
330
C8C
100
AcDbEntity
  8
0
  6
BYBLOCK
 62
     4
 48
5.0
100
AcDbLine
 10
453.407897696752
 20
136.2004331657522
 30
0.0
 11
365.7080293431697
 21
136.2004331657522
 31
0.0
  0
INSERT
  5
CF5
330
C8C
100
AcDbEntity
  8
0
  6
BYBLOCK
 62
     4
 48
5.0
100
AcDbBlockReference
  2
_OPEN
 10
460.407897696752
 20
136.2004331657522
 30
0.0
 41
7.0
 42
7.0
 43
7.0
  0
INSERT
  5
CF6
330
C8C
100
AcDbEntity
  8
0
  6
BYBLOCK
 62
     4
 48
5.0
100
AcDbBlockReference
  2
_OPEN
 10
358.7080293431696
 20
136.2004331657522
 30
0.0
 41
7.0
 42
7.0
 43
7.0
 50
180.0
  0
MTEXT
  5
CF7
330
C8C
100
AcDbEntity
  8
0
  6
BYBLOCK
 62
     4
 48
5.0
100
AcDbMText
 10
409.5579635199608
 20
141.2004331657522
 30
0.0
 40
6.0
 41
0.0
 71
     5
 72
     1
  1
\A1;φ102
1001
ACAD
1000
MTEXTBEGIN
1070
    73
1070
     1
1070
    44
1040
1.0
1070
    74
1070
     0
1000
MTEXTEND
1000
MTEXTBEGIN
1070
    73
1070
     1
1070
    44
1040
1.0
1070
    74
1070
     0
1000
MTEXTEND
1000
MTEXTBEGIN
1070
    73
1070
     1
1070
    44
1040
1.0
1070
    74
1070
     0
1000
MTEXTEND
  0
POINT
  5
CF8
330
C8C
100
AcDbEntity
  8
DEFPOINTS
  6
BYBLOCK
 62
     0
 48
5.0
100
AcDbPoint
 10
460.407897696752
 20
164.4101887455956
 30
0.0
  0
POINT
  5
CF9
330
C8C
100
AcDbEntity
  8
DEFPOINTS
  6
BYBLOCK
 62
     0
 48
5.0
100
AcDbPoint
 10
358.7080293431696
 20
164.4102441111737
 30
0.0
  0
POINT
  5
CFA
330
C8C
100
AcDbEntity
  8
DEFPOINTS
  6
BYBLOCK
 62
     0
 48
5.0
100
AcDbPoint
 10
358.7080293431696
 20
136.2004331657522
 30
0.0
  0
ENDBLK
  5
CFB
330
C8C
100
AcDbEntity
  8
0
 48
5.0
100
AcDbBlockEnd
  0
BLOCK
  5
D30
330
D0D
100
AcDbEntity
  8
0
 48
5.0
100
AcDbBlockBegin
  2
*D8
 70
     1
 10
0.0
 20
0.0
 30
0.0
  3
*D8
  1

  0
LINE
  5
D31
330
D0D
100
AcDbEntity
  8
0
  6
BYBLOCK
 62
     4
 48
5.0
100
AcDbLine
 10
744.3132224086205
 20
334.9235096329298
 30
0.0
 11
744.3132224086205
 21
273.614295069035
 31
0.0
  0
LINE
  5
D32
330
D0D
100
AcDbEntity
  8
0
  6
BYBLOCK
 62
     4
 48
5.0
100
AcDbLine
 10
641.3132229888301
 20
335.2916873859364
 30
0.0
 11
641.3132229888301
 21
273.614295069035
 31
0.0
  0
LINE
  5
D33
330
D0D
100
AcDbEntity
  8
0
  6
BYBLOCK
 62
     4
 48
5.0
100
AcDbLine
 10
737.3132224086205
 20
276.614295069035
 30
0.0
 11
648.3132229888301
 21
276.614295069035
 31
0.0
  0
INSERT
  5
D34
330
D0D
100
AcDbEntity
  8
0
  6
BYBLOCK
 62
     4
 48
5.0
100
AcDbBlockReference
  2
_OPEN
 10
744.3132224086205
 20
276.614295069035
 30
0.0
 41
7.0
 42
7.0
 43
7.0
  0
INSERT
  5
D35
330
D0D
100
AcDbEntity
  8
0
  6
BYBLOCK
 62
     4
 48
5.0
100
AcDbBlockReference
  2
_OPEN
 10
641.3132229888301
 20
276.614295069035
 30
0.0
 41
7.0
 42
7.0
 43
7.0
 50
180.0
  0
MTEXT
  5
D36
330
D0D
100
AcDbEntity
  8
0
  6
BYBLOCK
 62
     4
 48
5.0
100
AcDbMText
 10
692.8132226987253
 20
281.614295069035
 30
0.0
 40
6.0
 41
0.0
 71
     5
 72
     1
  1
\A1;穴径 φ103
1001
ACAD
1000
MTEXTBEGIN
1070
    73
1070
     1
1070
    44
1040
1.0
1070
    74
1070
     0
1000
MTEXTEND
1000
MTEXTBEGIN
1070
    73
1070
     1
1070
    44
1040
1.0
1070
    74
1070
     0
1000
MTEXTEND
1000
MTEXTBEGIN
1070
    73
1070
     1
1070
    44
1040
1.0
1070
    74
1070
     0
1000
MTEXTEND
  0
POINT
  5
D37
330
D0D
100
AcDbEntity
  8
DEFPOINTS
  6
BYBLOCK
 62
     0
 48
5.0
100
AcDbPoint
 10
744.3132224086205
 20
340.9235096329298
 30
0.0
  0
POINT
  5
D38
330
D0D
100
AcDbEntity
  8
DEFPOINTS
  6
BYBLOCK
 62
     0
 48
5.0
100
AcDbPoint
 10
641.3132229888301
 20
341.2916873859364
 30
0.0
  0
POINT
  5
D39
330
D0D
100
AcDbEntity
  8
DEFPOINTS
  6
BYBLOCK
 62
     0
 48
5.0
100
AcDbPoint
 10
641.3132229888301
 20
276.614295069035
 30
0.0
  0
ENDBLK
  5
D3A
330
D0D
100
AcDbEntity
  8
0
 48
5.0
100
AcDbBlockEnd
  0
BLOCK
  5
D7A
330
D4A
100
AcDbEntity
  8
0
 48
5.0
100
AcDbBlockBegin
  2
*D9
 70
     1
 10
0.0
 20
0.0
 30
0.0
  3
*D9
  1

  0
LINE
  5
D7B
330
D4A
100
AcDbEntity
  8
0
  6
BYBLOCK
 62
     4
 48
5.0
100
AcDbLine
 10
211.9808323841412
 20
93.71029252098059
 30
0.0
 11
211.9808323841412
 21
66.92803479499821
 31
0.0
  0
LINE
  5
D7C
330
D4A
100
AcDbEntity
  8
0
  6
BYBLOCK
 62
     4
 48
5.0
100
AcDbLine
 10
113.4774323841412
 20
93.7103925209807
 30
0.0
 11
113.4774323841412
 21
66.92803479499821
 31
0.0
  0
LINE
  5
D7D
330
D4A
100
AcDbEntity
  8
0
  6
BYBLOCK
 62
     4
 48
5.0
100
AcDbLine
 10
204.9808323841412
 20
69.92803479499821
 30
0.0
 11
120.4774323841412
 21
69.92803479499821
 31
0.0
  0
INSERT
  5
D7E
330
D4A
100
AcDbEntity
  8
0
  6
BYBLOCK
 62
     4
 48
5.0
100
AcDbBlockReference
  2
_OPEN
 10
211.9808323841412
 20
69.92803479499821
 30
0.0
 41
7.0
 42
7.0
 43
7.0
  0
INSERT
  5
D7F
330
D4A
100
AcDbEntity
  8
0
  6
BYBLOCK
 62
     4
 48
5.0
100
AcDbBlockReference
  2
_OPEN
 10
113.4774323841412
 20
69.92803479499821
 30
0.0
 41
7.0
 42
7.0
 43
7.0
 50
180.0
  0
MTEXT
  5
D80
330
D4A
100
AcDbEntity
  8
0
  6
BYBLOCK
 62
     4
 48
5.0
100
AcDbMText
 10
162.7291323841412
 20
74.92803479499821
 30
0.0
 40
6.0
 41
0.0
 71
     5
 72
     1
  1
\A1;φ99
1001
ACAD
1000
MTEXTBEGIN
1070
    73
1070
     1
1070
    44
1040
1.0
1070
    74
1070
     0
1000
MTEXTEND
1000
MTEXTBEGIN
1070
    73
1070
     1
1070
    44
1040
1.0
1070
    74
1070
     0
1000
MTEXTEND
1000
MTEXTBEGIN
1070
    73
1070
     1
1070
    44
1040
1.0
1070
    74
1070
     0
1000
MTEXTEND
  0
POINT
  5
D81
330
D4A
100
AcDbEntity
  8
DEFPOINTS
  6
BYBLOCK
 62
     0
 48
5.0
100
AcDbPoint
 10
211.9808323841412
 20
99.71029252098061
 30
0.0
  0
POINT
  5
D82
330
D4A
100
AcDbEntity
  8
DEFPOINTS
  6
BYBLOCK
 62
     0
 48
5.0
100
AcDbPoint
 10
113.4774323841412
 20
99.71039252098069
 30
0.0
  0
POINT
  5
D83
330
D4A
100
AcDbEntity
  8
DEFPOINTS
  6
BYBLOCK
 62
     0
 48
5.0
100
AcDbPoint
 10
113.4774323841412
 20
69.92803479499821
 30
0.0
  0
ENDBLK
  5
D84
330
D4A
100
AcDbEntity
  8
0
 48
5.0
100
AcDbBlockEnd
  0
BLOCK
  5
D9B
330
D57
100
AcDbEntity
  8
0
 48
5.0
100
AcDbBlockBegin
  2
*D10
 70
     1
 10
0.0
 20
0.0
 30
0.0
  3
*D10
  1

  0
LINE
  5
D9C
330
D57
100
AcDbEntity
  8
0
  6
BYBLOCK
 62
     4
 48
5.0
100
AcDbLine
 10
215.0291323841412
 20
134.7103925209806
 30
0.0
 11
215.0291323841412
 21
45.66335454887417
 31
0.0
  0
LINE
  5
D9D
330
D57
100
AcDbEntity
  8
0
  6
BYBLOCK
 62
     4
 48
5.0
100
AcDbLine
 10
110.4291323841412
 20
134.7103925209806
 30
0.0
 11
110.4291323841412
 21
45.66335454887417
 31
0.0
  0
LINE
  5
D9E
330
D57
100
AcDbEntity
  8
0
  6
BYBLOCK
 62
     4
 48
5.0
100
AcDbLine
 10
208.0291323841412
 20
48.66335454887416
 30
0.0
 11
117.4291323841412
 21
48.66335454887416
 31
0.0
  0
INSERT
  5
D9F
330
D57
100
AcDbEntity
  8
0
  6
BYBLOCK
 62
     4
 48
5.0
100
AcDbBlockReference
  2
_OPEN
 10
215.0291323841412
 20
48.66335454887416
 30
0.0
 41
7.0
 42
7.0
 43
7.0
  0
INSERT
  5
DA0
330
D57
100
AcDbEntity
  8
0
  6
BYBLOCK
 62
     4
 48
5.0
100
AcDbBlockReference
  2
_OPEN
 10
110.4291323841412
 20
48.66335454887416
 30
0.0
 41
7.0
 42
7.0
 43
7.0
 50
180.0
  0
MTEXT
  5
DA1
330
D57
100
AcDbEntity
  8
0
  6
BYBLOCK
 62
     4
 48
5.0
100
AcDbMText
 10
162.7291323841412
 20
53.66335454887416
 30
0.0
 40
6.0
 41
0.0
 71
     5
 72
     1
  1
\A1;φ105
1001
ACAD
1000
MTEXTBEGIN
1070
    73
1070
     1
1070
    44
1040
1.0
1070
    74
1070
     0
1000
MTEXTEND
1000
MTEXTBEGIN
1070
    73
1070
     1
1070
    44
1040
1.0
1070
    74
1070
     0
1000
MTEXTEND
1000
MTEXTBEGIN
1070
    73
1070
     1
1070
    44
1040
1.0
1070
    74
1070
     0
1000
MTEXTEND
  0
POINT
  5
DA2
330
D57
100
AcDbEntity
  8
DEFPOINTS
  6
BYBLOCK
 62
     0
 48
5.0
100
AcDbPoint
 10
215.0291323841412
 20
140.7103925209806
 30
0.0
  0
POINT
  5
DA3
330
D57
100
AcDbEntity
  8
DEFPOINTS
  6
BYBLOCK
 62
     0
 48
5.0
100
AcDbPoint
 10
110.4291323841412
 20
140.7103925209806
 30
0.0
  0
POINT
  5
DA4
330
D57
100
AcDbEntity
  8
DEFPOINTS
  6
BYBLOCK
 62
     0
 48
5.0
100
AcDbPoint
 10
110.4291323841412
 20
48.66335454887416
 30
0.0
  0
ENDBLK
  5
DA5
330
D57
100
AcDbEntity
  8
0
 48
5.0
100
AcDbBlockEnd
  0
BLOCK
  5
DA7
330
DA6
100
AcDbEntity
  8
0
 48
5.0
100
AcDbBlockBegin
  2
*D11
 70
     1
 10
0.0
 20
0.0
 30
0.0
  3
*D11
  1

  0
LINE
  5
DA8
330
DA6
100
AcDbEntity
  8
0
  6
BYBLOCK
 62
     4
 48
5.0
100
AcDbLine
 10
226.9292323841411
 20
244.7103925209805
 30
0.0
 11
250.7121984531529
 21
244.7103925209805
 31
0.0
  0
LINE
  5
DA9
330
DA6
100
AcDbEntity
  8
0
  6
BYBLOCK
 62
     4
 48
5.0
100
AcDbLine
 10
221.0291323841412
 20
195.7103925209807
 30
0.0
 11
250.7121984531529
 21
195.7103925209807
 31
0.0
  0
LINE
  5
DAA
330
DA6
100
AcDbEntity
  8
0
  6
BYBLOCK
 62
     4
 48
5.0
100
AcDbLine
 10
247.7121984531529
 20
237.7103925209805
 30
0.0
 11
247.7121984531529
 21
202.7103925209806
 31
0.0
  0
INSERT
  5
DAB
330
DA6
100
AcDbEntity
  8
0
  6
BYBLOCK
 62
     4
 48
5.0
100
AcDbBlockReference
  2
_OPEN
 10
247.7121984531529
 20
244.7103925209805
 30
0.0
 41
7.0
 42
7.0
 43
7.0
 50
90.0
  0
INSERT
  5
DAC
330
DA6
100
AcDbEntity
  8
0
  6
BYBLOCK
 62
     4
 48
5.0
100
AcDbBlockReference
  2
_OPEN
 10
247.7121984531529
 20
195.7103925209807
 30
0.0
 41
7.0
 42
7.0
 43
7.0
 50
270.0
  0
MTEXT
  5
DAD
330
DA6
100
AcDbEntity
  8
0
  6
BYBLOCK
 62
     4
 48
5.0
100
AcDbMText
 10
242.7121984531529
 20
220.2103925209806
 30
0.0
 40
6.0
 41
0.0
 71
     5
 72
     1
  1
\A1;49
 11
0.0
 21
1.0
 31
0.0
1001
ACAD
1000
MTEXTBEGIN
1070
    73
1070
     1
1070
    44
1040
1.0
1070
    74
1070
     0
1000
MTEXTEND
1000
MTEXTBEGIN
1070
    73
1070
     1
1070
    44
1040
1.0
1070
    74
1070
     0
1000
MTEXTEND
1000
MTEXTBEGIN
1070
    73
1070
     1
1070
    44
1040
1.0
1070
    74
1070
     0
1000
MTEXTEND
  0
POINT
  5
DAE
330
DA6
100
AcDbEntity
  8
DEFPOINTS
  6
BYBLOCK
 62
     0
 48
5.0
100
AcDbPoint
 10
220.9292323841411
 20
244.7103925209805
 30
0.0
  0
POINT
  5
DAF
330
DA6
100
AcDbEntity
  8
DEFPOINTS
  6
BYBLOCK
 62
     0
 48
5.0
100
AcDbPoint
 10
215.0291323841412
 20
195.7103925209807
 30
0.0
  0
POINT
  5
DB0
330
DA6
100
AcDbEntity
  8
DEFPOINTS
  6
BYBLOCK
 62
     0
 48
5.0
100
AcDbPoint
 10
247.7121984531529
 20
195.7103925209807
 30
0.0
  0
ENDBLK
  5
DB1
330
DA6
100
AcDbEntity
  8
0
 48
5.0
100
AcDbBlockEnd
  0
BLOCK
  5
DB4
330
DB3
100
AcDbEntity
  8
0
 48
5.0
100
AcDbBlockBegin
  2
*D12
 70
     1
 10
0.0
 20
0.0
 30
0.0
  3
*D12
  1

  0
LINE
  5
E5D
330
DB3
100
AcDbEntity
  8
SUNPOU
  6
CONTINUOUS
 62
     4
 48
5.0
100
AcDbLine
 10
217.0291323841412
 20
150.7103925209806
 30
0.0
 11
250.7121984531529
 21
150.7103925209806
 31
0.0
  0
LINE
  5
E5E
330
DB3
100
AcDbEntity
  8
SUNPOU
  6
CONTINUOUS
 62
     4
 48
5.0
100
AcDbLine
 10
247.7121984531529
 20
188.7103925209807
 30
0.0
 11
247.7121984531529
 21
157.7103925209806
 31
0.0
  0
INSERT
  5
E5F
330
DB3
100
AcDbEntity
  8
SUNPOU
  6
CONTINUOUS
 62
     4
 48
5.0
100
AcDbBlockReference
  2
_OPEN
 10
247.7121984531529
 20
195.7103925209807
 30
0.0
 41
7.0
 42
7.0
 43
7.0
 50
90.0
  0
INSERT
  5
E60
330
DB3
100
AcDbEntity
  8
SUNPOU
  6
CONTINUOUS
 62
     4
 48
5.0
100
AcDbBlockReference
  2
_OPEN
 10
247.7121984531529
 20
150.7103925209806
 30
0.0
 41
7.0
 42
7.0
 43
7.0
 50
270.0
  0
MTEXT
  5
E61
330
DB3
100
AcDbEntity
  8
SUNPOU
  6
CONTINUOUS
 62
     4
 48
5.0
100
AcDbMText
 10
242.7121984531529
 20
173.2103925209807
 30
0.0
 40
6.0
 41
0.0
 71
     5
 72
     1
  1
\A1;45
 11
0.0000000000000001
 21
1.0
 31
0.0
  0
POINT
  5
E62
330
DB3
100
AcDbEntity
  8
DEFPOINTS
  6
CONTINUOUS
 62
     0
 48
5.0
100
AcDbPoint
 10
215.0291323841412
 20
195.7103925209807
 30
0.0
  0
POINT
  5
E63
330
DB3
100
AcDbEntity
  8
DEFPOINTS
  6
CONTINUOUS
 62
     0
 48
5.0
100
AcDbPoint
 10
211.0291323841412
 20
150.7103925209806
 30
0.0
  0
POINT
  5
E64
330
DB3
100
AcDbEntity
  8
DEFPOINTS
  6
CONTINUOUS
 62
     0
 48
5.0
100
AcDbPoint
 10
247.7121984531529
 20
150.7103925209806
 30
0.0
  0
ENDBLK
  5
DBD
330
DB3
100
AcDbEntity
  8
0
 48
5.0
100
AcDbBlockEnd
  0
BLOCK
  5
DC0
330
DBF
100
AcDbEntity
  8
0
 48
5.0
100
AcDbBlockBegin
  2
*D13
 70
     1
 10
0.0
 20
0.0
 30
0.0
  3
*D13
  1

  0
LINE
  5
DC1
330
DBF
100
AcDbEntity
  8
0
  6
BYBLOCK
 62
     4
 48
5.0
100
AcDbLine
 10
238.7292323841412
 20
253.7103925209805
 30
0.0
 11
273.2318206550296
 21
253.7103925209805
 31
0.0
  0
LINE
  5
DC2
330
DBF
100
AcDbEntity
  8
0
  6
BYBLOCK
 62
     4
 48
5.0
100
AcDbLine
 10
217.0291323841412
 20
150.7103925209806
 30
0.0
 11
273.2318206550296
 21
150.7103925209806
 31
0.0
  0
LINE
  5
DC3
330
DBF
100
AcDbEntity
  8
0
  6
BYBLOCK
 62
     4
 48
5.0
100
AcDbLine
 10
270.2318206550296
 20
246.7103925209805
 30
0.0
 11
270.2318206550296
 21
157.7103925209806
 31
0.0
  0
INSERT
  5
DC4
330
DBF
100
AcDbEntity
  8
0
  6
BYBLOCK
 62
     4
 48
5.0
100
AcDbBlockReference
  2
_OPEN
 10
270.2318206550296
 20
253.7103925209805
 30
0.0
 41
7.0
 42
7.0
 43
7.0
 50
90.0
  0
INSERT
  5
DC5
330
DBF
100
AcDbEntity
  8
0
  6
BYBLOCK
 62
     4
 48
5.0
100
AcDbBlockReference
  2
_OPEN
 10
270.2318206550296
 20
150.7103925209806
 30
0.0
 41
7.0
 42
7.0
 43
7.0
 50
270.0
  0
MTEXT
  5
DC6
330
DBF
100
AcDbEntity
  8
0
  6
BYBLOCK
 62
     4
 48
5.0
100
AcDbMText
 10
265.2318206550296
 20
202.2103925209806
 30
0.0
 40
6.0
 41
0.0
 71
     5
 72
     1
  1
\A1;103
 11
0.0
 21
1.0
 31
0.0
1001
ACAD
1000
MTEXTBEGIN
1070
    73
1070
     1
1070
    44
1040
1.0
1070
    74
1070
     0
1000
MTEXTEND
1000
MTEXTBEGIN
1070
    73
1070
     1
1070
    44
1040
1.0
1070
    74
1070
     0
1000
MTEXTEND
1000
MTEXTBEGIN
1070
    73
1070
     1
1070
    44
1040
1.0
1070
    74
1070
     0
1000
MTEXTEND
  0
POINT
  5
DC7
330
DBF
100
AcDbEntity
  8
DEFPOINTS
  6
BYBLOCK
 62
     0
 48
5.0
100
AcDbPoint
 10
232.7292323841412
 20
253.7103925209805
 30
0.0
  0
POINT
  5
DC8
330
DBF
100
AcDbEntity
  8
DEFPOINTS
  6
BYBLOCK
 62
     0
 48
5.0
100
AcDbPoint
 10
211.0291323841412
 20
150.7103925209806
 30
0.0
  0
POINT
  5
DC9
330
DBF
100
AcDbEntity
  8
DEFPOINTS
  6
BYBLOCK
 62
     0
 48
5.0
100
AcDbPoint
 10
270.2318206550296
 20
150.7103925209806
 30
0.0
  0
ENDBLK
  5
DCA
330
DBF
100
AcDbEntity
  8
0
 48
5.0
100
AcDbBlockEnd
  0
ENDSEC
  0
SECTION
  2
ENTITIES
  0
TEXT
  5
11A
330
1A
100
AcDbEntity
  8
ZUWAKU
 62
     7
 48
10.0
100
AcDbText
 10
795.5579444309237
 20
4.974918402528146
 30
0.0
 40
8.0
  1
A1
100
AcDbText
  0
LINE
  5
11B
330
1A
100
AcDbEntity
  8
ZUWAKU
 62
     7
 48
10.0
100
AcDbLine
 10
10.05047808566086
 20
25.78258628282265
 30
0.0
 11
806.0504780856609
 21
25.78258628282253
 31
0.0
  0
LINE
  5
11C
330
1A
100
AcDbEntity
  8
ZUWAKU
  6
CONTINUOUS
 62
     7
100
AcDbLine
 10
806.0504780856609
 20
563.7825862828226
 30
0.0
 11
10.05047808566086
 21
563.7825862828226
 31
0.0
  0
LINE
  5
11D
330
1A
100
AcDbEntity
  8
ZUWAKU
  6
CONTINUOUS
 62
     7
100
AcDbLine
 10
806.0504780856609
 20
13.78258628282265
 30
0.0
 11
10.05047808566086
 21
13.78258628282265
 31
0.0
  0
LINE
  5
11E
330
1A
100
AcDbEntity
  8
ZUWAKU
  6
CONTINUOUS
 62
     7
100
AcDbLine
 10
10.05047808566086
 20
563.7825862828226
 30
0.0
 11
10.05047808566086
 21
13.78258628282265
 31
0.0
  0
LINE
  5
11F
330
1A
100
AcDbEntity
  8
ZUWAKU
 62
     7
 48
10.0
100
AcDbLine
 10
44.55797523147839
 20
13.78258628282265
 30
0.0
 11
44.5579752314784
 21
25.78258628282265
 31
0.0
  0
TEXT
  5
120
330
1A
100
AcDbEntity
  8
ZUWAKU
 62
     7
100
AcDbText
 10
16.05676551180931
 20
15.52294263804401
 30
0.0
 40
8.0
  1
品 種
100
AcDbText
  0
LINE
  5
121
330
1A
100
AcDbEntity
  8
ZUWAKU
 62
     7
 48
10.0
100
AcDbLine
 10
276.1028387068254
 20
13.78258628282265
 30
0.0
 11
276.1028387068254
 21
25.78258628282261
 31
0.0
  0
LINE
  5
122
330
1A
100
AcDbEntity
  8
ZUWAKU
 62
     7
 48
10.0
100
AcDbLine
 10
209.5138526425484
 20
13.78258628282265
 30
0.0
 11
209.5138526425485
 21
25.78258628282263
 31
0.0
  0
TEXT
  5
124
330
1A
100
AcDbEntity
  8
ZUWAKU
 62
     7
100
AcDbText
 10
215.4560837190756
 20
16.18358115302453
 30
0.0
 40
8.0
  1
品名・ｻ ｲ ｽﾞ
100
AcDbText
  0
LINE
  5
126
330
1A
100
AcDbEntity
  8
ZUWAKU
 62
     7
 48
10.0
100
AcDbLine
 10
768.7231079932794
 20
13.78258628282237
 30
0.0
 11
768.7231079932794
 21
25.78258628282254
 31
0.0
  0
LINE
  5
127
330
1A
100
AcDbEntity
  8
ZUWAKU
 62
     7
 48
10.0
100
AcDbLine
 10
733.8119002376948
 20
13.78258628282242
 30
0.0
 11
733.8119002376946
 21
25.78258628282254
 31
0.0
  0
TEXT
  5
128
330
1A
100
AcDbEntity
  8
ZUWAKU
 62
     7
100
AcDbText
 10
739.6955629973526
 20
15.24227755810852
 30
0.0
 40
8.0
  1
尺 度
100
AcDbText
  0
TEXT
  5
129
330
1A
100
AcDbEntity
  8
ZUWAKU
 62
     7
100
AcDbText
 10
779.7374630323229
 20
15.55488920081529
 30
0.0
 40
8.0
  1
1/2
100
AcDbText
  0
TEXT
  5
12B
330
1A
100
AcDbEntity
  8
ZUWAKU
 62
     7
100
AcDbText
 10
620.3363288383084
 20
15.6519090944263
 30
0.0
 40
8.0
  1
品 番
100
AcDbText
  0
LINE
  5
12C
330
1A
100
AcDbEntity
  8
ZUWAKU
 62
     7
 48
10.0
100
AcDbLine
 10
614.3351028194128
 20
13.78258628282232
 30
0.0
 11
614.3351028194128
 21
25.78258628282256
 31
0.0
  0
LINE
  5
12D
330
1A
100
AcDbEntity
  8
ZUWAKU
 62
     7
 48
10.0
100
AcDbLine
 10
648.7607587371021
 20
13.78258628282232
 30
0.0
 11
648.7607587371021
 21
25.78258628282255
 31
0.0
  0
TEXT
  5
12E
330
1A
100
AcDbEntity
  8
ZUWAKU
 62
     7
 48
10.0
100
AcDbText
 10
646.2758615931216
 20
4.949376903717848
 30
0.0
 40
8.0
  1
積水化学工業株式会社  建材
100
AcDbText
  0
LINE
  5
12F
330
1A
100
AcDbEntity
  8
ZUWAKU
  6
CONTINUOUS
 62
     7
100
AcDbLine
 10
806.0504780856609
 20
563.7825862828226
 30
0.0
 11
806.0504780856609
 21
13.78258628282265
 31
0.0
  0
LINE
  5
48C
330
1A
100
AcDbEntity
  8
CENTER_L
 48
5.0
100
AcDbLine
 10
162.7291323841412
 20
142.6626925209806
 30
0.0
 11
162.7291966492887
 21
260.7099925248907
 31
0.0
  0
TEXT
  5
49B
330
1A
100
AcDbEntity
  8
ZUWAKU
 62
     7
100
AcDbText
 10
50.3519382305086
 20
16.10306189639755
 30
0.0
 40
8.0
  1
自在ドレン
100
AcDbText
  0
TEXT
  5
4A9
330
1A
100
AcDbEntity
  8
ZUWAKU
 62
     7
100
AcDbText
 10
282.3131429914078
 20
15.64241700452384
 30
0.0
 40
8.0
  1
ＶＵ・ＶＰ１００（内カン合）
100
AcDbText
  0
LINE
  5
4BB
330
1A
100
AcDbEntity
  8
SEIHIN
  6
CONTINUOUS
100
AcDbLine
 10
110.4291323841412
 20
203.7104925209807
 30
0.0
 11
215.6536323841411
 21
203.7104925209806
 31
0.0
  0
LINE
  5
4BC
330
1A
100
AcDbEntity
  8
SEIHIN
  6
CONTINUOUS
100
AcDbLine
 10
173.2291323841411
 20
161.7103925209806
 30
0.0
 11
152.2291323841412
 21
161.7103925209805
 31
0.0
  0
LINE
  5
4BD
330
1A
100
AcDbEntity
  8
SEIHIN
  6
CONTINUOUS
100
AcDbLine
 10
153.2291323841412
 20
160.7103925209806
 30
0.0
 11
172.2291323841411
 21
160.7103925209806
 31
0.0
  0
LINE
  5
4BE
330
1A
100
AcDbEntity
  8
SEIHIN
  6
CONTINUOUS
100
AcDbLine
 10
215.0291323841412
 20
199.7103925209806
 30
0.0
 11
110.4291323841412
 21
199.7103925209806
 31
0.0
  0
LINE
  5
4BF
330
1A
100
AcDbEntity
  8
SEIHIN
  6
CONTINUOUS
100
AcDbLine
 10
110.4291323841412
 20
195.7103925209807
 30
0.0
 11
215.0291323841412
 21
195.7103925209807
 31
0.0
  0
LINE
  5
4C1
330
1A
100
AcDbEntity
  8
SEIHIN
  6
CONTINUOUS
100
AcDbLine
 10
232.5190323841411
 20
250.7103925209806
 30
0.0
 11
92.93934429497616
 21
250.7105925211068
 31
0.0
  0
LINE
  5
4C2
330
1A
100
AcDbEntity
  8
SEIHIN
  6
CONTINUOUS
100
AcDbLine
 10
232.7292323841412
 20
253.7103925209805
 30
0.0
 11
92.72923238414115
 21
253.7095925289806
 31
0.0
  0
LINE
  5
4C3
330
1A
100
AcDbEntity
  8
SEIHIN
  6
CONTINUOUS
100
AcDbLine
 10
104.5320822424873
 20
244.7089925841221
 30
0.0
 11
220.9292323841411
 21
244.7103925209805
 31
0.0
  0
LINE
  5
4C6
330
1A
100
AcDbEntity
  8
SEIHIN
  6
CONTINUOUS
100
AcDbLine
 10
109.8047323841411
 20
203.7108925209806
 30
0.0
 11
108.5375323841412
 21
244.4385925209807
 31
0.0
  0
LINE
  5
4C7
330
1A
100
AcDbEntity
  8
SEIHIN
  6
CONTINUOUS
100
AcDbLine
 10
113.4774323841412
 20
154.7103925209806
 30
0.0
 11
113.4775323841411
 21
195.7104925209806
 31
0.0
  0
LINE
  5
4C8
330
1A
100
AcDbEntity
  8
SEIHIN
  6
CONTINUOUS
100
AcDbLine
 10
113.4774323841412
 20
154.7103925209806
 30
0.0
 11
151.2291323841412
 21
154.7103925209806
 31
0.0
  0
LINE
  5
4C9
330
1A
100
AcDbEntity
  8
SEIHIN
  6
CONTINUOUS
100
AcDbLine
 10
114.4291323841411
 20
150.7103925209806
 30
0.0
 11
152.2291323841412
 21
150.7103925209806
 31
0.0
  0
LINE
  5
4CD
330
1A
100
AcDbEntity
  8
SEIHIN
  6
CONTINUOUS
100
AcDbLine
 10
114.4291323841411
 20
150.7103925209806
 30
0.0
 11
113.4774323841412
 21
154.7103925209806
 31
0.0
  0
LINE
  5
4CE
330
1A
100
AcDbEntity
  8
SEIHIN
  6
CONTINUOUS
100
AcDbLine
 10
152.7291323841412
 20
151.2103925209806
 30
0.0
 11
152.7291323841412
 21
160.2103925209806
 31
0.0
  0
LINE
  5
4CF
330
1A
100
AcDbEntity
  8
SEIHIN
  6
CONTINUOUS
100
AcDbLine
 10
151.7291323841412
 20
161.2103925209806
 30
0.0
 11
151.7291323841412
 21
155.2103925209806
 31
0.0
  0
ARC
  5
4D0
330
1A
100
AcDbEntity
  8
SEIHIN
  6
CONTINUOUS
100
AcDbCircle
 10
151.2291323841412
 20
155.2103925209806
 30
0.0
 40
0.4999999999999574
100
AcDbArc
 50
269.9999999999951
 51
359.9999999999951
  0
ARC
  5
4D1
330
1A
100
AcDbEntity
  8
SEIHIN
  6
CONTINUOUS
100
AcDbCircle
 10
152.2291323841412
 20
151.2103925209806
 30
0.0
 40
0.4999999999999574
100
AcDbArc
 50
269.9999999999951
 51
359.9999999999951
  0
ARC
  5
4D4
330
1A
100
AcDbEntity
  8
SEIHIN
  6
CONTINUOUS
100
AcDbCircle
 10
153.2291323841412
 20
160.2103925209806
 30
0.0
 40
0.5
100
AcDbArc
 50
90.0
 51
180.0
  0
ARC
  5
4D5
330
1A
100
AcDbEntity
  8
SEIHIN
  6
CONTINUOUS
100
AcDbCircle
 10
152.2291323841412
 20
161.2103925209806
 30
0.0
 40
0.4999999999999574
100
AcDbArc
 50
89.99999999999511
 51
179.9999999999951
  0
LINE
  5
4D9
330
1A
100
AcDbEntity
  8
SEIHIN
  6
CONTINUOUS
100
AcDbLine
 10
110.4292323841412
 20
199.7103925209806
 30
0.0
 11
109.8047323841411
 21
203.7104925209806
 31
0.0
  0
LINE
  5
4DA
330
1A
100
AcDbEntity
  8
SEIHIN
  6
CONTINUOUS
100
AcDbLine
 10
110.4291323841412
 20
199.7103925209806
 30
0.0
 11
110.4291323841412
 21
195.7103925209807
 31
0.0
  0
LINE
  5
4E0
330
1A
100
AcDbEntity
  8
SEIHIN
  6
CONTINUOUS
100
AcDbLine
 10
104.5291323841411
 20
244.7104925209806
 30
0.0
 11
93.27593238414124
 21
250.4324925209807
 31
0.0
  0
ARC
  5
4E2
330
1A
100
AcDbEntity
  8
SEIHIN
  6
CONTINUOUS
100
AcDbCircle
 10
93.72920652847268
 20
251.3238346781736
 30
0.0
 40
0.9999741452201476
100
AcDbArc
 50
180.0024154916843
 51
243.0453021721756
  0
LINE
  5
4E3
330
1A
100
AcDbEntity
  8
SEIHIN
  6
CONTINUOUS
100
AcDbLine
 10
92.72923238414113
 20
251.3237925209807
 30
0.0
 11
92.72923238414113
 21
253.7104925209806
 31
0.0
  0
ARC
  5
4EB
330
1A
100
AcDbEntity
  8
SEIHIN
  6
CONTINUOUS
100
AcDbCircle
 10
108.23942400389
 20
244.4104006128656
 30
0.0
 40
0.2999919082320744
100
AcDbArc
 50
2.004269634346231
 51
89.99839944673679
  0
LINE
  5
4FB
330
1A
100
AcDbEntity
  8
SEIHIN
  6
CONTINUOUS
100
AcDbLine
 10
215.6536323841411
 20
203.7108925209806
 30
0.0
 11
216.9208323841412
 21
244.4384925209807
 31
0.0
  0
LINE
  5
500
330
1A
100
AcDbEntity
  8
SEIHIN
  6
CONTINUOUS
100
AcDbLine
 10
211.9808323841412
 20
154.7102925209806
 30
0.0
 11
211.9808323841412
 21
195.7103925209807
 31
0.0
  0
LINE
  5
501
330
1A
100
AcDbEntity
  8
SEIHIN
  6
CONTINUOUS
100
AcDbLine
 10
211.9808323841412
 20
154.7102925209806
 30
0.0
 11
174.2291323841411
 21
154.7103925209806
 31
0.0
  0
LINE
  5
502
330
1A
100
AcDbEntity
  8
SEIHIN
  6
CONTINUOUS
100
AcDbLine
 10
211.0291323841412
 20
150.7103925209806
 30
0.0
 11
173.2291323841411
 21
150.7103925209806
 31
0.0
  0
LINE
  5
503
330
1A
100
AcDbEntity
  8
SEIHIN
  6
CONTINUOUS
100
AcDbLine
 10
172.7291323841412
 20
151.2103925209806
 30
0.0
 11
172.7291323841412
 21
160.2102925209806
 31
0.0
  0
LINE
  5
504
330
1A
100
AcDbEntity
  8
SEIHIN
  6
CONTINUOUS
100
AcDbLine
 10
173.7291323841411
 20
161.2103925209806
 30
0.0
 11
173.7291323841411
 21
155.2102925209806
 31
0.0
  0
ARC
  5
505
330
1A
100
AcDbEntity
  8
SEIHIN
  6
CONTINUOUS
100
AcDbCircle
 10
174.2291323841412
 20
155.2102925209806
 30
0.0
 40
0.5000000000000427
100
AcDbArc
 50
179.9999999999951
 51
269.9999999999951
  0
ARC
  5
506
330
1A
100
AcDbEntity
  8
SEIHIN
  6
CONTINUOUS
100
AcDbCircle
 10
173.2291323841411
 20
151.2103925209806
 30
0.0
 40
0.499999999999929
100
AcDbArc
 50
180.0000000000016
 51
270.0000000000016
  0
ARC
  5
507
330
1A
100
AcDbEntity
  8
SEIHIN
  6
CONTINUOUS
100
AcDbCircle
 10
173.2291323841412
 20
161.2103925209806
 30
0.0
 40
0.4999999999999574
100
AcDbArc
 50
0.0000000000048853
 51
90.00000000000488
  0
ARC
  5
508
330
1A
100
AcDbEntity
  8
SEIHIN
  6
CONTINUOUS
100
AcDbCircle
 10
172.2291323841411
 20
160.2102925209805
 30
0.0
 40
0.5000000000000285
100
AcDbArc
 50
0.0000000000032569
 51
90.00000000000325
  0
LINE
  5
50C
330
1A
100
AcDbEntity
  8
SEIHIN
  6
CONTINUOUS
100
AcDbLine
 10
211.0291323841412
 20
150.7103925209806
 30
0.0
 11
211.9808323841412
 21
154.7102925209806
 31
0.0
  0
LINE
  5
50D
330
1A
100
AcDbEntity
  8
SEIHIN
  6
CONTINUOUS
100
AcDbLine
 10
215.0291323841412
 20
199.7103925209806
 30
0.0
 11
215.6536323841411
 21
203.7103925209807
 31
0.0
  0
LINE
  5
50E
330
1A
100
AcDbEntity
  8
SEIHIN
  6
CONTINUOUS
100
AcDbLine
 10
215.0292323841412
 20
199.7103925209806
 30
0.0
 11
215.0291323841412
 21
195.7103925209807
 31
0.0
  0
ARC
  5
522
330
1A
100
AcDbEntity
  8
SEIHIN
  6
CONTINUOUS
100
AcDbCircle
 10
231.7292363341568
 20
251.3237989604372
 30
0.0
 40
0.9999960500051829
100
AcDbArc
 50
296.9490399145627
 51
359.9996310448608
  0
LINE
  5
52D
330
1A
100
AcDbEntity
  8
SEIHIN
  6
CONTINUOUS
100
AcDbLine
 10
220.9292323841411
 20
244.7103925209805
 30
0.0
 11
232.1824323841411
 21
250.4323925209806
 31
0.0
  0
ARC
  5
52E
330
1A
100
AcDbEntity
  8
SEIHIN
  6
CONTINUOUS
100
AcDbCircle
 10
217.2189407643923
 20
244.4104006128656
 30
0.0
 40
0.2999919082320548
100
AcDbArc
 50
90.00160055326594
 51
177.995730365657
  0
LINE
  5
53F
330
1A
100
AcDbEntity
  8
SEIHIN
  6
CONTINUOUS
100
AcDbLine
 10
232.7292323841412
 20
251.3237925209807
 30
0.0
 11
232.7292323841412
 21
253.7103925209805
 31
0.0
  0
LINE
  5
559
330
1A
100
AcDbEntity
  8
CENTER_L
 48
5.0
100
AcDbLine
 10
85.7306879041984
 20
408.1922976922767
 30
0.0
 11
239.7291961157012
 21
408.1922976922767
 31
0.0
  0
LINE
  5
56D
330
1A
100
AcDbEntity
  8
CENTER_L
 48
5.0
100
AcDbLine
 10
162.7298481995552
 20
485.1168532888559
 30
0.0
 11
162.7300358203443
 21
331.1182725405872
 31
0.0
  0
TEXT
  5
5AA
330
1A
100
AcDbEntity
  8
ZUWAKU
 62
     7
100
AcDbText
 10
654.2531733678779
 20
15.90287984531518
 30
0.0
 40
8.0
  1
ＧＰ８９
100
AcDbText
  0
LINE
  5
5AE
330
1A
100
AcDbEntity
  8
SEIHIN
  6
CONTINUOUS
100
AcDbLine
 10
719.7910823320981
 20
140.6853576396537
 30
0.0
 11
681.9910823320983
 21
140.6853576396537
 31
0.0
  0
LINE
  5
5AF
330
1A
100
AcDbEntity
  8
SEIHIN
  6
CONTINUOUS
100
AcDbLine
 10
720.6797823320982
 20
187.4853576396537
 30
0.0
 11
671.4909823320981
 21
187.4853576396537
 31
0.0
  0
LINE
  5
5B0
330
1A
100
AcDbEntity
  8
SEIHIN
  6
CONTINUOUS
100
AcDbLine
 10
736.4909823320983
 20
240.1623576396537
 30
0.0
 11
671.4911823320983
 21
240.1624576396536
 31
0.0
  0
LINE
  5
5B1
330
1A
100
AcDbEntity
  8
SEIHIN
  6
CONTINUOUS
100
AcDbLine
 10
671.4909823320981
 20
236.4854576396537
 30
0.0
 11
729.0200823320981
 21
236.4854576396537
 31
0.0
  0
LINE
  5
5B2
330
1A
100
AcDbEntity
  8
SEIHIN
  6
CONTINUOUS
100
AcDbLine
 10
741.4910823320983
 20
243.6854576396537
 30
0.0
 11
671.490382332098
 21
243.6849576396538
 31
0.0
  0
LINE
  5
5B3
330
1A
100
AcDbEntity
  8
CENTER_L
 48
5.0
100
AcDbLine
 10
671.4909823320981
 20
132.6377576396537
 30
0.0
 11
671.4910823320981
 21
250.8012576396537
 31
0.0
  0
LINE
  5
5B4
330
1A
100
AcDbEntity
  8
SEIHIN
  6
CONTINUOUS
100
AcDbLine
 10
618.5666823320982
 20
193.6854576396537
 30
0.0
 11
617.2992823320982
 21
234.4194576396537
 31
0.0
  0
LINE
  5
5B5
330
1A
100
AcDbEntity
  8
SEIHIN
  6
CONTINUOUS
100
AcDbLine
 10
620.4784823320983
 20
193.6852576396537
 30
0.0
 11
620.4784823320983
 21
234.4854576396537
 31
0.0
  0
LINE
  5
5BA
330
1A
100
AcDbEntity
  8
SEIHIN
  6
CONTINUOUS
100
AcDbLine
 10
622.2392823320983
 20
144.6854576396537
 30
0.0
 11
620.7994823320984
 21
185.4499576396537
 31
0.0
  0
LINE
  5
5BB
330
1A
100
AcDbEntity
  8
SEIHIN
  6
CONTINUOUS
100
AcDbLine
 10
621.3143823320981
 20
188.3311576396537
 30
0.0
 11
620.4784823320983
 21
193.6854576396537
 31
0.0
  0
ARC
  5
5BC
330
1A
100
AcDbEntity
  8
SEIHIN
  6
CONTINUOUS
100
AcDbCircle
 10
620.5028011029735
 20
185.3854395990719
 30
0.0
 40
0.3000180411689912
100
AcDbArc
 50
2.276640245173292
 51
90.00358475751694
  0
LINE
  5
5BF
330
1A
100
AcDbEntity
  8
SEIHIN
  6
CONTINUOUS
100
AcDbLine
 10
619.1910823320983
 20
189.6854576396536
 30
0.0
 11
618.5666823320982
 21
193.6854576396537
 31
0.0
  0
LINE
  5
5C0
330
1A
100
AcDbEntity
  8
SEIHIN
  6
CONTINUOUS
100
AcDbLine
 10
619.1910823320983
 20
189.6854576396536
 30
0.0
 11
619.1910823320983
 21
185.6854576396537
 31
0.0
  0
LINE
  5
5C1
330
1A
100
AcDbEntity
  8
SEIHIN
  6
CONTINUOUS
100
AcDbLine
 10
620.5027823320984
 20
185.6854576396537
 30
0.0
 11
619.1910823320983
 21
185.6854576396537
 31
0.0
  0
LINE
  5
5C2
330
1A
100
AcDbEntity
  8
SEIHIN
  6
CONTINUOUS
100
AcDbLine
 10
619.1663823320982
 20
189.6854576396536
 30
0.0
 11
619.1910823320983
 21
189.6854576396536
 31
0.0
  0
LINE
  5
5C3
330
1A
100
AcDbEntity
  8
SEIHIN
  6
CONTINUOUS
100
AcDbLine
 10
624.5910823320984
 20
187.4854576396536
 30
0.0
 11
624.1909823320981
 21
140.6854576396537
 31
0.0
  0
LINE
  5
5C4
330
1A
100
AcDbEntity
  8
SEIHIN
  6
CONTINUOUS
100
AcDbLine
 10
623.1909823320984
 20
140.6854576396537
 30
0.0
 11
660.9909823320983
 21
140.6853576396537
 31
0.0
  0
LINE
  5
5C5
330
1A
100
AcDbEntity
  8
SEIHIN
  6
CONTINUOUS
100
AcDbLine
 10
623.1909823320984
 20
140.6854576396537
 30
0.0
 11
622.2392823320983
 21
144.6854576396537
 31
0.0
  0
LINE
  5
5C6
330
1A
100
AcDbEntity
  8
SEIHIN
  6
CONTINUOUS
100
AcDbLine
 10
671.4910823320981
 20
150.6853576396536
 30
0.0
 11
661.9909823320983
 21
150.6853576396536
 31
0.0
  0
LINE
  5
5C7
330
1A
100
AcDbEntity
  8
SEIHIN
  6
CONTINUOUS
100
AcDbLine
 10
661.4909823320983
 20
141.1853576396536
 30
0.0
 11
661.4909823320983
 21
150.1853576396537
 31
0.0
  0
ARC
  5
5C8
330
1A
100
AcDbEntity
  8
SEIHIN
  6
CONTINUOUS
100
AcDbCircle
 10
660.9909823320983
 20
141.1853576396536
 30
0.0
 40
0.4999999999999432
100
AcDbArc
 50
269.9999999999934
 51
359.9999999999934
  0
ARC
  5
5C9
330
1A
100
AcDbEntity
  8
SEIHIN
  6
CONTINUOUS
100
AcDbCircle
 10
661.9909823320983
 20
150.1853576396537
 30
0.0
 40
0.4999999999999432
100
AcDbArc
 50
89.99999999999349
 51
179.9999999999934
  0
LINE
  5
5CA
330
1A
100
AcDbEntity
  8
SEIHIN
  6
CONTINUOUS
100
AcDbLine
 10
681.4910823320981
 20
141.1853576396536
 30
0.0
 11
681.4910823320981
 21
150.1853576396537
 31
0.0
  0
ARC
  5
5CB
330
1A
100
AcDbEntity
  8
SEIHIN
  6
CONTINUOUS
100
AcDbCircle
 10
681.9910823320981
 20
141.1853576396538
 30
0.0
 40
0.5000000000000569
100
AcDbArc
 50
180.0000000000162
 51
270.000000000013
  0
LINE
  5
5CC
330
1A
100
AcDbEntity
  8
SEIHIN
  6
CONTINUOUS
100
AcDbLine
 10
671.4909823320981
 20
150.6853576396536
 30
0.0
 11
680.9910823320981
 21
150.6853576396536
 31
0.0
  0
ARC
  5
5CD
330
1A
100
AcDbEntity
  8
SEIHIN
  6
CONTINUOUS
100
AcDbCircle
 10
680.9910823320981
 20
150.1853576396537
 30
0.0
 40
0.4999999999999432
100
AcDbArc
 50
0.0000000000065138
 51
90.00000000000651
  0
LINE
  5
5CE
330
1A
100
AcDbEntity
  8
SEIHIN
  6
CONTINUOUS
100
AcDbLine
 10
622.3023823320982
 20
187.4854576396536
 30
0.0
 11
671.4911823320983
 21
187.4853576396537
 31
0.0
  0
ARC
  5
5CF
330
1A
100
AcDbEntity
  8
SEIHIN
  6
CONTINUOUS
100
AcDbCircle
 10
622.3023962086963
 20
188.4854457620126
 30
0.0
 40
0.9999881224552098
100
AcDbArc
 50
188.8756183007313
 51
269.9992049200494
  0
LINE
  5
5D6
330
1A
100
AcDbEntity
  8
SEIHIN
  6
CONTINUOUS
100
AcDbLine
 10
606.4911823320983
 20
240.1624576396536
 30
0.0
 11
671.4910823320981
 21
240.1624576396536
 31
0.0
  0
LINE
  5
5D7
330
1A
100
AcDbEntity
  8
SEIHIN
  6
CONTINUOUS
100
AcDbLine
 10
671.4911823320983
 20
236.4854576396537
 30
0.0
 11
613.9620823320983
 21
236.4854576396537
 31
0.0
  0
LINE
  5
5D8
330
1A
100
AcDbEntity
  8
SEIHIN
  6
CONTINUOUS
100
AcDbLine
 10
601.4911823320982
 20
243.6855576396536
 30
0.0
 11
671.4918823320983
 21
243.6849576396538
 31
0.0
  0
ARC
  5
5F6
330
1A
100
AcDbEntity
  8
SEIHIN
  6
CONTINUOUS
100
AcDbCircle
 10
618.4784823320983
 20
234.4854576396537
 30
0.0
 40
2.0
100
AcDbArc
 50
0.0
 51
90.0
  0
LINE
  5
5F7
330
1A
100
AcDbEntity
  8
SEIHIN
  6
CONTINUOUS
100
AcDbLine
 10
613.0774823320982
 20
234.7940576396537
 30
0.0
 11
602.0378823320984
 21
240.4074576396538
 31
0.0
  0
ARC
  5
5F8
330
1A
100
AcDbEntity
  8
SEIHIN
  6
CONTINUOUS
100
AcDbCircle
 10
602.4912010442481
 20
241.2988271313886
 30
0.0
 40
1.000018712615249
100
AcDbArc
 50
179.9982520378767
 51
243.0437359731659
  0
LINE
  5
5F9
330
1A
100
AcDbEntity
  8
SEIHIN
  6
CONTINUOUS
100
AcDbLine
 10
601.4911823320982
 20
241.2988576396537
 30
0.0
 11
601.4911823320982
 21
243.6855576396536
 31
0.0
  0
LINE
  5
5FA
330
1A
100
AcDbEntity
  8
SEIHIN
  6
CONTINUOUS
100
AcDbLine
 10
613.5087823320982
 20
236.5940576396537
 30
0.0
 11
606.0378823320984
 21
240.3929576396536
 31
0.0
  0
ARC
  5
5FB
330
1A
100
AcDbEntity
  8
SEIHIN
  6
CONTINUOUS
100
AcDbCircle
 10
613.5306988171564
 20
235.6854536896384
 30
0.0
 40
0.9999960501206375
100
AcDbArc
 50
243.0496466023196
 51
269.9990554720217
  0
ARC
  5
5FC
330
1A
100
AcDbEntity
  8
SEIHIN
  6
CONTINUOUS
100
AcDbCircle
 10
613.9620988171563
 20
237.4854536896384
 30
0.0
 40
0.9999960501206638
100
AcDbArc
 50
243.049646602313
 51
269.9990554720151
  0
ARC
  5
5FD
330
1A
100
AcDbEntity
  8
SEIHIN
  6
CONTINUOUS
100
AcDbCircle
 10
617.0013739518472
 20
234.3854657315386
 30
0.0
 40
0.2999919082321028
100
AcDbArc
 50
2.004269634346041
 51
89.99839944673679
  0
LINE
  5
5FE
330
1A
100
AcDbEntity
  8
SEIHIN
  6
CONTINUOUS
100
AcDbLine
 10
617.0013823320983
 20
234.6854576396537
 30
0.0
 11
613.5306823320984
 21
234.6854576396537
 31
0.0
  0
ARC
  5
5FF
330
1A
100
AcDbEntity
  8
SEIHIN
  6
CONTINUOUS
100
AcDbCircle
 10
606.4911564764297
 20
241.2842997968467
 30
0.0
 40
0.9999741452202258
100
AcDbArc
 50
180.002415491689
 51
243.0453021721782
  0
LINE
  5
600
330
1A
100
AcDbEntity
  8
SEIHIN
  6
CONTINUOUS
100
AcDbLine
 10
605.4911823320982
 20
243.6855576396536
 30
0.0
 11
605.4911823320982
 21
241.2842576396536
 31
0.0
  0
LINE
  5
64F
330
1A
100
AcDbEntity
  8
SEIHIN
  6
CONTINUOUS
100
AcDbLine
 10
724.4154823320982
 20
193.6853576396537
 30
0.0
 11
725.6827823320982
 21
234.4194576396537
 31
0.0
  0
LINE
  5
650
330
1A
100
AcDbEntity
  8
SEIHIN
  6
CONTINUOUS
100
AcDbLine
 10
722.5036823320984
 20
193.6852576396537
 30
0.0
 11
722.5036823320984
 21
234.4854576396537
 31
0.0
  0
LINE
  5
651
330
1A
100
AcDbEntity
  8
SEIHIN
  6
CONTINUOUS
100
AcDbLine
 10
720.6536823320982
 20
204.6811576396537
 30
0.0
 11
714.0549823320982
 21
204.4114576396538
 31
0.0
  0
LINE
  5
652
330
1A
100
AcDbEntity
  8
SEIHIN
  6
CONTINUOUS
100
AcDbLine
 10
714.0186823320982
 20
204.4941576396537
 30
0.0
 11
715.4981823320984
 21
204.8905576396537
 31
0.0
  0
ARC
  5
653
330
1A
100
AcDbEntity
  8
SEIHIN
  6
CONTINUOUS
100
AcDbCircle
 10
714.1480990115419
 20
204.0111793758817
 30
0.0
 40
0.5000166799162025
100
AcDbArc
 50
105.0003368870722
 51
180.0024907051716
  0
ARC
  5
654
330
1A
100
AcDbEntity
  8
SEIHIN
  6
CONTINUOUS
100
AcDbCircle
 10
721.1536990115419
 20
204.2974793758819
 30
0.0
 40
0.5000166799160476
100
AcDbArc
 50
105.0003368870972
 51
180.0024907051984
  0
LINE
  5
659
330
1A
100
AcDbEntity
  8
SEIHIN
  6
CONTINUOUS
100
AcDbLine
 10
718.3910823320982
 20
187.4853576396537
 30
0.0
 11
718.791082332098
 21
140.6853576396537
 31
0.0
  0
LINE
  5
65A
330
1A
100
AcDbEntity
  8
SEIHIN
  6
CONTINUOUS
100
AcDbLine
 10
720.7426823320984
 20
144.6853576396537
 30
0.0
 11
722.1826823320982
 21
185.4499576396537
 31
0.0
  0
LINE
  5
65B
330
1A
100
AcDbEntity
  8
SEIHIN
  6
CONTINUOUS
100
AcDbLine
 10
719.7910823320981
 20
140.6853576396537
 30
0.0
 11
720.7426823320984
 21
144.6853576396537
 31
0.0
  0
LINE
  5
65C
330
1A
100
AcDbEntity
  8
SEIHIN
  6
CONTINUOUS
100
AcDbLine
 10
720.6536823320982
 20
203.1810576396537
 30
0.0
 11
714.0386823320982
 21
202.9107576396537
 31
0.0
  0
LINE
  5
65D
330
1A
100
AcDbEntity
  8
SEIHIN
  6
CONTINUOUS
100
AcDbLine
 10
722.5036823320984
 20
202.6853576396536
 30
0.0
 11
714.4297823320982
 21
202.6853576396536
 31
0.0
  0
ARC
  5
65E
330
1A
100
AcDbEntity
  8
SEIHIN
  6
CONTINUOUS
100
AcDbCircle
 10
714.1480990115419
 20
203.2785359034257
 30
0.0
 40
0.5000166799162225
100
AcDbArc
 50
179.9975092948267
 51
254.9996631129281
  0
LINE
  5
65F
330
1A
100
AcDbEntity
  8
SEIHIN
  6
CONTINUOUS
100
AcDbLine
 10
714.0186823320982
 20
202.7955576396536
 30
0.0
 11
714.4297823320982
 21
202.6853576396536
 31
0.0
  0
LINE
  5
660
330
1A
100
AcDbEntity
  8
SEIHIN
  6
CONTINUOUS
100
AcDbLine
 10
713.648082332098
 20
203.2785576396537
 30
0.0
 11
713.648082332098
 21
204.0111576396536
 31
0.0
  0
LINE
  5
661
330
1A
100
AcDbEntity
  8
SEIHIN
  6
CONTINUOUS
100
AcDbLine
 10
721.6677823320983
 20
188.3311576396537
 30
0.0
 11
722.5036823320984
 21
193.6853576396537
 31
0.0
  0
LINE
  5
662
330
1A
100
AcDbEntity
  8
SEIHIN
  6
CONTINUOUS
100
AcDbLine
 10
723.791082332098
 20
189.6853576396537
 30
0.0
 11
724.4154823320982
 21
193.6853576396537
 31
0.0
  0
LINE
  5
663
330
1A
100
AcDbEntity
  8
SEIHIN
  6
CONTINUOUS
100
AcDbLine
 10
722.4793823320981
 20
185.6853576396537
 30
0.0
 11
723.791082332098
 21
185.6853576396537
 31
0.0
  0
ARC
  5
664
330
1A
100
AcDbEntity
  8
SEIHIN
  6
CONTINUOUS
100
AcDbCircle
 10
720.679759447024
 20
188.4853380492699
 30
0.0
 40
0.999980409878082
100
AcDbArc
 50
270.0013112438629
 51
351.1305590424914
  0
ARC
  5
665
330
1A
100
AcDbEntity
  8
SEIHIN
  6
CONTINUOUS
100
AcDbCircle
 10
722.4793614822474
 20
185.385337607658
 30
0.0
 40
0.3000200327202074
100
AcDbArc
 50
89.9960182377255
 51
177.7038817323356
  0
LINE
  5
666
330
1A
100
AcDbEntity
  8
SEIHIN
  6
CONTINUOUS
100
AcDbLine
 10
723.791082332098
 20
189.6853576396537
 30
0.0
 11
723.791082332098
 21
185.6853576396537
 31
0.0
  0
LINE
  5
667
330
1A
100
AcDbEntity
  8
SEIHIN
  6
CONTINUOUS
100
AcDbLine
 10
723.8157823320982
 20
189.6853576396537
 30
0.0
 11
723.791082332098
 21
189.6853576396537
 31
0.0
  0
ARC
  5
668
330
1A
100
AcDbEntity
  8
SEIHIN
  6
CONTINUOUS
100
AcDbCircle
 10
721.153650715099
 20
203.5647988443339
 30
0.0
 40
0.4999683846986246
100
AcDbArc
 50
180.0047220071151
 51
255.0039100184342
  0
LINE
  5
669
330
1A
100
AcDbEntity
  8
SEIHIN
  6
CONTINUOUS
100
AcDbLine
 10
721.0241823320982
 20
203.0818576396537
 30
0.0
 11
722.5036823320984
 21
202.6853576396536
 31
0.0
  0
LINE
  5
66A
330
1A
100
AcDbEntity
  8
SEIHIN
  6
CONTINUOUS
100
AcDbLine
 10
720.6536823320982
 20
203.5647576396537
 30
0.0
 11
720.6536823320982
 21
204.2974576396536
 31
0.0
  0
LINE
  5
674
330
1A
100
AcDbEntity
  8
SEIHIN
  6
CONTINUOUS
100
AcDbLine
 10
720.6536823320982
 20
207.1810576396537
 30
0.0
 11
714.0386823320982
 21
206.9107576396537
 31
0.0
  0
LINE
  5
675
330
1A
100
AcDbEntity
  8
SEIHIN
  6
CONTINUOUS
100
AcDbLine
 10
720.6536823320982
 20
208.6811576396537
 30
0.0
 11
714.0549823320982
 21
208.4114576396536
 31
0.0
  0
LINE
  5
676
330
1A
100
AcDbEntity
  8
SEIHIN
  6
CONTINUOUS
100
AcDbLine
 10
722.5036823320984
 20
210.6853576396537
 30
0.0
 11
715.4981823320984
 21
210.3991576396537
 31
0.0
  0
LINE
  5
677
330
1A
100
AcDbEntity
  8
SEIHIN
  6
CONTINUOUS
100
AcDbLine
 10
722.5036823320984
 20
205.1768576396536
 30
0.0
 11
715.4981823320984
 21
204.8905576396537
 31
0.0
  0
LINE
  5
678
330
1A
100
AcDbEntity
  8
SEIHIN
  6
CONTINUOUS
100
AcDbLine
 10
722.5036823320984
 20
206.6853576396537
 30
0.0
 11
715.4981823320984
 21
206.3991576396537
 31
0.0
  0
LINE
  5
679
330
1A
100
AcDbEntity
  8
SEIHIN
  6
CONTINUOUS
100
AcDbLine
 10
722.5036823320984
 20
209.1768576396538
 30
0.0
 11
715.4981823320984
 21
208.8905576396537
 31
0.0
  0
LINE
  5
67A
330
1A
100
AcDbEntity
  8
SEIHIN
  6
CONTINUOUS
100
AcDbLine
 10
720.6536823320982
 20
220.6811576396537
 30
0.0
 11
714.0549823320982
 21
220.4114576396538
 31
0.0
  0
LINE
  5
67B
330
1A
100
AcDbEntity
  8
SEIHIN
  6
CONTINUOUS
100
AcDbLine
 10
720.6536823320982
 20
219.1810576396537
 30
0.0
 11
714.0386823320982
 21
218.9107576396537
 31
0.0
  0
LINE
  5
67C
330
1A
100
AcDbEntity
  8
SEIHIN
  6
CONTINUOUS
100
AcDbLine
 10
720.6536823320982
 20
216.6811576396537
 30
0.0
 11
714.0549823320982
 21
216.4114576396538
 31
0.0
  0
LINE
  5
67D
330
1A
100
AcDbEntity
  8
SEIHIN
  6
CONTINUOUS
100
AcDbLine
 10
720.6536823320982
 20
215.1810576396537
 30
0.0
 11
714.0386823320982
 21
214.9107576396537
 31
0.0
  0
LINE
  5
67E
330
1A
100
AcDbEntity
  8
SEIHIN
  6
CONTINUOUS
100
AcDbLine
 10
720.6536823320982
 20
212.6811576396536
 30
0.0
 11
714.0549823320982
 21
212.4114576396538
 31
0.0
  0
LINE
  5
67F
330
1A
100
AcDbEntity
  8
SEIHIN
  6
CONTINUOUS
100
AcDbLine
 10
720.6536823320982
 20
211.1810576396537
 30
0.0
 11
714.0386823320982
 21
210.9107576396537
 31
0.0
  0
LINE
  5
680
330
1A
100
AcDbEntity
  8
SEIHIN
  6
CONTINUOUS
100
AcDbLine
 10
722.5036823320984
 20
218.6853576396537
 30
0.0
 11
715.4981823320984
 21
218.3991576396537
 31
0.0
  0
LINE
  5
681
330
1A
100
AcDbEntity
  8
SEIHIN
  6
CONTINUOUS
100
AcDbLine
 10
722.5036823320984
 20
221.1768576396538
 30
0.0
 11
715.4981823320984
 21
220.8905576396537
 31
0.0
  0
LINE
  5
682
330
1A
100
AcDbEntity
  8
SEIHIN
  6
CONTINUOUS
100
AcDbLine
 10
722.5036823320984
 20
214.6853576396537
 30
0.0
 11
715.4981823320984
 21
214.3991576396537
 31
0.0
  0
LINE
  5
683
330
1A
100
AcDbEntity
  8
SEIHIN
  6
CONTINUOUS
100
AcDbLine
 10
722.5036823320984
 20
217.1768576396538
 30
0.0
 11
715.4981823320984
 21
216.8905576396537
 31
0.0
  0
LINE
  5
684
330
1A
100
AcDbEntity
  8
SEIHIN
  6
CONTINUOUS
100
AcDbLine
 10
722.5036823320984
 20
213.1768576396538
 30
0.0
 11
715.4981823320984
 21
212.8905576396537
 31
0.0
  0
LINE
  5
685
330
1A
100
AcDbEntity
  8
SEIHIN
  6
CONTINUOUS
100
AcDbLine
 10
720.6536823320982
 20
232.6811576396537
 30
0.0
 11
714.0549823320982
 21
232.4114576396538
 31
0.0
  0
LINE
  5
686
330
1A
100
AcDbEntity
  8
SEIHIN
  6
CONTINUOUS
100
AcDbLine
 10
720.6536823320982
 20
231.1810576396536
 30
0.0
 11
714.0386823320982
 21
230.9107576396537
 31
0.0
  0
LINE
  5
687
330
1A
100
AcDbEntity
  8
SEIHIN
  6
CONTINUOUS
100
AcDbLine
 10
720.6536823320982
 20
228.6811576396537
 30
0.0
 11
714.0549823320982
 21
228.4114576396538
 31
0.0
  0
LINE
  5
688
330
1A
100
AcDbEntity
  8
SEIHIN
  6
CONTINUOUS
100
AcDbLine
 10
720.6536823320982
 20
227.1810576396537
 30
0.0
 11
714.0386823320982
 21
226.9107576396537
 31
0.0
  0
LINE
  5
689
330
1A
100
AcDbEntity
  8
SEIHIN
  6
CONTINUOUS
100
AcDbLine
 10
720.6536823320982
 20
224.6811576396537
 30
0.0
 11
714.0549823320982
 21
224.4114576396538
 31
0.0
  0
LINE
  5
68A
330
1A
100
AcDbEntity
  8
SEIHIN
  6
CONTINUOUS
100
AcDbLine
 10
720.6536823320982
 20
223.1810576396537
 30
0.0
 11
714.0386823320982
 21
222.9107576396537
 31
0.0
  0
LINE
  5
68B
330
1A
100
AcDbEntity
  8
SEIHIN
  6
CONTINUOUS
100
AcDbLine
 10
722.5036823320984
 20
226.6853576396537
 30
0.0
 11
715.4981823320984
 21
226.3991576396537
 31
0.0
  0
LINE
  5
68C
330
1A
100
AcDbEntity
  8
SEIHIN
  6
CONTINUOUS
100
AcDbLine
 10
722.5036823320984
 20
229.1768576396538
 30
0.0
 11
715.4981823320984
 21
228.8905576396537
 31
0.0
  0
LINE
  5
68D
330
1A
100
AcDbEntity
  8
SEIHIN
  6
CONTINUOUS
100
AcDbLine
 10
722.5036823320984
 20
222.6853576396537
 30
0.0
 11
715.4981823320984
 21
222.3991576396536
 31
0.0
  0
LINE
  5
68E
330
1A
100
AcDbEntity
  8
SEIHIN
  6
CONTINUOUS
100
AcDbLine
 10
722.5036823320984
 20
225.1768576396538
 30
0.0
 11
715.4981823320984
 21
224.8905576396537
 31
0.0
  0
LINE
  5
68F
330
1A
100
AcDbEntity
  8
SEIHIN
  6
CONTINUOUS
100
AcDbLine
 10
722.5036823320984
 20
230.6853576396537
 30
0.0
 11
715.4981823320984
 21
230.3991576396537
 31
0.0
  0
LINE
  5
690
330
1A
100
AcDbEntity
  8
SEIHIN
  6
CONTINUOUS
100
AcDbLine
 10
714.7323823320983
 20
232.6853576396537
 30
0.0
 11
722.5036823320984
 21
232.6853576396537
 31
0.0
  0
LINE
  5
691
330
1A
100
AcDbEntity
  8
SEIHIN
  6
CONTINUOUS
100
AcDbLine
 10
713.648082332098
 20
227.2785576396537
 30
0.0
 11
713.648082332098
 21
228.0111576396536
 31
0.0
  0
ARC
  5
692
330
1A
100
AcDbEntity
  8
SEIHIN
  6
CONTINUOUS
100
AcDbCircle
 10
714.1480990115419
 20
216.0111793758817
 30
0.0
 40
0.5000166799161603
100
AcDbArc
 50
105.0003368870668
 51
180.0024907051683
  0
ARC
  5
693
330
1A
100
AcDbEntity
  8
SEIHIN
  6
CONTINUOUS
100
AcDbCircle
 10
714.1480990115419
 20
211.2785359034256
 30
0.0
 40
0.5000166799162225
100
AcDbArc
 50
179.9975092948267
 51
254.9996631129281
  0
LINE
  5
694
330
1A
100
AcDbEntity
  8
SEIHIN
  6
CONTINUOUS
100
AcDbLine
 10
714.0186823320982
 20
210.7955576396536
 30
0.0
 11
715.4981823320984
 21
210.3991576396537
 31
0.0
  0
LINE
  5
695
330
1A
100
AcDbEntity
  8
SEIHIN
  6
CONTINUOUS
100
AcDbLine
 10
714.0186823320982
 20
206.7955576396536
 30
0.0
 11
715.4981823320984
 21
206.3991576396537
 31
0.0
  0
LINE
  5
696
330
1A
100
AcDbEntity
  8
SEIHIN
  6
CONTINUOUS
100
AcDbLine
 10
714.0186823320982
 20
208.4941576396537
 30
0.0
 11
715.4981823320984
 21
208.8905576396537
 31
0.0
  0
ARC
  5
697
330
1A
100
AcDbEntity
  8
SEIHIN
  6
CONTINUOUS
100
AcDbCircle
 10
714.1480990115419
 20
208.0111793758817
 30
0.0
 40
0.5000166799161603
100
AcDbArc
 50
105.0003368870668
 51
180.0024907051683
  0
ARC
  5
698
330
1A
100
AcDbEntity
  8
SEIHIN
  6
CONTINUOUS
100
AcDbCircle
 10
714.1480990115419
 20
207.2785359034256
 30
0.0
 40
0.5000166799162225
100
AcDbArc
 50
179.9975092948267
 51
254.9996631129281
  0
LINE
  5
699
330
1A
100
AcDbEntity
  8
SEIHIN
  6
CONTINUOUS
100
AcDbLine
 10
713.648082332098
 20
207.2785576396537
 30
0.0
 11
713.648082332098
 21
208.0111576396538
 31
0.0
  0
LINE
  5
69A
330
1A
100
AcDbEntity
  8
SEIHIN
  6
CONTINUOUS
100
AcDbLine
 10
715.4981823320984
 20
210.3991576396537
 30
0.0
 11
715.4981823320984
 21
208.8905576396537
 31
0.0
  0
LINE
  5
69B
330
1A
100
AcDbEntity
  8
SEIHIN
  6
CONTINUOUS
100
AcDbLine
 10
715.4981823320984
 20
206.3991576396537
 30
0.0
 11
715.4981823320984
 21
204.8905576396537
 31
0.0
  0
LINE
  5
69C
330
1A
100
AcDbEntity
  8
SEIHIN
  6
CONTINUOUS
100
AcDbLine
 10
714.0186823320982
 20
214.7955576396538
 30
0.0
 11
715.4981823320984
 21
214.3991576396537
 31
0.0
  0
LINE
  5
69D
330
1A
100
AcDbEntity
  8
SEIHIN
  6
CONTINUOUS
100
AcDbLine
 10
714.0186823320982
 20
212.4941576396537
 30
0.0
 11
715.4981823320984
 21
212.8905576396537
 31
0.0
  0
ARC
  5
69E
330
1A
100
AcDbEntity
  8
SEIHIN
  6
CONTINUOUS
100
AcDbCircle
 10
714.1480990115419
 20
215.2785359034257
 30
0.0
 40
0.5000166799161656
100
AcDbArc
 50
179.9975092948316
 51
254.9996631129331
  0
ARC
  5
69F
330
1A
100
AcDbEntity
  8
SEIHIN
  6
CONTINUOUS
100
AcDbCircle
 10
714.1480990115419
 20
212.0111793758817
 30
0.0
 40
0.5000166799161603
100
AcDbArc
 50
105.0003368870668
 51
180.0024907051683
  0
LINE
  5
6A0
330
1A
100
AcDbEntity
  8
SEIHIN
  6
CONTINUOUS
100
AcDbLine
 10
713.648082332098
 20
215.2785576396537
 30
0.0
 11
713.648082332098
 21
216.0111576396537
 31
0.0
  0
LINE
  5
6A1
330
1A
100
AcDbEntity
  8
SEIHIN
  6
CONTINUOUS
100
AcDbLine
 10
713.648082332098
 20
211.2785576396537
 30
0.0
 11
713.648082332098
 21
212.0111576396538
 31
0.0
  0
LINE
  5
6A2
330
1A
100
AcDbEntity
  8
SEIHIN
  6
CONTINUOUS
100
AcDbLine
 10
715.4981823320984
 20
214.3991576396537
 30
0.0
 11
715.4981823320984
 21
212.8905576396537
 31
0.0
  0
LINE
  5
6A3
330
1A
100
AcDbEntity
  8
SEIHIN
  6
CONTINUOUS
100
AcDbLine
 10
715.4981823320984
 20
222.3991576396536
 30
0.0
 11
715.4981823320984
 21
220.8905576396537
 31
0.0
  0
LINE
  5
6A4
330
1A
100
AcDbEntity
  8
SEIHIN
  6
CONTINUOUS
100
AcDbLine
 10
714.0186823320982
 20
218.7955576396538
 30
0.0
 11
715.4981823320984
 21
218.3991576396537
 31
0.0
  0
LINE
  5
6A5
330
1A
100
AcDbEntity
  8
SEIHIN
  6
CONTINUOUS
100
AcDbLine
 10
714.0186823320982
 20
220.4941576396536
 30
0.0
 11
715.4981823320984
 21
220.8905576396537
 31
0.0
  0
LINE
  5
6A6
330
1A
100
AcDbEntity
  8
SEIHIN
  6
CONTINUOUS
100
AcDbLine
 10
714.0186823320982
 20
216.4941576396537
 30
0.0
 11
715.4981823320984
 21
216.8905576396537
 31
0.0
  0
ARC
  5
6A7
330
1A
100
AcDbEntity
  8
SEIHIN
  6
CONTINUOUS
100
AcDbCircle
 10
714.1480990115419
 20
219.2785359034257
 30
0.0
 40
0.5000166799161656
100
AcDbArc
 50
179.9975092948316
 51
254.9996631129331
  0
ARC
  5
6A8
330
1A
100
AcDbEntity
  8
SEIHIN
  6
CONTINUOUS
100
AcDbCircle
 10
714.1480990115417
 20
220.0111793758817
 30
0.0
 40
0.5000166799161045
100
AcDbArc
 50
105.0003368870617
 51
180.0024907051634
  0
LINE
  5
6A9
330
1A
100
AcDbEntity
  8
SEIHIN
  6
CONTINUOUS
100
AcDbLine
 10
713.648082332098
 20
219.2785576396537
 30
0.0
 11
713.648082332098
 21
220.0111576396537
 31
0.0
  0
LINE
  5
6AA
330
1A
100
AcDbEntity
  8
SEIHIN
  6
CONTINUOUS
100
AcDbLine
 10
715.4981823320984
 20
218.3991576396537
 30
0.0
 11
715.4981823320984
 21
216.8905576396537
 31
0.0
  0
LINE
  5
6AB
330
1A
100
AcDbEntity
  8
SEIHIN
  6
CONTINUOUS
100
AcDbLine
 10
714.0186823320982
 20
226.7955576396537
 30
0.0
 11
715.4981823320984
 21
226.3991576396537
 31
0.0
  0
LINE
  5
6AC
330
1A
100
AcDbEntity
  8
SEIHIN
  6
CONTINUOUS
100
AcDbLine
 10
714.0186823320982
 20
222.7955576396538
 30
0.0
 11
715.4981823320984
 21
222.3991576396536
 31
0.0
  0
LINE
  5
6AD
330
1A
100
AcDbEntity
  8
SEIHIN
  6
CONTINUOUS
100
AcDbLine
 10
714.0186823320982
 20
224.4941576396537
 30
0.0
 11
715.4981823320984
 21
224.8905576396537
 31
0.0
  0
ARC
  5
6AE
330
1A
100
AcDbEntity
  8
SEIHIN
  6
CONTINUOUS
100
AcDbCircle
 10
714.1480990115419
 20
227.2785359034257
 30
0.0
 40
0.5000166799161656
100
AcDbArc
 50
179.9975092948316
 51
254.9996631129331
  0
ARC
  5
6AF
330
1A
100
AcDbEntity
  8
SEIHIN
  6
CONTINUOUS
100
AcDbCircle
 10
714.1480990115419
 20
223.2785359034257
 30
0.0
 40
0.5000166799161656
100
AcDbArc
 50
179.9975092948316
 51
254.9996631129331
  0
ARC
  5
6B0
330
1A
100
AcDbEntity
  8
SEIHIN
  6
CONTINUOUS
100
AcDbCircle
 10
714.1480990115417
 20
224.0111793758817
 30
0.0
 40
0.5000166799161045
100
AcDbArc
 50
105.0003368870617
 51
180.0024907051634
  0
LINE
  5
6B1
330
1A
100
AcDbEntity
  8
SEIHIN
  6
CONTINUOUS
100
AcDbLine
 10
713.648082332098
 20
223.2785576396537
 30
0.0
 11
713.648082332098
 21
224.0111576396537
 31
0.0
  0
LINE
  5
6B2
330
1A
100
AcDbEntity
  8
SEIHIN
  6
CONTINUOUS
100
AcDbLine
 10
715.4981823320984
 20
226.3991576396537
 30
0.0
 11
715.4981823320984
 21
224.8905576396537
 31
0.0
  0
LINE
  5
6B3
330
1A
100
AcDbEntity
  8
SEIHIN
  6
CONTINUOUS
100
AcDbLine
 10
714.0186823320982
 20
230.7955576396537
 30
0.0
 11
715.4981823320984
 21
230.3991576396537
 31
0.0
  0
LINE
  5
6B4
330
1A
100
AcDbEntity
  8
SEIHIN
  6
CONTINUOUS
100
AcDbLine
 10
714.0186823320982
 20
232.4941576396536
 30
0.0
 11
714.7323823320983
 21
232.6853576396537
 31
0.0
  0
LINE
  5
6B5
330
1A
100
AcDbEntity
  8
SEIHIN
  6
CONTINUOUS
100
AcDbLine
 10
714.0186823320982
 20
228.4941576396537
 30
0.0
 11
715.4981823320984
 21
228.8905576396537
 31
0.0
  0
ARC
  5
6B6
330
1A
100
AcDbEntity
  8
SEIHIN
  6
CONTINUOUS
100
AcDbCircle
 10
714.1480990115417
 20
231.2785359034256
 30
0.0
 40
0.5000166799161088
100
AcDbArc
 50
179.9975092948365
 51
254.9996631129382
  0
ARC
  5
6B7
330
1A
100
AcDbEntity
  8
SEIHIN
  6
CONTINUOUS
100
AcDbCircle
 10
714.1480990115417
 20
232.0111793758817
 30
0.0
 40
0.5000166799161319
100
AcDbArc
 50
105.0003368870609
 51
180.0024907051667
  0
ARC
  5
6B8
330
1A
100
AcDbEntity
  8
SEIHIN
  6
CONTINUOUS
100
AcDbCircle
 10
714.1480990115417
 20
228.0111793758817
 30
0.0
 40
0.5000166799161319
100
AcDbArc
 50
105.0003368870609
 51
180.0024907051667
  0
LINE
  5
6B9
330
1A
100
AcDbEntity
  8
SEIHIN
  6
CONTINUOUS
100
AcDbLine
 10
713.648082332098
 20
231.2785576396537
 30
0.0
 11
713.648082332098
 21
232.0111576396536
 31
0.0
  0
LINE
  5
6BA
330
1A
100
AcDbEntity
  8
SEIHIN
  6
CONTINUOUS
100
AcDbLine
 10
715.4981823320984
 20
230.3991576396537
 30
0.0
 11
715.4981823320984
 21
228.8905576396537
 31
0.0
  0
LINE
  5
6BB
330
1A
100
AcDbEntity
  8
SEIHIN
  6
CONTINUOUS
100
AcDbLine
 10
720.6536823320982
 20
227.5647576396537
 30
0.0
 11
720.6536823320982
 21
228.2974576396537
 31
0.0
  0
LINE
  5
6BC
330
1A
100
AcDbEntity
  8
SEIHIN
  6
CONTINUOUS
100
AcDbLine
 10
720.6536823320982
 20
215.5647576396537
 30
0.0
 11
720.6536823320982
 21
216.2974576396537
 31
0.0
  0
LINE
  5
6BD
330
1A
100
AcDbEntity
  8
SEIHIN
  6
CONTINUOUS
100
AcDbLine
 10
721.0241823320982
 20
211.0818576396537
 30
0.0
 11
722.5036823320984
 21
210.6853576396537
 31
0.0
  0
ARC
  5
6BE
330
1A
100
AcDbEntity
  8
SEIHIN
  6
CONTINUOUS
100
AcDbCircle
 10
721.1536990115419
 20
208.297479375882
 30
0.0
 40
0.5000166799160054
100
AcDbArc
 50
105.0003368870917
 51
180.0024907051952
  0
ARC
  5
6BF
330
1A
100
AcDbEntity
  8
SEIHIN
  6
CONTINUOUS
100
AcDbCircle
 10
721.153650715099
 20
207.5647988443338
 30
0.0
 40
0.4999683846986246
100
AcDbArc
 50
180.0047220071103
 51
255.0039100184355
  0
LINE
  5
6C0
330
1A
100
AcDbEntity
  8
SEIHIN
  6
CONTINUOUS
100
AcDbLine
 10
721.0241823320982
 20
207.0818576396536
 30
0.0
 11
722.5036823320984
 21
206.6853576396537
 31
0.0
  0
LINE
  5
6C1
330
1A
100
AcDbEntity
  8
SEIHIN
  6
CONTINUOUS
100
AcDbLine
 10
720.6536823320982
 20
207.5647576396537
 30
0.0
 11
720.6536823320982
 21
208.2974576396537
 31
0.0
  0
LINE
  5
6C2
330
1A
100
AcDbEntity
  8
SEIHIN
  6
CONTINUOUS
100
AcDbLine
 10
721.0242823320982
 20
208.7804576396537
 30
0.0
 11
722.5036823320984
 21
209.1768576396538
 31
0.0
  0
LINE
  5
6C3
330
1A
100
AcDbEntity
  8
SEIHIN
  6
CONTINUOUS
100
AcDbLine
 10
721.0242823320982
 20
204.7804576396537
 30
0.0
 11
722.5036823320984
 21
205.1768576396536
 31
0.0
  0
ARC
  5
6C4
330
1A
100
AcDbEntity
  8
SEIHIN
  6
CONTINUOUS
100
AcDbCircle
 10
721.153650715099
 20
215.5647988443338
 30
0.0
 40
0.4999683846986246
100
AcDbArc
 50
180.0047220071151
 51
255.0039100184342
  0
ARC
  5
6C5
330
1A
100
AcDbEntity
  8
SEIHIN
  6
CONTINUOUS
100
AcDbCircle
 10
721.1536990115419
 20
212.297479375882
 30
0.0
 40
0.5000166799160054
100
AcDbArc
 50
105.0003368870917
 51
180.0024907051952
  0
ARC
  5
6C6
330
1A
100
AcDbEntity
  8
SEIHIN
  6
CONTINUOUS
100
AcDbCircle
 10
721.153650715099
 20
211.5647988443338
 30
0.0
 40
0.4999683846986246
100
AcDbArc
 50
180.0047220071151
 51
255.0039100184342
  0
LINE
  5
6C7
330
1A
100
AcDbEntity
  8
SEIHIN
  6
CONTINUOUS
100
AcDbLine
 10
721.0241823320982
 20
215.0818576396537
 30
0.0
 11
722.5036823320984
 21
214.6853576396537
 31
0.0
  0
LINE
  5
6C8
330
1A
100
AcDbEntity
  8
SEIHIN
  6
CONTINUOUS
100
AcDbLine
 10
720.6536823320982
 20
211.5647576396537
 30
0.0
 11
720.6536823320982
 21
212.2974576396537
 31
0.0
  0
LINE
  5
6C9
330
1A
100
AcDbEntity
  8
SEIHIN
  6
CONTINUOUS
100
AcDbLine
 10
721.0242823320982
 20
212.7804576396537
 30
0.0
 11
722.5036823320984
 21
213.1768576396538
 31
0.0
  0
ARC
  5
6CA
330
1A
100
AcDbEntity
  8
SEIHIN
  6
CONTINUOUS
100
AcDbCircle
 10
721.153650715099
 20
219.5647988443338
 30
0.0
 40
0.4999683846986246
100
AcDbArc
 50
180.0047220071151
 51
255.0039100184342
  0
ARC
  5
6CB
330
1A
100
AcDbEntity
  8
SEIHIN
  6
CONTINUOUS
100
AcDbCircle
 10
721.1536990115419
 20
220.297479375882
 30
0.0
 40
0.5000166799160054
100
AcDbArc
 50
105.0003368870917
 51
180.0024907051952
  0
ARC
  5
6CC
330
1A
100
AcDbEntity
  8
SEIHIN
  6
CONTINUOUS
100
AcDbCircle
 10
721.1536990115419
 20
216.297479375882
 30
0.0
 40
0.5000166799160054
100
AcDbArc
 50
105.0003368870917
 51
180.0024907051952
  0
LINE
  5
6CD
330
1A
100
AcDbEntity
  8
SEIHIN
  6
CONTINUOUS
100
AcDbLine
 10
721.0241823320982
 20
219.0818576396537
 30
0.0
 11
722.5036823320984
 21
218.6853576396537
 31
0.0
  0
LINE
  5
6CE
330
1A
100
AcDbEntity
  8
SEIHIN
  6
CONTINUOUS
100
AcDbLine
 10
720.6536823320982
 20
219.5647576396537
 30
0.0
 11
720.6536823320982
 21
220.2974576396537
 31
0.0
  0
LINE
  5
6CF
330
1A
100
AcDbEntity
  8
SEIHIN
  6
CONTINUOUS
100
AcDbLine
 10
721.0242823320982
 20
220.7804576396537
 30
0.0
 11
722.5036823320984
 21
221.1768576396538
 31
0.0
  0
LINE
  5
6D0
330
1A
100
AcDbEntity
  8
SEIHIN
  6
CONTINUOUS
100
AcDbLine
 10
721.0242823320982
 20
216.7804576396537
 30
0.0
 11
722.5036823320984
 21
217.1768576396538
 31
0.0
  0
ARC
  5
6D1
330
1A
100
AcDbEntity
  8
SEIHIN
  6
CONTINUOUS
100
AcDbCircle
 10
721.153650715099
 20
227.5647988443338
 30
0.0
 40
0.4999683846986246
100
AcDbArc
 50
180.0047220071151
 51
255.0039100184342
  0
ARC
  5
6D2
330
1A
100
AcDbEntity
  8
SEIHIN
  6
CONTINUOUS
100
AcDbCircle
 10
721.153650715099
 20
223.5647988443338
 30
0.0
 40
0.4999683846986246
100
AcDbArc
 50
180.0047220071151
 51
255.0039100184342
  0
ARC
  5
6D3
330
1A
100
AcDbEntity
  8
SEIHIN
  6
CONTINUOUS
100
AcDbCircle
 10
721.1536990115419
 20
224.297479375882
 30
0.0
 40
0.5000166799160054
100
AcDbArc
 50
105.0003368870917
 51
180.0024907051952
  0
LINE
  5
6D4
330
1A
100
AcDbEntity
  8
SEIHIN
  6
CONTINUOUS
100
AcDbLine
 10
721.0241823320982
 20
227.0818576396537
 30
0.0
 11
722.5036823320984
 21
226.6853576396537
 31
0.0
  0
LINE
  5
6D5
330
1A
100
AcDbEntity
  8
SEIHIN
  6
CONTINUOUS
100
AcDbLine
 10
721.0241823320982
 20
223.0818576396537
 30
0.0
 11
722.5036823320984
 21
222.6853576396537
 31
0.0
  0
LINE
  5
6D6
330
1A
100
AcDbEntity
  8
SEIHIN
  6
CONTINUOUS
100
AcDbLine
 10
720.6536823320982
 20
223.5647576396537
 30
0.0
 11
720.6536823320982
 21
224.2974576396537
 31
0.0
  0
LINE
  5
6D7
330
1A
100
AcDbEntity
  8
SEIHIN
  6
CONTINUOUS
100
AcDbLine
 10
721.0242823320982
 20
224.7804576396537
 30
0.0
 11
722.5036823320984
 21
225.1768576396538
 31
0.0
  0
LINE
  5
6D8
330
1A
100
AcDbEntity
  8
SEIHIN
  6
CONTINUOUS
100
AcDbLine
 10
729.9046823320982
 20
234.7940576396537
 30
0.0
 11
740.9442823320983
 21
240.4073576396537
 31
0.0
  0
LINE
  5
6D9
330
1A
100
AcDbEntity
  8
SEIHIN
  6
CONTINUOUS
100
AcDbLine
 10
729.4733823320982
 20
236.5940576396537
 30
0.0
 11
736.9442823320983
 21
240.3928576396538
 31
0.0
  0
LINE
  5
6DA
330
1A
100
AcDbEntity
  8
SEIHIN
  6
CONTINUOUS
100
AcDbLine
 10
725.9807823320982
 20
234.6853576396538
 30
0.0
 11
729.4514823320983
 21
234.6853576396538
 31
0.0
  0
ARC
  5
6DB
330
1A
100
AcDbEntity
  8
SEIHIN
  6
CONTINUOUS
100
AcDbCircle
 10
724.5036823320983
 20
234.4854576396537
 30
0.0
 40
2.0
100
AcDbArc
 50
90.0
 51
180.0
  0
ARC
  5
6DC
330
1A
100
AcDbEntity
  8
SEIHIN
  6
CONTINUOUS
100
AcDbCircle
 10
721.153650715099
 20
231.5647988443338
 30
0.0
 40
0.4999683846986246
100
AcDbArc
 50
180.0047220071151
 51
255.0039100184342
  0
ARC
  5
6DD
330
1A
100
AcDbEntity
  8
SEIHIN
  6
CONTINUOUS
100
AcDbCircle
 10
721.1536856620762
 20
232.2974646404765
 30
0.0
 40
0.5000033300268158
100
AcDbArc
 50
129.1241208124993
 51
180.0008022298535
  0
ARC
  5
6DE
330
1A
100
AcDbEntity
  8
SEIHIN
  6
CONTINUOUS
100
AcDbCircle
 10
721.1536990115419
 20
228.2974793758819
 30
0.0
 40
0.5000166799159642
100
AcDbArc
 50
105.000336887093
 51
180.0024907051903
  0
LINE
  5
6DF
330
1A
100
AcDbEntity
  8
SEIHIN
  6
CONTINUOUS
100
AcDbLine
 10
721.0241823320982
 20
231.0818576396537
 30
0.0
 11
722.5036823320984
 21
230.6853576396537
 31
0.0
  0
LINE
  5
6E0
330
1A
100
AcDbEntity
  8
SEIHIN
  6
CONTINUOUS
100
AcDbLine
 10
720.6536823320982
 20
231.5647576396537
 30
0.0
 11
720.6536823320982
 21
232.2974576396537
 31
0.0
  0
LINE
  5
6E1
330
1A
100
AcDbEntity
  8
SEIHIN
  6
CONTINUOUS
100
AcDbLine
 10
721.0242823320982
 20
228.7804576396537
 30
0.0
 11
722.5036823320984
 21
229.1768576396538
 31
0.0
  0
ARC
  5
6E2
330
1A
100
AcDbEntity
  8
SEIHIN
  6
CONTINUOUS
100
AcDbCircle
 10
725.9807907123493
 20
234.3853657315387
 30
0.0
 40
0.299991908232133
100
AcDbArc
 50
90.00160055325235
 51
177.9957303656478
  0
ARC
  5
6E3
330
1A
100
AcDbEntity
  8
SEIHIN
  6
CONTINUOUS
100
AcDbCircle
 10
729.0201604103256
 20
237.4854763518038
 30
0.0
 40
1.000018715198174
100
AcDbArc
 50
269.9955265308103
 51
296.9500425955221
  0
ARC
  5
6E4
330
1A
100
AcDbEntity
  8
SEIHIN
  6
CONTINUOUS
100
AcDbCircle
 10
729.4512798588154
 20
235.6853091197992
 30
0.0
 40
0.9999515006442358
100
AcDbArc
 50
270.0116014273159
 51
296.9636072142618
  0
ARC
  5
6E5
330
1A
100
AcDbEntity
  8
SEIHIN
  6
CONTINUOUS
100
AcDbCircle
 10
736.4910862821139
 20
241.2842640791101
 30
0.0
 40
0.9999960500050947
100
AcDbArc
 50
296.9490399145708
 51
359.9996310448657
  0
LINE
  5
6E6
330
1A
100
AcDbEntity
  8
SEIHIN
  6
CONTINUOUS
100
AcDbLine
 10
737.4910823320983
 20
243.6854576396537
 30
0.0
 11
737.4910823320983
 21
241.2842576396536
 31
0.0
  0
ARC
  5
6E7
330
1A
100
AcDbEntity
  8
SEIHIN
  6
CONTINUOUS
100
AcDbCircle
 10
740.4910862821139
 20
241.2987640791101
 30
0.0
 40
0.9999960500050885
100
AcDbArc
 50
296.9490399145709
 51
359.9996310448645
  0
LINE
  5
6E8
330
1A
100
AcDbEntity
  8
SEIHIN
  6
CONTINUOUS
100
AcDbLine
 10
741.4910823320983
 20
241.2987576396536
 30
0.0
 11
741.4910823320983
 21
243.6854576396537
 31
0.0
  0
LINE
  5
6EC
330
1A
100
AcDbEntity
  8
SEIHIN
  6
CONTINUOUS
100
AcDbLine
 10
720.4917823320983
 20
367.5707576396536
 30
0.0
 11
622.4918823320983
 21
363.5708576396538
 31
0.0
  0
LINE
  5
6ED
330
1A
100
AcDbEntity
  8
SEIHIN
  6
CONTINUOUS
100
AcDbLine
 10
721.9533823320983
 20
368.0512576396536
 30
0.0
 11
620.9584823320982
 21
364.0790576396538
 31
0.0
  0
LINE
  5
6EE
330
1A
100
AcDbEntity
  8
SEIHIN
  6
CONTINUOUS
100
AcDbLine
 10
721.9879823320982
 20
369.5526576396535
 30
0.0
 11
620.9584823320982
 21
365.5790576396538
 31
0.0
  0
LINE
  5
6EF
330
1A
100
AcDbEntity
  8
SEIHIN
  6
CONTINUOUS
100
AcDbLine
 10
715.8004823320982
 20
369.8707576396535
 30
0.0
 11
622.4918823320983
 21
366.0623576396536
 31
0.0
  0
LINE
  5
6F0
330
1A
100
AcDbEntity
  8
SEIHIN
  6
CONTINUOUS
100
AcDbLine
 10
720.4917823320983
 20
338.0622576396538
 30
0.0
 11
659.4520823320983
 21
335.5708576396537
 31
0.0
  0
LINE
  5
6F1
330
1A
100
AcDbEntity
  8
SEIHIN
  6
CONTINUOUS
100
AcDbLine
 10
720.4917823320983
 20
346.0622576396538
 30
0.0
 11
622.4918823320983
 21
342.0623576396538
 31
0.0
  0
LINE
  5
6F2
330
1A
100
AcDbEntity
  8
SEIHIN
  6
CONTINUOUS
100
AcDbLine
 10
721.9879823320982
 20
345.5526576396537
 30
0.0
 11
620.9584823320982
 21
341.5790576396537
 31
0.0
  0
LINE
  5
6F3
330
1A
100
AcDbEntity
  8
SEIHIN
  6
CONTINUOUS
100
AcDbLine
 10
720.4917823320983
 20
342.0622576396535
 30
0.0
 11
622.4918823320983
 21
338.0623576396537
 31
0.0
  0
LINE
  5
6F4
330
1A
100
AcDbEntity
  8
SEIHIN
  6
CONTINUOUS
100
AcDbLine
 10
720.4917823320983
 20
339.5707576396536
 30
0.0
 11
622.4918823320983
 21
335.5708576396537
 31
0.0
  0
LINE
  5
6F5
330
1A
100
AcDbEntity
  8
SEIHIN
  6
CONTINUOUS
100
AcDbLine
 10
721.9879823320982
 20
341.5526576396536
 30
0.0
 11
620.9584823320982
 21
337.5790576396535
 31
0.0
  0
LINE
  5
6F6
330
1A
100
AcDbEntity
  8
SEIHIN
  6
CONTINUOUS
100
AcDbLine
 10
721.9533823320983
 20
340.0512576396537
 30
0.0
 11
620.9584823320982
 21
336.0790576396535
 31
0.0
  0
LINE
  5
6F7
330
1A
100
AcDbEntity
  8
SEIHIN
  6
CONTINUOUS
100
AcDbLine
 10
721.9533823320983
 20
344.0512576396536
 30
0.0
 11
620.9584823320982
 21
340.0790576396535
 31
0.0
  0
LINE
  5
6F8
330
1A
100
AcDbEntity
  8
SEIHIN
  6
CONTINUOUS
100
AcDbLine
 10
720.4917823320983
 20
343.5707576396536
 30
0.0
 11
622.4918823320983
 21
339.5708576396538
 31
0.0
  0
LINE
  5
6F9
330
1A
100
AcDbEntity
  8
SEIHIN
  6
CONTINUOUS
100
AcDbLine
 10
720.4917823320983
 20
350.0622576396537
 30
0.0
 11
622.4918823320983
 21
346.0623576396536
 31
0.0
  0
LINE
  5
6FA
330
1A
100
AcDbEntity
  8
SEIHIN
  6
CONTINUOUS
100
AcDbLine
 10
721.9879823320982
 20
349.5526576396536
 30
0.0
 11
620.9584823320982
 21
345.5790576396537
 31
0.0
  0
LINE
  5
6FB
330
1A
100
AcDbEntity
  8
SEIHIN
  6
CONTINUOUS
100
AcDbLine
 10
721.9533823320983
 20
348.0512576396536
 30
0.0
 11
620.9584823320982
 21
344.0790576396535
 31
0.0
  0
LINE
  5
6FC
330
1A
100
AcDbEntity
  8
SEIHIN
  6
CONTINUOUS
100
AcDbLine
 10
720.4917823320983
 20
347.5707576396537
 30
0.0
 11
622.4918823320983
 21
343.5708576396538
 31
0.0
  0
LINE
  5
6FD
330
1A
100
AcDbEntity
  8
SEIHIN
  6
CONTINUOUS
100
AcDbLine
 10
720.4917823320983
 20
354.0622576396537
 30
0.0
 11
622.4918823320983
 21
350.0623576396536
 31
0.0
  0
LINE
  5
6FE
330
1A
100
AcDbEntity
  8
SEIHIN
  6
CONTINUOUS
100
AcDbLine
 10
721.9879823320982
 20
353.5526576396536
 30
0.0
 11
620.9584823320982
 21
349.5790576396538
 31
0.0
  0
LINE
  5
6FF
330
1A
100
AcDbEntity
  8
SEIHIN
  6
CONTINUOUS
100
AcDbLine
 10
721.9533823320983
 20
352.0512576396536
 30
0.0
 11
620.9584823320982
 21
348.0790576396535
 31
0.0
  0
LINE
  5
700
330
1A
100
AcDbEntity
  8
SEIHIN
  6
CONTINUOUS
100
AcDbLine
 10
720.4917823320983
 20
351.5707576396537
 30
0.0
 11
622.4918823320983
 21
347.5708576396538
 31
0.0
  0
LINE
  5
701
330
1A
100
AcDbEntity
  8
SEIHIN
  6
CONTINUOUS
100
AcDbLine
 10
720.4917823320983
 20
358.0622576396538
 30
0.0
 11
622.4918823320983
 21
354.0623576396536
 31
0.0
  0
LINE
  5
702
330
1A
100
AcDbEntity
  8
SEIHIN
  6
CONTINUOUS
100
AcDbLine
 10
721.9879823320982
 20
357.5526576396536
 30
0.0
 11
620.9584823320982
 21
353.5790576396538
 31
0.0
  0
LINE
  5
703
330
1A
100
AcDbEntity
  8
SEIHIN
  6
CONTINUOUS
100
AcDbLine
 10
721.9533823320983
 20
356.0512576396536
 30
0.0
 11
620.9584823320982
 21
352.0790576396537
 31
0.0
  0
LINE
  5
704
330
1A
100
AcDbEntity
  8
SEIHIN
  6
CONTINUOUS
100
AcDbLine
 10
720.4917823320983
 20
355.5707576396536
 30
0.0
 11
622.4918823320983
 21
351.5708576396538
 31
0.0
  0
LINE
  5
705
330
1A
100
AcDbEntity
  8
SEIHIN
  6
CONTINUOUS
100
AcDbLine
 10
720.4917823320983
 20
362.0622576396538
 30
0.0
 11
622.4918823320983
 21
358.0623576396536
 31
0.0
  0
LINE
  5
706
330
1A
100
AcDbEntity
  8
SEIHIN
  6
CONTINUOUS
100
AcDbLine
 10
721.9879823320982
 20
361.5526576396536
 30
0.0
 11
620.9584823320982
 21
357.5790576396538
 31
0.0
  0
LINE
  5
707
330
1A
100
AcDbEntity
  8
SEIHIN
  6
CONTINUOUS
100
AcDbLine
 10
721.9533823320983
 20
360.0512576396535
 30
0.0
 11
620.9584823320982
 21
356.0790576396537
 31
0.0
  0
LINE
  5
708
330
1A
100
AcDbEntity
  8
SEIHIN
  6
CONTINUOUS
100
AcDbLine
 10
720.4917823320983
 20
359.5707576396536
 30
0.0
 11
622.4918823320983
 21
355.5708576396538
 31
0.0
  0
LINE
  5
709
330
1A
100
AcDbEntity
  8
SEIHIN
  6
CONTINUOUS
100
AcDbLine
 10
720.4917823320983
 20
366.0622576396538
 30
0.0
 11
622.4918823320983
 21
362.0623576396536
 31
0.0
  0
LINE
  5
70A
330
1A
100
AcDbEntity
  8
SEIHIN
  6
CONTINUOUS
100
AcDbLine
 10
721.9879823320982
 20
365.5526576396535
 30
0.0
 11
620.9584823320982
 21
361.5790576396538
 31
0.0
  0
LINE
  5
70B
330
1A
100
AcDbEntity
  8
SEIHIN
  6
CONTINUOUS
100
AcDbLine
 10
721.9533823320983
 20
364.0512576396536
 30
0.0
 11
620.9584823320982
 21
360.0790576396537
 31
0.0
  0
LINE
  5
70C
330
1A
100
AcDbEntity
  8
SEIHIN
  6
CONTINUOUS
100
AcDbLine
 10
720.4917823320983
 20
363.5707576396536
 30
0.0
 11
622.4918823320983
 21
359.5708576396538
 31
0.0
  0
LINE
  5
70D
330
1A
100
AcDbEntity
  8
SEIHIN
  6
CONTINUOUS
100
AcDbLine
 10
721.9879823320982
 20
337.5526576396536
 30
0.0
 11
671.4919823320983
 21
335.5665576396537
 31
0.0
  0
LINE
  5
70E
330
1A
100
AcDbEntity
  8
SEIHIN
  6
CONTINUOUS
100
AcDbLine
 10
671.4918823320983
 20
333.5708576396537
 30
0.0
 11
720.4918823320983
 21
333.5707576396536
 31
0.0
  0
LINE
  5
70F
330
1A
100
AcDbEntity
  8
SEIHIN
  6
CONTINUOUS
100
AcDbLine
 10
671.4918823320983
 20
335.5708576396537
 30
0.0
 11
720.4917823320983
 21
335.5707576396536
 31
0.0
  0
LINE
  5
710
330
1A
100
AcDbEntity
  8
SEIHIN
  6
CONTINUOUS
100
AcDbLine
 10
671.4917823320984
 20
373.5708576396538
 30
0.0
 11
736.4918823320984
 21
373.5707576396535
 31
0.0
  0
LINE
  5
711
330
1A
100
AcDbEntity
  8
SEIHIN
  6
CONTINUOUS
100
AcDbLine
 10
703.9917823320983
 20
376.7708576396537
 30
0.0
 11
671.4917823320984
 21
376.7708576396537
 31
0.0
  0
LINE
  5
712
330
1A
100
AcDbEntity
  8
SEIHIN
  6
CONTINUOUS
100
AcDbLine
 10
721.2062823320982
 20
369.8707576396535
 30
0.0
 11
671.4914823320982
 21
369.8704576396537
 31
0.0
  0
LINE
  5
713
330
1A
100
AcDbEntity
  8
SEIHIN
  6
CONTINUOUS
100
AcDbLine
 10
675.5920823320982
 20
423.5708576396538
 30
0.0
 11
701.4756823320981
 21
423.5708576396538
 31
0.0
  0
LINE
  5
714
330
1A
100
AcDbEntity
  8
SEIHIN
  6
CONTINUOUS
100
AcDbLine
 10
705.2265823320981
 20
431.7708576396537
 30
0.0
 11
671.4919823320983
 21
431.7708576396537
 31
0.0
  0
LINE
  5
715
330
1A
100
AcDbEntity
  8
CENTER_L
 48
5.0
100
AcDbLine
 10
671.4917823320984
 20
318.6868576396538
 30
0.0
 11
671.4919823320983
 21
445.5708576396538
 31
0.0
  0
LINE
  5
716
330
1A
100
AcDbEntity
  8
SEIHIN
  6
CONTINUOUS
100
AcDbLine
 10
622.4919823320983
 20
369.8708576396537
 30
0.0
 11
622.4919823320983
 21
371.3708576396537
 31
0.0
  0
ARC
  5
719
330
1A
100
AcDbEntity
  8
SEIHIN
  6
CONTINUOUS
100
AcDbCircle
 10
621.1419119553432
 20
356.4502190276706
 30
0.0
 40
0.5000296247356105
100
AcDbArc
 50
179.995575654813
 51
254.9866619781515
  0
ARC
  5
71A
330
1A
100
AcDbEntity
  8
SEIHIN
  6
CONTINUOUS
100
AcDbCircle
 10
621.1419119553433
 20
336.4502190276706
 30
0.0
 40
0.5000296247357242
100
AcDbArc
 50
179.9955756547999
 51
254.9866619781423
  0
ARC
  5
71B
330
1A
100
AcDbEntity
  8
SEIHIN
  6
CONTINUOUS
100
AcDbCircle
 10
621.141850715099
 20
337.1829164349735
 30
0.0
 40
0.4999683846986521
100
AcDbArc
 50
104.9960899815476
 51
179.9952779928726
  0
ARC
  5
71C
330
1A
100
AcDbEntity
  8
SEIHIN
  6
CONTINUOUS
100
AcDbCircle
 10
621.141850715099
 20
341.1829164349734
 30
0.0
 40
0.4999683846985751
100
AcDbArc
 50
104.9960899815399
 51
179.9952779928661
  0
ARC
  5
71D
330
1A
100
AcDbEntity
  8
SEIHIN
  6
CONTINUOUS
100
AcDbCircle
 10
621.1419119553433
 20
340.4502190276706
 30
0.0
 40
0.5000296247357242
100
AcDbArc
 50
179.9955756547999
 51
254.9866619781423
  0
ARC
  5
71E
330
1A
100
AcDbEntity
  8
SEIHIN
  6
CONTINUOUS
100
AcDbCircle
 10
621.1419119553433
 20
344.4502190276706
 30
0.0
 40
0.5000296247357242
100
AcDbArc
 50
179.9955756547999
 51
254.9866619781423
  0
ARC
  5
71F
330
1A
100
AcDbEntity
  8
SEIHIN
  6
CONTINUOUS
100
AcDbCircle
 10
621.141850715099
 20
345.1829164349734
 30
0.0
 40
0.4999683846985751
100
AcDbArc
 50
104.9960899815399
 51
179.9952779928661
  0
ARC
  5
720
330
1A
100
AcDbEntity
  8
SEIHIN
  6
CONTINUOUS
100
AcDbCircle
 10
621.141850715099
 20
349.1829164349734
 30
0.0
 40
0.4999683846985751
100
AcDbArc
 50
104.9960899815399
 51
179.9952779928661
  0
ARC
  5
721
330
1A
100
AcDbEntity
  8
SEIHIN
  6
CONTINUOUS
100
AcDbCircle
 10
621.1419119553432
 20
348.4502190276707
 30
0.0
 40
0.5000296247356674
100
AcDbArc
 50
179.9955756548065
 51
254.9866619781469
  0
ARC
  5
722
330
1A
100
AcDbEntity
  8
SEIHIN
  6
CONTINUOUS
100
AcDbCircle
 10
621.141850715099
 20
353.1829164349734
 30
0.0
 40
0.4999683846985751
100
AcDbArc
 50
104.9960899815399
 51
179.9952779928661
  0
ARC
  5
723
330
1A
100
AcDbEntity
  8
SEIHIN
  6
CONTINUOUS
100
AcDbCircle
 10
621.1419119553432
 20
352.4502190276706
 30
0.0
 40
0.5000296247356105
100
AcDbArc
 50
179.995575654813
 51
254.9866619781515
  0
ARC
  5
724
330
1A
100
AcDbEntity
  8
SEIHIN
  6
CONTINUOUS
100
AcDbCircle
 10
621.141850715099
 20
357.1829164349734
 30
0.0
 40
0.4999683846985751
100
AcDbArc
 50
104.9960899815399
 51
179.9952779928661
  0
ARC
  5
725
330
1A
100
AcDbEntity
  8
SEIHIN
  6
CONTINUOUS
100
AcDbCircle
 10
621.141850715099
 20
361.1829164349734
 30
0.0
 40
0.4999683846985751
100
AcDbArc
 50
104.9960899815399
 51
179.9952779928661
  0
ARC
  5
726
330
1A
100
AcDbEntity
  8
SEIHIN
  6
CONTINUOUS
100
AcDbCircle
 10
621.1419119553432
 20
360.4502190276706
 30
0.0
 40
0.5000296247356674
100
AcDbArc
 50
179.9955756548065
 51
254.9866619781469
  0
ARC
  5
727
330
1A
100
AcDbEntity
  8
SEIHIN
  6
CONTINUOUS
100
AcDbCircle
 10
621.141850715099
 20
365.1829164349734
 30
0.0
 40
0.4999683846985751
100
AcDbArc
 50
104.9960899815399
 51
179.9952779928661
  0
ARC
  5
728
330
1A
100
AcDbEntity
  8
SEIHIN
  6
CONTINUOUS
100
AcDbCircle
 10
621.1419119553432
 20
364.4502190276706
 30
0.0
 40
0.5000296247356674
100
AcDbArc
 50
179.9955756548065
 51
254.9866619781469
  0
ARC
  5
729
330
1A
100
AcDbEntity
  8
SEIHIN
  6
CONTINUOUS
100
AcDbCircle
 10
621.141850715099
 20
369.1829164349734
 30
0.0
 40
0.499968384698687
100
AcDbArc
 50
104.9960899815499
 51
179.9952779928758
  0
ARC
  5
72A
330
1A
100
AcDbEntity
  8
SEIHIN
  6
CONTINUOUS
100
AcDbCircle
 10
621.1419119553432
 20
368.4502190276706
 30
0.0
 40
0.5000296247356674
100
AcDbArc
 50
179.9955756548065
 51
254.9866619781469
  0
LINE
  5
72C
330
1A
100
AcDbEntity
  8
SEIHIN
  6
CONTINUOUS
100
AcDbLine
 10
620.6418823320984
 20
344.4502576396537
 30
0.0
 11
620.6418823320984
 21
345.1829576396537
 31
0.0
  0
LINE
  5
72D
330
1A
100
AcDbEntity
  8
SEIHIN
  6
CONTINUOUS
100
AcDbLine
 10
620.6418823320984
 20
336.4502576396537
 30
0.0
 11
620.6418823320984
 21
337.1829576396537
 31
0.0
  0
LINE
  5
72E
330
1A
100
AcDbEntity
  8
SEIHIN
  6
CONTINUOUS
100
AcDbLine
 10
620.6418823320984
 20
340.4502576396537
 30
0.0
 11
620.6418823320984
 21
341.1829576396537
 31
0.0
  0
LINE
  5
72F
330
1A
100
AcDbEntity
  8
SEIHIN
  6
CONTINUOUS
100
AcDbLine
 10
620.6418823320984
 20
348.4502576396537
 30
0.0
 11
620.6418823320984
 21
349.1829576396537
 31
0.0
  0
LINE
  5
730
330
1A
100
AcDbEntity
  8
SEIHIN
  6
CONTINUOUS
100
AcDbLine
 10
620.6418823320984
 20
352.4502576396536
 30
0.0
 11
620.6418823320984
 21
353.1829576396537
 31
0.0
  0
LINE
  5
731
330
1A
100
AcDbEntity
  8
SEIHIN
  6
CONTINUOUS
100
AcDbLine
 10
620.6418823320984
 20
356.4502576396536
 30
0.0
 11
620.6418823320984
 21
357.1829576396537
 31
0.0
  0
LINE
  5
732
330
1A
100
AcDbEntity
  8
SEIHIN
  6
CONTINUOUS
100
AcDbLine
 10
620.6418823320984
 20
360.4502576396536
 30
0.0
 11
620.6418823320984
 21
361.1829576396537
 31
0.0
  0
LINE
  5
733
330
1A
100
AcDbEntity
  8
SEIHIN
  6
CONTINUOUS
100
AcDbLine
 10
620.6418823320984
 20
364.4502576396536
 30
0.0
 11
620.6418823320984
 21
365.1829576396537
 31
0.0
  0
LINE
  5
734
330
1A
100
AcDbEntity
  8
SEIHIN
  6
CONTINUOUS
100
AcDbLine
 10
620.6418823320984
 20
368.4502576396535
 30
0.0
 11
620.6418823320984
 21
369.1829576396536
 31
0.0
  0
LINE
  5
736
330
1A
100
AcDbEntity
  8
SEIHIN
  6
CONTINUOUS
100
AcDbLine
 10
678.8348823320982
 20
369.8705576396537
 30
0.0
 11
622.4918823320983
 21
367.5708576396538
 31
0.0
  0
LINE
  5
737
330
1A
100
AcDbEntity
  8
SEIHIN
  6
CONTINUOUS
100
AcDbLine
 10
666.5067823320982
 20
369.8704576396537
 30
0.0
 11
620.9584823320982
 21
368.0790576396538
 31
0.0
  0
LINE
  5
738
330
1A
100
AcDbEntity
  8
SEIHIN
  6
CONTINUOUS
100
AcDbLine
 10
671.4917823320984
 20
333.5708576396537
 30
0.0
 11
622.4917823320981
 21
333.5708576396537
 31
0.0
  0
LINE
  5
739
330
1A
100
AcDbEntity
  8
SEIHIN
  6
CONTINUOUS
100
AcDbLine
 10
621.7774823320982
 20
369.8708576396537
 30
0.0
 11
671.4922823320982
 21
369.8704576396537
 31
0.0
  0
LINE
  5
73A
330
1A
100
AcDbEntity
  8
SEIHIN
  6
CONTINUOUS
100
AcDbLine
 10
671.4917823320984
 20
335.5708576396537
 30
0.0
 11
622.4917823320981
 21
335.5708576396537
 31
0.0
  0
LINE
  5
73B
330
1A
100
AcDbEntity
  8
SEIHIN
  6
CONTINUOUS
100
AcDbLine
 10
622.4918823320983
 20
346.0623576396536
 30
0.0
 11
622.4918823320983
 21
347.5708576396538
 31
0.0
  0
LINE
  5
73C
330
1A
100
AcDbEntity
  8
SEIHIN
  6
CONTINUOUS
100
AcDbLine
 10
622.4917823320981
 20
333.5708576396537
 30
0.0
 11
622.4917823320981
 21
335.5708576396537
 31
0.0
  0
LINE
  5
73D
330
1A
100
AcDbEntity
  8
SEIHIN
  6
CONTINUOUS
100
AcDbLine
 10
622.4918823320983
 20
342.0623576396538
 30
0.0
 11
622.4918823320983
 21
343.5708576396538
 31
0.0
  0
LINE
  5
73E
330
1A
100
AcDbEntity
  8
SEIHIN
  6
CONTINUOUS
100
AcDbLine
 10
622.4917823320981
 20
338.0622576396538
 30
0.0
 11
622.4917823320981
 21
339.5708576396538
 31
0.0
  0
LINE
  5
73F
330
1A
100
AcDbEntity
  8
SEIHIN
  6
CONTINUOUS
100
AcDbLine
 10
621.0123823320982
 20
335.9672576396536
 30
0.0
 11
622.4918823320983
 21
335.5708576396537
 31
0.0
  0
LINE
  5
740
330
1A
100
AcDbEntity
  8
SEIHIN
  6
CONTINUOUS
100
AcDbLine
 10
621.0124823320984
 20
337.6658576396537
 30
0.0
 11
622.4918823320983
 21
338.0623576396537
 31
0.0
  0
LINE
  5
741
330
1A
100
AcDbEntity
  8
SEIHIN
  6
CONTINUOUS
100
AcDbLine
 10
621.0124823320984
 20
341.6658576396536
 30
0.0
 11
622.4918823320983
 21
342.0623576396538
 31
0.0
  0
LINE
  5
742
330
1A
100
AcDbEntity
  8
SEIHIN
  6
CONTINUOUS
100
AcDbLine
 10
621.0123823320982
 20
339.9672576396536
 30
0.0
 11
622.4918823320983
 21
339.5708576396538
 31
0.0
  0
LINE
  5
743
330
1A
100
AcDbEntity
  8
SEIHIN
  6
CONTINUOUS
100
AcDbLine
 10
621.0123823320982
 20
343.9672576396536
 30
0.0
 11
622.4918823320983
 21
343.5708576396538
 31
0.0
  0
LINE
  5
744
330
1A
100
AcDbEntity
  8
SEIHIN
  6
CONTINUOUS
100
AcDbLine
 10
621.0124823320984
 20
345.6658576396536
 30
0.0
 11
622.4918823320983
 21
346.0623576396536
 31
0.0
  0
LINE
  5
745
330
1A
100
AcDbEntity
  8
SEIHIN
  6
CONTINUOUS
100
AcDbLine
 10
622.4918823320983
 20
358.0623576396536
 30
0.0
 11
622.4918823320983
 21
359.5708576396538
 31
0.0
  0
LINE
  5
746
330
1A
100
AcDbEntity
  8
SEIHIN
  6
CONTINUOUS
100
AcDbLine
 10
622.4918823320983
 20
354.0623576396536
 30
0.0
 11
622.4918823320983
 21
355.5708576396538
 31
0.0
  0
LINE
  5
747
330
1A
100
AcDbEntity
  8
SEIHIN
  6
CONTINUOUS
100
AcDbLine
 10
622.4918823320983
 20
350.0623576396536
 30
0.0
 11
622.4918823320983
 21
351.5708576396538
 31
0.0
  0
LINE
  5
748
330
1A
100
AcDbEntity
  8
SEIHIN
  6
CONTINUOUS
100
AcDbLine
 10
621.0124823320984
 20
349.6658576396536
 30
0.0
 11
622.4918823320983
 21
350.0623576396536
 31
0.0
  0
LINE
  5
749
330
1A
100
AcDbEntity
  8
SEIHIN
  6
CONTINUOUS
100
AcDbLine
 10
621.0123823320982
 20
347.9672576396537
 30
0.0
 11
622.4918823320983
 21
347.5708576396538
 31
0.0
  0
LINE
  5
74A
330
1A
100
AcDbEntity
  8
SEIHIN
  6
CONTINUOUS
100
AcDbLine
 10
621.0124823320984
 20
353.6658576396536
 30
0.0
 11
622.4918823320983
 21
354.0623576396536
 31
0.0
  0
LINE
  5
74B
330
1A
100
AcDbEntity
  8
SEIHIN
  6
CONTINUOUS
100
AcDbLine
 10
621.0123823320982
 20
351.9672576396537
 30
0.0
 11
622.4918823320983
 21
351.5708576396538
 31
0.0
  0
LINE
  5
74C
330
1A
100
AcDbEntity
  8
SEIHIN
  6
CONTINUOUS
100
AcDbLine
 10
621.0123823320982
 20
355.9672576396538
 30
0.0
 11
622.4918823320983
 21
355.5708576396538
 31
0.0
  0
LINE
  5
74D
330
1A
100
AcDbEntity
  8
SEIHIN
  6
CONTINUOUS
100
AcDbLine
 10
621.0124823320984
 20
357.6658576396535
 30
0.0
 11
622.4918823320983
 21
358.0623576396536
 31
0.0
  0
LINE
  5
74E
330
1A
100
AcDbEntity
  8
SEIHIN
  6
CONTINUOUS
100
AcDbLine
 10
622.4919823320983
 20
366.0623576396536
 30
0.0
 11
622.4919823320983
 21
367.5708576396538
 31
0.0
  0
LINE
  5
74F
330
1A
100
AcDbEntity
  8
SEIHIN
  6
CONTINUOUS
100
AcDbLine
 10
622.4918823320983
 20
362.0623576396536
 30
0.0
 11
622.4918823320983
 21
363.5708576396538
 31
0.0
  0
LINE
  5
750
330
1A
100
AcDbEntity
  8
SEIHIN
  6
CONTINUOUS
100
AcDbLine
 10
621.0124823320984
 20
361.6658576396535
 30
0.0
 11
622.4918823320983
 21
362.0623576396536
 31
0.0
  0
LINE
  5
751
330
1A
100
AcDbEntity
  8
SEIHIN
  6
CONTINUOUS
100
AcDbLine
 10
621.0123823320982
 20
359.9672576396536
 30
0.0
 11
622.4918823320983
 21
359.5708576396538
 31
0.0
  0
LINE
  5
752
330
1A
100
AcDbEntity
  8
SEIHIN
  6
CONTINUOUS
100
AcDbLine
 10
621.0124823320984
 20
365.6658576396536
 30
0.0
 11
622.4918823320983
 21
366.0623576396536
 31
0.0
  0
LINE
  5
753
330
1A
100
AcDbEntity
  8
SEIHIN
  6
CONTINUOUS
100
AcDbLine
 10
621.0123823320982
 20
363.9672576396536
 30
0.0
 11
622.4918823320983
 21
363.5708576396538
 31
0.0
  0
LINE
  5
754
330
1A
100
AcDbEntity
  8
SEIHIN
  6
CONTINUOUS
100
AcDbLine
 10
628.3619823320983
 20
369.8702576396537
 30
0.0
 11
620.9584823320982
 21
369.5790576396538
 31
0.0
  0
LINE
  5
755
330
1A
100
AcDbEntity
  8
SEIHIN
  6
CONTINUOUS
100
AcDbLine
 10
621.0124823320984
 20
369.6658576396536
 30
0.0
 11
621.7774823320982
 21
369.8708576396537
 31
0.0
  0
LINE
  5
756
330
1A
100
AcDbEntity
  8
SEIHIN
  6
CONTINUOUS
100
AcDbLine
 10
621.0123823320982
 20
367.9672576396536
 30
0.0
 11
622.4918823320983
 21
367.5708576396538
 31
0.0
  0
LINE
  5
757
330
1A
100
AcDbEntity
  8
SEIHIN
  6
CONTINUOUS
100
AcDbLine
 10
671.4919823320983
 20
373.5708576396538
 30
0.0
 11
606.4917823320982
 21
373.5708576396538
 31
0.0
  0
LINE
  5
758
330
1A
100
AcDbEntity
  8
SEIHIN
  6
CONTINUOUS
100
AcDbLine
 10
615.2001823320984
 20
374.5708576396538
 30
0.0
 11
638.9919823320983
 21
374.5708576396538
 31
0.0
  0
LINE
  5
759
330
1A
100
AcDbEntity
  8
SEIHIN
  6
CONTINUOUS
100
AcDbLine
 10
618.6642823320982
 20
375.5708576396538
 30
0.0
 11
638.9919823320983
 21
375.5708576396538
 31
0.0
  0
LINE
  5
75A
330
1A
100
AcDbEntity
  8
SEIHIN
  6
CONTINUOUS
100
AcDbLine
 10
606.4919823320983
 20
376.7709576396536
 30
0.0
 11
622.4418823320984
 21
376.7708576396537
 31
0.0
  0
ARC
  5
75B
330
1A
100
AcDbEntity
  8
SEIHIN
  6
CONTINUOUS
100
AcDbCircle
 10
620.2918823320983
 20
371.3708576396536
 30
0.0
 40
2.200000000000073
100
AcDbArc
 50
0.0000000000022206
 51
90.00000000000222
  0
LINE
  5
75C
330
1A
100
AcDbEntity
  8
SEIHIN
  6
CONTINUOUS
100
AcDbLine
 10
606.4917823320982
 20
376.7708576396537
 30
0.0
 11
606.4917823320982
 21
373.5709576396538
 31
0.0
  0
LINE
  5
75D
330
1A
100
AcDbEntity
  8
SEIHIN
  6
CONTINUOUS
100
AcDbLine
 10
615.2001823320984
 20
376.7708576396537
 30
0.0
 11
615.2001823320984
 21
374.5708576396538
 31
0.0
  0
LINE
  5
75E
330
1A
100
AcDbEntity
  8
SEIHIN
  6
CONTINUOUS
100
AcDbLine
 10
615.2001823320984
 20
374.5708576396538
 30
0.0
 11
618.6642823320982
 21
375.5708576396538
 31
0.0
  0
LINE
  5
75F
330
1A
100
AcDbEntity
  8
SEIHIN
  6
CONTINUOUS
100
AcDbLine
 10
633.8434823320982
 20
428.8924576396538
 30
0.0
 11
624.8597823320982
 21
400.1095576396536
 31
0.0
  0
LINE
  5
760
330
1A
100
AcDbEntity
  8
SEIHIN
  6
CONTINUOUS
100
AcDbLine
 10
640.5534823320984
 20
422.8688576396538
 30
0.0
 11
632.6873823320984
 21
397.6664576396538
 31
0.0
  0
LINE
  5
761
330
1A
100
AcDbEntity
  8
SEIHIN
  6
CONTINUOUS
100
AcDbLine
 10
667.3918823320982
 20
427.6708576396536
 30
0.0
 11
667.3918823320982
 21
376.7708576396537
 31
0.0
  0
LINE
  5
762
330
1A
100
AcDbEntity
  8
SEIHIN
  6
CONTINUOUS
100
AcDbLine
 10
675.5920823320982
 20
427.6708576396536
 30
0.0
 11
675.5918823320983
 21
376.7708576396537
 31
0.0
  0
LINE
  5
763
330
1A
100
AcDbEntity
  8
SEIHIN
  6
CONTINUOUS
100
AcDbLine
 10
638.9919823320983
 20
376.7708576396537
 30
0.0
 11
671.4919823320983
 21
376.7708576396537
 31
0.0
  0
LINE
  5
764
330
1A
100
AcDbEntity
  8
SEIHIN
  6
CONTINUOUS
100
AcDbLine
 10
624.4418823320982
 20
378.7708576396537
 30
0.0
 11
624.4418823320982
 21
397.3684576396536
 31
0.0
  0
LINE
  5
765
330
1A
100
AcDbEntity
  8
SEIHIN
  6
CONTINUOUS
100
AcDbLine
 10
632.6418823320982
 20
375.5708576396538
 30
0.0
 11
632.6419823320984
 21
397.3685576396536
 31
0.0
  0
ARC
  5
766
330
1A
100
AcDbEntity
  8
SEIHIN
  6
CONTINUOUS
100
AcDbCircle
 10
622.4418823320982
 20
378.7708576396536
 30
0.0
 40
1.999999999999914
100
AcDbArc
 50
270.0000000000024
 51
0.0000000000024427
  0
ARC
  5
767
330
1A
100
AcDbEntity
  8
SEIHIN
  6
CONTINUOUS
100
AcDbCircle
 10
622.1857823320983
 20
373.7708576396537
 30
0.0
 40
2.999999999999988
100
AcDbArc
 50
36.86989764584446
 51
90.0
  0
LINE
  5
768
330
1A
100
AcDbEntity
  8
SEIHIN
  6
CONTINUOUS
100
AcDbLine
 10
638.9919823320983
 20
376.7708576396537
 30
0.0
 11
638.9919823320983
 21
374.5708576396538
 31
0.0
  0
LINE
  5
769
330
1A
100
AcDbEntity
  8
SEIHIN
  6
CONTINUOUS
100
AcDbLine
 10
632.6532823320982
 20
397.5192576396537
 30
0.0
 11
628.6001823320983
 21
398.1370576396535
 31
0.0
  0
ARC
  5
76A
330
1A
100
AcDbEntity
  8
SEIHIN
  6
CONTINUOUS
100
AcDbCircle
 10
633.6419004312471
 20
397.3685763741667
 30
0.0
 40
9.20001809991507
100
AcDbArc
 50
162.6665538824145
 51
180.0007394535976
  0
ARC
  5
76B
330
1A
100
AcDbEntity
  8
SEIHIN
  6
CONTINUOUS
100
AcDbCircle
 10
633.6419837245969
 20
397.3685667762116
 30
0.0
 40
1.000001392540195
100
AcDbArc
 50
162.6690574526596
 51
180.0005234854865
  0
ARC
  5
76C
330
1A
100
AcDbEntity
  8
SEIHIN
  6
CONTINUOUS
100
AcDbCircle
 10
671.4919776287386
 20
384.8421870687648
 30
0.0
 40
13.91277057121536
100
AcDbArc
 50
90.00039245204717
 51
107.1399876941924
  0
ARC
  5
76D
330
1A
100
AcDbEntity
  8
SEIHIN
  6
CONTINUOUS
100
AcDbCircle
 10
671.4918848150455
 20
384.84217233513
 30
0.0
 40
13.91278530486546
100
AcDbArc
 50
72.86002144951805
 51
89.99959840424216
  0
LINE
  5
76E
330
1A
100
AcDbEntity
  8
SEIHIN
  6
CONTINUOUS
100
AcDbLine
 10
637.7572823320983
 20
431.7708576396537
 30
0.0
 11
671.4919823320983
 21
431.7708576396537
 31
0.0
  0
LINE
  5
76F
330
1A
100
AcDbEntity
  8
SEIHIN
  6
CONTINUOUS
100
AcDbLine
 10
667.3918823320982
 20
423.5708576396538
 30
0.0
 11
641.5081823320983
 21
423.5708576396538
 31
0.0
  0
ARC
  5
770
330
1A
100
AcDbEntity
  8
SEIHIN
  6
CONTINUOUS
100
AcDbCircle
 10
637.7573561257259
 20
427.6710119123232
 30
0.0
 40
4.099945727994501
100
AcDbArc
 50
90.00103124862832
 51
162.6674316660739
  0
ARC
  5
771
330
1A
100
AcDbEntity
  8
SEIHIN
  6
CONTINUOUS
100
AcDbCircle
 10
648.0918823320982
 20
427.6708576396536
 30
0.0
 40
4.099999999999994
100
AcDbArc
 50
90.0
 51
270.0
  0
ARC
  5
772
330
1A
100
AcDbEntity
  8
SEIHIN
  6
CONTINUOUS
100
AcDbCircle
 10
641.5080601818718
 20
422.5708413499192
 30
0.0
 40
1.000016289979872
100
AcDbArc
 50
89.99873090618137
 51
162.6617956116509
  0
LINE
  5
773
330
1A
100
AcDbEntity
  8
SEIHIN
  6
CONTINUOUS
100
AcDbLine
 10
640.9156823320982
 20
423.3764576396536
 30
0.0
 11
638.1219823320983
 21
427.1751576396536
 31
0.0
  0
ARC
  5
774
330
1A
100
AcDbEntity
  8
SEIHIN
  6
CONTINUOUS
100
AcDbCircle
 10
671.4917823320984
 20
427.6708576396536
 30
0.0
 40
4.100000000000051
100
AcDbArc
 50
90.00000000000078
 51
180.0000000000012
  0
ARC
  5
775
330
1A
100
AcDbEntity
  8
SEIHIN
  6
CONTINUOUS
100
AcDbCircle
 10
671.4920823320981
 20
427.6708576396538
 30
0.0
 40
4.099999999999965
100
AcDbArc
 50
359.9999999999976
 51
89.99999999999763
  0
LINE
  5
779
330
1A
100
AcDbEntity
  8
SEIHIN
  6
CONTINUOUS
100
AcDbLine
 10
720.4917823320983
 20
369.8707576396535
 30
0.0
 11
720.4917823320983
 21
371.3707576396537
 31
0.0
  0
LINE
  5
77F
330
1A
100
AcDbEntity
  8
SEIHIN
  6
CONTINUOUS
100
AcDbLine
 10
721.9533823320983
 20
336.0512576396537
 30
0.0
 11
709.7403823320985
 21
335.5708576396537
 31
0.0
  0
LINE
  5
780
330
1A
100
AcDbEntity
  8
SEIHIN
  6
CONTINUOUS
100
AcDbLine
 10
720.4918823320983
 20
346.0621576396536
 30
0.0
 11
720.4918823320983
 21
347.5707576396537
 31
0.0
  0
LINE
  5
781
330
1A
100
AcDbEntity
  8
SEIHIN
  6
CONTINUOUS
100
AcDbLine
 10
720.4918823320983
 20
333.5707576396536
 30
0.0
 11
720.4918823320983
 21
335.5708576396537
 31
0.0
  0
LINE
  5
782
330
1A
100
AcDbEntity
  8
SEIHIN
  6
CONTINUOUS
100
AcDbLine
 10
722.341782332098
 20
345.1828576396537
 30
0.0
 11
722.341782332098
 21
344.4501576396537
 31
0.0
  0
ARC
  5
783
330
1A
100
AcDbEntity
  8
SEIHIN
  6
CONTINUOUS
100
AcDbCircle
 10
721.8417656526544
 20
337.1828793758818
 30
0.0
 40
0.5000166799161088
100
AcDbArc
 50
359.997509294808
 51
74.99966311291157
  0
ARC
  5
784
330
1A
100
AcDbEntity
  8
SEIHIN
  6
CONTINUOUS
100
AcDbCircle
 10
721.8417656526546
 20
336.4501359034255
 30
0.0
 40
0.5000166799160457
100
AcDbArc
 50
285.0003368870837
 51
0.0024907051854698
  0
ARC
  5
785
330
1A
100
AcDbEntity
  8
SEIHIN
  6
CONTINUOUS
100
AcDbCircle
 10
721.8417656526546
 20
341.1828793758818
 30
0.0
 40
0.5000166799159951
100
AcDbArc
 50
359.997509294821
 51
74.99966311292078
  0
ARC
  5
786
330
1A
100
AcDbEntity
  8
SEIHIN
  6
CONTINUOUS
100
AcDbCircle
 10
721.8417656526546
 20
340.4501359034255
 30
0.0
 40
0.5000166799160457
100
AcDbArc
 50
285.0003368870837
 51
0.0024907051854698
  0
ARC
  5
787
330
1A
100
AcDbEntity
  8
SEIHIN
  6
CONTINUOUS
100
AcDbCircle
 10
721.8417656526546
 20
344.4501359034255
 30
0.0
 40
0.5000166799160457
100
AcDbArc
 50
285.0003368870837
 51
0.0024907051854698
  0
LINE
  5
788
330
1A
100
AcDbEntity
  8
SEIHIN
  6
CONTINUOUS
100
AcDbLine
 10
722.341782332098
 20
341.1828576396537
 30
0.0
 11
722.341782332098
 21
340.4501576396537
 31
0.0
  0
LINE
  5
789
330
1A
100
AcDbEntity
  8
SEIHIN
  6
CONTINUOUS
100
AcDbLine
 10
721.9711823320981
 20
339.9671576396538
 30
0.0
 11
720.4917823320983
 21
339.5707576396536
 31
0.0
  0
LINE
  5
78A
330
1A
100
AcDbEntity
  8
SEIHIN
  6
CONTINUOUS
100
AcDbLine
 10
721.9712823320981
 20
337.6658576396537
 30
0.0
 11
720.4917823320983
 21
338.0622576396538
 31
0.0
  0
LINE
  5
78B
330
1A
100
AcDbEntity
  8
SEIHIN
  6
CONTINUOUS
100
AcDbLine
 10
722.341782332098
 20
337.1828576396536
 30
0.0
 11
722.341782332098
 21
336.4501576396537
 31
0.0
  0
LINE
  5
78C
330
1A
100
AcDbEntity
  8
SEIHIN
  6
CONTINUOUS
100
AcDbLine
 10
721.9712823320981
 20
341.6658576396536
 30
0.0
 11
720.4917823320983
 21
342.0622576396535
 31
0.0
  0
LINE
  5
78D
330
1A
100
AcDbEntity
  8
SEIHIN
  6
CONTINUOUS
100
AcDbLine
 10
721.9711823320981
 20
335.9671576396538
 30
0.0
 11
720.4917823320983
 21
335.5707576396536
 31
0.0
  0
LINE
  5
78E
330
1A
100
AcDbEntity
  8
SEIHIN
  6
CONTINUOUS
100
AcDbLine
 10
721.9711823320981
 20
343.9671576396538
 30
0.0
 11
720.4917823320983
 21
343.5707576396536
 31
0.0
  0
LINE
  5
78F
330
1A
100
AcDbEntity
  8
SEIHIN
  6
CONTINUOUS
100
AcDbLine
 10
720.4918823320983
 20
338.0621576396535
 30
0.0
 11
720.4918823320983
 21
339.5707576396536
 31
0.0
  0
LINE
  5
790
330
1A
100
AcDbEntity
  8
SEIHIN
  6
CONTINUOUS
100
AcDbLine
 10
720.4918823320983
 20
342.0621576396535
 30
0.0
 11
720.4918823320983
 21
343.5707576396536
 31
0.0
  0
ARC
  5
791
330
1A
100
AcDbEntity
  8
SEIHIN
  6
CONTINUOUS
100
AcDbCircle
 10
721.8417656526546
 20
345.1828793758818
 30
0.0
 40
0.5000166799159951
100
AcDbArc
 50
359.997509294821
 51
74.99966311292078
  0
LINE
  5
792
330
1A
100
AcDbEntity
  8
SEIHIN
  6
CONTINUOUS
100
AcDbLine
 10
721.9712823320981
 20
345.6658576396536
 30
0.0
 11
720.4917823320983
 21
346.0622576396538
 31
0.0
  0
LINE
  5
793
330
1A
100
AcDbEntity
  8
SEIHIN
  6
CONTINUOUS
100
AcDbLine
 10
720.4918823320983
 20
358.0621576396536
 30
0.0
 11
720.4918823320983
 21
359.5707576396536
 31
0.0
  0
ARC
  5
794
330
1A
100
AcDbEntity
  8
SEIHIN
  6
CONTINUOUS
100
AcDbCircle
 10
721.8417656526544
 20
356.4501359034254
 30
0.0
 40
0.5000166799161575
100
AcDbArc
 50
285.0003368870938
 51
0.0024907051952396
  0
ARC
  5
795
330
1A
100
AcDbEntity
  8
SEIHIN
  6
CONTINUOUS
100
AcDbCircle
 10
721.8417656526546
 20
349.1828793758818
 30
0.0
 40
0.500016679916052
100
AcDbArc
 50
359.9975092948145
 51
74.99966311291618
  0
ARC
  5
796
330
1A
100
AcDbEntity
  8
SEIHIN
  6
CONTINUOUS
100
AcDbCircle
 10
721.8417656526546
 20
348.4501359034255
 30
0.0
 40
0.5000166799160457
100
AcDbArc
 50
285.0003368870837
 51
0.0024907051854698
  0
ARC
  5
797
330
1A
100
AcDbEntity
  8
SEIHIN
  6
CONTINUOUS
100
AcDbCircle
 10
721.8417656526546
 20
353.1828793758818
 30
0.0
 40
0.500016679916052
100
AcDbArc
 50
359.9975092948145
 51
74.99966311291618
  0
ARC
  5
798
330
1A
100
AcDbEntity
  8
SEIHIN
  6
CONTINUOUS
100
AcDbCircle
 10
721.8417656526546
 20
352.4501359034255
 30
0.0
 40
0.5000166799160457
100
AcDbArc
 50
285.0003368870837
 51
0.0024907051854698
  0
LINE
  5
799
330
1A
100
AcDbEntity
  8
SEIHIN
  6
CONTINUOUS
100
AcDbLine
 10
720.4918823320983
 20
354.0621576396536
 30
0.0
 11
720.4918823320983
 21
355.5707576396536
 31
0.0
  0
LINE
  5
79A
330
1A
100
AcDbEntity
  8
SEIHIN
  6
CONTINUOUS
100
AcDbLine
 10
720.4918823320983
 20
350.0621576396536
 30
0.0
 11
720.4918823320983
 21
351.5707576396537
 31
0.0
  0
LINE
  5
79B
330
1A
100
AcDbEntity
  8
SEIHIN
  6
CONTINUOUS
100
AcDbLine
 10
721.9712823320981
 20
353.6658576396536
 30
0.0
 11
720.4917823320983
 21
354.0622576396537
 31
0.0
  0
LINE
  5
79C
330
1A
100
AcDbEntity
  8
SEIHIN
  6
CONTINUOUS
100
AcDbLine
 10
722.341782332098
 20
353.1828576396536
 30
0.0
 11
722.341782332098
 21
352.4501576396537
 31
0.0
  0
LINE
  5
79D
330
1A
100
AcDbEntity
  8
SEIHIN
  6
CONTINUOUS
100
AcDbLine
 10
721.9712823320981
 20
349.6658576396536
 30
0.0
 11
720.4917823320983
 21
350.0622576396537
 31
0.0
  0
LINE
  5
79E
330
1A
100
AcDbEntity
  8
SEIHIN
  6
CONTINUOUS
100
AcDbLine
 10
722.341782332098
 20
349.1828576396536
 30
0.0
 11
722.341782332098
 21
348.4501576396537
 31
0.0
  0
LINE
  5
79F
330
1A
100
AcDbEntity
  8
SEIHIN
  6
CONTINUOUS
100
AcDbLine
 10
721.9711823320981
 20
347.9671576396538
 30
0.0
 11
720.4917823320983
 21
347.5707576396537
 31
0.0
  0
LINE
  5
7A0
330
1A
100
AcDbEntity
  8
SEIHIN
  6
CONTINUOUS
100
AcDbLine
 10
721.9711823320981
 20
351.9671576396538
 30
0.0
 11
720.4917823320983
 21
351.5707576396537
 31
0.0
  0
LINE
  5
7A1
330
1A
100
AcDbEntity
  8
SEIHIN
  6
CONTINUOUS
100
AcDbLine
 10
721.9711823320981
 20
355.9671576396535
 30
0.0
 11
720.4917823320983
 21
355.5707576396536
 31
0.0
  0
ARC
  5
7A2
330
1A
100
AcDbEntity
  8
SEIHIN
  6
CONTINUOUS
100
AcDbCircle
 10
721.8417656526546
 20
357.1828793758818
 30
0.0
 40
0.500016679916052
100
AcDbArc
 50
359.9975092948145
 51
74.99966311291618
  0
LINE
  5
7A3
330
1A
100
AcDbEntity
  8
SEIHIN
  6
CONTINUOUS
100
AcDbLine
 10
721.9712823320981
 20
357.6658576396535
 30
0.0
 11
720.4917823320983
 21
358.0622576396538
 31
0.0
  0
LINE
  5
7A4
330
1A
100
AcDbEntity
  8
SEIHIN
  6
CONTINUOUS
100
AcDbLine
 10
722.341782332098
 20
357.1828576396536
 30
0.0
 11
722.341782332098
 21
356.4501576396537
 31
0.0
  0
LINE
  5
7A5
330
1A
100
AcDbEntity
  8
SEIHIN
  6
CONTINUOUS
100
AcDbLine
 10
720.4917823320983
 20
366.0622576396538
 30
0.0
 11
720.4917823320983
 21
367.5707576396536
 31
0.0
  0
ARC
  5
7A6
330
1A
100
AcDbEntity
  8
SEIHIN
  6
CONTINUOUS
100
AcDbCircle
 10
721.8417656526546
 20
361.1828793758818
 30
0.0
 40
0.500016679916052
100
AcDbArc
 50
359.9975092948145
 51
74.99966311291618
  0
ARC
  5
7A7
330
1A
100
AcDbEntity
  8
SEIHIN
  6
CONTINUOUS
100
AcDbCircle
 10
721.8417656526544
 20
360.4501359034254
 30
0.0
 40
0.5000166799161575
100
AcDbArc
 50
285.0003368870938
 51
0.0024907051952396
  0
ARC
  5
7A8
330
1A
100
AcDbEntity
  8
SEIHIN
  6
CONTINUOUS
100
AcDbCircle
 10
721.8417656526546
 20
365.1828793758818
 30
0.0
 40
0.500016679916052
100
AcDbArc
 50
359.9975092948145
 51
74.99966311291618
  0
ARC
  5
7A9
330
1A
100
AcDbEntity
  8
SEIHIN
  6
CONTINUOUS
100
AcDbCircle
 10
721.8417656526546
 20
364.4501359034255
 30
0.0
 40
0.5000166799160457
100
AcDbArc
 50
285.0003368870837
 51
0.0024907051854698
  0
LINE
  5
7AA
330
1A
100
AcDbEntity
  8
SEIHIN
  6
CONTINUOUS
100
AcDbLine
 10
720.4918823320983
 20
362.0621576396537
 30
0.0
 11
720.4918823320983
 21
363.5707576396536
 31
0.0
  0
LINE
  5
7AB
330
1A
100
AcDbEntity
  8
SEIHIN
  6
CONTINUOUS
100
AcDbLine
 10
721.9712823320981
 20
361.6658576396535
 30
0.0
 11
720.4917823320983
 21
362.0622576396538
 31
0.0
  0
LINE
  5
7AC
330
1A
100
AcDbEntity
  8
SEIHIN
  6
CONTINUOUS
100
AcDbLine
 10
722.341782332098
 20
361.1828576396536
 30
0.0
 11
722.341782332098
 21
360.4501576396537
 31
0.0
  0
LINE
  5
7AD
330
1A
100
AcDbEntity
  8
SEIHIN
  6
CONTINUOUS
100
AcDbLine
 10
721.9711823320981
 20
359.9671576396535
 30
0.0
 11
720.4917823320983
 21
359.5707576396536
 31
0.0
  0
LINE
  5
7AE
330
1A
100
AcDbEntity
  8
SEIHIN
  6
CONTINUOUS
100
AcDbLine
 10
721.9712823320981
 20
365.6658576396536
 30
0.0
 11
720.4917823320983
 21
366.0622576396538
 31
0.0
  0
LINE
  5
7AF
330
1A
100
AcDbEntity
  8
SEIHIN
  6
CONTINUOUS
100
AcDbLine
 10
722.341782332098
 20
365.1828576396536
 30
0.0
 11
722.341782332098
 21
364.4501576396537
 31
0.0
  0
LINE
  5
7B0
330
1A
100
AcDbEntity
  8
SEIHIN
  6
CONTINUOUS
100
AcDbLine
 10
721.9711823320981
 20
363.9671576396537
 30
0.0
 11
720.4917823320983
 21
363.5707576396536
 31
0.0
  0
ARC
  5
7B1
330
1A
100
AcDbEntity
  8
SEIHIN
  6
CONTINUOUS
100
AcDbCircle
 10
721.8417656526546
 20
369.1828793758818
 30
0.0
 40
0.500016679916052
100
AcDbArc
 50
359.9975092948145
 51
74.99966311291618
  0
ARC
  5
7B2
330
1A
100
AcDbEntity
  8
SEIHIN
  6
CONTINUOUS
100
AcDbCircle
 10
721.8417656526546
 20
368.4501359034255
 30
0.0
 40
0.5000166799160457
100
AcDbArc
 50
285.0003368870837
 51
0.0024907051854698
  0
LINE
  5
7B3
330
1A
100
AcDbEntity
  8
SEIHIN
  6
CONTINUOUS
100
AcDbLine
 10
721.9712823320981
 20
369.6658576396536
 30
0.0
 11
721.2062823320982
 21
369.8707576396535
 31
0.0
  0
LINE
  5
7B4
330
1A
100
AcDbEntity
  8
SEIHIN
  6
CONTINUOUS
100
AcDbLine
 10
722.341782332098
 20
369.1828576396536
 30
0.0
 11
722.341782332098
 21
368.4501576396537
 31
0.0
  0
LINE
  5
7B5
330
1A
100
AcDbEntity
  8
SEIHIN
  6
CONTINUOUS
100
AcDbLine
 10
721.9711823320981
 20
367.9671576396537
 30
0.0
 11
720.4917823320983
 21
367.5707576396536
 31
0.0
  0
LINE
  5
7B9
330
1A
100
AcDbEntity
  8
SEIHIN
  6
CONTINUOUS
100
AcDbLine
 10
702.4303823320983
 20
422.8687576396536
 30
0.0
 11
710.2963823320983
 21
397.6663576396536
 31
0.0
  0
LINE
  5
7BA
330
1A
100
AcDbEntity
  8
SEIHIN
  6
CONTINUOUS
100
AcDbLine
 10
709.1403823320984
 20
428.8924576396538
 30
0.0
 11
718.1240823320983
 21
400.1094576396536
 31
0.0
  0
LINE
  5
7BB
330
1A
100
AcDbEntity
  8
SEIHIN
  6
CONTINUOUS
100
AcDbLine
 10
724.3193823320982
 20
375.5708576396538
 30
0.0
 11
703.9917823320983
 21
375.5708576396538
 31
0.0
  0
LINE
  5
7BC
330
1A
100
AcDbEntity
  8
SEIHIN
  6
CONTINUOUS
100
AcDbLine
 10
727.7835823320981
 20
374.5707576396537
 30
0.0
 11
703.9917823320983
 21
374.5708576396538
 31
0.0
  0
ARC
  5
7BD
330
1A
100
AcDbEntity
  8
SEIHIN
  6
CONTINUOUS
100
AcDbCircle
 10
720.5418823320983
 20
378.7707576396538
 30
0.0
 40
2.000000000000056
100
AcDbArc
 50
180.0000000000016
 51
270.0000000000016
  0
ARC
  5
7BE
330
1A
100
AcDbEntity
  8
SEIHIN
  6
CONTINUOUS
100
AcDbCircle
 10
720.7979023334983
 20
373.7707176393537
 30
0.0
 40
3.000040001366675
100
AcDbArc
 50
89.9984721596566
 51
143.1297203988471
  0
LINE
  5
7BF
330
1A
100
AcDbEntity
  8
SEIHIN
  6
CONTINUOUS
100
AcDbLine
 10
710.3418823320983
 20
375.5707576396535
 30
0.0
 11
710.3417823320981
 21
397.3684576396536
 31
0.0
  0
LINE
  5
7C0
330
1A
100
AcDbEntity
  8
SEIHIN
  6
CONTINUOUS
100
AcDbLine
 10
718.5418823320981
 20
378.7707576396537
 30
0.0
 11
718.5418823320981
 21
397.3683576396538
 31
0.0
  0
LINE
  5
7C1
330
1A
100
AcDbEntity
  8
SEIHIN
  6
CONTINUOUS
100
AcDbLine
 10
703.9917823320983
 20
376.7708576396537
 30
0.0
 11
703.9917823320983
 21
374.5708576396538
 31
0.0
  0
LINE
  5
7C2
330
1A
100
AcDbEntity
  8
SEIHIN
  6
CONTINUOUS
100
AcDbLine
 10
710.3304823320982
 20
397.5191576396536
 30
0.0
 11
714.3835823320983
 21
398.1369576396538
 31
0.0
  0
ARC
  5
7C3
330
1A
100
AcDbEntity
  8
SEIHIN
  6
CONTINUOUS
100
AcDbCircle
 10
709.3417809396005
 20
397.368466776212
 30
0.0
 40
1.000001392539404
100
AcDbArc
 50
359.9994765145004
 51
17.33094254732714
  0
ARC
  5
7C4
330
1A
100
AcDbEntity
  8
SEIHIN
  6
CONTINUOUS
100
AcDbCircle
 10
709.3420119620852
 20
397.3681632623501
 30
0.0
 40
9.199970372066211
100
AcDbArc
 50
0.0012105472826467
 51
17.33558167358697
  0
LINE
  5
7C5
330
1A
100
AcDbEntity
  8
SEIHIN
  6
CONTINUOUS
100
AcDbLine
 10
736.4917823320983
 20
376.7707576396537
 30
0.0
 11
720.5418823320983
 21
376.7707576396537
 31
0.0
  0
LINE
  5
7C6
330
1A
100
AcDbEntity
  8
SEIHIN
  6
CONTINUOUS
100
AcDbLine
 10
727.7835823320981
 20
374.5707576396537
 30
0.0
 11
724.3193823320982
 21
375.5708576396538
 31
0.0
  0
ARC
  5
7C7
330
1A
100
AcDbEntity
  8
SEIHIN
  6
CONTINUOUS
100
AcDbCircle
 10
722.6919323320982
 20
371.3708076396538
 30
0.0
 40
2.200050000568088
100
AcDbArc
 50
90.00130214721526
 51
180.0013021472152
  0
LINE
  5
7C8
330
1A
100
AcDbEntity
  8
SEIHIN
  6
CONTINUOUS
100
AcDbLine
 10
727.7835823320981
 20
376.7707576396537
 30
0.0
 11
727.7835823320981
 21
374.5707576396537
 31
0.0
  0
LINE
  5
7C9
330
1A
100
AcDbEntity
  8
SEIHIN
  6
CONTINUOUS
100
AcDbLine
 10
736.4918823320984
 20
376.7707576396537
 30
0.0
 11
736.4918823320984
 21
373.5708576396538
 31
0.0
  0
LINE
  5
7CA
330
1A
100
AcDbEntity
  8
SEIHIN
  6
CONTINUOUS
100
AcDbLine
 10
702.0681823320983
 20
423.3764576396536
 30
0.0
 11
704.8618823320983
 21
427.1750576396538
 31
0.0
  0
ARC
  5
7CB
330
1A
100
AcDbEntity
  8
SEIHIN
  6
CONTINUOUS
100
AcDbCircle
 10
694.8919823320982
 20
427.6708576396536
 30
0.0
 40
4.099999999999994
100
AcDbArc
 50
270.0
 51
90.0
  0
ARC
  5
7CC
330
1A
100
AcDbEntity
  8
SEIHIN
  6
CONTINUOUS
100
AcDbCircle
 10
701.4757842253803
 20
422.5708562471555
 30
0.0
 40
1.000001392500003
100
AcDbArc
 50
17.33157450974721
 51
90.00010847692291
  0
ARC
  5
7CD
330
1A
100
AcDbEntity
  8
SEIHIN
  6
CONTINUOUS
100
AcDbCircle
 10
705.2265936905935
 20
427.6708492860121
 30
0.0
 40
4.100008353657346
100
AcDbArc
 50
17.33467595165494
 51
90.00015872988084
  0
LINE
  5
880
330
1A
100
AcDbEntity
  8
CENTER_L
 48
5.0
100
AcDbLine
 10
389.5579586203872
 20
135.4102925211789
 30
0.0
 11
389.5580217384804
 21
251.3505925209807
 31
0.0
  0
ARC
  5
8AE
330
1A
100
AcDbEntity
  8
SEIHIN
  6
CONTINUOUS
100
AcDbCircle
 10
389.5587246018542
 20
408.1922948288969
 30
0.0
 40
46.64858121524182
100
AcDbArc
 50
183.1003656143473
 51
266.8995043371825
  0
ARC
  5
8AF
330
1A
100
AcDbEntity
  8
SEIHIN
  6
CONTINUOUS
100
AcDbCircle
 10
389.5587217384805
 20
408.1922976922767
 30
0.0
 40
27.49992047879412
100
AcDbArc
 50
188.44850259733
 51
261.5514974026699
  0
LINE
  5
8B0
330
1A
100
AcDbEntity
  8
CENTER_L
 48
5.0
100
AcDbLine
 10
317.5582411757122
 20
408.1922976922767
 30
0.0
 11
461.5592217384803
 21
408.1922976922767
 31
0.0
  0
ARC
  5
8B2
330
1A
100
AcDbEntity
  8
SEIHIN
  6
CONTINUOUS
100
AcDbCircle
 10
389.5587188751007
 20
408.192294828903
 30
0.0
 40
46.64858121524164
100
AcDbArc
 50
93.10036561434733
 51
176.8995043371825
  0
ARC
  5
8B8
330
1A
100
AcDbEntity
  8
SEIHIN
  6
CONTINUOUS
100
AcDbCircle
 10
389.5587217383535
 20
408.1922976922767
 30
0.0
 40
19.70000000012687
100
AcDbArc
 50
179.9997091584798
 51
0.0000000000001653
  0
ARC
  5
8B9
330
1A
100
AcDbEntity
  8
SEIHIN
  6
CONTINUOUS
100
AcDbCircle
 10
389.5587217384804
 20
408.1922976922767
 30
0.0
 40
19.69999999999997
100
AcDbArc
 50
0.0
 51
180.0
  0
ARC
  5
8BA
330
1A
100
AcDbEntity
  8
SEIHIN
  6
CONTINUOUS
100
AcDbCircle
 10
389.5587130162079
 20
408.1922889700355
 30
0.0
 40
27.49992782490611
100
AcDbArc
 50
98.44848195184265
 51
171.5512706693376
  0
ARC
  5
8BB
330
1A
100
AcDbEntity
  8
SEIHIN
  6
CONTINUOUS
100
AcDbCircle
 10
356.5101217384805
 20
408.1923976922767
 30
0.0
 40
4.100000000000079
100
AcDbArc
 50
90.00000000000101
 51
180.0000000000007
  0
ARC
  5
8BC
330
1A
100
AcDbEntity
  8
SEIHIN
  6
CONTINUOUS
100
AcDbCircle
 10
346.2102217384805
 20
408.1923976922767
 30
0.0
 40
4.100000000000079
100
AcDbArc
 50
90.00000000000101
 51
180.0000000000007
  0
ARC
  5
8BD
330
1A
100
AcDbEntity
  8
SEIHIN
  6
CONTINUOUS
100
AcDbCircle
 10
361.6602217384804
 20
408.1923976922767
 30
0.0
 40
4.100000000000065
100
AcDbArc
 50
359.9999999999992
 51
89.999999999999
  0
ARC
  5
8BE
330
1A
100
AcDbEntity
  8
SEIHIN
  6
CONTINUOUS
100
AcDbCircle
 10
351.709238028215
 20
206.2080993681149
 30
0.0
 40
1.000016295442707
100
AcDbArc
 50
162.669186495579
 51
180.0061217901077
  0
ARC
  5
8BF
330
1A
100
AcDbEntity
  8
SEIHIN
  6
CONTINUOUS
100
AcDbCircle
 10
351.7089921084939
 20
206.2077981436764
 30
0.0
 40
9.199970372066838
100
AcDbArc
 50
162.6644183264095
 51
179.9987894527142
  0
LINE
  5
8C0
330
1A
100
AcDbEntity
  8
SEIHIN
  6
CONTINUOUS
100
AcDbLine
 10
333.2674217384805
 20
183.4103925209807
 30
0.0
 11
357.0591217384805
 21
183.4103925209807
 31
0.0
  0
LINE
  5
8C1
330
1A
100
AcDbEntity
  8
SEIHIN
  6
CONTINUOUS
100
AcDbLine
 10
336.7315217384805
 20
184.4103925209806
 30
0.0
 11
357.0591217384805
 21
184.4103925209806
 31
0.0
  0
LINE
  5
8C2
330
1A
100
AcDbEntity
  8
SEIHIN
  6
CONTINUOUS
100
AcDbLine
 10
324.5590217384804
 20
185.6103925209806
 30
0.0
 11
324.5590217384804
 21
182.4103925209806
 31
0.0
  0
LINE
  5
8C7
330
1A
100
AcDbEntity
  8
SEIHIN
  6
CONTINUOUS
100
AcDbLine
 10
340.5591217384805
 20
178.7103925209805
 30
0.0
 11
340.5591217384805
 21
180.2103925209805
 31
0.0
  0
LINE
  5
8C9
330
1A
100
AcDbEntity
  8
SEIHIN
  6
CONTINUOUS
100
AcDbLine
 10
324.5591217384804
 20
185.6103925209806
 30
0.0
 11
340.5091217384805
 21
185.6103925209806
 31
0.0
  0
LINE
  5
8CA
330
1A
100
AcDbEntity
  8
SEIHIN
  6
CONTINUOUS
100
AcDbLine
 10
333.2674217384805
 20
183.4103925209807
 30
0.0
 11
336.7315217384805
 21
184.4103925209806
 31
0.0
  0
LINE
  5
8CB
330
1A
100
AcDbEntity
  8
SEIHIN
  6
CONTINUOUS
100
AcDbLine
 10
333.2674217384805
 20
185.6103925209806
 30
0.0
 11
333.2674217384805
 21
183.4103925209807
 31
0.0
  0
LINE
  5
8CC
330
1A
100
AcDbEntity
  8
SEIHIN
  6
CONTINUOUS
100
AcDbLine
 10
350.7090217384805
 20
184.4103925209806
 30
0.0
 11
350.7092217384804
 21
206.2079925209806
 31
0.0
  0
LINE
  5
8CD
330
1A
100
AcDbEntity
  8
SEIHIN
  6
CONTINUOUS
100
AcDbLine
 10
342.5091217384804
 20
187.6103925209806
 30
0.0
 11
342.5091217384804
 21
206.2078925209806
 31
0.0
  0
ARC
  5
8CE
330
1A
100
AcDbEntity
  8
SEIHIN
  6
CONTINUOUS
100
AcDbCircle
 10
340.2530217384803
 20
182.6103925209807
 30
0.0
 40
2.999999999999941
100
AcDbArc
 50
36.86989764584167
 51
89.99999999999797
  0
ARC
  5
8CF
330
1A
100
AcDbEntity
  8
SEIHIN
  6
CONTINUOUS
100
AcDbCircle
 10
340.5091217384804
 20
187.6103925209806
 30
0.0
 40
1.999999999999957
100
AcDbArc
 50
270.0000000000012
 51
0.0000000000012213
  0
LINE
  5
8D0
330
1A
100
AcDbEntity
  8
SEIHIN
  6
CONTINUOUS
100
AcDbLine
 10
357.0591217384805
 20
185.6103925209806
 30
0.0
 11
357.0591217384805
 21
183.4103925209807
 31
0.0
  0
LINE
  5
8D1
330
1A
100
AcDbEntity
  8
SEIHIN
  6
CONTINUOUS
100
AcDbLine
 10
351.9107217384805
 20
237.7319925209807
 30
0.0
 11
342.9269217384805
 21
208.9490925209807
 31
0.0
  0
LINE
  5
8D2
330
1A
100
AcDbEntity
  8
SEIHIN
  6
CONTINUOUS
100
AcDbLine
 10
358.6207217384804
 20
231.7082925209805
 30
0.0
 11
350.7546217384803
 21
206.5059925209806
 31
0.0
  0
ARC
  5
8D3
330
1A
100
AcDbEntity
  8
SEIHIN
  6
CONTINUOUS
100
AcDbCircle
 10
355.8245103799853
 20
236.5103841673391
 30
0.0
 40
4.100008353657253
100
AcDbArc
 50
89.9998412701206
 51
162.665324048346
  0
LINE
  5
8D4
330
1A
100
AcDbEntity
  8
SEIHIN
  6
CONTINUOUS
100
AcDbLine
 10
350.7205217384805
 20
206.3586925209806
 30
0.0
 11
346.6674217384804
 21
206.9764925209807
 31
0.0
  0
LINE
  5
8D5
330
1A
100
AcDbEntity
  8
SEIHIN
  6
CONTINUOUS
100
AcDbLine
 10
358.9828217384805
 20
232.2159925209805
 30
0.0
 11
356.1891217384804
 21
236.0146925209805
 31
0.0
  0
ARC
  5
8D6
330
1A
100
AcDbEntity
  8
SEIHIN
  6
CONTINUOUS
100
AcDbCircle
 10
359.5752644888012
 20
231.410423959469
 30
0.0
 40
0.9999685624254457
100
AcDbArc
 50
90.0024494899589
 51
162.6638067294647
  0
ARC
  5
8D7
330
1A
100
AcDbEntity
  8
SEIHIN
  6
CONTINUOUS
100
AcDbCircle
 10
366.1591217384804
 20
236.5103925209806
 30
0.0
 40
4.099999999999994
100
AcDbArc
 50
90.0
 51
270.0
  0
ARC
  5
8D8
330
1A
100
AcDbEntity
  8
SEIHIN
  6
CONTINUOUS
100
AcDbCircle
 10
389.5587900395889
 20
408.1922293910713
 30
0.0
 40
60.99993201851202
100
AcDbArc
 50
209.9998543293118
 51
239.9998890559703
  0
LINE
  5
8D9
330
1A
100
AcDbEntity
  8
SEIHIN
  6
CONTINUOUS
100
AcDbLine
 10
366.2344217384804
 20
367.7933976922766
 30
0.0
 11
357.0587217384805
 21
351.9005976922767
 31
0.0
  0
LINE
  5
8DA
330
1A
100
AcDbEntity
  8
SEIHIN
  6
CONTINUOUS
100
AcDbLine
 10
346.2102217384805
 20
404.0922976922766
 30
0.0
 11
361.6602217384805
 21
404.0922976922766
 31
0.0
  0
LINE
  5
8DB
330
1A
100
AcDbEntity
  8
SEIHIN
  6
CONTINUOUS
100
AcDbLine
 10
346.2102217384805
 20
412.2922976922767
 30
0.0
 11
361.6602217384805
 21
412.2922976922767
 31
0.0
  0
LINE
  5
8DC
330
1A
100
AcDbEntity
  8
SEIHIN
  6
CONTINUOUS
100
AcDbLine
 10
349.1598217384805
 20
384.8679976922766
 30
0.0
 11
333.2671217384805
 21
375.6922976922767
 31
0.0
  0
ARC
  5
8DD
330
1A
100
AcDbEntity
  8
SEIHIN
  6
CONTINUOUS
100
AcDbCircle
 10
346.2102217384804
 20
408.1921976922766
 30
0.0
 40
4.099999999999923
100
AcDbArc
 50
180.0000000000007
 51
270.000000000001
  0
ARC
  5
8DE
330
1A
100
AcDbEntity
  8
SEIHIN
  6
CONTINUOUS
100
AcDbCircle
 10
356.5101217384803
 20
408.1921976922766
 30
0.0
 40
4.099999999999923
100
AcDbArc
 50
180.0000000000007
 51
270.000000000001
  0
ARC
  5
8DF
330
1A
100
AcDbEntity
  8
SEIHIN
  6
CONTINUOUS
100
AcDbCircle
 10
361.6602217384805
 20
408.1921976922766
 30
0.0
 40
4.099999999999909
100
AcDbArc
 50
269.9999999999989
 51
359.9999999999992
  0
ARC
  5
8E0
330
1A
100
AcDbEntity
  8
SEIHIN
  6
CONTINUOUS
100
AcDbCircle
 10
389.5587034371779
 20
408.1922793910409
 30
0.0
 40
61.00000031979995
100
AcDbArc
 50
119.9998715192629
 51
149.9998718660186
  0
LINE
  5
8E1
330
1A
100
AcDbEntity
  8
SEIHIN
  6
CONTINUOUS
100
AcDbLine
 10
366.2344217384804
 20
448.5911976922766
 30
0.0
 11
357.0587217384805
 21
464.4839976922768
 31
0.0
  0
LINE
  5
8E2
330
1A
100
AcDbEntity
  8
SEIHIN
  6
CONTINUOUS
100
AcDbLine
 10
349.1598217384805
 20
431.5165976922767
 30
0.0
 11
333.2671217384805
 21
440.6922976922766
 31
0.0
  0
ARC
  5
8E3
330
1A
100
AcDbEntity
  8
SEIHIN
  6
CONTINUOUS
100
AcDbCircle
 10
432.9073217384805
 20
408.1922976922767
 30
0.0
 40
4.099999999999937
100
AcDbArc
 50
359.9999999999996
 51
89.9999999999996
  0
ARC
  5
8E4
330
1A
100
AcDbEntity
  8
SEIHIN
  6
CONTINUOUS
100
AcDbCircle
 10
422.6074217384804
 20
408.1922976922767
 30
0.0
 40
4.100000000000022
100
AcDbArc
 50
0.0000000000007944
 51
90.00000000000078
  0
ARC
  5
8E5
330
1A
100
AcDbEntity
  8
SEIHIN
  6
CONTINUOUS
100
AcDbCircle
 10
417.4575217384804
 20
408.1922976922767
 30
0.0
 40
4.100000000000022
100
AcDbArc
 50
89.9999999999992
 51
179.9999999999992
  0
LINE
  5
8E6
330
1A
100
AcDbEntity
  8
CENTER_L
 48
5.0
100
AcDbLine
 10
389.5586435530213
 20
480.1927879736073
 30
0.0
 11
389.5588189934537
 21
336.1918074109458
 31
0.0
  0
ARC
  5
8E8
330
1A
100
AcDbEntity
  8
SEIHIN
  6
CONTINUOUS
100
AcDbCircle
 10
389.5587188749869
 20
408.1923005557764
 30
0.0
 40
46.64858662398022
100
AcDbArc
 50
3.100488258673655
 51
86.89938169256123
  0
ARC
  5
8E9
330
1A
100
AcDbEntity
  8
SEIHIN
  6
CONTINUOUS
100
AcDbCircle
 10
389.5587717383771
 20
408.1922476921733
 30
0.0
 40
27.49997728238071
100
AcDbArc
 50
8.44859033595384
 51
81.55140966404633
  0
LINE
  5
8EA
330
1A
100
AcDbEntity
  8
SEIHIN
  6
CONTINUOUS
100
AcDbLine
 10
324.5590217384804
 20
182.4102925209807
 30
0.0
 11
454.5592217384804
 21
182.4102925209807
 31
0.0
  0
LINE
  5
8ED
330
1A
100
AcDbEntity
  8
SEIHIN
  6
CONTINUOUS
100
AcDbLine
 10
454.5591217384805
 20
185.6102925209806
 30
0.0
 11
438.6091217384803
 21
185.6102925209806
 31
0.0
  0
ARC
  5
8EF
330
1A
100
AcDbEntity
  8
SEIHIN
  6
CONTINUOUS
100
AcDbCircle
 10
427.4092036393311
 20
206.2080112554943
 30
0.0
 40
9.20001809991554
100
AcDbArc
 50
359.9992605463983
 51
17.3334461175814
  0
ARC
  5
8F0
330
1A
100
AcDbEntity
  8
SEIHIN
  6
CONTINUOUS
100
AcDbCircle
 10
427.4091203459824
 20
206.2080016575389
 30
0.0
 40
1.000001392539752
100
AcDbArc
 50
359.9994765144992
 51
17.33094254732314
  0
LINE
  5
8F1
330
1A
100
AcDbEntity
  8
SEIHIN
  6
CONTINUOUS
100
AcDbLine
 10
385.4590217384804
 20
236.5103925209805
 30
0.0
 11
385.4590217384804
 21
185.6103925209806
 31
0.0
  0
LINE
  5
8F2
330
1A
100
AcDbEntity
  8
SEIHIN
  6
CONTINUOUS
100
AcDbLine
 10
393.6592217384804
 20
236.5103925209805
 30
0.0
 11
393.6591217384804
 21
185.6103925209806
 31
0.0
  0
LINE
  5
8F4
330
1A
100
AcDbEntity
  8
SEIHIN
  6
CONTINUOUS
100
AcDbLine
 10
422.0591217384805
 20
185.6102925209806
 30
0.0
 11
357.0591217384805
 21
185.6102925209806
 31
0.0
  0
LINE
  5
8F6
330
1A
100
AcDbEntity
  8
SEIHIN
  6
CONTINUOUS
100
AcDbLine
 10
438.5591217384805
 20
178.7102925209807
 30
0.0
 11
438.5591217384805
 21
180.2102925209806
 31
0.0
  0
LINE
  5
8F8
330
1A
100
AcDbEntity
  8
SEIHIN
  6
CONTINUOUS
100
AcDbLine
 10
442.3867217384803
 20
184.4102925209807
 30
0.0
 11
422.0591217384805
 21
184.4102925209807
 31
0.0
  0
LINE
  5
8F9
330
1A
100
AcDbEntity
  8
SEIHIN
  6
CONTINUOUS
100
AcDbLine
 10
445.8508217384805
 20
183.4101925209806
 30
0.0
 11
422.0591217384805
 21
183.4102925209807
 31
0.0
  0
LINE
  5
8FA
330
1A
100
AcDbEntity
  8
SEIHIN
  6
CONTINUOUS
100
AcDbLine
 10
428.4092217384805
 20
184.4102925209807
 30
0.0
 11
428.4091217384804
 21
206.2078925209806
 31
0.0
  0
LINE
  5
8FB
330
1A
100
AcDbEntity
  8
SEIHIN
  6
CONTINUOUS
100
AcDbLine
 10
422.0591217384805
 20
185.6102925209806
 30
0.0
 11
422.0591217384805
 21
183.4102925209807
 31
0.0
  0
LINE
  5
8FC
330
1A
100
AcDbEntity
  8
SEIHIN
  6
CONTINUOUS
100
AcDbLine
 10
436.6092217384804
 20
187.6102925209806
 30
0.0
 11
436.6092217384804
 21
206.2078925209806
 31
0.0
  0
ARC
  5
8FD
330
1A
100
AcDbEntity
  8
SEIHIN
  6
CONTINUOUS
100
AcDbCircle
 10
438.8652217384804
 20
182.6102925209807
 30
0.0
 40
2.99999999999988
100
AcDbArc
 50
90.00000000000136
 51
143.1301023541568
  0
ARC
  5
8FE
330
1A
100
AcDbEntity
  8
SEIHIN
  6
CONTINUOUS
100
AcDbCircle
 10
438.6092217384804
 20
187.6102925209806
 30
0.0
 40
2.0
100
AcDbArc
 50
180.0
 51
270.0
  0
LINE
  5
8FF
330
1A
100
AcDbEntity
  8
SEIHIN
  6
CONTINUOUS
100
AcDbLine
 10
445.8508217384805
 20
183.4101925209806
 30
0.0
 11
442.3867217384803
 21
184.4102925209807
 31
0.0
  0
LINE
  5
900
330
1A
100
AcDbEntity
  8
SEIHIN
  6
CONTINUOUS
100
AcDbLine
 10
445.8508217384805
 20
185.6101925209806
 30
0.0
 11
445.8508217384805
 21
183.4101925209806
 31
0.0
  0
LINE
  5
902
330
1A
100
AcDbEntity
  8
SEIHIN
  6
CONTINUOUS
100
AcDbLine
 10
393.6592217384804
 20
232.4103925209807
 30
0.0
 11
419.5429217384805
 21
232.4102925209806
 31
0.0
  0
ARC
  5
903
330
1A
100
AcDbEntity
  8
SEIHIN
  6
CONTINUOUS
100
AcDbCircle
 10
389.5594412808553
 20
193.6815594369569
 30
0.0
 40
13.91283308575587
100
AcDbArc
 50
72.86144852705227
 51
90.0009041186238
  0
ARC
  5
904
330
1A
100
AcDbEntity
  8
SEIHIN
  6
CONTINUOUS
100
AcDbCircle
 10
389.5588021961056
 20
193.681559436957
 30
0.0
 40
13.91283308575568
100
AcDbArc
 50
89.99909588137631
 51
107.1385514729478
  0
ARC
  5
905
330
1A
100
AcDbEntity
  8
SEIHIN
  6
CONTINUOUS
100
AcDbCircle
 10
389.5590217384805
 20
236.5103925209806
 30
0.0
 40
4.100000000000079
100
AcDbArc
 50
90.00000000000078
 51
180.0000000000007
  0
ARC
  5
906
330
1A
100
AcDbEntity
  8
SEIHIN
  6
CONTINUOUS
100
AcDbCircle
 10
389.5593217384804
 20
236.5103925209806
 30
0.0
 40
4.100000000000065
100
AcDbArc
 50
359.9999999999989
 51
89.999999999999
  0
ARC
  5
907
330
1A
100
AcDbEntity
  8
SEIHIN
  6
CONTINUOUS
100
AcDbCircle
 10
412.9592217384804
 20
236.5102925209805
 30
0.0
 40
4.099999999999937
100
AcDbArc
 50
270.0
 51
90.0
  0
LINE
  5
908
330
1A
100
AcDbEntity
  8
SEIHIN
  6
CONTINUOUS
100
AcDbLine
 10
427.2076217384803
 20
237.7319925209807
 30
0.0
 11
436.1913217384803
 21
208.9489925209806
 31
0.0
  0
LINE
  5
909
330
1A
100
AcDbEntity
  8
SEIHIN
  6
CONTINUOUS
100
AcDbLine
 10
420.4977217384804
 20
231.7082925209805
 30
0.0
 11
428.3637217384805
 21
206.5058925209806
 31
0.0
  0
LINE
  5
90A
330
1A
100
AcDbEntity
  8
SEIHIN
  6
CONTINUOUS
100
AcDbLine
 10
428.3977217384804
 20
206.3585925209806
 30
0.0
 11
432.4508217384804
 21
206.9764925209807
 31
0.0
  0
ARC
  5
90B
330
1A
100
AcDbEntity
  8
SEIHIN
  6
CONTINUOUS
100
AcDbCircle
 10
423.2938330969755
 20
236.5103841673392
 30
0.0
 40
4.100008353657174
100
AcDbArc
 50
17.3346759516532
 51
90.00015872987866
  0
LINE
  5
90C
330
1A
100
AcDbEntity
  8
SEIHIN
  6
CONTINUOUS
100
AcDbLine
 10
420.1355217384805
 20
232.2158925209806
 30
0.0
 11
422.9292217384805
 21
236.0145925209806
 31
0.0
  0
ARC
  5
90D
330
1A
100
AcDbEntity
  8
SEIHIN
  6
CONTINUOUS
100
AcDbCircle
 10
419.5431236317625
 20
231.4103911284826
 30
0.0
 40
1.000001392499852
100
AcDbArc
 50
17.33157450974138
 51
90.00010847691639
  0
LINE
  5
90E
330
1A
100
AcDbEntity
  8
SEIHIN
  6
CONTINUOUS
100
AcDbLine
 10
454.5592217384804
 20
185.6101925209806
 30
0.0
 11
454.5592217384804
 21
182.4102925209807
 31
0.0
  0
LINE
  5
911
330
1A
100
AcDbEntity
  8
SEIHIN
  6
CONTINUOUS
100
AcDbLine
 10
412.8831217384804
 20
367.7934976922768
 30
0.0
 11
422.0588217384805
 21
351.9006976922767
 31
0.0
  0
ARC
  5
912
330
1A
100
AcDbEntity
  8
SEIHIN
  6
CONTINUOUS
100
AcDbCircle
 10
389.5587217384805
 20
408.1922976922768
 30
0.0
 40
60.99995701842754
100
AcDbArc
 50
300.0000233085267
 51
329.9999766914729
  0
LINE
  5
913
330
1A
100
AcDbEntity
  8
SEIHIN
  6
CONTINUOUS
100
AcDbLine
 10
385.4587217384804
 20
364.8436976922766
 30
0.0
 11
385.4586217384805
 21
380.2936976922767
 31
0.0
  0
LINE
  5
914
330
1A
100
AcDbEntity
  8
SEIHIN
  6
CONTINUOUS
100
AcDbLine
 10
393.6588217384805
 20
364.8436976922766
 30
0.0
 11
393.6588217384805
 21
380.2936976922767
 31
0.0
  0
ARC
  5
915
330
1A
100
AcDbEntity
  8
SEIHIN
  6
CONTINUOUS
100
AcDbCircle
 10
389.5587217384804
 20
408.1922976922765
 30
0.0
 40
46.64858932840303
100
AcDbArc
 50
273.1006146052862
 51
356.8993853947141
  0
ARC
  5
916
330
1A
100
AcDbEntity
  8
SEIHIN
  6
CONTINUOUS
100
AcDbCircle
 10
389.5586717384805
 20
364.8436476922767
 30
0.0
 40
4.100050000304941
100
AcDbArc
 50
270.0006987204982
 51
0.0006987204980549
  0
ARC
  5
917
330
1A
100
AcDbEntity
  8
SEIHIN
  6
CONTINUOUS
100
AcDbCircle
 10
389.5587217384804
 20
364.8436976922768
 30
0.0
 40
4.100000000000022
100
AcDbArc
 50
180.0000000000007
 51
270.0000000000008
  0
ARC
  5
918
330
1A
100
AcDbEntity
  8
SEIHIN
  6
CONTINUOUS
100
AcDbCircle
 10
417.4575217384805
 20
408.1922976922767
 30
0.0
 40
4.100000000000051
100
AcDbArc
 50
180.0000000000004
 51
270.0000000000004
  0
ARC
  5
919
330
1A
100
AcDbEntity
  8
SEIHIN
  6
CONTINUOUS
100
AcDbCircle
 10
389.5587804608296
 20
408.1923564146572
 30
0.0
 40
27.49998462848673
100
AcDbArc
 50
278.4485696901037
 51
351.5511829310762
  0
ARC
  5
91A
330
1A
100
AcDbEntity
  8
SEIHIN
  6
CONTINUOUS
100
AcDbCircle
 10
389.5587217384805
 20
375.1436976922767
 30
0.0
 40
4.099999999999965
100
AcDbArc
 50
269.9999999999997
 51
0.0
  0
ARC
  5
91B
330
1A
100
AcDbEntity
  8
SEIHIN
  6
CONTINUOUS
100
AcDbCircle
 10
389.5587217384804
 20
375.1436976922767
 30
0.0
 40
4.100000000000022
100
AcDbArc
 50
180.0000000000007
 51
270.0000000000008
  0
ARC
  5
91C
330
1A
100
AcDbEntity
  8
SEIHIN
  6
CONTINUOUS
100
AcDbCircle
 10
389.5587217384805
 20
380.2936976922767
 30
0.0
 40
4.09999999999998
100
AcDbArc
 50
0.0
 51
90.00000000000019
  0
ARC
  5
91D
330
1A
100
AcDbEntity
  8
SEIHIN
  6
CONTINUOUS
100
AcDbCircle
 10
389.5587217384804
 20
380.2936976922767
 30
0.0
 40
4.100000000000022
100
AcDbArc
 50
89.9999999999992
 51
179.9999999999992
  0
LINE
  5
91E
330
1A
100
AcDbEntity
  8
SEIHIN
  6
CONTINUOUS
100
AcDbLine
 10
429.9576217384803
 20
384.8680976922766
 30
0.0
 11
445.8504217384803
 21
375.6922976922767
 31
0.0
  0
ARC
  5
91F
330
1A
100
AcDbEntity
  8
SEIHIN
  6
CONTINUOUS
100
AcDbCircle
 10
432.9073217384804
 20
408.1922976922767
 30
0.0
 40
4.099999999999965
100
AcDbArc
 50
270.0000000000008
 51
0.0000000000007944
  0
ARC
  5
920
330
1A
100
AcDbEntity
  8
SEIHIN
  6
CONTINUOUS
100
AcDbCircle
 10
422.6074217384804
 20
408.1922976922767
 30
0.0
 40
4.100000000000051
100
AcDbArc
 50
269.9999999999996
 51
359.9999999999996
  0
LINE
  5
921
330
1A
100
AcDbEntity
  8
SEIHIN
  6
CONTINUOUS
100
AcDbLine
 10
432.9073217384805
 20
404.0922976922766
 30
0.0
 11
417.4575217384805
 21
404.0922976922766
 31
0.0
  0
LINE
  5
922
330
1A
100
AcDbEntity
  8
SEIHIN
  6
CONTINUOUS
100
AcDbLine
 10
432.9073217384805
 20
412.2922976922767
 30
0.0
 11
417.4575217384805
 21
412.2922976922767
 31
0.0
  0
LINE
  5
923
330
1A
100
AcDbEntity
  8
SEIHIN
  6
CONTINUOUS
100
AcDbLine
 10
412.8831217384804
 20
448.5910976922765
 30
0.0
 11
422.0588217384805
 21
464.4838976922767
 31
0.0
  0
ARC
  5
924
330
1A
100
AcDbEntity
  8
SEIHIN
  6
CONTINUOUS
100
AcDbCircle
 10
389.558703437245
 20
408.1923159935793
 30
0.0
 40
61.0000003197998
100
AcDbArc
 50
29.99987151926304
 51
59.99987186601881
  0
ARC
  5
925
330
1A
100
AcDbEntity
  8
SEIHIN
  6
CONTINUOUS
100
AcDbCircle
 10
389.5587217384804
 20
436.0908976922766
 30
0.0
 40
4.100000000000079
100
AcDbArc
 50
270.000000000001
 51
0.0000000000007944
  0
ARC
  5
926
330
1A
100
AcDbEntity
  8
SEIHIN
  6
CONTINUOUS
100
AcDbCircle
 10
389.5587217384806
 20
436.0908976922766
 30
0.0
 40
4.100000000000108
100
AcDbArc
 50
179.9999999999996
 51
269.9999999999996
  0
LINE
  5
927
330
1A
100
AcDbEntity
  8
SEIHIN
  6
CONTINUOUS
100
AcDbLine
 10
385.4587217384804
 20
451.5408976922766
 30
0.0
 11
385.4586217384805
 21
436.0908976922766
 31
0.0
  0
LINE
  5
928
330
1A
100
AcDbEntity
  8
SEIHIN
  6
CONTINUOUS
100
AcDbLine
 10
393.6588217384805
 20
451.5408976922766
 30
0.0
 11
393.6588217384805
 21
436.0908976922766
 31
0.0
  0
ARC
  5
929
330
1A
100
AcDbEntity
  8
SEIHIN
  6
CONTINUOUS
100
AcDbCircle
 10
389.5587217384806
 20
441.2408976922766
 30
0.0
 40
4.099999999999923
100
AcDbArc
 50
0.0000000000007944
 51
90.00000000000101
  0
ARC
  5
92A
330
1A
100
AcDbEntity
  8
SEIHIN
  6
CONTINUOUS
100
AcDbCircle
 10
389.5587217384804
 20
441.2408976922765
 30
0.0
 40
4.099999999999965
100
AcDbArc
 50
89.99999999999841
 51
179.9999999999984
  0
ARC
  5
92B
330
1A
100
AcDbEntity
  8
SEIHIN
  6
CONTINUOUS
100
AcDbCircle
 10
389.5587217384804
 20
451.5408976922766
 30
0.0
 40
4.100000000000065
100
AcDbArc
 50
359.9999999999992
 51
89.999999999999
  0
ARC
  5
92C
330
1A
100
AcDbEntity
  8
SEIHIN
  6
CONTINUOUS
100
AcDbCircle
 10
389.5587217384806
 20
451.5408976922766
 30
0.0
 40
4.100000000000108
100
AcDbArc
 50
90.0000000000004
 51
180.0000000000004
  0
LINE
  5
92D
330
1A
100
AcDbEntity
  8
SEIHIN
  6
CONTINUOUS
100
AcDbLine
 10
429.9576217384803
 20
431.5165976922767
 30
0.0
 11
445.8504217384803
 21
440.6922976922766
 31
0.0
  0
CIRCLE
  5
A61
330
1A
100
AcDbEntity
  8
SEIHIN
  6
CONTINUOUS
100
AcDbCircle
 10
162.7299420099498
 20
408.1175629147216
 30
0.0
 40
69.99929037419144
  0
CIRCLE
  5
A62
330
1A
100
AcDbEntity
  8
SEIHIN
  6
CONTINUOUS
100
AcDbCircle
 10
162.7299419188983
 20
408.1922976922767
 30
0.0
 40
65.99918066721471
  0
CIRCLE
  5
A64
330
1A
100
AcDbEntity
  8
SEIHIN
  6
CONTINUOUS
100
AcDbCircle
 10
162.7299419188983
 20
408.1922976922767
 30
0.0
 40
57.98148066721461
  0
CIRCLE
  5
A65
330
1A
100
AcDbEntity
  8
SEIHIN
  6
CONTINUOUS
100
AcDbCircle
 10
162.7299419188983
 20
408.1922976922767
 30
0.0
 40
51.01178066721473
  0
ARC
  5
A66
330
1A
100
AcDbEntity
  8
SEIHIN
  6
CONTINUOUS
100
AcDbCircle
 10
162.7299419188983
 20
408.1922976922767
 30
0.0
 40
49.1617806672146
100
AcDbArc
 50
332.9905067247236
 51
27.00949327527599
  0
LINE
  5
A69
330
1A
100
AcDbEntity
  8
SEIHIN
  6
CONTINUOUS
100
AcDbLine
 10
206.5297106251525
 20
430.5185365078484
 30
0.0
 11
208.1780727167066
 21
431.3584189434772
 31
0.0
  0
LINE
  5
A6A
330
1A
100
AcDbEntity
  8
SEIHIN
  6
CONTINUOUS
100
AcDbLine
 10
206.5297106251525
 20
385.8660588767047
 30
0.0
 11
208.1780727167066
 21
385.0261764410761
 31
0.0
  0
LINE
  5
A6B
330
1A
100
AcDbEntity
  8
SEIHIN
  6
CONTINUOUS
100
AcDbLine
 10
121.4949675805277
 20
434.9608906639896
 30
0.0
 11
119.9434270093039
 21
435.9684728920964
 31
0.0
  0
LINE
  5
A6C
330
1A
100
AcDbEntity
  8
SEIHIN
  6
CONTINUOUS
100
AcDbLine
 10
160.1651475510147
 20
457.2871294795614
 30
0.0
 11
160.0683260306844
 21
459.134594143297
 31
0.0
  0
LINE
  5
A6D
330
1A
100
AcDbEntity
  8
SEIHIN
  6
CONTINUOUS
100
AcDbLine
 10
160.1651475510146
 20
359.0974659049919
 30
0.0
 11
160.0683260306844
 21
357.2500012412565
 31
0.0
  0
LINE
  5
A6E
330
1A
100
AcDbEntity
  8
SEIHIN
  6
CONTINUOUS
100
AcDbLine
 10
121.4949675805277
 20
381.4237047205638
 30
0.0
 11
119.9434270093039
 21
380.4161224924571
 31
0.0
  0
ARC
  5
A6F
330
1A
100
AcDbEntity
  8
SEIHIN
  6
CONTINUOUS
100
AcDbCircle
 10
162.7299419188983
 20
408.1922976922767
 30
0.0
 40
49.1617806672146
100
AcDbArc
 50
212.9905067247238
 51
267.0094932752761
  0
ARC
  5
A70
330
1A
100
AcDbEntity
  8
SEIHIN
  6
CONTINUOUS
100
AcDbCircle
 10
162.7299419188983
 20
408.1922976922767
 30
0.0
 40
49.1617806672146
100
AcDbArc
 50
92.9905067247237
 51
147.0094932752761
  0
CIRCLE
  5
A73
330
1A
100
AcDbEntity
  8
SEIHIN
  6
CONTINUOUS
100
AcDbCircle
 10
162.7299419188983
 20
408.1922976922767
 30
0.0
 40
46.89918066721455
  0
LINE
  5
A79
330
1A
100
AcDbEntity
  8
SEIHIN
  6
CONTINUOUS
100
AcDbLine
 10
628.7053867552892
 20
232.785401892178
 30
0.0
 11
628.7053867552892
 21
230.7391010865623
 31
0.0
  0
LINE
  5
A7A
330
1A
100
AcDbEntity
  8
SEIHIN
  6
CONTINUOUS
100
AcDbLine
 10
630.256927326513
 20
232.7853894086474
 30
0.0
 11
630.256927326513
 21
231.3594078970742
 31
0.0
  0
LINE
  5
AC3
330
1A
100
AcDbEntity
  8
SEIHIN
  6
CONTINUOUS
100
AcDbLine
 10
668.927107297
 20
198.4854576397868
 30
0.0
 11
659.4502199722478
 21
198.4854576397868
 31
0.0
  0
LINE
  5
AC4
330
1A
100
AcDbEntity
  8
SEIHIN
  6
CONTINUOUS
100
AcDbLine
 10
628.7053867552892
 20
232.785401892178
 30
0.0
 11
668.9271072969999
 21
232.7850782724869
 31
0.0
  0
LINE
  5
AC5
330
1A
100
AcDbEntity
  8
SEIHIN
  6
CONTINUOUS
100
AcDbLine
 10
666.5059837063374
 20
232.7850576397867
 30
0.0
 11
630.256888503858
 21
231.3593923757545
 31
0.0
  0
LINE
  5
AC6
330
1A
100
AcDbEntity
  8
SEIHIN
  6
CONTINUOUS
100
AcDbLine
 10
668.927107297
 20
224.3807600917309
 30
0.0
 11
628.705382495901
 21
222.7390964060343
 31
0.0
  0
LINE
  5
AC7
330
1A
100
AcDbEntity
  8
SEIHIN
  6
CONTINUOUS
100
AcDbLine
 10
668.8302857766698
 20
224.8765205362673
 30
0.0
 11
630.2569230846678
 21
223.3594032235598
 31
0.0
  0
LINE
  5
AC8
330
1A
100
AcDbEntity
  8
SEIHIN
  6
CONTINUOUS
100
AcDbLine
 10
668.8302857766698
 20
226.3765390911121
 30
0.0
 11
630.2569328154756
 21
224.8594072105564
 31
0.0
  0
LINE
  5
AC9
330
1A
100
AcDbEntity
  8
SEIHIN
  6
CONTINUOUS
100
AcDbLine
 10
668.927107297
 20
226.872260091731
 30
0.0
 11
628.7053867552893
 21
225.2305965798825
 31
0.0
  0
LINE
  5
ACA
330
1A
100
AcDbEntity
  8
SEIHIN
  6
CONTINUOUS
100
AcDbLine
 10
668.927107297
 20
220.3807600917309
 30
0.0
 11
628.705382495901
 21
218.7390964060343
 31
0.0
  0
LINE
  5
ACB
330
1A
100
AcDbEntity
  8
SEIHIN
  6
CONTINUOUS
100
AcDbLine
 10
668.8302857766698
 20
220.8765205362673
 30
0.0
 11
630.2569230846677
 21
219.3594032235598
 31
0.0
  0
LINE
  5
ACC
330
1A
100
AcDbEntity
  8
SEIHIN
  6
CONTINUOUS
100
AcDbLine
 10
668.8302857766698
 20
222.3765390911121
 30
0.0
 11
630.2569328154756
 21
220.8594072105564
 31
0.0
  0
LINE
  5
ACD
330
1A
100
AcDbEntity
  8
SEIHIN
  6
CONTINUOUS
100
AcDbLine
 10
668.927107297
 20
222.8722600917309
 30
0.0
 11
628.7053867552893
 21
221.2305965798825
 31
0.0
  0
LINE
  5
ACE
330
1A
100
AcDbEntity
  8
SEIHIN
  6
CONTINUOUS
100
AcDbLine
 10
668.927107297
 20
216.3807600917309
 30
0.0
 11
628.705382495901
 21
214.7390964060342
 31
0.0
  0
LINE
  5
ACF
330
1A
100
AcDbEntity
  8
SEIHIN
  6
CONTINUOUS
100
AcDbLine
 10
668.8302857766698
 20
216.8765205362674
 30
0.0
 11
630.2569230846678
 21
215.3594032235598
 31
0.0
  0
LINE
  5
AD0
330
1A
100
AcDbEntity
  8
SEIHIN
  6
CONTINUOUS
100
AcDbLine
 10
668.8302857766698
 20
218.376539091112
 30
0.0
 11
630.2569328154755
 21
216.8594072105564
 31
0.0
  0
LINE
  5
AD1
330
1A
100
AcDbEntity
  8
SEIHIN
  6
CONTINUOUS
100
AcDbLine
 10
668.927107297
 20
218.8722600917309
 30
0.0
 11
628.7053867552891
 21
217.2305965798825
 31
0.0
  0
LINE
  5
AD2
330
1A
100
AcDbEntity
  8
SEIHIN
  6
CONTINUOUS
100
AcDbLine
 10
668.927107297
 20
212.3807600917309
 30
0.0
 11
628.7053867552891
 21
210.7390965798827
 31
0.0
  0
LINE
  5
AD3
330
1A
100
AcDbEntity
  8
SEIHIN
  6
CONTINUOUS
100
AcDbLine
 10
668.8302857766698
 20
212.8765205362672
 30
0.0
 11
630.2569273265125
 21
211.3594033903944
 31
0.0
  0
LINE
  5
AD4
330
1A
100
AcDbEntity
  8
SEIHIN
  6
CONTINUOUS
100
AcDbLine
 10
668.8302857766698
 20
214.376539091112
 30
0.0
 11
630.2569273265131
 21
212.8594069946695
 31
0.0
  0
LINE
  5
AD5
330
1A
100
AcDbEntity
  8
SEIHIN
  6
CONTINUOUS
100
AcDbLine
 10
668.927107297
 20
214.8722600917309
 30
0.0
 11
628.7053812954179
 21
213.230596357036
 31
0.0
  0
LINE
  5
AD6
330
1A
100
AcDbEntity
  8
SEIHIN
  6
CONTINUOUS
100
AcDbLine
 10
668.927107297
 20
208.380760091731
 30
0.0
 11
628.7053824959013
 21
206.7390964060343
 31
0.0
  0
LINE
  5
AD7
330
1A
100
AcDbEntity
  8
SEIHIN
  6
CONTINUOUS
100
AcDbLine
 10
668.8302857766698
 20
208.8765205362672
 30
0.0
 11
630.2569230846675
 21
207.3594032235596
 31
0.0
  0
LINE
  5
AD8
330
1A
100
AcDbEntity
  8
SEIHIN
  6
CONTINUOUS
100
AcDbLine
 10
668.8302857766698
 20
210.376539091112
 30
0.0
 11
630.2569328154755
 21
208.8594072105564
 31
0.0
  0
LINE
  5
AD9
330
1A
100
AcDbEntity
  8
SEIHIN
  6
CONTINUOUS
100
AcDbLine
 10
668.927107297
 20
210.8722600917309
 30
0.0
 11
628.7053867552891
 21
209.2305965798825
 31
0.0
  0
LINE
  5
ADA
330
1A
100
AcDbEntity
  8
SEIHIN
  6
CONTINUOUS
100
AcDbLine
 10
668.927107297
 20
204.3807600917309
 30
0.0
 11
628.7053824959009
 21
202.7390964060343
 31
0.0
  0
LINE
  5
ADB
330
1A
100
AcDbEntity
  8
SEIHIN
  6
CONTINUOUS
100
AcDbLine
 10
668.8302857766698
 20
204.8765205362672
 30
0.0
 11
630.2569230846671
 21
203.3594032235596
 31
0.0
  0
LINE
  5
ADC
330
1A
100
AcDbEntity
  8
SEIHIN
  6
CONTINUOUS
100
AcDbLine
 10
668.8302857766698
 20
200.8765205362673
 30
0.0
 11
630.2569230846672
 21
199.3594032235596
 31
0.0
  0
LINE
  5
ADD
330
1A
100
AcDbEntity
  8
SEIHIN
  6
CONTINUOUS
100
AcDbLine
 10
668.8302857766698
 20
202.3765390911119
 30
0.0
 11
630.2569328154766
 21
200.8594072105562
 31
0.0
  0
LINE
  5
ADE
330
1A
100
AcDbEntity
  8
SEIHIN
  6
CONTINUOUS
100
AcDbLine
 10
668.927107297
 20
200.3807600917309
 30
0.0
 11
628.7053824959009
 21
198.7390964060342
 31
0.0
  0
LINE
  5
ADF
330
1A
100
AcDbEntity
  8
SEIHIN
  6
CONTINUOUS
100
AcDbLine
 10
668.927107297
 20
202.8722600917309
 30
0.0
 11
628.7053867552891
 21
201.2305965798826
 31
0.0
  0
LINE
  5
AE0
330
1A
100
AcDbEntity
  8
SEIHIN
  6
CONTINUOUS
100
AcDbLine
 10
668.8302857766698
 20
206.3765390911121
 30
0.0
 11
630.256932815476
 21
204.8594072105564
 31
0.0
  0
LINE
  5
AE1
330
1A
100
AcDbEntity
  8
SEIHIN
  6
CONTINUOUS
100
AcDbLine
 10
668.927107297
 20
206.8722600917309
 30
0.0
 11
628.7053867552892
 21
205.2305965798826
 31
0.0
  0
LINE
  5
AE2
330
1A
100
AcDbEntity
  8
SEIHIN
  6
CONTINUOUS
100
AcDbLine
 10
668.927107297
 20
230.8722486659372
 30
0.0
 11
628.7053867552891
 21
229.2305950508251
 31
0.0
  0
LINE
  5
AE3
330
1A
100
AcDbEntity
  8
SEIHIN
  6
CONTINUOUS
100
AcDbLine
 10
668.8302857766698
 20
230.376539091112
 30
0.0
 11
630.2569273265127
 21
228.8594069946696
 31
0.0
  0
LINE
  5
AE4
330
1A
100
AcDbEntity
  8
SEIHIN
  6
CONTINUOUS
100
AcDbLine
 10
668.8302857766698
 20
228.8765205362673
 30
0.0
 11
630.2569273265133
 21
227.3594033903946
 31
0.0
  0
LINE
  5
AE5
330
1A
100
AcDbEntity
  8
SEIHIN
  6
CONTINUOUS
100
AcDbLine
 10
668.927107297
 20
228.3807600917309
 30
0.0
 11
628.7053867552892
 21
226.7390965798826
 31
0.0
  0
LINE
  5
AE6
330
1A
100
AcDbEntity
  8
SEIHIN
  6
CONTINUOUS
100
AcDbLine
 10
668.927107297
 20
232.3807937676366
 30
0.0
 11
628.7053867552891
 21
230.7391010865623
 31
0.0
  0
LINE
  5
AF8
330
1A
100
AcDbEntity
  8
SEIHIN
  6
CONTINUOUS
100
AcDbLine
 10
668.8302857766698
 20
230.376539091112
 30
0.0
 11
668.8302857766698
 21
228.8765205362673
 31
0.0
  0
LINE
  5
AFA
330
1A
100
AcDbEntity
  8
SEIHIN
  6
CONTINUOUS
100
AcDbLine
 10
668.8302857766698
 20
226.3765390911121
 30
0.0
 11
668.8302857766698
 21
224.8765205362673
 31
0.0
  0
LINE
  5
AFC
330
1A
100
AcDbEntity
  8
SEIHIN
  6
CONTINUOUS
100
AcDbLine
 10
668.927107297
 20
230.8722486659372
 30
0.0
 11
668.8302857766698
 21
230.376539091112
 31
0.0
  0
LINE
  5
AFD
330
1A
100
AcDbEntity
  8
SEIHIN
  6
CONTINUOUS
100
AcDbLine
 10
668.8302857766698
 20
228.8765205362673
 30
0.0
 11
668.927107297
 21
228.3807600917309
 31
0.0
  0
LINE
  5
AFE
330
1A
100
AcDbEntity
  8
SEIHIN
  6
CONTINUOUS
100
AcDbLine
 10
668.927107297
 20
226.872260091731
 30
0.0
 11
668.8302857766698
 21
226.3765390911121
 31
0.0
  0
LINE
  5
AFF
330
1A
100
AcDbEntity
  8
SEIHIN
  6
CONTINUOUS
100
AcDbLine
 10
668.8302857766698
 20
222.3765390911121
 30
0.0
 11
668.8302857766698
 21
220.8765205362673
 31
0.0
  0
LINE
  5
B00
330
1A
100
AcDbEntity
  8
SEIHIN
  6
CONTINUOUS
100
AcDbLine
 10
668.8302857766698
 20
218.376539091112
 30
0.0
 11
668.8302857766698
 21
216.8765205362674
 31
0.0
  0
LINE
  5
B01
330
1A
100
AcDbEntity
  8
SEIHIN
  6
CONTINUOUS
100
AcDbLine
 10
668.8302857766698
 20
224.8765205362673
 30
0.0
 11
668.927107297
 21
224.3807600917309
 31
0.0
  0
LINE
  5
B02
330
1A
100
AcDbEntity
  8
SEIHIN
  6
CONTINUOUS
100
AcDbLine
 10
668.927107297
 20
222.8722600917309
 30
0.0
 11
668.8302857766698
 21
222.3765390911121
 31
0.0
  0
LINE
  5
B03
330
1A
100
AcDbEntity
  8
SEIHIN
  6
CONTINUOUS
100
AcDbLine
 10
668.8302857766698
 20
220.8765205362673
 30
0.0
 11
668.8506477849609
 21
220.3776393701566
 31
0.0
  0
LINE
  5
B04
330
1A
100
AcDbEntity
  8
SEIHIN
  6
CONTINUOUS
100
AcDbLine
 10
668.927107297
 20
218.8722600917309
 30
0.0
 11
668.8302857766698
 21
218.376539091112
 31
0.0
  0
LINE
  5
B06
330
1A
100
AcDbEntity
  8
SEIHIN
  6
CONTINUOUS
100
AcDbLine
 10
668.8302857766698
 20
216.8765205362674
 30
0.0
 11
668.927107297
 21
216.3807600917309
 31
0.0
  0
LINE
  5
B07
330
1A
100
AcDbEntity
  8
SEIHIN
  6
CONTINUOUS
100
AcDbLine
 10
668.927107297
 20
214.8722600917309
 30
0.0
 11
668.8302857766698
 21
214.376539091112
 31
0.0
  0
LINE
  5
B08
330
1A
100
AcDbEntity
  8
SEIHIN
  6
CONTINUOUS
100
AcDbLine
 10
668.8302857766698
 20
212.8765205362672
 30
0.0
 11
668.927107297
 21
212.3807600917309
 31
0.0
  0
LINE
  5
B09
330
1A
100
AcDbEntity
  8
SEIHIN
  6
CONTINUOUS
100
AcDbLine
 10
668.8302857766698
 20
214.376539091112
 30
0.0
 11
668.8302857766698
 21
212.8765205362672
 31
0.0
  0
LINE
  5
B0A
330
1A
100
AcDbEntity
  8
SEIHIN
  6
CONTINUOUS
100
AcDbLine
 10
668.927107297
 20
210.8722600917309
 30
0.0
 11
668.8302857766698
 21
210.376539091112
 31
0.0
  0
LINE
  5
B0B
330
1A
100
AcDbEntity
  8
SEIHIN
  6
CONTINUOUS
100
AcDbLine
 10
668.8302857766698
 20
210.376539091112
 30
0.0
 11
668.8302857766698
 21
208.8765205362672
 31
0.0
  0
LINE
  5
B0C
330
1A
100
AcDbEntity
  8
SEIHIN
  6
CONTINUOUS
100
AcDbLine
 10
668.8302857766698
 20
208.8765205362672
 30
0.0
 11
668.927107297
 21
208.380760091731
 31
0.0
  0
LINE
  5
B0D
330
1A
100
AcDbEntity
  8
SEIHIN
  6
CONTINUOUS
100
AcDbLine
 10
668.927107297
 20
206.8722600917309
 30
0.0
 11
668.8302857766698
 21
206.3765390911121
 31
0.0
  0
LINE
  5
B10
330
1A
100
AcDbEntity
  8
SEIHIN
  6
CONTINUOUS
100
AcDbLine
 10
668.927107297
 20
202.8722600917309
 30
0.0
 11
668.8302857766698
 21
202.3765390911119
 31
0.0
  0
LINE
  5
B11
330
1A
100
AcDbEntity
  8
SEIHIN
  6
CONTINUOUS
100
AcDbLine
 10
668.8302857766698
 20
200.8765205362673
 30
0.0
 11
668.927107297
 21
200.3807600917309
 31
0.0
  0
LINE
  5
B12
330
1A
100
AcDbEntity
  8
SEIHIN
  6
CONTINUOUS
100
AcDbLine
 10
668.8302857766698
 20
202.3765390911119
 30
0.0
 11
668.8302857766698
 21
200.8765205362673
 31
0.0
  0
LINE
  5
B13
330
1A
100
AcDbEntity
  8
SEIHIN
  6
CONTINUOUS
100
AcDbLine
 10
668.8302857766698
 20
206.3765390911121
 30
0.0
 11
668.8302857766698
 21
204.8765205362672
 31
0.0
  0
LINE
  5
B14
330
1A
100
AcDbEntity
  8
SEIHIN
  6
CONTINUOUS
100
AcDbLine
 10
668.8302857766698
 20
204.8765205362672
 30
0.0
 11
668.927107297
 21
204.3807600917309
 31
0.0
  0
LINE
  5
B16
330
1A
100
AcDbEntity
  8
SEIHIN
  6
CONTINUOUS
100
AcDbLine
 10
668.927107297
 20
198.8722600917308
 30
0.0
 11
659.450219972248
 21
198.4854576397868
 31
0.0
  0
LINE
  5
B1B
330
1A
100
AcDbEntity
  8
SEIHIN
  6
CONTINUOUS
100
AcDbLine
 10
668.927107297
 20
198.8722600917308
 30
0.0
 11
668.8515591531491
 21
198.4854576397868
 31
0.0
  0
LINE
  5
B1C
330
1A
100
AcDbEntity
  8
SEIHIN
  6
CONTINUOUS
100
AcDbLine
 10
628.7053867552892
 20
229.2305950508251
 30
0.0
 11
630.256927326513
 21
228.8594069946695
 31
0.0
  0
LINE
  5
B1D
330
1A
100
AcDbEntity
  8
SEIHIN
  6
CONTINUOUS
100
AcDbLine
 10
630.256927326513
 20
227.3594033903945
 30
0.0
 11
628.7053867552892
 21
226.7390965798826
 31
0.0
  0
LINE
  5
B1E
330
1A
100
AcDbEntity
  8
SEIHIN
  6
CONTINUOUS
100
AcDbLine
 10
630.256927326513
 20
231.3594078970742
 30
0.0
 11
628.7053867552892
 21
230.7391010865624
 31
0.0
  0
LINE
  5
B21
330
1A
100
AcDbEntity
  8
SEIHIN
  6
CONTINUOUS
100
AcDbLine
 10
630.256927326513
 20
223.359404919452
 30
0.0
 11
628.7053867552892
 21
222.7390981089401
 31
0.0
  0
LINE
  5
B22
330
1A
100
AcDbEntity
  8
SEIHIN
  6
CONTINUOUS
100
AcDbLine
 10
628.7053867552892
 20
225.2305965798826
 30
0.0
 11
630.256927326513
 21
224.8594085237269
 31
0.0
  0
LINE
  5
B23
330
1A
100
AcDbEntity
  8
SEIHIN
  6
CONTINUOUS
100
AcDbLine
 10
630.256927326513
 20
228.8594069946694
 30
0.0
 11
630.256927326513
 21
227.3594033903945
 31
0.0
  0
LINE
  5
B24
330
1A
100
AcDbEntity
  8
SEIHIN
  6
CONTINUOUS
100
AcDbLine
 10
630.256927326513
 20
224.8594085237269
 30
0.0
 11
630.256927326513
 21
223.359404919452
 31
0.0
  0
LINE
  5
B25
330
1A
100
AcDbEntity
  8
SEIHIN
  6
CONTINUOUS
100
AcDbLine
 10
628.7053867552892
 20
221.2305965798825
 30
0.0
 11
630.256927326513
 21
220.8594085237269
 31
0.0
  0
LINE
  5
B26
330
1A
100
AcDbEntity
  8
SEIHIN
  6
CONTINUOUS
100
AcDbLine
 10
630.256927326513
 20
219.359404919452
 30
0.0
 11
628.7053867552892
 21
218.7390981089401
 31
0.0
  0
LINE
  5
B27
330
1A
100
AcDbEntity
  8
SEIHIN
  6
CONTINUOUS
100
AcDbLine
 10
630.256927326513
 20
220.8594085237269
 30
0.0
 11
630.256927326513
 21
219.359404919452
 31
0.0
  0
LINE
  5
B28
330
1A
100
AcDbEntity
  8
SEIHIN
  6
CONTINUOUS
100
AcDbLine
 10
628.7053867552892
 20
221.2305965798825
 30
0.0
 11
628.7053867552892
 21
218.7390981089401
 31
0.0
  0
LINE
  5
B29
330
1A
100
AcDbEntity
  8
SEIHIN
  6
CONTINUOUS
100
AcDbLine
 10
628.7053867552892
 20
225.2305965798826
 30
0.0
 11
628.7053867552892
 21
222.7390981089401
 31
0.0
  0
LINE
  5
B2A
330
1A
100
AcDbEntity
  8
SEIHIN
  6
CONTINUOUS
100
AcDbLine
 10
628.7053867552892
 20
217.2305965798826
 30
0.0
 11
630.256927326513
 21
216.8594085237269
 31
0.0
  0
LINE
  5
B2B
330
1A
100
AcDbEntity
  8
SEIHIN
  6
CONTINUOUS
100
AcDbLine
 10
630.256927326513
 20
215.359404919452
 30
0.0
 11
628.7053867552892
 21
214.7390981089401
 31
0.0
  0
LINE
  5
B2C
330
1A
100
AcDbEntity
  8
SEIHIN
  6
CONTINUOUS
100
AcDbLine
 10
630.256927326513
 20
216.8594085237269
 30
0.0
 11
630.256927326513
 21
215.359404919452
 31
0.0
  0
LINE
  5
B2D
330
1A
100
AcDbEntity
  8
SEIHIN
  6
CONTINUOUS
100
AcDbLine
 10
628.7053867552892
 20
217.2305965798826
 30
0.0
 11
628.7053867552892
 21
214.7390981089401
 31
0.0
  0
LINE
  5
B2E
330
1A
100
AcDbEntity
  8
SEIHIN
  6
CONTINUOUS
100
AcDbLine
 10
628.7053867552892
 20
213.2305950508252
 30
0.0
 11
630.256927326513
 21
212.8594069946696
 31
0.0
  0
LINE
  5
B2F
330
1A
100
AcDbEntity
  8
SEIHIN
  6
CONTINUOUS
100
AcDbLine
 10
630.256927326513
 20
211.3594033903946
 30
0.0
 11
628.7053867552892
 21
210.7390965798827
 31
0.0
  0
LINE
  5
B34
330
1A
100
AcDbEntity
  8
SEIHIN
  6
CONTINUOUS
100
AcDbLine
 10
630.256927326513
 20
212.8594069946696
 30
0.0
 11
630.256927326513
 21
211.3594033903946
 31
0.0
  0
LINE
  5
B35
330
1A
100
AcDbEntity
  8
SEIHIN
  6
CONTINUOUS
100
AcDbLine
 10
628.7053867552892
 20
213.2305950508252
 30
0.0
 11
628.7053867552892
 21
210.7390965798827
 31
0.0
  0
LINE
  5
B36
330
1A
100
AcDbEntity
  8
SEIHIN
  6
CONTINUOUS
100
AcDbLine
 10
628.7053867552892
 20
209.2305965798825
 30
0.0
 11
630.256927326513
 21
208.8594085237269
 31
0.0
  0
LINE
  5
B37
330
1A
100
AcDbEntity
  8
SEIHIN
  6
CONTINUOUS
100
AcDbLine
 10
630.256927326513
 20
207.3594049194519
 30
0.0
 11
628.7053867552892
 21
206.73909810894
 31
0.0
  0
LINE
  5
B3A
330
1A
100
AcDbEntity
  8
SEIHIN
  6
CONTINUOUS
100
AcDbLine
 10
630.256927326513
 20
208.8594085237269
 30
0.0
 11
630.256927326513
 21
207.3594049194519
 31
0.0
  0
LINE
  5
B3B
330
1A
100
AcDbEntity
  8
SEIHIN
  6
CONTINUOUS
100
AcDbLine
 10
628.7053867552892
 20
209.2305965798825
 30
0.0
 11
628.7053867552892
 21
206.7390965798827
 31
0.0
  0
LINE
  5
B3C
330
1A
100
AcDbEntity
  8
SEIHIN
  6
CONTINUOUS
100
AcDbLine
 10
628.7053867552892
 20
205.2305965798826
 30
0.0
 11
630.256927326513
 21
204.859408523727
 31
0.0
  0
LINE
  5
B3D
330
1A
100
AcDbEntity
  8
SEIHIN
  6
CONTINUOUS
100
AcDbLine
 10
630.256927326513
 20
203.359404919452
 30
0.0
 11
628.7053867552892
 21
202.7390981089402
 31
0.0
  0
LINE
  5
B3E
330
1A
100
AcDbEntity
  8
SEIHIN
  6
CONTINUOUS
100
AcDbLine
 10
630.256927326513
 20
204.859408523727
 30
0.0
 11
630.256927326513
 21
203.359404919452
 31
0.0
  0
LINE
  5
B3F
330
1A
100
AcDbEntity
  8
SEIHIN
  6
CONTINUOUS
100
AcDbLine
 10
628.7053867552892
 20
201.2305965798826
 30
0.0
 11
630.256927326513
 21
200.859408523727
 31
0.0
  0
LINE
  5
B40
330
1A
100
AcDbEntity
  8
SEIHIN
  6
CONTINUOUS
100
AcDbLine
 10
630.256927326513
 20
199.359404919452
 30
0.0
 11
628.7053867552892
 21
198.7390981089401
 31
0.0
  0
LINE
  5
B41
330
1A
100
AcDbEntity
  8
SEIHIN
  6
CONTINUOUS
100
AcDbLine
 10
630.256927326513
 20
200.859408523727
 30
0.0
 11
630.256927326513
 21
199.359404919452
 31
0.0
  0
LINE
  5
B44
330
1A
100
AcDbEntity
  8
SEIHIN
  6
CONTINUOUS
100
AcDbLine
 10
628.7053867552892
 20
201.2305965798826
 30
0.0
 11
628.7053867552892
 21
198.7390981089401
 31
0.0
  0
LINE
  5
B45
330
1A
100
AcDbEntity
  8
SEIHIN
  6
CONTINUOUS
100
AcDbLine
 10
628.7053867552892
 20
205.2305965798826
 30
0.0
 11
628.7053867552892
 21
202.7390981089402
 31
0.0
  0
LINE
  5
B46
330
1A
100
AcDbEntity
  8
SEIHIN
  6
CONTINUOUS
100
AcDbLine
 10
668.927107297
 20
230.8722486659372
 30
0.0
 11
668.927107297
 21
228.3807600917309
 31
0.0
  0
LINE
  5
B47
330
1A
100
AcDbEntity
  8
SEIHIN
  6
CONTINUOUS
100
AcDbLine
 10
668.927107297
 20
226.8722600917309
 30
0.0
 11
668.927107297
 21
224.3807600917309
 31
0.0
  0
LINE
  5
B48
330
1A
100
AcDbEntity
  8
SEIHIN
  6
CONTINUOUS
100
AcDbLine
 10
668.927107297
 20
222.8722600917309
 30
0.0
 11
668.927107297
 21
220.380760091731
 31
0.0
  0
LINE
  5
B49
330
1A
100
AcDbEntity
  8
SEIHIN
  6
CONTINUOUS
100
AcDbLine
 10
668.927107297
 20
218.8722600917309
 30
0.0
 11
668.927107297
 21
216.3807600917309
 31
0.0
  0
LINE
  5
B4A
330
1A
100
AcDbEntity
  8
SEIHIN
  6
CONTINUOUS
100
AcDbLine
 10
668.927107297
 20
214.8722600917309
 30
0.0
 11
668.927107297
 21
212.3807600917309
 31
0.0
  0
LINE
  5
B4B
330
1A
100
AcDbEntity
  8
SEIHIN
  6
CONTINUOUS
100
AcDbLine
 10
668.927107297
 20
210.8722600917309
 30
0.0
 11
668.9271072969999
 21
208.380760091731
 31
0.0
  0
LINE
  5
B4C
330
1A
100
AcDbEntity
  8
SEIHIN
  6
CONTINUOUS
100
AcDbLine
 10
668.9271072970001
 20
202.8722600917309
 30
0.0
 11
668.927107297
 21
200.3807600917309
 31
0.0
  0
LINE
  5
B4D
330
1A
100
AcDbEntity
  8
SEIHIN
  6
CONTINUOUS
100
AcDbLine
 10
668.9271072970001
 20
206.872260091731
 30
0.0
 11
668.927107297
 21
204.3807600917309
 31
0.0
  0
LINE
  5
B4E
330
1A
100
AcDbEntity
  8
SEIHIN
  6
CONTINUOUS
100
AcDbLine
 10
668.927107297
 20
198.8722600917308
 30
0.0
 11
668.927107297
 21
198.4854576397868
 31
0.0
  0
LINE
  5
B4F
330
1A
100
AcDbEntity
  8
SEIHIN
  6
CONTINUOUS
100
AcDbLine
 10
668.8481442354996
 20
232.7850789078153
 30
0.0
 11
668.927107297
 21
232.3807600917309
 31
0.0
  0
LINE
  5
B51
330
1A
100
AcDbEntity
  8
SEIHIN
  6
CONTINUOUS
100
AcDbLine
 10
668.927107297
 20
232.785078272487
 30
0.0
 11
668.927107297
 21
232.3807600917309
 31
0.0
  0
LINE
  5
B52
330
1A
100
AcDbEntity
  8
SEIHIN
  6
CONTINUOUS
100
AcDbLine
 10
628.7053867552892
 20
229.2305950508251
 30
0.0
 11
628.7053867552892
 21
226.7390965798826
 31
0.0
  0
CIRCLE
  5
B54
330
1A
100
AcDbEntity
  8
SEIHIN
  6
CONTINUOUS
100
AcDbCircle
 10
389.5587314570963
 20
408.1922976922767
 30
0.0
 40
65.00049028138409
  0
LINE
  5
B58
330
1A
100
AcDbEntity
  8
SEIHIN
  6
CONTINUOUS
100
AcDbLine
 10
389.5578976967523
 20
144.4102925211138
 30
0.0
 11
338.7080293432223
 21
144.4102925211138
 31
0.0
  0
LINE
  5
B59
330
1A
100
AcDbEntity
  8
SEIHIN
  6
CONTINUOUS
100
AcDbLine
 10
338.7080666891856
 20
178.7103016574756
 30
0.0
 11
440.4078976967531
 21
178.709483391438
 31
0.0
  0
LINE
  5
B87
330
1A
100
AcDbEntity
  8
SEIHIN
  6
CONTINUOUS
100
AcDbLine
 10
340.5578976967521
 20
142.4102925211138
 30
0.0
 11
340.5578976967521
 21
144.4102925211138
 31
0.0
  0
ARC
  5
BA9
330
1A
100
AcDbEntity
  8
SEIHIN
  6
CONTINUOUS
100
AcDbCircle
 10
338.3579976967522
 20
180.2102925211136
 30
0.0
 40
2.200000000000073
100
AcDbArc
 50
0.0000000000022206
 51
90.00000000000222
  0
LINE
  5
BB5
330
1A
100
AcDbEntity
  8
SEIHIN
  6
CONTINUOUS
100
AcDbLine
 10
340.5580976967523
 20
178.7102925211137
 30
0.0
 11
340.5580976967523
 21
180.2102925211137
 31
0.0
  0
LINE
  5
BB8
330
1A
100
AcDbEntity
  8
SEIHIN
  6
CONTINUOUS
100
AcDbLine
 10
389.5579976967523
 20
144.4102925211138
 30
0.0
 11
440.407897696752
 21
144.4101887455957
 31
0.0
  0
LINE
  5
BB9
330
1A
100
AcDbEntity
  8
SEIHIN
  6
CONTINUOUS
100
AcDbLine
 10
340.5578976967521
 20
142.4103925213181
 30
0.0
 11
438.5579976967523
 21
142.4101925211136
 31
0.0
  0
LINE
  5
BC2
330
1A
100
AcDbEntity
  8
SEIHIN
  6
CONTINUOUS
100
AcDbLine
 10
438.5579976967523
 20
142.4101925211136
 30
0.0
 11
438.5579976967523
 21
144.4102925211138
 31
0.0
  0
LINE
  5
BC3
330
1A
100
AcDbEntity
  8
SEIHIN
  6
CONTINUOUS
100
AcDbLine
 10
440.4078976967531
 20
178.709483391438
 30
0.0
 11
440.407897696752
 21
144.4101887455957
 31
0.0
  0
ARC
  5
BE8
330
1A
100
AcDbEntity
  8
SEIHIN
  6
CONTINUOUS
100
AcDbCircle
 10
440.7580476967522
 20
180.2102425211139
 30
0.0
 40
2.200050000568088
100
AcDbArc
 50
90.00130214721526
 51
180.0013021472152
  0
LINE
  5
BED
330
1A
100
AcDbEntity
  8
SEIHIN
  6
CONTINUOUS
100
AcDbLine
 10
438.5578976967523
 20
178.7101925211135
 30
0.0
 11
438.5578976967523
 21
180.2101925211138
 31
0.0
  0
LINE
  5
BF5
330
1A
100
AcDbEntity
  8
SEIHIN
  6
CONTINUOUS
100
AcDbLine
 10
423.2938217384805
 20
240.6103925209806
 30
0.0
 11
355.8245103799863
 21
240.6103925209963
 31
0.0
  0
LINE
  5
BF6
330
1A
100
AcDbEntity
  8
SEIHIN
  6
CONTINUOUS
100
AcDbLine
 10
385.4568011163297
 20
232.4103969863922
 30
0.0
 11
359.5731011162361
 21
232.4103251686512
 31
0.0
  0
LINE
  5
BF7
330
1A
100
AcDbEntity
  8
SEIHIN
  6
CONTINUOUS
100
AcDbLine
 10
338.708066688355
 20
178.7095387569958
 30
0.0
 11
338.7080293431697
 21
144.4102441111737
 31
0.0
  0
LINE
  5
BF8
330
1A
100
AcDbEntity
  8
SEIHIN
  6
CONTINUOUS
 62
     4
100
AcDbLine
 10
438.5591217384805
 20
178.7102925209807
 30
0.0
 11
438.5590517381334
 21
144.4101925187584
 31
0.0
  0
LINE
  5
BF9
330
1A
100
AcDbEntity
  8
SEIHIN
  6
CONTINUOUS
 62
     4
100
AcDbLine
 10
340.5591217384805
 20
178.7103925209805
 30
0.0
 11
340.5591217384805
 21
144.4102925211138
 31
0.0
  0
DIMENSION
  5
C0D
330
1A
100
AcDbEntity
  8
SUNPOU
  6
CONTINUOUS
 62
     4
 48
5.0
100
AcDbDimension
  2
*D1
 10
92.72923238414115
 20
272.9559940556498
 30
0.0
 11
162.7292323841412
 21
277.9559940556498
 31
0.0
 12
0.0
 22
55.0
 32
0.0
 70
    32
  1
φ<>
  3
STANDARD
100
AcDbAlignedDimension
 13
232.7292323841412
 23
253.7103925209805
 33
0.0
 14
92.72923238414115
 24
253.7095925289806
 34
0.0
100
AcDbRotatedDimension
1001
ACAD
1000
DSTYLE
1002
{
1070
   140
1040
6.0
1070
    74
1070
     0
1070
   172
1070
     1
1070
    73
1070
     0
1070
   272
1070
     2
1070
    77
1070
     3
1070
   173
1070
     1
1070
   147
1040
2.0
1070
    42
1040
6.0
1070
    44
1040
3.0
1070
    43
1040
14.0
1070
   271
1070
     0
1070
   178
1070
     4
1070
   177
1070
     4
1070
   176
1070
     4
1070
   141
1040
150.0
1070
     7
1000
_OPEN
1070
     6
1000
_OPEN
1070
    41
1040
7.0
1002
}
  0
DIMENSION
  5
C3B
330
1A
100
AcDbEntity
  8
SUNPOU
  6
CONTINUOUS
 62
     4
 48
5.0
100
AcDbDimension
  2
*D2
 10
342.5091217384804
 20
263.0222129950568
 30
0.0
 11
389.5591717384803
 21
268.0222129950568
 31
0.0
 12
-20.0
 22
-20.0
 32
0.0
 70
    32
  1
φ<>
  3
STANDARD
100
AcDbAlignedDimension
 13
436.6092217384804
 23
206.2078925209806
 33
0.0
 14
342.5091217384804
 24
206.2078925209806
 34
0.0
100
AcDbRotatedDimension
1001
ACAD
1000
DSTYLE
1002
{
1070
   140
1040
6.0
1070
    74
1070
     0
1070
   172
1070
     1
1070
    73
1070
     0
1070
   272
1070
     2
1070
    77
1070
     3
1070
   173
1070
     1
1070
   147
1040
2.0
1070
    42
1040
6.0
1070
    44
1040
3.0
1070
    43
1040
14.0
1070
   271
1070
     0
1070
   178
1070
     4
1070
   177
1070
     4
1070
   176
1070
     4
1070
   141
1040
150.0
1070
     7
1000
_OPEN
1070
     6
1000
_OPEN
1070
    41
1040
7.0
1002
}
  0
DIMENSION
  5
C48
330
1A
100
AcDbEntity
  8
SUNPOU
  6
CONTINUOUS
 62
     4
 48
5.0
100
AcDbDimension
  2
*D3
 10
324.5591217384804
 20
283.0307020853931
 30
0.0
 11
389.5591217384804
 21
288.0307020853931
 31
0.0
 12
-20.0
 22
-20.0
 32
0.0
 70
    32
  1
φ<>
  3
STANDARD
100
AcDbAlignedDimension
 13
454.5591217384805
 23
185.6102925209806
 33
0.0
 14
324.5591217384804
 24
185.6103925209806
 34
0.0
100
AcDbRotatedDimension
1001
ACAD
1000
DSTYLE
1002
{
1070
   140
1040
6.0
1070
    74
1070
     0
1070
   172
1070
     1
1070
    73
1070
     0
1070
   272
1070
     2
1070
    77
1070
     3
1070
   173
1070
     1
1070
   147
1040
2.0
1070
    42
1040
6.0
1070
    44
1040
3.0
1070
    43
1040
14.0
1070
   271
1070
     0
1070
   178
1070
     4
1070
   177
1070
     4
1070
   176
1070
     4
1070
   141
1040
150.0
1070
     7
1000
_OPEN
1070
     6
1000
_OPEN
1070
    41
1040
7.0
1002
}
  0
DIMENSION
  5
C57
330
1A
100
AcDbEntity
  8
SUNPOU
  6
CONTINUOUS
 62
     4
 48
5.0
100
AcDbDimension
  2
*D4
 10
478.8769219052053
 20
182.4102925209807
 30
0.0
 11
473.8769219052053
 21
203.6102925209807
 31
0.0
 12
-20.0
 22
-20.0
 32
0.0
 70
    32
  3
STANDARD
100
AcDbAlignedDimension
 13
454.5591217384805
 23
185.6102925209806
 33
0.0
 14
454.5592217384804
 24
182.4102925209807
 34
0.0
 50
90.0
100
AcDbRotatedDimension
1001
ACAD
1000
DSTYLE
1002
{
1070
   140
1040
6.0
1070
    74
1070
     0
1070
   172
1070
     1
1070
    73
1070
     0
1070
   272
1070
     2
1070
    77
1070
     3
1070
   173
1070
     1
1070
   280
1070
     1
1070
   147
1040
2.0
1070
    42
1040
6.0
1070
    44
1040
3.0
1070
    43
1040
14.0
1070
   271
1070
     0
1070
   178
1070
     4
1070
   177
1070
     4
1070
   176
1070
     4
1070
   141
1040
150.0
1070
     7
1000
_OPEN
1070
     6
1000
_OPEN
1070
    41
1040
7.0
1002
}
  0
DIMENSION
  5
C64
330
1A
100
AcDbEntity
  8
SUNPOU
  6
CONTINUOUS
 62
     4
 48
5.0
100
AcDbDimension
  2
*D5
 10
496.873278005846
 20
142.4101925211136
 30
0.0
 11
491.873278005846
 21
162.4102425210471
 31
0.0
 12
-20.0
 22
-20.0
 32
0.0
 70
    32
  3
STANDARD
100
AcDbAlignedDimension
 13
454.5592217384804
 23
182.4102925209807
 33
0.0
 14
438.5579976967523
 24
142.4101925211136
 34
0.0
 50
90.0
100
AcDbRotatedDimension
1001
ACAD
1000
DSTYLE
1002
{
1070
   140
1040
6.0
1070
    74
1070
     0
1070
   172
1070
     1
1070
    73
1070
     0
1070
   272
1070
     2
1070
    77
1070
     3
1070
   173
1070
     1
1070
   147
1040
2.0
1070
    42
1040
6.0
1070
    44
1040
3.0
1070
    43
1040
14.0
1070
   271
1070
     0
1070
   178
1070
     4
1070
   177
1070
     4
1070
   176
1070
     4
1070
   141
1040
150.0
1070
     7
1000
_OPEN
1070
     6
1000
_OPEN
1070
    41
1040
7.0
1002
}
  0
DIMENSION
  5
C71
330
1A
100
AcDbEntity
  8
SUNPOU
  6
CONTINUOUS
 62
     4
 48
5.0
100
AcDbDimension
  2
*D6
 10
515.6300433627286
 20
142.4101925211136
 30
0.0
 11
510.6300433627287
 21
191.5102925210471
 31
0.0
 12
-20.0
 22
-20.0
 32
0.0
 70
    32
  3
STANDARD
100
AcDbAlignedDimension
 13
423.2938217384805
 23
240.6103925209806
 33
0.0
 14
438.5579976967523
 24
142.4101925211136
 34
0.0
 50
90.0
100
AcDbRotatedDimension
1001
ACAD
1000
DSTYLE
1002
{
1070
   140
1040
6.0
1070
    74
1070
     0
1070
   172
1070
     1
1070
    73
1070
     0
1070
   272
1070
     2
1070
    77
1070
     3
1070
   173
1070
     1
1070
   147
1040
2.0
1070
    42
1040
6.0
1070
    44
1040
3.0
1070
    43
1040
14.0
1070
   271
1070
     0
1070
   178
1070
     4
1070
   177
1070
     4
1070
   176
1070
     4
1070
   141
1040
150.0
1070
     7
1000
_OPEN
1070
     6
1000
_OPEN
1070
    41
1040
7.0
1002
}
  0
DIMENSION
  5
C98
330
1A
100
AcDbEntity
  8
SUNPOU
  6
CONTINUOUS
 62
     4
 48
5.0
100
AcDbDimension
  2
*D7
 10
338.7080293431697
 20
116.2004331657522
 30
0.0
 11
389.5579635199608
 21
121.2004331657521
 31
0.0
 12
-20.0
 22
-20.0
 32
0.0
 70
    32
  1
φ<>
  3
STANDARD
100
AcDbAlignedDimension
 13
440.407897696752
 23
144.4101887455957
 33
0.0
 14
338.7080293431697
 24
144.4102441111737
 34
0.0
100
AcDbRotatedDimension
1001
ACAD
1000
DSTYLE
1002
{
1070
   140
1040
6.0
1070
    74
1070
     0
1070
   172
1070
     1
1070
    73
1070
     0
1070
   272
1070
     2
1070
    77
1070
     3
1070
   173
1070
     1
1070
   147
1040
2.0
1070
    42
1040
6.0
1070
    44
1040
3.0
1070
    43
1040
14.0
1070
   271
1070
     0
1070
   178
1070
     4
1070
   177
1070
     4
1070
   176
1070
     4
1070
   141
1040
150.0
1070
     7
1000
_OPEN
1070
     6
1000
_OPEN
1070
    41
1040
7.0
1002
}
  0
DIMENSION
  5
D19
330
1A
100
AcDbEntity
  8
SUNPOU
  6
CONTINUOUS
 62
     4
 48
5.0
100
AcDbDimension
  2
*D8
 10
619.9918568464904
 20
301.2829265282639
 30
0.0
 11
671.4918565563856
 21
306.2829265282639
 31
0.0
 12
-21.32136614233968
 22
24.66863145922889
 32
0.0
 70
    32
  1
穴径 φ<>
  3
STANDARD
100
AcDbAlignedDimension
 13
722.9918562662808
 23
365.5921410921587
 33
0.0
 14
619.9918568464904
 24
365.9603188451653
 34
0.0
100
AcDbRotatedDimension
1001
ACAD
1000
DSTYLE
1002
{
1070
   140
1040
6.0
1070
    74
1070
     0
1070
   172
1070
     1
1070
    73
1070
     0
1070
   272
1070
     2
1070
    77
1070
     3
1070
   173
1070
     1
1070
   147
1040
2.0
1070
    42
1040
6.0
1070
    44
1040
3.0
1070
    43
1040
14.0
1070
   271
1070
     0
1070
   178
1070
     4
1070
   177
1070
     4
1070
   176
1070
     4
1070
   141
1040
150.0
1070
     7
1000
_OPEN
1070
     6
1000
_OPEN
1070
    41
1040
7.0
1002
}
  0
DIMENSION
  5
D56
330
1A
100
AcDbEntity
  8
SUNPOU
  6
CONTINUOUS
 62
     4
 48
5.0
100
AcDbDimension
  2
*D9
 10
113.4774323841412
 20
124.9280347949982
 30
0.0
 11
162.7291323841412
 21
129.9280347949982
 31
0.0
 12
0.0
 22
55.0
 32
0.0
 70
    32
  1
φ<>
  3
STANDARD
100
AcDbAlignedDimension
 13
211.9808323841412
 23
154.7102925209806
 33
0.0
 14
113.4774323841412
 24
154.7103925209806
 34
0.0
100
AcDbRotatedDimension
1001
ACAD
1000
DSTYLE
1002
{
1070
   140
1040
6.0
1070
    74
1070
     0
1070
   172
1070
     1
1070
    73
1070
     0
1070
   272
1070
     2
1070
    77
1070
     3
1070
   173
1070
     1
1070
   147
1040
2.0
1070
    42
1040
6.0
1070
    44
1040
3.0
1070
    43
1040
14.0
1070
   271
1070
     0
1070
   178
1070
     4
1070
   177
1070
     4
1070
   176
1070
     4
1070
   141
1040
150.0
1070
     7
1000
_OPEN
1070
     6
1000
_OPEN
1070
    41
1040
7.0
1002
}
  0
DIMENSION
  5
D63
330
1A
100
AcDbEntity
  8
SUNPOU
  6
CONTINUOUS
 62
     4
 48
5.0
100
AcDbDimension
  2
*D10
 10
110.4291323841412
 20
103.6633545488741
 30
0.0
 11
162.7291323841412
 21
108.6633545488741
 31
0.0
 12
0.0
 22
55.0
 32
0.0
 70
    32
  1
φ<>
  3
STANDARD
100
AcDbAlignedDimension
 13
215.0291323841412
 23
195.7103925209807
 33
0.0
 14
110.4291323841412
 24
195.7103925209807
 34
0.0
100
AcDbRotatedDimension
1001
ACAD
1000
DSTYLE
1002
{
1070
   140
1040
6.0
1070
    74
1070
     0
1070
   172
1070
     1
1070
    73
1070
     0
1070
   272
1070
     2
1070
    77
1070
     3
1070
   173
1070
     1
1070
   147
1040
2.0
1070
    42
1040
6.0
1070
    44
1040
3.0
1070
    43
1040
14.0
1070
   271
1070
     0
1070
   178
1070
     4
1070
   177
1070
     4
1070
   176
1070
     4
1070
   141
1040
150.0
1070
     7
1000
_OPEN
1070
     6
1000
_OPEN
1070
    41
1040
7.0
1002
}
  0
DIMENSION
  5
DB2
330
1A
100
AcDbEntity
  8
SUNPOU
  6
CONTINUOUS
 62
     4
 48
5.0
100
AcDbDimension
  2
*D11
 10
247.7121984531529
 20
195.7103925209807
 30
0.0
 11
242.7121984531529
 21
220.2103925209806
 31
0.0
 70
    32
  3
STANDARD
100
AcDbAlignedDimension
 13
220.9292323841411
 23
244.7103925209805
 33
0.0
 14
215.0291323841412
 24
195.7103925209807
 34
0.0
 50
90.0
100
AcDbRotatedDimension
1001
ACAD
1000
DSTYLE
1002
{
1070
   140
1040
6.0
1070
    74
1070
     0
1070
   172
1070
     1
1070
    73
1070
     0
1070
   272
1070
     2
1070
    77
1070
     3
1070
   173
1070
     1
1070
   147
1040
2.0
1070
    42
1040
6.0
1070
    44
1040
3.0
1070
    43
1040
14.0
1070
   271
1070
     0
1070
   178
1070
     4
1070
   177
1070
     4
1070
   176
1070
     4
1070
   141
1040
150.0
1070
     7
1000
_OPEN
1070
     6
1000
_OPEN
1070
    41
1040
7.0
1002
}
  0
DIMENSION
  5
DBE
330
1A
100
AcDbEntity
  8
SUNPOU
  6
CONTINUOUS
 62
     4
 48
5.0
100
AcDbDimension
  2
*D12
 10
247.7121984531529
 20
150.7103925209806
 30
0.0
 11
242.7121984531529
 21
173.2103925209807
 31
0.0
 70
    32
  3
STANDARD
100
AcDbAlignedDimension
 13
215.0291323841412
 23
195.7103925209807
 33
0.0
 14
211.0291323841412
 24
150.7103925209806
 34
0.0
 50
90.0
100
AcDbRotatedDimension
1001
ACAD
1000
DSTYLE
1002
{
1070
   287
1070
     4
1070
   287
1070
     4
1070
   287
1070
     4
1070
    41
1040
7.0
1070
    42
1040
6.0
1070
    43
1040
14.0
1070
    44
1040
3.0
1070
    73
1070
     0
1070
    74
1070
     0
1070
    75
1070
     1
1070
    77
1070
     3
1070
   140
1040
6.0
1070
   141
1040
150.0
1070
   147
1040
2.0
1070
   172
1070
     1
1070
   173
1070
     1
1070
   176
1070
     4
1070
   177
1070
     4
1070
   178
1070
     4
1070
   271
1070
     0
1070
   272
1070
     2
1070
   279
1070
     1
1070
     6
1000
OPEN
1070
     7
1000
OPEN
1002
}
  0
DIMENSION
  5
DCB
330
1A
100
AcDbEntity
  8
SUNPOU
  6
CONTINUOUS
 62
     4
 48
5.0
100
AcDbDimension
  2
*D13
 10
270.2318206550296
 20
150.7103925209806
 30
0.0
 11
265.2318206550296
 21
202.2103925209806
 31
0.0
 70
    32
  3
STANDARD
100
AcDbAlignedDimension
 13
232.7292323841412
 23
253.7103925209805
 33
0.0
 14
211.0291323841412
 24
150.7103925209806
 34
0.0
 50
90.0
100
AcDbRotatedDimension
1001
ACAD
1000
DSTYLE
1002
{
1070
   140
1040
6.0
1070
    74
1070
     0
1070
   172
1070
     1
1070
    73
1070
     0
1070
   272
1070
     2
1070
    77
1070
     3
1070
   173
1070
     1
1070
   147
1040
2.0
1070
    42
1040
6.0
1070
    44
1040
3.0
1070
    43
1040
14.0
1070
   271
1070
     0
1070
   178
1070
     4
1070
   177
1070
     4
1070
   176
1070
     4
1070
   141
1040
150.0
1070
     7
1000
_OPEN
1070
     6
1000
_OPEN
1070
    41
1040
7.0
1002
}
  0
LINE
  5
DCC
330
1A
100
AcDbEntity
  8
NOKITOI
  6
CONTINUOUS
 62
     6
100
AcDbLine
 10
620.1418823320984
 20
373.2708576396538
 30
0.0
 11
593.1418823320984
 21
373.2708576396538
 31
0.0
  0
LINE
  5
DCD
330
1A
100
AcDbEntity
  8
NOKITOI
  6
CONTINUOUS
 62
     6
100
AcDbLine
 10
620.1418823320984
 20
370.7708576396537
 30
0.0
 11
593.1418823320984
 21
370.7708576396538
 31
0.0
  0
LINE
  5
DCE
330
1A
100
AcDbEntity
  8
NOKITOI
  6
CONTINUOUS
 62
     6
100
AcDbLine
 10
620.1418823320984
 20
370.7708576396537
 30
0.0
 11
620.1418823320985
 21
373.2708576396538
 31
0.0
  0
LINE
  5
DD0
330
1A
100
AcDbEntity
  8
NOKITOI
  6
CONTINUOUS
 62
     6
 48
5.0
100
AcDbLine
 10
722.8418465259102
 20
370.7706957595677
 30
0.0
 11
749.8418465257759
 21
370.770610642453
 31
0.0
  0
LINE
  5
DD1
330
1A
100
AcDbEntity
  8
NOKITOI
  6
CONTINUOUS
 62
     6
 48
5.0
100
AcDbLine
 10
722.8418544071245
 20
373.2706957595553
 30
0.0
 11
749.8418544069902
 21
373.2706106424405
 31
0.0
  0
LINE
  5
DD2
330
1A
100
AcDbEntity
  8
NOKITOI
  6
CONTINUOUS
 62
     6
 48
5.0
100
AcDbLine
 10
722.8418465259102
 20
370.7706957595677
 30
0.0
 11
722.8418544071244
 21
373.2706957595553
 31
0.0
  0
VIEWPORT
  5
22
330
17
100
AcDbEntity
 67
     1
  8
0
100
AcDbViewport
 10
313.6808219178082
 20
148.5
 30
0.0
 40
627.3616438356165
 41
297.0
 68
     2
 69
     1
1001
ACAD
1000
MVIEW
1002
{
1070
    16
1010
0.0
1020
0.0
1030
0.0
1010
0.0
1020
0.0
1030
1.0
1040
0.0
1040
297.0
1040
313.6808219178082
1040
148.5
1040
50.0
1040
0.0
1040
0.0
1070
     0
1070
   100
1070
     1
1070
     0
1070
     0
1070
     0
1070
     0
1070
     0
1040
0.0
1040
0.0
1040
0.0
1040
1.0
1040
1.0
1040
10.0
1040
10.0
1070
     0
1002
{
1002
}
1002
}
  0
VIEWPORT
  5
64
330
17
100
AcDbEntity
 67
     1
  8
VIEWPORT
100
AcDbViewport
 10
210.0
 20
148.5
 30
0.0
 40
420.0
 41
297.0
 68
     1
 69
     2
1001
ACAD
1000
MVIEW
1002
{
1070
    16
1010
0.0
1020
0.0
1030
0.0
1010
0.0
1020
0.0
1030
1.0
1040
0.0
1040
605.8799999999998
1040
420.0
1040
297.0
1040
50.0
1040
0.0
1040
0.0
1070
     0
1070
   100
1070
     1
1070
     0
1070
     0
1070
     0
1070
     0
1070
     0
1040
0.0
1040
0.0
1040
0.0
1040
10.0
1040
10.0
1040
0.0
1040
0.0
1070
     0
1002
{
1002
}
1002
}
  0
ENDSEC
  0
SECTION
  2
OBJECTS
  0
DICTIONARY
  5
C
330
0
100
AcDbDictionary
  3
ACAD_GROUP
350
D
  3
ACAD_LAYOUT
350
DDB
  3
ACAD_MLINESTYLE
350
E
  3
ACAD_PLOTSETTINGS
350
DDC
1001
ACAD
1000
TREAT_AS_HARD
1070
     0
  0
DICTIONARY
  5
E08
330
1A
100
AcDbDictionary
  3
ACAD_LAYOUTSELFREF
350
E5C
1001
ACAD
1000
TREAT_AS_HARD
1070
     1
  0
DICTIONARY
  5
E06
330
17
100
AcDbDictionary
  3
ACAD_LAYOUTSELFREF
350
E5B
1001
ACAD
1000
TREAT_AS_HARD
1070
     1
  0
DICTIONARY
  5
D
102
{ACAD_REACTORS
330
C
102
}
330
C
100
AcDbDictionary
1001
ACAD
1000
TREAT_AS_HARD
1070
     0
  0
DICTIONARY
  5
DDB
102
{ACAD_REACTORS
330
C
102
}
330
C
100
AcDbDictionary
1001
ACAD
1000
TREAT_AS_HARD
1070
     0
  0
DICTIONARY
  5
E
102
{ACAD_REACTORS
330
C
102
}
330
C
100
AcDbDictionary
  3
STANDARD
350
13
1001
ACAD
1000
TREAT_AS_HARD
1070
     0
  0
DICTIONARY
  5
DDC
102
{ACAD_REACTORS
330
C
102
}
330
C
100
AcDbDictionary
1001
ACAD
1000
TREAT_AS_HARD
1070
     0
  0
XRECORD
  5
E5C
102
{ACAD_REACTORS
330
E08
102
}
330
E08
100
AcDbXrecord
340
1A
  0
XRECORD
  5
E5B
102
{ACAD_REACTORS
330
E06
102
}
330
E06
100
AcDbXrecord
340
17
  0
MLINESTYLE
  5
13
102
{ACAD_REACTORS
330
E
102
}
330
E
100
AcDbMlineStyle
  2
STANDARD
 70
     0
  3

 62
     0
 51
90.0
 52
90.0
 71
     2
 49
0.5
 62
   256
  6
BYLAYER
 49
-0.5
 62
   256
  6
BYLAYER
  0
ENDSEC
  0
EOF
