  0
SECTION
  2
HEADER
  9
$ACADVER
  1
AC1015
  9
$ACADMAINTVER
 70
     6
  9
$DWGCODEPAGE
  3
ANSI_932
  9
$INSBASE
 10
0.0
 20
0.0
 30
0.0
  9
$EXTMIN
 10
0.0000000135560185
 20
-0.0000001317113174
 30
0.0
  9
$EXTMAX
 10
797.6000000135562
 20
551.5999998682888
 30
0.0
  9
$LIMMIN
 10
0.0
 20
0.0
  9
$LIMMAX
 10
840.0
 20
594.0
  9
$ORTHOMODE
 70
     0
  9
$REGENMODE
 70
     1
  9
$FILLMODE
 70
     1
  9
$QTEXTMODE
 70
     0
  9
$MIRRTEXT
 70
     1
  9
$LTSCALE
 40
2.0
  9
$ATTMODE
 70
     1
  9
$TEXTSIZE
 40
5.0
  9
$TRACEWID
 40
1.0
  9
$TEXTSTYLE
  7
STANDARD
  9
$CLAYER
  8
ZUWAKU
  9
$CELTYPE
  6
BYLAYER
  9
$CECOLOR
 62
   256
  9
$CELTSCALE
 40
1.0
  9
$DISPSILH
 70
     0
  9
$DIMSCALE
 40
1.0
  9
$DIMASZ
 40
7.0
  9
$DIMEXO
 40
6.0
  9
$DIMDLI
 40
14.0
  9
$DIMRND
 40
0.0
  9
$DIMDLE
 40
0.0
  9
$DIMEXE
 40
3.0
  9
$DIMTP
 40
0.0
  9
$DIMTM
 40
0.0
  9
$DIMTXT
 40
6.0
  9
$DIMCEN
 40
150.0
  9
$DIMTSZ
 40
0.0
  9
$DIMTOL
 70
     0
  9
$DIMLIM
 70
     0
  9
$DIMTIH
 70
     0
  9
$DIMTOH
 70
     0
  9
$DIMSE1
 70
     0
  9
$DIMSE2
 70
     0
  9
$DIMTAD
 70
     3
  9
$DIMZIN
 70
     0
  9
$DIMBLK
  1

  9
$DIMASO
 70
     1
  9
$DIMSHO
 70
     1
  9
$DIMPOST
  1

  9
$DIMAPOST
  1

  9
$DIMALT
 70
     0
  9
$DIMALTD
 70
     2
  9
$DIMALTF
 40
25.4
  9
$DIMLFAC
 40
1.0
  9
$DIMTOFL
 70
     1
  9
$DIMTVP
 40
0.0
  9
$DIMTIX
 70
     0
  9
$DIMSOXD
 70
     0
  9
$DIMSAH
 70
     1
  9
$DIMBLK1
  1
OPEN
  9
$DIMBLK2
  1
OPEN
  9
$DIMSTYLE
  2
STANDARD
  9
$DIMCLRD
 70
   256
  9
$DIMCLRE
 70
   256
  9
$DIMCLRT
 70
   256
  9
$DIMTFAC
 40
1.0
  9
$DIMGAP
 40
2.0
  9
$DIMJUST
 70
     0
  9
$DIMSD1
 70
     0
  9
$DIMSD2
 70
     0
  9
$DIMTOLJ
 70
     1
  9
$DIMTZIN
 70
     0
  9
$DIMALTZ
 70
     0
  9
$DIMALTTZ
 70
     0
  9
$DIMUPT
 70
     0
  9
$DIMDEC
 70
     0
  9
$DIMTDEC
 70
     0
  9
$DIMALTU
 70
     2
  9
$DIMALTTD
 70
     2
  9
$DIMTXSTY
  7
STANDARD
  9
$DIMAUNIT
 70
     0
  9
$DIMADEC
 70
     0
  9
$DIMALTRND
 40
0.0
  9
$DIMAZIN
 70
     0
  9
$DIMDSEP
 70
    46
  9
$DIMATFIT
 70
     3
  9
$DIMFRAC
 70
     0
  9
$DIMLDRBLK
  1
OPEN
  9
$DIMLUNIT
 70
     2
  9
$DIMLWD
 70
    -1
  9
$DIMLWE
 70
    -1
  9
$DIMTMOVE
 70
     0
  9
$LUNITS
 70
     2
  9
$LUPREC
 70
     4
  9
$SKETCHINC
 40
1.0
  9
$FILLETRAD
 40
2.0
  9
$AUNITS
 70
     0
  9
$AUPREC
 70
     0
  9
$MENU
  1
.
  9
$ELEVATION
 40
0.0
  9
$PELEVATION
 40
0.0
  9
$THICKNESS
 40
0.0
  9
$LIMCHECK
 70
     0
  9
$CHAMFERA
 40
20.0
  9
$CHAMFERB
 40
20.0
  9
$CHAMFERC
 40
40.0
  9
$CHAMFERD
 40
0.0
  9
$SKPOLY
 70
     0
  9
$TDCREATE
 40
2451212.496837384
  9
$TDUCREATE
 40
2451212.121837384
  9
$TDUPDATE
 40
2455609.396777847
  9
$TDUUPDATE
 40
2455609.021777847
  9
$TDINDWG
 40
0.1007211227
  9
$TDUSRTIMER
 40
0.1007211227
  9
$USRTIMER
 70
     1
  9
$ANGBASE
 50
0.0
  9
$ANGDIR
 70
     0
  9
$PDMODE
 70
     0
  9
$PDSIZE
 40
0.0
  9
$PLINEWID
 40
0.0
  9
$SPLFRAME
 70
     0
  9
$SPLINETYPE
 70
     6
  9
$SPLINESEGS
 70
     8
  9
$HANDSEED
  5
CC6
  9
$SURFTAB1
 70
     6
  9
$SURFTAB2
 70
     6
  9
$SURFTYPE
 70
     6
  9
$SURFU
 70
     6
  9
$SURFV
 70
     6
  9
$UCSBASE
  2

  9
$UCSNAME
  2

  9
$UCSORG
 10
0.0
 20
0.0
 30
0.0
  9
$UCSXDIR
 10
1.0
 20
0.0
 30
0.0
  9
$UCSYDIR
 10
0.0
 20
1.0
 30
0.0
  9
$UCSORTHOREF
  2

  9
$UCSORTHOVIEW
 70
     0
  9
$UCSORGTOP
 10
0.0
 20
0.0
 30
0.0
  9
$UCSORGBOTTOM
 10
0.0
 20
0.0
 30
0.0
  9
$UCSORGLEFT
 10
0.0
 20
0.0
 30
0.0
  9
$UCSORGRIGHT
 10
0.0
 20
0.0
 30
0.0
  9
$UCSORGFRONT
 10
0.0
 20
0.0
 30
0.0
  9
$UCSORGBACK
 10
0.0
 20
0.0
 30
0.0
  9
$PUCSBASE
  2

  9
$PUCSNAME
  2

  9
$PUCSORG
 10
0.0
 20
0.0
 30
0.0
  9
$PUCSXDIR
 10
1.0
 20
0.0
 30
0.0
  9
$PUCSYDIR
 10
0.0
 20
1.0
 30
0.0
  9
$PUCSORTHOREF
  2

  9
$PUCSORTHOVIEW
 70
     0
  9
$PUCSORGTOP
 10
0.0
 20
0.0
 30
0.0
  9
$PUCSORGBOTTOM
 10
0.0
 20
0.0
 30
0.0
  9
$PUCSORGLEFT
 10
0.0
 20
0.0
 30
0.0
  9
$PUCSORGRIGHT
 10
0.0
 20
0.0
 30
0.0
  9
$PUCSORGFRONT
 10
0.0
 20
0.0
 30
0.0
  9
$PUCSORGBACK
 10
0.0
 20
0.0
 30
0.0
  9
$USERI1
 70
     0
  9
$USERI2
 70
     0
  9
$USERI3
 70
     0
  9
$USERI4
 70
     0
  9
$USERI5
 70
     0
  9
$USERR1
 40
0.0
  9
$USERR2
 40
0.0
  9
$USERR3
 40
0.0
  9
$USERR4
 40
0.0
  9
$USERR5
 40
0.0
  9
$WORLDVIEW
 70
     1
  9
$SHADEDGE
 70
     3
  9
$SHADEDIF
 70
    70
  9
$TILEMODE
 70
     1
  9
$MAXACTVP
 70
    16
  9
$PINSBASE
 10
0.0
 20
0.0
 30
0.0
  9
$PLIMCHECK
 70
     0
  9
$PEXTMIN
 10
0.0
 20
0.0
 30
0.0
  9
$PEXTMAX
 10
420.0
 20
297.0
 30
0.0
  9
$PLIMMIN
 10
0.0
 20
0.0
  9
$PLIMMAX
 10
420.0
 20
297.0
  9
$UNITMODE
 70
     0
  9
$VISRETAIN
 70
     0
  9
$PLINEGEN
 70
     0
  9
$PSLTSCALE
 70
     1
  9
$TREEDEPTH
 70
  3020
  9
$CMLSTYLE
  2
STANDARD
  9
$CMLJUST
 70
     0
  9
$CMLSCALE
 40
1.0
  9
$PROXYGRAPHICS
 70
     1
  9
$MEASUREMENT
 70
     1
  9
$CELWEIGHT
370
    -1
  9
$ENDCAPS
280
     0
  9
$JOINSTYLE
280
     0
  9
$LWDISPLAY
290
     0
  9
$INSUNITS
 70
     0
  9
$HYPERLINKBASE
  1

  9
$STYLESHEET
  1
systemprinter.ctb
  9
$XEDIT
290
     1
  9
$CEPSNTYPE
380
     0
  9
$PSTYLEMODE
290
     1
  9
$FINGERPRINTGUID
  2
{6B84EFAC-A936-11D5-932D-0050DA99388B}
  9
$VERSIONGUID
  2
{045F5EB8-E69E-4911-91AD-39A870F1881C}
  9
$EXTNAMES
290
     1
  9
$PSVPSCALE
 40
0.0
  9
$OLESTARTUP
290
     0
  0
ENDSEC
  0
SECTION
  2
CLASSES
  0
CLASS
  1
ACDBDICTIONARYWDFLT
  2
AcDbDictionaryWithDefault
  3
ObjectDBX Classes
 90
        0
280
     0
281
     0
  0
CLASS
  1
ACDBPLACEHOLDER
  2
AcDbPlaceHolder
  3
ObjectDBX Classes
 90
        0
280
     0
281
     0
  0
CLASS
  1
LAYOUT
  2
AcDbLayout
  3
ObjectDBX Classes
 90
        0
280
     0
281
     0
  0
CLASS
  1
DUMMY
  2
AcDbLongTransaction
  3
DUMMY
 90
        0
280
     0
281
     0
  0
CLASS
  1
LWPOLYLINE
  2
AcDbPolyline
  3
AutoCAD 2000
 90
        0
280
     0
281
     1
  0
CLASS
  1
HATCH
  2
AcDbHatch
  3
AutoCAD 2000
 90
        0
280
     0
281
     1
  0
CLASS
  1
XRECORD
  2
AcDbXrecord
  3
AutoCAD 2000
 90
        0
280
     0
281
     0
  0
CLASS
  1
DUMMY
  2
AcDbLongTransaction
  3
DUMMY
 90
        0
280
     0
281
     0
  0
CLASS
  1
LWPOLYLINE
  2
AcDbPolyline
  3
AutoCAD 2000
 90
        0
280
     0
281
     1
  0
CLASS
  1
HATCH
  2
AcDbHatch
  3
AutoCAD 2000
 90
        0
280
     0
281
     1
  0
CLASS
  1
XRECORD
  2
AcDbXrecord
  3
AutoCAD 2000
 90
        0
280
     0
281
     0
  0
CLASS
  1
DUMMY
  2
AcDbLongTransaction
  3
DUMMY
 90
        0
280
     0
281
     0
  0
CLASS
  1
LWPOLYLINE
  2
AcDbPolyline
  3
AutoCAD 2000
 90
        0
280
     0
281
     1
  0
CLASS
  1
HATCH
  2
AcDbHatch
  3
AutoCAD 2000
 90
        0
280
     0
281
     1
  0
CLASS
  1
XRECORD
  2
AcDbXrecord
  3
AutoCAD 2000
 90
        0
280
     0
281
     0
  0
CLASS
  1
DUMMY
  2
AcDbLongTransaction
  3
DUMMY
 90
        0
280
     0
281
     0
  0
CLASS
  1
LWPOLYLINE
  2
AcDbPolyline
  3
AutoCAD 2000
 90
        0
280
     0
281
     1
  0
CLASS
  1
HATCH
  2
AcDbHatch
  3
AutoCAD 2000
 90
        0
280
     0
281
     1
  0
CLASS
  1
XRECORD
  2
AcDbXrecord
  3
AutoCAD 2000
 90
        0
280
     0
281
     0
  0
ENDSEC
  0
SECTION
  2
TABLES
  0
TABLE
  2
VPORT
  5
8
330
0
100
AcDbSymbolTable
 70
     2
  0
VPORT
  5
CC5
330
8
100
AcDbSymbolTableRecord
100
AcDbViewportTableRecord
  2
*Active
 70
     0
 10
0.0
 20
0.0
 11
1.0
 21
1.0
 12
415.5336091644704
 22
291.9919264838903
 13
0.0
 23
0.0
 14
5.0
 24
5.0
 15
0.0
 25
0.0
 16
0.0
 26
0.0
 36
1.0
 17
0.0
 27
0.0
 37
0.0
 40
637.2603500685069
 41
1.651537335285505
 42
50.0
 43
0.0
 44
0.0
 50
0.0
 51
0.0
 71
     0
 72
   100
 73
     1
 74
     0
 75
     0
 76
     0
 77
     0
 78
     0
281
     0
 65
     1
110
0.0
120
0.0
130
0.0
111
1.0
121
0.0
131
0.0
112
0.0
122
1.0
132
0.0
 79
     0
146
0.0
  0
ENDTAB
  0
TABLE
  2
LTYPE
  5
5
330
0
100
AcDbSymbolTable
 70
     3
  0
LTYPE
  5
14
330
5
100
AcDbSymbolTableRecord
100
AcDbLinetypeTableRecord
  2
BYBLOCK
 70
     0
  3

 72
    65
 73
     0
 40
0.0
  0
LTYPE
  5
15
330
5
100
AcDbSymbolTableRecord
100
AcDbLinetypeTableRecord
  2
BYLAYER
 70
     0
  3

 72
    65
 73
     0
 40
0.0
  0
LTYPE
  5
16
330
5
100
AcDbSymbolTableRecord
100
AcDbLinetypeTableRecord
  2
CONTINUOUS
 70
     0
  3
Solid line
 72
    65
 73
     0
 40
0.0
  0
LTYPE
  5
135
330
5
100
AcDbSymbolTableRecord
100
AcDbLinetypeTableRecord
  2
CENTER
 70
     0
  3
____ _ ____ _ ____ _ ____ _ ____ _ ____ _ ____ 
 72
    65
 73
     4
 40
2.0
 49
1.25
 74
     0
 49
-0.25
 74
     0
 49
0.25
 74
     0
 49
-0.25
 74
     0
  0
LTYPE
  5
8FF
330
5
100
AcDbSymbolTableRecord
100
AcDbLinetypeTableRecord
  2
PHANTOM
 70
     0
  3
______  __  __  ______  __  __  ______  __  __ 
 72
    65
 73
     6
 40
2.5
 49
1.25
 74
     0
 49
-0.25
 74
     0
 49
0.25
 74
     0
 49
-0.25
 74
     0
 49
0.25
 74
     0
 49
-0.25
 74
     0
  0
ENDTAB
  0
TABLE
  2
LAYER
  5
2
330
0
100
AcDbSymbolTable
 70
     9
  0
LAYER
  5
F
330
2
100
AcDbSymbolTableRecord
100
AcDbLayerTableRecord
  2
0
 70
     0
 62
     7
  6
CONTINUOUS
370
    -3
390
4BB
  0
LAYER
  5
62
330
2
100
AcDbSymbolTableRecord
100
AcDbLayerTableRecord
  2
VIEWPORT
 70
     0
 62
     7
  6
CONTINUOUS
370
    -3
390
4BB
  0
LAYER
  5
65
330
2
100
AcDbSymbolTableRecord
100
AcDbLayerTableRecord
  2
ZUWAKU
 70
     0
 62
     7
  6
CONTINUOUS
370
    -3
390
4BB
  0
LAYER
  5
28E
330
2
100
AcDbSymbolTableRecord
100
AcDbLayerTableRecord
  2
SEIHIN
 70
     0
 62
     3
  6
CONTINUOUS
370
    -3
390
4BB
  0
LAYER
  5
28F
330
2
100
AcDbSymbolTableRecord
100
AcDbLayerTableRecord
  2
SUNPOU
 70
     0
 62
     4
  6
CONTINUOUS
370
    -3
390
4BB
  0
LAYER
  5
290
330
2
100
AcDbSymbolTableRecord
100
AcDbLayerTableRecord
  2
CENTER L
 70
     0
 62
     1
  6
CENTER
370
    -3
390
4BB
  0
LAYER
  5
3EF
330
2
100
AcDbSymbolTableRecord
100
AcDbLayerTableRecord
  2
DEFPOINTS
 70
     0
 62
     7
  6
CONTINUOUS
290
     0
370
    -3
390
4BB
  0
LAYER
  5
702
330
2
100
AcDbSymbolTableRecord
100
AcDbLayerTableRecord
  2
moji
 70
     0
 62
     2
  6
CONTINUOUS
370
    -3
390
4BB
  0
LAYER
  5
900
330
2
100
AcDbSymbolTableRecord
100
AcDbLayerTableRecord
  2
NOKITOI
 70
     0
 62
     8
  6
PHANTOM
370
    -3
390
4BB
  0
ENDTAB
  0
TABLE
  2
STYLE
  5
3
330
0
100
AcDbSymbolTable
 70
     2
  0
STYLE
  5
10
330
3
100
AcDbSymbolTableRecord
100
AcDbTextStyleTableRecord
  2
STANDARD
 70
     0
 40
0.0
 41
1.0
 50
0.0
 71
     0
 42
5.0
  3
TXT
  4
bigfont.shx
  0
STYLE
  5
703
330
3
100
AcDbSymbolTableRecord
100
AcDbTextStyleTableRecord
  2
ｽﾀｲﾙ1
 70
     0
 40
0.0
 41
1.0
 50
0.0
 71
     0
 42
2.5
  3
MS PGothic.ttf
  4

1001
ACAD
1000
MS PGothic
1071
    32818
  0
ENDTAB
  0
TABLE
  2
VIEW
  5
6
330
0
100
AcDbSymbolTable
 70
     0
  0
ENDTAB
  0
TABLE
  2
UCS
  5
7
330
0
100
AcDbSymbolTable
 70
     0
  0
ENDTAB
  0
TABLE
  2
APPID
  5
9
330
0
100
AcDbSymbolTable
 70
     1
  0
APPID
  5
11
330
9
100
AcDbSymbolTableRecord
100
AcDbRegAppTableRecord
  2
ACAD
 70
     0
  0
ENDTAB
  0
TABLE
  2
DIMSTYLE
  5
A
330
0
100
AcDbSymbolTable
 70
     1
100
AcDbDimStyleTable
  0
DIMSTYLE
105
1D
102
{ACAD_REACTORS
330
A78
330
A7C
330
AB4
330
AB5
330
AD1
330
B13
330
B36
330
B3D
330
B4C
330
BB3
102
}
330
A
100
AcDbSymbolTableRecord
100
AcDbDimStyleTableRecord
  2
STANDARD
 70
     0
340
10
  0
ENDTAB
  0
TABLE
  2
BLOCK_RECORD
  5
1
330
0
100
AcDbSymbolTable
 70
    11
  0
BLOCK_RECORD
  5
1A
330
1
100
AcDbSymbolTableRecord
100
AcDbBlockTableRecord
  2
*MODEL_SPACE
340
4BE
  0
BLOCK_RECORD
  5
17
330
1
100
AcDbSymbolTableRecord
100
AcDbBlockTableRecord
  2
*PAPER_SPACE
340
4BF
  0
BLOCK_RECORD
  5
6D
330
1
100
AcDbSymbolTableRecord
100
AcDbBlockTableRecord
  2
_OPEN
340
0
102
{BLKREFS
331
C66
331
C67
331
C6F
331
C70
331
C7A
331
C7B
331
C83
331
C84
331
C8C
331
C8D
331
C95
331
C96
331
C9E
331
C9F
331
CA7
331
CA8
331
CB0
331
CB1
331
CB9
331
CBA
102
}
  0
BLOCK_RECORD
  5
BE9
330
1
100
AcDbSymbolTableRecord
100
AcDbBlockTableRecord
  2
*D1
340
0
  0
BLOCK_RECORD
  5
BF5
330
1
100
AcDbSymbolTableRecord
100
AcDbBlockTableRecord
  2
*D2
340
0
  0
BLOCK_RECORD
  5
C01
330
1
100
AcDbSymbolTableRecord
100
AcDbBlockTableRecord
  2
*D3
340
0
  0
BLOCK_RECORD
  5
C0F
330
1
100
AcDbSymbolTableRecord
100
AcDbBlockTableRecord
  2
*D4
340
0
  0
BLOCK_RECORD
  5
C1B
330
1
100
AcDbSymbolTableRecord
100
AcDbBlockTableRecord
  2
*D5
340
0
  0
BLOCK_RECORD
  5
C27
330
1
100
AcDbSymbolTableRecord
100
AcDbBlockTableRecord
  2
*D6
340
0
  0
BLOCK_RECORD
  5
C33
330
1
100
AcDbSymbolTableRecord
100
AcDbBlockTableRecord
  2
*D7
340
0
  0
BLOCK_RECORD
  5
C3F
330
1
100
AcDbSymbolTableRecord
100
AcDbBlockTableRecord
  2
*D8
340
0
  0
BLOCK_RECORD
  5
C4B
330
1
100
AcDbSymbolTableRecord
100
AcDbBlockTableRecord
  2
*D9
340
0
  0
BLOCK_RECORD
  5
C57
330
1
100
AcDbSymbolTableRecord
100
AcDbBlockTableRecord
  2
*D10
340
0
  0
ENDTAB
  0
ENDSEC
  0
SECTION
  2
BLOCKS
  0
BLOCK
  5
1B
330
1A
100
AcDbEntity
  8
0
100
AcDbBlockBegin
  2
*MODEL_SPACE
 70
     0
 71
     0
 10
0.0
 20
0.0
 30
0.0
  3
*MODEL_SPACE
  1

  0
ENDBLK
  5
1C
330
1A
100
AcDbEntity
  8
0
100
AcDbBlockEnd
  0
BLOCK
  5
18
330
17
100
AcDbEntity
 67
     1
  8
0
100
AcDbBlockBegin
  2
*PAPER_SPACE
 70
     0
 71
     0
 10
0.0
 20
0.0
 30
0.0
  3
*PAPER_SPACE
  1

  0
ENDBLK
  5
19
330
17
100
AcDbEntity
 67
     1
  8
0
100
AcDbBlockEnd
  0
BLOCK
  5
6E
330
6D
100
AcDbEntity
  8
0
100
AcDbBlockBegin
  2
_OPEN
 70
     0
 71
     0
 10
0.0
 20
0.0
 30
0.0
  3
_OPEN
  1

  0
LINE
  5
6F
330
6D
100
AcDbEntity
  8
0
  6
ByBlock
 62
     0
100
AcDbLine
 10
-1.0
 20
0.1666666666666667
 30
0.0
 11
0.0
 21
0.0
 31
0.0
  0
LINE
  5
70
330
6D
100
AcDbEntity
  8
0
  6
ByBlock
 62
     0
100
AcDbLine
 10
0.0
 20
0.0
 30
0.0
 11
-1.0
 21
-0.1666666666666667
 31
0.0
  0
LINE
  5
71
330
6D
100
AcDbEntity
  8
0
  6
ByBlock
 62
     0
100
AcDbLine
 10
0.0
 20
0.0
 30
0.0
 11
-1.0
 21
0.0
 31
0.0
  0
ENDBLK
  5
72
330
6D
100
AcDbEntity
  8
0
100
AcDbBlockEnd
  0
BLOCK
  5
BF3
330
BE9
100
AcDbEntity
  8
0
100
AcDbBlockBegin
  2
*D1
 70
     1
 71
     0
 10
0.0
 20
0.0
 30
0.0
  3
*D1
  1

  0
LINE
  5
C63
330
BE9
100
AcDbEntity
  8
SUNPOU
 62
     4
370
    -2
100
AcDbLine
 10
215.5091738168555
 20
130.2649050375528
 30
0.0
 11
215.5091738168555
 21
98.07060448952811
 31
0.0
  0
LINE
  5
C64
330
BE9
100
AcDbEntity
  8
SUNPOU
 62
     4
370
    -2
100
AcDbLine
 10
342.5091738168554
 20
127.7648050375529
 30
0.0
 11
342.5091738168554
 21
98.07060448952811
 31
0.0
  0
LINE
  5
C65
330
BE9
100
AcDbEntity
  8
SUNPOU
 62
     4
370
    -2
100
AcDbLine
 10
222.5091738168555
 20
101.0706044895281
 30
0.0
 11
335.5091738168554
 21
101.0706044895281
 31
0.0
  0
INSERT
  5
C66
330
BE9
100
AcDbEntity
  8
SUNPOU
 62
     4
370
    -2
100
AcDbBlockReference
  2
_OPEN
 10
215.5091738168555
 20
101.0706044895281
 30
0.0
 41
7.0
 42
7.0
 43
7.0
 50
180.0
  0
INSERT
  5
C67
330
BE9
100
AcDbEntity
  8
SUNPOU
 62
     4
370
    -2
100
AcDbBlockReference
  2
_OPEN
 10
342.5091738168554
 20
101.0706044895281
 30
0.0
 41
7.0
 42
7.0
 43
7.0
  0
MTEXT
  5
C68
330
BE9
100
AcDbEntity
  8
SUNPOU
 62
     4
100
AcDbMText
 10
279.0091738168554
 20
106.0706044895281
 30
0.0
 40
6.0
 41
0.0
 71
     5
 72
     1
  1
\A1;127
 73
     1
 44
1.0
  0
POINT
  5
C69
330
BE9
100
AcDbEntity
  8
DEFPOINTS
 62
     0
100
AcDbPoint
 10
215.5091738168555
 20
136.2649050375528
 30
0.0
  0
POINT
  5
C6A
330
BE9
100
AcDbEntity
  8
DEFPOINTS
 62
     0
100
AcDbPoint
 10
342.5091738168554
 20
133.7648050375529
 30
0.0
  0
POINT
  5
C6B
330
BE9
100
AcDbEntity
  8
DEFPOINTS
 62
     0
100
AcDbPoint
 10
342.5091738168554
 20
101.0706044895281
 30
0.0
  0
ENDBLK
  5
BF4
330
BE9
100
AcDbEntity
  8
0
100
AcDbBlockEnd
  0
BLOCK
  5
BFF
330
BF5
100
AcDbEntity
  8
0
100
AcDbBlockBegin
  2
*D2
 70
     1
 71
     0
 10
0.0
 20
0.0
 30
0.0
  3
*D2
  1

  0
LINE
  5
C6C
330
BF5
100
AcDbEntity
  8
SUNPOU
 62
     4
370
    -2
100
AcDbLine
 10
215.5092738168553
 20
226.2650050375528
 30
0.0
 11
215.5092738168553
 21
272.3745214479919
 31
0.0
  0
LINE
  5
C6D
330
BF5
100
AcDbEntity
  8
SUNPOU
 62
     4
370
    -2
100
AcDbLine
 10
357.5092738168554
 20
226.7649050375529
 30
0.0
 11
357.5092738168554
 21
272.3745214479919
 31
0.0
  0
LINE
  5
C6E
330
BF5
100
AcDbEntity
  8
SUNPOU
 62
     4
370
    -2
100
AcDbLine
 10
222.5092738168553
 20
269.3745214479919
 30
0.0
 11
350.5092738168554
 21
269.3745214479919
 31
0.0
  0
INSERT
  5
C6F
330
BF5
100
AcDbEntity
  8
SUNPOU
 62
     4
370
    -2
100
AcDbBlockReference
  2
_OPEN
 10
215.5092738168553
 20
269.3745214479919
 30
0.0
 41
7.0
 42
7.0
 43
7.0
 50
180.0
  0
INSERT
  5
C70
330
BF5
100
AcDbEntity
  8
SUNPOU
 62
     4
370
    -2
100
AcDbBlockReference
  2
_OPEN
 10
357.5092738168554
 20
269.3745214479919
 30
0.0
 41
7.0
 42
7.0
 43
7.0
  0
MTEXT
  5
C71
330
BF5
100
AcDbEntity
  8
SUNPOU
 62
     4
100
AcDbMText
 10
286.5092738168554
 20
274.3745214479919
 30
0.0
 40
6.0
 41
0.0
 71
     5
 72
     1
  1
\A1;142
 73
     1
 44
1.0
  0
POINT
  5
C72
330
BF5
100
AcDbEntity
  8
DEFPOINTS
 62
     0
100
AcDbPoint
 10
215.5092738168553
 20
220.2650050375528
 30
0.0
  0
POINT
  5
C73
330
BF5
100
AcDbEntity
  8
DEFPOINTS
 62
     0
100
AcDbPoint
 10
357.5092738168554
 20
220.7649050375529
 30
0.0
  0
POINT
  5
C74
330
BF5
100
AcDbEntity
  8
DEFPOINTS
 62
     0
100
AcDbPoint
 10
357.5092738168554
 20
269.3745214479919
 30
0.0
  0
ENDBLK
  5
C00
330
BF5
100
AcDbEntity
  8
0
100
AcDbBlockEnd
  0
BLOCK
  5
C0D
330
C01
100
AcDbEntity
  8
0
100
AcDbBlockBegin
  2
*D3
 70
     1
 71
     0
 10
0.0
 20
0.0
 30
0.0
  3
*D3
  1

  0
LINE
  5
C75
330
C01
100
AcDbEntity
  8
SUNPOU
 62
     4
370
    -2
100
AcDbLine
 10
357.5092738168554
 20
226.7649050375529
 30
0.0
 11
357.5092738168554
 21
255.9431869971508
 31
0.0
  0
LINE
  5
C76
330
C01
100
AcDbEntity
  8
SUNPOU
 62
     4
370
    -2
100
AcDbLine
 10
347.5090738168553
 20
226.7650050375529
 30
0.0
 11
347.5090738168553
 21
255.9431869971508
 31
0.0
  0
LINE
  5
C77
330
C01
100
AcDbEntity
  8
SUNPOU
 62
     4
370
    -2
100
AcDbLine
 10
364.5092738168554
 20
252.9431869971508
 30
0.0
 11
371.5092738168554
 21
252.9431869971508
 31
0.0
  0
LINE
  5
C78
330
C01
100
AcDbEntity
  8
SUNPOU
 62
     4
370
    -2
100
AcDbLine
 10
340.5090738168553
 20
252.9431869971508
 30
0.0
 11
322.5090738168553
 21
252.9431869971508
 31
0.0
  0
LINE
  5
C79
330
C01
100
AcDbEntity
  8
SUNPOU
 62
     4
370
    -2
100
AcDbLine
 10
357.5092738168554
 20
252.9431869971508
 30
0.0
 11
347.5090738168553
 21
252.9431869971508
 31
0.0
  0
INSERT
  5
C7A
330
C01
100
AcDbEntity
  8
SUNPOU
 62
     4
370
    -2
100
AcDbBlockReference
  2
_OPEN
 10
357.5092738168554
 20
252.9431869971508
 30
0.0
 41
7.0
 42
7.0
 43
7.0
 50
180.0
  0
INSERT
  5
C7B
330
C01
100
AcDbEntity
  8
SUNPOU
 62
     4
370
    -2
100
AcDbBlockReference
  2
_OPEN
 10
347.5090738168553
 20
252.9431869971508
 30
0.0
 41
7.0
 42
7.0
 43
7.0
  0
MTEXT
  5
C7C
330
C01
100
AcDbEntity
  8
SUNPOU
 62
     4
100
AcDbMText
 10
328.0090738168553
 20
257.9431869971508
 30
0.0
 40
6.0
 41
0.0
 71
     5
 72
     1
  1
\A1;10
 73
     1
 44
1.0
  0
POINT
  5
C7D
330
C01
100
AcDbEntity
  8
DEFPOINTS
 62
     0
100
AcDbPoint
 10
357.5092738168554
 20
220.7649050375529
 30
0.0
  0
POINT
  5
C7E
330
C01
100
AcDbEntity
  8
DEFPOINTS
 62
     0
100
AcDbPoint
 10
347.5090738168553
 20
220.7650050375529
 30
0.0
  0
POINT
  5
C7F
330
C01
100
AcDbEntity
  8
DEFPOINTS
 62
     0
100
AcDbPoint
 10
347.5090738168553
 20
252.9431869971508
 30
0.0
  0
ENDBLK
  5
C0E
330
C01
100
AcDbEntity
  8
0
100
AcDbBlockEnd
  0
BLOCK
  5
C19
330
C0F
100
AcDbEntity
  8
0
100
AcDbBlockBegin
  2
*D4
 70
     1
 71
     0
 10
0.0
 20
0.0
 30
0.0
  3
*D4
  1

  0
LINE
  5
C80
330
C0F
100
AcDbEntity
  8
SUNPOU
 62
     4
370
    -2
100
AcDbLine
 10
357.5090738168553
 20
226.7649050375529
 30
0.0
 11
357.5090738168553
 21
255.9431869971508
 31
0.0
  0
LINE
  5
C81
330
C0F
100
AcDbEntity
  8
SUNPOU
 62
     4
370
    -2
100
AcDbLine
 10
377.5092738168553
 20
226.7649050375529
 30
0.0
 11
377.5092738168553
 21
255.9431869971508
 31
0.0
  0
LINE
  5
C82
330
C0F
100
AcDbEntity
  8
SUNPOU
 62
     4
370
    -2
100
AcDbLine
 10
364.5090738168553
 20
252.9431869971508
 30
0.0
 11
370.5092738168553
 21
252.9431869971508
 31
0.0
  0
INSERT
  5
C83
330
C0F
100
AcDbEntity
  8
SUNPOU
 62
     4
370
    -2
100
AcDbBlockReference
  2
_OPEN
 10
357.5090738168553
 20
252.9431869971508
 30
0.0
 41
7.0
 42
7.0
 43
7.0
 50
180.0
  0
INSERT
  5
C84
330
C0F
100
AcDbEntity
  8
SUNPOU
 62
     4
370
    -2
100
AcDbBlockReference
  2
_OPEN
 10
377.5092738168553
 20
252.9431869971508
 30
0.0
 41
7.0
 42
7.0
 43
7.0
  0
MTEXT
  5
C85
330
C0F
100
AcDbEntity
  8
SUNPOU
 62
     4
100
AcDbMText
 10
367.5091738168553
 20
257.9431869971508
 30
0.0
 40
6.0
 41
0.0
 71
     5
 72
     1
  1
\A1;20
 73
     1
 44
1.0
  0
POINT
  5
C86
330
C0F
100
AcDbEntity
  8
DEFPOINTS
 62
     0
100
AcDbPoint
 10
357.5090738168553
 20
220.7649050375529
 30
0.0
  0
POINT
  5
C87
330
C0F
100
AcDbEntity
  8
DEFPOINTS
 62
     0
100
AcDbPoint
 10
377.5092738168553
 20
220.7649050375529
 30
0.0
  0
POINT
  5
C88
330
C0F
100
AcDbEntity
  8
DEFPOINTS
 62
     0
100
AcDbPoint
 10
377.5092738168553
 20
252.9431869971508
 30
0.0
  0
ENDBLK
  5
C1A
330
C0F
100
AcDbEntity
  8
0
100
AcDbBlockEnd
  0
BLOCK
  5
C25
330
C1B
100
AcDbEntity
  8
0
100
AcDbBlockBegin
  2
*D5
 70
     1
 71
     0
 10
0.0
 20
0.0
 30
0.0
  3
*D5
  1

  0
LINE
  5
C89
330
C1B
100
AcDbEntity
  8
SUNPOU
 62
     4
370
    -2
100
AcDbLine
 10
215.4975738168554
 20
350.6802757940686
 30
0.0
 11
215.4975738168554
 21
324.4435421947092
 31
0.0
  0
LINE
  5
C8A
330
C1B
100
AcDbEntity
  8
SUNPOU
 62
     4
370
    -2
100
AcDbLine
 10
250.4975738168553
 20
353.6133757940684
 30
0.0
 11
250.4975738168553
 21
324.4435421947092
 31
0.0
  0
LINE
  5
C8B
330
C1B
100
AcDbEntity
  8
SUNPOU
 62
     4
370
    -2
100
AcDbLine
 10
222.4975738168554
 20
327.4435421947092
 30
0.0
 11
243.4975738168553
 21
327.4435421947092
 31
0.0
  0
INSERT
  5
C8C
330
C1B
100
AcDbEntity
  8
SUNPOU
 62
     4
370
    -2
100
AcDbBlockReference
  2
_OPEN
 10
215.4975738168554
 20
327.4435421947092
 30
0.0
 41
7.0
 42
7.0
 43
7.0
 50
180.0
  0
INSERT
  5
C8D
330
C1B
100
AcDbEntity
  8
SUNPOU
 62
     4
370
    -2
100
AcDbBlockReference
  2
_OPEN
 10
250.4975738168553
 20
327.4435421947092
 30
0.0
 41
7.0
 42
7.0
 43
7.0
  0
MTEXT
  5
C8E
330
C1B
100
AcDbEntity
  8
SUNPOU
 62
     4
100
AcDbMText
 10
232.9975738168554
 20
332.4435421947092
 30
0.0
 40
6.0
 41
0.0
 71
     5
 72
     1
  1
\A1;※35
 73
     1
 44
1.0
  0
POINT
  5
C8F
330
C1B
100
AcDbEntity
  8
DEFPOINTS
 62
     0
100
AcDbPoint
 10
215.4975738168554
 20
356.6802757940686
 30
0.0
  0
POINT
  5
C90
330
C1B
100
AcDbEntity
  8
DEFPOINTS
 62
     0
100
AcDbPoint
 10
250.4975738168553
 20
359.6133757940684
 30
0.0
  0
POINT
  5
C91
330
C1B
100
AcDbEntity
  8
DEFPOINTS
 62
     0
100
AcDbPoint
 10
250.4975738168553
 20
327.4435421947092
 30
0.0
  0
ENDBLK
  5
C26
330
C1B
100
AcDbEntity
  8
0
100
AcDbBlockEnd
  0
BLOCK
  5
C31
330
C27
100
AcDbEntity
  8
0
100
AcDbBlockBegin
  2
*D6
 70
     1
 71
     0
 10
0.0
 20
0.0
 30
0.0
  3
*D6
  1

  0
LINE
  5
C92
330
C27
100
AcDbEntity
  8
SUNPOU
 62
     4
370
    -2
100
AcDbLine
 10
322.5092738168554
 20
368.2194757940686
 30
0.0
 11
322.5092738168554
 21
324.4435421947092
 31
0.0
  0
LINE
  5
C93
330
C27
100
AcDbEntity
  8
SUNPOU
 62
     4
370
    -2
100
AcDbLine
 10
357.5092738168554
 20
350.6735757940685
 30
0.0
 11
357.5092738168554
 21
324.4435421947092
 31
0.0
  0
LINE
  5
C94
330
C27
100
AcDbEntity
  8
SUNPOU
 62
     4
370
    -2
100
AcDbLine
 10
329.5092738168554
 20
327.4435421947092
 30
0.0
 11
350.5092738168554
 21
327.4435421947092
 31
0.0
  0
INSERT
  5
C95
330
C27
100
AcDbEntity
  8
SUNPOU
 62
     4
370
    -2
100
AcDbBlockReference
  2
_OPEN
 10
322.5092738168554
 20
327.4435421947092
 30
0.0
 41
7.0
 42
7.0
 43
7.0
 50
180.0
  0
INSERT
  5
C96
330
C27
100
AcDbEntity
  8
SUNPOU
 62
     4
370
    -2
100
AcDbBlockReference
  2
_OPEN
 10
357.5092738168554
 20
327.4435421947092
 30
0.0
 41
7.0
 42
7.0
 43
7.0
  0
MTEXT
  5
C97
330
C27
100
AcDbEntity
  8
SUNPOU
 62
     4
100
AcDbMText
 10
340.0092738168554
 20
332.4435421947092
 30
0.0
 40
6.0
 41
0.0
 71
     5
 72
     1
  1
\A1;※35
 73
     1
 44
1.0
  0
POINT
  5
C98
330
C27
100
AcDbEntity
  8
DEFPOINTS
 62
     0
100
AcDbPoint
 10
322.5092738168554
 20
374.2194757940686
 30
0.0
  0
POINT
  5
C99
330
C27
100
AcDbEntity
  8
DEFPOINTS
 62
     0
100
AcDbPoint
 10
357.5092738168554
 20
356.6735757940685
 30
0.0
  0
POINT
  5
C9A
330
C27
100
AcDbEntity
  8
DEFPOINTS
 62
     0
100
AcDbPoint
 10
357.5092738168554
 20
327.4435421947092
 30
0.0
  0
ENDBLK
  5
C32
330
C27
100
AcDbEntity
  8
0
100
AcDbBlockEnd
  0
BLOCK
  5
C3D
330
C33
100
AcDbEntity
  8
0
100
AcDbBlockBegin
  2
*D7
 70
     1
 71
     0
 10
0.0
 20
0.0
 30
0.0
  3
*D7
  1

  0
LINE
  5
C9B
330
C33
100
AcDbEntity
  8
SUNPOU
 62
     4
370
    -2
100
AcDbLine
 10
509.160283755334
 20
126.2651068640161
 30
0.0
 11
509.160283755334
 21
98.07060448952811
 31
0.0
  0
LINE
  5
C9C
330
C33
100
AcDbEntity
  8
SUNPOU
 62
     4
370
    -2
100
AcDbLine
 10
607.7750549185735
 20
126.2650030250003
 30
0.0
 11
607.7750549185735
 21
98.07060448952811
 31
0.0
  0
LINE
  5
C9D
330
C33
100
AcDbEntity
  8
SUNPOU
 62
     4
370
    -2
100
AcDbLine
 10
516.1602837553339
 20
101.0706044895281
 30
0.0
 11
600.7750549185735
 21
101.0706044895281
 31
0.0
  0
INSERT
  5
C9E
330
C33
100
AcDbEntity
  8
SUNPOU
 62
     4
370
    -2
100
AcDbBlockReference
  2
_OPEN
 10
509.160283755334
 20
101.0706044895281
 30
0.0
 41
7.0
 42
7.0
 43
7.0
 50
180.0
  0
INSERT
  5
C9F
330
C33
100
AcDbEntity
  8
SUNPOU
 62
     4
370
    -2
100
AcDbBlockReference
  2
_OPEN
 10
607.7750549185735
 20
101.0706044895281
 30
0.0
 41
7.0
 42
7.0
 43
7.0
  0
MTEXT
  5
CA0
330
C33
100
AcDbEntity
  8
SUNPOU
 62
     4
100
AcDbMText
 10
558.4676693369537
 20
106.0706044895281
 30
0.0
 40
6.0
 41
0.0
 71
     5
 72
     1
  1
\A1;99
 73
     1
 44
1.0
  0
POINT
  5
CA1
330
C33
100
AcDbEntity
  8
DEFPOINTS
 62
     0
100
AcDbPoint
 10
509.160283755334
 20
132.2651068640161
 30
0.0
  0
POINT
  5
CA2
330
C33
100
AcDbEntity
  8
DEFPOINTS
 62
     0
100
AcDbPoint
 10
607.7750549185735
 20
132.2650030250003
 30
0.0
  0
POINT
  5
CA3
330
C33
100
AcDbEntity
  8
DEFPOINTS
 62
     0
100
AcDbPoint
 10
607.7750549185735
 20
101.0706044895281
 30
0.0
  0
ENDBLK
  5
C3E
330
C33
100
AcDbEntity
  8
0
100
AcDbBlockEnd
  0
BLOCK
  5
C49
330
C3F
100
AcDbEntity
  8
0
100
AcDbBlockBegin
  2
*D8
 70
     1
 71
     0
 10
0.0
 20
0.0
 30
0.0
  3
*D8
  1

  0
LINE
  5
CA4
330
C3F
100
AcDbEntity
  8
SUNPOU
 62
     4
370
    -2
100
AcDbLine
 10
475.1082353851172
 20
222.265735337541
 30
0.0
 11
475.1082353851172
 21
255.9431869971508
 31
0.0
  0
LINE
  5
CA5
330
C3F
100
AcDbEntity
  8
SUNPOU
 62
     4
370
    -2
100
AcDbLine
 10
616.7269558265123
 20
202.7651050375529
 30
0.0
 11
616.7269558265123
 21
255.9431869971508
 31
0.0
  0
LINE
  5
CA6
330
C3F
100
AcDbEntity
  8
SUNPOU
 62
     4
370
    -2
100
AcDbLine
 10
482.1082353851172
 20
252.9431869971508
 30
0.0
 11
609.7269558265123
 21
252.9431869971508
 31
0.0
  0
INSERT
  5
CA7
330
C3F
100
AcDbEntity
  8
SUNPOU
 62
     4
370
    -2
100
AcDbBlockReference
  2
_OPEN
 10
475.1082353851172
 20
252.9431869971508
 30
0.0
 41
7.0
 42
7.0
 43
7.0
 50
180.0
  0
INSERT
  5
CA8
330
C3F
100
AcDbEntity
  8
SUNPOU
 62
     4
370
    -2
100
AcDbBlockReference
  2
_OPEN
 10
616.7269558265123
 20
252.9431869971508
 30
0.0
 41
7.0
 42
7.0
 43
7.0
  0
MTEXT
  5
CA9
330
C3F
100
AcDbEntity
  8
SUNPOU
 62
     4
100
AcDbMText
 10
545.9175956058148
 20
257.9431869971508
 30
0.0
 40
6.0
 41
0.0
 71
     5
 72
     1
  1
\A1;142
 73
     1
 44
1.0
  0
POINT
  5
CAA
330
C3F
100
AcDbEntity
  8
DEFPOINTS
 62
     0
100
AcDbPoint
 10
475.1082353851172
 20
216.265735337541
 30
0.0
  0
POINT
  5
CAB
330
C3F
100
AcDbEntity
  8
DEFPOINTS
 62
     0
100
AcDbPoint
 10
616.7269558265123
 20
196.7651050375529
 30
0.0
  0
POINT
  5
CAC
330
C3F
100
AcDbEntity
  8
DEFPOINTS
 62
     0
100
AcDbPoint
 10
616.7269558265123
 20
252.9431869971508
 30
0.0
  0
ENDBLK
  5
C4A
330
C3F
100
AcDbEntity
  8
0
100
AcDbBlockEnd
  0
BLOCK
  5
C55
330
C4B
100
AcDbEntity
  8
0
100
AcDbBlockBegin
  2
*D9
 70
     1
 71
     0
 10
0.0
 20
0.0
 30
0.0
  3
*D9
  1

  0
LINE
  5
CAD
330
C4B
100
AcDbEntity
  8
SUNPOU
 62
     4
370
    -2
100
AcDbLine
 10
471.6273819503642
 20
218.7657599599116
 30
0.0
 11
446.775671090991
 21
218.7657599599116
 31
0.0
  0
LINE
  5
CAE
330
C4B
100
AcDbEntity
  8
SUNPOU
 62
     4
370
    -2
100
AcDbLine
 10
504.894856624647
 20
132.2651050375521
 30
0.0
 11
446.775671090991
 21
132.2651050375521
 31
0.0
  0
LINE
  5
CAF
330
C4B
100
AcDbEntity
  8
SUNPOU
 62
     4
370
    -2
100
AcDbLine
 10
449.775671090991
 20
211.7657599599116
 30
0.0
 11
449.775671090991
 21
139.2651050375521
 31
0.0
  0
INSERT
  5
CB0
330
C4B
100
AcDbEntity
  8
SUNPOU
 62
     4
370
    -2
100
AcDbBlockReference
  2
_OPEN
 10
449.775671090991
 20
218.7657599599116
 30
0.0
 41
7.0
 42
7.0
 43
7.0
 50
90.0
  0
INSERT
  5
CB1
330
C4B
100
AcDbEntity
  8
SUNPOU
 62
     4
370
    -2
100
AcDbBlockReference
  2
_OPEN
 10
449.775671090991
 20
132.2651050375521
 30
0.0
 41
7.0
 42
7.0
 43
7.0
 50
270.0
  0
MTEXT
  5
CB2
330
C4B
100
AcDbEntity
  8
SUNPOU
 62
     4
100
AcDbMText
 10
444.775671090991
 20
175.5154324987319
 30
0.0
 40
6.0
 41
0.0
 71
     5
 72
     1
  1
\A1;87
 11
6.123031769111886E-17
 21
1.0
 31
0.0
 73
     1
 44
1.0
  0
POINT
  5
CB3
330
C4B
100
AcDbEntity
  8
DEFPOINTS
 62
     0
100
AcDbPoint
 10
477.6273819503642
 20
218.7657599599116
 30
0.0
  0
POINT
  5
CB4
330
C4B
100
AcDbEntity
  8
DEFPOINTS
 62
     0
100
AcDbPoint
 10
510.894856624647
 20
132.2651050375521
 30
0.0
  0
POINT
  5
CB5
330
C4B
100
AcDbEntity
  8
DEFPOINTS
 62
     0
100
AcDbPoint
 10
449.775671090991
 20
132.2651050375521
 30
0.0
  0
ENDBLK
  5
C56
330
C4B
100
AcDbEntity
  8
0
100
AcDbBlockEnd
  0
BLOCK
  5
C61
330
C57
100
AcDbEntity
  8
0
100
AcDbBlockBegin
  2
*D10
 70
     1
 71
     0
 10
0.0
 20
0.0
 30
0.0
  3
*D10
  1

  0
LINE
  5
CB6
330
C57
100
AcDbEntity
  8
SUNPOU
 62
     4
370
    -2
100
AcDbLine
 10
620.2269558265123
 20
199.2651050375529
 30
0.0
 11
650.293089875421
 21
199.2651050375529
 31
0.0
  0
LINE
  5
CB7
330
C57
100
AcDbEntity
  8
SUNPOU
 62
     4
370
    -2
100
AcDbLine
 10
611.8637558265123
 20
132.2650050375529
 30
0.0
 11
650.293089875421
 21
132.2650050375529
 31
0.0
  0
LINE
  5
CB8
330
C57
100
AcDbEntity
  8
SUNPOU
 62
     4
370
    -2
100
AcDbLine
 10
647.293089875421
 20
192.2651050375529
 30
0.0
 11
647.293089875421
 21
139.2650050375529
 31
0.0
  0
INSERT
  5
CB9
330
C57
100
AcDbEntity
  8
SUNPOU
 62
     4
370
    -2
100
AcDbBlockReference
  2
_OPEN
 10
647.293089875421
 20
199.2651050375529
 30
0.0
 41
7.0
 42
7.0
 43
7.0
 50
90.0
  0
INSERT
  5
CBA
330
C57
100
AcDbEntity
  8
SUNPOU
 62
     4
370
    -2
100
AcDbBlockReference
  2
_OPEN
 10
647.293089875421
 20
132.2650050375529
 30
0.0
 41
7.0
 42
7.0
 43
7.0
 50
270.0
  0
MTEXT
  5
CBB
330
C57
100
AcDbEntity
  8
SUNPOU
 62
     4
100
AcDbMText
 10
642.293089875421
 20
165.765055037553
 30
0.0
 40
6.0
 41
0.0
 71
     5
 72
     1
  1
\A1;67
 11
6.123031769111886E-17
 21
1.0
 31
0.0
 73
     1
 44
1.0
  0
POINT
  5
CBC
330
C57
100
AcDbEntity
  8
DEFPOINTS
 62
     0
100
AcDbPoint
 10
614.2269558265123
 20
199.2651050375529
 30
0.0
  0
POINT
  5
CBD
330
C57
100
AcDbEntity
  8
DEFPOINTS
 62
     0
100
AcDbPoint
 10
605.8637558265123
 20
132.2650050375529
 30
0.0
  0
POINT
  5
CBE
330
C57
100
AcDbEntity
  8
DEFPOINTS
 62
     0
100
AcDbPoint
 10
647.293089875421
 20
132.2650050375529
 30
0.0
  0
ENDBLK
  5
C62
330
C57
100
AcDbEntity
  8
0
100
AcDbBlockEnd
  0
ENDSEC
  0
SECTION
  2
ENTITIES
  0
TEXT
  5
46F
330
1A
100
AcDbEntity
  8
SUNPOU
 62
     4
100
AcDbText
 10
684.9983445684752
 20
37.16107601380135
 30
0.0
 40
6.0
  1
※　のきといの差込み寸法を示す
100
AcDbText
  0
LINE
  5
7BE
330
1A
100
AcDbEntity
  8
ZUWAKU
100
AcDbLine
 10
208.646601303624
 20
15.19999986828872
 30
0.0
 11
447.4243639845474
 21
15.19999986828871
 31
0.0
  0
LINE
  5
7BF
330
1A
100
AcDbEntity
  8
ZUWAKU
100
AcDbLine
 10
208.646601303624
 20
15.59999986828872
 30
0.0
 11
447.4243639845474
 21
15.59999986828872
 31
0.0
  0
LINE
  5
7C0
330
1A
100
AcDbEntity
  8
ZUWAKU
100
AcDbLine
 10
208.646601303624
 20
15.39999986828872
 30
0.0
 11
447.4243639845474
 21
15.39999986828872
 31
0.0
  0
LINE
  5
7C1
330
1A
100
AcDbEntity
  8
ZUWAKU
100
AcDbLine
 10
0.0000000135560185
 20
30.79999986828869
 30
0.0
 11
797.4000000135559
 21
30.79999986828869
 31
0.0
  0
LINE
  5
7C2
330
1A
100
AcDbEntity
  8
ZUWAKU
100
AcDbLine
 10
0.0000000135560185
 20
30.59999986828869
 30
0.0
 11
797.4000000135559
 21
30.59999986828869
 31
0.0
  0
LINE
  5
7C3
330
1A
100
AcDbEntity
  8
ZUWAKU
100
AcDbLine
 10
0.0000000135560185
 20
30.39999986828869
 30
0.0
 11
797.4000000135559
 21
30.39999986828869
 31
0.0
  0
LINE
  5
7C4
330
1A
100
AcDbEntity
  8
ZUWAKU
100
AcDbLine
 10
0.0000000135560185
 20
30.19999986828869
 30
0.0
 11
797.4000000135559
 21
30.19999986828869
 31
0.0
  0
LINE
  5
7C5
330
1A
100
AcDbEntity
  8
ZUWAKU
100
AcDbLine
 10
0.0000000135560185
 20
29.99999986828868
 30
0.0
 11
797.4000000135559
 21
29.99999986828868
 31
0.0
  0
LWPOLYLINE
  5
7C6
330
1A
100
AcDbEntity
  8
ZUWAKU
100
AcDbPolyline
 90
        4
 70
     1
 43
0.0
 10
0.2000000135559503
 20
551.3999998682888
 10
0.2000000135559503
 20
0.1999998682887281
 10
797.4000000135559
 20
0.1999998682887512
 10
797.4000000135561
 20
551.3999998682888
  0
LWPOLYLINE
  5
7C7
330
1A
100
AcDbEntity
  8
ZUWAKU
100
AcDbPolyline
 90
        4
 70
     1
 43
0.0
 10
0.6000000135559276
 20
550.9999998682888
 10
0.6000000135559276
 20
0.5999998682887053
 10
797.0000000135563
 20
0.5999998682887515
 10
797.000000013556
 20
550.9999998682888
  0
LWPOLYLINE
  5
7C8
330
1A
100
AcDbEntity
  8
ZUWAKU
100
AcDbPolyline
 90
        4
 70
     1
 43
0.0
 10
0.0000000135560185
 20
551.5999998682887
 10
0.0000000135560185
 20
-0.0000001317113174
 10
797.6000000135562
 20
-0.0000001317112499
 10
797.6000000135562
 20
551.5999998682888
  0
LWPOLYLINE
  5
7C9
330
1A
100
AcDbEntity
  8
ZUWAKU
100
AcDbPolyline
 90
        4
 70
     1
 43
0.0
 10
0.4000000135559958
 20
551.1999998682887
 10
0.4000000135559958
 20
0.3999998682887735
 10
797.2000000135561
 20
0.3999998682887505
 10
797.2000000135561
 20
551.1999998682887
  0
LWPOLYLINE
  5
7CA
330
1A
100
AcDbEntity
  8
ZUWAKU
100
AcDbPolyline
 90
        4
 70
     1
 43
0.0
 10
0.8000000135559731
 20
550.7999998682888
 10
0.8000000135559731
 20
0.7999998682887508
 10
796.800000013556
 20
0.7999998682887508
 10
796.800000013556
 20
550.7999998682888
  0
TEXT
  5
7CB
330
1A
100
AcDbEntity
  8
moji
100
AcDbText
 10
92.95778960172515
 20
12.74117799856344
 30
0.0
 40
6.0
  1
アーバントップΣ９０
 41
0.9
  7
ｽﾀｲﾙ1
100
AcDbText
  0
HATCH
  5
7CC
330
1A
100
AcDbEntity
  8
ZUWAKU
100
AcDbHatch
 10
0.0
 20
0.0
 30
0.0
210
0.0
220
0.0
230
1.0
  2
ANSI37
 70
     0
 71
     0
 91
        8
 92
        7
 72
     1
 73
     1
 93
       24
 10
14.50226267467588
 20
17.64484834927227
 42
-0.1989123673796348
 10
14.09221216833714
 20
18.63479784293332
 42
0.0
 10
14.09221216833714
 20
19.92499986828869
 42
-0.4142135623730912
 10
14.61721216833712
 20
20.44999986828869
 42
0.0
 10
17.59221216833703
 20
20.44999986828869
 42
0.4142135623731546
 10
18.11721216833712
 20
20.97499986828868
 42
0.0
 10
18.11721216833712
 20
22.72499986828869
 42
0.4142135623731586
 10
17.59221216833703
 20
23.24999986828869
 42
0.0
 10
14.09221216833714
 20
23.24999986828869
 42
0.4142135623730928
 10
11.29221216833719
 20
20.44999986828871
 42
0.0
 10
11.29221216833719
 20
18.63479784293345
 42
0.1989123673796619
 10
12.52236368735362
 20
15.66494936194984
 42
0.0
 10
15.43216166199829
 20
12.75515138730518
 42
-0.1989123673796613
 10
15.84221216833714
 20
11.76520189364399
 42
0.0
 10
15.84221216833714
 20
10.47499986828868
 42
-0.4142135623730911
 10
15.31721216833716
 20
9.949999868288685
 42
0.0
 10
12.34221216833726
 20
9.949999868288685
 42
0.4142135623731526
 10
11.81721216833716
 20
9.424999868288698
 42
0.0
 10
11.81721216833716
 20
7.674999868288676
 42
0.4142135623731526
 10
12.34221216833726
 20
7.149999868288688
 42
0.0
 10
15.84221216833714
 20
7.149999868288688
 42
0.4142135623731044
 10
18.64221216833721
 20
9.949999868288664
 42
0.0
 10
18.64221216833721
 20
11.76520189364394
 42
0.1989123673796604
 10
17.41206064932067
 20
14.73505037462748
 42
0.0
 97
        0
 92
        7
 72
     1
 73
     1
 93
       16
 10
23.54221216833719
 20
19.04999986828869
 42
-0.4142135623730935
 10
24.94221216833716
 20
20.44999986828869
 42
0.0
 10
26.86721216833712
 20
20.44999986828869
 42
0.4142135623731546
 10
27.39221216833721
 20
20.97499986828868
 42
0.0
 10
27.39221216833721
 20
22.72499986828869
 42
0.4142135623730952
 10
26.86721216833723
 20
23.24999986828869
 42
0.0
 10
24.94221216833705
 20
23.24999986828865
 42
0.4142135623730892
 10
20.74221216833712
 20
19.04999986828862
 42
0.0
 10
20.74221216833712
 20
11.34999986828871
 42
0.4142135623730969
 10
24.94221216833716
 20
7.149999868288688
 42
0.0
 10
26.86721216833712
 20
7.149999868288688
 42
0.4142135623731526
 10
27.39221216833721
 20
7.674999868288676
 42
0.0
 10
27.39221216833721
 20
9.424999868288698
 42
0.414213562373089
 10
26.86721216833723
 20
9.949999868288685
 42
0.0
 10
24.94221216833716
 20
9.949999868288685
 42
-0.4142135623730928
 10
23.54221216833719
 20
11.34999986828867
 42
0.0
 97
        0
 92
        7
 72
     1
 73
     1
 93
        2
 10
24.24221216833712
 20
15.19999986828869
 42
1.0
 10
27.74221216833712
 20
15.19999986828869
 42
1.0
 97
        0
 92
        7
 72
     1
 73
     1
 93
       26
 10
37.31485865051513
 20
19.20504706185211
 42
0.0
 10
38.37649828365295
 20
22.5669059001217
 42
0.5069206636600134
 10
37.87586738445759
 20
23.24999986828869
 42
0.0
 10
36.17697800484837
 20
23.24999986828869
 42
0.3272098845218764
 10
35.67634710565301
 20
22.88309383645566
 42
0.0
 10
33.80807723102123
 20
16.96690590012177
 42
-0.3272098845219541
 10
33.30744633182576
 20
16.59999986828868
 42
0.0
 10
33.1672121683373
 20
16.59999986828868
 42
-0.4142135623731526
 10
32.64221216833721
 20
17.12499986828867
 42
0.0
 10
32.64221216833721
 20
22.72499986828869
 42
0.4142135623730952
 10
32.11721216833723
 20
23.24999986828869
 42
0.0
 10
30.36721216833712
 20
23.24999986828869
 42
0.4142135623730872
 10
29.84221216833714
 20
22.72499986828871
 42
0.0
 10
29.84221216833714
 20
7.674999868288676
 42
0.414213562373089
 10
30.36721216833712
 20
7.149999868288688
 42
0.0
 10
32.11721216833712
 20
7.149999868288688
 42
0.4142135623731526
 10
32.64221216833721
 20
7.674999868288676
 42
0.0
 10
32.64221216833721
 20
13.2749998682887
 42
-0.4142135623731526
 10
33.1672121683373
 20
13.79999986828869
 42
0.0
 10
33.30744633182587
 20
13.79999986828869
 42
-0.3272098845218915
 10
33.80807723102123
 20
13.43309383645561
 42
0.0
 10
35.67634710565301
 20
7.51690590012176
 42
0.3272098845218902
 10
36.17697800484837
 20
7.149999868288688
 42
0.0
 10
37.87586738445759
 20
7.149999868288688
 42
0.5069206636600334
 10
38.37649828365295
 20
7.833093836455696
 42
0.0
 10
36.05010690517929
 20
15.19999986828882
 42
0.0
 97
        0
 92
        7
 72
     1
 73
     1
 93
        8
 10
43.49221216833712
 20
22.7249998682887
 42
0.4142135623731546
 10
42.96721216833703
 20
23.24999986828869
 42
0.0
 10
41.21721216833726
 20
23.24999986828869
 42
0.4142135623731506
 10
40.69221216833716
 20
22.72499986828871
 42
0.0
 10
40.69221216833716
 20
7.674999868288676
 42
0.4142135623731526
 10
41.21721216833726
 20
7.149999868288688
 42
0.0
 10
42.96721216833703
 20
7.149999868288688
 42
0.4142135623731526
 10
43.49221216833712
 20
7.674999868288676
 42
0.0
 97
        0
 92
        7
 72
     1
 73
     1
 93
       24
 10
48.39221216833721
 20
19.92499986828869
 42
-0.4142135623731547
 10
48.9172121683373
 20
20.44999986828869
 42
0.0
 10
51.89221216833721
 20
20.44999986828869
 42
0.4142135623730911
 10
52.41721216833719
 20
20.97499986828868
 42
0.0
 10
52.41721216833719
 20
22.72499986828869
 42
0.4142135623730952
 10
51.89221216833721
 20
23.24999986828869
 42
0.0
 10
48.39221216833721
 20
23.24999986828869
 42
0.4142135623731048
 10
45.59221216833714
 20
20.44999986828871
 42
0.0
 10
45.59221216833714
 20
18.63479784293345
 42
0.1989123673796613
 10
46.82236368735369
 20
15.66494936194989
 42
0.0
 10
49.73216166199836
 20
12.75515138730523
 42
-0.1989123673796402
 10
50.14221216833721
 20
11.76520189364415
 42
0.0
 10
50.14221216833721
 20
10.47499986828868
 42
-0.4142135623730911
 10
49.61721216833723
 20
9.949999868288685
 42
0.0
 10
46.64221216833721
 20
9.949999868288685
 42
0.4142135623731526
 10
46.11721216833712
 20
9.424999868288698
 42
0.0
 10
46.11721216833712
 20
7.674999868288676
 42
0.414213562373089
 10
46.6422121683371
 20
7.149999868288688
 42
0.0
 10
50.14221216833721
 20
7.149999868288688
 42
0.4142135623730925
 10
52.94221216833716
 20
9.949999868288664
 42
0.0
 10
52.94221216833716
 20
11.76520189364394
 42
0.1989123673796675
 10
51.71206064932062
 20
14.73505037462759
 42
0.0
 10
48.80226267467606
 20
17.64484834927211
 42
-0.1989123673796653
 10
48.39221216833721
 20
18.63479784293327
 42
0.0
 97
        0
 92
        7
 72
     1
 73
     1
 93
       16
 10
57.84221216833714
 20
22.72499986828868
 42
0.414213562373103
 10
57.31721216833716
 20
23.24999986828869
 42
0.0
 10
55.56721216833716
 20
23.24999986828869
 42
0.4142135623730872
 10
55.04221216833719
 20
22.72499986828871
 42
0.0
 10
55.04221216833719
 20
9.949999868288664
 42
0.4142135623730925
 10
57.84221216833714
 20
7.149999868288688
 42
0.0
 10
61.34221216833714
 20
7.149999868288688
 42
0.4142135623731044
 10
64.14221216833721
 20
9.949999868288664
 42
0.0
 10
64.14221216833721
 20
22.72499986828869
 42
0.4142135623730952
 10
63.61721216833723
 20
23.24999986828869
 42
0.0
 10
61.86721216833712
 20
23.24999986828869
 42
0.4142135623730872
 10
61.34221216833714
 20
22.72499986828871
 42
0.0
 10
61.34221216833714
 20
10.99999986828866
 42
-0.414213562373088
 10
60.29221216833719
 20
9.949999868288685
 42
0.0
 10
58.89221216833721
 20
9.949999868288685
 42
-0.4142135623731197
 10
57.84221216833714
 20
10.99999986828866
 42
0.0
 97
        0
 92
        7
 72
     1
 73
     1
 93
        8
 10
69.04221216833719
 20
22.72499986828871
 42
0.4142135623730872
 10
68.51721216833721
 20
23.24999986828869
 42
0.0
 10
66.76721216833721
 20
23.24999986828869
 42
0.4142135623731506
 10
66.24221216833712
 20
22.72499986828871
 42
0.0
 10
66.24221216833712
 20
7.674999868288676
 42
0.414213562373089
 10
66.7672121683371
 20
7.149999868288688
 42
0.0
 10
68.51721216833721
 20
7.149999868288688
 42
0.414213562373089
 10
69.04221216833719
 20
7.674999868288676
 42
0.0
 97
        0
 75
     0
 76
     1
 52
0.0
 41
0.2
 77
     0
 78
     2
 53
45.0
 43
-900.942304321123
 44
-13.20000013171125
 45
-0.4490128060534576
 46
0.4490128060534577
 79
     0
 53
135.0
 43
-900.942304321123
 44
-13.20000013171125
 45
-0.4490128060534577
 46
-0.4490128060534576
 79
     0
 47
0.057451373970553
 98
        8
 10
16.07985497657933
 20
15.16717351417424
 10
22.40451501999519
 20
18.84406205073969
 10
25.16436789921568
 20
15.5118815143594
 10
30.91405999519316
 20
16.20129751473019
 10
41.83847203251276
 20
16.6609097822718
 10
46.89820090868557
 20
19.41857618469589
 10
56.55768598595637
 20
18.7291577833837
 10
67.82707963317876
 20
19.18877005092531
  0
LINE
  5
7CD
330
1A
100
AcDbEntity
  8
ZUWAKU
100
AcDbLine
 10
24.94221216833716
 20
23.24999986828865
 30
0.0
 11
26.86721216833712
 21
23.24999986828869
 31
0.0
  0
LINE
  5
7CE
330
1A
100
AcDbEntity
  8
ZUWAKU
100
AcDbLine
 10
26.86721216833712
 20
20.44999986828869
 30
0.0
 11
24.94221216833716
 21
20.44999986828869
 31
0.0
  0
LINE
  5
7CF
330
1A
100
AcDbEntity
  8
ZUWAKU
100
AcDbLine
 10
24.94221216833716
 20
9.949999868288685
 30
0.0
 11
26.86721216833712
 21
9.949999868288685
 31
0.0
  0
LINE
  5
7D0
330
1A
100
AcDbEntity
  8
ZUWAKU
100
AcDbLine
 10
26.86721216833712
 20
7.149999868288688
 30
0.0
 11
24.94221216833716
 21
7.149999868288688
 31
0.0
  0
CIRCLE
  5
7D1
330
1A
100
AcDbEntity
  8
ZUWAKU
100
AcDbCircle
 10
25.99221216833712
 20
15.19999986828869
 30
0.0
 40
1.75
  0
ARC
  5
7D2
330
1A
100
AcDbEntity
  8
ZUWAKU
100
AcDbCircle
 10
15.49221216833712
 20
18.63479784293339
 30
0.0
 40
1.4
100
AcDbArc
 50
180.0000000000016
 51
224.9999999999988
  0
LINE
  5
7D3
330
1A
100
AcDbEntity
  8
ZUWAKU
100
AcDbLine
 10
23.54221216833719
 20
19.04999986828869
 30
0.0
 11
23.54221216833719
 21
11.34999986828869
 31
0.0
  0
LINE
  5
7D4
330
1A
100
AcDbEntity
  8
ZUWAKU
100
AcDbLine
 10
20.74221216833712
 20
11.34999986828869
 30
0.0
 11
20.74221216833712
 21
19.04999986828864
 31
0.0
  0
ARC
  5
7D5
330
1A
100
AcDbEntity
  8
ZUWAKU
100
AcDbCircle
 10
15.49221216833712
 20
18.63479784293339
 30
0.0
 40
4.199999999999999
100
AcDbArc
 50
180.0
 51
225.0
  0
ARC
  5
7D6
330
1A
100
AcDbEntity
  8
ZUWAKU
100
AcDbCircle
 10
15.84221216833714
 20
9.949999868288685
 30
0.0
 40
2.8
100
AcDbArc
 50
270.0
 51
0.0
  0
ARC
  5
7D7
330
1A
100
AcDbEntity
  8
ZUWAKU
100
AcDbCircle
 10
24.94221216833716
 20
11.34999986828869
 30
0.0
 40
4.199999999999999
100
AcDbArc
 50
180.0
 51
270.0
  0
ARC
  5
7D8
330
1A
100
AcDbEntity
  8
ZUWAKU
100
AcDbCircle
 10
14.44221216833716
 20
11.76520189364399
 30
0.0
 40
4.199999999999999
100
AcDbArc
 50
0.0
 51
45.0
  0
LINE
  5
7D9
330
1A
100
AcDbEntity
  8
ZUWAKU
100
AcDbLine
 10
17.41206064932067
 20
14.73505037462751
 30
0.0
 11
14.50226267467599
 21
17.64484834927219
 31
0.0
  0
LINE
  5
7DA
330
1A
100
AcDbEntity
  8
ZUWAKU
100
AcDbLine
 10
15.84221216833714
 20
10.47499986828869
 30
0.0
 11
15.84221216833714
 21
11.76520189364403
 31
0.0
  0
ARC
  5
7DB
330
1A
100
AcDbEntity
  8
ZUWAKU
100
AcDbCircle
 10
15.31721216833716
 20
10.47499986828869
 30
0.0
 40
0.5249999999999999
100
AcDbArc
 50
270.0
 51
0.0
  0
ARC
  5
7DC
330
1A
100
AcDbEntity
  8
ZUWAKU
100
AcDbCircle
 10
14.44221216833716
 20
11.76520189364403
 30
0.0
 40
1.4
100
AcDbArc
 50
0.0
 51
45.0
  0
LINE
  5
7DD
330
1A
100
AcDbEntity
  8
ZUWAKU
100
AcDbLine
 10
11.81721216833716
 20
7.674999868288687
 30
0.0
 11
11.81721216833716
 21
9.424999868288687
 31
0.0
  0
ARC
  5
7DE
330
1A
100
AcDbEntity
  8
ZUWAKU
100
AcDbCircle
 10
12.34221216833714
 20
7.674999868288687
 30
0.0
 40
0.5249999999999999
100
AcDbArc
 50
180.0
 51
270.0
  0
ARC
  5
7DF
330
1A
100
AcDbEntity
  8
ZUWAKU
100
AcDbCircle
 10
12.34221216833714
 20
9.424999868288687
 30
0.0
 40
0.5249999999999999
100
AcDbArc
 50
90.0
 51
180.0
  0
LINE
  5
7E0
330
1A
100
AcDbEntity
  8
ZUWAKU
100
AcDbLine
 10
12.34221216833714
 20
7.149999868288688
 30
0.0
 11
15.84221216833714
 21
7.149999868288688
 31
0.0
  0
LINE
  5
7E1
330
1A
100
AcDbEntity
  8
ZUWAKU
100
AcDbLine
 10
12.34221216833714
 20
9.949999868288685
 30
0.0
 11
15.31721216833716
 21
9.949999868288685
 31
0.0
  0
LINE
  5
7E2
330
1A
100
AcDbEntity
  8
ZUWAKU
100
AcDbLine
 10
12.52236368735362
 20
15.66494936194987
 30
0.0
 11
15.43216166199829
 21
12.7551513873052
 31
0.0
  0
LINE
  5
7E3
330
1A
100
AcDbEntity
  8
ZUWAKU
100
AcDbLine
 10
18.64221216833721
 20
9.949999868288685
 30
0.0
 11
18.64221216833721
 21
11.76520189364403
 31
0.0
  0
ARC
  5
7E4
330
1A
100
AcDbEntity
  8
ZUWAKU
100
AcDbCircle
 10
24.94221216833716
 20
11.34999986828869
 30
0.0
 40
1.4
100
AcDbArc
 50
180.0
 51
270.0
  0
ARC
  5
7E5
330
1A
100
AcDbEntity
  8
ZUWAKU
100
AcDbCircle
 10
17.59221216833714
 20
22.72499986828868
 30
0.0
 40
0.5249999999999999
100
AcDbArc
 50
0.0
 51
90.0
  0
ARC
  5
7E6
330
1A
100
AcDbEntity
  8
ZUWAKU
100
AcDbCircle
 10
17.59221216833714
 20
20.97499986828868
 30
0.0
 40
0.5249999999999999
100
AcDbArc
 50
270.0
 51
0.0
  0
LINE
  5
7E7
330
1A
100
AcDbEntity
  8
ZUWAKU
100
AcDbLine
 10
14.09221216833714
 20
23.24999986828869
 30
0.0
 11
17.59221216833714
 21
23.24999986828869
 31
0.0
  0
ARC
  5
7E8
330
1A
100
AcDbEntity
  8
ZUWAKU
100
AcDbCircle
 10
14.61721216833712
 20
19.92499986828869
 30
0.0
 40
0.5249999999999999
100
AcDbArc
 50
90.0
 51
180.0
  0
LINE
  5
7E9
330
1A
100
AcDbEntity
  8
ZUWAKU
100
AcDbLine
 10
14.09221216833714
 20
19.92499986828869
 30
0.0
 11
14.09221216833714
 21
18.63479784293335
 31
0.0
  0
LINE
  5
7EA
330
1A
100
AcDbEntity
  8
ZUWAKU
100
AcDbLine
 10
17.59221216833714
 20
20.44999986828869
 30
0.0
 11
14.61721216833712
 21
20.44999986828869
 31
0.0
  0
LINE
  5
7EB
330
1A
100
AcDbEntity
  8
ZUWAKU
100
AcDbLine
 10
11.29221216833719
 20
20.44999986828869
 30
0.0
 11
11.29221216833719
 21
18.63479784293335
 31
0.0
  0
ARC
  5
7EC
330
1A
100
AcDbEntity
  8
ZUWAKU
100
AcDbCircle
 10
14.09221216833714
 20
20.44999986828869
 30
0.0
 40
2.8
100
AcDbArc
 50
90.0
 51
180.0
  0
LINE
  5
7ED
330
1A
100
AcDbEntity
  8
ZUWAKU
100
AcDbLine
 10
18.11721216833712
 20
22.72499986828868
 30
0.0
 11
18.11721216833712
 21
20.97499986828868
 31
0.0
  0
ARC
  5
7EE
330
1A
100
AcDbEntity
  8
ZUWAKU
100
AcDbCircle
 10
24.94221216833716
 20
19.04999986828869
 30
0.0
 40
1.4
100
AcDbArc
 50
90.0
 51
180.0
  0
ARC
  5
7EF
330
1A
100
AcDbEntity
  8
ZUWAKU
100
AcDbCircle
 10
24.94221216833716
 20
19.04999986828864
 30
0.0
 40
4.199999999999999
100
AcDbArc
 50
90.0
 51
180.0
  0
LINE
  5
7F0
330
1A
100
AcDbEntity
  8
ZUWAKU
100
AcDbLine
 10
79.32662956154422
 20
29.99999986828868
 30
0.0
 11
79.32662956154445
 21
0.7999998682887508
 31
0.0
  0
LINE
  5
7F1
330
1A
100
AcDbEntity
  8
ZUWAKU
100
AcDbLine
 10
79.52662956154427
 20
29.99999986828868
 30
0.0
 11
79.5266295615445
 21
0.7999998682887508
 31
0.0
  0
LINE
  5
7F2
330
1A
100
AcDbEntity
  8
ZUWAKU
100
AcDbLine
 10
79.12662956154441
 20
29.99999986828868
 30
0.0
 11
79.12662956154441
 21
0.7999998682887508
 31
0.0
  0
LINE
  5
7F3
330
1A
100
AcDbEntity
  8
ZUWAKU
100
AcDbLine
 10
64.14221216833721
 20
9.949999868288685
 30
0.0
 11
64.14221216833721
 21
22.72499986828868
 31
0.0
  0
LINE
  5
7F4
330
1A
100
AcDbEntity
  8
ZUWAKU
100
AcDbLine
 10
61.34221216833714
 20
22.72499986828868
 30
0.0
 11
61.34221216833714
 21
10.99999986828868
 31
0.0
  0
LINE
  5
7F5
330
1A
100
AcDbEntity
  8
ZUWAKU
100
AcDbLine
 10
69.04221216833719
 20
7.674999868288687
 30
0.0
 11
69.04221216833719
 21
22.72499986828868
 31
0.0
  0
LINE
  5
7F6
330
1A
100
AcDbEntity
  8
ZUWAKU
100
AcDbLine
 10
66.24221216833712
 20
22.72499986828868
 30
0.0
 11
66.24221216833712
 21
7.674999868288687
 31
0.0
  0
ARC
  5
7F7
330
1A
100
AcDbEntity
  8
ZUWAKU
100
AcDbCircle
 10
49.79221216833719
 20
18.63479784293339
 30
0.0
 40
1.4
100
AcDbArc
 50
180.0000000000016
 51
224.9999999999988
  0
ARC
  5
7F8
330
1A
100
AcDbEntity
  8
ZUWAKU
100
AcDbCircle
 10
49.79221216833719
 20
18.63479784293339
 30
0.0
 40
4.199999999999999
100
AcDbArc
 50
180.0
 51
225.0
  0
LINE
  5
7F9
330
1A
100
AcDbEntity
  8
ZUWAKU
100
AcDbLine
 10
37.31485865051513
 20
19.20504706185211
 30
0.0
 11
36.05010690517929
 21
15.19999986828871
 31
0.0
  0
LINE
  5
7FA
330
1A
100
AcDbEntity
  8
ZUWAKU
100
AcDbLine
 10
40.69221216833716
 20
22.72499986828868
 30
0.0
 11
40.69221216833716
 21
7.674999868288687
 31
0.0
  0
LINE
  5
7FB
330
1A
100
AcDbEntity
  8
ZUWAKU
100
AcDbLine
 10
43.49221216833712
 20
7.674999868288687
 30
0.0
 11
43.49221216833712
 21
22.72499986828868
 31
0.0
  0
LINE
  5
7FC
330
1A
100
AcDbEntity
  8
ZUWAKU
100
AcDbLine
 10
55.04221216833719
 20
22.72499986828868
 30
0.0
 11
55.04221216833719
 21
9.949999868288685
 31
0.0
  0
LINE
  5
7FD
330
1A
100
AcDbEntity
  8
ZUWAKU
100
AcDbLine
 10
57.84221216833714
 20
10.99999986828868
 30
0.0
 11
57.84221216833714
 21
22.72499986828868
 31
0.0
  0
LINE
  5
7FE
330
1A
100
AcDbEntity
  8
ZUWAKU
100
AcDbLine
 10
32.64221216833721
 20
17.12499986828869
 30
0.0
 11
32.64221216833721
 21
22.72499986828868
 31
0.0
  0
LINE
  5
7FF
330
1A
100
AcDbEntity
  8
ZUWAKU
100
AcDbLine
 10
29.84221216833714
 20
22.72499986828868
 30
0.0
 11
29.84221216833714
 21
7.674999868288687
 31
0.0
  0
LINE
  5
800
330
1A
100
AcDbEntity
  8
ZUWAKU
100
AcDbLine
 10
35.67634710565301
 20
22.88309383645566
 30
0.0
 11
33.80807723102123
 21
16.96690590012172
 31
0.0
  0
LINE
  5
801
330
1A
100
AcDbEntity
  8
ZUWAKU
100
AcDbLine
 10
60.29221216833719
 20
9.949999868288685
 30
0.0
 11
58.89221216833721
 21
9.949999868288685
 31
0.0
  0
LINE
  5
802
330
1A
100
AcDbEntity
  8
ZUWAKU
100
AcDbLine
 10
57.84221216833714
 20
7.149999868288688
 30
0.0
 11
61.34221216833714
 21
7.149999868288688
 31
0.0
  0
LINE
  5
803
330
1A
100
AcDbEntity
  8
ZUWAKU
100
AcDbLine
 10
41.21721216833714
 20
7.149999868288688
 30
0.0
 11
42.96721216833714
 21
7.149999868288688
 31
0.0
  0
LINE
  5
804
330
1A
100
AcDbEntity
  8
ZUWAKU
100
AcDbLine
 10
35.67634710565301
 20
7.516905900121714
 30
0.0
 11
33.80807723102123
 21
13.43309383645565
 31
0.0
  0
ARC
  5
805
330
1A
100
AcDbEntity
  8
ZUWAKU
100
AcDbCircle
 10
33.30744633182587
 20
17.12499986828869
 30
0.0
 40
0.5249999999999999
100
AcDbArc
 50
270.0
 51
342.474431626277
  0
LINE
  5
806
330
1A
100
AcDbEntity
  8
ZUWAKU
100
AcDbLine
 10
33.30744633182587
 20
16.59999986828868
 30
0.0
 11
33.16721216833719
 21
16.59999986828868
 31
0.0
  0
LINE
  5
807
330
1A
100
AcDbEntity
  8
ZUWAKU
100
AcDbLine
 10
33.16721216833719
 20
13.79999986828869
 30
0.0
 11
33.30744633182587
 21
13.79999986828869
 31
0.0
  0
ARC
  5
808
330
1A
100
AcDbEntity
  8
ZUWAKU
100
AcDbCircle
 10
33.16721216833719
 20
17.12499986828869
 30
0.0
 40
0.5249999999999999
100
AcDbArc
 50
180.0
 51
270.0
  0
LINE
  5
809
330
1A
100
AcDbEntity
  8
ZUWAKU
100
AcDbLine
 10
30.36721216833712
 20
7.149999868288688
 30
0.0
 11
32.11721216833712
 21
7.149999868288688
 31
0.0
  0
ARC
  5
80A
330
1A
100
AcDbEntity
  8
ZUWAKU
100
AcDbCircle
 10
32.11721216833712
 20
7.674999868288687
 30
0.0
 40
0.5249999999999999
100
AcDbArc
 50
270.0
 51
0.0
  0
LINE
  5
80B
330
1A
100
AcDbEntity
  8
ZUWAKU
100
AcDbLine
 10
32.64221216833721
 20
7.674999868288687
 30
0.0
 11
32.64221216833721
 21
13.27499986828869
 31
0.0
  0
LINE
  5
80C
330
1A
100
AcDbEntity
  8
ZUWAKU
100
AcDbLine
 10
27.39221216833721
 20
9.424999868288687
 30
0.0
 11
27.39221216833721
 21
7.674999868288687
 31
0.0
  0
ARC
  5
80D
330
1A
100
AcDbEntity
  8
ZUWAKU
100
AcDbCircle
 10
26.86721216833712
 20
7.674999868288687
 30
0.0
 40
0.5249999999999999
100
AcDbArc
 50
270.0
 51
0.0
  0
ARC
  5
80E
330
1A
100
AcDbEntity
  8
ZUWAKU
100
AcDbCircle
 10
26.86721216833712
 20
9.424999868288687
 30
0.0
 40
0.5249999999999999
100
AcDbArc
 50
0.0
 51
90.0
  0
ARC
  5
80F
330
1A
100
AcDbEntity
  8
ZUWAKU
100
AcDbCircle
 10
30.36721216833712
 20
7.674999868288687
 30
0.0
 40
0.5249999999999999
100
AcDbArc
 50
180.0
 51
270.0
  0
ARC
  5
810
330
1A
100
AcDbEntity
  8
ZUWAKU
100
AcDbCircle
 10
33.30744633182587
 20
13.27499986828869
 30
0.0
 40
0.5249999999999999
100
AcDbArc
 50
17.52556837372303
 51
90.0
  0
ARC
  5
811
330
1A
100
AcDbEntity
  8
ZUWAKU
100
AcDbCircle
 10
33.16721216833719
 20
13.27499986828869
 30
0.0
 40
0.5249999999999999
100
AcDbArc
 50
90.0
 51
180.0
  0
ARC
  5
812
330
1A
100
AcDbEntity
  8
ZUWAKU
100
AcDbCircle
 10
41.21721216833714
 20
7.674999868288687
 30
0.0
 40
0.5249999999999999
100
AcDbArc
 50
180.0
 51
270.0
  0
LINE
  5
813
330
1A
100
AcDbEntity
  8
ZUWAKU
100
AcDbLine
 10
36.17697800484848
 20
7.149999868288688
 30
0.0
 11
37.87586738445748
 21
7.149999868288688
 31
0.0
  0
ARC
  5
814
330
1A
100
AcDbEntity
  8
ZUWAKU
100
AcDbCircle
 10
37.87586738445748
 20
7.674999868288687
 30
0.0
 40
0.5249999999999999
100
AcDbArc
 50
270.0
 51
17.52556837372303
  0
LINE
  5
815
330
1A
100
AcDbEntity
  8
ZUWAKU
100
AcDbLine
 10
38.37649828365295
 20
7.83309383645566
 30
0.0
 11
36.05010690517929
 21
15.19999986828871
 31
0.0
  0
ARC
  5
816
330
1A
100
AcDbEntity
  8
ZUWAKU
100
AcDbCircle
 10
36.17697800484848
 20
7.674999868288687
 30
0.0
 40
0.5249999999999999
100
AcDbArc
 50
197.525568373723
 51
270.0
  0
ARC
  5
817
330
1A
100
AcDbEntity
  8
ZUWAKU
100
AcDbCircle
 10
57.84221216833714
 20
9.949999868288685
 30
0.0
 40
2.8
100
AcDbArc
 50
180.0
 51
270.0
  0
ARC
  5
818
330
1A
100
AcDbEntity
  8
ZUWAKU
100
AcDbCircle
 10
50.14221216833721
 20
9.949999868288685
 30
0.0
 40
2.8
100
AcDbArc
 50
270.0
 51
0.0
  0
LINE
  5
819
330
1A
100
AcDbEntity
  8
ZUWAKU
100
AcDbLine
 10
51.71206064932073
 20
14.73505037462751
 30
0.0
 11
48.80226267467594
 21
17.64484834927219
 31
0.0
  0
LINE
  5
81A
330
1A
100
AcDbEntity
  8
ZUWAKU
100
AcDbLine
 10
50.14221216833721
 20
10.47499986828869
 30
0.0
 11
50.14221216833721
 21
11.76520189364403
 31
0.0
  0
ARC
  5
81B
330
1A
100
AcDbEntity
  8
ZUWAKU
100
AcDbCircle
 10
48.74221216833712
 20
11.76520189364403
 30
0.0
 40
1.4
100
AcDbArc
 50
0.0
 51
45.0
  0
ARC
  5
81C
330
1A
100
AcDbEntity
  8
ZUWAKU
100
AcDbCircle
 10
49.61721216833712
 20
10.47499986828869
 30
0.0
 40
0.5249999999999999
100
AcDbArc
 50
270.0
 51
0.0
  0
LINE
  5
81D
330
1A
100
AcDbEntity
  8
ZUWAKU
100
AcDbLine
 10
46.11721216833712
 20
7.674999868288687
 30
0.0
 11
46.11721216833712
 21
9.424999868288687
 31
0.0
  0
ARC
  5
81E
330
1A
100
AcDbEntity
  8
ZUWAKU
100
AcDbCircle
 10
46.64221216833721
 20
7.674999868288687
 30
0.0
 40
0.5249999999999999
100
AcDbArc
 50
180.0
 51
270.0
  0
ARC
  5
81F
330
1A
100
AcDbEntity
  8
ZUWAKU
100
AcDbCircle
 10
42.96721216833714
 20
7.674999868288687
 30
0.0
 40
0.5249999999999999
100
AcDbArc
 50
270.0
 51
0.0
  0
ARC
  5
820
330
1A
100
AcDbEntity
  8
ZUWAKU
100
AcDbCircle
 10
46.64221216833721
 20
9.424999868288687
 30
0.0
 40
0.5249999999999999
100
AcDbArc
 50
90.0
 51
180.0
  0
LINE
  5
821
330
1A
100
AcDbEntity
  8
ZUWAKU
100
AcDbLine
 10
46.64221216833721
 20
9.949999868288685
 30
0.0
 11
49.61721216833712
 21
9.949999868288685
 31
0.0
  0
LINE
  5
822
330
1A
100
AcDbEntity
  8
ZUWAKU
100
AcDbLine
 10
46.64221216833721
 20
7.149999868288688
 30
0.0
 11
50.14221216833721
 21
7.149999868288688
 31
0.0
  0
LINE
  5
823
330
1A
100
AcDbEntity
  8
ZUWAKU
100
AcDbLine
 10
46.82236368735369
 20
15.66494936194987
 30
0.0
 11
49.73216166199836
 21
12.7551513873052
 31
0.0
  0
LINE
  5
824
330
1A
100
AcDbEntity
  8
ZUWAKU
100
AcDbLine
 10
52.94221216833716
 20
9.949999868288685
 30
0.0
 11
52.94221216833716
 21
11.76520189364403
 31
0.0
  0
ARC
  5
825
330
1A
100
AcDbEntity
  8
ZUWAKU
100
AcDbCircle
 10
48.74221216833712
 20
11.76520189364399
 30
0.0
 40
4.199999999999999
100
AcDbArc
 50
0.0
 51
45.0
  0
ARC
  5
826
330
1A
100
AcDbEntity
  8
ZUWAKU
100
AcDbCircle
 10
58.89221216833721
 20
10.99999986828868
 30
0.0
 40
1.05
100
AcDbArc
 50
180.0
 51
270.0
  0
ARC
  5
827
330
1A
100
AcDbEntity
  8
ZUWAKU
100
AcDbCircle
 10
61.34221216833714
 20
9.949999868288685
 30
0.0
 40
2.8
100
AcDbArc
 50
270.0
 51
0.0
  0
LINE
  5
828
330
1A
100
AcDbEntity
  8
ZUWAKU
100
AcDbLine
 10
66.76721216833721
 20
7.149999868288688
 30
0.0
 11
68.51721216833721
 21
7.149999868288688
 31
0.0
  0
ARC
  5
829
330
1A
100
AcDbEntity
  8
ZUWAKU
100
AcDbCircle
 10
66.76721216833721
 20
7.674999868288687
 30
0.0
 40
0.5249999999999999
100
AcDbArc
 50
180.0
 51
270.0
  0
ARC
  5
82A
330
1A
100
AcDbEntity
  8
ZUWAKU
100
AcDbCircle
 10
60.29221216833719
 20
10.99999986828868
 30
0.0
 40
1.05
100
AcDbArc
 50
270.0
 51
0.0
  0
ARC
  5
82B
330
1A
100
AcDbEntity
  8
ZUWAKU
100
AcDbCircle
 10
68.51721216833721
 20
7.674999868288687
 30
0.0
 40
0.5249999999999999
100
AcDbArc
 50
270.0
 51
0.0
  0
LINE
  5
82C
330
1A
100
AcDbEntity
  8
ZUWAKU
100
AcDbLine
 10
42.96721216833714
 20
23.24999986828869
 30
0.0
 11
41.21721216833714
 21
23.24999986828869
 31
0.0
  0
ARC
  5
82D
330
1A
100
AcDbEntity
  8
ZUWAKU
100
AcDbCircle
 10
32.11721216833712
 20
22.72499986828868
 30
0.0
 40
0.5249999999999999
100
AcDbArc
 50
0.0
 51
90.0
  0
LINE
  5
82E
330
1A
100
AcDbEntity
  8
ZUWAKU
100
AcDbLine
 10
32.11721216833712
 20
23.24999986828869
 30
0.0
 11
30.36721216833712
 21
23.24999986828869
 31
0.0
  0
ARC
  5
82F
330
1A
100
AcDbEntity
  8
ZUWAKU
100
AcDbCircle
 10
26.86721216833712
 20
22.72499986828868
 30
0.0
 40
0.5249999999999999
100
AcDbArc
 50
0.0
 51
90.0
  0
ARC
  5
830
330
1A
100
AcDbEntity
  8
ZUWAKU
100
AcDbCircle
 10
30.36721216833712
 20
22.72499986828868
 30
0.0
 40
0.5249999999999999
100
AcDbArc
 50
90.0
 51
180.0
  0
ARC
  5
831
330
1A
100
AcDbEntity
  8
ZUWAKU
100
AcDbCircle
 10
26.86721216833712
 20
20.97499986828868
 30
0.0
 40
0.5249999999999999
100
AcDbArc
 50
270.0
 51
0.0
  0
LINE
  5
832
330
1A
100
AcDbEntity
  8
ZUWAKU
100
AcDbLine
 10
27.39221216833721
 20
22.72499986828868
 30
0.0
 11
27.39221216833721
 21
20.97499986828868
 31
0.0
  0
ARC
  5
833
330
1A
100
AcDbEntity
  8
ZUWAKU
100
AcDbCircle
 10
41.21721216833714
 20
22.72499986828868
 30
0.0
 40
0.5249999999999999
100
AcDbArc
 50
90.0
 51
180.0
  0
LINE
  5
834
330
1A
100
AcDbEntity
  8
ZUWAKU
100
AcDbLine
 10
36.17697800484848
 20
23.24999986828869
 30
0.0
 11
37.87586738445748
 21
23.24999986828869
 31
0.0
  0
ARC
  5
835
330
1A
100
AcDbEntity
  8
ZUWAKU
100
AcDbCircle
 10
37.87586738445748
 20
22.72499986828868
 30
0.0
 40
0.5249999999999999
100
AcDbArc
 50
342.474431626277
 51
90.0
  0
LINE
  5
836
330
1A
100
AcDbEntity
  8
ZUWAKU
100
AcDbLine
 10
38.37649828365295
 20
22.56690590012172
 30
0.0
 11
37.31485865051513
 21
19.20504706185211
 31
0.0
  0
ARC
  5
837
330
1A
100
AcDbEntity
  8
ZUWAKU
100
AcDbCircle
 10
36.17697800484848
 20
22.72499986828868
 30
0.0
 40
0.5249999999999999
100
AcDbArc
 50
90.0
 51
162.474431626277
  0
LINE
  5
838
330
1A
100
AcDbEntity
  8
ZUWAKU
100
AcDbLine
 10
48.39221216833721
 20
23.24999986828869
 30
0.0
 11
51.89221216833721
 21
23.24999986828869
 31
0.0
  0
LINE
  5
839
330
1A
100
AcDbEntity
  8
ZUWAKU
100
AcDbLine
 10
51.89221216833721
 20
20.44999986828869
 30
0.0
 11
48.91721216833719
 21
20.44999986828869
 31
0.0
  0
ARC
  5
83A
330
1A
100
AcDbEntity
  8
ZUWAKU
100
AcDbCircle
 10
48.91721216833719
 20
19.92499986828869
 30
0.0
 40
0.5249999999999999
100
AcDbArc
 50
90.0
 51
180.0
  0
LINE
  5
83B
330
1A
100
AcDbEntity
  8
ZUWAKU
100
AcDbLine
 10
48.39221216833721
 20
19.92499986828869
 30
0.0
 11
48.39221216833721
 21
18.63479784293335
 31
0.0
  0
ARC
  5
83C
330
1A
100
AcDbEntity
  8
ZUWAKU
100
AcDbCircle
 10
42.96721216833714
 20
22.72499986828868
 30
0.0
 40
0.5249999999999999
100
AcDbArc
 50
0.0
 51
90.0
  0
LINE
  5
83D
330
1A
100
AcDbEntity
  8
ZUWAKU
100
AcDbLine
 10
45.59221216833714
 20
20.44999986828869
 30
0.0
 11
45.59221216833714
 21
18.63479784293335
 31
0.0
  0
ARC
  5
83E
330
1A
100
AcDbEntity
  8
ZUWAKU
100
AcDbCircle
 10
48.39221216833721
 20
20.44999986828869
 30
0.0
 40
2.8
100
AcDbArc
 50
90.0
 51
180.0
  0
ARC
  5
83F
330
1A
100
AcDbEntity
  8
ZUWAKU
100
AcDbCircle
 10
57.31721216833716
 20
22.72499986828868
 30
0.0
 40
0.5249999999999999
100
AcDbArc
 50
0.0
 51
90.0
  0
ARC
  5
840
330
1A
100
AcDbEntity
  8
ZUWAKU
100
AcDbCircle
 10
55.56721216833716
 20
22.72499986828868
 30
0.0
 40
0.5249999999999999
100
AcDbArc
 50
90.0
 51
180.0
  0
LINE
  5
841
330
1A
100
AcDbEntity
  8
ZUWAKU
100
AcDbLine
 10
57.31721216833716
 20
23.24999986828869
 30
0.0
 11
55.56721216833716
 21
23.24999986828869
 31
0.0
  0
ARC
  5
842
330
1A
100
AcDbEntity
  8
ZUWAKU
100
AcDbCircle
 10
51.89221216833721
 20
22.72499986828868
 30
0.0
 40
0.5249999999999999
100
AcDbArc
 50
0.0
 51
90.0
  0
ARC
  5
843
330
1A
100
AcDbEntity
  8
ZUWAKU
100
AcDbCircle
 10
51.89221216833721
 20
20.97499986828868
 30
0.0
 40
0.5249999999999999
100
AcDbArc
 50
270.0
 51
0.0
  0
LINE
  5
844
330
1A
100
AcDbEntity
  8
ZUWAKU
100
AcDbLine
 10
52.41721216833719
 20
22.72499986828868
 30
0.0
 11
52.41721216833719
 21
20.97499986828868
 31
0.0
  0
LINE
  5
845
330
1A
100
AcDbEntity
  8
ZUWAKU
100
AcDbLine
 10
68.51721216833721
 20
23.24999986828869
 30
0.0
 11
66.76721216833721
 21
23.24999986828869
 31
0.0
  0
ARC
  5
846
330
1A
100
AcDbEntity
  8
ZUWAKU
100
AcDbCircle
 10
66.76721216833721
 20
22.72499986828868
 30
0.0
 40
0.5249999999999999
100
AcDbArc
 50
90.0
 51
180.0
  0
ARC
  5
847
330
1A
100
AcDbEntity
  8
ZUWAKU
100
AcDbCircle
 10
63.61721216833712
 20
22.72499986828868
 30
0.0
 40
0.5249999999999999
100
AcDbArc
 50
0.0
 51
90.0
  0
LINE
  5
848
330
1A
100
AcDbEntity
  8
ZUWAKU
100
AcDbLine
 10
63.61721216833712
 20
23.24999986828869
 30
0.0
 11
61.86721216833712
 21
23.24999986828869
 31
0.0
  0
ARC
  5
849
330
1A
100
AcDbEntity
  8
ZUWAKU
100
AcDbCircle
 10
61.86721216833712
 20
22.72499986828868
 30
0.0
 40
0.5249999999999999
100
AcDbArc
 50
90.0
 51
180.0
  0
ARC
  5
84A
330
1A
100
AcDbEntity
  8
ZUWAKU
100
AcDbCircle
 10
68.51721216833721
 20
22.72499986828868
 30
0.0
 40
0.5249999999999999
100
AcDbArc
 50
0.0
 51
90.0
  0
TEXT
  5
84B
330
1A
100
AcDbEntity
  8
moji
100
AcDbText
 10
239.8272026944071
 20
18.00492092569607
 30
0.0
 40
5.6
  1
伸縮ジョイントⅡ
 41
0.9
  7
ｽﾀｲﾙ1
100
AcDbText
  0
TEXT
  5
84C
330
1A
100
AcDbEntity
  8
moji
100
AcDbText
 10
239.8272026944071
 20
3.204920925696104
 30
0.0
 40
5.6
  1
Σ９０
 41
0.9
  7
ｽﾀｲﾙ1
100
AcDbText
  0
LINE
  5
84D
330
1A
100
AcDbEntity
  8
ZUWAKU
100
AcDbLine
 10
208.246601303624
 20
29.99999986828868
 30
0.0
 11
208.246601303624
 21
0.7999998682887508
 31
0.0
  0
LINE
  5
84E
330
1A
100
AcDbEntity
  8
ZUWAKU
100
AcDbLine
 10
208.6466013036238
 20
29.99999986828868
 30
0.0
 11
208.646601303624
 21
0.7999998682887508
 31
0.0
  0
LINE
  5
84F
330
1A
100
AcDbEntity
  8
ZUWAKU
100
AcDbLine
 10
208.4466013036238
 20
29.99999986828868
 30
0.0
 11
208.446601303624
 21
0.7999998682887508
 31
0.0
  0
TEXT
  5
850
330
1A
100
AcDbEntity
  8
ZUWAKU
100
AcDbText
 10
209.7240463258336
 20
9.655356406674301
 30
0.0
 40
4.0
  1
サイズ
 41
0.9
  7
ｽﾀｲﾙ1
100
AcDbText
  0
TEXT
  5
851
330
1A
100
AcDbEntity
  8
ZUWAKU
100
AcDbText
 10
209.7240463258333
 20
24.05535640667426
 30
0.0
 40
4.0
  1
品名
 41
0.9
  7
ｽﾀｲﾙ1
100
AcDbText
  0
LINE
  5
852
330
1A
100
AcDbEntity
  8
ZUWAKU
100
AcDbLine
 10
648.8172025237602
 20
15.19999986828871
 30
0.0
 11
697.2490105620973
 21
15.19999986828872
 31
0.0
  0
LINE
  5
853
330
1A
100
AcDbEntity
  8
ZUWAKU
100
AcDbLine
 10
648.8172025237604
 20
15.39999986828872
 30
0.0
 11
697.2490105620973
 21
15.39999986828872
 31
0.0
  0
LINE
  5
854
330
1A
100
AcDbEntity
  8
ZUWAKU
100
AcDbLine
 10
648.8172025237602
 20
15.59999986828872
 30
0.0
 11
697.2490105620973
 21
15.59999986828872
 31
0.0
  0
TEXT
  5
855
330
1A
100
AcDbEntity
  8
ZUWAKU
100
AcDbText
 10
658.2039377008584
 20
18.00492092569607
 30
0.0
 40
5.6
  1
　　．　　．　　
 41
0.9
  7
ｽﾀｲﾙ1
100
AcDbText
  0
LINE
  5
856
330
1A
100
AcDbEntity
  8
ZUWAKU
100
AcDbLine
 10
505.1991795116969
 20
15.19999986828872
 30
0.0
 11
552.5269557796685
 21
15.19999986828872
 31
0.0
  0
LINE
  5
857
330
1A
100
AcDbEntity
  8
ZUWAKU
100
AcDbLine
 10
505.1991795116969
 20
15.39999986828872
 30
0.0
 11
552.5269557796685
 21
15.39999986828872
 31
0.0
  0
LINE
  5
858
330
1A
100
AcDbEntity
  8
ZUWAKU
100
AcDbLine
 10
505.1991795116969
 20
15.59999986828872
 30
0.0
 11
552.5269557796685
 21
15.59999986828872
 31
0.0
  0
TEXT
  5
859
330
1A
100
AcDbEntity
  8
moji
100
AcDbText
 10
463.2464320045581
 20
11.94261758994867
 30
0.0
 40
5.6
  1
ＧＱ２１□
 41
0.9
  7
ｽﾀｲﾙ1
100
AcDbText
  0
LINE
  5
85A
330
1A
100
AcDbEntity
  8
ZUWAKU
100
AcDbLine
 10
447.6243639845472
 20
29.99999986828868
 30
0.0
 11
447.6243639845475
 21
0.7999998682887508
 31
0.0
  0
LINE
  5
85B
330
1A
100
AcDbEntity
  8
ZUWAKU
100
AcDbLine
 10
447.8243639845473
 20
29.99999986828868
 30
0.0
 11
447.8243639845475
 21
0.7999998682887508
 31
0.0
  0
LINE
  5
85C
330
1A
100
AcDbEntity
  8
ZUWAKU
100
AcDbLine
 10
447.4243639845474
 20
29.99999986828868
 30
0.0
 11
447.4243639845474
 21
0.7999998682887508
 31
0.0
  0
TEXT
  5
85D
330
1A
100
AcDbEntity
  8
moji
100
AcDbText
 10
528.0409079858689
 20
18.00492092569607
 30
0.0
 40
5.6
  1
Ａ３
 41
0.9
  7
ｽﾀｲﾙ1
100
AcDbText
  0
LINE
  5
85E
330
1A
100
AcDbEntity
  8
ZUWAKU
100
AcDbLine
 10
504.9991795116969
 20
29.99999986828868
 30
0.0
 11
504.9991795116971
 21
0.7999998682887508
 31
0.0
  0
LINE
  5
85F
330
1A
100
AcDbEntity
  8
ZUWAKU
100
AcDbLine
 10
505.1991795116969
 20
29.99999986828868
 30
0.0
 11
505.1991795116971
 21
0.7999998682887508
 31
0.0
  0
LINE
  5
860
330
1A
100
AcDbEntity
  8
ZUWAKU
100
AcDbLine
 10
504.7991795116971
 20
29.99999986828868
 30
0.0
 11
504.7991795116971
 21
0.7999998682887508
 31
0.0
  0
TEXT
  5
861
330
1A
100
AcDbEntity
  8
ZUWAKU
100
AcDbText
 10
462.1716760137122
 20
2.614070779428175
 30
0.0
 40
3.0
  1
□には色品番が入ります
 41
0.9
  7
ｽﾀｲﾙ1
100
AcDbText
  0
TEXT
  5
862
330
1A
100
AcDbEntity
  8
ZUWAKU
100
AcDbText
 10
506.6766245339068
 20
9.655356406674301
 30
0.0
 40
4.0
  1
縮尺
 41
0.9
  7
ｽﾀｲﾙ1
100
AcDbText
  0
TEXT
  5
863
330
1A
100
AcDbEntity
  8
moji
100
AcDbText
 10
528.0409079858689
 20
3.204920925696104
 30
0.0
 40
5.6
  1
１/２
 41
0.9
  7
ｽﾀｲﾙ1
100
AcDbText
  0
TEXT
  5
864
330
1A
100
AcDbEntity
  8
ZUWAKU
100
AcDbText
 10
449.3018090067569
 20
24.05535640667426
 30
0.0
 40
4.0
  1
品番
 41
0.9
  7
ｽﾀｲﾙ1
100
AcDbText
  0
TEXT
  5
865
330
1A
100
AcDbEntity
  8
ZUWAKU
100
AcDbText
 10
506.6766245339065
 20
24.05535640667426
 30
0.0
 40
4.0
  1
用紙
 41
0.9
  7
ｽﾀｲﾙ1
100
AcDbText
  0
LINE
  5
866
330
1A
100
AcDbEntity
  8
ZUWAKU
100
AcDbLine
 10
648.6172025237604
 20
29.99999986828868
 30
0.0
 11
648.6172025237606
 21
0.7999998682887508
 31
0.0
  0
LINE
  5
867
330
1A
100
AcDbEntity
  8
ZUWAKU
100
AcDbLine
 10
648.8172025237604
 20
29.99999986828868
 30
0.0
 11
648.8172025237607
 21
0.7999998682887508
 31
0.0
  0
LINE
  5
868
330
1A
100
AcDbEntity
  8
ZUWAKU
100
AcDbLine
 10
648.4172025237606
 20
29.99999986828868
 30
0.0
 11
648.4172025237606
 21
0.7999998682887508
 31
0.0
  0
LINE
  5
869
330
1A
100
AcDbEntity
  8
ZUWAKU
100
AcDbLine
 10
552.7269557796683
 20
29.99999986828868
 30
0.0
 11
552.7269557796685
 21
0.7999998682887508
 31
0.0
  0
LINE
  5
86A
330
1A
100
AcDbEntity
  8
ZUWAKU
100
AcDbLine
 10
552.9269557796683
 20
29.99999986828868
 30
0.0
 11
552.9269557796686
 21
0.7999998682887508
 31
0.0
  0
LINE
  5
86B
330
1A
100
AcDbEntity
  8
ZUWAKU
100
AcDbLine
 10
552.5269557796685
 20
29.99999986828868
 30
0.0
 11
552.5269557796685
 21
0.7999998682887508
 31
0.0
  0
TEXT
  5
86C
330
1A
100
AcDbEntity
  8
ZUWAKU
100
AcDbText
 10
650.2946475459701
 20
24.05535640667426
 30
0.0
 40
4.0
  1
DATE
 41
0.9
  7
ｽﾀｲﾙ1
100
AcDbText
  0
LINE
  5
86D
330
1A
100
AcDbEntity
  8
ZUWAKU
100
AcDbLine
 10
697.2490105620973
 20
29.99999986828868
 30
0.0
 11
697.2490105620973
 21
0.7999998682887508
 31
0.0
  0
LINE
  5
86E
330
1A
100
AcDbEntity
  8
ZUWAKU
100
AcDbLine
 10
697.4490105620973
 20
29.99999986828868
 30
0.0
 11
697.4490105620973
 21
0.7999998682887508
 31
0.0
  0
LINE
  5
86F
330
1A
100
AcDbEntity
  8
ZUWAKU
100
AcDbLine
 10
697.6490105620972
 20
29.99999986828868
 30
0.0
 11
697.6490105620974
 21
0.7999998682887508
 31
0.0
  0
LINE
  5
870
330
1A
100
AcDbEntity
  8
ZUWAKU
100
AcDbLine
 10
697.8490105620972
 20
29.99999986828868
 30
0.0
 11
697.8490105620974
 21
0.7999998682887508
 31
0.0
  0
TEXT
  5
871
330
1A
100
AcDbEntity
  8
ZUWAKU
100
AcDbText
 10
708.5280842057998
 20
17.55383920397549
 30
0.0
 40
6.0
  1
積水化学工業株式会社
 41
0.9
  7
ｽﾀｲﾙ1
100
AcDbText
  0
TEXT
  5
872
330
1A
100
AcDbEntity
  8
ZUWAKU
100
AcDbText
 10
708.5280842057998
 20
6.648840182142749
 30
0.0
 40
6.0
  1
建材事業部
 41
0.9
  7
ｽﾀｲﾙ1
100
AcDbText
  0
TEXT
  5
A77
330
1A
100
AcDbEntity
  8
SUNPOU
 48
5.0
100
AcDbText
 10
378.2913675055491
 20
266.1582502516907
 30
0.0
 40
6.0
  1
スライド巾（３０ｍｍ）
100
AcDbText
  0
DIMENSION
  5
A78
330
1A
100
AcDbEntity
  8
SUNPOU
 62
     4
 48
5.0
100
AcDbDimension
  2
*D1
 10
342.5091738168554
 20
101.0706044895281
 30
0.0
 11
279.0091738168554
 21
106.0706044895281
 31
0.0
 70
    32
 71
     5
 42
126.9999999999999
  3
STANDARD
100
AcDbAlignedDimension
 13
215.5091738168555
 23
136.2649050375528
 33
0.0
 14
342.5091738168554
 24
133.7648050375529
 34
0.0
100
AcDbRotatedDimension
1001
ACAD
1000
DSTYLE
1002
{
1070
   140
1040
6.0
1070
    74
1070
     0
1070
   172
1070
     1
1070
    73
1070
     0
1070
   272
1070
     2
1070
    77
1070
     3
1070
   173
1070
     1
1070
   147
1040
2.0
1070
    42
1040
6.0
1070
    44
1040
3.0
1070
    43
1040
14.0
1070
   271
1070
     0
1070
   178
1070
     4
1070
   177
1070
     4
1070
   176
1070
     4
1070
   141
1040
150.0
1070
     7
1000
_OPEN
1070
     6
1000
_OPEN
1070
    41
1040
7.0
1002
}
  0
LINE
  5
A79
330
1A
100
AcDbEntity
  8
SEIHIN
  6
Continuous
 62
     3
 48
5.0
100
AcDbLine
 10
252.5091738168555
 20
132.0649050375528
 30
0.0
 11
337.5091738168554
 21
132.0648050375529
 31
0.0
  0
LINE
  5
A7A
330
1A
100
AcDbEntity
  8
SEIHIN
  6
Continuous
 62
     3
 48
5.0
100
AcDbLine
 10
337.5092738168553
 20
194.1651050375529
 30
0.0
 11
280.0092738168553
 21
194.1651726846116
 31
0.0
  0
LINE
  5
A7B
330
1A
100
AcDbEntity
  8
SEIHIN
  6
Continuous
 62
     3
 48
5.0
100
AcDbLine
 10
337.5091738168554
 20
148.0971050375528
 30
0.0
 11
252.5091738168555
 21
148.0972050375528
 31
0.0
  0
DIMENSION
  5
A7C
330
1A
100
AcDbEntity
  8
SUNPOU
 48
5.0
100
AcDbDimension
  2
*D2
 10
357.5092738168554
 20
269.3745214479919
 30
0.0
 11
286.5092738168554
 21
274.3745214479919
 31
0.0
 70
    32
 71
     5
 42
142.0000000000001
  3
STANDARD
100
AcDbAlignedDimension
 13
215.5092738168553
 23
220.2650050375528
 33
0.0
 14
357.5092738168554
 24
220.7649050375529
 34
0.0
100
AcDbRotatedDimension
1001
ACAD
1000
DSTYLE
1002
{
1070
   140
1040
6.0
1070
    74
1070
     0
1070
   172
1070
     1
1070
    73
1070
     0
1070
   272
1070
     2
1070
    77
1070
     3
1070
   173
1070
     1
1070
   147
1040
2.0
1070
    42
1040
6.0
1070
    44
1040
3.0
1070
    43
1040
14.0
1070
   271
1070
     0
1070
   178
1070
     4
1070
   177
1070
     4
1070
   176
1070
     4
1070
   141
1040
150.0
1070
     7
1000
_OPEN
1070
     6
1000
_OPEN
1070
    41
1040
7.0
1002
}
  0
LINE
  5
A7D
330
1A
100
AcDbEntity
  8
SEIHIN
  6
Continuous
 62
     3
 48
5.0
100
AcDbLine
 10
280.0092738168553
 20
219.2650050375529
 30
0.0
 11
342.5093738168554
 21
219.2650050375529
 31
0.0
  0
LINE
  5
A7E
330
1A
100
AcDbEntity
  8
SEIHIN
  6
Continuous
 62
     2
100
AcDbLine
 10
280.0092738168553
 20
221.2656050375528
 30
0.0
 11
280.0092738168553
 21
163.8273050375529
 31
0.0
  0
LINE
  5
A7F
330
1A
100
AcDbEntity
  8
SEIHIN
  6
Continuous
 62
     2
100
AcDbLine
 10
265.0092738168553
 20
221.2656050375528
 30
0.0
 11
265.0092738168553
 21
163.8273050375529
 31
0.0
  0
LINE
  5
A80
330
1A
100
AcDbEntity
  8
SEIHIN
  6
Continuous
 62
     3
 48
5.0
100
AcDbLine
 10
252.5091738168555
 20
132.0649050375528
 30
0.0
 11
252.5091738168555
 21
219.2650050375529
 31
0.0
  0
LINE
  5
A81
330
1A
100
AcDbEntity
  8
SEIHIN
  6
Continuous
 62
     3
 48
5.0
100
AcDbLine
 10
247.5091738168555
 20
134.7649050375528
 30
0.0
 11
247.5091738168555
 21
219.2650050375529
 31
0.0
  0
LINE
  5
A82
330
1A
100
AcDbEntity
  8
SEIHIN
  6
Continuous
 62
     3
 48
5.0
100
AcDbLine
 10
215.5092738168553
 20
220.2650050375528
 30
0.0
 11
215.5091738168555
 21
136.2649050375528
 31
0.0
  0
LINE
  5
A83
330
1A
100
AcDbEntity
  8
SEIHIN
  6
Continuous
 62
     3
 48
5.0
100
AcDbLine
 10
220.5091738168555
 20
134.7649050375528
 30
0.0
 11
220.5091738168555
 21
219.2650050375529
 31
0.0
  0
LINE
  5
A84
330
1A
100
AcDbEntity
  8
SEIHIN
  6
Continuous
 62
     3
 48
5.0
100
AcDbLine
 10
247.5091738168555
 20
134.7649050375528
 30
0.0
 11
220.5091738168555
 21
134.7649050375528
 31
0.0
  0
LINE
  5
A85
330
1A
100
AcDbEntity
  8
SEIHIN
  6
Continuous
 62
     3
 48
5.0
100
AcDbLine
 10
247.5091738168555
 20
149.6331050375528
 30
0.0
 11
220.5091738168555
 21
149.6331050375528
 31
0.0
  0
LINE
  5
A86
330
1A
100
AcDbEntity
  8
SEIHIN
  6
Continuous
 62
     3
 48
5.0
100
AcDbLine
 10
247.5092738168555
 20
197.6651050375529
 30
0.0
 11
220.5092738168555
 21
197.6651050375529
 31
0.0
  0
LINE
  5
A87
330
1A
100
AcDbEntity
  8
SEIHIN
  6
Continuous
 62
     3
 48
5.0
100
AcDbLine
 10
215.5092738168553
 20
136.2649050375528
 30
0.0
 11
220.5091738168555
 21
134.7649050375528
 31
0.0
  0
LINE
  5
A88
330
1A
100
AcDbEntity
  8
SEIHIN
  6
Continuous
 62
     3
 48
5.0
100
AcDbLine
 10
215.5092738168553
 20
151.1331050375529
 30
0.0
 11
220.5091738168555
 21
149.6331050375528
 31
0.0
  0
LINE
  5
A89
330
1A
100
AcDbEntity
  8
SEIHIN
  6
Continuous
 62
     3
 48
5.0
100
AcDbLine
 10
215.5092738168553
 20
199.1651050375529
 30
0.0
 11
220.5092738168555
 21
197.6651050375529
 31
0.0
  0
LINE
  5
A8A
330
1A
100
AcDbEntity
  8
SEIHIN
  6
Continuous
 62
     3
 48
5.0
100
AcDbLine
 10
252.5091738168555
 20
132.0649050375528
 30
0.0
 11
247.5091738168555
 21
134.7649050375528
 31
0.0
  0
LINE
  5
A8B
330
1A
100
AcDbEntity
  8
SEIHIN
  6
Continuous
 62
     3
 48
5.0
100
AcDbLine
 10
247.5091738168555
 20
149.6331050375528
 30
0.0
 11
252.5091738168555
 21
148.0972050375528
 31
0.0
  0
LINE
  5
A8C
330
1A
100
AcDbEntity
  8
SEIHIN
  6
Continuous
 62
     2
100
AcDbLine
 10
265.0092738168553
 20
163.8274050375528
 30
0.0
 11
280.0092738168553
 21
163.8274050375528
 31
0.0
  0
LINE
  5
A8D
330
1A
100
AcDbEntity
  8
SEIHIN
  6
Continuous
 62
     3
 48
5.0
100
AcDbLine
 10
265.0092738168553
 20
194.1651903316705
 30
0.0
 11
252.5092738168553
 21
194.1652050375528
 31
0.0
  0
LINE
  5
A8E
330
1A
100
AcDbEntity
  8
SEIHIN
  6
Continuous
 62
     3
 48
5.0
100
AcDbLine
 10
247.5092738168555
 20
197.6651050375529
 30
0.0
 11
252.5091738168555
 21
194.1651050375529
 31
0.0
  0
LINE
  5
A8F
330
1A
100
AcDbEntity
  8
SEIHIN
  6
Continuous
 62
     2
100
AcDbLine
 10
265.0092738168553
 20
192.3636050375528
 30
0.0
 11
280.0092738168553
 21
192.3636050375528
 31
0.0
  0
LINE
  5
A90
330
1A
100
AcDbEntity
  8
SEIHIN
 48
5.0
100
AcDbLine
 10
280.0092738168553
 20
194.1651726846116
 30
0.0
 11
265.0092738168553
 21
194.1651903316705
 31
0.0
  0
LINE
  5
A91
330
1A
100
AcDbEntity
  8
SEIHIN
  6
Continuous
 62
     3
 48
5.0
100
AcDbLine
 10
215.5092738168553
 20
219.2650050375529
 30
0.0
 11
265.0092738168553
 21
219.2650050375529
 31
0.0
  0
LINE
  5
A92
330
1A
100
AcDbEntity
  8
SEIHIN
  6
Continuous
 62
     3
 48
5.0
100
AcDbLine
 10
215.5092738168553
 20
220.2650050375528
 30
0.0
 11
240.5092738168553
 21
220.2650050375528
 31
0.0
  0
LINE
  5
A93
330
1A
100
AcDbEntity
  8
SEIHIN
  6
Continuous
 62
     3
 48
5.0
100
AcDbLine
 10
240.5093738168554
 20
219.2649050375528
 30
0.0
 11
240.5093738168554
 21
220.2649050375529
 31
0.0
  0
LINE
  5
A94
330
1A
100
AcDbEntity
  8
SEIHIN
  6
Continuous
 62
     2
100
AcDbLine
 10
265.0092738168553
 20
221.2656050375528
 30
0.0
 11
280.0092738168553
 21
221.2656050375528
 31
0.0
  0
LINE
  5
A95
330
1A
100
AcDbEntity
  8
SEIHIN
 48
5.0
100
AcDbLine
 10
280.0092738168553
 20
219.2650050375529
 30
0.0
 11
265.0092738168553
 21
219.2650050375529
 31
0.0
  0
LINE
  5
A96
330
1A
100
AcDbEntity
  8
SEIHIN
  6
PHANTOM
 62
     6
 48
5.0
100
AcDbLine
 10
377.5092738168553
 20
136.2651050375528
 30
0.0
 11
377.5090738168553
 21
220.7649050375529
 31
0.0
  0
LINE
  5
A97
330
1A
100
AcDbEntity
  8
SEIHIN
  6
PHANTOM
 62
     6
 48
5.0
100
AcDbLine
 10
372.5092738168554
 20
134.7649050375528
 30
0.0
 11
372.5092738168554
 21
219.2649050375528
 31
0.0
  0
LINE
  5
A98
330
1A
100
AcDbEntity
  8
SEIHIN
  6
PHANTOM
 62
     6
 48
5.0
100
AcDbLine
 10
347.5092738168554
 20
136.2651050375528
 30
0.0
 11
347.5090738168553
 21
220.7650050375529
 31
0.0
  0
LINE
  5
A99
330
1A
100
AcDbEntity
  8
SEIHIN
  6
Continuous
 62
     3
 48
5.0
100
AcDbLine
 10
357.5092738168554
 20
136.2651050375528
 30
0.0
 11
357.5090738168553
 21
220.7649050375529
 31
0.0
  0
LINE
  5
A9A
330
1A
100
AcDbEntity
  8
SEIHIN
  6
Continuous
 62
     3
 48
5.0
100
AcDbLine
 10
342.5093738168554
 20
219.2648050375529
 30
0.0
 11
342.5091738168554
 21
133.7648050375529
 31
0.0
  0
LINE
  5
A9B
330
1A
100
AcDbEntity
  8
SEIHIN
  6
Continuous
 62
     3
 48
5.0
100
AcDbLine
 10
352.5092738168553
 20
134.7649050375528
 30
0.0
 11
352.5092738168553
 21
219.2649050375528
 31
0.0
  0
LINE
  5
A9C
330
1A
100
AcDbEntity
  8
SEIHIN
  6
Continuous
 62
     3
 48
5.0
100
AcDbLine
 10
337.5091738168554
 20
132.0648050375529
 30
0.0
 11
337.5091738168554
 21
219.2648050375529
 31
0.0
  0
LINE
  5
A9D
330
1A
100
AcDbEntity
  8
SEIHIN
  6
Continuous
 62
     3
 48
5.0
100
AcDbLine
 10
357.5092738168554
 20
199.1650050375528
 30
0.0
 11
352.5092738168553
 21
197.6650050375529
 31
0.0
  0
LINE
  5
A9E
330
1A
100
AcDbEntity
  8
SEIHIN
  6
Continuous
 62
     3
 48
5.0
100
AcDbLine
 10
357.5092738168554
 20
151.1328050375528
 30
0.0
 11
352.5092738168553
 21
149.6328050375529
 31
0.0
  0
LINE
  5
A9F
330
1A
100
AcDbEntity
  8
SEIHIN
  6
Continuous
 62
     3
 48
5.0
100
AcDbLine
 10
357.5092738168554
 20
136.2651050375528
 30
0.0
 11
352.5092738168553
 21
134.7651050375528
 31
0.0
  0
LINE
  5
AA0
330
1A
100
AcDbEntity
  8
SEIHIN
  6
PHANTOM
 62
     6
 48
5.0
100
AcDbLine
 10
352.5092738168553
 20
134.7650050375528
 30
0.0
 11
372.5092738168554
 21
134.7651050375528
 31
0.0
  0
LINE
  5
AA1
330
1A
100
AcDbEntity
  8
SEIHIN
  6
PHANTOM
 62
     6
 48
5.0
100
AcDbLine
 10
322.5092738168554
 20
134.7650050375528
 30
0.0
 11
342.5092738168553
 21
134.7651050375528
 31
0.0
  0
LINE
  5
AA2
330
1A
100
AcDbEntity
  8
SEIHIN
  6
Continuous
 62
     3
 48
5.0
100
AcDbLine
 10
342.5091738168554
 20
133.7648050375529
 30
0.0
 11
337.5091738168554
 21
132.0648050375529
 31
0.0
  0
LINE
  5
AA3
330
1A
100
AcDbEntity
  8
SEIHIN
  6
PHANTOM
 62
     6
 48
5.0
100
AcDbLine
 10
347.5092738168554
 20
136.2651050375528
 30
0.0
 11
342.5092738168553
 21
134.7651050375528
 31
0.0
  0
LINE
  5
AA4
330
1A
100
AcDbEntity
  8
SEIHIN
  6
Continuous
 62
     3
 48
5.0
100
AcDbLine
 10
342.5096738168553
 20
134.7650050375528
 30
0.0
 11
352.5092738168553
 21
134.7651050375528
 31
0.0
  0
LINE
  5
AA5
330
1A
100
AcDbEntity
  8
SEIHIN
  6
PHANTOM
 62
     6
 48
5.0
100
AcDbLine
 10
342.5092738168553
 20
149.6330050375529
 30
0.0
 11
322.5090738168553
 21
149.6330050375529
 31
0.0
  0
LINE
  5
AA6
330
1A
100
AcDbEntity
  8
SEIHIN
  6
PHANTOM
 62
     6
 48
5.0
100
AcDbLine
 10
347.5092738168554
 20
151.1329050375529
 30
0.0
 11
342.5092738168553
 21
149.6329050375529
 31
0.0
  0
LINE
  5
AA7
330
1A
100
AcDbEntity
  8
SEIHIN
  6
Continuous
 62
     3
 48
5.0
100
AcDbLine
 10
352.5092738168553
 20
149.6329050375529
 30
0.0
 11
342.5092738168553
 21
149.6330050375529
 31
0.0
  0
LINE
  5
AA8
330
1A
100
AcDbEntity
  8
SEIHIN
  6
Continuous
 62
     3
 48
5.0
100
AcDbLine
 10
342.5091738168554
 20
149.7972050375529
 30
0.0
 11
337.5091738168554
 21
148.0971050375528
 31
0.0
  0
LINE
  5
AA9
330
1A
100
AcDbEntity
  8
SEIHIN
  6
PHANTOM
 62
     6
 48
5.0
100
AcDbLine
 10
342.5092738168553
 20
197.6650050375529
 30
0.0
 11
322.5091738168554
 21
197.6650050375529
 31
0.0
  0
LINE
  5
AAA
330
1A
100
AcDbEntity
  8
SEIHIN
  6
PHANTOM
 62
     6
 48
5.0
100
AcDbLine
 10
347.5092738168554
 20
199.1650050375528
 30
0.0
 11
342.5092738168553
 21
197.6650050375529
 31
0.0
  0
LINE
  5
AAB
330
1A
100
AcDbEntity
  8
SEIHIN
  6
Continuous
 62
     3
 48
5.0
100
AcDbLine
 10
352.5092738168553
 20
197.6650050375529
 30
0.0
 11
342.5092738168553
 21
197.6650050375529
 31
0.0
  0
LINE
  5
AAC
330
1A
100
AcDbEntity
  8
SEIHIN
  6
Continuous
 62
     3
 48
5.0
100
AcDbLine
 10
342.5091738168554
 20
195.8652050375528
 30
0.0
 11
337.5091738168554
 21
194.1651050375529
 31
0.0
  0
LINE
  5
AAD
330
1A
100
AcDbEntity
  8
SEIHIN
  6
PHANTOM
 62
     6
 48
5.0
100
AcDbLine
 10
377.5092738168553
 20
136.2651050375528
 30
0.0
 11
372.5092738168554
 21
134.7651050375528
 31
0.0
  0
LINE
  5
AAE
330
1A
100
AcDbEntity
  8
SEIHIN
  6
PHANTOM
 62
     6
 48
5.0
100
AcDbLine
 10
372.5092738168554
 20
149.6329050375529
 30
0.0
 11
357.5092738168554
 21
149.6330050375529
 31
0.0
  0
LINE
  5
AAF
330
1A
100
AcDbEntity
  8
SEIHIN
  6
PHANTOM
 62
     6
 48
5.0
100
AcDbLine
 10
377.5092738168553
 20
151.1328050375528
 30
0.0
 11
372.5092738168554
 21
149.6328050375529
 31
0.0
  0
LINE
  5
AB0
330
1A
100
AcDbEntity
  8
SEIHIN
  6
PHANTOM
 62
     6
 48
5.0
100
AcDbLine
 10
372.5092738168554
 20
197.6650050375529
 30
0.0
 11
357.5092738168554
 21
197.6650050375529
 31
0.0
  0
LINE
  5
AB1
330
1A
100
AcDbEntity
  8
SEIHIN
  6
PHANTOM
 62
     6
 48
5.0
100
AcDbLine
 10
377.5092738168553
 20
199.1650050375528
 30
0.0
 11
372.5092738168554
 21
197.6650050375529
 31
0.0
  0
LINE
  5
AB2
330
1A
100
AcDbEntity
  8
SEIHIN
  6
Continuous
 62
     3
 48
5.0
100
AcDbLine
 10
357.5092738168554
 20
220.7649050375529
 30
0.0
 11
332.5092738168554
 21
220.7649050375529
 31
0.0
  0
LINE
  5
AB3
330
1A
100
AcDbEntity
  8
SEIHIN
  6
Continuous
 62
     3
 48
5.0
100
AcDbLine
 10
357.5092738168554
 20
219.2649050375528
 30
0.0
 11
329.5092738168553
 21
219.2649050375528
 31
0.0
  0
DIMENSION
  5
AB4
330
1A
100
AcDbEntity
  8
SUNPOU
 48
5.0
100
AcDbDimension
  2
*D3
 10
347.5090738168553
 20
252.9431869971508
 30
0.0
 11
328.0090738168553
 21
257.9431869971508
 31
0.0
 70
    32
 71
     5
 42
10.00020000000012
  3
STANDARD
100
AcDbAlignedDimension
 13
357.5092738168554
 23
220.7649050375529
 33
0.0
 14
347.5090738168553
 24
220.7650050375529
 34
0.0
100
AcDbRotatedDimension
1001
ACAD
1000
DSTYLE
1002
{
1070
   140
1040
6.0
1070
    74
1070
     0
1070
   172
1070
     1
1070
    73
1070
     0
1070
   272
1070
     2
1070
    77
1070
     3
1070
   173
1070
     1
1070
   147
1040
2.0
1070
    42
1040
6.0
1070
    44
1040
3.0
1070
    43
1040
14.0
1070
   271
1070
     0
1070
   178
1070
     4
1070
   177
1070
     4
1070
   176
1070
     4
1070
   141
1040
150.0
1070
     7
1000
_OPEN
1070
     6
1000
_OPEN
1070
    41
1040
7.0
1002
}
  0
DIMENSION
  5
AB5
330
1A
100
AcDbEntity
  8
SUNPOU
 48
5.0
100
AcDbDimension
  2
*D4
 10
377.5092738168553
 20
252.9431869971508
 30
0.0
 11
367.5091738168553
 21
257.9431869971508
 31
0.0
 70
    32
 71
     5
 42
20.00020000000001
  3
STANDARD
100
AcDbAlignedDimension
 13
357.5090738168553
 23
220.7649050375529
 33
0.0
 14
377.5092738168553
 24
220.7649050375529
 34
0.0
100
AcDbRotatedDimension
1001
ACAD
1000
DSTYLE
1002
{
1070
   140
1040
6.0
1070
    74
1070
     0
1070
   172
1070
     1
1070
    73
1070
     0
1070
   272
1070
     2
1070
    77
1070
     3
1070
   173
1070
     1
1070
   147
1040
2.0
1070
    42
1040
6.0
1070
    44
1040
3.0
1070
    43
1040
14.0
1070
   271
1070
     0
1070
   178
1070
     4
1070
   177
1070
     4
1070
   176
1070
     4
1070
   141
1040
150.0
1070
     7
1000
_OPEN
1070
     6
1000
_OPEN
1070
    41
1040
7.0
1002
}
  0
LINE
  5
AB6
330
1A
100
AcDbEntity
  8
SEIHIN
  6
PHANTOM
 62
     6
 48
5.0
100
AcDbLine
 10
347.5092738168554
 20
220.7650050375529
 30
0.0
 11
322.5092738168554
 21
220.7650050375529
 31
0.0
  0
LINE
  5
AB7
330
1A
100
AcDbEntity
  8
SEIHIN
  6
PHANTOM
 62
     6
 48
5.0
100
AcDbLine
 10
347.5092738168554
 20
219.2649050375528
 30
0.0
 11
327.5092738168553
 21
219.2649050375528
 31
0.0
  0
LINE
  5
AB8
330
1A
100
AcDbEntity
  8
SEIHIN
  6
PHANTOM
 62
     6
 48
5.0
100
AcDbLine
 10
322.5092738168554
 20
219.2651050375529
 30
0.0
 11
322.5092738168554
 21
220.7650050375529
 31
0.0
  0
LINE
  5
AB9
330
1A
100
AcDbEntity
  8
SEIHIN
  6
PHANTOM
 62
     3
 48
5.0
100
AcDbLine
 10
332.5092738168554
 20
219.2650050375529
 30
0.0
 11
332.5092738168554
 21
220.7649050375529
 31
0.0
  0
LINE
  5
ABA
330
1A
100
AcDbEntity
  8
SEIHIN
  6
PHANTOM
 62
     6
 48
5.0
100
AcDbLine
 10
377.5092738168553
 20
220.7649050375529
 30
0.0
 11
357.5092738168554
 21
220.7649050375529
 31
0.0
  0
LINE
  5
ABB
330
1A
100
AcDbEntity
  8
SEIHIN
  6
PHANTOM
 62
     6
 48
5.0
100
AcDbLine
 10
377.5092738168553
 20
219.2649050375528
 30
0.0
 11
357.5092738168554
 21
219.2649050375528
 31
0.0
  0
LINE
  5
ABC
330
1A
100
AcDbEntity
  8
SEIHIN
  6
Continuous
 62
     3
 48
5.0
100
AcDbLine
 10
342.4974738168554
 20
492.5786757940684
 30
0.0
 11
337.4974738168553
 21
494.0786757940685
 31
0.0
  0
LINE
  5
ABD
330
1A
100
AcDbEntity
  8
SEIHIN
  6
Continuous
 62
     3
 48
5.0
100
AcDbLine
 10
247.4974738168554
 20
491.5786757940685
 30
0.0
 11
252.4974738168554
 21
494.0786757940685
 31
0.0
  0
LINE
  5
ABE
330
1A
100
AcDbEntity
  8
SEIHIN
  6
Continuous
 62
     3
 48
5.0
100
AcDbLine
 10
252.4975738168553
 20
486.8285757940684
 30
0.0
 11
312.4974738168553
 21
486.8286757940685
 31
0.0
  0
LINE
  5
ABF
330
1A
100
AcDbEntity
  8
SEIHIN
  6
Continuous
 62
     3
 48
5.0
100
AcDbLine
 10
332.4289738168554
 20
359.9918757940686
 30
0.0
 11
283.3795738168553
 21
359.9919757940685
 31
0.0
  0
LINE
  5
AC0
330
1A
100
AcDbEntity
  8
SEIHIN
  6
Continuous
 62
     3
 48
5.0
100
AcDbLine
 10
317.8523738168553
 20
377.7528757940685
 30
0.0
 11
268.4774738168555
 21
377.7529757940686
 31
0.0
  0
LINE
  5
AC1
330
1A
100
AcDbEntity
  8
SEIHIN
  6
Continuous
 62
     3
 48
5.0
100
AcDbLine
 10
283.8001738168554
 20
359.8992757940686
 30
0.0
 11
312.5001738168554
 21
359.8993757940684
 31
0.0
  0
LINE
  5
AC2
330
1A
100
AcDbEntity
  8
SEIHIN
  6
Continuous
 62
     3
 48
5.0
100
AcDbLine
 10
252.4975738168553
 20
352.6492757940686
 30
0.0
 11
337.4974738168553
 21
352.6493757940685
 31
0.0
  0
LINE
  5
AC3
330
1A
100
AcDbEntity
  8
SEIHIN
  6
Continuous
 62
     3
 48
5.0
100
AcDbLine
 10
319.5598738168554
 20
478.4133757940684
 30
0.0
 11
268.4774738168555
 21
478.4133757940684
 31
0.0
  0
LINE
  5
AC4
330
1A
100
AcDbEntity
  8
CENTER L
  6
CENTER
 62
     1
 48
5.0
100
AcDbLine
 10
207.7249738168554
 20
435.8486757940684
 30
0.0
 11
365.2880738168553
 21
435.8486757940684
 31
0.0
  0
LINE
  5
AC5
330
1A
100
AcDbEntity
  8
SEIHIN
  6
Continuous
 62
     3
 48
5.0
100
AcDbLine
 10
265.5093738168554
 20
476.4338757940684
 30
0.0
 11
265.5092738168553
 21
380.4243757940686
 31
0.0
  0
LINE
  5
AC6
330
1A
100
AcDbEntity
  8
SEIHIN
  6
Continuous
 62
     3
 48
5.0
100
AcDbLine
 10
252.9974738168555
 20
484.8222757940686
 30
0.0
 11
252.9974738168555
 21
372.1951757940685
 31
0.0
  0
LINE
  5
AC7
330
1A
100
AcDbEntity
  8
SEIHIN
  6
Continuous
 62
     3
 48
5.0
100
AcDbLine
 10
252.4985738168554
 20
435.8494757940686
 30
0.0
 11
252.5001738168554
 21
357.6880757940684
 31
0.0
  0
LINE
  5
AC8
330
1A
100
AcDbEntity
  8
SEIHIN
  6
Continuous
 62
     3
 48
5.0
100
AcDbLine
 10
262.5093738168554
 20
486.8285757940684
 30
0.0
 11
262.5092738168553
 21
362.8992757940686
 31
0.0
  0
LINE
  5
AC9
330
1A
100
AcDbEntity
  8
SEIHIN
  6
Continuous
 62
     3
 48
5.0
100
AcDbLine
 10
250.4975738168553
 20
359.6133757940684
 30
0.0
 11
250.4974738168555
 21
489.0786757940685
 31
0.0
  0
LINE
  5
ACA
330
1A
100
AcDbEntity
  8
SEIHIN
  6
Continuous
 62
     3
 48
5.0
100
AcDbLine
 10
215.4974738168554
 20
491.5786757940685
 30
0.0
 11
215.4975738168554
 21
356.6802757940686
 31
0.0
  0
LINE
  5
ACB
330
1A
100
AcDbEntity
  8
SEIHIN
  6
Continuous
 62
     3
 48
5.0
100
AcDbLine
 10
215.4975738168554
 20
356.6802757940686
 30
0.0
 11
225.4975738168553
 21
355.1686757940684
 31
0.0
  0
LINE
  5
ACC
330
1A
100
AcDbEntity
  8
SEIHIN
  6
Continuous
 62
     3
 48
5.0
100
AcDbLine
 10
215.4974738168554
 20
374.2261757940684
 30
0.0
 11
250.4975738168553
 21
374.2260757940686
 31
0.0
  0
LINE
  5
ACD
330
1A
100
AcDbEntity
  8
SEIHIN
  6
Continuous
 62
     3
 48
5.0
100
AcDbLine
 10
215.4974738168554
 20
370.3984757940684
 30
0.0
 11
240.4974738168555
 21
370.3984757940684
 31
0.0
  0
LINE
  5
ACE
330
1A
100
AcDbEntity
  8
SEIHIN
  6
Continuous
 62
     3
 48
5.0
100
AcDbLine
 10
215.4974738168554
 20
368.8984757940684
 30
0.0
 11
240.4974738168555
 21
368.8984757940684
 31
0.0
  0
LINE
  5
ACF
330
1A
100
AcDbEntity
  8
SEIHIN
  6
Continuous
 62
     3
 48
5.0
100
AcDbLine
 10
215.4974738168554
 20
391.0985757940686
 30
0.0
 11
250.4975738168553
 21
391.0984757940684
 31
0.0
  0
LINE
  5
AD0
330
1A
100
AcDbEntity
  8
SEIHIN
  6
Continuous
 62
     3
 48
5.0
100
AcDbLine
 10
215.4974738168554
 20
389.0985757940686
 30
0.0
 11
250.4975738168553
 21
389.0985757940686
 31
0.0
  0
DIMENSION
  5
AD1
330
1A
100
AcDbEntity
  8
SUNPOU
 48
5.0
100
AcDbDimension
  2
*D5
 10
250.4975738168553
 20
327.4435421947092
 30
0.0
 11
232.9975738168554
 21
332.4435421947092
 31
0.0
 70
    32
  1
※<>
 71
     5
 42
34.99999999999989
  3
STANDARD
100
AcDbAlignedDimension
 13
215.4975738168554
 23
356.6802757940686
 33
0.0
 14
250.4975738168553
 24
359.6133757940684
 34
0.0
100
AcDbRotatedDimension
1001
ACAD
1000
DSTYLE
1002
{
1070
   140
1040
6.0
1070
    74
1070
     0
1070
   172
1070
     1
1070
    73
1070
     0
1070
   272
1070
     2
1070
    77
1070
     3
1070
   173
1070
     1
1070
   147
1040
2.0
1070
    42
1040
6.0
1070
    44
1040
3.0
1070
    43
1040
14.0
1070
   271
1070
     0
1070
   178
1070
     4
1070
   177
1070
     4
1070
   176
1070
     4
1070
   141
1040
150.0
1070
     7
1000
_OPEN
1070
     6
1000
_OPEN
1070
    41
1040
7.0
1002
}
  0
LINE
  5
AD2
330
1A
100
AcDbEntity
  8
SEIHIN
  6
Continuous
 62
     2
100
AcDbLine
 10
280.1500738168554
 20
362.2479757940686
 30
0.0
 11
280.1504738168554
 21
350.1359757940685
 31
0.0
  0
LINE
  5
AD3
330
1A
100
AcDbEntity
  8
SEIHIN
  6
Continuous
 62
     2
100
AcDbLine
 10
265.1500738168554
 20
362.2474757940684
 30
0.0
 11
265.1504738168555
 21
350.1354757940686
 31
0.0
  0
LINE
  5
AD4
330
1A
100
AcDbEntity
  8
SEIHIN
  6
Continuous
 62
     3
 48
5.0
100
AcDbLine
 10
252.4975738168553
 20
352.6492757940686
 30
0.0
 11
247.4975738168554
 21
355.1686757940684
 31
0.0
  0
LINE
  5
AD5
330
1A
100
AcDbEntity
  8
SEIHIN
  6
Continuous
 62
     2
100
AcDbLine
 10
280.1500738168554
 20
350.1359757940685
 30
0.0
 11
265.1500738168554
 21
350.1359757940685
 31
0.0
  0
LINE
  5
AD6
330
1A
100
AcDbEntity
  8
SEIHIN
  6
Continuous
 62
     3
 48
5.0
100
AcDbLine
 10
252.9974738168555
 20
386.8062757940684
 30
0.0
 11
262.5093738168554
 21
386.8062757940684
 31
0.0
  0
LINE
  5
AD7
330
1A
100
AcDbEntity
  8
SEIHIN
  6
Continuous
 62
     3
 48
5.0
100
AcDbLine
 10
252.9974738168555
 20
389.2445757940686
 30
0.0
 11
262.5094738168554
 21
389.2445757940686
 31
0.0
  0
LINE
  5
AD8
330
1A
100
AcDbEntity
  8
SEIHIN
  6
Continuous
 62
     3
 48
5.0
100
AcDbLine
 10
252.4980738168554
 20
372.1951757940685
 30
0.0
 11
262.5083738168553
 21
372.1950757940684
 31
0.0
  0
LINE
  5
AD9
330
1A
100
AcDbEntity
  8
SEIHIN
  6
Continuous
 62
     3
 48
5.0
100
AcDbLine
 10
252.4975738168553
 20
359.8992757940686
 30
0.0
 11
261.5001738168554
 21
359.8992757940686
 31
0.0
  0
LINE
  5
ADA
330
1A
100
AcDbEntity
  8
SEIHIN
  6
Continuous
 62
     3
 48
5.0
100
AcDbLine
 10
225.4975738168553
 20
355.1686757940684
 30
0.0
 11
247.4975738168554
 21
355.1686757940684
 31
0.0
  0
LINE
  5
ADB
330
1A
100
AcDbEntity
  8
SEIHIN
  6
Continuous
 62
     3
 48
5.0
100
AcDbLine
 10
240.4974738168555
 20
370.3984757940684
 30
0.0
 11
240.4975738168553
 21
360.6878757940684
 31
0.0
  0
LINE
  5
ADC
330
1A
100
AcDbEntity
  8
SEIHIN
  6
Continuous
 62
     3
 48
5.0
100
AcDbLine
 10
240.4975738168553
 20
359.9984757940686
 30
0.0
 11
250.4975738168553
 21
359.9984757940686
 31
0.0
  0
LINE
  5
ADD
330
1A
100
AcDbEntity
  8
SEIHIN
  6
Continuous
 62
     3
 48
5.0
100
AcDbLine
 10
243.4975738168554
 20
357.6878757940685
 30
0.0
 11
252.4975738168553
 21
357.6878757940685
 31
0.0
  0
ARC
  5
ADE
330
1A
100
AcDbEntity
  8
SEIHIN
  6
Continuous
 62
     3
 48
5.0
100
AcDbCircle
 10
243.4975738168553
 20
360.6878757940685
 30
0.0
 40
2.999999999999986
100
AcDbArc
 50
180.0000000000016
 51
270.0000000000017
  0
LINE
  5
ADF
330
1A
100
AcDbEntity
  8
SEIHIN
  6
Continuous
 62
     3
 48
5.0
100
AcDbLine
 10
250.4975738168553
 20
359.6133757940684
 30
0.0
 11
252.4986738168554
 21
359.6133757940684
 31
0.0
  0
LINE
  5
AE0
330
1A
100
AcDbEntity
  8
SEIHIN
  6
Continuous
 62
     3
 48
5.0
100
AcDbLine
 10
252.4998738168554
 20
371.6951757940684
 30
0.0
 11
252.9998738168554
 21
372.1951757940685
 31
0.0
  0
ARC
  5
AE1
330
1A
100
AcDbEntity
  8
SEIHIN
  6
Continuous
 62
     3
 48
5.0
100
AcDbCircle
 10
268.4774137113715
 20
372.7529278320286
 30
0.0
 40
5.000047962401192
100
AcDbArc
 50
89.99931124849601
 51
167.1765573167165
  0
LINE
  5
AE2
330
1A
100
AcDbEntity
  8
SEIHIN
  6
Continuous
 62
     3
 48
5.0
100
AcDbLine
 10
280.3001738168554
 20
359.9919757940685
 30
0.0
 11
265.0001738168554
 21
359.9919757940685
 31
0.0
  0
LINE
  5
AE3
330
1A
100
AcDbEntity
  8
SEIHIN
  6
Continuous
 62
     3
 48
5.0
100
AcDbLine
 10
265.0001738168554
 20
359.8993757940684
 30
0.0
 11
280.3001738168554
 21
359.8993757940684
 31
0.0
  0
LINE
  5
AE4
330
1A
100
AcDbEntity
  8
SEIHIN
  6
Continuous
 62
     2
100
AcDbLine
 10
280.1500738168554
 20
362.2528757940684
 30
0.0
 11
265.1500738168554
 21
362.2528757940684
 31
0.0
  0
LINE
  5
AE5
330
1A
100
AcDbEntity
  8
SEIHIN
  6
Continuous
 62
     3
 48
5.0
100
AcDbLine
 10
264.5092738168553
 20
362.8992757940686
 30
0.0
 11
264.5092738168553
 21
367.0611757940686
 31
0.0
  0
ARC
  5
AE6
330
1A
100
AcDbEntity
  8
SEIHIN
  6
Continuous
 62
     3
 48
5.0
100
AcDbCircle
 10
261.5001738168554
 20
360.8992757940686
 30
0.0
 40
1.000000000000043
100
AcDbArc
 50
269.9999999999968
 51
359.9999999999976
  0
LINE
  5
AE7
330
1A
100
AcDbEntity
  8
SEIHIN
  6
Continuous
 62
     3
 48
5.0
100
AcDbLine
 10
262.5001738168555
 20
362.8992757940686
 30
0.0
 11
265.0001738168554
 21
362.8992757940686
 31
0.0
  0
LINE
  5
AE8
330
1A
100
AcDbEntity
  8
SEIHIN
  6
Continuous
 62
     3
 48
5.0
100
AcDbLine
 10
262.4997738168553
 20
358.1494757940686
 30
0.0
 11
261.0334738168554
 21
359.8991757940685
 31
0.0
  0
LINE
  5
AE9
330
1A
100
AcDbEntity
  8
SEIHIN
  6
Continuous
 62
     3
 48
5.0
100
AcDbLine
 10
262.5001738168555
 20
360.8992757940686
 30
0.0
 11
262.5000738168554
 21
362.8995757940684
 31
0.0
  0
LINE
  5
AEA
330
1A
100
AcDbEntity
  8
SEIHIN
  6
Continuous
 62
     3
 48
5.0
100
AcDbLine
 10
262.4997738168553
 20
358.1494757940686
 30
0.0
 11
262.5001738168555
 21
360.8991757940684
 31
0.0
  0
LINE
  5
AEB
330
1A
100
AcDbEntity
  8
SEIHIN
  6
Continuous
 62
     3
 48
5.0
100
AcDbLine
 10
265.0001738168554
 20
358.1495757940685
 30
0.0
 11
265.0000738168554
 21
362.8995757940684
 31
0.0
  0
LINE
  5
AEC
330
1A
100
AcDbEntity
  8
SEIHIN
  6
Continuous
 62
     3
 48
5.0
100
AcDbLine
 10
262.5092738168553
 20
365.8111757940686
 30
0.0
 11
264.5092738168553
 21
365.8111757940686
 31
0.0
  0
LINE
  5
AED
330
1A
100
AcDbEntity
  8
SEIHIN
  6
Continuous
 62
     3
 48
5.0
100
AcDbLine
 10
262.5092738168553
 20
367.0611757940686
 30
0.0
 11
264.5092738168553
 21
367.0610757940685
 31
0.0
  0
LINE
  5
AEE
330
1A
100
AcDbEntity
  8
SEIHIN
  6
Continuous
 62
     3
 48
5.0
100
AcDbLine
 10
262.5092738168553
 20
369.0611757940686
 30
0.0
 11
263.6020738168555
 21
373.8625757940686
 31
0.0
  0
LINE
  5
AEF
330
1A
100
AcDbEntity
  8
SEIHIN
  6
Continuous
 62
     3
 48
5.0
100
AcDbLine
 10
280.2994738168554
 20
362.8992757940686
 30
0.0
 11
280.2994738168554
 21
367.0611757940686
 31
0.0
  0
LINE
  5
AF0
330
1A
100
AcDbEntity
  8
SEIHIN
  6
Continuous
 62
     3
 48
5.0
100
AcDbLine
 10
282.2994738168554
 20
362.8992757940686
 30
0.0
 11
282.2994738168554
 21
367.0611757940686
 31
0.0
  0
LINE
  5
AF1
330
1A
100
AcDbEntity
  8
SEIHIN
  6
Continuous
 62
     3
 48
5.0
100
AcDbLine
 10
280.3001738168554
 20
362.8992757940686
 30
0.0
 11
282.8001738168554
 21
362.8992757940686
 31
0.0
  0
LINE
  5
AF2
330
1A
100
AcDbEntity
  8
SEIHIN
  6
Continuous
 62
     3
 48
5.0
100
AcDbLine
 10
282.8001738168554
 20
360.8992757940686
 30
0.0
 11
282.8000738168553
 21
362.8998757940684
 31
0.0
  0
LINE
  5
AF3
330
1A
100
AcDbEntity
  8
SEIHIN
  6
Continuous
 62
     3
 48
5.0
100
AcDbLine
 10
280.3001738168554
 20
358.1498757940685
 30
0.0
 11
280.3000738168554
 21
362.8998757940684
 31
0.0
  0
LINE
  5
AF4
330
1A
100
AcDbEntity
  8
SEIHIN
  6
Continuous
 62
     3
 48
5.0
100
AcDbLine
 10
282.7990738168554
 20
358.1498757940685
 30
0.0
 11
282.8001738168554
 21
360.8995757940684
 31
0.0
  0
ARC
  5
AF5
330
1A
100
AcDbEntity
  8
SEIHIN
  6
Continuous
 62
     3
 48
5.0
100
AcDbCircle
 10
283.8001738143551
 20
360.8992757965685
 30
0.0
 40
1.000000002499971
100
AcDbArc
 50
180.0057297211925
 51
270.0000001432591
  0
LINE
  5
AF6
330
1A
100
AcDbEntity
  8
SEIHIN
  6
Continuous
 62
     3
 48
5.0
100
AcDbLine
 10
282.7990738168554
 20
358.1498757940685
 30
0.0
 11
284.2665738168553
 21
359.8992757940686
 31
0.0
  0
LINE
  5
AF7
330
1A
100
AcDbEntity
  8
SEIHIN
  6
Continuous
 62
     3
 48
5.0
100
AcDbLine
 10
282.2994738168554
 20
365.8111757940686
 30
0.0
 11
280.2994738168554
 21
365.8111757940686
 31
0.0
  0
LINE
  5
AF8
330
1A
100
AcDbEntity
  8
SEIHIN
  6
Continuous
 62
     3
 48
5.0
100
AcDbLine
 10
280.2994738168554
 20
367.0610757940685
 30
0.0
 11
282.2994738168554
 21
367.0610757940685
 31
0.0
  0
LINE
  5
AF9
330
1A
100
AcDbEntity
  8
SEIHIN
  6
Continuous
 62
     3
 48
5.0
100
AcDbLine
 10
215.4974738168554
 20
491.5786757940685
 30
0.0
 11
247.4974738168554
 21
491.5786757940685
 31
0.0
  0
LINE
  5
AFA
330
1A
100
AcDbEntity
  8
SEIHIN
  6
Continuous
 62
     3
 48
5.0
100
AcDbLine
 10
215.4974738168554
 20
479.8286757940685
 30
0.0
 11
240.4974738168555
 21
479.8286757940685
 31
0.0
  0
LINE
  5
AFB
330
1A
100
AcDbEntity
  8
SEIHIN
  6
Continuous
 62
     3
 48
5.0
100
AcDbLine
 10
252.4985738168554
 20
435.8495757940684
 30
0.0
 11
252.4974738168554
 21
489.0786757940685
 31
0.0
  0
LINE
  5
AFC
330
1A
100
AcDbEntity
  8
SEIHIN
  6
Continuous
 62
     3
 48
5.0
100
AcDbLine
 10
252.9974738168555
 20
482.8877757940686
 30
0.0
 11
262.5093738168554
 21
482.8877757940686
 31
0.0
  0
LINE
  5
AFD
330
1A
100
AcDbEntity
  8
SEIHIN
  6
Continuous
 62
     3
 48
5.0
100
AcDbLine
 10
252.9975738168553
 20
484.8222757940686
 30
0.0
 11
262.5093738168554
 21
484.8222757940686
 31
0.0
  0
LINE
  5
AFE
330
1A
100
AcDbEntity
  8
SEIHIN
  6
Continuous
 62
     3
 48
5.0
100
AcDbLine
 10
226.9974738168554
 20
489.0787757940684
 30
0.0
 11
226.9974738168554
 21
480.3861757940685
 31
0.0
  0
LINE
  5
AFF
330
1A
100
AcDbEntity
  8
SEIHIN
  6
Continuous
 62
     3
 48
5.0
100
AcDbLine
 10
228.9974738168554
 20
489.0787757940684
 30
0.0
 11
228.9974738168554
 21
480.3861757940685
 31
0.0
  0
LINE
  5
B00
330
1A
100
AcDbEntity
  8
SEIHIN
  6
Continuous
 62
     3
 48
5.0
100
AcDbLine
 10
226.9974738168554
 20
480.3861757940685
 30
0.0
 11
228.9974738168554
 21
480.3861757940685
 31
0.0
  0
LINE
  5
B01
330
1A
100
AcDbEntity
  8
SEIHIN
  6
Continuous
 62
     3
 48
5.0
100
AcDbLine
 10
226.9974738168554
 20
489.0786757940685
 30
0.0
 11
228.9974738168554
 21
489.0786757940685
 31
0.0
  0
LINE
  5
B02
330
1A
100
AcDbEntity
  8
SEIHIN
  6
Continuous
 62
     3
 48
5.0
100
AcDbLine
 10
240.4974738168555
 20
486.0786757940685
 30
0.0
 11
240.4974738168555
 21
479.8286757940685
 31
0.0
  0
LINE
  5
B03
330
1A
100
AcDbEntity
  8
SEIHIN
  6
Continuous
 62
     3
 48
5.0
100
AcDbLine
 10
240.4974738168555
 20
480.5985757940684
 30
0.0
 11
250.4975738168553
 21
480.5985757940684
 31
0.0
  0
LINE
  5
B04
330
1A
100
AcDbEntity
  8
SEIHIN
  6
Continuous
 62
     3
 48
5.0
100
AcDbLine
 10
243.4974738168554
 20
489.0786757940685
 30
0.0
 11
252.4973738168554
 21
489.0786757940685
 31
0.0
  0
LINE
  5
B05
330
1A
100
AcDbEntity
  8
SEIHIN
  6
Continuous
 62
     3
 48
5.0
100
AcDbLine
 10
240.4974738168555
 20
482.4786757940684
 30
0.0
 11
250.4975738168553
 21
482.4786757940684
 31
0.0
  0
ARC
  5
B06
330
1A
100
AcDbEntity
  8
SEIHIN
  6
Continuous
 62
     3
 48
5.0
100
AcDbCircle
 10
243.4974738168554
 20
486.0786757940685
 30
0.0
 40
2.999999999999972
100
AcDbArc
 50
90.0
 51
180.0000000000008
  0
LINE
  5
B07
330
1A
100
AcDbEntity
  8
SEIHIN
  6
Continuous
 62
     3
 48
5.0
100
AcDbLine
 10
252.9975738168553
 20
484.8222757940686
 30
0.0
 11
252.4975738168553
 21
485.3222757940684
 31
0.0
  0
LINE
  5
B08
330
1A
100
AcDbEntity
  8
SEIHIN
  6
Continuous
 62
     3
 48
5.0
100
AcDbLine
 10
262.5093738168554
 20
483.9134757940684
 30
0.0
 11
264.0879738168555
 21
481.0191757940684
 31
0.0
  0
ARC
  5
B09
330
1A
100
AcDbEntity
  8
SEIHIN
  6
Continuous
 62
     3
 48
5.0
100
AcDbCircle
 10
268.4774415797193
 20
483.4133949309952
 30
0.0
 40
5.000019137030752
100
AcDbArc
 50
208.6111034348816
 51
270.000369408956
  0
LINE
  5
B0A
330
1A
100
AcDbEntity
  8
SEIHIN
  6
Continuous
 62
     3
 48
5.0
100
AcDbLine
 10
319.5093738168554
 20
478.4132757940686
 30
0.0
 11
319.5092738168553
 21
377.7528757940685
 31
0.0
  0
LINE
  5
B0B
330
1A
100
AcDbEntity
  8
SEIHIN
  6
Continuous
 62
     3
 48
5.0
100
AcDbLine
 10
322.5092738168554
 20
435.8418757940685
 30
0.0
 11
322.5092738168554
 21
374.2194757940686
 31
0.0
  0
LINE
  5
B0C
330
1A
100
AcDbEntity
  8
SEIHIN
  6
Continuous
 62
     3
 48
5.0
100
AcDbLine
 10
357.5092738168554
 20
356.6735757940685
 30
0.0
 11
357.5093738168554
 21
491.5719757940684
 31
0.0
  0
LINE
  5
B0D
330
1A
100
AcDbEntity
  8
SEIHIN
  6
Continuous
 62
     3
 48
5.0
100
AcDbLine
 10
357.5092738168554
 20
356.6735757940685
 30
0.0
 11
347.5091738168554
 21
355.1619757940686
 31
0.0
  0
LINE
  5
B0E
330
1A
100
AcDbEntity
  8
SEIHIN
  6
Continuous
 62
     3
 48
5.0
100
AcDbLine
 10
357.5092738168554
 20
374.2193757940685
 30
0.0
 11
322.5092738168554
 21
374.2194757940686
 31
0.0
  0
LINE
  5
B0F
330
1A
100
AcDbEntity
  8
SEIHIN
  6
Continuous
 62
     3
 48
5.0
100
AcDbLine
 10
357.5092738168554
 20
370.3917757940686
 30
0.0
 11
332.5092738168554
 21
370.3917757940686
 31
0.0
  0
LINE
  5
B10
330
1A
100
AcDbEntity
  8
SEIHIN
  6
Continuous
 62
     3
 48
5.0
100
AcDbLine
 10
357.5092738168554
 20
368.8917757940686
 30
0.0
 11
332.5092738168554
 21
368.8917757940686
 31
0.0
  0
LINE
  5
B11
330
1A
100
AcDbEntity
  8
SEIHIN
  6
Continuous
 62
     3
 48
5.0
100
AcDbLine
 10
357.5093738168554
 20
389.0918757940684
 30
0.0
 11
322.5092738168554
 21
389.0918757940684
 31
0.0
  0
LINE
  5
B12
330
1A
100
AcDbEntity
  8
SEIHIN
  6
Continuous
 62
     3
 48
5.0
100
AcDbLine
 10
357.5093738168554
 20
391.0918757940684
 30
0.0
 11
322.5092738168554
 21
391.0918757940684
 31
0.0
  0
DIMENSION
  5
B13
330
1A
100
AcDbEntity
  8
SUNPOU
 48
5.0
100
AcDbDimension
  2
*D6
 10
357.5092738168554
 20
327.4435421947092
 30
0.0
 11
340.0092738168554
 21
332.4435421947092
 31
0.0
 70
    32
  1
※<>
 71
     5
 42
35.0
  3
STANDARD
100
AcDbAlignedDimension
 13
322.5092738168554
 23
374.2194757940686
 33
0.0
 14
357.5092738168554
 24
356.6735757940685
 34
0.0
100
AcDbRotatedDimension
1001
ACAD
1000
DSTYLE
1002
{
1070
   140
1040
6.0
1070
    74
1070
     0
1070
   172
1070
     1
1070
    73
1070
     0
1070
   272
1070
     2
1070
    77
1070
     3
1070
   173
1070
     1
1070
   147
1040
2.0
1070
    42
1040
6.0
1070
    44
1040
3.0
1070
    43
1040
14.0
1070
   271
1070
     0
1070
   178
1070
     4
1070
   177
1070
     4
1070
   176
1070
     4
1070
   141
1040
150.0
1070
     7
1000
_OPEN
1070
     6
1000
_OPEN
1070
    41
1040
7.0
1002
}
  0
LINE
  5
B14
330
1A
100
AcDbEntity
  8
SEIHIN
  6
Continuous
 62
     3
 48
5.0
100
AcDbLine
 10
342.4974738168554
 20
354.1494757940686
 30
0.0
 11
337.4974738168553
 21
352.6494757940686
 31
0.0
  0
ARC
  5
B15
330
1A
100
AcDbEntity
  8
SEIHIN
  6
Continuous
 62
     3
 48
5.0
100
AcDbCircle
 10
317.8523608402405
 20
372.752880094072
 30
0.0
 40
4.999995700013386
100
AcDbArc
 50
53.33301066989495
 51
89.99985129882043
  0
LINE
  5
B16
330
1A
100
AcDbEntity
  8
SEIHIN
  6
Continuous
 62
     3
 48
5.0
100
AcDbLine
 10
329.5092738168553
 20
357.6812757940685
 30
0.0
 11
317.5001738168553
 21
357.6812757940685
 31
0.0
  0
LINE
  5
B17
330
1A
100
AcDbEntity
  8
SEIHIN
  6
Continuous
 62
     3
 48
5.0
100
AcDbLine
 10
319.5001738168553
 20
355.1493757940685
 30
0.0
 11
347.4267738168554
 21
355.1494757940686
 31
0.0
  0
ARC
  5
B18
330
1A
100
AcDbEntity
  8
SEIHIN
  6
Continuous
 62
     3
 48
5.0
100
AcDbCircle
 10
319.5001738156053
 20
357.1493757953185
 30
0.0
 40
2.000000001249997
100
AcDbArc
 50
180.002864824784
 51
270.0000000358111
  0
LINE
  5
B19
330
1A
100
AcDbEntity
  8
SEIHIN
  6
Continuous
 62
     3
 48
5.0
100
AcDbLine
 10
317.5001738168553
 20
357.1493757940685
 30
0.0
 11
317.5001738168553
 21
358.1493757940684
 31
0.0
  0
LINE
  5
B1A
330
1A
100
AcDbEntity
  8
SEIHIN
  6
Continuous
 62
     3
 48
5.0
100
AcDbLine
 10
312.5001738168554
 20
358.1491757940685
 30
0.0
 11
312.5001738168554
 21
359.8998757940684
 31
0.0
  0
LINE
  5
B1B
330
1A
100
AcDbEntity
  8
SEIHIN
  6
Continuous
 62
     3
 48
5.0
100
AcDbLine
 10
317.5001738168553
 20
358.1493757940684
 30
0.0
 11
312.5001738168554
 21
358.1493757940684
 31
0.0
  0
LINE
  5
B1C
330
1A
100
AcDbEntity
  8
SEIHIN
  6
Continuous
 62
     3
 48
5.0
100
AcDbLine
 10
332.5092738168554
 20
360.6812757940684
 30
0.0
 11
332.5092738168554
 21
370.3917757940686
 31
0.0
  0
LINE
  5
B1D
330
1A
100
AcDbEntity
  8
SEIHIN
  6
Continuous
 62
     3
 48
5.0
100
AcDbLine
 10
329.5092738168553
 20
355.1619757940686
 30
0.0
 11
329.5092738168553
 21
357.6812757940685
 31
0.0
  0
ARC
  5
B1E
330
1A
100
AcDbEntity
  8
SEIHIN
  6
Continuous
 62
     3
 48
5.0
100
AcDbCircle
 10
329.5092738168554
 20
360.6812757940685
 30
0.0
 40
3.0
100
AcDbArc
 50
269.9999999999984
 51
359.9999999999976
  0
LINE
  5
B1F
330
1A
100
AcDbEntity
  8
SEIHIN
  6
Continuous
 62
     3
 48
5.0
100
AcDbLine
 10
322.5092738168554
 20
375.5194757940684
 30
0.0
 11
320.8381738168554
 21
376.7634757940684
 31
0.0
  0
LINE
  5
B20
330
1A
100
AcDbEntity
  8
SEIHIN
  6
Continuous
 62
     3
 48
5.0
100
AcDbLine
 10
342.4974738168554
 20
354.1494757940686
 30
0.0
 11
342.4974738168554
 21
355.1493757940685
 31
0.0
  0
LINE
  5
B21
330
1A
100
AcDbEntity
  8
SEIHIN
  6
Continuous
 62
     3
 48
5.0
100
AcDbLine
 10
319.4974738168554
 20
491.5786757940685
 30
0.0
 11
357.5086738168554
 21
491.5787757940685
 31
0.0
  0
LINE
  5
B22
330
1A
100
AcDbEntity
  8
SEIHIN
  6
Continuous
 62
     3
 48
5.0
100
AcDbLine
 10
357.5093738168554
 20
479.8219757940684
 30
0.0
 11
332.5093738168554
 21
479.8219757940684
 31
0.0
  0
LINE
  5
B23
330
1A
100
AcDbEntity
  8
SEIHIN
  6
Continuous
 62
     3
 48
5.0
100
AcDbLine
 10
322.5092738168554
 20
435.8418757940685
 30
0.0
 11
322.5093738168554
 21
482.4719757940686
 31
0.0
  0
LINE
  5
B24
330
1A
100
AcDbEntity
  8
SEIHIN
  6
Continuous
 62
     3
 48
5.0
100
AcDbLine
 10
329.5093738168554
 20
489.0719757940685
 30
0.0
 11
317.5001738168553
 21
489.0719757940685
 31
0.0
  0
ARC
  5
B25
330
1A
100
AcDbEntity
  8
SEIHIN
  6
Continuous
 62
     3
 48
5.0
100
AcDbCircle
 10
317.5599050581001
 20
483.4133879745388
 30
0.0
 40
5.000012180568008
100
AcDbArc
 50
269.9996420025786
 51
312.599699014248
  0
ARC
  5
B26
330
1A
100
AcDbEntity
  8
SEIHIN
  6
Continuous
 62
     3
 48
5.0
100
AcDbCircle
 10
319.4974738156055
 20
489.5786757928185
 30
0.0
 40
2.000000001250044
100
AcDbArc
 50
89.99999996419378
 51
180.0028647531683
  0
LINE
  5
B27
330
1A
100
AcDbEntity
  8
SEIHIN
  6
Continuous
 62
     3
 48
5.0
100
AcDbLine
 10
317.4974738168554
 20
488.5786757940684
 30
0.0
 11
317.4974738168554
 21
489.5785757940684
 31
0.0
  0
LINE
  5
B28
330
1A
100
AcDbEntity
  8
SEIHIN
  6
Continuous
 62
     3
 48
5.0
100
AcDbLine
 10
312.4974738168553
 20
488.5784757940685
 30
0.0
 11
312.4975738168554
 21
486.8297757940686
 31
0.0
  0
LINE
  5
B29
330
1A
100
AcDbEntity
  8
SEIHIN
  6
Continuous
 62
     3
 48
5.0
100
AcDbLine
 10
317.5000738168554
 20
488.5786757940684
 30
0.0
 11
312.4974738168553
 21
488.5786757940684
 31
0.0
  0
LINE
  5
B2A
330
1A
100
AcDbEntity
  8
SEIHIN
  6
Continuous
 62
     3
 48
5.0
100
AcDbLine
 10
332.5093738168554
 20
486.0719757940684
 30
0.0
 11
332.5093738168554
 21
479.8219757940684
 31
0.0
  0
LINE
  5
B2B
330
1A
100
AcDbEntity
  8
SEIHIN
  6
Continuous
 62
     3
 48
5.0
100
AcDbLine
 10
332.5093738168554
 20
480.5918757940685
 30
0.0
 11
322.5093738168554
 21
480.5918757940685
 31
0.0
  0
LINE
  5
B2C
330
1A
100
AcDbEntity
  8
SEIHIN
  6
Continuous
 62
     3
 48
5.0
100
AcDbLine
 10
322.5093738168554
 20
481.1719757940685
 30
0.0
 11
320.9443738168554
 21
479.7328757940686
 31
0.0
  0
LINE
  5
B2D
330
1A
100
AcDbEntity
  8
SEIHIN
  6
Continuous
 62
     3
 48
5.0
100
AcDbLine
 10
332.5093738168554
 20
482.4719757940686
 30
0.0
 11
322.5093738168554
 21
482.4719757940686
 31
0.0
  0
LINE
  5
B2E
330
1A
100
AcDbEntity
  8
SEIHIN
  6
Continuous
 62
     3
 48
5.0
100
AcDbLine
 10
329.5093738168554
 20
491.5719757940684
 30
0.0
 11
329.5093738168554
 21
489.0719757940685
 31
0.0
  0
ARC
  5
B2F
330
1A
100
AcDbEntity
  8
SEIHIN
  6
Continuous
 62
     3
 48
5.0
100
AcDbCircle
 10
329.5093738168554
 20
486.0719757940685
 30
0.0
 40
3.000000000000057
100
AcDbArc
 50
359.9999999999992
 51
89.99999999999837
  0
LINE
  5
B30
330
1A
100
AcDbEntity
  8
SEIHIN
  6
Continuous
 62
     3
 48
5.0
100
AcDbLine
 10
344.0093738168554
 20
488.8219757940684
 30
0.0
 11
344.0093738168554
 21
480.0771757940686
 31
0.0
  0
LINE
  5
B31
330
1A
100
AcDbEntity
  8
SEIHIN
  6
Continuous
 62
     3
 48
5.0
100
AcDbLine
 10
346.0093738168554
 20
488.8219757940684
 30
0.0
 11
346.0093738168554
 21
480.0771757940686
 31
0.0
  0
LINE
  5
B32
330
1A
100
AcDbEntity
  8
SEIHIN
  6
Continuous
 62
     3
 48
5.0
100
AcDbLine
 10
346.0093738168554
 20
480.0771757940686
 30
0.0
 11
344.0093738168554
 21
480.0771757940686
 31
0.0
  0
LINE
  5
B33
330
1A
100
AcDbEntity
  8
SEIHIN
  6
Continuous
 62
     3
 48
5.0
100
AcDbLine
 10
346.0093738168554
 20
488.8219757940684
 30
0.0
 11
344.0093738168554
 21
488.8219757940684
 31
0.0
  0
LINE
  5
B34
330
1A
100
AcDbEntity
  8
SEIHIN
  6
Continuous
 62
     3
 48
5.0
100
AcDbLine
 10
342.4974738168554
 20
491.5785757940684
 30
0.0
 11
342.4974738168554
 21
492.5786757940684
 31
0.0
  0
LINE
  5
B35
330
1A
100
AcDbEntity
  8
SEIHIN
  6
Continuous
 62
     3
 48
5.0
100
AcDbLine
 10
252.4975738168553
 20
494.0785757940685
 30
0.0
 11
337.4974738168553
 21
494.0786757940685
 31
0.0
  0
DIMENSION
  5
B36
330
1A
100
AcDbEntity
  8
SUNPOU
 48
5.0
100
AcDbDimension
  2
*D7
 10
607.7750549185735
 20
101.0706044895281
 30
0.0
 11
558.4676693369537
 21
106.0706044895281
 31
0.0
 70
    32
 71
     5
 42
98.61477116323948
  3
STANDARD
100
AcDbAlignedDimension
 13
509.160283755334
 23
132.2651068640161
 33
0.0
 14
607.7750549185735
 24
132.2650030250003
 34
0.0
100
AcDbRotatedDimension
1001
ACAD
1000
DSTYLE
1002
{
1070
   140
1040
6.0
1070
    74
1070
     0
1070
   172
1070
     1
1070
    73
1070
     0
1070
   272
1070
     2
1070
    77
1070
     3
1070
   173
1070
     1
1070
   147
1040
2.0
1070
    42
1040
6.0
1070
    44
1040
3.0
1070
    43
1040
14.0
1070
   271
1070
     0
1070
   178
1070
     4
1070
   177
1070
     4
1070
   176
1070
     4
1070
   141
1040
150.0
1070
     7
1000
_OPEN
1070
     6
1000
_OPEN
1070
    41
1040
7.0
1002
}
  0
ARC
  5
B37
330
1A
100
AcDbEntity
  8
SEIHIN
  6
Continuous
 62
     3
 48
5.0
100
AcDbCircle
 10
551.9234623979412
 20
190.710304565288
 30
0.0
 40
52.15000179688366
100
AcDbArc
 50
187.9998025838453
 51
343.7790471469563
  0
ARC
  5
B38
330
1A
100
AcDbEntity
  8
SEIHIN
  6
Continuous
 62
     3
 48
5.0
100
AcDbCircle
 10
551.9234482472034
 20
190.7103056276519
 30
0.0
 40
49.94998903072901
100
AcDbArc
 50
187.999890796489
 51
343.0963684395801
  0
LINE
  5
B39
330
1A
100
AcDbEntity
  8
SEIHIN
  6
Continuous
 62
     3
 48
5.0
100
AcDbLine
 10
515.2313558265123
 20
137.2649050375528
 30
0.0
 11
601.0856558265125
 21
137.2650050375528
 31
0.0
  0
LINE
  5
B3A
330
1A
100
AcDbEntity
  8
SEIHIN
  6
Continuous
 62
     3
 48
5.0
100
AcDbLine
 10
603.4747558265124
 20
134.7650050375528
 30
0.0
 11
513.0631558265122
 21
134.7649050375528
 31
0.0
  0
LINE
  5
B3B
330
1A
100
AcDbEntity
  8
SEIHIN
  6
Continuous
 62
     3
 48
5.0
100
AcDbLine
 10
605.8637558265123
 20
132.2650050375529
 30
0.0
 11
510.8948558265124
 21
132.2651050375529
 31
0.0
  0
LINE
  5
B3C
330
1A
100
AcDbEntity
  8
SEIHIN
  6
Continuous
 62
     3
 48
5.0
100
AcDbLine
 10
604.4303558265124
 20
134.7650050375528
 30
0.0
 11
512.1958558265121
 21
134.7651050375528
 31
0.0
  0
DIMENSION
  5
B3D
330
1A
100
AcDbEntity
  8
SUNPOU
 62
     4
 48
5.0
100
AcDbDimension
  2
*D8
 10
616.7269558265123
 20
252.9431869971508
 30
0.0
 11
545.9175956058148
 21
257.9431869971508
 31
0.0
 70
    32
 71
     5
 42
141.6187204413951
  3
STANDARD
100
AcDbAlignedDimension
 13
475.1082353851172
 23
216.265735337541
 33
0.0
 14
616.7269558265123
 24
196.7651050375529
 34
0.0
100
AcDbRotatedDimension
1001
ACAD
1000
DSTYLE
1002
{
1070
   140
1040
6.0
1070
    74
1070
     0
1070
   172
1070
     1
1070
    73
1070
     0
1070
   272
1070
     2
1070
    77
1070
     3
1070
   173
1070
     1
1070
   147
1040
2.0
1070
    42
1040
6.0
1070
    44
1040
3.0
1070
    43
1040
14.0
1070
   271
1070
     0
1070
   178
1070
     4
1070
   177
1070
     4
1070
   176
1070
     4
1070
   141
1040
150.0
1070
     7
1000
_OPEN
1070
     6
1000
_OPEN
1070
    41
1040
7.0
1002
}
  0
LINE
  5
B3E
330
1A
100
AcDbEntity
  8
NOKITOI
  6
PHANTOM
 62
     8
 48
5.0
100
AcDbLine
 10
515.3196558265122
 20
137.2649551403432
 30
0.0
 11
601.1738558265124
 21
137.2649551403432
 31
0.0
  0
LINE
  5
B3F
330
1A
100
AcDbEntity
  8
NOKITOI
  6
PHANTOM
 62
     8
 48
5.0
100
AcDbLine
 10
517.3144558265124
 20
138.5649551403432
 30
0.0
 11
598.9760558265123
 21
138.5649551403432
 31
0.0
  0
ARC
  5
B40
330
1A
100
AcDbEntity
  8
NOKITOI
  6
PHANTOM
 62
     8
 48
5.0
100
AcDbCircle
 10
493.0850558265124
 20
212.2650551403433
 30
0.0
 40
2.0
100
AcDbArc
 50
0.0
 51
90.0
  0
LINE
  5
B41
330
1A
100
AcDbEntity
  8
SEIHIN
  6
Continuous
 62
     2
100
AcDbLine
 10
482.6505558265122
 20
208.1652050375529
 30
0.0
 11
482.6505558265122
 21
217.7647050375528
 31
0.0
  0
ARC
  5
B42
330
1A
100
AcDbEntity
  8
NOKITOI
  6
PHANTOM
 62
     8
 48
5.0
100
AcDbCircle
 10
484.4834707860773
 20
214.2650720862723
 30
0.0
 40
2.999983054108306
100
AcDbArc
 50
90.00028570825525
 51
187.1253020571568
  0
ARC
  5
B43
330
1A
100
AcDbEntity
  8
NOKITOI
  6
PHANTOM
 62
     8
 48
5.0
100
AcDbCircle
 10
484.823234775981
 20
213.9650312943776
 30
0.0
 40
2.000023846076517
100
AcDbArc
 50
89.99939695388625
 51
187.1251239525234
  0
ARC
  5
B44
330
1A
100
AcDbEntity
  8
NOKITOI
  6
PHANTOM
 62
     8
 48
5.0
100
AcDbCircle
 10
488.5850558265123
 20
214.7650551403433
 30
0.0
 40
0.5
100
AcDbArc
 50
180.0
 51
270.0
  0
LINE
  5
B45
330
1A
100
AcDbEntity
  8
SEIHIN
  6
Continuous
 62
     2
100
AcDbLine
 10
472.9523558265124
 20
217.3963050375529
 30
0.0
 11
475.7973558265123
 21
194.4952050375528
 31
0.0
  0
LINE
  5
B46
330
1A
100
AcDbEntity
  8
SEIHIN
  6
Continuous
 62
     3
 48
5.0
100
AcDbLine
 10
477.5668558265124
 20
218.7658050375528
 30
0.0
 11
480.2034558265124
 21
197.5418050375528
 31
0.0
  0
LINE
  5
B47
330
1A
100
AcDbEntity
  8
SEIHIN
  6
Continuous
 62
     2
100
AcDbLine
 10
477.7820558265123
 20
194.7418050375528
 30
0.0
 11
474.9371558265124
 21
217.6429050375529
 31
0.0
  0
LINE
  5
B48
330
1A
100
AcDbEntity
  8
SEIHIN
  6
Continuous
 62
     3
 48
5.0
100
AcDbLine
 10
477.7446558265123
 20
195.0418050375529
 30
0.0
 11
475.1464558265124
 21
215.9575050375529
 31
0.0
  0
LINE
  5
B49
330
1A
100
AcDbEntity
  8
SEIHIN
  6
Continuous
 62
     3
 48
5.0
100
AcDbLine
 10
482.2877558265122
 20
201.0416050375529
 30
0.0
 11
480.5361558265124
 21
215.1417050375528
 31
0.0
  0
LINE
  5
B4A
330
1A
100
AcDbEntity
  8
SEIHIN
  6
Continuous
 62
     2
100
AcDbLine
 10
484.6505558265124
 20
217.7647050375528
 30
0.0
 11
484.6505558265124
 21
204.1652050375529
 31
0.0
  0
LINE
  5
B4B
330
1A
100
AcDbEntity
  8
NOKITOI
  6
PHANTOM
 62
     8
 48
5.0
100
AcDbLine
 10
486.7850558265124
 20
215.9650551403432
 30
0.0
 11
486.7850558265124
 21
202.5650551403433
 31
0.0
  0
DIMENSION
  5
B4C
330
1A
100
AcDbEntity
  8
SUNPOU
 48
5.0
100
AcDbDimension
  2
*D9
 10
449.775671090991
 20
132.2651050375521
 30
0.0
 11
444.775671090991
 21
175.5154324987319
 31
0.0
 70
    32
 71
     5
 42
86.50065492235956
  3
STANDARD
100
AcDbAlignedDimension
 13
477.6273819503642
 23
218.7657599599116
 33
0.0
 14
510.894856624647
 24
132.2651050375521
 34
0.0
 50
90.0
100
AcDbRotatedDimension
1001
ACAD
1000
DSTYLE
1002
{
1070
   140
1040
6.0
1070
    74
1070
     0
1070
   172
1070
     1
1070
    73
1070
     0
1070
   272
1070
     2
1070
    77
1070
     3
1070
   173
1070
     1
1070
   147
1040
2.0
1070
    42
1040
6.0
1070
    44
1040
3.0
1070
    43
1040
14.0
1070
   271
1070
     0
1070
   178
1070
     4
1070
   177
1070
     4
1070
   176
1070
     4
1070
   141
1040
150.0
1070
     7
1000
_OPEN
1070
     6
1000
_OPEN
1070
    41
1040
7.0
1002
}
  0
LINE
  5
B4D
330
1A
100
AcDbEntity
  8
SEIHIN
  6
Continuous
 62
     3
 48
5.0
100
AcDbLine
 10
481.0715558265123
 20
197.6649050375528
 30
0.0
 11
487.9312558265124
 21
197.6649050375528
 31
0.0
  0
LINE
  5
B4E
330
1A
100
AcDbEntity
  8
SEIHIN
  6
Continuous
 62
     3
 48
5.0
100
AcDbLine
 10
485.8987558265122
 20
196.6650050375528
 30
0.0
 11
481.1957558265124
 21
196.6650050375528
 31
0.0
  0
ARC
  5
B4F
330
1A
100
AcDbEntity
  8
SEIHIN
  6
Continuous
 62
     2
100
AcDbCircle
 10
483.6505558265124
 20
204.1652050375529
 30
0.0
 40
1.0
100
AcDbArc
 50
270.0
 51
0.0
  0
LINE
  5
B50
330
1A
100
AcDbEntity
  8
NOKITOI
  6
PHANTOM
 62
     8
 48
5.0
100
AcDbLine
 10
483.0850558265123
 20
201.2650551403433
 30
0.0
 11
487.8875558265123
 21
201.2650551403433
 31
0.0
  0
LINE
  5
B51
330
1A
100
AcDbEntity
  8
SEIHIN
  6
Continuous
 62
     3
 48
5.0
100
AcDbLine
 10
483.2801558265123
 20
200.1650050375528
 30
0.0
 11
491.4658558265123
 21
200.1650050375528
 31
0.0
  0
ARC
  5
B52
330
1A
100
AcDbEntity
  8
SEIHIN
  6
Continuous
 62
     2
100
AcDbCircle
 10
483.7300769902687
 20
187.8649867095118
 30
0.0
 40
4.000018328097108
100
AcDbArc
 50
8.21447179704589
 51
90.00030314709103
  0
ARC
  5
B53
330
1A
100
AcDbEntity
  8
SEIHIN
  6
Continuous
 62
     2
100
AcDbCircle
 10
483.730026304219
 20
187.8650306043284
 30
0.0
 40
5.999974433297155
100
AcDbArc
 50
8.21355059659497
 51
89.9997180816648
  0
LINE
  5
B54
330
1A
100
AcDbEntity
  8
SEIHIN
  6
Continuous
 62
     3
 48
5.0
100
AcDbLine
 10
478.7370558265122
 20
194.1650050375528
 30
0.0
 11
485.8987558265122
 21
194.1650050375528
 31
0.0
  0
ARC
  5
B55
330
1A
100
AcDbEntity
  8
SEIHIN
  6
Continuous
 62
     2
100
AcDbCircle
 10
462.9454667389809
 20
184.8650320747637
 30
0.0
 40
27.00000930037655
100
AcDbArc
 50
307.8279168797911
 51
8.213057995706919
  0
ARC
  5
B56
330
1A
100
AcDbEntity
  8
SEIHIN
  6
Continuous
 62
     2
100
AcDbCircle
 10
462.9454618089785
 20
184.8650198580205
 30
0.0
 40
25.00000474010202
100
AcDbArc
 50
307.8226700854839
 51
8.213108656291084
  0
ARC
  5
B57
330
1A
100
AcDbEntity
  8
SEIHIN
  6
Continuous
 62
     3
 48
5.0
100
AcDbCircle
 10
483.7784715201314
 20
205.2649911725912
 30
0.0
 40
5.000013864986266
100
AcDbArc
 50
7.080424426907486
 51
90.00017983513003
  0
LINE
  5
B58
330
1A
100
AcDbEntity
  8
NOKITOI
  6
PHANTOM
 62
     8
 48
5.0
100
AcDbLine
 10
482.8386558265123
 20
213.7169551403432
 30
0.0
 11
484.2326558265124
 21
202.5650551403433
 31
0.0
  0
ARC
  5
B59
330
1A
100
AcDbEntity
  8
SEIHIN
  6
Continuous
 62
     2
100
AcDbCircle
 10
478.8910786704921
 20
164.3287755481509
 30
0.0
 40
1.000002146801969
100
AcDbArc
 50
127.6996010699542
 51
307.826746265849
  0
ARC
  5
B5A
330
1A
100
AcDbEntity
  8
SEIHIN
  6
Continuous
 62
     2
100
AcDbCircle
 10
478.7744674804057
 20
194.8649947416842
 30
0.0
 40
2.999989704153929
100
AcDbArc
 50
187.0804952436101
 51
269.9997774262677
  0
LINE
  5
B5B
330
1A
100
AcDbEntity
  8
NOKITOI
  6
PHANTOM
 62
     8
 48
5.0
100
AcDbLine
 10
481.5065558265124
 20
213.8929551403433
 30
0.0
 11
483.0850558265123
 21
201.2650551403433
 31
0.0
  0
ARC
  5
B5C
330
1A
100
AcDbEntity
  8
SEIHIN
  6
Continuous
 62
     3
 48
5.0
100
AcDbCircle
 10
483.2800948290929
 20
201.1649705813657
 30
0.0
 40
0.9999655445735273
100
AcDbArc
 50
187.0808493611077
 51
269.9977652397485
  0
ARC
  5
B5D
330
1A
100
AcDbEntity
  8
SEIHIN
  6
Continuous
 62
     2
100
AcDbCircle
 10
478.7744456402255
 20
194.8650140374719
 30
0.0
 40
1.000008999970893
100
AcDbArc
 50
187.0772755047256
 51
270.0005836259909
  0
ARC
  5
B5E
330
1A
100
AcDbEntity
  8
SEIHIN
  6
Continuous
 62
     3
 48
5.0
100
AcDbCircle
 10
478.7370456402255
 20
195.1650140374718
 30
0.0
 40
1.000008999970933
100
AcDbArc
 50
187.0772755047173
 51
270.0005836259844
  0
LINE
  5
B5F
330
1A
100
AcDbEntity
  8
SEIHIN
  6
Continuous
 62
     2
100
AcDbLine
 10
478.7744558265123
 20
191.8650050375529
 30
0.0
 11
483.7300558265122
 21
191.8650050375529
 31
0.0
  0
LINE
  5
B60
330
1A
100
AcDbEntity
  8
SEIHIN
  6
Continuous
 62
     2
100
AcDbLine
 10
478.7744558265123
 20
193.8650050375529
 30
0.0
 11
483.7300558265122
 21
193.8650050375529
 31
0.0
  0
ARC
  5
B61
330
1A
100
AcDbEntity
  8
SEIHIN
  6
Continuous
 62
     3
 48
5.0
100
AcDbCircle
 10
481.0715386638382
 20
198.6649201998229
 30
0.0
 40
1.000015162417397
100
AcDbArc
 50
187.0833609710186
 51
270.0009833338834
  0
ARC
  5
B62
330
1A
100
AcDbEntity
  8
SEIHIN
  6
Continuous
 62
     3
 48
5.0
100
AcDbCircle
 10
481.195794829093
 20
197.6649705813656
 30
0.0
 40
0.9999655445734587
100
AcDbArc
 50
187.0808493611029
 51
269.997765239742
  0
LINE
  5
B63
330
1A
100
AcDbEntity
  8
SEIHIN
  6
Continuous
 62
     3
 48
5.0
100
AcDbLine
 10
483.7784558265122
 20
210.2650050375528
 30
0.0
 11
481.1419558265124
 21
210.2650050375528
 31
0.0
  0
LINE
  5
B64
330
1A
100
AcDbEntity
  8
SEIHIN
  6
Continuous
 62
     2
100
AcDbLine
 10
481.6530558265122
 20
208.1652050375529
 30
0.0
 11
482.6505558265122
 21
208.1652050375529
 31
0.0
  0
ARC
  5
B65
330
1A
100
AcDbEntity
  8
SEIHIN
  6
Continuous
 62
     2
100
AcDbCircle
 10
483.1576386638382
 20
204.165220199823
 30
0.0
 40
1.000015162417397
100
AcDbArc
 50
187.0833609710186
 51
270.0009833338834
  0
LINE
  5
B66
330
1A
100
AcDbEntity
  8
SEIHIN
  6
Continuous
 62
     2
100
AcDbLine
 10
483.1576558265123
 20
203.1652050375529
 30
0.0
 11
483.6505558265124
 21
203.1652050375529
 31
0.0
  0
LINE
  5
B67
330
1A
100
AcDbEntity
  8
SEIHIN
  6
Continuous
 62
     2
100
AcDbLine
 10
482.1652558265122
 20
204.0419050375529
 30
0.0
 11
481.6530558265122
 21
208.1652050375529
 31
0.0
  0
LINE
  5
B68
330
1A
100
AcDbEntity
  8
NOKITOI
  6
PHANTOM
 62
     8
 48
5.0
100
AcDbLine
 10
501.7364558265124
 20
173.8457551403432
 30
0.0
 11
502.9955558265123
 21
164.8520551403432
 31
0.0
  0
ARC
  5
B69
330
1A
100
AcDbEntity
  8
NOKITOI
  6
PHANTOM
 62
     8
 48
5.0
100
AcDbCircle
 10
518.1148909950962
 20
183.0753178997767
 30
0.0
 40
18.7999459388005
100
AcDbArc
 50
209.402094483778
 51
242.4591529343756
  0
ARC
  5
B6A
330
1A
100
AcDbEntity
  8
NOKITOI
  6
PHANTOM
 62
     8
 48
5.0
100
AcDbCircle
 10
518.114919060069
 20
183.0753052066419
 30
0.0
 40
17.49998460705382
100
AcDbArc
 50
187.9696597232932
 51
244.6144785993157
  0
LINE
  5
B6B
330
1A
100
AcDbEntity
  8
SEIHIN
  6
Continuous
 62
     3
 48
5.0
100
AcDbLine
 10
501.6132558265123
 20
164.6661050375528
 30
0.0
 11
497.8341558265124
 21
191.5567050375529
 31
0.0
  0
LINE
  5
B6C
330
1A
100
AcDbEntity
  8
NOKITOI
  6
PHANTOM
 62
     8
 48
5.0
100
AcDbLine
 10
497.7909558265124
 20
192.6514551403433
 30
0.0
 11
501.7081558265124
 21
164.6717551403433
 31
0.0
  0
LINE
  5
B6D
330
1A
100
AcDbEntity
  8
SEIHIN
  6
Continuous
 62
     3
 48
5.0
100
AcDbLine
 10
496.6619558265124
 20
163.9703050375529
 30
0.0
 11
493.3257558265123
 21
187.7088050375529
 31
0.0
  0
LINE
  5
B6E
330
1A
100
AcDbEntity
  8
SEIHIN
  6
Continuous
 62
     3
 48
5.0
100
AcDbLine
 10
499.1376558265124
 20
164.3182050375528
 30
0.0
 11
495.3584558265123
 21
191.2087050375528
 31
0.0
  0
LINE
  5
B6F
330
1A
100
AcDbEntity
  8
SEIHIN
  6
Continuous
 62
     3
 48
5.0
100
AcDbLine
 10
495.8014558265124
 20
188.0567050375529
 30
0.0
 11
499.1376558265124
 21
164.3183050375529
 31
0.0
  0
ARC
  5
B70
330
1A
100
AcDbEntity
  8
NOKITOI
  6
PHANTOM
 62
     8
 48
5.0
100
AcDbCircle
 10
517.3144805658264
 20
141.5649336843563
 30
0.0
 40
2.99997854411512
100
AcDbArc
 50
188.1304401609562
 51
269.9995275105259
  0
LINE
  5
B71
330
1A
100
AcDbEntity
  8
SEIHIN
  6
Continuous
 62
     3
 48
5.0
100
AcDbLine
 10
513.2514558265125
 20
138.9820050375529
 30
0.0
 11
511.4967558265123
 21
151.2649050375528
 31
0.0
  0
LINE
  5
B72
330
1A
100
AcDbEntity
  8
NOKITOI
  6
PHANTOM
 62
     8
 48
5.0
100
AcDbLine
 10
511.5850558265122
 20
151.2649551403433
 30
0.0
 11
513.3397558265124
 21
138.9820551403432
 31
0.0
  0
LINE
  5
B73
330
1A
100
AcDbEntity
  8
SEIHIN
  6
Continuous
 62
     3
 48
5.0
100
AcDbLine
 10
506.8984558265125
 20
148.0970050375529
 30
0.0
 11
508.9149558265124
 21
133.9823050375529
 31
0.0
  0
LINE
  5
B74
330
1A
100
AcDbEntity
  8
SEIHIN
  6
Continuous
 62
     3
 48
5.0
100
AcDbLine
 10
509.2044558265124
 20
149.6327050375528
 30
0.0
 11
511.0832558265122
 21
136.4820050375528
 31
0.0
  0
LINE
  5
B75
330
1A
100
AcDbEntity
  8
SEIHIN
  6
Continuous
 62
     3
 48
5.0
100
AcDbLine
 10
509.2044558265124
 20
149.6329050375529
 30
0.0
 11
511.2058558265123
 21
135.6237050375528
 31
0.0
  0
LINE
  5
B76
330
1A
100
AcDbEntity
  8
NOKITOI
  6
PHANTOM
 62
     8
 48
5.0
100
AcDbLine
 10
514.3446558265125
 20
141.1406551403432
 30
0.0
 11
510.6125558265123
 21
167.2650551403433
 31
0.0
  0
ARC
  5
B77
330
1A
100
AcDbEntity
  8
SEIHIN
  6
Continuous
 62
     3
 48
5.0
100
AcDbCircle
 10
510.894858730597
 20
134.2651025187997
 30
0.0
 40
1.999997481248911
100
AcDbArc
 50
188.1288037280679
 51
269.9999168040013
  0
ARC
  5
B78
330
1A
100
AcDbEntity
  8
SEIHIN
  6
Continuous
 62
     3
 48
5.0
100
AcDbCircle
 10
513.0631505772976
 20
136.7649095900424
 30
0.0
 40
2.000004552496528
100
AcDbArc
 50
188.1318732947264
 51
270.0001503785795
  0
ARC
  5
B79
330
1A
100
AcDbEntity
  8
SEIHIN
  6
Continuous
 62
     3
 48
5.0
100
AcDbCircle
 10
512.1958287437246
 20
135.765128527001
 30
0.0
 40
1.00002348981494
100
AcDbArc
 50
188.130033553893
 51
270.0015516929775
  0
ARC
  5
B7A
330
1A
100
AcDbEntity
  8
SEIHIN
  6
Continuous
 62
     3
 48
5.0
100
AcDbCircle
 10
515.2313505772979
 20
139.2649095900425
 30
0.0
 40
2.000004552496578
100
AcDbArc
 50
188.1318732947256
 51
270.0001503785779
  0
ARC
  5
B7B
330
1A
100
AcDbEntity
  8
NOKITOI
  6
PHANTOM
 62
     8
 48
5.0
100
AcDbCircle
 10
515.3196505772978
 20
139.2649596928328
 30
0.0
 40
2.000004552496454
100
AcDbArc
 50
188.1318732947264
 51
270.0001503785779
  0
ARC
  5
B7C
330
1A
100
AcDbEntity
  8
SEIHIN
  6
Continuous
 62
     3
 48
5.0
100
AcDbCircle
 10
518.9430435398713
 20
167.1015861041238
 30
0.0
 40
17.4999759194678
100
AcDbArc
 50
187.9995210973329
 51
244.817148811315
  0
ARC
  5
B7D
330
1A
100
AcDbEntity
  8
SEIHIN
  6
Continuous
 62
     3
 48
5.0
100
AcDbCircle
 10
518.9430133975586
 20
167.1016210534331
 30
0.0
 40
19.99997591401694
100
AcDbArc
 50
187.9995873179355
 51
240.8611023743513
  0
ARC
  5
B7E
330
1A
100
AcDbEntity
  8
SEIHIN
  6
Continuous
 62
     3
 48
5.0
100
AcDbCircle
 10
518.9429579230653
 20
167.1017019791125
 30
0.0
 40
19.99993224163544
100
AcDbArc
 50
187.9998390144464
 51
240.8612145768117
  0
ARC
  5
B7F
330
1A
100
AcDbEntity
  8
NOKITOI
  6
PHANTOM
 62
     8
 48
5.0
100
AcDbCircle
 10
519.0391110962587
 20
167.0981158572001
 30
0.0
 40
17.49996433219532
100
AcDbArc
 50
187.9693736291693
 51
244.7893872175536
  0
ARC
  5
B80
330
1A
100
AcDbEntity
  8
SEIHIN
  6
Continuous
 62
     3
 48
5.0
100
AcDbCircle
 10
518.9429644583038
 20
167.1016916525398
 30
0.0
 40
22.49996225586078
100
AcDbArc
 50
187.9997353824235
 51
237.6349004013371
  0
LINE
  5
B81
330
1A
100
AcDbEntity
  8
NOKITOI
  6
PHANTOM
 62
     8
 48
5.0
100
AcDbLine
 10
509.4221558265124
 20
166.4057551403433
 30
0.0
 11
511.3610558265125
 21
152.8331551403433
 31
0.0
  0
ARC
  5
B82
330
1A
100
AcDbEntity
  8
NOKITOI
  6
PHANTOM
 62
     8
 48
5.0
100
AcDbCircle
 10
519.0390801766807
 20
167.0981638289258
 30
0.0
 40
16.19999005602697
100
AcDbArc
 50
187.9696639128037
 51
241.708836473141
  0
LINE
  5
B83
330
1A
100
AcDbEntity
  8
SEIHIN
  6
Continuous
 62
     3
 48
5.0
100
AcDbLine
 10
501.3685558265124
 20
191.5567050375529
 30
0.0
 11
502.4594558265124
 21
183.7587050375529
 31
0.0
  0
LINE
  5
B84
330
1A
100
AcDbEntity
  8
SEIHIN
  6
Continuous
 62
     3
 48
5.0
100
AcDbLine
 10
499.1467558265123
 20
191.5578050375529
 30
0.0
 11
500.2816558265122
 21
183.4470050375529
 31
0.0
  0
LINE
  5
B85
330
1A
100
AcDbEntity
  8
NOKITOI
  6
PHANTOM
 62
     8
 48
5.0
100
AcDbLine
 10
497.7157558265124
 20
202.5650551403433
 30
0.0
 11
500.7839558265125
 21
180.6489551403432
 31
0.0
  0
ARC
  5
B86
330
1A
100
AcDbEntity
  8
SEIHIN
  6
Continuous
 62
     3
 48
5.0
100
AcDbCircle
 10
485.898749976499
 20
186.6650101228896
 30
0.0
 40
7.499994914665469
100
AcDbArc
 50
7.999979673819295
 51
89.99995530916046
  0
ARC
  5
B87
330
1A
100
AcDbEntity
  8
SEIHIN
  6
Continuous
 62
     3
 48
5.0
100
AcDbCircle
 10
487.9313499764991
 20
190.1649101228896
 30
0.0
 40
7.499994914665517
100
AcDbArc
 50
7.999979673819295
 51
89.99995530916046
  0
ARC
  5
B88
330
1A
100
AcDbEntity
  8
SEIHIN
  6
Continuous
 62
     3
 48
5.0
100
AcDbCircle
 10
485.8987643443802
 20
186.6649976330582
 30
0.0
 40
10.00000740449819
100
AcDbArc
 50
7.999857461287665
 51
90.0000488037517
  0
ARC
  5
B89
330
1A
100
AcDbEntity
  8
SEIHIN
  6
Continuous
 62
     3
 48
5.0
100
AcDbCircle
 10
491.4658643441047
 20
190.1649976332232
 30
0.0
 40
10.00000740474807
100
AcDbArc
 50
7.999857460131575
 51
89.99947584480182
  0
ARC
  5
B8A
330
1A
100
AcDbEntity
  8
SEIHIN
  6
Continuous
 62
     3
 48
5.0
100
AcDbCircle
 10
489.2441305022812
 20
190.1650270496045
 30
0.0
 40
9.999977988733626
100
AcDbArc
 50
8.005496882079775
 51
89.9992819434673
  0
LINE
  5
B8B
330
1A
100
AcDbEntity
  8
SEIHIN
  6
Continuous
 62
     3
 48
5.0
100
AcDbLine
 10
489.4504558265124
 20
200.1650050375528
 30
0.0
 11
488.7403558265124
 21
205.8813050375529
 31
0.0
  0
ARC
  5
B8C
330
1A
100
AcDbEntity
  8
NOKITOI
  6
PHANTOM
 62
     8
 48
5.0
100
AcDbCircle
 10
490.0850558265123
 20
204.5650551403433
 30
0.0
 40
2.0
100
AcDbArc
 50
180.0
 51
270.0
  0
ARC
  5
B8D
330
1A
100
AcDbEntity
  8
NOKITOI
  6
PHANTOM
 62
     8
 48
5.0
100
AcDbCircle
 10
487.88753963005
 20
191.265069227363
 30
0.0
 40
9.999985912993367
100
AcDbArc
 50
7.969086351824364
 51
89.9999072009758
  0
ARC
  5
B8E
330
1A
100
AcDbEntity
  8
SEIHIN
  6
Continuous
 62
     3
 48
5.0
100
AcDbCircle
 10
487.9314723496273
 20
190.1648906743235
 30
0.0
 40
10.00001436324301
100
AcDbArc
 50
8.000470708319213
 51
90.00009467033759
  0
LINE
  5
B8F
330
1A
100
AcDbEntity
  8
NOKITOI
  6
PHANTOM
 62
     8
 48
5.0
100
AcDbLine
 10
497.7157558265124
 20
202.5650551403433
 30
0.0
 11
490.0850558265123
 21
202.5650551403433
 31
0.0
  0
LINE
  5
B90
330
1A
100
AcDbEntity
  8
NOKITOI
  6
PHANTOM
 62
     8
 48
5.0
100
AcDbLine
 10
486.7850558265124
 20
202.5650551403433
 30
0.0
 11
484.2326558265124
 21
202.5650551403433
 31
0.0
  0
LINE
  5
B91
330
1A
100
AcDbEntity
  8
NOKITOI
  6
PHANTOM
 62
     8
 48
5.0
100
AcDbLine
 10
493.1496558265124
 20
201.2650551403433
 30
0.0
 11
496.5850558265123
 21
201.2650551403433
 31
0.0
  0
LINE
  5
B92
330
1A
100
AcDbEntity
  8
NOKITOI
  6
PHANTOM
 62
     8
 48
5.0
100
AcDbLine
 10
496.5850558265123
 20
201.2650551403433
 30
0.0
 11
497.0613558265124
 21
197.8627551403431
 31
0.0
  0
ARC
  5
B93
330
1A
100
AcDbEntity
  8
NOKITOI
  6
PHANTOM
 62
     8
 48
5.0
100
AcDbCircle
 10
487.8805497080332
 20
191.3158605134255
 30
0.0
 40
11.30001845330598
100
AcDbArc
 50
35.72477995922383
 51
61.6976929906937
  0
LINE
  5
B94
330
1A
100
AcDbEntity
  8
NOKITOI
  6
PHANTOM
 62
     8
 48
5.0
100
AcDbLine
 10
493.0850558265124
 20
214.2650551403433
 30
0.0
 11
488.5850558265123
 21
214.2650551403433
 31
0.0
  0
ARC
  5
B95
330
1A
100
AcDbEntity
  8
NOKITOI
  6
PHANTOM
 62
     8
 48
5.0
100
AcDbCircle
 10
491.7850558265124
 20
210.9650551403432
 30
0.0
 40
2.0
100
AcDbArc
 50
0.0
 51
90.0
  0
LINE
  5
B96
330
1A
100
AcDbEntity
  8
NOKITOI
  6
PHANTOM
 62
     8
 48
5.0
100
AcDbLine
 10
491.7850558265124
 20
212.9650551403432
 30
0.0
 11
490.0850558265123
 21
212.9650551403432
 31
0.0
  0
ARC
  5
B97
330
1A
100
AcDbEntity
  8
NOKITOI
  6
PHANTOM
 62
     8
 48
5.0
100
AcDbCircle
 10
490.0850558265123
 20
210.9650551403432
 30
0.0
 40
2.0
100
AcDbArc
 50
90.0
 51
180.0
  0
LINE
  5
B98
330
1A
100
AcDbEntity
  8
NOKITOI
  6
PHANTOM
 62
     8
 48
5.0
100
AcDbLine
 10
488.0850558265123
 20
210.9650551403432
 30
0.0
 11
488.0850558265123
 21
204.5650551403433
 31
0.0
  0
LINE
  5
B99
330
1A
100
AcDbEntity
  8
NOKITOI
  6
PHANTOM
 62
     8
 48
5.0
100
AcDbLine
 10
493.7850558265124
 20
207.5650551403433
 30
0.0
 11
495.0850558265124
 21
207.5650551403433
 31
0.0
  0
LINE
  5
B9A
330
1A
100
AcDbEntity
  8
NOKITOI
  6
PHANTOM
 62
     8
 48
5.0
100
AcDbLine
 10
493.7850558265124
 20
210.1651551403432
 30
0.0
 11
493.7850558265124
 21
210.9650551403432
 31
0.0
  0
ARC
  5
B9B
330
1A
100
AcDbEntity
  8
NOKITOI
  6
PHANTOM
 62
     8
 48
5.0
100
AcDbCircle
 10
493.7850558265124
 20
208.8651551403433
 30
0.0
 40
1.300000000000011
100
AcDbArc
 50
90.0
 51
270.0
  0
LINE
  5
B9C
330
1A
100
AcDbEntity
  8
NOKITOI
  6
PHANTOM
 62
     8
 48
5.0
100
AcDbLine
 10
495.0850558265124
 20
212.2650551403433
 30
0.0
 11
495.0850558265124
 21
207.5650551403433
 31
0.0
  0
LINE
  5
B9D
330
1A
100
AcDbEntity
  8
SEIHIN
  6
Continuous
 62
     3
 48
5.0
100
AcDbLine
 10
481.5285558265123
 20
216.2650050375528
 30
0.0
 11
488.2966558265124
 21
216.2650050375528
 31
0.0
  0
ARC
  5
B9E
330
1A
100
AcDbEntity
  8
SEIHIN
  6
Continuous
 62
     2
100
AcDbCircle
 10
481.650555773179
 20
217.7647050909004
 30
0.0
 40
3.000000053333396
100
AcDbArc
 50
359.9999989811355
 51
89.98472010696015
  0
LINE
  5
B9F
330
1A
100
AcDbEntity
  8
SEIHIN
  6
Continuous
 62
     3
 48
5.0
100
AcDbLine
 10
477.5668558265124
 20
218.7657050375529
 30
0.0
 11
488.4228558265123
 21
218.7628050375529
 31
0.0
  0
LEADER
  5
BA0
330
1A
100
AcDbEntity
  8
SUNPOU
 62
     4
100
AcDbLeader
  3
STANDARD
 74
     0
 40
6.0
 41
33.99999999999999
 76
     3
 10
481.6514558265124
 20
220.7647050375529
 30
0.0
 10
492.7993380162605
 20
235.5395445038381
 30
0.0
 10
495.1162695672577
 20
235.5395445038381
 30
0.0
1001
ACAD
1000
DSTYLE
1002
{
1070
     6
1000
OPEN
1070
    41
1040
7.0
1070
    42
1040
6.0
1070
    43
1040
14.0
1070
    44
1040
3.0
1070
    73
1070
     0
1070
    74
1070
     0
1070
    77
1070
     3
1070
   140
1040
6.0
1070
   141
1040
150.0
1070
   147
1040
2.0
1070
   172
1070
     1
1070
   173
1070
     1
1070
   176
1070
     4
1070
   177
1070
     4
1070
   178
1070
     4
1070
   271
1070
     0
1070
   272
1070
     2
1070
   341
1005
6D
1070
   343
1005
6D
1070
   344
1005
6D
1002
}
  0
ARC
  5
BA1
330
1A
100
AcDbEntity
  8
SEIHIN
  6
Continuous
 62
     3
 48
5.0
100
AcDbCircle
 10
477.6273819503642
 20
216.265735337541
 30
0.0
 40
2.500000069968219
100
AcDbArc
 50
91.38499958642683
 51
187.0821383459919
  0
ARC
  5
BA2
330
1A
100
AcDbEntity
  8
SEIHIN
  6
Continuous
 62
     2
100
AcDbCircle
 10
475.9295424508672
 20
217.7661899017949
 30
0.0
 40
1.000015184859433
100
AcDbArc
 50
89.98204517048485
 51
187.081611540957
  0
ARC
  5
BA3
330
1A
100
AcDbEntity
  8
SEIHIN
  6
Continuous
 62
     2
100
AcDbCircle
 10
475.9295595238398
 20
217.7662092215728
 30
0.0
 40
2.999995921663256
100
AcDbArc
 50
89.98479171836229
 51
187.0826837088338
  0
ARC
  5
BA4
330
1A
100
AcDbEntity
  8
SEIHIN
  6
Continuous
 62
     2
100
AcDbCircle
 10
481.6505558040122
 20
217.7647050600596
 30
0.0
 40
1.000000022500018
100
AcDbArc
 50
359.999998710454
 51
89.9828099771175
  0
ARC
  5
BA5
330
1A
100
AcDbEntity
  8
SEIHIN
  6
Continuous
 62
     3
 48
5.0
100
AcDbCircle
 10
480.3966689410931
 20
216.265019877969
 30
0.0
 40
2.499985253946782
100
AcDbArc
 50
89.98425765273737
 51
187.0818234996698
  0
LINE
  5
BA6
330
1A
100
AcDbEntity
  8
SEIHIN
  6
Continuous
 62
     2
100
AcDbLine
 10
475.9303558265124
 20
220.7662050375529
 30
0.0
 11
481.6514558265124
 21
220.7647050375529
 31
0.0
  0
LINE
  5
BA7
330
1A
100
AcDbEntity
  8
SEIHIN
  6
Continuous
 62
     2
100
AcDbLine
 10
475.9298558265123
 20
218.7662050375529
 30
0.0
 11
481.6508558265123
 21
218.7647050375529
 31
0.0
  0
ARC
  5
BA8
330
1A
100
AcDbEntity
  8
SEIHIN
  6
Continuous
 62
     3
 48
5.0
100
AcDbCircle
 10
481.5285424314882
 20
215.2649898752828
 30
0.0
 40
1.000015162359754
100
AcDbArc
 50
89.99923253328954
 51
187.0816101704246
  0
MTEXT
  5
BA9
330
1A
100
AcDbEntity
  8
SUNPOU
 62
     4
100
AcDbMText
 10
497.1162695672577
 20
237.5395445038381
 30
0.0
 40
6.0
 41
0.0
 71
     7
 72
     5
  1
ストッパー
 73
     1
 44
1.0
  0
ARC
  5
BAA
330
1A
100
AcDbEntity
  8
SEIHIN
  6
Continuous
 62
     3
 48
5.0
100
AcDbCircle
 10
491.2966558265124
 20
218.7650050375528
 30
0.0
 40
1.500000000000028
100
AcDbArc
 50
0.0000000000032569
 51
90.00000000000325
  0
ARC
  5
BAB
330
1A
100
AcDbEntity
  8
SEIHIN
  6
Continuous
 62
     3
 48
5.0
100
AcDbCircle
 10
488.0245836212501
 20
220.257526656558
 30
0.0
 40
5.000029391457033
100
AcDbArc
 50
273.1192400746484
 51
342.6323138628172
  0
LINE
  5
BAC
330
1A
100
AcDbEntity
  8
SEIHIN
  6
Continuous
 62
     3
 48
5.0
100
AcDbLine
 10
488.2966558265124
 20
216.2650050375528
 30
0.0
 11
488.2966558265124
 21
215.2650050375528
 31
0.0
  0
LINE
  5
BAD
330
1A
100
AcDbEntity
  8
NOKITOI
  6
PHANTOM
 62
     8
 48
5.0
100
AcDbLine
 10
484.4834558265124
 20
217.2650551403433
 30
0.0
 11
488.0850558265123
 21
217.2650551403433
 31
0.0
  0
LINE
  5
BAE
330
1A
100
AcDbEntity
  8
NOKITOI
  6
PHANTOM
 62
     8
 48
5.0
100
AcDbLine
 10
484.8232558265124
 20
215.9650551403432
 30
0.0
 11
486.7850558265124
 21
215.9650551403432
 31
0.0
  0
LINE
  5
BAF
330
1A
100
AcDbEntity
  8
NOKITOI
  6
PHANTOM
 62
     8
 48
5.0
100
AcDbLine
 10
488.0850558265123
 20
217.2650551403433
 30
0.0
 11
488.0850558265123
 21
214.7650551403433
 31
0.0
  0
ARC
  5
BB0
330
1A
100
AcDbEntity
  8
SEIHIN
  6
Continuous
 62
     3
 48
5.0
100
AcDbCircle
 10
488.4228691001749
 20
222.2628116740033
 30
0.0
 40
3.499983072118823
100
AcDbArc
 50
267.9334025402174
 51
325.1936439982899
  0
ARC
  5
BB1
330
1A
100
AcDbEntity
  8
SEIHIN
  6
Continuous
 62
     3
 48
5.0
100
AcDbCircle
 10
614.2269558265123
 20
196.7651050375529
 30
0.0
 40
2.5
100
AcDbArc
 50
0.0
 51
90.0
  0
ARC
  5
BB2
330
1A
100
AcDbEntity
  8
SEIHIN
  6
Continuous
 62
     3
 48
5.0
100
AcDbCircle
 10
613.2268558265123
 20
176.1649050375528
 30
0.0
 40
3.499999999999986
100
AcDbArc
 50
270.0000000000017
 51
0.0000000000016284
  0
DIMENSION
  5
BB3
330
1A
100
AcDbEntity
  8
SUNPOU
 48
5.0
100
AcDbDimension
  2
*D10
 10
647.293089875421
 20
132.2650050375529
 30
0.0
 11
642.293089875421
 21
165.765055037553
 31
0.0
 70
    32
 71
     5
 42
67.0001
  3
STANDARD
100
AcDbAlignedDimension
 13
614.2269558265123
 23
199.2651050375529
 33
0.0
 14
605.8637558265123
 24
132.2650050375529
 34
0.0
 50
90.0
100
AcDbRotatedDimension
1001
ACAD
1000
DSTYLE
1002
{
1070
   140
1040
6.0
1070
    74
1070
     0
1070
   172
1070
     1
1070
    73
1070
     0
1070
   272
1070
     2
1070
    77
1070
     3
1070
   173
1070
     1
1070
   147
1040
2.0
1070
    42
1040
6.0
1070
    44
1040
3.0
1070
    43
1040
14.0
1070
   271
1070
     0
1070
   178
1070
     4
1070
   177
1070
     4
1070
   176
1070
     4
1070
   141
1040
150.0
1070
     7
1000
_OPEN
1070
     6
1000
_OPEN
1070
    41
1040
7.0
1002
}
  0
LINE
  5
BB4
330
1A
100
AcDbEntity
  8
SEIHIN
  6
Continuous
 62
     3
 48
5.0
100
AcDbLine
 10
607.2226558265124
 20
175.2104050375528
 30
0.0
 11
605.4726558265124
 21
136.6742050375528
 31
0.0
  0
LINE
  5
BB5
330
1A
100
AcDbEntity
  8
SEIHIN
  6
Continuous
 62
     3
 48
5.0
100
AcDbLine
 10
603.0835558265123
 20
139.1742050375528
 30
0.0
 11
604.8335558265123
 21
177.7104050375529
 31
0.0
  0
LINE
  5
BB6
330
1A
100
AcDbEntity
  8
SEIHIN
  6
Continuous
 62
     3
 48
5.0
100
AcDbLine
 10
607.8617558265125
 20
134.1743050375528
 30
0.0
 11
609.5662558265124
 21
171.7103050375528
 31
0.0
  0
LINE
  5
BB7
330
1A
100
AcDbEntity
  8
SEIHIN
  6
Continuous
 62
     3
 48
5.0
100
AcDbLine
 10
605.4292558265124
 20
135.7197050375529
 30
0.0
 11
607.0688558265124
 21
171.8238050375529
 31
0.0
  0
LINE
  5
BB8
330
1A
100
AcDbEntity
  8
NOKITOI
  6
PHANTOM
 62
     8
 48
5.0
100
AcDbLine
 10
604.4893558265123
 20
196.7877551403433
 30
0.0
 11
601.9729558265121
 21
141.4287551403432
 31
0.0
  0
LINE
  5
BB9
330
1A
100
AcDbEntity
  8
NOKITOI
  6
PHANTOM
 62
     8
 48
5.0
100
AcDbLine
 10
605.0850558265122
 20
181.2650551403432
 30
0.0
 11
603.1718558265125
 21
139.1741551403433
 31
0.0
  0
LINE
  5
BBA
330
1A
100
AcDbEntity
  8
CENTER L
  6
CENTER
 62
     1
 48
5.0
100
AcDbLine
 10
558.2467558265123
 20
125.1883050375529
 30
0.0
 11
558.2467558265123
 21
150.7890841142016
 31
0.0
  0
ARC
  5
BBB
330
1A
100
AcDbEntity
  8
SEIHIN
  6
Continuous
 62
     3
 48
5.0
100
AcDbCircle
 10
605.8637337074151
 20
134.2649838998295
 30
0.0
 40
1.999978862398964
100
AcDbArc
 50
270.0006336721574
 51
357.4013236225621
  0
ARC
  5
BBC
330
1A
100
AcDbEntity
  8
NOKITOI
  6
PHANTOM
 62
     8
 48
5.0
100
AcDbCircle
 10
598.9760523426048
 20
141.5649518111729
 30
0.0
 40
2.999996670831683
100
AcDbArc
 50
270.0000665378032
 51
357.3979379474862
  0
ARC
  5
BBD
330
1A
100
AcDbEntity
  8
SEIHIN
  6
Continuous
 62
     3
 48
5.0
100
AcDbCircle
 10
603.4747360805579
 20
136.7649861686249
 30
0.0
 40
1.999981131169553
100
AcDbArc
 50
270.0005656852621
 51
357.3983937402269
  0
ARC
  5
BBE
330
1A
100
AcDbEntity
  8
SEIHIN
  6
Continuous
 62
     3
 48
5.0
100
AcDbCircle
 10
604.430317449204
 20
135.7649683612077
 30
0.0
 40
0.9999633243913461
100
AcDbArc
 50
270.0021989384439
 51
357.4056210097738
  0
ARC
  5
BBF
330
1A
100
AcDbEntity
  8
SEIHIN
  6
Continuous
 62
     3
 48
5.0
100
AcDbCircle
 10
601.0856360805578
 20
139.2649861686247
 30
0.0
 40
1.999981131169439
100
AcDbArc
 50
270.0005656852654
 51
357.3983937402302
  0
ARC
  5
BC0
330
1A
100
AcDbEntity
  8
NOKITOI
  6
PHANTOM
 62
     8
 48
5.0
100
AcDbCircle
 10
601.1738883505293
 20
139.2649862198603
 30
0.0
 40
2.000031079781521
100
AcDbArc
 50
269.999068270025
 51
357.3970263848195
  0
LINE
  5
BC1
330
1A
100
AcDbEntity
  8
SEIHIN
  6
Continuous
 62
     3
 48
5.0
100
AcDbLine
 10
613.9769558265123
 20
199.2651050375529
 30
0.0
 11
613.9768558265123
 21
176.1650050375528
 31
0.0
  0
LINE
  5
BC2
330
1A
100
AcDbEntity
  8
SEIHIN
  6
Continuous
 62
     3
 48
5.0
100
AcDbLine
 10
613.9768558265123
 20
196.7651050375529
 30
0.0
 11
613.9768558265123
 21
179.6650050375528
 31
0.0
  0
LINE
  5
BC3
330
1A
100
AcDbEntity
  8
SEIHIN
  6
Continuous
 62
     3
 48
5.0
100
AcDbLine
 10
611.4768558265125
 20
179.6650050375528
 30
0.0
 11
611.4768558265125
 21
195.7650050375528
 31
0.0
  0
LINE
  5
BC4
330
1A
100
AcDbEntity
  8
NOKITOI
  6
PHANTOM
 62
     8
 48
5.0
100
AcDbLine
 10
611.0850558265124
 20
195.2650551403433
 30
0.0
 11
611.0850558265124
 21
180.6481551403433
 31
0.0
  0
LINE
  5
BC5
330
1A
100
AcDbEntity
  8
NOKITOI
  6
PHANTOM
 62
     8
 48
5.0
100
AcDbLine
 10
605.7532558265123
 20
195.9650551403431
 30
0.0
 11
605.1441558265121
 21
182.5650551403433
 31
0.0
  0
LINE
  5
BC6
330
1A
100
AcDbEntity
  8
NOKITOI
  6
PHANTOM
 62
     8
 48
5.0
100
AcDbLine
 10
609.7850558265125
 20
182.5650551403433
 30
0.0
 11
609.7850558265125
 21
194.5476551403433
 31
0.0
  0
LINE
  5
BC7
330
1A
100
AcDbEntity
  8
SEIHIN
  6
Continuous
 62
     3
 48
5.0
100
AcDbLine
 10
606.7200558265124
 20
176.1650050375528
 30
0.0
 11
610.4768558265123
 21
176.1650050375528
 31
0.0
  0
ARC
  5
BC8
330
1A
100
AcDbEntity
  8
SEIHIN
  6
Continuous
 62
     3
 48
5.0
100
AcDbCircle
 10
608.2215918345917
 20
175.1650394462369
 30
0.0
 40
0.9999655919642689
100
AcDbArc
 50
90.00206318196261
 51
177.3997611640993
  0
LINE
  5
BC9
330
1A
100
AcDbEntity
  8
SEIHIN
  6
Continuous
 62
     3
 48
5.0
100
AcDbLine
 10
610.4768558265123
 20
178.6650050375528
 30
0.0
 11
603.0629558265123
 21
178.6650050375528
 31
0.0
  0
ARC
  5
BCA
330
1A
100
AcDbEntity
  8
SEIHIN
  6
Continuous
 62
     3
 48
5.0
100
AcDbCircle
 10
610.5652535542245
 20
171.6650028661257
 30
0.0
 40
3.500002171427858
100
AcDbArc
 50
89.99996280216378
 51
177.3994819309449
  0
ARC
  5
BCB
330
1A
100
AcDbEntity
  8
SEIHIN
  6
Continuous
 62
     3
 48
5.0
100
AcDbCircle
 10
605.8324918345916
 20
177.6650394462368
 30
0.0
 40
0.9999655919642831
100
AcDbArc
 50
90.0020631819561
 51
177.3997611640936
  0
ARC
  5
BCC
330
1A
100
AcDbEntity
  8
SEIHIN
  6
Continuous
 62
     3
 48
5.0
100
AcDbCircle
 10
603.0629642972413
 20
175.1650113161355
 30
0.0
 40
3.499993721427562
100
AcDbArc
 50
90.00013866796807
 51
163.0925082913426
  0
ARC
  5
BCD
330
1A
100
AcDbEntity
  8
SEIHIN
  6
Continuous
 62
     3
 48
5.0
100
AcDbCircle
 10
605.3582005905173
 20
175.1650386343039
 30
0.0
 40
3.499966403535181
100
AcDbArc
 50
90.0007328037639
 51
163.779424494356
  0
ARC
  5
BCE
330
1A
100
AcDbEntity
  8
SEIHIN
  6
Continuous
 62
     3
 48
5.0
100
AcDbCircle
 10
612.9768558265123
 20
176.1650050375527
 30
0.0
 40
0.9999999999999432
100
AcDbArc
 50
270.0000000000032
 51
0.0000000000032569
  0
ARC
  5
BCF
330
1A
100
AcDbEntity
  8
SEIHIN
  6
Continuous
 62
     3
 48
5.0
100
AcDbCircle
 10
610.5652395645038
 20
171.6649894977943
 30
0.0
 40
1.000015539890796
100
AcDbArc
 50
89.99906827002496
 51
177.3970263848204
  0
ARC
  5
BD0
330
1A
100
AcDbEntity
  8
SEIHIN
  6
Continuous
 62
     3
 48
5.0
100
AcDbCircle
 10
610.4768558265123
 20
179.6650050375529
 30
0.0
 40
1.000000000000057
100
AcDbArc
 50
269.9999999999968
 51
359.9999999999968
  0
ARC
  5
BD1
330
1A
100
AcDbEntity
  8
SEIHIN
  6
Continuous
 62
     3
 48
5.0
100
AcDbCircle
 10
610.4768558265123
 20
179.6650050375528
 30
0.0
 40
3.5
100
AcDbArc
 50
270.0
 51
0.0
  0
LINE
  5
BD2
330
1A
100
AcDbEntity
  8
SEIHIN
  6
Continuous
 62
     3
 48
5.0
100
AcDbLine
 10
613.2268558265125
 20
172.6650050375529
 30
0.0
 11
610.5652558265124
 21
172.6650050375529
 31
0.0
  0
LINE
  5
BD3
330
1A
100
AcDbEntity
  8
SEIHIN
  6
Continuous
 62
     3
 48
5.0
100
AcDbLine
 10
612.9768558265125
 20
175.1650050375528
 30
0.0
 11
610.5652558265124
 21
175.1650050375528
 31
0.0
  0
LINE
  5
BD4
330
1A
100
AcDbEntity
  8
NOKITOI
  6
PHANTOM
 62
     8
 48
5.0
100
AcDbLine
 10
605.1441558265121
 20
182.5650551403433
 30
0.0
 11
609.7850558265125
 21
182.5650551403433
 31
0.0
  0
LINE
  5
BD5
330
1A
100
AcDbEntity
  8
NOKITOI
  6
PHANTOM
 62
     8
 48
5.0
100
AcDbLine
 10
605.0850558265122
 20
181.2650551403432
 30
0.0
 11
608.5850558265122
 21
181.2650551403432
 31
0.0
  0
LINE
  5
BD6
330
1A
100
AcDbEntity
  8
NOKITOI
  6
PHANTOM
 62
     8
 48
5.0
100
AcDbLine
 10
608.5850558265122
 20
181.2650551403432
 30
0.0
 11
610.3278558265124
 21
180.2193551403432
 31
0.0
  0
ARC
  5
BD7
330
1A
100
AcDbEntity
  8
NOKITOI
  6
PHANTOM
 62
     8
 48
5.0
100
AcDbCircle
 10
610.5850451867389
 20
180.648149115242
 30
0.0
 40
0.500010639809949
100
AcDbArc
 50
239.0447944605788
 51
0.0006904110642984
  0
ARC
  5
BD8
330
1A
100
AcDbEntity
  8
SEIHIN
  6
Continuous
 62
     3
 48
5.0
100
AcDbCircle
 10
609.3154026885097
 20
194.2650751764143
 30
0.0
 40
8.000029861314978
100
AcDbArc
 50
89.99961942850982
 51
148.6676283219878
  0
LINE
  5
BD9
330
1A
100
AcDbEntity
  8
SEIHIN
  6
Continuous
 62
     3
 48
5.0
100
AcDbLine
 10
603.9768558265125
 20
196.7651050375529
 30
0.0
 11
610.4768558265123
 21
196.7650050375528
 31
0.0
  0
LINE
  5
BDA
330
1A
100
AcDbEntity
  8
NOKITOI
  6
PHANTOM
 62
     8
 48
5.0
100
AcDbLine
 10
604.9887558265123
 20
197.2650551403433
 30
0.0
 11
607.9110558265124
 21
197.2650551403433
 31
0.0
  0
LINE
  5
BDB
330
1A
100
AcDbEntity
  8
NOKITOI
  6
PHANTOM
 62
     8
 48
5.0
100
AcDbLine
 10
607.5355558265123
 20
195.9650551403431
 30
0.0
 11
605.7532558265123
 21
195.9650551403431
 31
0.0
  0
LINE
  5
BDC
330
1A
100
AcDbEntity
  8
SEIHIN
  6
Continuous
 62
     3
 48
5.0
100
AcDbLine
 10
613.9769558265123
 20
199.2651050375529
 30
0.0
 11
603.9768558265125
 21
199.2651050375529
 31
0.0
  0
LINE
  5
BDD
330
1A
100
AcDbEntity
  8
SEIHIN
  6
Continuous
 62
     3
 48
5.0
100
AcDbLine
 10
603.9768558265125
 20
195.7651050375529
 30
0.0
 11
603.9768558265125
 21
196.7651050375529
 31
0.0
  0
ARC
  5
BDE
330
1A
100
AcDbEntity
  8
NOKITOI
  6
PHANTOM
 62
     8
 48
5.0
100
AcDbCircle
 10
604.988747695508
 20
196.765047370464
 30
0.0
 40
0.5000077699453767
100
AcDbArc
 50
89.99906827002333
 51
177.3970263848195
  0
ARC
  5
BDF
330
1A
100
AcDbEntity
  8
SEIHIN
  6
Continuous
 62
     3
 48
5.0
100
AcDbCircle
 10
603.9768558265125
 20
197.5151050375529
 30
0.0
 40
1.75
100
AcDbArc
 50
90.0
 51
270.0
  0
LINE
  5
BE0
330
1A
100
AcDbEntity
  8
SEIHIN
  6
Continuous
 62
     3
 48
5.0
100
AcDbLine
 10
613.9769558265123
 20
199.2651050375529
 30
0.0
 11
614.2269558265123
 21
199.2651050375529
 31
0.0
  0
LINE
  5
BE1
330
1A
100
AcDbEntity
  8
SEIHIN
  6
Continuous
 62
     3
 48
5.0
100
AcDbLine
 10
609.3154558265126
 20
202.2651050375528
 30
0.0
 11
610.4769558265123
 21
202.2651050375528
 31
0.0
  0
LINE
  5
BE2
330
1A
100
AcDbEntity
  8
SEIHIN
  6
Continuous
 62
     3
 48
5.0
100
AcDbLine
 10
611.4769558265123
 20
199.2651050375529
 30
0.0
 11
611.4769558265123
 21
201.2651050375529
 31
0.0
  0
LINE
  5
BE3
330
1A
100
AcDbEntity
  8
NOKITOI
  6
PHANTOM
 62
     8
 48
5.0
100
AcDbLine
 10
607.9110558265124
 20
197.2650551403433
 30
0.0
 11
611.0850558265124
 21
195.2650551403433
 31
0.0
  0
LINE
  5
BE4
330
1A
100
AcDbEntity
  8
NOKITOI
  6
PHANTOM
 62
     8
 48
5.0
100
AcDbLine
 10
609.7850558265125
 20
194.5476551403433
 30
0.0
 11
607.5355558265123
 21
195.9650551403431
 31
0.0
  0
ARC
  5
BE5
330
1A
100
AcDbEntity
  8
SEIHIN
  6
Continuous
 62
     3
 48
5.0
100
AcDbCircle
 10
610.4769558265123
 20
201.2651050375528
 30
0.0
 40
1.0
100
AcDbArc
 50
0.0000000000016284
 51
90.0
  0
ARC
  5
BE6
330
1A
100
AcDbEntity
  8
SEIHIN
  6
Continuous
 62
     3
 48
5.0
100
AcDbCircle
 10
610.4768558265123
 20
195.7650050375528
 30
0.0
 40
1.000000000000057
100
AcDbArc
 50
0.0000000000032569
 51
90.00000000000325
  0
ARC
  5
BE7
330
1A
100
AcDbEntity
  8
SEIHIN
  6
Continuous
 62
     3
 48
5.0
100
AcDbCircle
 10
611.4768558265123
 20
196.7651050375529
 30
0.0
 40
2.499999999999943
100
AcDbArc
 50
359.9999999999984
 51
89.99999999999837
  0
LINE
  5
BE8
330
1A
100
AcDbEntity
  8
SEIHIN
  6
Continuous
 62
     3
 48
5.0
100
AcDbLine
 10
616.7268558265123
 20
176.1649050375529
 30
0.0
 11
616.7269558265123
 21
196.7651050375529
 31
0.0
  0
VIEWPORT
  5
22
330
17
100
AcDbEntity
 67
     1
  8
0
100
AcDbViewport
 10
313.6808219178083
 20
148.5
 30
0.0
 40
627.3616438356165
 41
297.0
 68
     2
 69
     1
 12
313.6808219178083
 22
148.5
 13
0.0
 23
0.0
 14
1.0
 24
1.0
 15
10.0
 25
10.0
 16
0.0
 26
0.0
 36
1.0
 17
0.0
 27
0.0
 37
0.0
 42
50.0
 43
0.0
 44
0.0
 45
297.0
 50
0.0
 51
0.0
 72
   100
 90
    32768
  1

281
     0
 71
     1
 74
     0
110
0.0
120
0.0
130
0.0
111
1.0
121
0.0
131
0.0
112
0.0
122
1.0
132
0.0
 79
     0
146
0.0
  0
VIEWPORT
  5
64
330
17
100
AcDbEntity
 67
     1
  8
VIEWPORT
100
AcDbViewport
 10
210.0
 20
148.5
 30
0.0
 40
420.0
 41
297.0
 68
     1
 69
     2
 12
420.0
 22
297.0
 13
0.0
 23
0.0
 14
10.0
 24
10.0
 15
0.0
 25
0.0
 16
0.0
 26
0.0
 36
1.0
 17
0.0
 27
0.0
 37
0.0
 42
50.0
 43
0.0
 44
0.0
 45
605.8799999999999
 50
0.0
 51
0.0
 72
   100
 90
    32768
  1

281
     0
 71
     1
 74
     0
110
0.0
120
0.0
130
0.0
111
1.0
121
0.0
131
0.0
112
0.0
122
1.0
132
0.0
 79
     0
146
0.0
  0
ENDSEC
  0
SECTION
  2
OBJECTS
  0
DICTIONARY
  5
C
330
0
100
AcDbDictionary
281
     1
  3
ACAD_GROUP
350
D
  3
ACAD_LAYOUT
350
4BC
  3
ACAD_MLINESTYLE
350
E
  3
ACAD_PLOTSETTINGS
350
4BD
  3
ACAD_PLOTSTYLENAME
350
4BA
  0
DICTIONARY
  5
D
102
{ACAD_REACTORS
330
C
102
}
330
C
100
AcDbDictionary
281
     1
  0
DICTIONARY
  5
4BC
102
{ACAD_REACTORS
330
C
102
}
330
C
100
AcDbDictionary
281
     1
  3
Model
350
4BE
  3
ﾚｲｱｳﾄ1
350
4BF
  0
DICTIONARY
  5
E
102
{ACAD_REACTORS
330
C
102
}
330
C
100
AcDbDictionary
281
     1
  3
STANDARD
350
13
  0
DICTIONARY
  5
4BD
102
{ACAD_REACTORS
330
C
102
}
330
C
100
AcDbDictionary
281
     1
  0
ACDBDICTIONARYWDFLT
  5
4BA
102
{ACAD_REACTORS
330
C
102
}
330
C
100
AcDbDictionary
281
     1
  3
Normal
350
4BB
100
AcDbDictionaryWithDefault
340
4BB
1001
ACAD
1000
TREAT_AS_HARD
1070
     0
1000
TREAT_AS_HARD
1070
     0
1000
TREAT_AS_HARD
1070
     0
1000
TREAT_AS_HARD
1070
     0
  0
LAYOUT
  5
4BE
102
{ACAD_REACTORS
330
4BC
102
}
330
4BC
100
AcDbPlotSettings
  1

  2
Canon LASER SHOT LBP-2360
  4
A3
  6

 40
5.873749732971191
 41
5.873747825622559
 42
5.873748779296875
 43
5.873748779296875
 44
296.9259948730469
 45
419.9466552734375
 46
0.0
 47
0.0
 48
0.0
 49
0.0
140
0.0
141
0.0
142
1.0
143
2.0
 70
 28336
 72
     1
 73
     1
 74
     2
  7
systemprinter.ctb
 75
    17
147
0.5
148
0.0
149
0.0
100
AcDbLayout
  1
Model
 70
     1
 71
     0
 10
0.0
 20
0.0
 11
12.0
 21
9.0
 12
0.0
 22
0.0
 32
0.0
 14
0.0
 24
0.0
 34
0.0
 15
0.0
 25
0.0
 35
0.0
146
0.0
 13
0.0
 23
0.0
 33
0.0
 16
1.0
 26
0.0
 36
0.0
 17
0.0
 27
1.0
 37
0.0
 76
     0
330
1A
  0
LAYOUT
  5
4BF
102
{ACAD_REACTORS
330
4BC
102
}
330
4BC
100
AcDbPlotSettings
  1

  2
Canon LBP-730 LIPS4
  4

  6

 40
0.0
 41
0.0
 42
0.0
 43
0.0
 44
0.0
 45
0.0
 46
0.0
 47
0.0
 48
0.0
 49
0.0
140
0.0
141
0.0
142
1.0
143
1.0
 70
   688
 72
     0
 73
     0
 74
     5
  7
systemprinter.ctb
 75
    16
147
1.0
148
0.0
149
0.0
100
AcDbLayout
  1
ﾚｲｱｳﾄ1
 70
     1
 71
     1
 10
0.0
 20
0.0
 11
420.0
 21
297.0
 12
0.0
 22
0.0
 32
0.0
 14
0.0
 24
0.0
 34
0.0
 15
420.0
 25
297.0
 35
0.0
146
0.0
 13
0.0
 23
0.0
 33
0.0
 16
1.0
 26
0.0
 36
0.0
 17
0.0
 27
1.0
 37
0.0
 76
     0
330
17
331
64
  0
MLINESTYLE
  5
13
102
{ACAD_REACTORS
330
E
102
}
330
E
100
AcDbMlineStyle
  2
STANDARD
 70
     0
  3

 62
     0
 51
90.0
 52
90.0
 71
     2
 49
0.5
 62
   256
  6
BYLAYER
 49
-0.5
 62
   256
  6
BYLAYER
  0
ACDBPLACEHOLDER
  5
4BB
102
{ACAD_REACTORS
330
4BA
102
}
330
4BA
  0
ENDSEC
  0
EOF
