  0
SECTION
  2
HEADER
  9
$ACADVER
  1
AC1014
  9
$ACADMAINTVER
 70
     9
  9
$DWGCODEPAGE
  3
ANSI_932
  9
$INSBASE
 10
0.0
 20
0.0
 30
0.0
  9
$EXTMIN
 10
-0.0256328098773793
 20
-0.0181260584133725
 30
-0.0015258207003583
  9
$EXTMAX
 10
797.6000995626677
 20
551.6452344880035
 30
0.0000000349246037
  9
$LIMMIN
 10
0.0
 20
0.0
  9
$LIMMAX
 10
840.0
 20
594.0
  9
$ORTHOMODE
 70
     0
  9
$REGENMODE
 70
     1
  9
$FILLMODE
 70
     1
  9
$QTEXTMODE
 70
     0
  9
$MIRRTEXT
 70
     1
  9
$DRAGMODE
 70
     2
  9
$LTSCALE
 40
2.0
  9
$OSMODE
 70
    35
  9
$ATTMODE
 70
     1
  9
$TEXTSIZE
 40
5.0
  9
$TRACEWID
 40
1.0
  9
$TEXTSTYLE
  7
STANDARD
  9
$CLAYER
  8
NOKITOI
  9
$CELTYPE
  6
BYLAYER
  9
$CECOLOR
 62
   256
  9
$CELTSCALE
 40
1.0
  9
$DELOBJ
 70
     1
  9
$DISPSILH
 70
     0
  9
$DIMSCALE
 40
1.0
  9
$DIMASZ
 40
7.0
  9
$DIMEXO
 40
6.0
  9
$DIMDLI
 40
14.0
  9
$DIMRND
 40
0.0
  9
$DIMDLE
 40
0.0
  9
$DIMEXE
 40
3.0
  9
$DIMTP
 40
0.0
  9
$DIMTM
 40
0.0
  9
$DIMTXT
 40
6.0
  9
$DIMCEN
 40
150.0
  9
$DIMTSZ
 40
0.0
  9
$DIMTOL
 70
     0
  9
$DIMLIM
 70
     0
  9
$DIMTIH
 70
     0
  9
$DIMTOH
 70
     0
  9
$DIMSE1
 70
     0
  9
$DIMSE2
 70
     0
  9
$DIMTAD
 70
     3
  9
$DIMZIN
 70
     0
  9
$DIMBLK
  1

  9
$DIMASO
 70
     1
  9
$DIMSHO
 70
     1
  9
$DIMPOST
  1

  9
$DIMAPOST
  1

  9
$DIMALT
 70
     0
  9
$DIMALTD
 70
     2
  9
$DIMALTF
 40
25.4
  9
$DIMLFAC
 40
1.0
  9
$DIMTOFL
 70
     1
  9
$DIMTVP
 40
0.0
  9
$DIMTIX
 70
     0
  9
$DIMSOXD
 70
     0
  9
$DIMSAH
 70
     1
  9
$DIMBLK1
  1
OPEN
  9
$DIMBLK2
  1
OPEN
  9
$DIMSTYLE
  2
STANDARD
  9
$DIMCLRD
 70
   256
  9
$DIMCLRE
 70
   256
  9
$DIMCLRT
 70
   256
  9
$DIMTFAC
 40
1.0
  9
$DIMGAP
 40
2.0
  9
$DIMJUST
 70
     0
  9
$DIMSD1
 70
     0
  9
$DIMSD2
 70
     0
  9
$DIMTOLJ
 70
     1
  9
$DIMTZIN
 70
     0
  9
$DIMALTZ
 70
     0
  9
$DIMALTTZ
 70
     0
  9
$DIMFIT
 70
     3
  9
$DIMUPT
 70
     0
  9
$DIMUNIT
 70
     2
  9
$DIMDEC
 70
     0
  9
$DIMTDEC
 70
     0
  9
$DIMALTU
 70
     2
  9
$DIMALTTD
 70
     2
  9
$DIMTXSTY
  7
STANDARD
  9
$DIMAUNIT
 70
     0
  9
$LUNITS
 70
     2
  9
$LUPREC
 70
     4
  9
$SKETCHINC
 40
1.0
  9
$FILLETRAD
 40
1.5
  9
$AUNITS
 70
     0
  9
$AUPREC
 70
     0
  9
$MENU
  1
.
  9
$ELEVATION
 40
0.0
  9
$PELEVATION
 40
0.0
  9
$THICKNESS
 40
0.0
  9
$LIMCHECK
 70
     0
  9
$BLIPMODE
 70
     0
  9
$CHAMFERA
 40
20.0
  9
$CHAMFERB
 40
20.0
  9
$CHAMFERC
 40
40.0
  9
$CHAMFERD
 40
0.0
  9
$SKPOLY
 70
     0
  9
$TDCREATE
 40
2451199.358868634
  9
$TDUPDATE
 40
2453805.554127419
  9
$TDINDWG
 40
0.0375584375
  9
$TDUSRTIMER
 40
0.0375584375
  9
$USRTIMER
 70
     1
  9
$ANGBASE
 50
0.0
  9
$ANGDIR
 70
     0
  9
$PDMODE
 70
     0
  9
$PDSIZE
 40
0.0
  9
$PLINEWID
 40
0.0
  9
$COORDS
 70
     1
  9
$SPLFRAME
 70
     0
  9
$SPLINETYPE
 70
     6
  9
$SPLINESEGS
 70
     8
  9
$ATTDIA
 70
     0
  9
$ATTREQ
 70
     1
  9
$HANDLING
 70
 10241
  9
$HANDSEED
  5
76A
  9
$SURFTAB1
 70
     6
  9
$SURFTAB2
 70
     6
  9
$SURFTYPE
 70
     6
  9
$SURFU
 70
     6
  9
$SURFV
 70
     6
  9
$UCSNAME
  2

  9
$UCSORG
 10
0.0
 20
0.0
 30
0.0
  9
$UCSXDIR
 10
1.0
 20
0.0
 30
0.0
  9
$UCSYDIR
 10
0.0
 20
1.0
 30
0.0
  9
$PUCSNAME
  2

  9
$PUCSORG
 10
0.0
 20
0.0
 30
0.0
  9
$PUCSXDIR
 10
1.0
 20
0.0
 30
0.0
  9
$PUCSYDIR
 10
0.0
 20
1.0
 30
0.0
  9
$USERI1
 70
     0
  9
$USERI2
 70
     0
  9
$USERI3
 70
     0
  9
$USERI4
 70
     0
  9
$USERI5
 70
     0
  9
$USERR1
 40
0.0
  9
$USERR2
 40
0.0
  9
$USERR3
 40
0.0
  9
$USERR4
 40
0.0
  9
$USERR5
 40
0.0
  9
$WORLDVIEW
 70
     1
  9
$SHADEDGE
 70
     3
  9
$SHADEDIF
 70
    70
  9
$TILEMODE
 70
     1
  9
$MAXACTVP
 70
    16
  9
$PINSBASE
 10
0.0
 20
0.0
 30
0.0
  9
$PLIMCHECK
 70
     0
  9
$PEXTMIN
 10
0.0
 20
0.0
 30
0.0
  9
$PEXTMAX
 10
420.0
 20
297.0
 30
0.0
  9
$PLIMMIN
 10
0.0
 20
0.0
  9
$PLIMMAX
 10
420.0
 20
297.0
  9
$UNITMODE
 70
     0
  9
$VISRETAIN
 70
     0
  9
$PLINEGEN
 70
     0
  9
$PSLTSCALE
 70
     1
  9
$TREEDEPTH
 70
  3020
  9
$PICKSTYLE
 70
     1
  9
$CMLSTYLE
  2
STANDARD
  9
$CMLJUST
 70
     0
  9
$CMLSCALE
 40
1.0
  9
$PROXYGRAPHICS
 70
     1
  9
$MEASUREMENT
 70
     1
  0
ENDSEC
  0
SECTION
  2
CLASSES
  0
CLASS
  1
ACDBDICTIONARYWDFLT
  2
AcDbDictionaryWithDefault
  3
AutoCAD 2000
 90
        0
280
     0
281
     0
  0
CLASS
  1
ACDBPLACEHOLDER
  2
AcDbPlaceHolder
  3
AutoCAD 2000
 90
        0
280
     0
281
     0
  0
CLASS
  1
LAYOUT
  2
AcDbLayout
  3
AutoCAD 2000
 90
        0
280
     0
281
     0
  0
CLASS
  1
LONG_TRANSACTION
  2
AcDbLongTransaction
  3
AutoCAD 2000
 90
        0
280
     0
281
     0
  0
CLASS
  1
LWPOLYLINE
  2
AcDbPolyline
  3
AutoCAD 2000
 90
        0
280
     0
281
     1
  0
CLASS
  1
HATCH
  2
AcDbHatch
  3
AutoCAD 2000
 90
        0
280
     0
281
     1
  0
CLASS
  1
XRECORD
  2
AcDbXrecord
  3
AutoCAD 2000
 90
        0
280
     0
281
     0
  0
CLASS
  1
LONG_TRANSACTION
  2
AcDbLongTransaction
  3
AutoCAD 2000
 90
        0
280
     0
281
     0
  0
CLASS
  1
LWPOLYLINE
  2
AcDbPolyline
  3
AutoCAD 2000
 90
        0
280
     0
281
     1
  0
CLASS
  1
HATCH
  2
AcDbHatch
  3
AutoCAD 2000
 90
        0
280
     0
281
     1
  0
CLASS
  1
XRECORD
  2
AcDbXrecord
  3
AutoCAD 2000
 90
        0
280
     0
281
     0
  0
CLASS
  1
LONG_TRANSACTION
  2
AcDbLongTransaction
  3
AutoCAD 2000
 90
        0
280
     0
281
     0
  0
CLASS
  1
LWPOLYLINE
  2
AcDbPolyline
  3
AutoCAD 2000
 90
        0
280
     0
281
     1
  0
CLASS
  1
HATCH
  2
AcDbHatch
  3
AutoCAD 2000
 90
        0
280
     0
281
     1
  0
CLASS
  1
XRECORD
  2
AcDbXrecord
  3
AutoCAD 2000
 90
        0
280
     0
281
     0
  0
ENDSEC
  0
SECTION
  2
TABLES
  0
TABLE
  2
VPORT
  5
8
330
0
100
AcDbSymbolTable
 70
     2
  0
VPORT
  5
746
330
8
100
AcDbSymbolTableRecord
100
AcDbViewportTableRecord
  2
*ACTIVE
 70
     0
 10
0.0
 20
0.0
 11
1.0
 21
1.0
 12
436.4649312307421
 22
262.4924153345067
 13
0.0
 23
0.0
 14
5.0
 24
5.0
 15
0.0
 25
0.0
 16
0.0
 26
0.0
 36
1.0
 17
0.0
 27
0.0
 37
0.0
 40
664.4092843869159
 41
1.795454545454545
 42
50.0
 43
0.0
 44
0.0
 50
0.0
 51
0.0
 71
     0
 72
   100
 73
     1
 74
     0
 75
     0
 76
     0
 77
     0
 78
     0
  0
ENDTAB
  0
TABLE
  2
LTYPE
  5
5
330
0
100
AcDbSymbolTable
 70
     3
  0
LTYPE
  5
14
330
5
100
AcDbSymbolTableRecord
100
AcDbLinetypeTableRecord
  2
BYBLOCK
 70
     0
  3

 72
    65
 73
     0
 40
0.0
  0
LTYPE
  5
15
330
5
100
AcDbSymbolTableRecord
100
AcDbLinetypeTableRecord
  2
BYLAYER
 70
     0
  3

 72
    65
 73
     0
 40
0.0
  0
LTYPE
  5
16
330
5
100
AcDbSymbolTableRecord
100
AcDbLinetypeTableRecord
  2
CONTINUOUS
 70
     0
  3
Solid line
 72
    65
 73
     0
 40
0.0
  0
LTYPE
  5
115
330
5
100
AcDbSymbolTableRecord
100
AcDbLinetypeTableRecord
  2
PHANTOM
 70
     0
  3
______  __  __  ______  __  __  ______  __  __ 
 72
    65
 73
     6
 40
2.5
 49
1.25
 74
     0
 49
-0.25
 74
     0
 49
0.25
 74
     0
 49
-0.25
 74
     0
 49
0.25
 74
     0
 49
-0.25
 74
     0
  0
LTYPE
  5
135
330
5
100
AcDbSymbolTableRecord
100
AcDbLinetypeTableRecord
  2
CENTER
 70
     0
  3
____ _ ____ _ ____ _ ____ _ ____ _ ____ _ ____ 
 72
    65
 73
     4
 40
2.0
 49
1.25
 74
     0
 49
-0.25
 74
     0
 49
0.25
 74
     0
 49
-0.25
 74
     0
  0
ENDTAB
  0
TABLE
  2
LAYER
  5
2
330
0
100
AcDbSymbolTable
 70
     9
  0
LAYER
  5
F
330
2
100
AcDbSymbolTableRecord
100
AcDbLayerTableRecord
  2
0
 70
     0
 62
     7
  6
CONTINUOUS
  0
LAYER
  5
62
330
2
100
AcDbSymbolTableRecord
100
AcDbLayerTableRecord
  2
VIEWPORT
 70
     0
 62
     7
  6
CONTINUOUS
  0
LAYER
  5
143
330
2
100
AcDbSymbolTableRecord
100
AcDbLayerTableRecord
  2
SEIHIN
 70
     0
 62
     3
  6
CONTINUOUS
  0
LAYER
  5
144
330
2
100
AcDbSymbolTableRecord
100
AcDbLayerTableRecord
  2
SUNPOU
 70
     0
 62
     4
  6
CONTINUOUS
  0
LAYER
  5
145
330
2
100
AcDbSymbolTableRecord
100
AcDbLayerTableRecord
  2
CENTER_L
 70
     0
 62
     1
  6
CENTER
  0
LAYER
  5
146
330
2
100
AcDbSymbolTableRecord
100
AcDbLayerTableRecord
  2
NOKITOI
 70
     0
 62
     8
  6
PHANTOM
  0
LAYER
  5
405
330
2
100
AcDbSymbolTableRecord
100
AcDbLayerTableRecord
  2
DEFPOINTS
 70
     0
 62
     7
  6
CONTINUOUS
  0
LAYER
  5
586
330
2
100
AcDbSymbolTableRecord
100
AcDbLayerTableRecord
  2
ZUWAKU
 70
     0
 62
     7
  6
CONTINUOUS
  0
LAYER
  5
587
330
2
100
AcDbSymbolTableRecord
100
AcDbLayerTableRecord
  2
MOJI
 70
     0
 62
     2
  6
CONTINUOUS
  0
ENDTAB
  0
TABLE
  2
STYLE
  5
3
330
0
100
AcDbSymbolTable
 70
     2
  0
STYLE
  5
10
330
3
100
AcDbSymbolTableRecord
100
AcDbTextStyleTableRecord
  2
STANDARD
 70
     0
 40
0.0
 41
1.0
 50
0.0
 71
     0
 42
5.0
  3
TXT
  4
bigfont.shx
  0
STYLE
  5
588
330
3
100
AcDbSymbolTableRecord
100
AcDbTextStyleTableRecord
  2
ｽﾀｲﾙ1
 70
     0
 40
0.0
 41
1.0
 50
0.0
 71
     0
 42
2.5
  3
MS PGothic.ttf
  4

1001
ACAD
1000
MS PGothic
1071
    32818
  0
ENDTAB
  0
TABLE
  2
VIEW
  5
6
330
0
100
AcDbSymbolTable
 70
     0
  0
ENDTAB
  0
TABLE
  2
UCS
  5
7
330
0
100
AcDbSymbolTable
 70
     0
  0
ENDTAB
  0
TABLE
  2
APPID
  5
9
330
0
100
AcDbSymbolTable
 70
     1
  0
APPID
  5
11
330
9
100
AcDbSymbolTableRecord
100
AcDbRegAppTableRecord
  2
ACAD
 70
     0
  0
ENDTAB
  0
TABLE
  2
DIMSTYLE
  5
A
330
0
100
AcDbSymbolTable
 70
     1
  0
DIMSTYLE
105
1D
102
{ACAD_REACTORS
330
428
330
435
330
442
330
44F
330
45C
330
469
330
476
330
486
102
}
330
A
100
AcDbSymbolTableRecord
100
AcDbDimStyleTableRecord
  2
STANDARD
 70
     0
  3

  4

  5

  6

  7

 40
1.0
 41
0.18
 42
0.0625
 43
0.38
 44
0.18
 45
0.0
 46
0.0
 47
0.0
 48
0.0
140
0.18
141
0.09
142
0.0
143
25.4
144
1.0
145
0.0
146
1.0
147
0.09
 71
     0
 72
     0
 73
     1
 74
     1
 75
     0
 76
     0
 77
     0
 78
     0
170
     0
171
     2
172
     0
173
     0
174
     0
175
     0
176
     0
177
     0
178
     0
270
     2
271
     4
272
     4
273
     2
274
     2
340
10
275
     0
280
     0
281
     0
282
     0
283
     1
284
     0
285
     0
286
     0
287
     3
288
     0
  0
ENDTAB
  0
TABLE
  2
BLOCK_RECORD
  5
1
330
0
100
AcDbSymbolTable
 70
     9
  0
BLOCK_RECORD
  5
1A
102
{ACAD_XDICTIONARY
360
544
102
}
330
1
100
AcDbSymbolTableRecord
100
AcDbBlockTableRecord
  2
*MODEL_SPACE
  0
BLOCK_RECORD
  5
17
102
{ACAD_XDICTIONARY
360
542
102
}
330
1
100
AcDbSymbolTableRecord
100
AcDbBlockTableRecord
  2
*PAPER_SPACE
  0
BLOCK_RECORD
  5
6D
330
1
100
AcDbSymbolTableRecord
100
AcDbBlockTableRecord
  2
_OPEN
  0
BLOCK_RECORD
  5
41C
330
1
100
AcDbSymbolTableRecord
100
AcDbBlockTableRecord
  2
*D1
  0
BLOCK_RECORD
  5
429
330
1
100
AcDbSymbolTableRecord
100
AcDbBlockTableRecord
  2
*D2
  0
BLOCK_RECORD
  5
436
330
1
100
AcDbSymbolTableRecord
100
AcDbBlockTableRecord
  2
*D3
  0
BLOCK_RECORD
  5
443
330
1
100
AcDbSymbolTableRecord
100
AcDbBlockTableRecord
  2
*D4
  0
BLOCK_RECORD
  5
450
330
1
100
AcDbSymbolTableRecord
100
AcDbBlockTableRecord
  2
*D5
  0
BLOCK_RECORD
  5
45D
330
1
100
AcDbSymbolTableRecord
100
AcDbBlockTableRecord
  2
*D6
  0
BLOCK_RECORD
  5
46A
330
1
100
AcDbSymbolTableRecord
100
AcDbBlockTableRecord
  2
*D7
  0
BLOCK_RECORD
  5
47A
330
1
100
AcDbSymbolTableRecord
100
AcDbBlockTableRecord
  2
*D8
  0
ENDTAB
  0
ENDSEC
  0
SECTION
  2
BLOCKS
  0
BLOCK
  5
1B
330
1A
100
AcDbEntity
  8
0
100
AcDbBlockBegin
  2
*MODEL_SPACE
 70
     0
 10
0.0
 20
0.0
 30
0.0
  3
*MODEL_SPACE
  1

  0
ENDBLK
  5
1C
330
1A
100
AcDbEntity
  8
0
100
AcDbBlockEnd
  0
BLOCK
  5
18
330
17
100
AcDbEntity
 67
     1
  8
0
100
AcDbBlockBegin
  2
*PAPER_SPACE
 70
     0
 10
0.0
 20
0.0
 30
0.0
  3
*PAPER_SPACE
  1

  0
ENDBLK
  5
19
330
17
100
AcDbEntity
 67
     1
  8
0
100
AcDbBlockEnd
  0
BLOCK
  5
6E
330
6D
100
AcDbEntity
  8
0
100
AcDbBlockBegin
  2
_OPEN
 70
     0
 10
0.0
 20
0.0
 30
0.0
  3
_OPEN
  1

  0
LINE
  5
6F
330
6D
100
AcDbEntity
  8
0
  6
BYBLOCK
 62
     0
100
AcDbLine
 10
-1.0
 20
0.1666666666666666
 30
0.0
 11
0.0
 21
0.0
 31
0.0
  0
LINE
  5
70
330
6D
100
AcDbEntity
  8
0
  6
BYBLOCK
 62
     0
100
AcDbLine
 10
0.0
 20
0.0
 30
0.0
 11
-1.0
 21
-0.1666666666666666
 31
0.0
  0
LINE
  5
71
330
6D
100
AcDbEntity
  8
0
  6
BYBLOCK
 62
     0
100
AcDbLine
 10
0.0
 20
0.0
 30
0.0
 11
-1.0
 21
0.0
 31
0.0
  0
ENDBLK
  5
72
330
6D
100
AcDbEntity
  8
0
100
AcDbBlockEnd
  0
BLOCK
  5
4DC
330
41C
100
AcDbEntity
  8
0
100
AcDbBlockBegin
  2
*D1
 70
     1
 10
0.0
 20
0.0
 30
0.0
  3
*D1
  1

  0
LINE
  5
701
330
41C
100
AcDbEntity
  8
SUNPOU
 62
     4
100
AcDbLine
 10
304.6587510605515
 20
175.8989044335969
 30
0.0
 11
304.6587510605515
 21
202.9898226951438
 31
0.0
  0
LINE
  5
702
330
41C
100
AcDbEntity
  8
SUNPOU
 62
     4
100
AcDbLine
 10
428.5566510605516
 20
175.8989044335969
 30
0.0
 11
428.5566510605516
 21
202.9898226951438
 31
0.0
  0
LINE
  5
703
330
41C
100
AcDbEntity
  8
SUNPOU
 62
     4
100
AcDbLine
 10
311.6587510605515
 20
199.9898226951438
 30
0.0
 11
421.5566510605516
 21
199.9898226951438
 31
0.0
  0
INSERT
  5
704
330
41C
100
AcDbEntity
  8
SUNPOU
 62
     4
100
AcDbBlockReference
  2
_OPEN
 10
304.6587510605515
 20
199.9898226951438
 30
0.0
 41
7.0
 42
7.0
 43
7.0
 50
180.0
  0
INSERT
  5
705
330
41C
100
AcDbEntity
  8
SUNPOU
 62
     4
100
AcDbBlockReference
  2
_OPEN
 10
428.5566510605516
 20
199.9898226951438
 30
0.0
 41
7.0
 42
7.0
 43
7.0
  0
MTEXT
  5
706
330
41C
100
AcDbEntity
  8
SUNPOU
 62
     4
100
AcDbMText
 10
366.6077010605515
 20
204.9898226951438
 30
0.0
 40
6.0
 41
0.0
 71
     5
 72
     1
  1
\A1;124
1001
ACAD
1000
MTEXTBEGIN
1070
    73
1070
     1
1070
    44
1040
1.0
1070
    74
1070
     0
1000
MTEXTEND
  0
POINT
  5
707
330
41C
100
AcDbEntity
  8
DEFPOINTS
 62
     0
100
AcDbPoint
 10
304.6587510605515
 20
169.8989044335969
 30
0.0
  0
POINT
  5
708
330
41C
100
AcDbEntity
  8
DEFPOINTS
 62
     0
100
AcDbPoint
 10
428.5566510605516
 20
169.8989044335969
 30
0.0
  0
POINT
  5
709
330
41C
100
AcDbEntity
  8
DEFPOINTS
 62
     0
100
AcDbPoint
 10
428.5566510605516
 20
199.9898226951438
 30
0.0
  0
ENDBLK
  5
4E6
330
41C
100
AcDbEntity
  8
0
100
AcDbBlockEnd
  0
BLOCK
  5
4D1
330
429
100
AcDbEntity
  8
0
100
AcDbBlockBegin
  2
*D2
 70
     1
 10
0.0
 20
0.0
 30
0.0
  3
*D2
  1

  0
LINE
  5
6F8
330
429
100
AcDbEntity
  8
SUNPOU
 62
     4
100
AcDbLine
 10
304.6587510605515
 20
175.8989044335969
 30
0.0
 11
304.6587510605515
 21
220.2713615081822
 31
0.0
  0
LINE
  5
6F9
330
429
100
AcDbEntity
  8
SUNPOU
 62
     4
100
AcDbLine
 10
463.6189510605515
 20
178.9594044335969
 30
0.0
 11
463.6189510605515
 21
220.2713615081822
 31
0.0
  0
LINE
  5
6FA
330
429
100
AcDbEntity
  8
SUNPOU
 62
     4
100
AcDbLine
 10
311.6587510605515
 20
217.2713615081822
 30
0.0
 11
456.6189510605515
 21
217.2713615081822
 31
0.0
  0
INSERT
  5
6FB
330
429
100
AcDbEntity
  8
SUNPOU
 62
     4
100
AcDbBlockReference
  2
_OPEN
 10
304.6587510605515
 20
217.2713615081822
 30
0.0
 41
7.0
 42
7.0
 43
7.0
 50
180.0
  0
INSERT
  5
6FC
330
429
100
AcDbEntity
  8
SUNPOU
 62
     4
100
AcDbBlockReference
  2
_OPEN
 10
463.6189510605515
 20
217.2713615081822
 30
0.0
 41
7.0
 42
7.0
 43
7.0
  0
MTEXT
  5
6FD
330
429
100
AcDbEntity
  8
SUNPOU
 62
     4
100
AcDbMText
 10
384.1388510605515
 20
222.2713615081822
 30
0.0
 40
6.0
 41
0.0
 71
     5
 72
     1
  1
\A1;159
1001
ACAD
1000
MTEXTBEGIN
1070
    73
1070
     1
1070
    44
1040
1.0
1070
    74
1070
     0
1000
MTEXTEND
  0
POINT
  5
6FE
330
429
100
AcDbEntity
  8
DEFPOINTS
 62
     0
100
AcDbPoint
 10
304.6587510605515
 20
169.8989044335969
 30
0.0
  0
POINT
  5
6FF
330
429
100
AcDbEntity
  8
DEFPOINTS
 62
     0
100
AcDbPoint
 10
463.6189510605515
 20
172.9594044335969
 30
0.0
  0
POINT
  5
700
330
429
100
AcDbEntity
  8
DEFPOINTS
 62
     0
100
AcDbPoint
 10
463.6189510605515
 20
217.2713615081822
 30
0.0
  0
ENDBLK
  5
4DB
330
429
100
AcDbEntity
  8
0
100
AcDbBlockEnd
  0
BLOCK
  5
4FD
330
436
100
AcDbEntity
  8
0
100
AcDbBlockBegin
  2
*D3
 70
     1
 10
0.0
 20
0.0
 30
0.0
  3
*D3
  1

  0
LINE
  5
72E
330
436
100
AcDbEntity
  8
SUNPOU
 62
     4
100
AcDbLine
 10
464.6191510605516
 20
460.8261044335967
 30
0.0
 11
509.7134546217621
 21
460.8261044335967
 31
0.0
  0
LINE
  5
72F
330
436
100
AcDbEntity
  8
SUNPOU
 62
     4
100
AcDbLine
 10
464.6189510605515
 20
336.8033044335968
 30
0.0
 11
509.7134546217621
 21
336.8033044335968
 31
0.0
  0
LINE
  5
730
330
436
100
AcDbEntity
  8
SUNPOU
 62
     4
100
AcDbLine
 10
506.7134546217622
 20
453.8261044335967
 30
0.0
 11
506.7134546217621
 21
343.8033044335968
 31
0.0
  0
INSERT
  5
731
330
436
100
AcDbEntity
  8
SUNPOU
 62
     4
100
AcDbBlockReference
  2
_OPEN
 10
506.7134546217622
 20
460.8261044335967
 30
0.0
 41
7.0
 42
7.0
 43
7.0
 50
90.0
  0
INSERT
  5
732
330
436
100
AcDbEntity
  8
SUNPOU
 62
     4
100
AcDbBlockReference
  2
_OPEN
 10
506.7134546217621
 20
336.8033044335968
 30
0.0
 41
7.0
 42
7.0
 43
7.0
 50
270.0
  0
MTEXT
  5
733
330
436
100
AcDbEntity
  8
SUNPOU
 62
     4
100
AcDbMText
 10
501.713454621762
 20
398.8147044335968
 30
0.0
 40
6.0
 41
0.0
 71
     5
 72
     1
  1
\A1;124
 11
0.0000000000000001
 21
1.0
 31
0.0
1001
ACAD
1000
MTEXTBEGIN
1070
    73
1070
     1
1070
    44
1040
1.0
1070
    74
1070
     0
1000
MTEXTEND
  0
POINT
  5
734
330
436
100
AcDbEntity
  8
DEFPOINTS
 62
     0
100
AcDbPoint
 10
458.6191510605516
 20
460.8261044335967
 30
0.0
  0
POINT
  5
735
330
436
100
AcDbEntity
  8
DEFPOINTS
 62
     0
100
AcDbPoint
 10
458.6189510605515
 20
336.8033044335968
 30
0.0
  0
POINT
  5
736
330
436
100
AcDbEntity
  8
DEFPOINTS
 62
     0
100
AcDbPoint
 10
506.7134546217621
 20
336.8033044335968
 30
0.0
  0
ENDBLK
  5
507
330
436
100
AcDbEntity
  8
0
100
AcDbBlockEnd
  0
BLOCK
  5
4F2
330
443
100
AcDbEntity
  8
0
100
AcDbBlockBegin
  2
*D4
 70
     1
 10
0.0
 20
0.0
 30
0.0
  3
*D4
  1

  0
LINE
  5
71C
330
443
100
AcDbEntity
  8
SUNPOU
 62
     4
100
AcDbLine
 10
464.6191510605516
 20
460.8261044335967
 30
0.0
 11
528.7160691384774
 21
460.8261044335967
 31
0.0
  0
LINE
  5
71D
330
443
100
AcDbEntity
  8
SUNPOU
 62
     4
100
AcDbLine
 10
433.6191510605515
 20
301.8035044335968
 30
0.0
 11
528.7160691384774
 21
301.8035044335968
 31
0.0
  0
LINE
  5
71E
330
443
100
AcDbEntity
  8
SUNPOU
 62
     4
100
AcDbLine
 10
525.7160691384775
 20
453.8261044335967
 30
0.0
 11
525.7160691384775
 21
308.8035044335967
 31
0.0
  0
INSERT
  5
71F
330
443
100
AcDbEntity
  8
SUNPOU
 62
     4
100
AcDbBlockReference
  2
_OPEN
 10
525.7160691384775
 20
460.8261044335967
 30
0.0
 41
7.0
 42
7.0
 43
7.0
 50
90.0
  0
INSERT
  5
720
330
443
100
AcDbEntity
  8
SUNPOU
 62
     4
100
AcDbBlockReference
  2
_OPEN
 10
525.7160691384775
 20
301.8035044335968
 30
0.0
 41
7.0
 42
7.0
 43
7.0
 50
270.0
  0
MTEXT
  5
721
330
443
100
AcDbEntity
  8
SUNPOU
 62
     4
100
AcDbMText
 10
520.7160691384773
 20
381.3148044335968
 30
0.0
 40
6.0
 41
0.0
 71
     5
 72
     1
  1
\A1;159
 11
0.0000000000000001
 21
1.0
 31
0.0
1001
ACAD
1000
MTEXTBEGIN
1070
    73
1070
     1
1070
    44
1040
1.0
1070
    74
1070
     0
1000
MTEXTEND
  0
POINT
  5
722
330
443
100
AcDbEntity
  8
DEFPOINTS
 62
     0
100
AcDbPoint
 10
458.6191510605516
 20
460.8261044335967
 30
0.0
  0
POINT
  5
723
330
443
100
AcDbEntity
  8
DEFPOINTS
 62
     0
100
AcDbPoint
 10
427.6191510605515
 20
301.8035044335968
 30
0.0
  0
POINT
  5
724
330
443
100
AcDbEntity
  8
DEFPOINTS
 62
     0
100
AcDbPoint
 10
525.7160691384775
 20
301.8035044335968
 30
0.0
  0
ENDBLK
  5
4FC
330
443
100
AcDbEntity
  8
0
100
AcDbBlockEnd
  0
BLOCK
  5
508
330
450
100
AcDbEntity
  8
0
100
AcDbBlockBegin
  2
*D5
 70
     1
 10
0.0
 20
0.0
 30
0.0
  3
*D5
  1

  0
LINE
  5
737
330
450
100
AcDbEntity
  8
SUNPOU
 62
     4
100
AcDbLine
 10
464.6189510605515
 20
336.8033044335968
 30
0.0
 11
509.7134546217621
 21
336.8033044335968
 31
0.0
  0
LINE
  5
738
330
450
100
AcDbEntity
  8
SUNPOU
 62
     4
100
AcDbLine
 10
433.6191510605515
 20
301.8035044335968
 30
0.0
 11
509.7134546217621
 21
301.8035044335968
 31
0.0
  0
LINE
  5
739
330
450
100
AcDbEntity
  8
SUNPOU
 62
     4
100
AcDbLine
 10
506.7134546217621
 20
329.8033044335968
 30
0.0
 11
506.7134546217621
 21
308.8035044335967
 31
0.0
  0
INSERT
  5
73A
330
450
100
AcDbEntity
  8
SUNPOU
 62
     4
100
AcDbBlockReference
  2
_OPEN
 10
506.7134546217621
 20
336.8033044335968
 30
0.0
 41
7.0
 42
7.0
 43
7.0
 50
90.0
  0
INSERT
  5
73B
330
450
100
AcDbEntity
  8
SUNPOU
 62
     4
100
AcDbBlockReference
  2
_OPEN
 10
506.7134546217621
 20
301.8035044335968
 30
0.0
 41
7.0
 42
7.0
 43
7.0
 50
270.0
  0
MTEXT
  5
73C
330
450
100
AcDbEntity
  8
SUNPOU
 62
     4
100
AcDbMText
 10
501.713454621762
 20
319.3034044335969
 30
0.0
 40
6.0
 41
0.0
 71
     5
 72
     1
  1
\A1;35
 11
0.0000000000000001
 21
1.0
 31
0.0
1001
ACAD
1000
MTEXTBEGIN
1070
    73
1070
     1
1070
    44
1040
1.0
1070
    74
1070
     0
1000
MTEXTEND
  0
POINT
  5
73D
330
450
100
AcDbEntity
  8
DEFPOINTS
 62
     0
100
AcDbPoint
 10
458.6189510605515
 20
336.8033044335968
 30
0.0
  0
POINT
  5
73E
330
450
100
AcDbEntity
  8
DEFPOINTS
 62
     0
100
AcDbPoint
 10
427.6191510605515
 20
301.8035044335968
 30
0.0
  0
POINT
  5
73F
330
450
100
AcDbEntity
  8
DEFPOINTS
 62
     0
100
AcDbPoint
 10
506.7134546217621
 20
301.8035044335968
 30
0.0
  0
ENDBLK
  5
512
330
450
100
AcDbEntity
  8
0
100
AcDbBlockEnd
  0
BLOCK
  5
45E
330
45D
100
AcDbEntity
  8
0
100
AcDbBlockBegin
  2
*D6
 70
     1
 10
0.0
 20
0.0
 30
0.0
  3
*D6
  1

  0
LINE
  5
70A
330
45D
100
AcDbEntity
  8
SUNPOU
 62
     4
100
AcDbLine
 10
463.6189510605515
 20
331.8033044335967
 30
0.0
 11
463.6189510605515
 21
270.8989447243229
 31
0.0
  0
LINE
  5
70B
330
45D
100
AcDbEntity
  8
SUNPOU
 62
     4
100
AcDbLine
 10
428.6191510605515
 20
300.8035044335969
 30
0.0
 11
428.6191510605515
 21
270.8989447243229
 31
0.0
  0
LINE
  5
70C
330
45D
100
AcDbEntity
  8
SUNPOU
 62
     4
100
AcDbLine
 10
456.6189510605515
 20
273.8989447243229
 30
0.0
 11
435.6191510605515
 21
273.8989447243229
 31
0.0
  0
INSERT
  5
70D
330
45D
100
AcDbEntity
  8
SUNPOU
 62
     4
100
AcDbBlockReference
  2
_OPEN
 10
463.6189510605515
 20
273.8989447243229
 30
0.0
 41
7.0
 42
7.0
 43
7.0
  0
INSERT
  5
70E
330
45D
100
AcDbEntity
  8
SUNPOU
 62
     4
100
AcDbBlockReference
  2
_OPEN
 10
428.6191510605515
 20
273.8989447243229
 30
0.0
 41
7.0
 42
7.0
 43
7.0
 50
180.0
  0
MTEXT
  5
70F
330
45D
100
AcDbEntity
  8
SUNPOU
 62
     4
100
AcDbMText
 10
446.1190510605515
 20
278.8989447243229
 30
0.0
 40
6.0
 41
0.0
 71
     5
 72
     1
  1
\A1;35
1001
ACAD
1000
MTEXTBEGIN
1070
    73
1070
     1
1070
    44
1040
1.0
1070
    74
1070
     0
1000
MTEXTEND
  0
POINT
  5
710
330
45D
100
AcDbEntity
  8
DEFPOINTS
 62
     0
100
AcDbPoint
 10
463.6189510605515
 20
337.8033044335967
 30
0.0
  0
POINT
  5
711
330
45D
100
AcDbEntity
  8
DEFPOINTS
 62
     0
100
AcDbPoint
 10
428.6191510605515
 20
306.8035044335969
 30
0.0
  0
POINT
  5
712
330
45D
100
AcDbEntity
  8
DEFPOINTS
 62
     0
100
AcDbPoint
 10
428.6191510605515
 20
273.8989447243229
 30
0.0
  0
ENDBLK
  5
468
330
45D
100
AcDbEntity
  8
0
100
AcDbBlockEnd
  0
BLOCK
  5
4E7
330
46A
100
AcDbEntity
  8
0
100
AcDbBlockBegin
  2
*D7
 70
     1
 10
0.0
 20
0.0
 30
0.0
  3
*D7
  1

  0
LINE
  5
713
330
46A
100
AcDbEntity
  8
SUNPOU
 62
     4
100
AcDbLine
 10
469.6189510605515
 20
171.9598044335969
 30
0.0
 11
509.7134546217621
 21
171.9598044335969
 31
0.0
  0
LINE
  5
714
330
46A
100
AcDbEntity
  8
SUNPOU
 62
     4
100
AcDbLine
 10
464.6189510605515
 20
113.4595044335969
 30
0.0
 11
509.7134546217621
 21
113.4595044335969
 31
0.0
  0
LINE
  5
715
330
46A
100
AcDbEntity
  8
SUNPOU
 62
     4
100
AcDbLine
 10
506.7134546217622
 20
164.9598044335969
 30
0.0
 11
506.7134546217621
 21
120.4595044335969
 31
0.0
  0
INSERT
  5
716
330
46A
100
AcDbEntity
  8
SUNPOU
 62
     4
100
AcDbBlockReference
  2
_OPEN
 10
506.7134546217622
 20
171.9598044335969
 30
0.0
 41
7.0
 42
7.0
 43
7.0
 50
90.0
  0
INSERT
  5
717
330
46A
100
AcDbEntity
  8
SUNPOU
 62
     4
100
AcDbBlockReference
  2
_OPEN
 10
506.7134546217621
 20
113.4595044335969
 30
0.0
 41
7.0
 42
7.0
 43
7.0
 50
270.0
  0
MTEXT
  5
718
330
46A
100
AcDbEntity
  8
SUNPOU
 62
     4
100
AcDbMText
 10
501.7134546217621
 20
142.709654433597
 30
0.0
 40
6.0
 41
0.0
 71
     5
 72
     1
  1
\A1;59
 11
0.0000000000000001
 21
1.0
 31
0.0
1001
ACAD
1000
MTEXTBEGIN
1070
    73
1070
     1
1070
    44
1040
1.0
1070
    74
1070
     0
1000
MTEXTEND
  0
POINT
  5
719
330
46A
100
AcDbEntity
  8
DEFPOINTS
 62
     0
100
AcDbPoint
 10
463.6189510605515
 20
171.9598044335969
 30
0.0
  0
POINT
  5
71A
330
46A
100
AcDbEntity
  8
DEFPOINTS
 62
     0
100
AcDbPoint
 10
458.6189510605515
 20
113.4595044335969
 30
0.0
  0
POINT
  5
71B
330
46A
100
AcDbEntity
  8
DEFPOINTS
 62
     0
100
AcDbPoint
 10
506.7134546217621
 20
113.4595044335969
 30
0.0
  0
ENDBLK
  5
4F1
330
46A
100
AcDbEntity
  8
0
100
AcDbBlockEnd
  0
BLOCK
  5
4AC
330
47A
100
AcDbEntity
  8
0
100
AcDbBlockBegin
  2
*D8
 70
     1
 10
0.0
 20
0.0
 30
0.0
  3
*D8
  1

  0
LINE
  5
725
330
47A
100
AcDbEntity
  8
SUNPOU
  6
CONTINUOUS
 62
     4
100
AcDbLine
 10
428.6190100192338
 20
367.7646669770037
 30
0.0
 11
428.6190100192338
 21
379.9823769537263
 31
0.0
  0
LINE
  5
726
330
47A
100
AcDbEntity
  8
SUNPOU
  6
CONTINUOUS
 62
     4
100
AcDbLine
 10
463.6190510605515
 20
367.7646044335967
 30
0.0
 11
463.6190510605515
 21
379.9823769537263
 31
0.0
  0
LINE
  5
727
330
47A
100
AcDbEntity
  8
SUNPOU
  6
CONTINUOUS
 62
     4
100
AcDbLine
 10
435.6190100192338
 20
376.9823769537263
 30
0.0
 11
456.6190510605514
 21
376.9823769537263
 31
0.0
  0
INSERT
  5
728
330
47A
100
AcDbEntity
  8
SUNPOU
  6
CONTINUOUS
 62
     4
100
AcDbBlockReference
  2
_OPEN
 10
428.6190100192338
 20
376.9823769537263
 30
0.0
 41
7.0
 42
7.0
 43
7.0
 50
180.0
  0
INSERT
  5
729
330
47A
100
AcDbEntity
  8
SUNPOU
  6
CONTINUOUS
 62
     4
100
AcDbBlockReference
  2
_OPEN
 10
463.6190510605515
 20
376.9823769537263
 30
0.0
 41
7.0
 42
7.0
 43
7.0
  0
MTEXT
  5
72A
330
47A
100
AcDbEntity
  8
SUNPOU
  6
CONTINUOUS
 62
     4
100
AcDbMText
 10
446.1190305398926
 20
381.9823769537263
 30
0.0
 40
6.0
 41
0.0
 71
     5
 72
     1
  1
\A1;※35
1001
ACAD
1000
MTEXTBEGIN
1070
    73
1070
     1
1070
    44
1040
1.0
1070
    74
1070
     0
1000
MTEXTEND
  0
POINT
  5
72B
330
47A
100
AcDbEntity
  8
DEFPOINTS
  6
CONTINUOUS
 62
     0
100
AcDbPoint
 10
428.6190100192338
 20
361.7646669770038
 30
0.0
  0
POINT
  5
72C
330
47A
100
AcDbEntity
  8
DEFPOINTS
  6
CONTINUOUS
 62
     0
100
AcDbPoint
 10
463.6190510605515
 20
361.7646044335967
 30
0.0
  0
POINT
  5
72D
330
47A
100
AcDbEntity
  8
DEFPOINTS
  6
CONTINUOUS
 62
     0
100
AcDbPoint
 10
463.6190510605515
 20
376.9823769537263
 30
0.0
  0
ENDBLK
  5
4B8
330
47A
100
AcDbEntity
  8
0
100
AcDbBlockEnd
  0
ENDSEC
  0
SECTION
  2
ENTITIES
  0
LINE
  5
2A4
330
1A
100
AcDbEntity
  8
SEIHIN
  6
CONTINUOUS
 62
     3
100
AcDbLine
 10
394.5964510605514
 20
153.4595044335968
 30
0.0
 11
411.5304510605517
 21
153.4595044335968
 31
0.0
  0
LINE
  5
2A5
330
1A
100
AcDbEntity
  8
SEIHIN
  6
CONTINUOUS
 62
     3
100
AcDbLine
 10
438.6192510605517
 20
449.7646044335968
 30
0.0
 11
394.5965510605516
 21
449.7646044335968
 31
0.0
  0
LINE
  5
2A6
330
1A
100
AcDbEntity
  8
SEIHIN
  6
CONTINUOUS
 62
     3
100
AcDbLine
 10
316.3720510605516
 20
171.9595044335969
 30
0.0
 11
416.9437510605517
 21
171.9595044335969
 31
0.0
  0
LINE
  5
2A7
330
1A
100
AcDbEntity
  8
SEIHIN
  6
CONTINUOUS
 62
     3
100
AcDbLine
 10
458.6191510605516
 20
460.8261044335967
 30
0.0
 11
306.5964510605515
 21
460.8262044335967
 31
0.0
  0
LINE
  5
2A8
330
1A
100
AcDbEntity
  8
SEIHIN
  6
CONTINUOUS
 62
     3
100
AcDbLine
 10
436.6192510605516
 20
458.8252044335966
 30
0.0
 11
307.5972510605517
 21
458.8254044335968
 31
0.0
  0
LINE
  5
2A9
330
1A
100
AcDbEntity
  8
SEIHIN
  6
CONTINUOUS
 62
     3
100
AcDbLine
 10
305.6965510605516
 20
301.8035044335968
 30
0.0
 11
427.6191510605515
 21
301.8035044335968
 31
0.0
  0
LINE
  5
2AA
330
1A
100
AcDbEntity
  8
SEIHIN
  6
CONTINUOUS
 62
     3
100
AcDbLine
 10
404.0147510605516
 20
113.4595044335969
 30
0.0
 11
358.3662510605515
 21
113.4595044335969
 31
0.0
  0
LINE
  5
2AB
330
1A
100
AcDbEntity
  8
SEIHIN
  6
CONTINUOUS
 62
     3
100
AcDbLine
 10
358.3662510605515
 20
115.4595044335969
 30
0.0
 11
403.3008510605516
 21
115.4595044335969
 31
0.0
  0
LINE
  5
2AC
330
1A
100
AcDbEntity
  8
NOKITOI
  6
CONTINUOUS
 62
     8
100
AcDbLine
 10
358.3662510605515
 20
116.659504433597
 30
0.0
 11
402.9458510605515
 21
116.659404433597
 31
0.0
  0
LINE
  5
2AD
330
1A
100
AcDbEntity
  8
NOKITOI
  6
CONTINUOUS
 62
     8
100
AcDbLine
 10
403.1956510605516
 20
115.4594044335969
 30
0.0
 11
358.3662510605515
 21
115.4595044335969
 31
0.0
  0
LINE
  5
2AE
330
1A
100
AcDbEntity
  8
NOKITOI
  6
CONTINUOUS
 62
     8
100
AcDbLine
 10
398.9458510605515
 20
116.659404433597
 30
0.0
 11
379.0377510605519
 21
116.659404433597
 31
0.0
  0
LINE
  5
2AF
330
1A
100
AcDbEntity
  8
NOKITOI
  6
CONTINUOUS
 62
     8
100
AcDbLine
 10
399.1956510605516
 20
115.4594044335969
 30
0.0
 11
379.0377510605519
 21
115.4594044335969
 31
0.0
  0
LINE
  5
2B0
330
1A
100
AcDbEntity
  8
SEIHIN
  6
CONTINUOUS
 62
     3
 48
5.0
100
AcDbLine
 10
358.3661526077134
 20
407.0565166917419
 30
0.0
 11
315.9509324919291
 21
449.471799416344
 31
0.0
  0
LINE
  5
2BB
330
1A
100
AcDbEntity
  8
SEIHIN
  6
CONTINUOUS
 62
     3
100
AcDbLine
 10
324.5964510605516
 20
135.6606044335969
 30
0.0
 11
339.5964510605516
 21
135.6606044335969
 31
0.0
  0
ARC
  5
2BE
330
1A
100
AcDbEntity
  8
SEIHIN
  6
CONTINUOUS
 62
     3
100
AcDbCircle
 10
358.3662572014254
 20
158.4594992338145
 30
0.0
 40
42.99999480034865
100
AcDbArc
 50
189.4876367988999
 51
269.9998585715154
  0
ARC
  5
2BF
330
1A
100
AcDbEntity
  8
SEIHIN
  6
CONTINUOUS
 62
     3
100
AcDbCircle
 10
358.36622068287
 20
158.4595301558719
 30
0.0
 40
45.00002572232883
100
AcDbArc
 50
189.487709424221
 51
269.9999113541617
  0
ARC
  5
2C0
330
1A
100
AcDbEntity
  8
NOKITOI
  6
CONTINUOUS
 62
     8
100
AcDbCircle
 10
358.3662571425195
 20
158.4594988089406
 30
0.0
 40
41.79999437547816
100
AcDbArc
 50
184.474295212525
 51
269.9998545921086
  0
ARC
  5
2C1
330
1A
100
AcDbEntity
  8
NOKITOI
  6
CONTINUOUS
 62
     8
100
AcDbCircle
 10
358.3662348340942
 20
158.459518909967
 30
0.0
 40
43.00001447645168
100
AcDbArc
 50
186.524910707118
 51
269.999888375144
  0
LINE
  5
2C2
330
1A
100
AcDbEntity
  8
SEIHIN
  6
CONTINUOUS
 62
     3
100
AcDbLine
 10
324.5961510605516
 20
171.9595044335969
 30
0.0
 11
324.5961510605516
 21
135.6607044335969
 31
0.0
  0
LINE
  5
2C3
330
1A
100
AcDbEntity
  8
SEIHIN
  6
CONTINUOUS
 62
     3
100
AcDbLine
 10
321.6578510605516
 20
171.9595044335969
 30
0.0
 11
321.9078510605515
 21
135.6606044335969
 31
0.0
  0
LINE
  5
2D9
330
1A
100
AcDbEntity
  8
NOKITOI
  6
CONTINUOUS
 62
     8
100
AcDbLine
 10
315.0776510605516
 20
161.4333044335969
 30
0.0
 11
315.3934510605515
 21
167.4332044335969
 31
0.0
  0
LINE
  5
2DA
330
1A
100
AcDbEntity
  8
NOKITOI
  6
CONTINUOUS
 62
     8
100
AcDbLine
 10
312.5296510605518
 20
165.659504433597
 30
0.0
 11
313.5254510605515
 21
166.7595044335971
 31
0.0
  0
ARC
  5
2DB
330
1A
100
AcDbEntity
  8
NOKITOI
  6
CONTINUOUS
 62
     8
100
AcDbCircle
 10
312.0678712732207
 20
160.459563161977
 30
0.0
 40
5.2000412730095
100
AcDbArc
 50
90.00132454306161
 51
142.0757990790561
  0
LINE
  5
2DC
330
1A
100
AcDbEntity
  8
NOKITOI
  6
CONTINUOUS
 62
     8
100
AcDbLine
 10
307.8165510605519
 20
168.4345044335968
 30
0.0
 11
307.9659510605512
 21
163.655604433597
 31
0.0
  0
LINE
  5
2DD
330
1A
100
AcDbEntity
  8
SEIHIN
  6
CONTINUOUS
 62
     3
100
AcDbLine
 10
306.7202510605516
 20
167.8989044335969
 30
0.0
 11
307.1137510605515
 21
154.9140044335968
 31
0.0
  0
LINE
  5
2DE
330
1A
100
AcDbEntity
  8
SEIHIN
  6
CONTINUOUS
 62
     3
100
AcDbLine
 10
313.9885510605517
 20
165.9595044335968
 30
0.0
 11
313.4885510605517
 21
153.4595044335968
 31
0.0
  0
LINE
  5
2DF
330
1A
100
AcDbEntity
  8
NOKITOI
  6
CONTINUOUS
 62
     8
100
AcDbLine
 10
306.6171510605515
 20
168.3970044335969
 30
0.0
 11
307.0073510605513
 21
155.9127044335968
 31
0.0
  0
ARC
  5
2E0
330
1A
100
AcDbEntity
  8
SEIHIN
  6
CONTINUOUS
 62
     3
100
AcDbCircle
 10
314.0537239152734
 20
162.4595308359389
 30
0.0
 40
3.499973597763204
100
AcDbArc
 50
1.589332213794619
 51
89.99955562239872
  0
LINE
  5
2E1
330
1A
100
AcDbEntity
  8
SEIHIN
  6
CONTINUOUS
 62
     3
100
AcDbLine
 10
304.6587510605515
 20
169.8989044335969
 30
0.0
 11
305.1734510605516
 21
152.9140044335968
 31
0.0
  0
LINE
  5
2E2
330
1A
100
AcDbEntity
  8
SEIHIN
  6
CONTINUOUS
 62
     3
100
AcDbLine
 10
319.7078510605516
 20
156.9595044335969
 30
0.0
 11
319.9299510605516
 21
170.2878044335969
 31
0.0
  0
LINE
  5
2E3
330
1A
100
AcDbEntity
  8
NOKITOI
  6
CONTINUOUS
 62
     8
100
AcDbLine
 10
314.5782510605515
 20
160.9595044335969
 30
0.0
 11
312.3291510605515
 21
160.9595044335969
 31
0.0
  0
LINE
  5
2E4
330
1A
100
AcDbEntity
  8
NOKITOI
  6
CONTINUOUS
 62
     8
100
AcDbLine
 10
313.9141510605515
 20
162.1595044335969
 30
0.0
 11
313.1362510605519
 21
162.1595044335969
 31
0.0
  0
LINE
  5
2E5
330
1A
100
AcDbEntity
  8
NOKITOI
  6
CONTINUOUS
 62
     8
100
AcDbLine
 10
313.5403510605517
 20
164.9879044335968
 30
0.0
 11
314.0953510605515
 21
165.6010044335971
 31
0.0
  0
LINE
  5
2E6
330
1A
100
AcDbEntity
  8
NOKITOI
  6
CONTINUOUS
 62
     8
100
AcDbLine
 10
308.5065510605515
 20
154.4595044335969
 30
0.0
 11
314.6512510605513
 21
154.4595044335969
 31
0.0
  0
ARC
  5
2E7
330
1A
100
AcDbEntity
  8
SEIHIN
  6
CONTINUOUS
 62
     3
100
AcDbCircle
 10
313.4885723165748
 20
150.9594864342448
 30
0.0
 40
0.500017999803811
100
AcDbArc
 50
9.487362737777182
 51
90.00243567314681
  0
ARC
  5
2E8
330
1A
100
AcDbEntity
  8
SEIHIN
  6
CONTINUOUS
 62
     3
100
AcDbCircle
 10
313.4885505940583
 20
150.9595048285969
 30
0.0
 40
2.499999604999941
100
AcDbArc
 50
9.487932207045101
 51
89.9999893087588
  0
LINE
  5
2E9
330
1A
100
AcDbEntity
  8
NOKITOI
  6
CONTINUOUS
 62
     8
100
AcDbLine
 10
316.1951510605519
 20
155.659504433597
 30
0.0
 11
310.1542510605515
 21
155.659504433597
 31
0.0
  0
ARC
  5
2EA
330
1A
100
AcDbEntity
  8
SEIHIN
  6
CONTINUOUS
 62
     3
100
AcDbCircle
 10
308.6130576487207
 20
154.959498041903
 30
0.0
 40
1.499993608320611
100
AcDbArc
 50
181.7341802721267
 51
269.9997483494003
  0
ARC
  5
2EB
330
1A
100
AcDbEntity
  8
NOKITOI
  6
CONTINUOUS
 62
     8
100
AcDbCircle
 10
308.5065870197023
 20
155.9594695794537
 30
0.0
 40
1.499965146287778
100
AcDbArc
 50
181.7866280217767
 51
269.9986264296976
  0
ARC
  5
2EC
330
1A
100
AcDbEntity
  8
SEIHIN
  6
CONTINUOUS
 62
     3
100
AcDbCircle
 10
306.6727576487209
 20
152.959498041903
 30
0.0
 40
1.499993608320611
100
AcDbArc
 50
181.7341802721267
 51
269.9997483494003
  0
LINE
  5
2ED
330
1A
100
AcDbEntity
  8
SEIHIN
  6
CONTINUOUS
 62
     3
100
AcDbLine
 10
308.6130510605515
 20
153.4595044335968
 30
0.0
 11
313.4885510605517
 21
153.4595044335968
 31
0.0
  0
LINE
  5
2EE
330
1A
100
AcDbEntity
  8
SEIHIN
  6
CONTINUOUS
 62
     3
100
AcDbLine
 10
306.6727510605516
 20
151.4595044335968
 30
0.0
 11
313.4885510605517
 21
151.4595044335968
 31
0.0
  0
LINE
  5
2EF
330
1A
100
AcDbEntity
  8
NOKITOI
  6
CONTINUOUS
 62
     8
100
AcDbLine
 10
311.8342510605513
 20
161.5303044335971
 30
0.0
 11
312.1679510605515
 21
163.866504433597
 31
0.0
  0
ARC
  5
2F0
330
1A
100
AcDbEntity
  8
NOKITOI
  6
CONTINUOUS
 62
     8
100
AcDbCircle
 10
312.3291776611492
 20
161.4594737567149
 30
0.0
 40
0.4999693238254178
100
AcDbArc
 50
171.8555038770532
 51
269.9969516090348
  0
LINE
  5
2F1
330
1A
100
AcDbEntity
  8
NOKITOI
  6
CONTINUOUS
 62
     8
100
AcDbLine
 10
313.1362510605519
 20
162.1595044335969
 30
0.0
 11
313.5403510605517
 21
164.9879044335968
 31
0.0
  0
ARC
  5
2F2
330
1A
100
AcDbEntity
  8
NOKITOI
  6
CONTINUOUS
 62
     8
100
AcDbCircle
 10
311.6729652789669
 20
163.9371897992959
 30
0.0
 40
0.5000073448410256
100
AcDbArc
 50
351.8729478641243
 51
96.47829282996843
  0
LINE
  5
2F3
330
1A
100
AcDbEntity
  8
NOKITOI
  6
CONTINUOUS
 62
     8
100
AcDbLine
 10
312.5296510605518
 20
165.659504433597
 30
0.0
 11
312.0677510605516
 21
165.659504433597
 31
0.0
  0
ARC
  5
2F4
330
1A
100
AcDbEntity
  8
NOKITOI
  6
CONTINUOUS
 62
     8
100
AcDbCircle
 10
310.1542646326899
 20
157.6594912785105
 30
0.0
 40
1.999986844959662
100
AcDbArc
 50
181.7875531852363
 51
269.9996111843223
  0
LINE
  5
2F5
330
1A
100
AcDbEntity
  8
NOKITOI
  6
CONTINUOUS
 62
     8
100
AcDbLine
 10
308.1552510605512
 20
157.5971044335969
 30
0.0
 11
308.0697510605515
 21
160.3346044335969
 31
0.0
  0
ARC
  5
2F6
330
1A
100
AcDbEntity
  8
NOKITOI
  6
CONTINUOUS
 62
     8
100
AcDbCircle
 10
312.0677889419982
 20
160.4595482161223
 30
0.0
 40
3.999989731271038
100
AcDbArc
 50
96.47731142013144
 51
181.7899836067308
  0
ARC
  5
2F7
330
1A
100
AcDbEntity
  8
NOKITOI
  6
CONTINUOUS
 62
     8
100
AcDbCircle
 10
314.6512426363889
 20
153.4595119486534
 30
0.0
 40
0.9999924849789756
100
AcDbArc
 50
6.528264606674428
 51
89.99951732740891
  0
LINE
  5
2F8
330
1A
100
AcDbEntity
  8
SEIHIN
  6
CONTINUOUS
 62
     3
100
AcDbLine
 10
321.7852510605516
 20
153.4595044335968
 30
0.0
 11
324.5964510605516
 21
153.4595044335968
 31
0.0
  0
LINE
  5
2F9
330
1A
100
AcDbEntity
  8
SEIHIN
  6
CONTINUOUS
 62
     3
100
AcDbLine
 10
317.7078510605516
 20
156.9595044335969
 30
0.0
 11
319.7078510605516
 21
156.9595044335969
 31
0.0
  0
ARC
  5
2FA
330
1A
100
AcDbEntity
  8
NOKITOI
  6
CONTINUOUS
 62
     8
100
AcDbCircle
 10
316.1951636302598
 20
155.1594928088672
 30
0.0
 40
0.5000116248877111
100
AcDbArc
 50
4.474846808342897
 51
90.00144034898337
  0
LINE
  5
2FB
330
1A
100
AcDbEntity
  8
SEIHIN
  6
CONTINUOUS
 62
     3
100
AcDbLine
 10
317.7078510605516
 20
156.9595044335969
 30
0.0
 11
317.5523510605515
 21
162.5566044335969
 31
0.0
  0
LINE
  5
2FC
330
1A
100
AcDbEntity
  8
NOKITOI
  6
CONTINUOUS
 62
     8
100
AcDbLine
 10
313.9141510605515
 20
162.1595044335969
 30
0.0
 11
314.0953510605515
 21
165.6010044335971
 31
0.0
  0
ARC
  5
2FD
330
1A
100
AcDbEntity
  8
NOKITOI
  6
CONTINUOUS
 62
     8
100
AcDbCircle
 10
314.5782441735565
 20
161.4594978985114
 30
0.0
 40
0.499993464961963
100
AcDbArc
 50
270.0007892017873
 51
356.9970361317427
  0
ARC
  5
2FE
330
1A
100
AcDbEntity
  8
SEIHIN
  6
CONTINUOUS
 62
     3
100
AcDbCircle
 10
313.2257879544821
 20
173.9595257346201
 30
0.0
 40
2.000021301363482
100
AcDbArc
 50
269.998943078002
 51
329.9996476926647
  0
LINE
  5
2FF
330
1A
100
AcDbEntity
  8
NOKITOI
  6
CONTINUOUS
 62
     8
100
AcDbLine
 10
314.8940510605513
 20
167.9595044335969
 30
0.0
 11
312.6625510605514
 21
167.9595044335969
 31
0.0
  0
ARC
  5
303
330
1A
100
AcDbEntity
  8
SEIHIN
  6
CONTINUOUS
 62
     3
100
AcDbCircle
 10
312.1516010598587
 20
172.7657544342897
 30
0.0
 40
4.500008681411303
100
AcDbArc
 50
286.8745533813449
 51
343.1254466186572
  0
ARC
  5
304
330
1A
100
AcDbEntity
  8
SEIHIN
  6
CONTINUOUS
 62
     3
100
AcDbCircle
 10
306.6578421873969
 20
169.9594952873887
 30
0.0
 40
2.000009146227911
100
AcDbArc
 50
89.99974580400499
 51
181.7360577910703
  0
LINE
  5
305
330
1A
100
AcDbEntity
  8
SEIHIN
  6
CONTINUOUS
 62
     3
100
AcDbLine
 10
313.4578510605516
 20
169.9595044335968
 30
0.0
 11
308.7193510605516
 21
169.9595044335968
 31
0.0
  0
LINE
  5
306
330
1A
100
AcDbEntity
  8
NOKITOI
  6
CONTINUOUS
 62
     8
100
AcDbLine
 10
308.6161510605513
 20
170.4595044335969
 30
0.0
 11
311.9427510605516
 21
170.4595044335969
 31
0.0
  0
ARC
  5
307
330
1A
100
AcDbEntity
  8
NOKITOI
  6
CONTINUOUS
 62
     8
100
AcDbCircle
 10
311.9427502775431
 20
169.9595053885986
 30
0.0
 40
0.4999990449987349
100
AcDbArc
 50
348.6967198015448
 51
89.99991027369452
  0
LINE
  5
308
330
1A
100
AcDbEntity
  8
NOKITOI
  6
CONTINUOUS
 62
     8
100
AcDbLine
 10
308.6161510605513
 20
169.2595044335971
 30
0.0
 11
311.0889510605517
 21
169.2595044335971
 31
0.0
  0
ARC
  5
309
330
1A
100
AcDbEntity
  8
NOKITOI
  6
CONTINUOUS
 62
     8
100
AcDbCircle
 10
312.662543805996
 20
168.4595132834403
 30
0.0
 40
0.5000088498959383
100
AcDbArc
 50
168.6864043304884
 51
270.0008312961434
  0
LINE
  5
30A
330
1A
100
AcDbEntity
  8
NOKITOI
  6
CONTINUOUS
 62
     8
100
AcDbLine
 10
310.5889510605517
 20
166.7595044335971
 30
0.0
 11
313.5254510605515
 21
166.7595044335971
 31
0.0
  0
LINE
  5
30B
330
1A
100
AcDbEntity
  8
NOKITOI
  6
CONTINUOUS
 62
     8
100
AcDbLine
 10
311.0889510605517
 20
169.2595044335971
 30
0.0
 11
310.5889510605517
 21
166.7595044335971
 31
0.0
  0
LINE
  5
30C
330
1A
100
AcDbEntity
  8
SEIHIN
  6
CONTINUOUS
 62
     3
100
AcDbLine
 10
313.4578510605516
 20
169.9595044335968
 30
0.0
 11
313.4578510605516
 21
168.4595044335969
 31
0.0
  0
LINE
  5
30D
330
1A
100
AcDbEntity
  8
NOKITOI
  6
CONTINUOUS
 62
     8
100
AcDbLine
 10
312.1722510605515
 20
168.5576044335968
 30
0.0
 11
312.4330510605515
 21
169.8615044335969
 31
0.0
  0
LINE
  5
30E
330
1A
100
AcDbEntity
  8
SEIHIN
  6
CONTINUOUS
 62
     3
100
AcDbLine
 10
306.6578510605516
 20
171.9595044335969
 30
0.0
 11
313.2257510605515
 21
171.9595044335969
 31
0.0
  0
ARC
  5
30F
330
1A
100
AcDbEntity
  8
NOKITOI
  6
CONTINUOUS
 62
     8
100
AcDbCircle
 10
308.6161555553496
 20
168.4595090711238
 30
0.0
 40
0.7999953624857498
100
AcDbArc
 50
90.00032191805336
 51
181.7911273464199
  0
ARC
  5
310
330
1A
100
AcDbEntity
  8
SEIHIN
  6
CONTINUOUS
 62
     3
100
AcDbCircle
 10
308.719342187397
 20
167.9594952873887
 30
0.0
 40
2.000009146227811
100
AcDbArc
 50
89.9997458040055
 51
181.7360577910708
  0
ARC
  5
311
330
1A
100
AcDbEntity
  8
NOKITOI
  6
CONTINUOUS
 62
     8
100
AcDbCircle
 10
308.6161638114014
 20
168.4595175886833
 30
0.0
 40
1.999986844954076
100
AcDbArc
 50
90.00036528735526
 51
181.7883072882699
  0
ARC
  5
314
330
1A
100
AcDbEntity
  8
SEIHIN
  6
CONTINUOUS
 62
     3
100
AcDbCircle
 10
321.6297329783694
 20
170.2594866499595
 30
0.0
 40
1.700017783733585
100
AcDbArc
 50
89.99939057536485
 51
179.0455602619317
  0
LINE
  5
315
330
1A
100
AcDbEntity
  8
SEIHIN
  6
CONTINUOUS
 62
     3
100
AcDbLine
 10
313.9885510605517
 20
165.9595044335968
 30
0.0
 11
314.0537510605515
 21
165.9595044335968
 31
0.0
  0
ARC
  5
316
330
1A
100
AcDbEntity
  8
NOKITOI
  6
CONTINUOUS
 62
     8
100
AcDbCircle
 10
314.8940448593936
 20
167.4595109686822
 30
0.0
 40
0.4999934649531607
100
AcDbArc
 50
356.9955363203384
 51
89.99928939038005
  0
ARC
  5
317
330
1A
100
AcDbEntity
  8
SEIHIN
  6
CONTINUOUS
 62
     3
100
AcDbCircle
 10
314.9578510605516
 20
171.4595044335969
 30
0.0
 40
1.4999999999999
100
AcDbArc
 50
359.9999999999994
 51
89.99999999999944
  0
LINE
  5
318
330
1A
100
AcDbEntity
  8
SEIHIN
  6
CONTINUOUS
 62
     3
100
AcDbLine
 10
339.5961510605516
 20
171.9594044335969
 30
0.0
 11
339.5960510605515
 21
135.6606044335969
 31
0.0
  0
LINE
  5
319
330
1A
100
AcDbEntity
  8
SEIHIN
  6
CONTINUOUS
 62
     3
100
AcDbLine
 10
374.5961510605516
 20
171.9594044335969
 30
0.0
 11
374.5961510605516
 21
135.6606044335969
 31
0.0
  0
LINE
  5
31A
330
1A
100
AcDbEntity
  8
SEIHIN
  6
CONTINUOUS
 62
     3
100
AcDbLine
 10
394.5961510605517
 20
171.9593044335968
 30
0.0
 11
394.5961510605517
 21
135.6605044335968
 31
0.0
  0
LINE
  5
31B
330
1A
100
AcDbEntity
  8
SEIHIN
  6
CONTINUOUS
 62
     3
100
AcDbLine
 10
374.5964510605516
 20
135.6606044335969
 30
0.0
 11
394.5964510605514
 21
135.6606044335969
 31
0.0
  0
LINE
  5
31C
330
1A
100
AcDbEntity
  8
SEIHIN
  6
CONTINUOUS
 62
     3
100
AcDbLine
 10
339.5964510605516
 20
153.4595044335968
 30
0.0
 11
374.5964510605516
 21
153.4595044335968
 31
0.0
  0
LINE
  5
321
330
1A
100
AcDbEntity
  8
SEIHIN
  6
CONTINUOUS
 62
     3
100
AcDbLine
 10
321.6579510605516
 20
370.8262044335967
 30
0.0
 11
321.6579510605516
 21
390.8262044335967
 31
0.0
  0
LINE
  5
322
330
1A
100
AcDbEntity
  8
SEIHIN
  6
CONTINUOUS
 62
     3
100
AcDbLine
 10
319.9579510605515
 20
370.8262044335967
 30
0.0
 11
319.9579510605515
 21
390.8262044335967
 31
0.0
  0
LINE
  5
323
330
1A
100
AcDbEntity
  8
SEIHIN
  6
CONTINUOUS
 62
     3
100
AcDbLine
 10
315.6579510605516
 20
372.5262044335969
 30
0.0
 11
315.6579510605516
 21
389.1262044335967
 31
0.0
  0
LINE
  5
324
330
1A
100
AcDbEntity
  8
SEIHIN
  6
CONTINUOUS
 62
     3
100
AcDbLine
 10
306.5972510605516
 20
328.8035044335968
 30
0.0
 11
306.5972510605516
 21
457.8254044335968
 31
0.0
  0
LINE
  5
325
330
1A
100
AcDbEntity
  8
SEIHIN
  6
CONTINUOUS
 62
     3
100
AcDbLine
 10
304.5963510605516
 20
306.8035044335969
 30
0.0
 11
304.5964510605516
 21
458.8262044335968
 31
0.0
  0
ARC
  5
326
330
1A
100
AcDbEntity
  8
SEIHIN
  6
CONTINUOUS
 62
     3
100
AcDbCircle
 10
308.5972510605516
 20
328.8035044335968
 30
0.0
 40
2.0
100
AcDbArc
 50
180.0
 51
270.0
  0
LINE
  5
327
330
1A
100
AcDbEntity
  8
SEIHIN
  6
CONTINUOUS
 62
     3
100
AcDbLine
 10
315.6579510605516
 20
326.8035044335968
 30
0.0
 11
315.6579510605516
 21
370.8262044335967
 31
0.0
  0
LINE
  5
328
330
1A
100
AcDbEntity
  8
SEIHIN
  6
CONTINUOUS
 62
     3
100
AcDbLine
 10
304.6966510605516
 20
306.8036044335968
 30
0.0
 11
305.6965510605516
 21
301.8036044335969
 31
0.0
  0
LINE
  5
329
330
1A
100
AcDbEntity
  8
SEIHIN
  6
CONTINUOUS
 62
     3
100
AcDbLine
 10
316.4578510605515
 20
301.8035044335968
 30
0.0
 11
316.4578510605515
 21
326.8035044335968
 31
0.0
  0
LINE
  5
32A
330
1A
100
AcDbEntity
  8
SEIHIN
  6
CONTINUOUS
 62
     3
100
AcDbLine
 10
314.9578510605516
 20
301.8035044335968
 30
0.0
 11
314.9578510605516
 21
326.8035044335968
 31
0.0
  0
LINE
  5
32B
330
1A
100
AcDbEntity
  8
SEIHIN
  6
CONTINUOUS
 62
     3
100
AcDbLine
 10
313.2258510605515
 20
301.8035044335968
 30
0.0
 11
313.2258510605515
 21
326.8035044335968
 31
0.0
  0
LINE
  5
32C
330
1A
100
AcDbEntity
  8
SEIHIN
  6
CONTINUOUS
 62
     3
100
AcDbLine
 10
316.4578510605515
 20
326.8035044335968
 30
0.0
 11
308.5972510605516
 21
326.8035044335968
 31
0.0
  0
LINE
  5
32D
330
1A
100
AcDbEntity
  8
SEIHIN
  6
CONTINUOUS
 62
     3
100
AcDbLine
 10
313.4885510605517
 20
372.5262044335969
 30
0.0
 11
319.9579510605515
 21
372.5262044335969
 31
0.0
  0
LINE
  5
32E
330
1A
100
AcDbEntity
  8
SEIHIN
  6
CONTINUOUS
 62
     3
100
AcDbLine
 10
313.4885510605517
 20
370.8262044335967
 30
0.0
 11
321.6579510605516
 21
370.8262044335967
 31
0.0
  0
LINE
  5
32F
330
1A
100
AcDbEntity
  8
SEIHIN
  6
CONTINUOUS
 62
     3
100
AcDbLine
 10
313.4886510605516
 20
370.8262044335967
 30
0.0
 11
313.4886510605516
 21
372.5262044335969
 31
0.0
  0
LINE
  5
330
330
1A
100
AcDbEntity
  8
SEIHIN
  6
CONTINUOUS
 62
     3
100
AcDbLine
 10
317.4579510605515
 20
370.8262044335967
 30
0.0
 11
317.4579510605515
 21
372.5262044335969
 31
0.0
  0
LINE
  5
331
330
1A
100
AcDbEntity
  8
SEIHIN
  6
CONTINUOUS
 62
     3
100
AcDbLine
 10
337.8964510605516
 20
449.7647044335969
 30
0.0
 11
316.6580510605516
 21
449.7647044335969
 31
0.0
  0
LINE
  5
332
330
1A
100
AcDbEntity
  8
SEIHIN
  6
CONTINUOUS
 62
     3
100
AcDbLine
 10
339.5964510605516
 20
445.4647044335969
 30
0.0
 11
324.5964510605516
 21
445.4647044335969
 31
0.0
  0
LINE
  5
333
330
1A
100
AcDbEntity
  8
SEIHIN
  6
CONTINUOUS
 62
     3
100
AcDbLine
 10
339.5964510605516
 20
443.7647044335968
 30
0.0
 11
324.5964510605516
 21
443.7648044335968
 31
0.0
  0
LINE
  5
334
330
1A
100
AcDbEntity
  8
SEIHIN
  6
CONTINUOUS
 62
     3
100
AcDbLine
 10
315.6579510605516
 20
390.8262044335967
 30
0.0
 11
315.6579510605516
 21
425.8262044335968
 31
0.0
  0
LINE
  5
335
330
1A
100
AcDbEntity
  8
SEIHIN
  6
CONTINUOUS
 62
     3
100
AcDbLine
 10
313.4885510605517
 20
389.1262044335967
 30
0.0
 11
319.9579510605515
 21
389.1262044335967
 31
0.0
  0
LINE
  5
336
330
1A
100
AcDbEntity
  8
SEIHIN
  6
CONTINUOUS
 62
     3
100
AcDbLine
 10
313.4885510605517
 20
390.8262044335967
 30
0.0
 11
321.6579510605516
 21
390.8262044335967
 31
0.0
  0
LINE
  5
337
330
1A
100
AcDbEntity
  8
SEIHIN
  6
CONTINUOUS
 62
     3
100
AcDbLine
 10
313.4886510605516
 20
389.1262044335967
 30
0.0
 11
313.4886510605516
 21
390.8262044335967
 31
0.0
  0
LINE
  5
338
330
1A
100
AcDbEntity
  8
SEIHIN
  6
CONTINUOUS
 62
     3
100
AcDbLine
 10
317.4579510605515
 20
389.1262044335967
 30
0.0
 11
317.4579510605515
 21
390.8262044335967
 31
0.0
  0
LINE
  5
339
330
1A
100
AcDbEntity
  8
SEIHIN
  6
CONTINUOUS
 62
     3
100
AcDbLine
 10
324.5964510605516
 20
445.4646044335969
 30
0.0
 11
324.5964510605516
 21
443.7646044335969
 31
0.0
  0
LINE
  5
33A
330
1A
100
AcDbEntity
  8
SEIHIN
  6
CONTINUOUS
 62
     3
100
AcDbLine
 10
315.6579510605516
 20
427.5262044335969
 30
0.0
 11
315.6579510605516
 21
448.7646044335967
 31
0.0
  0
LINE
  5
33B
330
1A
100
AcDbEntity
  8
SEIHIN
  6
CONTINUOUS
 62
     3
100
AcDbLine
 10
313.4887510605515
 20
427.5262044335969
 30
0.0
 11
319.9579510605515
 21
427.5262044335969
 31
0.0
  0
LINE
  5
33C
330
1A
100
AcDbEntity
  8
SEIHIN
  6
CONTINUOUS
 62
     3
100
AcDbLine
 10
313.4887510605515
 20
425.8262044335968
 30
0.0
 11
321.6579510605516
 21
425.8262044335968
 31
0.0
  0
LINE
  5
33D
330
1A
100
AcDbEntity
  8
SEIHIN
  6
CONTINUOUS
 62
     3
100
AcDbLine
 10
313.4886510605516
 20
425.8262044335968
 30
0.0
 11
313.4886510605516
 21
427.5262044335969
 31
0.0
  0
LINE
  5
33E
330
1A
100
AcDbEntity
  8
SEIHIN
  6
CONTINUOUS
 62
     3
100
AcDbLine
 10
321.6579510605516
 20
425.8262044335968
 30
0.0
 11
321.6579510605516
 21
440.8262044335968
 31
0.0
  0
LINE
  5
33F
330
1A
100
AcDbEntity
  8
SEIHIN
  6
CONTINUOUS
 62
     3
100
AcDbLine
 10
319.9579510605515
 20
425.8262044335968
 30
0.0
 11
319.9579510605515
 21
440.8262044335968
 31
0.0
  0
LINE
  5
340
330
1A
100
AcDbEntity
  8
SEIHIN
  6
CONTINUOUS
 62
     3
100
AcDbLine
 10
317.4579510605515
 20
425.8262044335968
 30
0.0
 11
317.4579510605515
 21
427.5262044335969
 31
0.0
  0
LINE
  5
341
330
1A
100
AcDbEntity
  8
SEIHIN
  6
CONTINUOUS
 62
     3
100
AcDbLine
 10
319.9580510605515
 20
440.8262044335968
 30
0.0
 11
321.6580510605515
 21
440.8262044335968
 31
0.0
  0
ARC
  5
342
330
1A
100
AcDbEntity
  8
SEIHIN
  6
CONTINUOUS
 62
     3
100
AcDbCircle
 10
306.5964510605515
 20
458.8262044335968
 30
0.0
 40
1.999999999999886
100
AcDbArc
 50
90.0
 51
180.0
  0
ARC
  5
343
330
1A
100
AcDbEntity
  8
SEIHIN
  6
CONTINUOUS
 62
     3
100
AcDbCircle
 10
307.5972510605517
 20
457.8254044335968
 30
0.0
 40
1.0
100
AcDbArc
 50
90.0
 51
180.0
  0
ARC
  5
344
330
1A
100
AcDbEntity
  8
SEIHIN
  6
CONTINUOUS
 62
     3
100
AcDbCircle
 10
316.6579510605517
 20
448.7646044335967
 30
0.0
 40
1.0
100
AcDbArc
 50
90.0
 51
180.0
  0
LINE
  5
345
330
1A
100
AcDbEntity
  8
SEIHIN
  6
CONTINUOUS
 62
     3
100
AcDbLine
 10
374.5965510605515
 20
449.7646044335968
 30
0.0
 11
339.5964510605516
 21
449.7647044335969
 31
0.0
  0
LINE
  5
346
330
1A
100
AcDbEntity
  8
SEIHIN
  6
CONTINUOUS
 62
     3
100
AcDbLine
 10
339.5964510605516
 20
451.9339044335969
 30
0.0
 11
339.5964510605516
 21
443.7647044335968
 31
0.0
  0
LINE
  5
347
330
1A
100
AcDbEntity
  8
SEIHIN
  6
CONTINUOUS
 62
     3
100
AcDbLine
 10
339.5964510605516
 20
451.9339044335969
 30
0.0
 11
337.8964510605516
 21
451.9339044335969
 31
0.0
  0
LINE
  5
348
330
1A
100
AcDbEntity
  8
SEIHIN
  6
CONTINUOUS
 62
     3
100
AcDbLine
 10
339.5964510605516
 20
447.9647044335966
 30
0.0
 11
337.8964510605516
 21
447.9647044335966
 31
0.0
  0
LINE
  5
349
330
1A
100
AcDbEntity
  8
SEIHIN
  6
CONTINUOUS
 62
     3
100
AcDbLine
 10
337.8964510605516
 20
451.9339044335969
 30
0.0
 11
337.8964510605516
 21
445.4647044335969
 31
0.0
  0
LINE
  5
34A
330
1A
100
AcDbEntity
  8
SEIHIN
  6
CONTINUOUS
 62
     3
100
AcDbLine
 10
374.5965510605515
 20
451.9340044335968
 30
0.0
 11
374.5965510605515
 21
443.7647044335968
 31
0.0
  0
LINE
  5
34B
330
1A
100
AcDbEntity
  8
SEIHIN
  6
CONTINUOUS
 62
     3
100
AcDbLine
 10
394.5965510605516
 20
451.9340044335968
 30
0.0
 11
394.5964510605514
 21
443.7646044335969
 31
0.0
  0
LINE
  5
34C
330
1A
100
AcDbEntity
  8
SEIHIN
  6
CONTINUOUS
 62
     3
100
AcDbLine
 10
394.5964510605514
 20
443.7646044335969
 30
0.0
 11
374.5965510605515
 21
443.7647044335968
 31
0.0
  0
LINE
  5
34D
330
1A
100
AcDbEntity
  8
SEIHIN
  6
CONTINUOUS
 62
     3
100
AcDbLine
 10
392.8964510605514
 20
449.7646044335968
 30
0.0
 11
376.2965510605516
 21
449.7646044335968
 31
0.0
  0
LINE
  5
34E
330
1A
100
AcDbEntity
  8
SEIHIN
  6
CONTINUOUS
 62
     3
100
AcDbLine
 10
394.5965510605516
 20
445.4646044335969
 30
0.0
 11
374.5964510605516
 21
445.4646044335969
 31
0.0
  0
LINE
  5
34F
330
1A
100
AcDbEntity
  8
SEIHIN
  6
CONTINUOUS
 62
     3
100
AcDbLine
 10
376.2965510605516
 20
451.9339044335969
 30
0.0
 11
374.5965510605515
 21
451.9339044335969
 31
0.0
  0
LINE
  5
350
330
1A
100
AcDbEntity
  8
SEIHIN
  6
CONTINUOUS
 62
     3
100
AcDbLine
 10
376.2965510605516
 20
447.9646044335969
 30
0.0
 11
374.5965510605515
 21
447.9646044335969
 31
0.0
  0
LINE
  5
351
330
1A
100
AcDbEntity
  8
SEIHIN
  6
CONTINUOUS
 62
     3
100
AcDbLine
 10
376.2965510605516
 20
451.9340044335968
 30
0.0
 11
376.2964510605516
 21
445.4646044335969
 31
0.0
  0
LINE
  5
352
330
1A
100
AcDbEntity
  8
SEIHIN
  6
CONTINUOUS
 62
     3
100
AcDbLine
 10
394.5965510605516
 20
451.9339044335969
 30
0.0
 11
392.8964510605514
 21
451.9339044335969
 31
0.0
  0
LINE
  5
353
330
1A
100
AcDbEntity
  8
SEIHIN
  6
CONTINUOUS
 62
     3
100
AcDbLine
 10
394.5965510605516
 20
447.9646044335969
 30
0.0
 11
392.8964510605514
 21
447.9646044335969
 31
0.0
  0
LINE
  5
354
330
1A
100
AcDbEntity
  8
SEIHIN
  6
CONTINUOUS
 62
     3
100
AcDbLine
 10
392.8964510605514
 20
451.9340044335968
 30
0.0
 11
392.8964510605514
 21
445.4646044335969
 31
0.0
  0
LINE
  5
35C
330
1A
100
AcDbEntity
  8
SEIHIN
  6
CONTINUOUS
 62
     3
100
AcDbLine
 10
458.6189510605515
 20
123.4361044335969
 30
0.0
 11
463.6187510605515
 21
124.4360044335969
 31
0.0
  0
LINE
  5
35D
330
1A
100
AcDbEntity
  8
SEIHIN
  6
CONTINUOUS
 62
     3
100
AcDbLine
 10
463.6189510605515
 20
171.9598044335969
 30
0.0
 11
420.0899510605514
 21
171.9594044335969
 31
0.0
  0
LINE
  5
35E
330
1A
100
AcDbEntity
  8
SEIHIN
  6
CONTINUOUS
 62
     3
100
AcDbLine
 10
458.6189510605515
 20
151.4595044335968
 30
0.0
 11
463.6188510605516
 21
152.4594044335969
 31
0.0
  0
LINE
  5
35F
330
1A
100
AcDbEntity
  8
SEIHIN
  6
CONTINUOUS
 62
     3
100
AcDbLine
 10
438.6189510605515
 20
172.9594044335969
 30
0.0
 11
463.6189510605515
 21
172.9594044335969
 31
0.0
  0
LINE
  5
360
330
1A
100
AcDbEntity
  8
SEIHIN
  6
CONTINUOUS
 62
     3
100
AcDbLine
 10
458.6189510605515
 20
113.4595044335969
 30
0.0
 11
463.6188510605516
 21
114.4594044335968
 31
0.0
  0
LINE
  5
361
330
1A
100
AcDbEntity
  8
SEIHIN
  6
CONTINUOUS
 62
     3
100
AcDbLine
 10
419.2775338926099
 20
150.5590012608944
 30
0.0
 11
416.6066510605516
 21
123.8483044335969
 31
0.0
  0
LINE
  5
362
330
1A
100
AcDbEntity
  8
SEIHIN
  6
CONTINUOUS
 62
     3
100
AcDbLine
 10
414.6990510605514
 20
124.8716044335968
 30
0.0
 11
417.3324510605515
 21
151.2082044335968
 31
0.0
  0
LINE
  5
363
330
1A
100
AcDbEntity
  8
NOKITOI
  6
CONTINUOUS
 62
     8
100
AcDbLine
 10
416.4216510605517
 20
155.2093044335969
 30
0.0
 11
413.4286510605512
 21
125.2795044335968
 31
0.0
  0
LINE
  5
364
330
1A
100
AcDbEntity
  8
NOKITOI
  6
CONTINUOUS
 62
     8
100
AcDbLine
 10
417.4626510605518
 20
153.5590044335969
 30
0.0
 11
414.5938510605517
 21
124.8716044335969
 31
0.0
  0
LINE
  5
365
330
1A
100
AcDbEntity
  8
SEIHIN
  6
CONTINUOUS
 62
     3
100
AcDbLine
 10
411.6578510605514
 20
171.9594044335969
 30
0.0
 11
411.3117510605516
 21
121.7218044335968
 31
0.0
  0
LINE
  5
366
330
1A
100
AcDbEntity
  8
SEIHIN
  6
CONTINUOUS
 62
     3
100
AcDbLine
 10
458.6189510605515
 20
171.9598044335969
 30
0.0
 11
458.6189510605515
 21
113.4594044335968
 31
0.0
  0
LINE
  5
367
330
1A
100
AcDbEntity
  8
SEIHIN
  6
CONTINUOUS
 62
     3
100
AcDbLine
 10
416.5654510605515
 20
123.4361044335969
 30
0.0
 11
458.6189510605515
 21
123.4361044335969
 31
0.0
  0
LINE
  5
368
330
1A
100
AcDbEntity
  8
SEIHIN
  6
CONTINUOUS
 62
     3
100
AcDbLine
 10
404.3717510605516
 20
113.4595044335969
 30
0.0
 11
458.6189510605515
 21
113.4595044335969
 31
0.0
  0
LINE
  5
369
330
1A
100
AcDbEntity
  8
SEIHIN
  6
CONTINUOUS
 62
     3
100
AcDbLine
 10
416.2448510605515
 20
123.1738044335969
 30
0.0
 11
404.6480510605516
 21
113.6855044335968
 31
0.0
  0
LINE
  5
36A
330
1A
100
AcDbEntity
  8
SEIHIN
  6
CONTINUOUS
 62
     3
100
AcDbLine
 10
414.3371510605515
 20
124.1971044335968
 30
0.0
 11
403.9340510605517
 21
115.6855044335968
 31
0.0
  0
LINE
  5
36B
330
1A
100
AcDbEntity
  8
NOKITOI
  6
CONTINUOUS
 62
     8
100
AcDbLine
 10
413.2477510605519
 20
124.9422044335969
 30
0.0
 11
403.2624510605516
 21
116.7724044335968
 31
0.0
  0
LINE
  5
36C
330
1A
100
AcDbEntity
  8
NOKITOI
  6
CONTINUOUS
 62
     8
100
AcDbLine
 10
414.2320510605515
 20
124.1971044335971
 30
0.0
 11
403.8289510605515
 21
115.685404433597
 31
0.0
  0
ARC
  5
36D
330
1A
100
AcDbEntity
  8
SEIHIN
  6
CONTINUOUS
 62
     3
100
AcDbCircle
 10
403.3008638360488
 20
116.459508993576
 30
0.0
 40
1.000004560060752
100
AcDbArc
 50
269.9992680212705
 51
309.2854498595975
  0
ARC
  5
36E
330
1A
100
AcDbEntity
  8
NOKITOI
  6
CONTINUOUS
 62
     8
100
AcDbCircle
 10
402.9458574483002
 20
117.1594067135865
 30
0.0
 40
0.5000022800304047
100
AcDbArc
 50
269.9992680212786
 51
309.2854498596058
  0
ARC
  5
36F
330
1A
100
AcDbEntity
  8
NOKITOI
  6
CONTINUOUS
 62
     8
100
AcDbCircle
 10
403.1956441279741
 20
116.4594019585908
 30
0.0
 40
0.9999975250179316
100
AcDbArc
 50
270.0003972084043
 51
309.2946416752298
  0
ARC
  5
370
330
1A
100
AcDbEntity
  8
SEIHIN
  6
CONTINUOUS
 62
     3
100
AcDbCircle
 10
404.0148525274893
 20
114.4595406547848
 30
0.0
 40
1.000036226335552
100
AcDbArc
 50
269.9941865833013
 51
309.2848027532913
  0
ARC
  5
371
330
1A
100
AcDbEntity
  8
SEIHIN
  6
CONTINUOUS
 62
     3
100
AcDbCircle
 10
413.7038446902232
 20
124.9710925578147
 30
0.0
 40
1.000067285300693
100
AcDbArc
 50
309.2913294925468
 51
354.2906902639543
  0
ARC
  5
372
330
1A
100
AcDbEntity
  8
SEIHIN
  6
CONTINUOUS
 62
     3
100
AcDbCircle
 10
415.6116223438738
 20
123.9477509046037
 30
0.0
 40
0.9999858737048512
100
AcDbArc
 50
309.2893973661681
 51
354.2926223903409
  0
ARC
  5
373
330
1A
100
AcDbEntity
  8
NOKITOI
  6
CONTINUOUS
 62
     8
100
AcDbCircle
 10
412.9311336346733
 20
125.329171947209
 30
0.0
 40
0.4999904508696396
100
AcDbArc
 50
309.2900846377958
 51
354.2990110749245
  0
ARC
  5
374
330
1A
100
AcDbEntity
  8
NOKITOI
  6
CONTINUOUS
 62
     8
100
AcDbCircle
 10
413.5988284876827
 20
124.9710623619243
 30
0.0
 40
0.9999908507640039
100
AcDbArc
 50
309.2887092230696
 51
354.2862329477531
  0
ARC
  5
378
330
1A
100
AcDbEntity
  8
SEIHIN
  6
CONTINUOUS
 62
     3
100
AcDbCircle
 10
426.5575599337061
 20
169.9594952873887
 30
0.0
 40
2.000009146227921
100
AcDbArc
 50
358.2639422089296
 51
90.00025419599472
  0
LINE
  5
379
330
1A
100
AcDbEntity
  8
SEIHIN
  6
CONTINUOUS
 62
     3
100
AcDbLine
 10
458.6189510605515
 20
151.4595044335968
 30
0.0
 11
420.2725717719681
 21
151.4595044335968
 31
0.0
  0
LINE
  5
37A
330
1A
100
AcDbEntity
  8
NOKITOI
  6
CONTINUOUS
 62
     8
100
AcDbLine
 10
425.2887510605511
 20
168.4345044335968
 30
0.0
 11
425.1394510605516
 21
163.655504433597
 31
0.0
  0
ARC
  5
37B
330
1A
100
AcDbEntity
  8
SEIHIN
  6
CONTINUOUS
 62
     3
100
AcDbCircle
 10
419.2619782058297
 20
162.4594308359388
 30
0.0
 40
3.499973597763351
100
AcDbArc
 50
90.00044437760081
 51
178.4106677862049
  0
LINE
  5
37C
330
1A
100
AcDbEntity
  8
NOKITOI
  6
CONTINUOUS
 62
     8
100
AcDbLine
 10
418.0277510605517
 20
161.4332044335969
 30
0.0
 11
417.7119510605513
 21
167.4332044335969
 31
0.0
  0
LINE
  5
37D
330
1A
100
AcDbEntity
  8
NOKITOI
  6
CONTINUOUS
 62
     8
100
AcDbLine
 10
420.5756510605517
 20
165.659504433597
 30
0.0
 11
419.5798510605516
 21
166.7595044335971
 31
0.0
  0
ARC
  5
37E
330
1A
100
AcDbEntity
  8
NOKITOI
  6
CONTINUOUS
 62
     8
100
AcDbCircle
 10
421.0376331942003
 20
160.4595131619769
 30
0.0
 40
5.199991271650611
100
AcDbArc
 50
37.92532860473096
 51
89.99980314072548
  0
LINE
  5
37F
330
1A
100
AcDbEntity
  8
SEIHIN
  6
CONTINUOUS
 62
     3
100
AcDbLine
 10
419.3270510605515
 20
165.9594044335969
 30
0.0
 11
419.8270510605515
 21
153.4594044335969
 31
0.0
  0
LINE
  5
380
330
1A
100
AcDbEntity
  8
SEIHIN
  6
CONTINUOUS
 62
     3
100
AcDbLine
 10
426.4951510605516
 20
167.8989044335969
 30
0.0
 11
426.1016510605516
 21
154.9140044335968
 31
0.0
  0
LINE
  5
381
330
1A
100
AcDbEntity
  8
NOKITOI
  6
CONTINUOUS
 62
     8
100
AcDbLine
 10
426.4881510605516
 20
168.3970044335969
 30
0.0
 11
426.0980510605515
 21
155.9126044335968
 31
0.0
  0
LINE
  5
382
330
1A
100
AcDbEntity
  8
SEIHIN
  6
CONTINUOUS
 62
     3
100
AcDbLine
 10
413.6077510605516
 20
156.9594044335968
 30
0.0
 11
413.3856510605516
 21
170.2877044335969
 31
0.0
  0
LINE
  5
383
330
1A
100
AcDbEntity
  8
SEIHIN
  6
CONTINUOUS
 62
     3
100
AcDbLine
 10
428.0420510605516
 20
152.9140044335968
 30
0.0
 11
428.5566510605516
 21
169.8989044335969
 31
0.0
  0
ARC
  5
384
330
1A
100
AcDbEntity
  8
SEIHIN
  6
CONTINUOUS
 62
     3
100
AcDbCircle
 10
424.6023460336288
 20
154.9594995569144
 30
0.0
 40
1.499995123325998
100
AcDbArc
 50
270.0001920149254
 51
358.261942098734
  0
ARC
  5
385
330
1A
100
AcDbEntity
  8
NOKITOI
  6
CONTINUOUS
 62
     8
100
AcDbCircle
 10
424.5987682737297
 20
155.9595211167447
 30
0.0
 40
1.500016683246579
100
AcDbArc
 50
269.9993425123348
 51
358.207642324411
  0
ARC
  5
386
330
1A
100
AcDbEntity
  8
NOKITOI
  6
CONTINUOUS
 62
     8
100
AcDbCircle
 10
418.4576717103925
 20
153.4595231214461
 30
0.0
 40
0.9999813123640345
100
AcDbArc
 50
90.00118317084957
 51
174.290590033351
  0
LINE
  5
387
330
1A
100
AcDbEntity
  8
SEIHIN
  6
CONTINUOUS
 62
     3
100
AcDbLine
 10
424.6023510605515
 20
153.4595044335968
 30
0.0
 11
419.8200510605515
 21
153.4595044335968
 31
0.0
  0
ARC
  5
388
330
1A
100
AcDbEntity
  8
SEIHIN
  6
CONTINUOUS
 62
     3
100
AcDbCircle
 10
419.8200504583478
 20
150.9595038885969
 30
0.0
 40
2.500000544999936
100
AcDbArc
 50
89.99998619851282
 51
174.2907613347719
  0
ARC
  5
389
330
1A
100
AcDbEntity
  8
SEIHIN
  6
CONTINUOUS
 62
     3
100
AcDbCircle
 10
426.5426460336288
 20
152.9594995569144
 30
0.0
 40
1.499995123325969
100
AcDbArc
 50
270.0001920149265
 51
358.2619420987351
  0
LINE
  5
38A
330
1A
100
AcDbEntity
  8
NOKITOI
  6
CONTINUOUS
 62
     8
100
AcDbLine
 10
418.5270510605516
 20
160.9595044335969
 30
0.0
 11
420.7761510605512
 21
160.9595044335969
 31
0.0
  0
LINE
  5
38B
330
1A
100
AcDbEntity
  8
NOKITOI
  6
CONTINUOUS
 62
     8
100
AcDbLine
 10
424.5987510605515
 20
154.4595044335969
 30
0.0
 11
418.4576510605517
 21
154.4595044335969
 31
0.0
  0
LINE
  5
38C
330
1A
100
AcDbEntity
  8
NOKITOI
  6
CONTINUOUS
 62
     8
100
AcDbLine
 10
416.9191510605512
 20
155.659504433597
 30
0.0
 11
422.9510510605516
 21
155.659504433597
 31
0.0
  0
ARC
  5
38D
330
1A
100
AcDbEntity
  8
NOKITOI
  6
CONTINUOUS
 62
     8
100
AcDbCircle
 10
418.5270551819582
 20
161.4595005235664
 30
0.0
 40
0.4999960899864752
100
AcDbArc
 50
183.0147243791737
 51
269.9995277178594
  0
LINE
  5
38E
330
1A
100
AcDbEntity
  8
NOKITOI
  6
CONTINUOUS
 62
     8
100
AcDbLine
 10
419.5650510605516
 20
164.9879044335968
 30
0.0
 11
419.0100510605513
 21
165.6009044335969
 31
0.0
  0
LINE
  5
38F
330
1A
100
AcDbEntity
  8
NOKITOI
  6
CONTINUOUS
 62
     8
100
AcDbLine
 10
419.1911510605516
 20
162.1595044335969
 30
0.0
 11
419.9690510605512
 21
162.1595044335969
 31
0.0
  0
LINE
  5
390
330
1A
100
AcDbEntity
  8
NOKITOI
  6
CONTINUOUS
 62
     8
100
AcDbLine
 10
419.1911510605516
 20
162.1595044335969
 30
0.0
 11
419.0100510605513
 21
165.6009044335969
 31
0.0
  0
LINE
  5
391
330
1A
100
AcDbEntity
  8
NOKITOI
  6
CONTINUOUS
 62
     8
100
AcDbLine
 10
419.9690510605512
 20
162.1595044335969
 30
0.0
 11
419.5650510605516
 21
164.9879044335968
 31
0.0
  0
ARC
  5
392
330
1A
100
AcDbEntity
  8
NOKITOI
  6
CONTINUOUS
 62
     8
100
AcDbCircle
 10
416.9191641315562
 20
155.1595162638768
 30
0.0
 40
0.499988169890889
100
AcDbArc
 50
90.00149786226627
 51
174.2966061377156
  0
LINE
  5
393
330
1A
100
AcDbEntity
  8
SEIHIN
  6
CONTINUOUS
 62
     3
100
AcDbLine
 10
415.6077510605516
 20
156.9594044335968
 30
0.0
 11
415.7633510605514
 21
162.5566044335969
 31
0.0
  0
LINE
  5
394
330
1A
100
AcDbEntity
  8
SEIHIN
  6
CONTINUOUS
 62
     3
100
AcDbLine
 10
415.6077510605516
 20
156.9594044335968
 30
0.0
 11
413.6077510605516
 21
156.9594044335968
 31
0.0
  0
ARC
  5
395
330
1A
100
AcDbEntity
  8
NOKITOI
  6
CONTINUOUS
 62
     8
100
AcDbCircle
 10
422.9510890483759
 20
157.6594412541691
 30
0.0
 40
2.000036820932882
100
AcDbArc
 50
269.9989117490339
 51
358.2110591274196
  0
LINE
  5
396
330
1A
100
AcDbEntity
  8
NOKITOI
  6
CONTINUOUS
 62
     8
100
AcDbLine
 10
424.9501510605516
 20
157.596904433597
 30
0.0
 11
425.0356510605512
 21
160.3345044335969
 31
0.0
  0
LINE
  5
397
330
1A
100
AcDbEntity
  8
NOKITOI
  6
CONTINUOUS
 62
     8
100
AcDbLine
 10
421.2711510605514
 20
161.5302044335969
 30
0.0
 11
420.9373510605516
 21
163.8664044335971
 31
0.0
  0
ARC
  5
398
330
1A
100
AcDbEntity
  8
NOKITOI
  6
CONTINUOUS
 62
     8
100
AcDbCircle
 10
420.7761612469878
 20
161.459516178321
 30
0.0
 40
0.5000117448278309
100
AcDbArc
 50
269.9988327478018
 51
8.127314608715803
  0
ARC
  5
399
330
1A
100
AcDbEntity
  8
NOKITOI
  6
CONTINUOUS
 62
     8
100
AcDbCircle
 10
421.4323804330512
 20
163.9371346660918
 30
0.0
 40
0.4999578477751074
100
AcDbArc
 50
83.52609071220776
 51
188.1330561712924
  0
LINE
  5
39A
330
1A
100
AcDbEntity
  8
NOKITOI
  6
CONTINUOUS
 62
     8
100
AcDbLine
 10
420.5756510605517
 20
165.659504433597
 30
0.0
 11
421.0376510605517
 21
165.659504433597
 31
0.0
  0
ARC
  5
39B
330
1A
100
AcDbEntity
  8
NOKITOI
  6
CONTINUOUS
 62
     8
100
AcDbCircle
 10
421.0376201336154
 20
160.4595401782607
 30
0.0
 40
3.99998565374706
100
AcDbArc
 50
358.2086966591014
 51
83.52422380468325
  0
ARC
  5
39C
330
1A
100
AcDbEntity
  8
SEIHIN
  6
CONTINUOUS
 62
     3
100
AcDbCircle
 10
411.6859183103666
 20
170.2594366430307
 30
0.0
 40
1.699967790881661
100
AcDbArc
 50
0.9527826071426071
 51
89.9988961865098
  0
LINE
  5
39D
330
1A
100
AcDbEntity
  8
NOKITOI
  6
CONTINUOUS
 62
     8
100
AcDbLine
 10
418.2112510605517
 20
167.9595044335969
 30
0.0
 11
420.4427510605516
 21
167.9595044335969
 31
0.0
  0
LINE
  5
39E
330
1A
100
AcDbEntity
  8
SEIHIN
  6
CONTINUOUS
 62
     3
100
AcDbLine
 10
424.4960510605515
 20
169.9595044335968
 30
0.0
 11
419.8578510605516
 21
169.9595044335968
 31
0.0
  0
LINE
  5
39F
330
1A
100
AcDbEntity
  8
NOKITOI
  6
CONTINUOUS
 62
     8
100
AcDbLine
 10
422.5164510605515
 20
166.7595044335971
 30
0.0
 11
419.5798510605516
 21
166.7595044335971
 31
0.0
  0
ARC
  5
3A0
330
1A
100
AcDbEntity
  8
SEIHIN
  6
CONTINUOUS
 62
     3
100
AcDbCircle
 10
420.089914166621
 20
173.95942573462
 30
0.0
 40
2.000021301363411
100
AcDbArc
 50
210.0003523073317
 51
270.0010569219946
  0
ARC
  5
3A1
330
1A
100
AcDbEntity
  8
SEIHIN
  6
CONTINUOUS
 62
     3
100
AcDbCircle
 10
418.3578510605515
 20
171.4594044335968
 30
0.0
 40
1.500000000000042
100
AcDbArc
 50
90.00000000000218
 51
180.0000000000016
  0
LINE
  5
3A2
330
1A
100
AcDbEntity
  8
SEIHIN
  6
CONTINUOUS
 62
     3
100
AcDbLine
 10
419.3270510605515
 20
165.9594044335969
 30
0.0
 11
419.2619510605516
 21
165.9594044335969
 31
0.0
  0
ARC
  5
3A3
330
1A
100
AcDbEntity
  8
NOKITOI
  6
CONTINUOUS
 62
     8
100
AcDbCircle
 10
418.2112547700469
 20
167.4595083436276
 30
0.0
 40
0.4999960899831856
100
AcDbArc
 50
90.00042508015132
 51
183.0156217414654
  0
ARC
  5
3A4
330
1A
100
AcDbEntity
  8
SEIHIN
  6
CONTINUOUS
 62
     3
100
AcDbCircle
 10
421.1641510605516
 20
172.7657044335969
 30
0.0
 40
4.500071041661559
100
AcDbArc
 50
196.874977781126
 51
253.1250222188758
  0
LINE
  5
3A5
330
1A
100
AcDbEntity
  8
SEIHIN
  6
CONTINUOUS
 62
     3
100
AcDbLine
 10
419.8578510605516
 20
169.9595044335968
 30
0.0
 11
419.8578510605516
 21
168.4594044335968
 31
0.0
  0
ARC
  5
3A6
330
1A
100
AcDbEntity
  8
NOKITOI
  6
CONTINUOUS
 62
     8
100
AcDbCircle
 10
424.4891950269044
 20
168.4594590711239
 30
0.0
 40
0.7999453636812564
100
AcDbArc
 50
358.212343644788
 51
90.00314907315372
  0
ARC
  5
3A7
330
1A
100
AcDbEntity
  8
SEIHIN
  6
CONTINUOUS
 62
     3
100
AcDbCircle
 10
424.4960599337063
 20
167.9594952873887
 30
0.0
 40
2.000009146227835
100
AcDbArc
 50
358.2639422089299
 51
90.00025419599554
  0
ARC
  5
3A8
330
1A
100
AcDbEntity
  8
NOKITOI
  6
CONTINUOUS
 62
     8
100
AcDbCircle
 10
424.4891398235574
 20
168.459516027414
 30
0.0
 40
1.999988406214315
100
AcDbArc
 50
358.2088726535929
 51
89.99967808195611
  0
ARC
  5
3A9
330
1A
100
AcDbEntity
  8
NOKITOI
  6
CONTINUOUS
 62
     8
100
AcDbCircle
 10
421.1625438059961
 20
169.9594955837535
 30
0.0
 40
0.500008849895925
100
AcDbArc
 50
89.99916870385492
 51
191.3135956695117
  0
ARC
  5
3AA
330
1A
100
AcDbEntity
  8
NOKITOI
  6
CONTINUOUS
 62
     8
100
AcDbCircle
 10
420.442750277543
 20
168.4595034785952
 30
0.0
 40
0.4999990449987399
100
AcDbArc
 50
270.0000897263054
 51
11.30328019845509
  0
LINE
  5
3AB
330
1A
100
AcDbEntity
  8
NOKITOI
  6
CONTINUOUS
 62
     8
100
AcDbLine
 10
420.9330510605515
 20
168.5575044335971
 30
0.0
 11
420.6722510605515
 21
169.8615044335969
 31
0.0
  0
LINE
  5
3AC
330
1A
100
AcDbEntity
  8
NOKITOI
  6
CONTINUOUS
 62
     8
100
AcDbLine
 10
424.4891510605517
 20
170.4594044335969
 30
0.0
 11
421.1625510605514
 21
170.4595044335969
 31
0.0
  0
LINE
  5
3AD
330
1A
100
AcDbEntity
  8
NOKITOI
  6
CONTINUOUS
 62
     8
100
AcDbLine
 10
424.4891510605517
 20
169.2594044335969
 30
0.0
 11
422.0164510605515
 21
169.2595044335971
 31
0.0
  0
LINE
  5
3AE
330
1A
100
AcDbEntity
  8
NOKITOI
  6
CONTINUOUS
 62
     8
100
AcDbLine
 10
422.0164510605515
 20
169.2595044335971
 30
0.0
 11
422.5164510605515
 21
166.7595044335971
 31
0.0
  0
LINE
  5
3B1
330
1A
100
AcDbEntity
  8
SEIHIN
  6
CONTINUOUS
 62
     3
100
AcDbLine
 10
438.6189510605515
 20
172.9594044335969
 30
0.0
 11
438.6189510605515
 21
171.9598044335969
 31
0.0
  0
LINE
  5
3B2
330
1A
100
AcDbEntity
  8
SEIHIN
  6
CONTINUOUS
 62
     3
100
AcDbLine
 10
463.6189510605515
 20
172.9594044335969
 30
0.0
 11
463.6188510605516
 21
114.4594044335968
 31
0.0
  0
LINE
  5
3C6
330
1A
100
AcDbEntity
  8
SEIHIN
  6
CONTINUOUS
 62
     3
100
AcDbLine
 10
463.6192510605517
 20
459.7259044335968
 30
0.0
 11
463.6189510605515
 21
337.8033044335967
 31
0.0
  0
LINE
  5
3C7
330
1A
100
AcDbEntity
  8
SEIHIN
  6
CONTINUOUS
 62
     3
100
AcDbLine
 10
463.6190510605515
 20
350.7647044335968
 30
0.0
 11
428.6191510605515
 21
350.7648044335968
 31
0.0
  0
LINE
  5
3C8
330
1A
100
AcDbEntity
  8
SEIHIN
  6
CONTINUOUS
 62
     3
100
AcDbLine
 10
463.6190510605515
 20
361.7646044335967
 30
0.0
 11
407.6578510605514
 21
361.7647044335968
 31
0.0
  0
LINE
  5
3C9
330
1A
100
AcDbEntity
  8
SEIHIN
  6
CONTINUOUS
 62
     3
100
AcDbLine
 10
463.6191510605516
 20
345.3327044335967
 30
0.0
 11
438.6190510605515
 21
345.3327044335967
 31
0.0
  0
LINE
  5
3CA
330
1A
100
AcDbEntity
  8
SEIHIN
  6
CONTINUOUS
 62
     3
100
AcDbLine
 10
458.6189510605515
 20
336.8033044335968
 30
0.0
 11
463.6189510605515
 21
337.8033044335967
 31
0.0
  0
LINE
  5
3CB
330
1A
100
AcDbEntity
  8
SEIHIN
  6
CONTINUOUS
 62
     3
100
AcDbLine
 10
463.6191510605516
 20
347.0646044335967
 30
0.0
 11
438.6190510605515
 21
347.0646044335967
 31
0.0
  0
LINE
  5
3CC
330
1A
100
AcDbEntity
  8
SEIHIN
  6
CONTINUOUS
 62
     3
100
AcDbLine
 10
463.6190510605515
 20
348.5645044335969
 30
0.0
 11
438.6190510605515
 21
348.5646044335968
 31
0.0
  0
ARC
  5
3CD
330
1A
100
AcDbEntity
  8
SEIHIN
  6
CONTINUOUS
 62
     3
100
AcDbCircle
 10
424.6182510605515
 20
328.8035044335968
 30
0.0
 40
2.0
100
AcDbArc
 50
270.0
 51
0.0
  0
LINE
  5
3CE
330
1A
100
AcDbEntity
  8
SEIHIN
  6
CONTINUOUS
 62
     3
100
AcDbLine
 10
417.5575510605516
 20
326.8035044335968
 30
0.0
 11
417.5575510605516
 21
336.8035044335968
 31
0.0
  0
LINE
  5
3CF
330
1A
100
AcDbEntity
  8
SEIHIN
  6
CONTINUOUS
 62
     3
100
AcDbLine
 10
403.6578510605514
 20
301.8035044335968
 30
0.0
 11
403.6578510605514
 21
357.7647044335968
 31
0.0
  0
LINE
  5
3D0
330
1A
100
AcDbEntity
  8
SEIHIN
  6
CONTINUOUS
 62
     3
100
AcDbLine
 10
414.6578510605516
 20
301.8035044335968
 30
0.0
 11
414.6578510605516
 21
336.8035044335968
 31
0.0
  0
LINE
  5
3D1
330
1A
100
AcDbEntity
  8
SEIHIN
  6
CONTINUOUS
 62
     3
100
AcDbLine
 10
428.6191510605515
 20
306.8035044335969
 30
0.0
 11
428.6191510605515
 21
334.8033044335968
 31
0.0
  0
LINE
  5
3D2
330
1A
100
AcDbEntity
  8
SEIHIN
  6
CONTINUOUS
 62
     3
100
AcDbLine
 10
428.6191510605515
 20
306.8035044335969
 30
0.0
 11
427.6191510605515
 21
301.8035044335968
 31
0.0
  0
LINE
  5
3D3
330
1A
100
AcDbEntity
  8
SEIHIN
  6
CONTINUOUS
 62
     3
100
AcDbLine
 10
420.0897510605516
 20
301.8034044335969
 30
0.0
 11
420.0897510605516
 21
326.8035044335968
 31
0.0
  0
LINE
  5
3D4
330
1A
100
AcDbEntity
  8
SEIHIN
  6
CONTINUOUS
 62
     3
100
AcDbLine
 10
418.3578510605514
 20
301.8034044335969
 30
0.0
 11
418.3579510605515
 21
326.8035044335968
 31
0.0
  0
LINE
  5
3D5
330
1A
100
AcDbEntity
  8
SEIHIN
  6
CONTINUOUS
 62
     3
100
AcDbLine
 10
416.8579510605516
 20
301.8034044335969
 30
0.0
 11
416.8579510605516
 21
326.8035044335968
 31
0.0
  0
LINE
  5
3D6
330
1A
100
AcDbEntity
  8
SEIHIN
  6
CONTINUOUS
 62
     3
100
AcDbLine
 10
424.6182510605515
 20
326.8035044335968
 30
0.0
 11
416.8578510605515
 21
326.8035044335968
 31
0.0
  0
LINE
  5
3D7
330
1A
100
AcDbEntity
  8
SEIHIN
  6
CONTINUOUS
 62
     3
100
AcDbLine
 10
428.6191510605515
 20
353.7646044335969
 30
0.0
 11
417.6191510605516
 21
353.7647044335968
 31
0.0
  0
LINE
  5
3D8
330
1A
100
AcDbEntity
  8
SEIHIN
  6
CONTINUOUS
 62
     3
100
AcDbLine
 10
428.6190510605516
 20
352.0647044335969
 30
0.0
 11
417.6191510605516
 21
352.0647044335969
 31
0.0
  0
LINE
  5
3D9
330
1A
100
AcDbEntity
  8
SEIHIN
  6
CONTINUOUS
 62
     3
100
AcDbLine
 10
428.6190510605516
 20
346.0954044335968
 30
0.0
 11
426.9191510605516
 21
346.0954044335968
 31
0.0
  0
LINE
  5
3DA
330
1A
100
AcDbEntity
  8
SEIHIN
  6
CONTINUOUS
 62
     3
100
AcDbLine
 10
428.6190510605516
 20
349.5647044335969
 30
0.0
 11
426.9191510605516
 21
349.5647044335969
 31
0.0
  0
ARC
  5
3DB
330
1A
100
AcDbEntity
  8
SEIHIN
  6
CONTINUOUS
 62
     3
100
AcDbCircle
 10
430.6182510605515
 20
334.8043044335969
 30
0.0
 40
4.0
100
AcDbArc
 50
90.0
 51
180.0
  0
ARC
  5
3DC
330
1A
100
AcDbEntity
  8
SEIHIN
  6
CONTINUOUS
 62
     3
100
AcDbCircle
 10
430.6191510605515
 20
334.8033044335968
 30
0.0
 40
2.0
100
AcDbArc
 50
90.0
 51
180.0
  0
LINE
  5
3DD
330
1A
100
AcDbEntity
  8
SEIHIN
  6
CONTINUOUS
 62
     3
100
AcDbLine
 10
426.9191510605516
 20
346.0954044335968
 30
0.0
 11
426.9191510605516
 21
352.0647044335969
 31
0.0
  0
ARC
  5
3DE
330
1A
100
AcDbEntity
  8
SEIHIN
  6
CONTINUOUS
 62
     3
100
AcDbCircle
 10
418.6578510605516
 20
346.7647044335969
 30
0.0
 40
3.999999999999914
100
AcDbArc
 50
90.00000000000122
 51
180.0000000000012
  0
LINE
  5
3DF
330
1A
100
AcDbEntity
  8
SEIHIN
  6
CONTINUOUS
 62
     3
100
AcDbLine
 10
414.6578510605516
 20
350.7648044335968
 30
0.0
 11
405.5453510605515
 21
359.8772044335969
 31
0.0
  0
LINE
  5
3E0
330
1A
100
AcDbEntity
  8
SEIHIN
  6
CONTINUOUS
 62
     3
100
AcDbLine
 10
413.3578510605515
 20
347.8035044335969
 30
0.0
 11
411.6579510605516
 21
347.8035044335969
 31
0.0
  0
LINE
  5
3E1
330
1A
100
AcDbEntity
  8
SEIHIN
  6
CONTINUOUS
 62
     3
100
AcDbLine
 10
419.3271510605517
 20
336.8035044335968
 30
0.0
 11
411.6579510605516
 21
336.8035044335968
 31
0.0
  0
LINE
  5
3E2
330
1A
100
AcDbEntity
  8
SEIHIN
  6
CONTINUOUS
 62
     3
100
AcDbLine
 10
411.6579510605516
 20
336.8035044335968
 30
0.0
 11
411.6579510605516
 21
347.8035044335969
 31
0.0
  0
LINE
  5
3E3
330
1A
100
AcDbEntity
  8
SEIHIN
  6
CONTINUOUS
 62
     3
100
AcDbLine
 10
414.6578510605516
 20
338.5035044335967
 30
0.0
 11
414.6578510605516
 21
346.7647044335969
 31
0.0
  0
LINE
  5
3E4
330
1A
100
AcDbEntity
  8
SEIHIN
  6
CONTINUOUS
 62
     3
100
AcDbLine
 10
417.5575510605516
 20
338.5035044335967
 30
0.0
 11
417.5575510605516
 21
343.8649044335967
 31
0.0
  0
LINE
  5
3E5
330
1A
100
AcDbEntity
  8
SEIHIN
  6
CONTINUOUS
 62
     3
100
AcDbLine
 10
413.3578510605515
 20
336.8035044335968
 30
0.0
 11
413.3578510605515
 21
347.8035044335969
 31
0.0
  0
LINE
  5
3E6
330
1A
100
AcDbEntity
  8
SEIHIN
  6
CONTINUOUS
 62
     3
100
AcDbLine
 10
419.3271510605517
 20
336.8035044335968
 30
0.0
 11
419.3271510605517
 21
338.5035044335967
 31
0.0
  0
LINE
  5
3E7
330
1A
100
AcDbEntity
  8
SEIHIN
  6
CONTINUOUS
 62
     3
100
AcDbLine
 10
415.8578510605515
 20
336.8035044335968
 30
0.0
 11
415.8578510605515
 21
338.5035044335967
 31
0.0
  0
LINE
  5
3E8
330
1A
100
AcDbEntity
  8
SEIHIN
  6
CONTINUOUS
 62
     3
100
AcDbLine
 10
419.3271510605517
 20
338.5035044335967
 30
0.0
 11
413.3578510605515
 21
338.5035044335967
 31
0.0
  0
LINE
  5
3E9
330
1A
100
AcDbEntity
  8
SEIHIN
  6
CONTINUOUS
 62
     3
100
AcDbLine
 10
426.6182510605515
 20
328.8035044335968
 30
0.0
 11
426.6182510605515
 21
334.8043044335969
 31
0.0
  0
ARC
  5
3EA
330
1A
100
AcDbEntity
  8
SEIHIN
  6
CONTINUOUS
 62
     3
100
AcDbCircle
 10
421.5575510605516
 20
343.8649044335967
 30
0.0
 40
4.0
100
AcDbArc
 50
90.0
 51
180.0
  0
LINE
  5
3EB
330
1A
100
AcDbEntity
  8
SEIHIN
  6
CONTINUOUS
 62
     3
100
AcDbLine
 10
426.9191510605516
 20
350.7647044335968
 30
0.0
 11
418.6579510605515
 21
350.7648044335968
 31
0.0
  0
LINE
  5
3EC
330
1A
100
AcDbEntity
  8
SEIHIN
  6
CONTINUOUS
 62
     3
100
AcDbLine
 10
426.9191510605516
 20
347.8650044335969
 30
0.0
 11
421.5576510605516
 21
347.8650044335969
 31
0.0
  0
ARC
  5
3ED
330
1A
100
AcDbEntity
  8
SEIHIN
  6
CONTINUOUS
 62
     3
100
AcDbCircle
 10
407.6578510605514
 20
357.7647044335968
 30
0.0
 40
4.0
100
AcDbArc
 50
90.0
 51
180.0
  0
LINE
  5
3EE
330
1A
100
AcDbEntity
  8
SEIHIN
  6
CONTINUOUS
 62
     3
100
AcDbLine
 10
417.6191510605516
 20
352.0647044335969
 30
0.0
 11
417.6191510605516
 21
353.7647044335968
 31
0.0
  0
LINE
  5
3EF
330
1A
100
AcDbEntity
  8
SEIHIN
  6
CONTINUOUS
 62
     3
100
AcDbLine
 10
428.6190510605516
 20
346.0954044335968
 30
0.0
 11
428.6191510605515
 21
353.7647044335968
 31
0.0
  0
LINE
  5
3F0
330
1A
100
AcDbEntity
  8
SEIHIN
  6
CONTINUOUS
 62
     3
100
AcDbLine
 10
458.6189510605515
 20
336.8033044335968
 30
0.0
 11
430.6191510605515
 21
336.8033044335968
 31
0.0
  0
ARC
  5
3F1
330
1A
100
AcDbEntity
  8
SEIHIN
  6
CONTINUOUS
 62
     3
100
AcDbCircle
 10
436.6189510605515
 20
340.8043044335968
 30
0.0
 40
1.999999999999943
100
AcDbArc
 50
270.0000000000016
 51
0.0000000000016284
  0
LINE
  5
3F2
330
1A
100
AcDbEntity
  8
SEIHIN
  6
CONTINUOUS
 62
     3
100
AcDbLine
 10
436.6189510605516
 20
338.8043044335969
 30
0.0
 11
430.6182510605515
 21
338.8043044335969
 31
0.0
  0
LINE
  5
3F3
330
1A
100
AcDbEntity
  8
SEIHIN
  6
CONTINUOUS
 62
     3
100
AcDbLine
 10
438.6191510605516
 20
347.8650044335969
 30
0.0
 11
428.6191510605515
 21
347.8650044335969
 31
0.0
  0
LINE
  5
3F4
330
1A
100
AcDbEntity
  8
SEIHIN
  6
CONTINUOUS
 62
     3
100
AcDbLine
 10
438.6189510605515
 20
340.8043044335969
 30
0.0
 11
438.6189510605515
 21
348.5646044335968
 31
0.0
  0
LINE
  5
3F5
330
1A
100
AcDbEntity
  8
SEIHIN
  6
CONTINUOUS
 62
     3
100
AcDbLine
 10
463.6192510605517
 20
450.4645044335968
 30
0.0
 11
438.6191510605516
 21
450.4646044335969
 31
0.0
  0
LINE
  5
3F6
330
1A
100
AcDbEntity
  8
SEIHIN
  6
CONTINUOUS
 62
     3
100
AcDbLine
 10
463.6192510605517
 20
452.1966044335966
 30
0.0
 11
438.6191510605516
 21
452.1966044335966
 31
0.0
  0
LINE
  5
3F7
330
1A
100
AcDbEntity
  8
SEIHIN
  6
CONTINUOUS
 62
     3
100
AcDbLine
 10
463.6192510605517
 20
448.9645044335969
 30
0.0
 11
438.6191510605516
 21
448.9646044335969
 31
0.0
  0
LINE
  5
3F8
330
1A
100
AcDbEntity
  8
SEIHIN
  6
CONTINUOUS
 62
     3
100
AcDbLine
 10
458.6191510605516
 20
460.7258044335967
 30
0.0
 11
463.6191510605516
 21
459.7258044335968
 31
0.0
  0
LINE
  5
3F9
330
1A
100
AcDbEntity
  8
SEIHIN
  6
CONTINUOUS
 62
     3
100
AcDbLine
 10
438.6191510605516
 20
448.9646044335969
 30
0.0
 11
438.6192510605517
 21
456.8252044335969
 31
0.0
  0
ARC
  5
3FA
330
1A
100
AcDbEntity
  8
SEIHIN
  6
CONTINUOUS
 62
     3
100
AcDbCircle
 10
436.6192510605517
 20
456.8252044335967
 30
0.0
 40
1.999999999999914
100
AcDbArc
 50
0.0000000000024427
 51
90.00000000000245
  0
LINE
  5
40C
330
1A
100
AcDbEntity
  8
SEIHIN
  6
CONTINUOUS
 62
     3
100
AcDbLine
 10
404.0147510605516
 20
114.4595044335969
 30
0.0
 11
358.3662510605515
 21
114.4595044335969
 31
0.0
  0
LINE
  5
40D
330
1A
100
AcDbEntity
  8
SEIHIN
  6
CONTINUOUS
 62
     3
100
AcDbLine
 10
415.6116129068649
 20
123.9477614354488
 30
0.0
 11
404.0148129068651
 21
114.4594614354487
 31
0.0
  0
LINE
  5
40E
330
1A
100
AcDbEntity
  8
SEIHIN
  6
CONTINUOUS
 62
     3
100
AcDbLine
 10
418.3275180222194
 20
151.1087496745432
 30
0.0
 11
415.6116131811934
 21
123.9478012608946
 31
0.0
  0
LINE
  5
40F
330
1A
100
AcDbEntity
  8
SEIHIN
  6
CONTINUOUS
 62
     3
100
AcDbLine
 10
427.0572019651285
 20
153.4292208301072
 30
0.0
 11
427.609563321898
 21
171.6604730815507
 31
0.0
  0
LINE
  5
410
330
1A
100
AcDbEntity
  8
SEIHIN
  6
CONTINUOUS
 62
     3
100
AcDbLine
 10
426.0576606186302
 20
152.4595044335967
 30
0.0
 11
419.8200748412567
 21
152.4595044335967
 31
0.0
  0
ARC
  5
414
330
1A
100
AcDbEntity
  8
SEIHIN
  6
CONTINUOUS
 62
     3
100
AcDbCircle
 10
420.2725717719681
 20
150.4595044335968
 30
0.0
 40
1.0
100
AcDbArc
 50
90.0
 51
174.2898036984461
  0
ARC
  5
415
330
1A
100
AcDbEntity
  8
SEIHIN
  6
CONTINUOUS
 62
     3
100
AcDbCircle
 10
419.8200748412567
 20
150.9595044335967
 30
0.0
 40
1.5
100
AcDbArc
 50
90.00000000000005
 51
174.2898036984461
  0
ARC
  5
416
330
1A
100
AcDbEntity
  8
SEIHIN
  6
CONTINUOUS
 62
     3
100
AcDbCircle
 10
426.0576606186302
 20
153.4595044335967
 30
0.0
 40
1.0
100
AcDbArc
 50
270.0000000000001
 51
358.2646120095669
  0
ARC
  5
417
330
1A
100
AcDbEntity
  8
SEIHIN
  6
CONTINUOUS
 62
     3
100
AcDbCircle
 10
358.36622068287
 20
158.4595301558719
 30
0.0
 40
44.00002572232883
100
AcDbArc
 50
189.4876864223901
 51
269.9999113541617
  0
LINE
  5
418
330
1A
100
AcDbEntity
  8
SEIHIN
  6
CONTINUOUS
 62
     3
100
AcDbLine
 10
305.6058287936613
 20
171.6604668933834
 30
0.0
 11
306.1582974790784
 21
153.4292149506238
 31
0.0
  0
LINE
  5
419
330
1A
100
AcDbEntity
  8
SEIHIN
  6
CONTINUOUS
 62
     3
100
AcDbLine
 10
307.1578386474258
 20
152.4595044335968
 30
0.0
 11
313.4885875579176
 21
152.4595044335968
 31
0.0
  0
ARC
  5
41A
330
1A
100
AcDbEntity
  8
SEIHIN
  6
CONTINUOUS
 62
     3
100
AcDbCircle
 10
307.1578386474258
 20
153.4595044335968
 30
0.0
 40
1.0
100
AcDbArc
 50
181.7357250146345
 51
270.0
  0
ARC
  5
41B
330
1A
100
AcDbEntity
  8
SEIHIN
  6
CONTINUOUS
 62
     3
100
AcDbCircle
 10
313.4885875579176
 20
150.9595044335968
 30
0.0
 40
1.5
100
AcDbArc
 50
9.487686422390497
 51
90.0
  0
DIMENSION
  5
428
330
1A
100
AcDbEntity
  8
SUNPOU
100
AcDbDimension
  2
*D1
 10
428.5566510605516
 20
199.9898226951438
 30
0.0
 11
366.6077010605515
 21
204.9898226951438
 31
0.0
 70
    32
  3
STANDARD
100
AcDbAlignedDimension
 13
304.6587510605515
 23
169.8989044335969
 33
0.0
 14
428.5566510605516
 24
169.8989044335969
 34
0.0
100
AcDbRotatedDimension
1001
ACAD
1000
DSTYLE
1002
{
1070
   140
1040
6.0
1070
    74
1070
     0
1070
   172
1070
     1
1070
    73
1070
     0
1070
   272
1070
     2
1070
    77
1070
     3
1070
   173
1070
     1
1070
   147
1040
2.0
1070
    42
1040
6.0
1070
    44
1040
3.0
1070
    43
1040
14.0
1070
   271
1070
     0
1070
   178
1070
     4
1070
   177
1070
     4
1070
   176
1070
     4
1070
   141
1040
150.0
1070
     7
1000
_OPEN
1070
     6
1000
_OPEN
1070
    41
1040
7.0
1002
}
  0
DIMENSION
  5
435
330
1A
100
AcDbEntity
  8
SUNPOU
100
AcDbDimension
  2
*D2
 10
463.6189510605515
 20
217.2713615081822
 30
0.0
 11
384.1388510605515
 21
222.2713615081822
 31
0.0
 70
    32
  3
STANDARD
100
AcDbAlignedDimension
 13
304.6587510605515
 23
169.8989044335969
 33
0.0
 14
463.6189510605515
 24
172.9594044335969
 34
0.0
100
AcDbRotatedDimension
1001
ACAD
1000
DSTYLE
1002
{
1070
   140
1040
6.0
1070
    74
1070
     0
1070
   172
1070
     1
1070
    73
1070
     0
1070
   272
1070
     2
1070
    77
1070
     3
1070
   173
1070
     1
1070
   147
1040
2.0
1070
    42
1040
6.0
1070
    44
1040
3.0
1070
    43
1040
14.0
1070
   271
1070
     0
1070
   178
1070
     4
1070
   177
1070
     4
1070
   176
1070
     4
1070
   141
1040
150.0
1070
     7
1000
_OPEN
1070
     6
1000
_OPEN
1070
    41
1040
7.0
1002
}
  0
DIMENSION
  5
442
330
1A
100
AcDbEntity
  8
SUNPOU
100
AcDbDimension
  2
*D3
 10
506.7134546217621
 20
336.8033044335968
 30
0.0
 11
501.713454621762
 21
398.8147044335968
 31
0.0
 70
    32
  3
STANDARD
100
AcDbAlignedDimension
 13
458.6191510605516
 23
460.8261044335967
 33
0.0
 14
458.6189510605515
 24
336.8033044335968
 34
0.0
 50
90.0
100
AcDbRotatedDimension
1001
ACAD
1000
DSTYLE
1002
{
1070
   140
1040
6.0
1070
    74
1070
     0
1070
   172
1070
     1
1070
    73
1070
     0
1070
   272
1070
     2
1070
    77
1070
     3
1070
   173
1070
     1
1070
   147
1040
2.0
1070
    42
1040
6.0
1070
    44
1040
3.0
1070
    43
1040
14.0
1070
   271
1070
     0
1070
   178
1070
     4
1070
   177
1070
     4
1070
   176
1070
     4
1070
   141
1040
150.0
1070
     7
1000
_OPEN
1070
     6
1000
_OPEN
1070
    41
1040
7.0
1002
}
  0
DIMENSION
  5
44F
330
1A
100
AcDbEntity
  8
SUNPOU
100
AcDbDimension
  2
*D4
 10
525.7160691384775
 20
301.8035044335968
 30
0.0
 11
520.7160691384773
 21
381.3148044335968
 31
0.0
 70
    32
  3
STANDARD
100
AcDbAlignedDimension
 13
458.6191510605516
 23
460.8261044335967
 33
0.0
 14
427.6191510605515
 24
301.8035044335968
 34
0.0
 50
90.0
100
AcDbRotatedDimension
1001
ACAD
1000
DSTYLE
1002
{
1070
   140
1040
6.0
1070
    74
1070
     0
1070
   172
1070
     1
1070
    73
1070
     0
1070
   272
1070
     2
1070
    77
1070
     3
1070
   173
1070
     1
1070
   147
1040
2.0
1070
    42
1040
6.0
1070
    44
1040
3.0
1070
    43
1040
14.0
1070
   271
1070
     0
1070
   178
1070
     4
1070
   177
1070
     4
1070
   176
1070
     4
1070
   141
1040
150.0
1070
     7
1000
_OPEN
1070
     6
1000
_OPEN
1070
    41
1040
7.0
1002
}
  0
DIMENSION
  5
45C
330
1A
100
AcDbEntity
  8
SUNPOU
100
AcDbDimension
  2
*D5
 10
506.7134546217621
 20
301.8035044335968
 30
0.0
 11
501.713454621762
 21
319.3034044335969
 31
0.0
 70
    32
  3
STANDARD
100
AcDbAlignedDimension
 13
458.6189510605515
 23
336.8033044335968
 33
0.0
 14
427.6191510605515
 24
301.8035044335968
 34
0.0
 50
90.0
100
AcDbRotatedDimension
1001
ACAD
1000
DSTYLE
1002
{
1070
   140
1040
6.0
1070
    74
1070
     0
1070
   172
1070
     1
1070
    73
1070
     0
1070
   272
1070
     2
1070
    77
1070
     3
1070
   173
1070
     1
1070
   147
1040
2.0
1070
    42
1040
6.0
1070
    44
1040
3.0
1070
    43
1040
14.0
1070
   271
1070
     0
1070
   178
1070
     4
1070
   177
1070
     4
1070
   176
1070
     4
1070
   141
1040
150.0
1070
     7
1000
_OPEN
1070
     6
1000
_OPEN
1070
    41
1040
7.0
1002
}
  0
DIMENSION
  5
469
330
1A
100
AcDbEntity
  8
SUNPOU
100
AcDbDimension
  2
*D6
 10
428.6191510605515
 20
273.8989447243229
 30
0.0
 11
446.1190510605515
 21
278.8989447243229
 31
0.0
 70
    32
  3
STANDARD
100
AcDbAlignedDimension
 13
463.6189510605515
 23
337.8033044335967
 33
0.0
 14
428.6191510605515
 24
306.8035044335969
 34
0.0
100
AcDbRotatedDimension
1001
ACAD
1000
DSTYLE
1002
{
1070
   140
1040
6.0
1070
    74
1070
     0
1070
   172
1070
     1
1070
    73
1070
     0
1070
   272
1070
     2
1070
    77
1070
     3
1070
   173
1070
     1
1070
   147
1040
2.0
1070
    42
1040
6.0
1070
    44
1040
3.0
1070
    43
1040
14.0
1070
   271
1070
     0
1070
   178
1070
     4
1070
   177
1070
     4
1070
   176
1070
     4
1070
   141
1040
150.0
1070
     7
1000
_OPEN
1070
     6
1000
_OPEN
1070
    41
1040
7.0
1002
}
  0
DIMENSION
  5
476
330
1A
100
AcDbEntity
  8
SUNPOU
100
AcDbDimension
  2
*D7
 10
506.7134546217621
 20
113.4595044335969
 30
0.0
 11
501.7134546217621
 21
142.709654433597
 31
0.0
 70
    32
  3
STANDARD
100
AcDbAlignedDimension
 13
463.6189510605515
 23
171.9598044335969
 33
0.0
 14
458.6189510605515
 24
113.4595044335969
 34
0.0
 50
90.0
100
AcDbRotatedDimension
1001
ACAD
1000
DSTYLE
1002
{
1070
   140
1040
6.0
1070
    74
1070
     0
1070
   172
1070
     1
1070
    73
1070
     0
1070
   272
1070
     2
1070
    77
1070
     3
1070
   173
1070
     1
1070
   147
1040
2.0
1070
    42
1040
6.0
1070
    44
1040
3.0
1070
    43
1040
14.0
1070
   271
1070
     0
1070
   178
1070
     4
1070
   177
1070
     4
1070
   176
1070
     4
1070
   141
1040
150.0
1070
     7
1000
_OPEN
1070
     6
1000
_OPEN
1070
    41
1040
7.0
1002
}
  0
LINE
  5
477
330
1A
100
AcDbEntity
  8
SUNPOU
  6
PHANTOM
 62
     4
 48
5.0
100
AcDbLine
 10
428.6192488442341
 20
458.825216834586
 30
0.0
 11
428.6189535234835
 21
338.8043044335969
 31
0.0
  0
LINE
  5
478
330
1A
100
AcDbEntity
  8
SUNPOU
  6
PHANTOM
 62
     4
 48
5.0
100
AcDbLine
 10
306.5972510605516
 20
336.8035044335967
 30
0.0
 11
426.6182510605515
 21
336.8035044335967
 31
0.0
  0
DIMENSION
  5
486
330
1A
100
AcDbEntity
  8
SUNPOU
  6
CONTINUOUS
100
AcDbDimension
  2
*D8
 10
463.6190510605515
 20
376.9823769537263
 30
0.0
 11
446.1190305398926
 21
381.9823769537263
 31
0.0
 70
    32
  1
※<>
  3
STANDARD
100
AcDbAlignedDimension
 13
428.6190100192338
 23
361.7646669770038
 33
0.0
 14
463.6190510605515
 24
361.7646044335967
 34
0.0
100
AcDbRotatedDimension
1001
ACAD
1000
DSTYLE
1002
{
1070
   140
1040
6.0
1070
    74
1070
     0
1070
   172
1070
     1
1070
    73
1070
     0
1070
   272
1070
     2
1070
    77
1070
     3
1070
   173
1070
     1
1070
   147
1040
2.0
1070
    42
1040
6.0
1070
    44
1040
3.0
1070
    43
1040
14.0
1070
   271
1070
     0
1070
   178
1070
     4
1070
   177
1070
     4
1070
   176
1070
     4
1070
   141
1040
150.0
1070
     7
1000
_OPEN
1070
     6
1000
_OPEN
1070
    41
1040
7.0
1002
}
  0
TEXT
  5
4B9
330
1A
100
AcDbEntity
  8
SUNPOU
 62
     4
100
AcDbText
 10
614.7839824220163
 20
51.70968633928636
 30
0.0
 40
8.0
  1
※　のきといの差込み寸法を示す
100
AcDbText
  0
LINE
  5
4C0
330
1A
100
AcDbEntity
  8
CENTER_L
  6
CENTER
 62
     1
 48
5.0
100
AcDbLine
 10
435.4651510605516
 20
329.9574044335969
 30
0.0
 11
299.9723510605516
 21
465.4504044335968
 31
0.0
  0
LINE
  5
643
330
1A
100
AcDbEntity
  8
ZUWAKU
100
AcDbLine
 10
208.6466015947312
 20
15.20000012033744
 30
0.0
 11
447.4243642756546
 21
15.20000012033743
 31
0.0
  0
LINE
  5
644
330
1A
100
AcDbEntity
  8
ZUWAKU
100
AcDbLine
 10
208.6466015947312
 20
15.60000012033743
 30
0.0
 11
447.4243642756546
 21
15.60000012033744
 31
0.0
  0
LINE
  5
645
330
1A
100
AcDbEntity
  8
ZUWAKU
100
AcDbLine
 10
208.6466015947312
 20
15.40000012033743
 30
0.0
 11
447.4243642756546
 21
15.40000012033743
 31
0.0
  0
LINE
  5
646
330
1A
100
AcDbEntity
  8
ZUWAKU
100
AcDbLine
 10
0.0000003046632173
 20
30.80000012033741
 30
0.0
 11
797.400000304663
 21
30.80000012033741
 31
0.0
  0
LINE
  5
647
330
1A
100
AcDbEntity
  8
ZUWAKU
100
AcDbLine
 10
0.0000003046632173
 20
30.60000012033741
 30
0.0
 11
797.400000304663
 21
30.60000012033741
 31
0.0
  0
LINE
  5
648
330
1A
100
AcDbEntity
  8
ZUWAKU
100
AcDbLine
 10
0.0000003046632173
 20
30.40000012033741
 30
0.0
 11
797.400000304663
 21
30.40000012033741
 31
0.0
  0
LINE
  5
649
330
1A
100
AcDbEntity
  8
ZUWAKU
100
AcDbLine
 10
0.0000003046632173
 20
30.2000001203374
 30
0.0
 11
797.400000304663
 21
30.2000001203374
 31
0.0
  0
LINE
  5
64A
330
1A
100
AcDbEntity
  8
ZUWAKU
100
AcDbLine
 10
0.0000003046632173
 20
30.0000001203374
 30
0.0
 11
797.400000304663
 21
30.0000001203374
 31
0.0
  0
LWPOLYLINE
  5
64B
330
1A
100
AcDbEntity
  8
ZUWAKU
100
AcDbPolyline
 90
        4
 70
     1
 43
0.0
 10
0.2000003046631491
 20
551.4000001203375
 10
0.2000003046631491
 20
0.2000001203374495
 10
797.400000304663
 20
0.2000001203374726
 10
797.4000003046633
 20
551.4000001203375
  0
LWPOLYLINE
  5
64C
330
1A
100
AcDbEntity
  8
ZUWAKU
100
AcDbPolyline
 90
        4
 70
     1
 43
0.0
 10
0.6000003046631264
 20
551.0000001203374
 10
0.6000003046631264
 20
0.6000001203374268
 10
797.0000003046634
 20
0.600000120337473
 10
797.0000003046632
 20
551.0000001203374
  0
LWPOLYLINE
  5
64D
330
1A
100
AcDbEntity
  8
ZUWAKU
100
AcDbPolyline
 90
        4
 70
     1
 43
0.0
 10
0.0000003046632173
 20
551.6000001203374
 10
0.0000003046632173
 20
0.000000120337404
 10
797.6000003046634
 20
0.0000001203374715
 10
797.6000003046634
 20
551.6000001203375
  0
LWPOLYLINE
  5
64E
330
1A
100
AcDbEntity
  8
ZUWAKU
100
AcDbPolyline
 90
        4
 70
     1
 43
0.0
 10
0.4000003046631946
 20
551.2000001203374
 10
0.4000003046631946
 20
0.400000120337495
 10
797.2000003046632
 20
0.4000001203374719
 10
797.2000003046632
 20
551.2000001203374
  0
LWPOLYLINE
  5
64F
330
1A
100
AcDbEntity
  8
ZUWAKU
100
AcDbPolyline
 90
        4
 70
     1
 43
0.0
 10
0.8000003046631718
 20
550.8000001203375
 10
0.8000003046631718
 20
0.8000001203374722
 10
796.8000003046632
 20
0.8000001203374722
 10
796.8000003046632
 20
550.8000001203375
  0
TEXT
  5
650
330
1A
100
AcDbEntity
  8
MOJI
100
AcDbText
 10
92.95778989283235
 20
12.74117825061216
 30
0.0
 40
6.0
  1
新・丸トップＲＶ１０５
 41
0.9
  7
ｽﾀｲﾙ1
100
AcDbText
  0
HATCH
  5
651
330
1A
100
AcDbEntity
  8
ZUWAKU
100
AcDbHatch
 10
0.0
 20
0.0
 30
0.0
210
0.0
220
0.0
230
1.0
  2
ANSI37
 70
     0
 71
     0
 91
        8
 92
        7
 72
     1
 73
     1
 93
       24
 10
14.50226296578307
 20
17.64484860132098
 42
-0.1989123673796348
 10
14.09221245944434
 20
18.63479809498203
 42
0.0
 10
14.09221245944434
 20
19.92500012033741
 42
-0.4142135623730912
 10
14.61721245944431
 20
20.4500001203374
 42
0.0
 10
17.59221245944422
 20
20.4500001203374
 42
0.4142135623731546
 10
18.11721245944431
 20
20.97500012033739
 42
0.0
 10
18.11721245944431
 20
22.72500012033741
 42
0.4142135623731586
 10
17.59221245944422
 20
23.25000012033741
 42
0.0
 10
14.09221245944434
 20
23.25000012033741
 42
0.4142135623730928
 10
11.29221245944438
 20
20.45000012033743
 42
0.0
 10
11.29221245944438
 20
18.63479809498216
 42
0.1989123673796619
 10
12.52236397846081
 20
15.66494961399856
 42
0.0
 10
15.43216195310549
 20
12.7551516393539
 42
-0.1989123673796613
 10
15.84221245944434
 20
11.76520214569271
 42
0.0
 10
15.84221245944434
 20
10.47500012033739
 42
-0.4142135623730911
 10
15.31721245944436
 20
9.950000120337406
 42
0.0
 10
12.34221245944445
 20
9.950000120337406
 42
0.4142135623731526
 10
11.81721245944436
 20
9.425000120337418
 42
0.0
 10
11.81721245944436
 20
7.675000120337397
 42
0.4142135623731526
 10
12.34221245944445
 20
7.150000120337409
 42
0.0
 10
15.84221245944434
 20
7.150000120337409
 42
0.4142135623731044
 10
18.6422124594444
 20
9.950000120337385
 42
0.0
 10
18.6422124594444
 20
11.76520214569265
 42
0.1989123673796604
 10
17.41206094042786
 20
14.73505062667619
 42
0.0
 97
        0
 92
        7
 72
     1
 73
     1
 93
       16
 10
23.54221245944438
 20
19.05000012033741
 42
-0.4142135623730935
 10
24.94221245944436
 20
20.4500001203374
 42
0.0
 10
26.86721245944431
 20
20.4500001203374
 42
0.4142135623731546
 10
27.3922124594444
 20
20.97500012033739
 42
0.0
 10
27.3922124594444
 20
22.72500012033741
 42
0.4142135623730951
 10
26.86721245944443
 20
23.25000012033741
 42
0.0
 10
24.94221245944425
 20
23.25000012033736
 42
0.4142135623730892
 10
20.74221245944432
 20
19.05000012033734
 42
0.0
 10
20.74221245944432
 20
11.35000012033743
 42
0.4142135623730969
 10
24.94221245944436
 20
7.150000120337409
 42
0.0
 10
26.86721245944431
 20
7.150000120337409
 42
0.4142135623731526
 10
27.3922124594444
 20
7.675000120337397
 42
0.0
 10
27.3922124594444
 20
9.425000120337418
 42
0.4142135623730891
 10
26.86721245944443
 20
9.950000120337406
 42
0.0
 10
24.94221245944436
 20
9.950000120337406
 42
-0.4142135623730928
 10
23.54221245944438
 20
11.35000012033739
 42
0.0
 97
        0
 92
        7
 72
     1
 73
     1
 93
        2
 10
24.24221245944432
 20
15.2000001203374
 42
1.0
 10
27.74221245944431
 20
15.2000001203374
 42
1.0
 97
        0
 92
        7
 72
     1
 73
     1
 93
       26
 10
37.31485894162233
 20
19.20504731390083
 42
0.0
 10
38.37649857476014
 20
22.56690615217042
 42
0.5069206636600134
 10
37.87586767556479
 20
23.25000012033741
 42
0.0
 10
36.17697829595556
 20
23.25000012033741
 42
0.3272098845218764
 10
35.6763473967602
 20
22.88309408850437
 42
0.0
 10
33.80807752212843
 20
16.96690615217048
 42
-0.3272098845219541
 10
33.30744662293295
 20
16.6000001203374
 42
0.0
 10
33.16721245944449
 20
16.6000001203374
 42
-0.4142135623731526
 10
32.6422124594444
 20
17.12500012033739
 42
0.0
 10
32.6422124594444
 20
22.72500012033741
 42
0.4142135623730951
 10
32.11721245944443
 20
23.25000012033741
 42
0.0
 10
30.36721245944431
 20
23.25000012033741
 42
0.4142135623730871
 10
29.84221245944434
 20
22.72500012033742
 42
0.0
 10
29.84221245944434
 20
7.675000120337397
 42
0.4142135623730891
 10
30.36721245944431
 20
7.150000120337409
 42
0.0
 10
32.11721245944431
 20
7.150000120337409
 42
0.4142135623731526
 10
32.6422124594444
 20
7.675000120337397
 42
0.0
 10
32.6422124594444
 20
13.27500012033742
 42
-0.4142135623731526
 10
33.16721245944449
 20
13.80000012033741
 42
0.0
 10
33.30744662293307
 20
13.80000012033741
 42
-0.3272098845218915
 10
33.80807752212843
 20
13.43309408850433
 42
0.0
 10
35.6763473967602
 20
7.516906152170481
 42
0.3272098845218902
 10
36.17697829595556
 20
7.150000120337409
 42
0.0
 10
37.87586767556479
 20
7.150000120337409
 42
0.5069206636600335
 10
38.37649857476014
 20
7.833094088504417
 42
0.0
 10
36.05010719628649
 20
15.20000012033754
 42
0.0
 97
        0
 92
        7
 72
     1
 73
     1
 93
        8
 10
43.49221245944431
 20
22.72500012033741
 42
0.4142135623731546
 10
42.96721245944422
 20
23.25000012033741
 42
0.0
 10
41.21721245944445
 20
23.25000012033741
 42
0.4142135623731507
 10
40.69221245944436
 20
22.72500012033742
 42
0.0
 10
40.69221245944436
 20
7.675000120337397
 42
0.4142135623731526
 10
41.21721245944445
 20
7.150000120337409
 42
0.0
 10
42.96721245944422
 20
7.150000120337409
 42
0.4142135623731526
 10
43.49221245944431
 20
7.675000120337397
 42
0.0
 97
        0
 92
        7
 72
     1
 73
     1
 93
       24
 10
48.39221245944441
 20
19.92500012033741
 42
-0.4142135623731546
 10
48.9172124594445
 20
20.4500001203374
 42
0.0
 10
51.89221245944441
 20
20.4500001203374
 42
0.4142135623730911
 10
52.41721245944439
 20
20.97500012033739
 42
0.0
 10
52.41721245944439
 20
22.72500012033741
 42
0.4142135623730952
 10
51.89221245944441
 20
23.25000012033741
 42
0.0
 10
48.39221245944441
 20
23.25000012033741
 42
0.4142135623731048
 10
45.59221245944434
 20
20.45000012033743
 42
0.0
 10
45.59221245944434
 20
18.63479809498216
 42
0.1989123673796613
 10
46.82236397846089
 20
15.66494961399861
 42
0.0
 10
49.73216195310556
 20
12.75515163935394
 42
-0.1989123673796402
 10
50.1422124594444
 20
11.76520214569287
 42
0.0
 10
50.1422124594444
 20
10.47500012033739
 42
-0.4142135623730911
 10
49.61721245944443
 20
9.950000120337406
 42
0.0
 10
46.64221245944441
 20
9.950000120337406
 42
0.4142135623731526
 10
46.11721245944432
 20
9.425000120337418
 42
0.0
 10
46.11721245944432
 20
7.675000120337397
 42
0.4142135623730891
 10
46.64221245944429
 20
7.150000120337409
 42
0.0
 10
50.1422124594444
 20
7.150000120337409
 42
0.4142135623730925
 10
52.94221245944436
 20
9.950000120337385
 42
0.0
 10
52.94221245944436
 20
11.76520214569265
 42
0.1989123673796675
 10
51.71206094042782
 20
14.73505062667631
 42
0.0
 10
48.80226296578325
 20
17.64484860132082
 42
-0.1989123673796652
 10
48.39221245944441
 20
18.63479809498199
 42
0.0
 97
        0
 92
        7
 72
     1
 73
     1
 93
       16
 10
57.84221245944434
 20
22.72500012033739
 42
0.414213562373103
 10
57.31721245944436
 20
23.25000012033741
 42
0.0
 10
55.56721245944436
 20
23.25000012033741
 42
0.4142135623730871
 10
55.04221245944439
 20
22.72500012033742
 42
0.0
 10
55.04221245944439
 20
9.950000120337385
 42
0.4142135623730926
 10
57.84221245944434
 20
7.150000120337409
 42
0.0
 10
61.34221245944434
 20
7.150000120337409
 42
0.4142135623731044
 10
64.14221245944441
 20
9.950000120337385
 42
0.0
 10
64.14221245944441
 20
22.72500012033741
 42
0.4142135623730951
 10
63.61721245944443
 20
23.25000012033741
 42
0.0
 10
61.86721245944432
 20
23.25000012033741
 42
0.4142135623730871
 10
61.34221245944434
 20
22.72500012033742
 42
0.0
 10
61.34221245944434
 20
11.00000012033738
 42
-0.414213562373088
 10
60.29221245944438
 20
9.950000120337406
 42
0.0
 10
58.8922124594444
 20
9.950000120337406
 42
-0.4142135623731197
 10
57.84221245944434
 20
11.00000012033738
 42
0.0
 97
        0
 92
        7
 72
     1
 73
     1
 93
        8
 10
69.04221245944438
 20
22.72500012033742
 42
0.4142135623730871
 10
68.51721245944441
 20
23.25000012033741
 42
0.0
 10
66.76721245944441
 20
23.25000012033741
 42
0.4142135623731507
 10
66.24221245944432
 20
22.72500012033742
 42
0.0
 10
66.24221245944432
 20
7.675000120337397
 42
0.4142135623730891
 10
66.76721245944429
 20
7.150000120337409
 42
0.0
 10
68.51721245944441
 20
7.150000120337409
 42
0.4142135623730891
 10
69.04221245944438
 20
7.675000120337397
 42
0.0
 97
        0
 75
     0
 76
     1
 52
0.0
 41
0.2
 77
     0
 78
     2
 53
45.0
 43
-900.9423040300157
 44
-13.19999987966252
 45
-0.4490128060534576
 46
0.4490128060534577
 79
     0
 53
135.0
 43
-900.9423040300157
 44
-13.19999987966252
 45
-0.4490128060534577
 46
-0.4490128060534576
 79
     0
 47
0.057451373970553
 98
        8
 10
16.07985526768652
 20
15.16717376622295
 10
22.40451531110238
 20
18.84406230278841
 10
25.16436819032287
 20
15.51188176640812
 10
30.91406028630035
 20
16.2012977667789
 10
41.83847232361995
 20
16.66091003432052
 10
46.89820119979276
 20
19.41857643674461
 10
56.55768627706357
 20
18.72915803543241
 10
67.82707992428595
 20
19.18877030297403
  0
LINE
  5
652
330
1A
100
AcDbEntity
  8
ZUWAKU
100
AcDbLine
 10
24.94221245944436
 20
23.25000012033736
 30
0.0
 11
26.86721245944431
 21
23.25000012033741
 31
0.0
  0
LINE
  5
653
330
1A
100
AcDbEntity
  8
ZUWAKU
100
AcDbLine
 10
26.86721245944431
 20
20.4500001203374
 30
0.0
 11
24.94221245944436
 21
20.4500001203374
 31
0.0
  0
LINE
  5
654
330
1A
100
AcDbEntity
  8
ZUWAKU
100
AcDbLine
 10
24.94221245944436
 20
9.950000120337406
 30
0.0
 11
26.86721245944431
 21
9.950000120337406
 31
0.0
  0
LINE
  5
655
330
1A
100
AcDbEntity
  8
ZUWAKU
100
AcDbLine
 10
26.86721245944431
 20
7.150000120337409
 30
0.0
 11
24.94221245944436
 21
7.150000120337409
 31
0.0
  0
CIRCLE
  5
656
330
1A
100
AcDbEntity
  8
ZUWAKU
100
AcDbCircle
 10
25.99221245944431
 20
15.2000001203374
 30
0.0
 40
1.75
  0
ARC
  5
657
330
1A
100
AcDbEntity
  8
ZUWAKU
100
AcDbCircle
 10
15.49221245944431
 20
18.6347980949821
 30
0.0
 40
1.399999999999999
100
AcDbArc
 50
180.0000000000016
 51
224.9999999999988
  0
LINE
  5
658
330
1A
100
AcDbEntity
  8
ZUWAKU
100
AcDbLine
 10
23.54221245944438
 20
19.0500001203374
 30
0.0
 11
23.54221245944438
 21
11.35000012033741
 31
0.0
  0
LINE
  5
659
330
1A
100
AcDbEntity
  8
ZUWAKU
100
AcDbLine
 10
20.74221245944432
 20
11.35000012033741
 30
0.0
 11
20.74221245944432
 21
19.05000012033736
 31
0.0
  0
ARC
  5
65A
330
1A
100
AcDbEntity
  8
ZUWAKU
100
AcDbCircle
 10
15.49221245944431
 20
18.6347980949821
 30
0.0
 40
4.199999999999999
100
AcDbArc
 50
180.0
 51
225.0
  0
ARC
  5
65B
330
1A
100
AcDbEntity
  8
ZUWAKU
100
AcDbCircle
 10
15.84221245944434
 20
9.950000120337406
 30
0.0
 40
2.799999999999999
100
AcDbArc
 50
270.0
 51
0.0
  0
ARC
  5
65C
330
1A
100
AcDbEntity
  8
ZUWAKU
100
AcDbCircle
 10
24.94221245944436
 20
11.35000012033741
 30
0.0
 40
4.199999999999999
100
AcDbArc
 50
180.0
 51
270.0
  0
ARC
  5
65D
330
1A
100
AcDbEntity
  8
ZUWAKU
100
AcDbCircle
 10
14.44221245944436
 20
11.76520214569271
 30
0.0
 40
4.199999999999999
100
AcDbArc
 50
0.0
 51
45.0
  0
LINE
  5
65E
330
1A
100
AcDbEntity
  8
ZUWAKU
100
AcDbLine
 10
17.41206094042786
 20
14.73505062667623
 30
0.0
 11
14.50226296578319
 21
17.64484860132091
 31
0.0
  0
LINE
  5
65F
330
1A
100
AcDbEntity
  8
ZUWAKU
100
AcDbLine
 10
15.84221245944434
 20
10.47500012033741
 30
0.0
 11
15.84221245944434
 21
11.76520214569275
 31
0.0
  0
ARC
  5
660
330
1A
100
AcDbEntity
  8
ZUWAKU
100
AcDbCircle
 10
15.31721245944436
 20
10.47500012033741
 30
0.0
 40
0.525
100
AcDbArc
 50
270.0
 51
0.0
  0
ARC
  5
661
330
1A
100
AcDbEntity
  8
ZUWAKU
100
AcDbCircle
 10
14.44221245944436
 20
11.76520214569275
 30
0.0
 40
1.399999999999999
100
AcDbArc
 50
0.0
 51
45.0
  0
LINE
  5
662
330
1A
100
AcDbEntity
  8
ZUWAKU
100
AcDbLine
 10
11.81721245944436
 20
7.675000120337408
 30
0.0
 11
11.81721245944436
 21
9.425000120337408
 31
0.0
  0
ARC
  5
663
330
1A
100
AcDbEntity
  8
ZUWAKU
100
AcDbCircle
 10
12.34221245944434
 20
7.675000120337408
 30
0.0
 40
0.525
100
AcDbArc
 50
180.0
 51
270.0
  0
ARC
  5
664
330
1A
100
AcDbEntity
  8
ZUWAKU
100
AcDbCircle
 10
12.34221245944434
 20
9.425000120337408
 30
0.0
 40
0.525
100
AcDbArc
 50
90.0
 51
180.0
  0
LINE
  5
665
330
1A
100
AcDbEntity
  8
ZUWAKU
100
AcDbLine
 10
12.34221245944434
 20
7.150000120337409
 30
0.0
 11
15.84221245944434
 21
7.150000120337409
 31
0.0
  0
LINE
  5
666
330
1A
100
AcDbEntity
  8
ZUWAKU
100
AcDbLine
 10
12.34221245944434
 20
9.950000120337406
 30
0.0
 11
15.31721245944436
 21
9.950000120337406
 31
0.0
  0
LINE
  5
667
330
1A
100
AcDbEntity
  8
ZUWAKU
100
AcDbLine
 10
12.52236397846081
 20
15.66494961399858
 30
0.0
 11
15.43216195310549
 21
12.75515163935392
 31
0.0
  0
LINE
  5
668
330
1A
100
AcDbEntity
  8
ZUWAKU
100
AcDbLine
 10
18.6422124594444
 20
9.950000120337406
 30
0.0
 11
18.6422124594444
 21
11.76520214569275
 31
0.0
  0
ARC
  5
669
330
1A
100
AcDbEntity
  8
ZUWAKU
100
AcDbCircle
 10
24.94221245944436
 20
11.35000012033741
 30
0.0
 40
1.399999999999999
100
AcDbArc
 50
180.0
 51
270.0
  0
ARC
  5
66A
330
1A
100
AcDbEntity
  8
ZUWAKU
100
AcDbCircle
 10
17.59221245944434
 20
22.7250001203374
 30
0.0
 40
0.525
100
AcDbArc
 50
0.0
 51
90.0
  0
ARC
  5
66B
330
1A
100
AcDbEntity
  8
ZUWAKU
100
AcDbCircle
 10
17.59221245944434
 20
20.9750001203374
 30
0.0
 40
0.525
100
AcDbArc
 50
270.0
 51
0.0
  0
LINE
  5
66C
330
1A
100
AcDbEntity
  8
ZUWAKU
100
AcDbLine
 10
14.09221245944434
 20
23.25000012033741
 30
0.0
 11
17.59221245944434
 21
23.25000012033741
 31
0.0
  0
ARC
  5
66D
330
1A
100
AcDbEntity
  8
ZUWAKU
100
AcDbCircle
 10
14.61721245944431
 20
19.9250001203374
 30
0.0
 40
0.525
100
AcDbArc
 50
90.0
 51
180.0
  0
LINE
  5
66E
330
1A
100
AcDbEntity
  8
ZUWAKU
100
AcDbLine
 10
14.09221245944434
 20
19.9250001203374
 30
0.0
 11
14.09221245944434
 21
18.63479809498206
 31
0.0
  0
LINE
  5
66F
330
1A
100
AcDbEntity
  8
ZUWAKU
100
AcDbLine
 10
17.59221245944434
 20
20.4500001203374
 30
0.0
 11
14.61721245944431
 21
20.4500001203374
 31
0.0
  0
LINE
  5
670
330
1A
100
AcDbEntity
  8
ZUWAKU
100
AcDbLine
 10
11.29221245944438
 20
20.4500001203374
 30
0.0
 11
11.29221245944438
 21
18.63479809498206
 31
0.0
  0
ARC
  5
671
330
1A
100
AcDbEntity
  8
ZUWAKU
100
AcDbCircle
 10
14.09221245944434
 20
20.4500001203374
 30
0.0
 40
2.799999999999999
100
AcDbArc
 50
90.0
 51
180.0
  0
LINE
  5
672
330
1A
100
AcDbEntity
  8
ZUWAKU
100
AcDbLine
 10
18.11721245944431
 20
22.7250001203374
 30
0.0
 11
18.11721245944431
 21
20.9750001203374
 31
0.0
  0
ARC
  5
673
330
1A
100
AcDbEntity
  8
ZUWAKU
100
AcDbCircle
 10
24.94221245944436
 20
19.0500001203374
 30
0.0
 40
1.399999999999999
100
AcDbArc
 50
90.0
 51
180.0
  0
ARC
  5
674
330
1A
100
AcDbEntity
  8
ZUWAKU
100
AcDbCircle
 10
24.94221245944436
 20
19.05000012033736
 30
0.0
 40
4.199999999999999
100
AcDbArc
 50
90.0
 51
180.0
  0
LINE
  5
675
330
1A
100
AcDbEntity
  8
ZUWAKU
100
AcDbLine
 10
79.32662985265142
 20
30.0000001203374
 30
0.0
 11
79.32662985265165
 21
0.8000001203374722
 31
0.0
  0
LINE
  5
676
330
1A
100
AcDbEntity
  8
ZUWAKU
100
AcDbLine
 10
79.52662985265146
 20
30.0000001203374
 30
0.0
 11
79.5266298526517
 21
0.8000001203374722
 31
0.0
  0
LINE
  5
677
330
1A
100
AcDbEntity
  8
ZUWAKU
100
AcDbLine
 10
79.12662985265161
 20
30.0000001203374
 30
0.0
 11
79.12662985265161
 21
0.8000001203374722
 31
0.0
  0
LINE
  5
678
330
1A
100
AcDbEntity
  8
ZUWAKU
100
AcDbLine
 10
64.14221245944441
 20
9.950000120337406
 30
0.0
 11
64.14221245944441
 21
22.7250001203374
 31
0.0
  0
LINE
  5
679
330
1A
100
AcDbEntity
  8
ZUWAKU
100
AcDbLine
 10
61.34221245944434
 20
22.7250001203374
 30
0.0
 11
61.34221245944434
 21
11.0000001203374
 31
0.0
  0
LINE
  5
67A
330
1A
100
AcDbEntity
  8
ZUWAKU
100
AcDbLine
 10
69.04221245944438
 20
7.675000120337408
 30
0.0
 11
69.04221245944438
 21
22.7250001203374
 31
0.0
  0
LINE
  5
67B
330
1A
100
AcDbEntity
  8
ZUWAKU
100
AcDbLine
 10
66.24221245944432
 20
22.7250001203374
 30
0.0
 11
66.24221245944432
 21
7.675000120337408
 31
0.0
  0
ARC
  5
67C
330
1A
100
AcDbEntity
  8
ZUWAKU
100
AcDbCircle
 10
49.79221245944438
 20
18.6347980949821
 30
0.0
 40
1.399999999999999
100
AcDbArc
 50
180.0000000000016
 51
224.9999999999988
  0
ARC
  5
67D
330
1A
100
AcDbEntity
  8
ZUWAKU
100
AcDbCircle
 10
49.79221245944438
 20
18.6347980949821
 30
0.0
 40
4.199999999999999
100
AcDbArc
 50
180.0
 51
225.0
  0
LINE
  5
67E
330
1A
100
AcDbEntity
  8
ZUWAKU
100
AcDbLine
 10
37.31485894162233
 20
19.20504731390083
 30
0.0
 11
36.05010719628649
 21
15.20000012033742
 31
0.0
  0
LINE
  5
67F
330
1A
100
AcDbEntity
  8
ZUWAKU
100
AcDbLine
 10
40.69221245944436
 20
22.7250001203374
 30
0.0
 11
40.69221245944436
 21
7.675000120337408
 31
0.0
  0
LINE
  5
680
330
1A
100
AcDbEntity
  8
ZUWAKU
100
AcDbLine
 10
43.49221245944431
 20
7.675000120337408
 30
0.0
 11
43.49221245944431
 21
22.7250001203374
 31
0.0
  0
LINE
  5
681
330
1A
100
AcDbEntity
  8
ZUWAKU
100
AcDbLine
 10
55.04221245944439
 20
22.7250001203374
 30
0.0
 11
55.04221245944439
 21
9.950000120337406
 31
0.0
  0
LINE
  5
682
330
1A
100
AcDbEntity
  8
ZUWAKU
100
AcDbLine
 10
57.84221245944434
 20
11.0000001203374
 30
0.0
 11
57.84221245944434
 21
22.7250001203374
 31
0.0
  0
LINE
  5
683
330
1A
100
AcDbEntity
  8
ZUWAKU
100
AcDbLine
 10
32.6422124594444
 20
17.12500012033741
 30
0.0
 11
32.6422124594444
 21
22.7250001203374
 31
0.0
  0
LINE
  5
684
330
1A
100
AcDbEntity
  8
ZUWAKU
100
AcDbLine
 10
29.84221245944434
 20
22.7250001203374
 30
0.0
 11
29.84221245944434
 21
7.675000120337408
 31
0.0
  0
LINE
  5
685
330
1A
100
AcDbEntity
  8
ZUWAKU
100
AcDbLine
 10
35.6763473967602
 20
22.88309408850437
 30
0.0
 11
33.80807752212843
 21
16.96690615217043
 31
0.0
  0
LINE
  5
686
330
1A
100
AcDbEntity
  8
ZUWAKU
100
AcDbLine
 10
60.29221245944438
 20
9.950000120337406
 30
0.0
 11
58.8922124594444
 21
9.950000120337406
 31
0.0
  0
LINE
  5
687
330
1A
100
AcDbEntity
  8
ZUWAKU
100
AcDbLine
 10
57.84221245944434
 20
7.150000120337409
 30
0.0
 11
61.34221245944434
 21
7.150000120337409
 31
0.0
  0
LINE
  5
688
330
1A
100
AcDbEntity
  8
ZUWAKU
100
AcDbLine
 10
41.21721245944434
 20
7.150000120337409
 30
0.0
 11
42.96721245944434
 21
7.150000120337409
 31
0.0
  0
LINE
  5
689
330
1A
100
AcDbEntity
  8
ZUWAKU
100
AcDbLine
 10
35.6763473967602
 20
7.516906152170435
 30
0.0
 11
33.80807752212843
 21
13.43309408850437
 31
0.0
  0
ARC
  5
68A
330
1A
100
AcDbEntity
  8
ZUWAKU
100
AcDbCircle
 10
33.30744662293307
 20
17.12500012033741
 30
0.0
 40
0.525
100
AcDbArc
 50
270.0
 51
342.4744316262769
  0
LINE
  5
68B
330
1A
100
AcDbEntity
  8
ZUWAKU
100
AcDbLine
 10
33.30744662293307
 20
16.6000001203374
 30
0.0
 11
33.16721245944438
 21
16.6000001203374
 31
0.0
  0
LINE
  5
68C
330
1A
100
AcDbEntity
  8
ZUWAKU
100
AcDbLine
 10
33.16721245944438
 20
13.80000012033741
 30
0.0
 11
33.30744662293307
 21
13.80000012033741
 31
0.0
  0
ARC
  5
68D
330
1A
100
AcDbEntity
  8
ZUWAKU
100
AcDbCircle
 10
33.16721245944438
 20
17.12500012033741
 30
0.0
 40
0.525
100
AcDbArc
 50
180.0
 51
270.0
  0
LINE
  5
68E
330
1A
100
AcDbEntity
  8
ZUWAKU
100
AcDbLine
 10
30.36721245944431
 20
7.150000120337409
 30
0.0
 11
32.11721245944431
 21
7.150000120337409
 31
0.0
  0
ARC
  5
68F
330
1A
100
AcDbEntity
  8
ZUWAKU
100
AcDbCircle
 10
32.11721245944431
 20
7.675000120337408
 30
0.0
 40
0.525
100
AcDbArc
 50
270.0
 51
0.0
  0
LINE
  5
690
330
1A
100
AcDbEntity
  8
ZUWAKU
100
AcDbLine
 10
32.6422124594444
 20
7.675000120337408
 30
0.0
 11
32.6422124594444
 21
13.27500012033741
 31
0.0
  0
LINE
  5
691
330
1A
100
AcDbEntity
  8
ZUWAKU
100
AcDbLine
 10
27.3922124594444
 20
9.425000120337408
 30
0.0
 11
27.3922124594444
 21
7.675000120337408
 31
0.0
  0
ARC
  5
692
330
1A
100
AcDbEntity
  8
ZUWAKU
100
AcDbCircle
 10
26.86721245944431
 20
7.675000120337408
 30
0.0
 40
0.525
100
AcDbArc
 50
270.0
 51
0.0
  0
ARC
  5
693
330
1A
100
AcDbEntity
  8
ZUWAKU
100
AcDbCircle
 10
26.86721245944431
 20
9.425000120337408
 30
0.0
 40
0.525
100
AcDbArc
 50
0.0
 51
90.0
  0
ARC
  5
694
330
1A
100
AcDbEntity
  8
ZUWAKU
100
AcDbCircle
 10
30.36721245944431
 20
7.675000120337408
 30
0.0
 40
0.525
100
AcDbArc
 50
180.0
 51
270.0
  0
ARC
  5
695
330
1A
100
AcDbEntity
  8
ZUWAKU
100
AcDbCircle
 10
33.30744662293307
 20
13.27500012033741
 30
0.0
 40
0.525
100
AcDbArc
 50
17.52556837372303
 51
90.0
  0
ARC
  5
696
330
1A
100
AcDbEntity
  8
ZUWAKU
100
AcDbCircle
 10
33.16721245944438
 20
13.27500012033741
 30
0.0
 40
0.525
100
AcDbArc
 50
90.0
 51
180.0
  0
ARC
  5
697
330
1A
100
AcDbEntity
  8
ZUWAKU
100
AcDbCircle
 10
41.21721245944434
 20
7.675000120337408
 30
0.0
 40
0.525
100
AcDbArc
 50
180.0
 51
270.0
  0
LINE
  5
698
330
1A
100
AcDbEntity
  8
ZUWAKU
100
AcDbLine
 10
36.17697829595567
 20
7.150000120337409
 30
0.0
 11
37.87586767556467
 21
7.150000120337409
 31
0.0
  0
ARC
  5
699
330
1A
100
AcDbEntity
  8
ZUWAKU
100
AcDbCircle
 10
37.87586767556467
 20
7.675000120337408
 30
0.0
 40
0.525
100
AcDbArc
 50
270.0
 51
17.52556837372303
  0
LINE
  5
69A
330
1A
100
AcDbEntity
  8
ZUWAKU
100
AcDbLine
 10
38.37649857476014
 20
7.833094088504381
 30
0.0
 11
36.05010719628649
 21
15.20000012033742
 31
0.0
  0
ARC
  5
69B
330
1A
100
AcDbEntity
  8
ZUWAKU
100
AcDbCircle
 10
36.17697829595567
 20
7.675000120337408
 30
0.0
 40
0.525
100
AcDbArc
 50
197.525568373723
 51
270.0
  0
ARC
  5
69C
330
1A
100
AcDbEntity
  8
ZUWAKU
100
AcDbCircle
 10
57.84221245944434
 20
9.950000120337406
 30
0.0
 40
2.799999999999999
100
AcDbArc
 50
180.0
 51
270.0
  0
ARC
  5
69D
330
1A
100
AcDbEntity
  8
ZUWAKU
100
AcDbCircle
 10
50.1422124594444
 20
9.950000120337406
 30
0.0
 40
2.799999999999999
100
AcDbArc
 50
270.0
 51
0.0
  0
LINE
  5
69E
330
1A
100
AcDbEntity
  8
ZUWAKU
100
AcDbLine
 10
51.71206094042793
 20
14.73505062667623
 30
0.0
 11
48.80226296578314
 21
17.64484860132091
 31
0.0
  0
LINE
  5
69F
330
1A
100
AcDbEntity
  8
ZUWAKU
100
AcDbLine
 10
50.1422124594444
 20
10.47500012033741
 30
0.0
 11
50.1422124594444
 21
11.76520214569275
 31
0.0
  0
ARC
  5
6A0
330
1A
100
AcDbEntity
  8
ZUWAKU
100
AcDbCircle
 10
48.74221245944432
 20
11.76520214569275
 30
0.0
 40
1.399999999999999
100
AcDbArc
 50
0.0
 51
45.0
  0
ARC
  5
6A1
330
1A
100
AcDbEntity
  8
ZUWAKU
100
AcDbCircle
 10
49.61721245944431
 20
10.47500012033741
 30
0.0
 40
0.525
100
AcDbArc
 50
270.0
 51
0.0
  0
LINE
  5
6A2
330
1A
100
AcDbEntity
  8
ZUWAKU
100
AcDbLine
 10
46.11721245944432
 20
7.675000120337408
 30
0.0
 11
46.11721245944432
 21
9.425000120337408
 31
0.0
  0
ARC
  5
6A3
330
1A
100
AcDbEntity
  8
ZUWAKU
100
AcDbCircle
 10
46.64221245944441
 20
7.675000120337408
 30
0.0
 40
0.525
100
AcDbArc
 50
180.0
 51
270.0
  0
ARC
  5
6A4
330
1A
100
AcDbEntity
  8
ZUWAKU
100
AcDbCircle
 10
42.96721245944434
 20
7.675000120337408
 30
0.0
 40
0.525
100
AcDbArc
 50
270.0
 51
0.0
  0
ARC
  5
6A5
330
1A
100
AcDbEntity
  8
ZUWAKU
100
AcDbCircle
 10
46.64221245944441
 20
9.425000120337408
 30
0.0
 40
0.525
100
AcDbArc
 50
90.0
 51
180.0
  0
LINE
  5
6A6
330
1A
100
AcDbEntity
  8
ZUWAKU
100
AcDbLine
 10
46.64221245944441
 20
9.950000120337406
 30
0.0
 11
49.61721245944431
 21
9.950000120337406
 31
0.0
  0
LINE
  5
6A7
330
1A
100
AcDbEntity
  8
ZUWAKU
100
AcDbLine
 10
46.64221245944441
 20
7.150000120337409
 30
0.0
 11
50.1422124594444
 21
7.150000120337409
 31
0.0
  0
LINE
  5
6A8
330
1A
100
AcDbEntity
  8
ZUWAKU
100
AcDbLine
 10
46.82236397846089
 20
15.66494961399858
 30
0.0
 11
49.73216195310556
 21
12.75515163935392
 31
0.0
  0
LINE
  5
6A9
330
1A
100
AcDbEntity
  8
ZUWAKU
100
AcDbLine
 10
52.94221245944436
 20
9.950000120337406
 30
0.0
 11
52.94221245944436
 21
11.76520214569275
 31
0.0
  0
ARC
  5
6AA
330
1A
100
AcDbEntity
  8
ZUWAKU
100
AcDbCircle
 10
48.74221245944432
 20
11.76520214569271
 30
0.0
 40
4.199999999999999
100
AcDbArc
 50
0.0
 51
45.0
  0
ARC
  5
6AB
330
1A
100
AcDbEntity
  8
ZUWAKU
100
AcDbCircle
 10
58.8922124594444
 20
11.0000001203374
 30
0.0
 40
1.049999999999999
100
AcDbArc
 50
180.0
 51
270.0
  0
ARC
  5
6AC
330
1A
100
AcDbEntity
  8
ZUWAKU
100
AcDbCircle
 10
61.34221245944434
 20
9.950000120337406
 30
0.0
 40
2.799999999999999
100
AcDbArc
 50
270.0
 51
0.0
  0
LINE
  5
6AD
330
1A
100
AcDbEntity
  8
ZUWAKU
100
AcDbLine
 10
66.76721245944441
 20
7.150000120337409
 30
0.0
 11
68.51721245944441
 21
7.150000120337409
 31
0.0
  0
ARC
  5
6AE
330
1A
100
AcDbEntity
  8
ZUWAKU
100
AcDbCircle
 10
66.76721245944441
 20
7.675000120337408
 30
0.0
 40
0.525
100
AcDbArc
 50
180.0
 51
270.0
  0
ARC
  5
6AF
330
1A
100
AcDbEntity
  8
ZUWAKU
100
AcDbCircle
 10
60.29221245944438
 20
11.0000001203374
 30
0.0
 40
1.049999999999999
100
AcDbArc
 50
270.0
 51
0.0
  0
ARC
  5
6B0
330
1A
100
AcDbEntity
  8
ZUWAKU
100
AcDbCircle
 10
68.51721245944441
 20
7.675000120337408
 30
0.0
 40
0.525
100
AcDbArc
 50
270.0
 51
0.0
  0
LINE
  5
6B1
330
1A
100
AcDbEntity
  8
ZUWAKU
100
AcDbLine
 10
42.96721245944434
 20
23.25000012033741
 30
0.0
 11
41.21721245944434
 21
23.25000012033741
 31
0.0
  0
ARC
  5
6B2
330
1A
100
AcDbEntity
  8
ZUWAKU
100
AcDbCircle
 10
32.11721245944431
 20
22.7250001203374
 30
0.0
 40
0.525
100
AcDbArc
 50
0.0
 51
90.0
  0
LINE
  5
6B3
330
1A
100
AcDbEntity
  8
ZUWAKU
100
AcDbLine
 10
32.11721245944431
 20
23.25000012033741
 30
0.0
 11
30.36721245944431
 21
23.25000012033741
 31
0.0
  0
ARC
  5
6B4
330
1A
100
AcDbEntity
  8
ZUWAKU
100
AcDbCircle
 10
26.86721245944431
 20
22.7250001203374
 30
0.0
 40
0.525
100
AcDbArc
 50
0.0
 51
90.0
  0
ARC
  5
6B5
330
1A
100
AcDbEntity
  8
ZUWAKU
100
AcDbCircle
 10
30.36721245944431
 20
22.7250001203374
 30
0.0
 40
0.525
100
AcDbArc
 50
90.0
 51
180.0
  0
ARC
  5
6B6
330
1A
100
AcDbEntity
  8
ZUWAKU
100
AcDbCircle
 10
26.86721245944431
 20
20.9750001203374
 30
0.0
 40
0.525
100
AcDbArc
 50
270.0
 51
0.0
  0
LINE
  5
6B7
330
1A
100
AcDbEntity
  8
ZUWAKU
100
AcDbLine
 10
27.3922124594444
 20
22.7250001203374
 30
0.0
 11
27.3922124594444
 21
20.9750001203374
 31
0.0
  0
ARC
  5
6B8
330
1A
100
AcDbEntity
  8
ZUWAKU
100
AcDbCircle
 10
41.21721245944434
 20
22.7250001203374
 30
0.0
 40
0.525
100
AcDbArc
 50
90.0
 51
180.0
  0
LINE
  5
6B9
330
1A
100
AcDbEntity
  8
ZUWAKU
100
AcDbLine
 10
36.17697829595567
 20
23.25000012033741
 30
0.0
 11
37.87586767556467
 21
23.25000012033741
 31
0.0
  0
ARC
  5
6BA
330
1A
100
AcDbEntity
  8
ZUWAKU
100
AcDbCircle
 10
37.87586767556467
 20
22.7250001203374
 30
0.0
 40
0.525
100
AcDbArc
 50
342.4744316262769
 51
90.0
  0
LINE
  5
6BB
330
1A
100
AcDbEntity
  8
ZUWAKU
100
AcDbLine
 10
38.37649857476014
 20
22.56690615217043
 30
0.0
 11
37.31485894162233
 21
19.20504731390083
 31
0.0
  0
ARC
  5
6BC
330
1A
100
AcDbEntity
  8
ZUWAKU
100
AcDbCircle
 10
36.17697829595567
 20
22.7250001203374
 30
0.0
 40
0.525
100
AcDbArc
 50
90.0
 51
162.4744316262769
  0
LINE
  5
6BD
330
1A
100
AcDbEntity
  8
ZUWAKU
100
AcDbLine
 10
48.39221245944441
 20
23.25000012033741
 30
0.0
 11
51.89221245944441
 21
23.25000012033741
 31
0.0
  0
LINE
  5
6BE
330
1A
100
AcDbEntity
  8
ZUWAKU
100
AcDbLine
 10
51.89221245944441
 20
20.4500001203374
 30
0.0
 11
48.91721245944438
 21
20.4500001203374
 31
0.0
  0
ARC
  5
6BF
330
1A
100
AcDbEntity
  8
ZUWAKU
100
AcDbCircle
 10
48.91721245944438
 20
19.9250001203374
 30
0.0
 40
0.525
100
AcDbArc
 50
90.0
 51
180.0
  0
LINE
  5
6C0
330
1A
100
AcDbEntity
  8
ZUWAKU
100
AcDbLine
 10
48.39221245944441
 20
19.9250001203374
 30
0.0
 11
48.39221245944441
 21
18.63479809498206
 31
0.0
  0
ARC
  5
6C1
330
1A
100
AcDbEntity
  8
ZUWAKU
100
AcDbCircle
 10
42.96721245944434
 20
22.7250001203374
 30
0.0
 40
0.525
100
AcDbArc
 50
0.0
 51
90.0
  0
LINE
  5
6C2
330
1A
100
AcDbEntity
  8
ZUWAKU
100
AcDbLine
 10
45.59221245944434
 20
20.4500001203374
 30
0.0
 11
45.59221245944434
 21
18.63479809498206
 31
0.0
  0
ARC
  5
6C3
330
1A
100
AcDbEntity
  8
ZUWAKU
100
AcDbCircle
 10
48.39221245944441
 20
20.4500001203374
 30
0.0
 40
2.799999999999999
100
AcDbArc
 50
90.0
 51
180.0
  0
ARC
  5
6C4
330
1A
100
AcDbEntity
  8
ZUWAKU
100
AcDbCircle
 10
57.31721245944436
 20
22.7250001203374
 30
0.0
 40
0.525
100
AcDbArc
 50
0.0
 51
90.0
  0
ARC
  5
6C5
330
1A
100
AcDbEntity
  8
ZUWAKU
100
AcDbCircle
 10
55.56721245944436
 20
22.7250001203374
 30
0.0
 40
0.525
100
AcDbArc
 50
90.0
 51
180.0
  0
LINE
  5
6C6
330
1A
100
AcDbEntity
  8
ZUWAKU
100
AcDbLine
 10
57.31721245944436
 20
23.25000012033741
 30
0.0
 11
55.56721245944436
 21
23.25000012033741
 31
0.0
  0
ARC
  5
6C7
330
1A
100
AcDbEntity
  8
ZUWAKU
100
AcDbCircle
 10
51.89221245944441
 20
22.7250001203374
 30
0.0
 40
0.525
100
AcDbArc
 50
0.0
 51
90.0
  0
ARC
  5
6C8
330
1A
100
AcDbEntity
  8
ZUWAKU
100
AcDbCircle
 10
51.89221245944441
 20
20.9750001203374
 30
0.0
 40
0.525
100
AcDbArc
 50
270.0
 51
0.0
  0
LINE
  5
6C9
330
1A
100
AcDbEntity
  8
ZUWAKU
100
AcDbLine
 10
52.41721245944439
 20
22.7250001203374
 30
0.0
 11
52.41721245944439
 21
20.9750001203374
 31
0.0
  0
LINE
  5
6CA
330
1A
100
AcDbEntity
  8
ZUWAKU
100
AcDbLine
 10
68.51721245944441
 20
23.25000012033741
 30
0.0
 11
66.76721245944441
 21
23.25000012033741
 31
0.0
  0
ARC
  5
6CB
330
1A
100
AcDbEntity
  8
ZUWAKU
100
AcDbCircle
 10
66.76721245944441
 20
22.7250001203374
 30
0.0
 40
0.525
100
AcDbArc
 50
90.0
 51
180.0
  0
ARC
  5
6CC
330
1A
100
AcDbEntity
  8
ZUWAKU
100
AcDbCircle
 10
63.61721245944432
 20
22.7250001203374
 30
0.0
 40
0.525
100
AcDbArc
 50
0.0
 51
90.0
  0
LINE
  5
6CD
330
1A
100
AcDbEntity
  8
ZUWAKU
100
AcDbLine
 10
63.61721245944432
 20
23.25000012033741
 30
0.0
 11
61.86721245944432
 21
23.25000012033741
 31
0.0
  0
ARC
  5
6CE
330
1A
100
AcDbEntity
  8
ZUWAKU
100
AcDbCircle
 10
61.86721245944432
 20
22.7250001203374
 30
0.0
 40
0.525
100
AcDbArc
 50
90.0
 51
180.0
  0
ARC
  5
6CF
330
1A
100
AcDbEntity
  8
ZUWAKU
100
AcDbCircle
 10
68.51721245944441
 20
22.7250001203374
 30
0.0
 40
0.525
100
AcDbArc
 50
0.0
 51
90.0
  0
TEXT
  5
6D0
330
1A
100
AcDbEntity
  8
MOJI
100
AcDbText
 10
239.8272029855143
 20
3.204921177744825
 30
0.0
 40
5.599999999999999
  1
ＲＶ１０５（出）
 41
0.9
  7
ｽﾀｲﾙ1
100
AcDbText
  0
LINE
  5
6D1
330
1A
100
AcDbEntity
  8
ZUWAKU
100
AcDbLine
 10
208.2466015947311
 20
30.0000001203374
 30
0.0
 11
208.2466015947311
 21
0.8000001203374722
 31
0.0
  0
LINE
  5
6D2
330
1A
100
AcDbEntity
  8
ZUWAKU
100
AcDbLine
 10
208.646601594731
 20
30.0000001203374
 30
0.0
 11
208.6466015947312
 21
0.8000001203374722
 31
0.0
  0
LINE
  5
6D3
330
1A
100
AcDbEntity
  8
ZUWAKU
100
AcDbLine
 10
208.4466015947309
 20
30.0000001203374
 30
0.0
 11
208.4466015947311
 21
0.8000001203374722
 31
0.0
  0
TEXT
  5
6D4
330
1A
100
AcDbEntity
  8
MOJI
100
AcDbText
 10
239.8272029855143
 20
18.00492117774479
 30
0.0
 40
5.599999999999999
  1
曲り（出）
 41
0.9
  7
ｽﾀｲﾙ1
100
AcDbText
  0
TEXT
  5
6D5
330
1A
100
AcDbEntity
  8
ZUWAKU
100
AcDbText
 10
209.7240466169407
 20
9.655356658723022
 30
0.0
 40
4.0
  1
サイズ
 41
0.9
  7
ｽﾀｲﾙ1
100
AcDbText
  0
TEXT
  5
6D6
330
1A
100
AcDbEntity
  8
ZUWAKU
100
AcDbText
 10
209.7240466169405
 20
24.05535665872298
 30
0.0
 40
4.0
  1
品名
 41
0.9
  7
ｽﾀｲﾙ1
100
AcDbText
  0
LINE
  5
6D7
330
1A
100
AcDbEntity
  8
ZUWAKU
100
AcDbLine
 10
648.8172028148674
 20
15.20000012033743
 30
0.0
 11
697.2490108532045
 21
15.20000012033744
 31
0.0
  0
LINE
  5
6D8
330
1A
100
AcDbEntity
  8
ZUWAKU
100
AcDbLine
 10
648.8172028148676
 20
15.40000012033744
 30
0.0
 11
697.2490108532045
 21
15.40000012033743
 31
0.0
  0
LINE
  5
6D9
330
1A
100
AcDbEntity
  8
ZUWAKU
100
AcDbLine
 10
648.8172028148674
 20
15.60000012033743
 30
0.0
 11
697.2490108532045
 21
15.60000012033743
 31
0.0
  0
TEXT
  5
6DA
330
1A
100
AcDbEntity
  8
ZUWAKU
100
AcDbText
 10
658.2039379919656
 20
18.00492117774479
 30
0.0
 40
5.599999999999999
  1
　　．　　．　　
 41
0.9
  7
ｽﾀｲﾙ1
100
AcDbText
  0
LINE
  5
6DB
330
1A
100
AcDbEntity
  8
ZUWAKU
100
AcDbLine
 10
505.1991798028041
 20
15.20000012033744
 30
0.0
 11
552.5269560707756
 21
15.20000012033744
 31
0.0
  0
LINE
  5
6DC
330
1A
100
AcDbEntity
  8
ZUWAKU
100
AcDbLine
 10
505.1991798028041
 20
15.40000012033743
 30
0.0
 11
552.5269560707756
 21
15.40000012033743
 31
0.0
  0
LINE
  5
6DD
330
1A
100
AcDbEntity
  8
ZUWAKU
100
AcDbLine
 10
505.1991798028041
 20
15.60000012033743
 30
0.0
 11
552.5269560707756
 21
15.60000012033743
 31
0.0
  0
TEXT
  5
6DE
330
1A
100
AcDbEntity
  8
MOJI
100
AcDbText
 10
464.5946263079022
 20
11.94261784199738
 30
0.0
 40
5.599999999999999
  1
ＧＱ６１□
 41
0.9
  7
ｽﾀｲﾙ1
100
AcDbText
  0
LINE
  5
6DF
330
1A
100
AcDbEntity
  8
ZUWAKU
100
AcDbLine
 10
447.6243642756544
 20
30.0000001203374
 30
0.0
 11
447.6243642756546
 21
0.8000001203374722
 31
0.0
  0
LINE
  5
6E0
330
1A
100
AcDbEntity
  8
ZUWAKU
100
AcDbLine
 10
447.8243642756544
 20
30.0000001203374
 30
0.0
 11
447.8243642756547
 21
0.8000001203374722
 31
0.0
  0
LINE
  5
6E1
330
1A
100
AcDbEntity
  8
ZUWAKU
100
AcDbLine
 10
447.4243642756546
 20
30.0000001203374
 30
0.0
 11
447.4243642756546
 21
0.8000001203374722
 31
0.0
  0
TEXT
  5
6E2
330
1A
100
AcDbEntity
  8
MOJI
100
AcDbText
 10
528.0409082769761
 20
18.00492117774479
 30
0.0
 40
5.599999999999999
  1
Ａ３
 41
0.9
  7
ｽﾀｲﾙ1
100
AcDbText
  0
LINE
  5
6E3
330
1A
100
AcDbEntity
  8
ZUWAKU
100
AcDbLine
 10
504.999179802804
 20
30.0000001203374
 30
0.0
 11
504.9991798028043
 21
0.8000001203374722
 31
0.0
  0
LINE
  5
6E4
330
1A
100
AcDbEntity
  8
ZUWAKU
100
AcDbLine
 10
505.1991798028041
 20
30.0000001203374
 30
0.0
 11
505.1991798028043
 21
0.8000001203374722
 31
0.0
  0
LINE
  5
6E5
330
1A
100
AcDbEntity
  8
ZUWAKU
100
AcDbLine
 10
504.7991798028042
 20
30.0000001203374
 30
0.0
 11
504.7991798028042
 21
0.8000001203374722
 31
0.0
  0
TEXT
  5
6E6
330
1A
100
AcDbEntity
  8
ZUWAKU
100
AcDbText
 10
462.6937619601704
 20
2.614071031476896
 30
0.0
 40
3.0
  1
□には色品番が入ります
 41
0.9
  7
ｽﾀｲﾙ1
100
AcDbText
  0
TEXT
  5
6E7
330
1A
100
AcDbEntity
  8
ZUWAKU
100
AcDbText
 10
506.6766248250139
 20
9.655356658723022
 30
0.0
 40
4.0
  1
縮尺
 41
0.9
  7
ｽﾀｲﾙ1
100
AcDbText
  0
TEXT
  5
6E8
330
1A
100
AcDbEntity
  8
MOJI
100
AcDbText
 10
528.0409082769761
 20
3.204921177744825
 30
0.0
 40
5.599999999999999
  1
１/２
 41
0.9
  7
ｽﾀｲﾙ1
100
AcDbText
  0
TEXT
  5
6E9
330
1A
100
AcDbEntity
  8
ZUWAKU
100
AcDbText
 10
449.301809297864
 20
24.05535665872298
 30
0.0
 40
4.0
  1
品番
 41
0.9
  7
ｽﾀｲﾙ1
100
AcDbText
  0
TEXT
  5
6EA
330
1A
100
AcDbEntity
  8
ZUWAKU
100
AcDbText
 10
506.6766248250137
 20
24.05535665872298
 30
0.0
 40
4.0
  1
用紙
 41
0.9
  7
ｽﾀｲﾙ1
100
AcDbText
  0
LINE
  5
6EB
330
1A
100
AcDbEntity
  8
ZUWAKU
100
AcDbLine
 10
648.6172028148676
 20
30.0000001203374
 30
0.0
 11
648.6172028148678
 21
0.8000001203374722
 31
0.0
  0
LINE
  5
6EC
330
1A
100
AcDbEntity
  8
ZUWAKU
100
AcDbLine
 10
648.8172028148676
 20
30.0000001203374
 30
0.0
 11
648.8172028148678
 21
0.8000001203374722
 31
0.0
  0
LINE
  5
6ED
330
1A
100
AcDbEntity
  8
ZUWAKU
100
AcDbLine
 10
648.4172028148678
 20
30.0000001203374
 30
0.0
 11
648.4172028148678
 21
0.8000001203374722
 31
0.0
  0
LINE
  5
6EE
330
1A
100
AcDbEntity
  8
ZUWAKU
100
AcDbLine
 10
552.7269560707755
 20
30.0000001203374
 30
0.0
 11
552.7269560707757
 21
0.8000001203374722
 31
0.0
  0
LINE
  5
6EF
330
1A
100
AcDbEntity
  8
ZUWAKU
100
AcDbLine
 10
552.9269560707755
 20
30.0000001203374
 30
0.0
 11
552.9269560707757
 21
0.8000001203374722
 31
0.0
  0
LINE
  5
6F0
330
1A
100
AcDbEntity
  8
ZUWAKU
100
AcDbLine
 10
552.5269560707756
 20
30.0000001203374
 30
0.0
 11
552.5269560707756
 21
0.8000001203374722
 31
0.0
  0
TEXT
  5
6F1
330
1A
100
AcDbEntity
  8
ZUWAKU
100
AcDbText
 10
650.2946478370772
 20
24.05535665872298
 30
0.0
 40
4.0
  1
DATE
 41
0.9
  7
ｽﾀｲﾙ1
100
AcDbText
  0
LINE
  5
6F2
330
1A
100
AcDbEntity
  8
ZUWAKU
100
AcDbLine
 10
697.2490108532045
 20
30.0000001203374
 30
0.0
 11
697.2490108532045
 21
0.8000001203374722
 31
0.0
  0
LINE
  5
6F3
330
1A
100
AcDbEntity
  8
ZUWAKU
100
AcDbLine
 10
697.4490108532044
 20
30.0000001203374
 30
0.0
 11
697.4490108532044
 21
0.8000001203374722
 31
0.0
  0
LINE
  5
6F4
330
1A
100
AcDbEntity
  8
ZUWAKU
100
AcDbLine
 10
697.6490108532043
 20
30.0000001203374
 30
0.0
 11
697.6490108532045
 21
0.8000001203374722
 31
0.0
  0
LINE
  5
6F5
330
1A
100
AcDbEntity
  8
ZUWAKU
100
AcDbLine
 10
697.8490108532043
 20
30.0000001203374
 30
0.0
 11
697.8490108532046
 21
0.8000001203374722
 31
0.0
  0
TEXT
  5
6F6
330
1A
100
AcDbEntity
  8
ZUWAKU
100
AcDbText
 10
708.5280844969069
 20
17.5538394560242
 30
0.0
 40
6.0
  1
積水化学工業株式会社
 41
0.9
  7
ｽﾀｲﾙ1
100
AcDbText
  0
TEXT
  5
6F7
330
1A
100
AcDbEntity
  8
ZUWAKU
100
AcDbText
 10
708.5280844969069
 20
6.64884043419147
 30
0.0
 40
6.0
  1
建材事業部
 41
0.9
  7
ｽﾀｲﾙ1
100
AcDbText
  0
VIEWPORT
  5
22
330
17
100
AcDbEntity
 67
     1
  8
0
100
AcDbViewport
 10
313.6808219178082
 20
148.5
 30
0.0
 40
627.3616438356165
 41
297.0
 68
     2
 69
     1
1001
ACAD
1000
MVIEW
1002
{
1070
    16
1010
0.0
1020
0.0
1030
0.0
1010
0.0
1020
0.0
1030
1.0
1040
0.0
1040
297.0
1040
313.6808219178082
1040
148.5
1040
50.0
1040
0.0
1040
0.0
1070
     0
1070
   100
1070
     1
1070
     0
1070
     0
1070
     0
1070
     0
1070
     0
1040
0.0
1040
0.0
1040
0.0
1040
1.0
1040
1.0
1040
10.0
1040
10.0
1070
     0
1002
{
1002
}
1002
}
  0
VIEWPORT
  5
64
330
17
100
AcDbEntity
 67
     1
  8
VIEWPORT
100
AcDbViewport
 10
210.0
 20
148.5
 30
0.0
 40
420.0
 41
297.0
 68
     1
 69
     2
1001
ACAD
1000
MVIEW
1002
{
1070
    16
1010
0.0
1020
0.0
1030
0.0
1010
0.0
1020
0.0
1030
1.0
1040
0.0
1040
605.8799999999998
1040
420.0
1040
297.0
1040
50.0
1040
0.0
1040
0.0
1070
     0
1070
   100
1070
     1
1070
     0
1070
     0
1070
     0
1070
     0
1070
     0
1040
0.0
1040
0.0
1040
0.0
1040
10.0
1040
10.0
1040
0.0
1040
0.0
1070
     0
1002
{
1002
}
1002
}
  0
ENDSEC
  0
SECTION
  2
OBJECTS
  0
DICTIONARY
  5
C
330
0
100
AcDbDictionary
  3
ACAD_GROUP
350
D
  3
ACAD_LAYOUT
350
517
  3
ACAD_MLINESTYLE
350
E
  3
ACAD_PLOTSETTINGS
350
518
  3
ACAD_PLOTSTYLENAME
350
515
  3
ACDBHEADERROUNDTRIPXREC
350
747
  0
DICTIONARY
  5
544
330
1A
100
AcDbDictionary
280
     1
  3
ACAD_LAYOUTSELFREF
360
769
  0
DICTIONARY
  5
542
330
17
100
AcDbDictionary
280
     1
  3
ACAD_LAYOUTSELFREF
360
768
  0
DICTIONARY
  5
D
102
{ACAD_REACTORS
330
C
102
}
330
C
100
AcDbDictionary
  0
DICTIONARY
  5
517
102
{ACAD_REACTORS
330
C
102
}
330
C
100
AcDbDictionary
  0
DICTIONARY
  5
E
102
{ACAD_REACTORS
330
C
102
}
330
C
100
AcDbDictionary
  3
STANDARD
350
13
  0
DICTIONARY
  5
518
102
{ACAD_REACTORS
330
C
102
}
330
C
100
AcDbDictionary
  0
ACDBDICTIONARYWDFLT
  5
515
102
{ACAD_REACTORS
330
C
102
}
330
C
100
AcDbDictionary
281
     1
  3
Normal
350
516
100
AcDbDictionaryWithDefault
340
516
1001
ACAD
1000
TREAT_AS_HARD
1070
     0
1000
TREAT_AS_HARD
1070
     0
  0
DICTIONARY
  5
747
102
{ACAD_REACTORS
330
C
102
}
330
C
100
AcDbDictionary
  3
TSTACKALIGN
350
748
  3
TSTACKSIZE
350
749
  3
HYPERLINKBASE
350
74A
  3
STYLESHEET
350
74B
  3
LAYOUTDICT
350
74C
  3
PLOTSETDICT
350
74D
  3
PLOTSTYLNAMDICT
350
74E
  3
LWETCUNION
350
74F
  3
INSUNITS
350
750
  3
CEPSNTYPE
350
751
  3
FINGERPRINTGUID
350
752
  3
VERSIONGUID
350
753
  3
PSVPSCALE
350
754
  3
DIMSTYLEDATA
350
755
  3
PUCSORTHOREF
350
756
  3
PUCSORTHOVIEW
350
757
  3
PUCSBASE
350
758
  3
PUCSORGTOP
350
759
  3
PUCSORGBOTTOM
350
75A
  3
PUCSORGLEFT
350
75B
  3
PUCSORGRIGHT
350
75C
  3
PUCSORGFRONT
350
75D
  3
PUCSORGBACK
350
75E
  3
UCSORTHOREF
350
75F
  3
UCSORTHOVIEW
350
760
  3
UCSBASE
350
761
  3
UCSORGTOP
350
762
  3
UCSORGBOTTOM
350
763
  3
UCSORGLEFT
350
764
  3
UCSORGRIGHT
350
765
  3
UCSORGFRONT
350
766
  3
UCSORGBACK
350
767
  0
XRECORD
  5
769
102
{ACAD_REACTORS
330
544
102
}
330
544
100
AcDbXrecord
340
1A
  0
XRECORD
  5
768
102
{ACAD_REACTORS
330
542
102
}
330
542
100
AcDbXrecord
340
17
  0
MLINESTYLE
  5
13
102
{ACAD_REACTORS
330
E
102
}
330
E
100
AcDbMlineStyle
  2
STANDARD
 70
     0
  3

 62
     0
 51
90.0
 52
90.0
 71
     2
 49
0.5
 62
   256
  6
BYLAYER
 49
-0.5
 62
   256
  6
BYLAYER
  0
ACDBPLACEHOLDER
  5
516
102
{ACAD_REACTORS
330
515
102
}
330
515
100
AcDbPlaceHolder
280
     0
  0
XRECORD
  5
748
102
{ACAD_REACTORS
330
747
102
}
330
747
100
AcDbXrecord
 90
        1
  0
XRECORD
  5
749
102
{ACAD_REACTORS
330
747
102
}
330
747
100
AcDbXrecord
 90
       70
  0
XRECORD
  5
74A
102
{ACAD_REACTORS
330
747
102
}
330
747
100
AcDbXrecord
  1

  0
XRECORD
  5
74B
102
{ACAD_REACTORS
330
747
102
}
330
747
100
AcDbXrecord
  1
systemprinter.ctb
  0
XRECORD
  5
74C
102
{ACAD_REACTORS
330
747
102
}
330
747
100
AcDbXrecord
340
517
  0
XRECORD
  5
74D
102
{ACAD_REACTORS
330
747
102
}
330
747
100
AcDbXrecord
340
518
  0
XRECORD
  5
74E
102
{ACAD_REACTORS
330
747
102
}
330
747
100
AcDbXrecord
340
515
  0
XRECORD
  5
74F
102
{ACAD_REACTORS
330
747
102
}
330
747
100
AcDbXrecord
 90
    10781
  0
XRECORD
  5
750
102
{ACAD_REACTORS
330
747
102
}
330
747
100
AcDbXrecord
 90
        0
  0
XRECORD
  5
751
102
{ACAD_REACTORS
330
747
102
}
330
747
100
AcDbXrecord
 90
        0
  0
XRECORD
  5
752
102
{ACAD_REACTORS
330
747
102
}
330
747
100
AcDbXrecord
  1
{4844CF0E-1211-11D4-932C-444553540000}
  0
XRECORD
  5
753
102
{ACAD_REACTORS
330
747
102
}
330
747
100
AcDbXrecord
  1
{CF47E169-8117-403D-9F0E-C374C02AFDA5}
  0
XRECORD
  5
754
102
{ACAD_REACTORS
330
747
102
}
330
747
100
AcDbXrecord
 40
0.0
  0
XRECORD
  5
755
102
{ACAD_REACTORS
330
747
102
}
330
747
100
AcDbXrecord
1000
DSTYLE
1002
{
1070
   341
340
6D
1070
   343
340
6D
1070
   344
340
6D
1070
   371
 70
    -1
1070
   372
 70
    -1
1002
}
  0
XRECORD
  5
756
102
{ACAD_REACTORS
330
747
102
}
330
747
100
AcDbXrecord
340
0
  0
XRECORD
  5
757
102
{ACAD_REACTORS
330
747
102
}
330
747
100
AcDbXrecord
 70
     0
  0
XRECORD
  5
758
102
{ACAD_REACTORS
330
747
102
}
330
747
100
AcDbXrecord
340
0
  0
XRECORD
  5
759
102
{ACAD_REACTORS
330
747
102
}
330
747
100
AcDbXrecord
 10
0.0
 20
0.0
 30
0.0
  0
XRECORD
  5
75A
102
{ACAD_REACTORS
330
747
102
}
330
747
100
AcDbXrecord
 10
0.0
 20
0.0
 30
0.0
  0
XRECORD
  5
75B
102
{ACAD_REACTORS
330
747
102
}
330
747
100
AcDbXrecord
 10
0.0
 20
0.0
 30
0.0
  0
XRECORD
  5
75C
102
{ACAD_REACTORS
330
747
102
}
330
747
100
AcDbXrecord
 10
0.0
 20
0.0
 30
0.0
  0
XRECORD
  5
75D
102
{ACAD_REACTORS
330
747
102
}
330
747
100
AcDbXrecord
 10
0.0
 20
0.0
 30
0.0
  0
XRECORD
  5
75E
102
{ACAD_REACTORS
330
747
102
}
330
747
100
AcDbXrecord
 10
0.0
 20
0.0
 30
0.0
  0
XRECORD
  5
75F
102
{ACAD_REACTORS
330
747
102
}
330
747
100
AcDbXrecord
340
0
  0
XRECORD
  5
760
102
{ACAD_REACTORS
330
747
102
}
330
747
100
AcDbXrecord
 70
     0
  0
XRECORD
  5
761
102
{ACAD_REACTORS
330
747
102
}
330
747
100
AcDbXrecord
340
0
  0
XRECORD
  5
762
102
{ACAD_REACTORS
330
747
102
}
330
747
100
AcDbXrecord
 10
0.0
 20
0.0
 30
0.0
  0
XRECORD
  5
763
102
{ACAD_REACTORS
330
747
102
}
330
747
100
AcDbXrecord
 10
0.0
 20
0.0
 30
0.0
  0
XRECORD
  5
764
102
{ACAD_REACTORS
330
747
102
}
330
747
100
AcDbXrecord
 10
0.0
 20
0.0
 30
0.0
  0
XRECORD
  5
765
102
{ACAD_REACTORS
330
747
102
}
330
747
100
AcDbXrecord
 10
0.0
 20
0.0
 30
0.0
  0
XRECORD
  5
766
102
{ACAD_REACTORS
330
747
102
}
330
747
100
AcDbXrecord
 10
0.0
 20
0.0
 30
0.0
  0
XRECORD
  5
767
102
{ACAD_REACTORS
330
747
102
}
330
747
100
AcDbXrecord
 10
0.0
 20
0.0
 30
0.0
  0
ENDSEC
  0
EOF
