  0
SECTION
  2
HEADER
  9
$ACADVER
  1
AC1014
  9
$ACADMAINTVER
 70
     9
  9
$DWGCODEPAGE
  3
ANSI_932
  9
$INSBASE
 10
0.0
 20
0.0
 30
0.0
  9
$EXTMIN
 10
-0.05126640194635
 20
-0.0362526699479986
 30
-0.0000000000112498
  9
$EXTMAX
 10
797.6628945888771
 20
551.6439420217511
 30
0.0000000000002956
  9
$LIMMIN
 10
0.0
 20
0.0
  9
$LIMMAX
 10
840.0
 20
594.0
  9
$ORTHOMODE
 70
     0
  9
$REGENMODE
 70
     1
  9
$FILLMODE
 70
     1
  9
$QTEXTMODE
 70
     0
  9
$MIRRTEXT
 70
     1
  9
$DRAGMODE
 70
     2
  9
$LTSCALE
 40
2.0
  9
$OSMODE
 70
    35
  9
$ATTMODE
 70
     1
  9
$TEXTSIZE
 40
5.0
  9
$TRACEWID
 40
1.0
  9
$TEXTSTYLE
  7
STANDARD
  9
$CLAYER
  8
SUNPOU
  9
$CELTYPE
  6
BYLAYER
  9
$CECOLOR
 62
   256
  9
$CELTSCALE
 40
1.0
  9
$DELOBJ
 70
     1
  9
$DISPSILH
 70
     0
  9
$DIMSCALE
 40
1.0
  9
$DIMASZ
 40
7.0
  9
$DIMEXO
 40
6.0
  9
$DIMDLI
 40
14.0
  9
$DIMRND
 40
0.0
  9
$DIMDLE
 40
0.0
  9
$DIMEXE
 40
3.0
  9
$DIMTP
 40
0.0
  9
$DIMTM
 40
0.0
  9
$DIMTXT
 40
6.0
  9
$DIMCEN
 40
150.0
  9
$DIMTSZ
 40
0.0
  9
$DIMTOL
 70
     0
  9
$DIMLIM
 70
     0
  9
$DIMTIH
 70
     0
  9
$DIMTOH
 70
     0
  9
$DIMSE1
 70
     0
  9
$DIMSE2
 70
     0
  9
$DIMTAD
 70
     3
  9
$DIMZIN
 70
     0
  9
$DIMBLK
  1

  9
$DIMASO
 70
     1
  9
$DIMSHO
 70
     1
  9
$DIMPOST
  1

  9
$DIMAPOST
  1

  9
$DIMALT
 70
     0
  9
$DIMALTD
 70
     2
  9
$DIMALTF
 40
25.4
  9
$DIMLFAC
 40
1.0
  9
$DIMTOFL
 70
     1
  9
$DIMTVP
 40
0.0
  9
$DIMTIX
 70
     0
  9
$DIMSOXD
 70
     0
  9
$DIMSAH
 70
     1
  9
$DIMBLK1
  1
OPEN
  9
$DIMBLK2
  1
OPEN
  9
$DIMSTYLE
  2
STANDARD
  9
$DIMCLRD
 70
   256
  9
$DIMCLRE
 70
   256
  9
$DIMCLRT
 70
   256
  9
$DIMTFAC
 40
1.0
  9
$DIMGAP
 40
2.0
  9
$DIMJUST
 70
     0
  9
$DIMSD1
 70
     0
  9
$DIMSD2
 70
     0
  9
$DIMTOLJ
 70
     1
  9
$DIMTZIN
 70
     0
  9
$DIMALTZ
 70
     0
  9
$DIMALTTZ
 70
     0
  9
$DIMFIT
 70
     3
  9
$DIMUPT
 70
     0
  9
$DIMUNIT
 70
     2
  9
$DIMDEC
 70
     0
  9
$DIMTDEC
 70
     0
  9
$DIMALTU
 70
     2
  9
$DIMALTTD
 70
     2
  9
$DIMTXSTY
  7
STANDARD
  9
$DIMAUNIT
 70
     0
  9
$LUNITS
 70
     2
  9
$LUPREC
 70
     4
  9
$SKETCHINC
 40
1.0
  9
$FILLETRAD
 40
20.0
  9
$AUNITS
 70
     0
  9
$AUPREC
 70
     0
  9
$MENU
  1
.
  9
$ELEVATION
 40
0.0
  9
$PELEVATION
 40
0.0
  9
$THICKNESS
 40
0.0
  9
$LIMCHECK
 70
     0
  9
$BLIPMODE
 70
     0
  9
$CHAMFERA
 40
20.0
  9
$CHAMFERB
 40
20.0
  9
$CHAMFERC
 40
40.0
  9
$CHAMFERD
 40
0.0
  9
$SKPOLY
 70
     0
  9
$TDCREATE
 40
2450994.354346065
  9
$TDUPDATE
 40
2453805.625798067
  9
$TDINDWG
 40
0.0814266204
  9
$TDUSRTIMER
 40
0.0814266204
  9
$USRTIMER
 70
     1
  9
$ANGBASE
 50
0.0
  9
$ANGDIR
 70
     0
  9
$PDMODE
 70
     1
  9
$PDSIZE
 40
0.0
  9
$PLINEWID
 40
0.0
  9
$COORDS
 70
     1
  9
$SPLFRAME
 70
     0
  9
$SPLINETYPE
 70
     6
  9
$SPLINESEGS
 70
     8
  9
$ATTDIA
 70
     0
  9
$ATTREQ
 70
     1
  9
$HANDLING
 70
 10241
  9
$HANDSEED
  5
6C6
  9
$SURFTAB1
 70
     6
  9
$SURFTAB2
 70
     6
  9
$SURFTYPE
 70
     6
  9
$SURFU
 70
     6
  9
$SURFV
 70
     6
  9
$UCSNAME
  2

  9
$UCSORG
 10
0.0
 20
0.0
 30
0.0
  9
$UCSXDIR
 10
1.0
 20
0.0
 30
0.0
  9
$UCSYDIR
 10
0.0
 20
1.0
 30
0.0
  9
$PUCSNAME
  2

  9
$PUCSORG
 10
0.0
 20
0.0
 30
0.0
  9
$PUCSXDIR
 10
1.0
 20
0.0
 30
0.0
  9
$PUCSYDIR
 10
0.0
 20
1.0
 30
0.0
  9
$USERI1
 70
     0
  9
$USERI2
 70
     0
  9
$USERI3
 70
     0
  9
$USERI4
 70
     0
  9
$USERI5
 70
     0
  9
$USERR1
 40
0.0
  9
$USERR2
 40
0.0
  9
$USERR3
 40
0.0
  9
$USERR4
 40
0.0
  9
$USERR5
 40
0.0
  9
$WORLDVIEW
 70
     1
  9
$SHADEDGE
 70
     3
  9
$SHADEDIF
 70
    70
  9
$TILEMODE
 70
     1
  9
$MAXACTVP
 70
    16
  9
$PINSBASE
 10
0.0
 20
0.0
 30
0.0
  9
$PLIMCHECK
 70
     0
  9
$PEXTMIN
 10
0.0
 20
0.0
 30
0.0
  9
$PEXTMAX
 10
420.0
 20
297.0
 30
0.0
  9
$PLIMMIN
 10
0.0
 20
0.0
  9
$PLIMMAX
 10
420.0
 20
297.0
  9
$UNITMODE
 70
     0
  9
$VISRETAIN
 70
     0
  9
$PLINEGEN
 70
     0
  9
$PSLTSCALE
 70
     1
  9
$TREEDEPTH
 70
  3020
  9
$PICKSTYLE
 70
     1
  9
$CMLSTYLE
  2
STANDARD
  9
$CMLJUST
 70
     0
  9
$CMLSCALE
 40
1.0
  9
$PROXYGRAPHICS
 70
     1
  9
$MEASUREMENT
 70
     1
  0
ENDSEC
  0
SECTION
  2
CLASSES
  0
CLASS
  1
ACDBDICTIONARYWDFLT
  2
AcDbDictionaryWithDefault
  3
AutoCAD 2000
 90
        0
280
     0
281
     0
  0
CLASS
  1
ACDBPLACEHOLDER
  2
AcDbPlaceHolder
  3
AutoCAD 2000
 90
        0
280
     0
281
     0
  0
CLASS
  1
LAYOUT
  2
AcDbLayout
  3
AutoCAD 2000
 90
        0
280
     0
281
     0
  0
CLASS
  1
LONG_TRANSACTION
  2
AcDbLongTransaction
  3
AutoCAD 2000
 90
        0
280
     0
281
     0
  0
CLASS
  1
LWPOLYLINE
  2
AcDbPolyline
  3
AutoCAD 2000
 90
        0
280
     0
281
     1
  0
CLASS
  1
HATCH
  2
AcDbHatch
  3
AutoCAD 2000
 90
        0
280
     0
281
     1
  0
CLASS
  1
XRECORD
  2
AcDbXrecord
  3
AutoCAD 2000
 90
        0
280
     0
281
     0
  0
CLASS
  1
LONG_TRANSACTION
  2
AcDbLongTransaction
  3
AutoCAD 2000
 90
        0
280
     0
281
     0
  0
CLASS
  1
LWPOLYLINE
  2
AcDbPolyline
  3
AutoCAD 2000
 90
        0
280
     0
281
     1
  0
CLASS
  1
HATCH
  2
AcDbHatch
  3
AutoCAD 2000
 90
        0
280
     0
281
     1
  0
CLASS
  1
XRECORD
  2
AcDbXrecord
  3
AutoCAD 2000
 90
        0
280
     0
281
     0
  0
ENDSEC
  0
SECTION
  2
TABLES
  0
TABLE
  2
VPORT
  5
8
330
0
100
AcDbSymbolTable
 70
     2
  0
VPORT
  5
6A2
330
8
100
AcDbSymbolTableRecord
100
AcDbViewportTableRecord
  2
*ACTIVE
 70
     0
 10
0.0
 20
0.0
 11
1.0
 21
1.0
 12
451.8454332776741
 22
281.2634475810709
 13
0.0
 23
0.0
 14
5.0
 24
5.0
 15
0.0
 25
0.0
 16
0.0
 26
0.0
 36
1.0
 17
0.0
 27
0.0
 37
0.0
 40
660.3241619069534
 41
1.795454545454545
 42
50.0
 43
0.0
 44
0.0
 50
0.0
 51
0.0
 71
     0
 72
   100
 73
     1
 74
     0
 75
     0
 76
     0
 77
     0
 78
     0
  0
ENDTAB
  0
TABLE
  2
LTYPE
  5
5
330
0
100
AcDbSymbolTable
 70
     3
  0
LTYPE
  5
14
330
5
100
AcDbSymbolTableRecord
100
AcDbLinetypeTableRecord
  2
BYBLOCK
 70
     0
  3

 72
    65
 73
     0
 40
0.0
  0
LTYPE
  5
15
330
5
100
AcDbSymbolTableRecord
100
AcDbLinetypeTableRecord
  2
BYLAYER
 70
     0
  3

 72
    65
 73
     0
 40
0.0
  0
LTYPE
  5
16
330
5
100
AcDbSymbolTableRecord
100
AcDbLinetypeTableRecord
  2
CONTINUOUS
 70
     0
  3
Solid line
 72
    65
 73
     0
 40
0.0
  0
LTYPE
  5
115
330
5
100
AcDbSymbolTableRecord
100
AcDbLinetypeTableRecord
  2
PHANTOM
 70
     0
  3
______  __  __  ______  __  __  ______  __  __ 
 72
    65
 73
     6
 40
2.5
 49
1.25
 74
     0
 49
-0.25
 74
     0
 49
0.25
 74
     0
 49
-0.25
 74
     0
 49
0.25
 74
     0
 49
-0.25
 74
     0
  0
LTYPE
  5
135
330
5
100
AcDbSymbolTableRecord
100
AcDbLinetypeTableRecord
  2
CENTER
 70
     0
  3
____ _ ____ _ ____ _ ____ _ ____ _ ____ _ ____ 
 72
    65
 73
     4
 40
2.0
 49
1.25
 74
     0
 49
-0.25
 74
     0
 49
0.25
 74
     0
 49
-0.25
 74
     0
  0
ENDTAB
  0
TABLE
  2
LAYER
  5
2
330
0
100
AcDbSymbolTable
 70
     9
  0
LAYER
  5
F
330
2
100
AcDbSymbolTableRecord
100
AcDbLayerTableRecord
  2
0
 70
     0
 62
     7
  6
CONTINUOUS
  0
LAYER
  5
62
330
2
100
AcDbSymbolTableRecord
100
AcDbLayerTableRecord
  2
VIEWPORT
 70
     0
 62
     7
  6
CONTINUOUS
  0
LAYER
  5
65
330
2
100
AcDbSymbolTableRecord
100
AcDbLayerTableRecord
  2
ZUWAKU
 70
     0
 62
     7
  6
CONTINUOUS
  0
LAYER
  5
1D2
330
2
100
AcDbSymbolTableRecord
100
AcDbLayerTableRecord
  2
SEIHIN
 70
     0
 62
     3
  6
CONTINUOUS
  0
LAYER
  5
1D3
330
2
100
AcDbSymbolTableRecord
100
AcDbLayerTableRecord
  2
SUNPOU
 70
     0
 62
     4
  6
CONTINUOUS
  0
LAYER
  5
1D4
330
2
100
AcDbSymbolTableRecord
100
AcDbLayerTableRecord
  2
CENTER_L
 70
     0
 62
     1
  6
CENTER
  0
LAYER
  5
1D5
330
2
100
AcDbSymbolTableRecord
100
AcDbLayerTableRecord
  2
NOKITOI
 70
     0
 62
     8
  6
PHANTOM
  0
LAYER
  5
1D6
330
2
100
AcDbSymbolTableRecord
100
AcDbLayerTableRecord
  2
DEFPOINTS
 70
     0
 62
     7
  6
CONTINUOUS
  0
LAYER
  5
4CA
330
2
100
AcDbSymbolTableRecord
100
AcDbLayerTableRecord
  2
MOJI
 70
     0
 62
     2
  6
CONTINUOUS
  0
ENDTAB
  0
TABLE
  2
STYLE
  5
3
330
0
100
AcDbSymbolTable
 70
     2
  0
STYLE
  5
10
330
3
100
AcDbSymbolTableRecord
100
AcDbTextStyleTableRecord
  2
STANDARD
 70
     0
 40
0.0
 41
1.0
 50
0.0
 71
     0
 42
5.0
  3
TXT
  4
bigfont.shx
  0
STYLE
  5
4CB
330
3
100
AcDbSymbolTableRecord
100
AcDbTextStyleTableRecord
  2
ｽﾀｲﾙ1
 70
     0
 40
0.0
 41
1.0
 50
0.0
 71
     0
 42
2.5
  3
MS PGothic.ttf
  4

1001
ACAD
1000
MS PGothic
1071
    32818
  0
ENDTAB
  0
TABLE
  2
VIEW
  5
6
330
0
100
AcDbSymbolTable
 70
     0
  0
ENDTAB
  0
TABLE
  2
UCS
  5
7
330
0
100
AcDbSymbolTable
 70
     0
  0
ENDTAB
  0
TABLE
  2
APPID
  5
9
330
0
100
AcDbSymbolTable
 70
     1
  0
APPID
  5
11
330
9
100
AcDbSymbolTableRecord
100
AcDbRegAppTableRecord
  2
ACAD
 70
     0
  0
ENDTAB
  0
TABLE
  2
DIMSTYLE
  5
A
330
0
100
AcDbSymbolTable
 70
     1
  0
DIMSTYLE
105
1D
102
{ACAD_REACTORS
330
2A9
330
2BA
330
2C3
330
2CC
330
2CD
330
2CE
330
2D9
330
2DA
330
2E6
330
2FE
102
}
330
A
100
AcDbSymbolTableRecord
100
AcDbDimStyleTableRecord
  2
STANDARD
 70
     0
  3

  4

  5

  6

  7

 40
1.0
 41
0.18
 42
0.0625
 43
0.38
 44
0.18
 45
0.0
 46
0.0
 47
0.0
 48
0.0
140
0.18
141
0.09
142
0.0
143
25.4
144
1.0
145
0.0
146
1.0
147
0.09
 71
     0
 72
     0
 73
     1
 74
     1
 75
     0
 76
     0
 77
     0
 78
     0
170
     0
171
     2
172
     0
173
     0
174
     0
175
     0
176
     0
177
     0
178
     0
270
     2
271
     4
272
     4
273
     2
274
     2
340
10
275
     0
280
     0
281
     0
282
     0
283
     1
284
     0
285
     0
286
     0
287
     3
288
     0
  0
ENDTAB
  0
TABLE
  2
BLOCK_RECORD
  5
1
330
0
100
AcDbSymbolTable
 70
    11
  0
BLOCK_RECORD
  5
1A
102
{ACAD_XDICTIONARY
360
4BC
102
}
330
1
100
AcDbSymbolTableRecord
100
AcDbBlockTableRecord
  2
*MODEL_SPACE
  0
BLOCK_RECORD
  5
17
102
{ACAD_XDICTIONARY
360
4BA
102
}
330
1
100
AcDbSymbolTableRecord
100
AcDbBlockTableRecord
  2
*PAPER_SPACE
  0
BLOCK_RECORD
  5
6D
330
1
100
AcDbSymbolTableRecord
100
AcDbBlockTableRecord
  2
_OPEN
  0
BLOCK_RECORD
  5
371
330
1
100
AcDbSymbolTableRecord
100
AcDbBlockTableRecord
  2
*D1
  0
BLOCK_RECORD
  5
37D
330
1
100
AcDbSymbolTableRecord
100
AcDbBlockTableRecord
  2
*D2
  0
BLOCK_RECORD
  5
389
330
1
100
AcDbSymbolTableRecord
100
AcDbBlockTableRecord
  2
*D3
  0
BLOCK_RECORD
  5
395
330
1
100
AcDbSymbolTableRecord
100
AcDbBlockTableRecord
  2
*D4
  0
BLOCK_RECORD
  5
3A1
330
1
100
AcDbSymbolTableRecord
100
AcDbBlockTableRecord
  2
*D5
  0
BLOCK_RECORD
  5
3AD
330
1
100
AcDbSymbolTableRecord
100
AcDbBlockTableRecord
  2
*D6
  0
BLOCK_RECORD
  5
3B9
330
1
100
AcDbSymbolTableRecord
100
AcDbBlockTableRecord
  2
*D7
  0
BLOCK_RECORD
  5
3C5
330
1
100
AcDbSymbolTableRecord
100
AcDbBlockTableRecord
  2
*D8
  0
BLOCK_RECORD
  5
3D1
330
1
100
AcDbSymbolTableRecord
100
AcDbBlockTableRecord
  2
*D9
  0
BLOCK_RECORD
  5
3DF
330
1
100
AcDbSymbolTableRecord
100
AcDbBlockTableRecord
  2
*D10
  0
ENDTAB
  0
ENDSEC
  0
SECTION
  2
BLOCKS
  0
BLOCK
  5
1B
330
1A
100
AcDbEntity
  8
0
100
AcDbBlockBegin
  2
*MODEL_SPACE
 70
     0
 10
0.0
 20
0.0
 30
0.0
  3
*MODEL_SPACE
  1

  0
ENDBLK
  5
1C
330
1A
100
AcDbEntity
  8
0
100
AcDbBlockEnd
  0
BLOCK
  5
18
330
17
100
AcDbEntity
 67
     1
  8
0
100
AcDbBlockBegin
  2
*PAPER_SPACE
 70
     0
 10
0.0
 20
0.0
 30
0.0
  3
*PAPER_SPACE
  1

  0
ENDBLK
  5
19
330
17
100
AcDbEntity
 67
     1
  8
0
100
AcDbBlockEnd
  0
BLOCK
  5
6E
330
6D
100
AcDbEntity
  8
0
100
AcDbBlockBegin
  2
_OPEN
 70
     0
 10
0.0
 20
0.0
 30
0.0
  3
_OPEN
  1

  0
LINE
  5
6F
330
6D
100
AcDbEntity
  8
0
  6
BYBLOCK
 62
     0
100
AcDbLine
 10
-1.0
 20
0.1666666666666666
 30
0.0
 11
0.0
 21
0.0
 31
0.0
  0
LINE
  5
70
330
6D
100
AcDbEntity
  8
0
  6
BYBLOCK
 62
     0
100
AcDbLine
 10
0.0
 20
0.0
 30
0.0
 11
-1.0
 21
-0.1666666666666666
 31
0.0
  0
LINE
  5
71
330
6D
100
AcDbEntity
  8
0
  6
BYBLOCK
 62
     0
100
AcDbLine
 10
0.0
 20
0.0
 30
0.0
 11
-1.0
 21
0.0
 31
0.0
  0
ENDBLK
  5
72
330
6D
100
AcDbEntity
  8
0
100
AcDbBlockEnd
  0
BLOCK
  5
3EB
330
371
100
AcDbEntity
  8
0
100
AcDbBlockBegin
  2
*D1
 70
     1
 10
0.0
 20
0.0
 30
0.0
  3
*D1
  1

  0
LINE
  5
63F
330
371
100
AcDbEntity
  8
SUNPOU
 62
     4
100
AcDbLine
 10
325.5211461913052
 20
235.3436887584657
 30
0.0
 11
325.5211461913052
 21
159.0623437648871
 31
0.0
  0
LINE
  5
640
330
371
100
AcDbEntity
  8
SUNPOU
 62
     4
100
AcDbLine
 10
153.322379885374
 20
235.3437887558937
 30
0.0
 11
153.322379885374
 21
159.0623437648871
 31
0.0
  0
LINE
  5
641
330
371
100
AcDbEntity
  8
SUNPOU
 62
     4
100
AcDbLine
 10
318.5211461913052
 20
162.0623437648871
 30
0.0
 11
160.322379885374
 21
162.0623437648871
 31
0.0
  0
INSERT
  5
642
330
371
100
AcDbEntity
  8
SUNPOU
 62
     4
100
AcDbBlockReference
  2
_OPEN
 10
325.5211461913052
 20
162.0623437648871
 30
0.0
 41
7.0
 42
7.0
 43
7.0
  0
INSERT
  5
643
330
371
100
AcDbEntity
  8
SUNPOU
 62
     4
100
AcDbBlockReference
  2
_OPEN
 10
153.322379885374
 20
162.0623437648871
 30
0.0
 41
7.0
 42
7.0
 43
7.0
 50
180.0
  0
MTEXT
  5
644
330
371
100
AcDbEntity
  8
SUNPOU
 62
     4
100
AcDbMText
 10
239.4217630383396
 20
167.0623437648871
 30
0.0
 40
6.0
 41
0.0
 71
     5
 72
     1
  1
\A1;172
1001
ACAD
1000
MTEXTBEGIN
1070
    73
1070
     1
1070
    44
1040
1.0
1070
    74
1070
     0
1000
MTEXTEND
  0
POINT
  5
645
330
371
100
AcDbEntity
  8
DEFPOINTS
 62
     0
100
AcDbPoint
 10
325.5211461913052
 20
241.3436887584657
 30
0.0
  0
POINT
  5
646
330
371
100
AcDbEntity
  8
DEFPOINTS
 62
     0
100
AcDbPoint
 10
153.322379885374
 20
241.3437887558937
 30
0.0
  0
POINT
  5
647
330
371
100
AcDbEntity
  8
DEFPOINTS
 62
     0
100
AcDbPoint
 10
153.322379885374
 20
162.0623437648871
 30
0.0
  0
ENDBLK
  5
3F5
330
371
100
AcDbEntity
  8
0
100
AcDbBlockEnd
  0
BLOCK
  5
45B
330
37D
100
AcDbEntity
  8
0
100
AcDbBlockBegin
  2
*D2
 70
     1
 10
0.0
 20
0.0
 30
0.0
  3
*D2
  1

  0
LINE
  5
648
330
37D
100
AcDbEntity
  8
SUNPOU
 62
     4
100
AcDbLine
 10
350.4220305007706
 20
360.3441979013771
 30
0.0
 11
350.4220305007706
 21
398.5959910269693
 31
0.0
  0
LINE
  5
649
330
37D
100
AcDbEntity
  8
SUNPOU
 62
     4
100
AcDbLine
 10
128.4220305007706
 20
360.3442979013771
 30
0.0
 11
128.4220305007706
 21
398.5959910269693
 31
0.0
  0
LINE
  5
64A
330
37D
100
AcDbEntity
  8
SUNPOU
 62
     4
100
AcDbLine
 10
343.4220305007706
 20
395.5959910269693
 30
0.0
 11
135.4220305007706
 21
395.5959910269693
 31
0.0
  0
INSERT
  5
64B
330
37D
100
AcDbEntity
  8
SUNPOU
 62
     4
100
AcDbBlockReference
  2
_OPEN
 10
350.4220305007706
 20
395.5959910269693
 30
0.0
 41
7.0
 42
7.0
 43
7.0
  0
INSERT
  5
64C
330
37D
100
AcDbEntity
  8
SUNPOU
 62
     4
100
AcDbBlockReference
  2
_OPEN
 10
128.4220305007706
 20
395.5959910269693
 30
0.0
 41
7.0
 42
7.0
 43
7.0
 50
180.0
  0
MTEXT
  5
64D
330
37D
100
AcDbEntity
  8
SUNPOU
 62
     4
100
AcDbMText
 10
239.4220305007706
 20
400.5959910269693
 30
0.0
 40
6.0
 41
0.0
 71
     5
 72
     1
  1
\A1;222
1001
ACAD
1000
MTEXTBEGIN
1070
    73
1070
     1
1070
    44
1040
1.0
1070
    74
1070
     0
1000
MTEXTEND
  0
POINT
  5
64E
330
37D
100
AcDbEntity
  8
DEFPOINTS
 62
     0
100
AcDbPoint
 10
350.4220305007706
 20
354.3441979013771
 30
0.0
  0
POINT
  5
64F
330
37D
100
AcDbEntity
  8
DEFPOINTS
 62
     0
100
AcDbPoint
 10
128.4220305007706
 20
354.3442979013771
 30
0.0
  0
POINT
  5
650
330
37D
100
AcDbEntity
  8
DEFPOINTS
 62
     0
100
AcDbPoint
 10
128.4220305007706
 20
395.5959910269693
 30
0.0
  0
ENDBLK
  5
465
330
37D
100
AcDbEntity
  8
0
100
AcDbBlockEnd
  0
BLOCK
  5
466
330
389
100
AcDbEntity
  8
0
100
AcDbBlockBegin
  2
*D3
 70
     1
 10
0.0
 20
0.0
 30
0.0
  3
*D3
  1

  0
LINE
  5
651
330
389
100
AcDbEntity
  8
SUNPOU
 62
     4
100
AcDbLine
 10
279.4220245310029
 20
360.344045652969
 30
0.0
 11
279.4220245310029
 21
381.7913897150155
 31
0.0
  0
LINE
  5
652
330
389
100
AcDbEntity
  8
SUNPOU
 62
     4
100
AcDbLine
 10
199.4220245309949
 20
360.3440537593866
 30
0.0
 11
199.4220245309949
 21
381.7913897150155
 31
0.0
  0
LINE
  5
653
330
389
100
AcDbEntity
  8
SUNPOU
 62
     4
100
AcDbLine
 10
272.4220245310029
 20
378.7913897150155
 30
0.0
 11
206.4220245309949
 21
378.7913897150155
 31
0.0
  0
INSERT
  5
654
330
389
100
AcDbEntity
  8
SUNPOU
 62
     4
100
AcDbBlockReference
  2
_OPEN
 10
279.4220245310029
 20
378.7913897150155
 30
0.0
 41
7.0
 42
7.0
 43
7.0
  0
INSERT
  5
655
330
389
100
AcDbEntity
  8
SUNPOU
 62
     4
100
AcDbBlockReference
  2
_OPEN
 10
199.4220245309949
 20
378.7913897150155
 30
0.0
 41
7.0
 42
7.0
 43
7.0
 50
180.0
  0
MTEXT
  5
656
330
389
100
AcDbEntity
  8
SUNPOU
 62
     4
100
AcDbMText
 10
239.4220245309989
 20
383.7913897150155
 30
0.0
 40
6.0
 41
0.0
 71
     5
 72
     1
  1
\A1;※a80
1001
ACAD
1000
MTEXTBEGIN
1070
    73
1070
     1
1070
    44
1040
1.0
1070
    74
1070
     0
1000
MTEXTEND
  0
POINT
  5
657
330
389
100
AcDbEntity
  8
DEFPOINTS
 62
     0
100
AcDbPoint
 10
279.4220245310029
 20
354.3440456529689
 30
0.0
  0
POINT
  5
658
330
389
100
AcDbEntity
  8
DEFPOINTS
 62
     0
100
AcDbPoint
 10
199.4220245309949
 20
354.3440537593866
 30
0.0
  0
POINT
  5
659
330
389
100
AcDbEntity
  8
DEFPOINTS
 62
     0
100
AcDbPoint
 10
199.4220245309949
 20
378.7913897150155
 30
0.0
  0
ENDBLK
  5
470
330
389
100
AcDbEntity
  8
0
100
AcDbBlockEnd
  0
BLOCK
  5
40C
330
395
100
AcDbEntity
  8
0
100
AcDbBlockBegin
  2
*D4
 70
     1
 10
0.0
 20
0.0
 30
0.0
  3
*D4
  1

  0
LINE
  5
66C
330
395
100
AcDbEntity
  8
SUNPOU
 62
     4
100
AcDbLine
 10
479.1608560839356
 20
354.343797901377
 30
0.0
 11
420.1571980000369
 21
354.343797901377
 31
0.0
  0
LINE
  5
66D
330
395
100
AcDbEntity
  8
SUNPOU
 62
     4
100
AcDbLine
 10
520.9705560839356
 20
197.943997901377
 30
0.0
 11
420.1571980000369
 21
197.943997901377
 31
0.0
  0
LINE
  5
66E
330
395
100
AcDbEntity
  8
SUNPOU
 62
     4
100
AcDbLine
 10
423.1571980000368
 20
347.343797901377
 30
0.0
 11
423.1571980000368
 21
204.943997901377
 31
0.0
  0
INSERT
  5
66F
330
395
100
AcDbEntity
  8
SUNPOU
 62
     4
100
AcDbBlockReference
  2
_OPEN
 10
423.1571980000368
 20
354.343797901377
 30
0.0
 41
7.0
 42
7.0
 43
7.0
 50
90.0
  0
INSERT
  5
670
330
395
100
AcDbEntity
  8
SUNPOU
 62
     4
100
AcDbBlockReference
  2
_OPEN
 10
423.1571980000368
 20
197.943997901377
 30
0.0
 41
7.0
 42
7.0
 43
7.0
 50
270.0
  0
MTEXT
  5
671
330
395
100
AcDbEntity
  8
SUNPOU
 62
     4
100
AcDbMText
 10
418.1571980000368
 20
276.1438979013771
 30
0.0
 40
6.0
 41
0.0
 71
     5
 72
     1
  1
\A1;156
 11
0.0000000000000001
 21
1.0
 31
0.0
1001
ACAD
1000
MTEXTBEGIN
1070
    73
1070
     1
1070
    44
1040
1.0
1070
    74
1070
     0
1000
MTEXTEND
  0
POINT
  5
672
330
395
100
AcDbEntity
  8
DEFPOINTS
 62
     0
100
AcDbPoint
 10
485.1608560839355
 20
354.343797901377
 30
0.0
  0
POINT
  5
673
330
395
100
AcDbEntity
  8
DEFPOINTS
 62
     0
100
AcDbPoint
 10
526.9705560839356
 20
197.943997901377
 30
0.0
  0
POINT
  5
674
330
395
100
AcDbEntity
  8
DEFPOINTS
 62
     0
100
AcDbPoint
 10
423.1571980000368
 20
197.943997901377
 30
0.0
  0
ENDBLK
  5
416
330
395
100
AcDbEntity
  8
0
100
AcDbBlockEnd
  0
BLOCK
  5
417
330
3A1
100
AcDbEntity
  8
0
100
AcDbBlockBegin
  2
*D5
 70
     1
 10
0.0
 20
0.0
 30
0.0
  3
*D5
  1

  0
LINE
  5
663
330
3A1
100
AcDbEntity
  8
SUNPOU
 62
     4
100
AcDbLine
 10
479.1608560839356
 20
354.343797901377
 30
0.0
 11
436.5678651171426
 21
354.343797901377
 31
0.0
  0
LINE
  5
664
330
3A1
100
AcDbEntity
  8
SUNPOU
 62
     4
100
AcDbLine
 10
505.1294560839355
 20
241.3443979013769
 30
0.0
 11
436.5678651171426
 21
241.344397901377
 31
0.0
  0
LINE
  5
665
330
3A1
100
AcDbEntity
  8
SUNPOU
 62
     4
100
AcDbLine
 10
439.5678651171426
 20
347.343797901377
 30
0.0
 11
439.5678651171426
 21
248.3443979013769
 31
0.0
  0
INSERT
  5
666
330
3A1
100
AcDbEntity
  8
SUNPOU
 62
     4
100
AcDbBlockReference
  2
_OPEN
 10
439.5678651171426
 20
354.343797901377
 30
0.0
 41
7.0
 42
7.0
 43
7.0
 50
90.0
  0
INSERT
  5
667
330
3A1
100
AcDbEntity
  8
SUNPOU
 62
     4
100
AcDbBlockReference
  2
_OPEN
 10
439.5678651171426
 20
241.344397901377
 30
0.0
 41
7.0
 42
7.0
 43
7.0
 50
270.0
  0
MTEXT
  5
668
330
3A1
100
AcDbEntity
  8
SUNPOU
 62
     4
100
AcDbMText
 10
434.5678651171425
 20
297.844097901377
 30
0.0
 40
6.0
 41
0.0
 71
     5
 72
     1
  1
\A1;113
 11
0.0000000000000001
 21
1.0
 31
0.0
1001
ACAD
1000
MTEXTBEGIN
1070
    73
1070
     1
1070
    44
1040
1.0
1070
    74
1070
     0
1000
MTEXTEND
  0
POINT
  5
669
330
3A1
100
AcDbEntity
  8
DEFPOINTS
 62
     0
100
AcDbPoint
 10
485.1608560839355
 20
354.343797901377
 30
0.0
  0
POINT
  5
66A
330
3A1
100
AcDbEntity
  8
DEFPOINTS
 62
     0
100
AcDbPoint
 10
511.1294560839355
 20
241.3443979013769
 30
0.0
  0
POINT
  5
66B
330
3A1
100
AcDbEntity
  8
DEFPOINTS
 62
     0
100
AcDbPoint
 10
439.5678651171426
 20
241.344397901377
 30
0.0
  0
ENDBLK
  5
421
330
3A1
100
AcDbEntity
  8
0
100
AcDbBlockEnd
  0
BLOCK
  5
422
330
3AD
100
AcDbEntity
  8
0
100
AcDbBlockBegin
  2
*D6
 70
     1
 10
0.0
 20
0.0
 30
0.0
  3
*D6
  1

  0
LINE
  5
65A
330
3AD
100
AcDbEntity
  8
SUNPOU
 62
     4
100
AcDbLine
 10
479.1608560839356
 20
354.343797901377
 30
0.0
 11
453.7123464727644
 21
354.343797901377
 31
0.0
  0
LINE
  5
65B
330
3AD
100
AcDbEntity
  8
SUNPOU
 62
     4
100
AcDbLine
 10
541.8792560839356
 20
289.343697901377
 30
0.0
 11
453.7123464727644
 21
289.343697901377
 31
0.0
  0
LINE
  5
65C
330
3AD
100
AcDbEntity
  8
SUNPOU
 62
     4
100
AcDbLine
 10
456.7123464727644
 20
347.343797901377
 30
0.0
 11
456.7123464727644
 21
296.343697901377
 31
0.0
  0
INSERT
  5
65D
330
3AD
100
AcDbEntity
  8
SUNPOU
 62
     4
100
AcDbBlockReference
  2
_OPEN
 10
456.7123464727644
 20
354.343797901377
 30
0.0
 41
7.0
 42
7.0
 43
7.0
 50
90.0
  0
INSERT
  5
65E
330
3AD
100
AcDbEntity
  8
SUNPOU
 62
     4
100
AcDbBlockReference
  2
_OPEN
 10
456.7123464727644
 20
289.343697901377
 30
0.0
 41
7.0
 42
7.0
 43
7.0
 50
270.0
  0
MTEXT
  5
65F
330
3AD
100
AcDbEntity
  8
SUNPOU
 62
     4
100
AcDbMText
 10
451.7123464727643
 20
321.8437479013771
 30
0.0
 40
6.0
 41
0.0
 71
     5
 72
     1
  1
\A1;65
 11
0.0000000000000001
 21
1.0
 31
0.0
1001
ACAD
1000
MTEXTBEGIN
1070
    73
1070
     1
1070
    44
1040
1.0
1070
    74
1070
     0
1000
MTEXTEND
  0
POINT
  5
660
330
3AD
100
AcDbEntity
  8
DEFPOINTS
 62
     0
100
AcDbPoint
 10
485.1608560839355
 20
354.343797901377
 30
0.0
  0
POINT
  5
661
330
3AD
100
AcDbEntity
  8
DEFPOINTS
 62
     0
100
AcDbPoint
 10
547.8792560839356
 20
289.343697901377
 30
0.0
  0
POINT
  5
662
330
3AD
100
AcDbEntity
  8
DEFPOINTS
 62
     0
100
AcDbPoint
 10
456.7123464727644
 20
289.343697901377
 30
0.0
  0
ENDBLK
  5
42C
330
3AD
100
AcDbEntity
  8
0
100
AcDbBlockEnd
  0
BLOCK
  5
42D
330
3B9
100
AcDbEntity
  8
0
100
AcDbBlockBegin
  2
*D7
 70
     1
 10
0.0
 20
0.0
 30
0.0
  3
*D7
  1

  0
LINE
  5
67E
330
3B9
100
AcDbEntity
  8
SUNPOU
  6
CONTINUOUS
 62
     4
100
AcDbLine
 10
591.1707040979631
 20
197.9441979012285
 30
0.0
 11
591.1707040979631
 21
141.0066905194964
 31
0.0
  0
LINE
  5
67F
330
3B9
100
AcDbEntity
  8
SUNPOU
  6
CONTINUOUS
 62
     4
100
AcDbLine
 10
521.1707963324529
 20
197.944297901147
 30
0.0
 11
521.1707963324529
 21
141.0066905194964
 31
0.0
  0
LINE
  5
680
330
3B9
100
AcDbEntity
  8
SUNPOU
  6
CONTINUOUS
 62
     4
100
AcDbLine
 10
584.1707040979631
 20
144.0066905194963
 30
0.0
 11
528.1707963324529
 21
144.0066905194963
 31
0.0
  0
INSERT
  5
681
330
3B9
100
AcDbEntity
  8
SUNPOU
  6
CONTINUOUS
 62
     4
100
AcDbBlockReference
  2
_OPEN
 10
591.1707040979631
 20
144.0066905194963
 30
0.0
 41
7.0
 42
7.0
 43
7.0
  0
INSERT
  5
682
330
3B9
100
AcDbEntity
  8
SUNPOU
  6
CONTINUOUS
 62
     4
100
AcDbBlockReference
  2
_OPEN
 10
521.1707963324529
 20
144.0066905194963
 30
0.0
 41
7.0
 42
7.0
 43
7.0
 50
180.0
  0
MTEXT
  5
683
330
3B9
100
AcDbEntity
  8
SUNPOU
  6
CONTINUOUS
 62
     4
100
AcDbMText
 10
556.170750215208
 20
149.0066905194963
 30
0.0
 40
6.0
 41
0.0
 71
     5
 72
     1
  1
\A1;φ70
1001
ACAD
1000
MTEXTBEGIN
1070
    73
1070
     1
1070
    44
1040
1.0
1070
    74
1070
     0
1000
MTEXTEND
  0
POINT
  5
684
330
3B9
100
AcDbEntity
  8
DEFPOINTS
  6
CONTINUOUS
 62
     0
100
AcDbPoint
 10
591.1707040979631
 20
203.9441979012285
 30
0.0
  0
POINT
  5
685
330
3B9
100
AcDbEntity
  8
DEFPOINTS
  6
CONTINUOUS
 62
     0
100
AcDbPoint
 10
521.1707963324529
 20
203.944297901147
 30
0.0
  0
POINT
  5
686
330
3B9
100
AcDbEntity
  8
DEFPOINTS
  6
CONTINUOUS
 62
     0
100
AcDbPoint
 10
521.1707963324529
 20
144.0066905194963
 30
0.0
  0
ENDBLK
  5
437
330
3B9
100
AcDbEntity
  8
0
100
AcDbBlockEnd
  0
BLOCK
  5
438
330
3C5
100
AcDbEntity
  8
0
100
AcDbBlockBegin
  2
*D8
 70
     1
 10
0.0
 20
0.0
 30
0.0
  3
*D8
  1

  0
LINE
  5
675
330
3C5
100
AcDbEntity
  8
SUNPOU
  6
CONTINUOUS
 62
     4
100
AcDbLine
 10
585.3708560839357
 20
191.943897901377
 30
0.0
 11
585.3708560839357
 21
159.2493009413939
 31
0.0
  0
LINE
  5
676
330
3C5
100
AcDbEntity
  8
SUNPOU
  6
CONTINUOUS
 62
     4
100
AcDbLine
 10
526.9705560839356
 20
191.943997901377
 30
0.0
 11
526.9705560839356
 21
159.2493009413939
 31
0.0
  0
LINE
  5
677
330
3C5
100
AcDbEntity
  8
SUNPOU
  6
CONTINUOUS
 62
     4
100
AcDbLine
 10
578.3708560839357
 20
162.2493009413939
 30
0.0
 11
533.9705560839356
 21
162.2493009413939
 31
0.0
  0
INSERT
  5
678
330
3C5
100
AcDbEntity
  8
SUNPOU
  6
CONTINUOUS
 62
     4
100
AcDbBlockReference
  2
_OPEN
 10
585.3708560839357
 20
162.2493009413939
 30
0.0
 41
7.0
 42
7.0
 43
7.0
  0
INSERT
  5
679
330
3C5
100
AcDbEntity
  8
SUNPOU
  6
CONTINUOUS
 62
     4
100
AcDbBlockReference
  2
_OPEN
 10
526.9705560839356
 20
162.2493009413939
 30
0.0
 41
7.0
 42
7.0
 43
7.0
 50
180.0
  0
MTEXT
  5
67A
330
3C5
100
AcDbEntity
  8
SUNPOU
  6
CONTINUOUS
 62
     4
100
AcDbMText
 10
556.1707060839356
 20
167.2493009413939
 30
0.0
 40
6.0
 41
0.0
 71
     5
 72
     1
  1
\A1;φ58
1001
ACAD
1000
MTEXTBEGIN
1070
    73
1070
     1
1070
    44
1040
1.0
1070
    74
1070
     0
1000
MTEXTEND
  0
POINT
  5
67B
330
3C5
100
AcDbEntity
  8
DEFPOINTS
  6
CONTINUOUS
 62
     0
100
AcDbPoint
 10
585.3708560839357
 20
197.9438979013769
 30
0.0
  0
POINT
  5
67C
330
3C5
100
AcDbEntity
  8
DEFPOINTS
  6
CONTINUOUS
 62
     0
100
AcDbPoint
 10
526.9705560839356
 20
197.943997901377
 30
0.0
  0
POINT
  5
67D
330
3C5
100
AcDbEntity
  8
DEFPOINTS
  6
CONTINUOUS
 62
     0
100
AcDbPoint
 10
526.9705560839356
 20
162.2493009413939
 30
0.0
  0
ENDBLK
  5
442
330
3C5
100
AcDbEntity
  8
0
100
AcDbBlockEnd
  0
BLOCK
  5
47C
330
3D1
100
AcDbEntity
  8
0
100
AcDbBlockBegin
  2
*D9
 70
     1
 10
0.0
 20
0.0
 30
0.0
  3
*D9
  1

  0
LINE
  5
687
330
3D1
100
AcDbEntity
  8
SUNPOU
 62
     4
100
AcDbLine
 10
598.6642994645713
 20
213.9442021687578
 30
0.0
 11
628.9173313186731
 21
213.9442021687578
 31
0.0
  0
LINE
  5
688
330
3D1
100
AcDbEntity
  8
SUNPOU
 62
     4
100
AcDbLine
 10
597.1707560839356
 20
203.944197901377
 30
0.0
 11
628.9173313186731
 21
203.944197901377
 31
0.0
  0
LINE
  5
689
330
3D1
100
AcDbEntity
  8
SUNPOU
 62
     4
100
AcDbLine
 10
625.9173313186732
 20
220.9442021687578
 30
0.0
 11
625.9173313186732
 21
227.9442021687578
 31
0.0
  0
LINE
  5
68A
330
3D1
100
AcDbEntity
  8
SUNPOU
 62
     4
100
AcDbLine
 10
625.9173313186732
 20
196.944197901377
 30
0.0
 11
625.9173313186732
 21
165.744197901377
 31
0.0
  0
LINE
  5
68B
330
3D1
100
AcDbEntity
  8
SUNPOU
 62
     4
100
AcDbLine
 10
625.9173313186732
 20
213.9442021687578
 30
0.0
 11
625.9173313186732
 21
203.944197901377
 31
0.0
  0
INSERT
  5
68C
330
3D1
100
AcDbEntity
  8
SUNPOU
 62
     4
100
AcDbBlockReference
  2
_OPEN
 10
625.9173313186732
 20
213.9442021687578
 30
0.0
 41
7.0
 42
7.0
 43
7.0
 50
270.0
  0
INSERT
  5
68D
330
3D1
100
AcDbEntity
  8
SUNPOU
 62
     4
100
AcDbBlockReference
  2
_OPEN
 10
625.9173313186732
 20
203.944197901377
 30
0.0
 41
7.0
 42
7.0
 43
7.0
 50
90.0
  0
MTEXT
  5
68E
330
3D1
100
AcDbEntity
  8
SUNPOU
 62
     4
100
AcDbMText
 10
620.9173313186731
 20
177.8441979013771
 30
0.0
 40
6.0
 41
0.0
 71
     5
 72
     1
  1
\A1;※b10
 11
0.0000000000000001
 21
1.0
 31
0.0
1001
ACAD
1000
MTEXTBEGIN
1070
    73
1070
     1
1070
    44
1040
1.0
1070
    74
1070
     0
1000
MTEXTEND
  0
POINT
  5
68F
330
3D1
100
AcDbEntity
  8
DEFPOINTS
 62
     0
100
AcDbPoint
 10
592.6642994645712
 20
213.9442021687578
 30
0.0
  0
POINT
  5
690
330
3D1
100
AcDbEntity
  8
DEFPOINTS
 62
     0
100
AcDbPoint
 10
591.1707560839357
 20
203.944197901377
 30
0.0
  0
POINT
  5
691
330
3D1
100
AcDbEntity
  8
DEFPOINTS
 62
     0
100
AcDbPoint
 10
625.9173313186732
 20
203.944197901377
 30
0.0
  0
ENDBLK
  5
488
330
3D1
100
AcDbEntity
  8
0
100
AcDbBlockEnd
  0
BLOCK
  5
471
330
3DF
100
AcDbEntity
  8
0
100
AcDbBlockBegin
  2
*D10
 70
     1
 10
0.0
 20
0.0
 30
0.0
  3
*D10
  1

  0
LINE
  5
692
330
3DF
100
AcDbEntity
  8
SUNPOU
 62
     4
100
AcDbLine
 10
627.5592560839356
 20
360.343697901377
 30
0.0
 11
627.5592560839356
 21
398.5959910269693
 31
0.0
  0
LINE
  5
693
330
3DF
100
AcDbEntity
  8
SUNPOU
 62
     4
100
AcDbLine
 10
485.1608560839355
 20
360.343797901377
 30
0.0
 11
485.1608560839355
 21
398.5959910269693
 31
0.0
  0
LINE
  5
694
330
3DF
100
AcDbEntity
  8
SUNPOU
 62
     4
100
AcDbLine
 10
620.5592560839356
 20
395.5959910269693
 30
0.0
 11
492.1608560839356
 21
395.5959910269693
 31
0.0
  0
INSERT
  5
695
330
3DF
100
AcDbEntity
  8
SUNPOU
 62
     4
100
AcDbBlockReference
  2
_OPEN
 10
627.5592560839356
 20
395.5959910269693
 30
0.0
 41
7.0
 42
7.0
 43
7.0
  0
INSERT
  5
696
330
3DF
100
AcDbEntity
  8
SUNPOU
 62
     4
100
AcDbBlockReference
  2
_OPEN
 10
485.1608560839355
 20
395.5959910269693
 30
0.0
 41
7.0
 42
7.0
 43
7.0
 50
180.0
  0
MTEXT
  5
697
330
3DF
100
AcDbEntity
  8
SUNPOU
 62
     4
100
AcDbMText
 10
556.3600560839356
 20
400.5959910269693
 30
0.0
 40
6.0
 41
0.0
 71
     5
 72
     1
  1
\A1;142
1001
ACAD
1000
MTEXTBEGIN
1070
    73
1070
     1
1070
    44
1040
1.0
1070
    74
1070
     0
1000
MTEXTEND
  0
POINT
  5
698
330
3DF
100
AcDbEntity
  8
DEFPOINTS
 62
     0
100
AcDbPoint
 10
627.5592560839356
 20
354.343697901377
 30
0.0
  0
POINT
  5
699
330
3DF
100
AcDbEntity
  8
DEFPOINTS
 62
     0
100
AcDbPoint
 10
485.1608560839355
 20
354.343797901377
 30
0.0
  0
POINT
  5
69A
330
3DF
100
AcDbEntity
  8
DEFPOINTS
 62
     0
100
AcDbPoint
 10
485.1608560839355
 20
395.5959910269693
 30
0.0
  0
ENDBLK
  5
47B
330
3DF
100
AcDbEntity
  8
0
100
AcDbBlockEnd
  0
ENDSEC
  0
SECTION
  2
ENTITIES
  0
LINE
  5
2A6
330
1A
100
AcDbEntity
  8
CENTER_L
  6
CENTER
 62
     1
 48
5.0
100
AcDbLine
 10
239.4219305007706
 20
186.082597901377
 30
0.0
 11
239.4220305007706
 21
365.026597901377
 31
0.0
  0
ARC
  5
2A7
330
1A
100
AcDbEntity
  8
SEIHIN
  6
CONTINUOUS
 62
     3
100
AcDbCircle
 10
1121.01743050077
 20
493.467097901377
 30
0.0
 40
999.9999369999999
100
AcDbArc
 50
189.760901
 51
194.514442
  0
ARC
  5
2A8
330
1A
100
AcDbEntity
  8
SEIHIN
  6
CONTINUOUS
 62
     3
100
AcDbCircle
 10
-642.1736694992294
 20
493.4680979013769
 30
0.0
 40
999.9999869999999
100
AcDbArc
 50
345.48534
 51
350.2388149999999
  0
DIMENSION
  5
2A9
330
1A
100
AcDbEntity
  8
SUNPOU
100
AcDbDimension
  2
*D1
 10
153.322379885374
 20
162.0623437648871
 30
0.0
 11
239.4217630383396
 21
167.0623437648871
 31
0.0
 70
    32
  3
STANDARD
100
AcDbAlignedDimension
 13
325.5211461913052
 23
241.3436887584657
 33
0.0
 14
153.322379885374
 24
241.3437887558937
 34
0.0
100
AcDbRotatedDimension
1001
ACAD
1000
DSTYLE
1002
{
1070
   140
1040
6.0
1070
    74
1070
     0
1070
   172
1070
     1
1070
    73
1070
     0
1070
   272
1070
     2
1070
    77
1070
     3
1070
   173
1070
     1
1070
   147
1040
2.0
1070
    42
1040
6.0
1070
    44
1040
3.0
1070
    43
1040
14.0
1070
   271
1070
     0
1070
   178
1070
     4
1070
   177
1070
     4
1070
   176
1070
     4
1070
   141
1040
150.0
1070
     7
1000
_OPEN
1070
     6
1000
_OPEN
1070
    41
1040
7.0
1002
}
  0
LINE
  5
2AA
330
1A
100
AcDbEntity
  8
SEIHIN
  6
CONTINUOUS
 62
     3
100
AcDbLine
 10
239.4221305007706
 20
203.944297901377
 30
0.0
 11
274.4220305007706
 21
203.943997901377
 31
0.0
  0
LINE
  5
2AB
330
1A
100
AcDbEntity
  8
SEIHIN
  6
CONTINUOUS
 62
     3
100
AcDbLine
 10
331.4594305007705
 20
265.345097901377
 30
0.0
 11
239.4220305007706
 21
265.345197901377
 31
0.0
  0
LINE
  5
2AC
330
1A
100
AcDbEntity
  8
SEIHIN
  6
CONTINUOUS
 62
     3
100
AcDbLine
 10
323.9750305007706
 20
241.343697901377
 30
0.0
 11
239.4223305007705
 21
241.344197901377
 31
0.0
  0
ARC
  5
2AD
330
1A
100
AcDbEntity
  8
SEIHIN
  6
CONTINUOUS
 62
     3
100
AcDbCircle
 10
302.4512305007705
 20
223.698397901377
 30
0.0
 40
99.999955
100
AcDbArc
 50
183.2903579999999
 51
191.393263
  0
LINE
  5
2AE
330
1A
100
AcDbEntity
  8
SEIHIN
  6
CONTINUOUS
 62
     3
100
AcDbLine
 10
210.2217305007706
 20
197.944097901377
 30
0.0
 11
239.4217305007706
 21
197.944197901377
 31
0.0
  0
LINE
  5
2AF
330
1A
100
AcDbEntity
  8
SEIHIN
  6
CONTINUOUS
 62
     3
100
AcDbLine
 10
239.4217305007706
 20
203.944297901377
 30
0.0
 11
204.4218305007705
 21
203.9440979013769
 31
0.0
  0
LINE
  5
2B0
330
1A
100
AcDbEntity
  8
SEIHIN
  6
CONTINUOUS
 62
     3
100
AcDbLine
 10
210.2219305007706
 20
197.944097901377
 30
0.0
 11
210.2220305007705
 21
203.944397901377
 31
0.0
  0
LINE
  5
2B1
330
1A
100
AcDbEntity
  8
SEIHIN
  6
CONTINUOUS
 62
     3
100
AcDbLine
 10
268.6221305007706
 20
197.944097901377
 30
0.0
 11
239.4221305007706
 21
197.944297901377
 31
0.0
  0
LINE
  5
2B2
330
1A
100
AcDbEntity
  8
SEIHIN
  6
CONTINUOUS
 62
     3
100
AcDbLine
 10
268.6219305007706
 20
197.944097901377
 30
0.0
 11
268.6219305007706
 21
203.944397901377
 31
0.0
  0
LINE
  5
2B3
330
1A
100
AcDbEntity
  8
SEIHIN
  6
CONTINUOUS
 62
     3
100
AcDbLine
 10
147.3845305007706
 20
265.345197901377
 30
0.0
 11
239.4219305007706
 21
265.345197901377
 31
0.0
  0
LINE
  5
2B4
330
1A
100
AcDbEntity
  8
SEIHIN
  6
CONTINUOUS
 62
     3
100
AcDbLine
 10
154.8689305007705
 20
241.343797901377
 30
0.0
 11
239.4216305007706
 21
241.3442979013769
 31
0.0
  0
ARC
  5
2B5
330
1A
100
AcDbEntity
  8
SEIHIN
  6
CONTINUOUS
 62
     3
100
AcDbCircle
 10
154.8689305007705
 20
243.343797901377
 30
0.0
 40
2.000008999999999
100
AcDbArc
 50
194.5128869999999
 51
270.0
  0
LINE
  5
2B6
330
1A
100
AcDbEntity
  8
SEIHIN
  6
CONTINUOUS
 62
     3
100
AcDbLine
 10
202.6161305007705
 20
217.958697901377
 30
0.0
 11
201.2716305007706
 21
241.344097901377
 31
0.0
  0
ARC
  5
2B7
330
1A
100
AcDbEntity
  8
SEIHIN
  6
CONTINUOUS
 62
     3
100
AcDbCircle
 10
176.3926305007706
 20
223.698497901377
 30
0.0
 40
100.000043
100
AcDbArc
 50
348.606568
 51
356.7094729999999
  0
LINE
  5
2B8
330
1A
100
AcDbEntity
  8
SEIHIN
  6
CONTINUOUS
 62
     3
100
AcDbLine
 10
276.2277305007706
 20
217.958697901377
 30
0.0
 11
277.5722305007706
 21
241.343997901377
 31
0.0
  0
ARC
  5
2B9
330
1A
100
AcDbEntity
  8
SEIHIN
  6
CONTINUOUS
 62
     3
100
AcDbCircle
 10
323.9750305007706
 20
243.343697901377
 30
0.0
 40
1.999961
100
AcDbArc
 50
269.997135
 51
345.486395
  0
DIMENSION
  5
2BA
330
1A
100
AcDbEntity
  8
SUNPOU
100
AcDbDimension
  2
*D2
 10
128.4220305007706
 20
395.5959910269693
 30
0.0
 11
239.4220305007706
 21
400.5959910269693
 31
0.0
 70
    32
  3
STANDARD
100
AcDbAlignedDimension
 13
350.4220305007706
 23
354.3441979013771
 33
0.0
 14
128.4220305007706
 24
354.3442979013771
 34
0.0
100
AcDbRotatedDimension
1001
ACAD
1000
DSTYLE
1002
{
1070
   140
1040
6.0
1070
    74
1070
     0
1070
   172
1070
     1
1070
    73
1070
     0
1070
   272
1070
     2
1070
    77
1070
     3
1070
   173
1070
     1
1070
   147
1040
2.0
1070
    42
1040
6.0
1070
    44
1040
3.0
1070
    43
1040
14.0
1070
   271
1070
     0
1070
   178
1070
     4
1070
   177
1070
     4
1070
   176
1070
     4
1070
   141
1040
150.0
1070
     7
1000
_OPEN
1070
     6
1000
_OPEN
1070
    41
1040
7.0
1002
}
  0
LINE
  5
2BB
330
1A
100
AcDbEntity
  8
SEIHIN
  6
CONTINUOUS
 62
     3
100
AcDbLine
 10
239.4210305007706
 20
351.8442979013771
 30
0.0
 11
128.4221305007706
 21
351.843697901377
 31
0.0
  0
LINE
  5
2BC
330
1A
100
AcDbEntity
  8
SEIHIN
  6
CONTINUOUS
 62
     3
100
AcDbLine
 10
239.4210305007706
 20
354.3441979013771
 30
0.0
 11
128.4221305007706
 21
354.343797901377
 31
0.0
  0
LINE
  5
2BD
330
1A
100
AcDbEntity
  8
SEIHIN
  6
CONTINUOUS
 62
     3
100
AcDbLine
 10
131.3950305007705
 20
324.343797901377
 30
0.0
 11
239.4207305007706
 21
324.344697901377
 31
0.0
  0
LINE
  5
2BE
330
1A
100
AcDbEntity
  8
SEIHIN
  6
CONTINUOUS
 62
     3
100
AcDbLine
 10
128.4220305007706
 20
354.3442979013771
 30
0.0
 11
128.4220305007706
 21
343.043797901377
 31
0.0
  0
LINE
  5
2BF
330
1A
100
AcDbEntity
  8
SEIHIN
  6
CONTINUOUS
 62
     3
100
AcDbLine
 10
129.4220305007706
 20
351.844397901377
 30
0.0
 11
129.8951305007705
 21
325.816497901377
 31
0.0
  0
ARC
  5
2C0
330
1A
100
AcDbEntity
  8
SEIHIN
  6
CONTINUOUS
 62
     3
100
AcDbCircle
 10
135.0009305007705
 20
323.843797901377
 30
0.0
 40
0.5000130000000001
100
AcDbArc
 50
9.752425
 51
90.0
  0
ARC
  5
2C1
330
1A
100
AcDbEntity
  8
SEIHIN
  6
CONTINUOUS
 62
     3
100
AcDbCircle
 10
131.3950305007705
 20
325.843797901377
 30
0.0
 40
1.500023999999999
100
AcDbArc
 50
181.042807
 51
270.0
  0
LINE
  5
2C2
330
1A
100
AcDbEntity
  8
SEIHIN
  6
CONTINUOUS
 62
     3
100
AcDbLine
 10
128.4220305007706
 20
343.043997901377
 30
0.0
 11
129.5820305007705
 21
343.043997901377
 31
0.0
  0
DIMENSION
  5
2C3
330
1A
100
AcDbEntity
  8
SUNPOU
100
AcDbDimension
  2
*D3
 10
199.4220245309949
 20
378.7913897150155
 30
0.0
 11
239.4220245309989
 21
383.7913897150155
 31
0.0
 70
    32
  1
※a<>
  3
STANDARD
100
AcDbAlignedDimension
 13
279.4220245310029
 23
354.3440456529689
 33
0.0
 14
199.4220245309949
 24
354.3440537593866
 34
0.0
100
AcDbRotatedDimension
1001
ACAD
1000
DSTYLE
1002
{
1070
   140
1040
6.0
1070
    74
1070
     0
1070
   172
1070
     1
1070
    73
1070
     0
1070
   272
1070
     2
1070
    77
1070
     3
1070
   173
1070
     1
1070
   147
1040
2.0
1070
    42
1040
6.0
1070
    44
1040
3.0
1070
    43
1040
14.0
1070
   271
1070
     0
1070
   178
1070
     4
1070
   177
1070
     4
1070
   176
1070
     4
1070
   141
1040
150.0
1070
     7
1000
_OPEN
1070
     6
1000
_OPEN
1070
    41
1040
7.0
1002
}
  0
LINE
  5
2C4
330
1A
100
AcDbEntity
  8
SEIHIN
  6
CONTINUOUS
 62
     3
100
AcDbLine
 10
239.4230305007706
 20
354.3442979013771
 30
0.0
 11
350.4219305007706
 21
354.343597901377
 31
0.0
  0
LINE
  5
2C5
330
1A
100
AcDbEntity
  8
SEIHIN
  6
CONTINUOUS
 62
     3
100
AcDbLine
 10
347.4491305007706
 20
324.3435979013771
 30
0.0
 11
239.4231305007705
 21
324.3444979013771
 31
0.0
  0
LINE
  5
2C6
330
1A
100
AcDbEntity
  8
SEIHIN
  6
CONTINUOUS
 62
     3
100
AcDbLine
 10
239.4230305007706
 20
351.8442979013771
 30
0.0
 11
350.4219305007706
 21
351.8435979013771
 31
0.0
  0
LINE
  5
2C7
330
1A
100
AcDbEntity
  8
SEIHIN
  6
CONTINUOUS
 62
     3
100
AcDbLine
 10
350.4220305007706
 20
354.3441979013771
 30
0.0
 11
350.4220305007706
 21
343.043797901377
 31
0.0
  0
LINE
  5
2C8
330
1A
100
AcDbEntity
  8
SEIHIN
  6
CONTINUOUS
 62
     3
100
AcDbLine
 10
349.4220305007706
 20
351.844197901377
 30
0.0
 11
348.9488305007706
 21
325.8163979013771
 31
0.0
  0
ARC
  5
2C9
330
1A
100
AcDbEntity
  8
SEIHIN
  6
CONTINUOUS
 62
     3
100
AcDbCircle
 10
347.4491305007706
 20
325.8435979013771
 30
0.0
 40
1.499972999999999
100
AcDbArc
 50
270.0
 51
358.960943
  0
ARC
  5
2CA
330
1A
100
AcDbEntity
  8
SEIHIN
  6
CONTINUOUS
 62
     3
100
AcDbCircle
 10
343.8429305007705
 20
323.8436979013771
 30
0.0
 40
0.5000130000000001
100
AcDbArc
 50
90.0
 51
170.247575
  0
LINE
  5
2CB
330
1A
100
AcDbEntity
  8
SEIHIN
  6
CONTINUOUS
 62
     3
100
AcDbLine
 10
350.4220305007706
 20
343.0438979013771
 30
0.0
 11
349.2620305007705
 21
343.0438979013771
 31
0.0
  0
DIMENSION
  5
2CC
330
1A
100
AcDbEntity
  8
SUNPOU
100
AcDbDimension
  2
*D4
 10
423.1571980000368
 20
197.943997901377
 30
0.0
 11
418.1571980000368
 21
276.1438979013771
 31
0.0
 70
    32
  3
STANDARD
100
AcDbAlignedDimension
 13
485.1608560839355
 23
354.343797901377
 33
0.0
 14
526.9705560839356
 24
197.943997901377
 34
0.0
 50
90.0
100
AcDbRotatedDimension
1001
ACAD
1000
DSTYLE
1002
{
1070
   140
1040
6.0
1070
    74
1070
     0
1070
   172
1070
     1
1070
    73
1070
     0
1070
   272
1070
     2
1070
    77
1070
     3
1070
   173
1070
     1
1070
   147
1040
2.0
1070
    42
1040
6.0
1070
    44
1040
3.0
1070
    43
1040
14.0
1070
   271
1070
     0
1070
   178
1070
     4
1070
   177
1070
     4
1070
   176
1070
     4
1070
   141
1040
150.0
1070
     7
1000
_OPEN
1070
     6
1000
_OPEN
1070
    41
1040
7.0
1002
}
  0
DIMENSION
  5
2CD
330
1A
100
AcDbEntity
  8
SUNPOU
100
AcDbDimension
  2
*D5
 10
439.5678651171426
 20
241.344397901377
 30
0.0
 11
434.5678651171425
 21
297.844097901377
 31
0.0
 70
    32
  3
STANDARD
100
AcDbAlignedDimension
 13
485.1608560839355
 23
354.343797901377
 33
0.0
 14
511.1294560839355
 24
241.3443979013769
 34
0.0
 50
90.0
100
AcDbRotatedDimension
1001
ACAD
1000
DSTYLE
1002
{
1070
   140
1040
6.0
1070
    74
1070
     0
1070
   172
1070
     1
1070
    73
1070
     0
1070
   272
1070
     2
1070
    77
1070
     3
1070
   173
1070
     1
1070
   147
1040
2.0
1070
    42
1040
6.0
1070
    44
1040
3.0
1070
    43
1040
14.0
1070
   271
1070
     0
1070
   178
1070
     4
1070
   177
1070
     4
1070
   176
1070
     4
1070
   141
1040
150.0
1070
     7
1000
_OPEN
1070
     6
1000
_OPEN
1070
    41
1040
7.0
1002
}
  0
DIMENSION
  5
2CE
330
1A
100
AcDbEntity
  8
SUNPOU
100
AcDbDimension
  2
*D6
 10
456.7123464727644
 20
289.343697901377
 30
0.0
 11
451.7123464727643
 21
321.8437479013771
 31
0.0
 70
    32
  3
STANDARD
100
AcDbAlignedDimension
 13
485.1608560839355
 23
354.343797901377
 33
0.0
 14
547.8792560839356
 24
289.343697901377
 34
0.0
 50
90.0
100
AcDbRotatedDimension
1001
ACAD
1000
DSTYLE
1002
{
1070
   140
1040
6.0
1070
    74
1070
     0
1070
   172
1070
     1
1070
    73
1070
     0
1070
   272
1070
     2
1070
    77
1070
     3
1070
   173
1070
     1
1070
   147
1040
2.0
1070
    42
1040
6.0
1070
    44
1040
3.0
1070
    43
1040
14.0
1070
   271
1070
     0
1070
   178
1070
     4
1070
   177
1070
     4
1070
   176
1070
     4
1070
   141
1040
150.0
1070
     7
1000
_OPEN
1070
     6
1000
_OPEN
1070
    41
1040
7.0
1002
}
  0
ARC
  5
2CF
330
1A
100
AcDbEntity
  8
SEIHIN
  6
CONTINUOUS
 62
     3
100
AcDbCircle
 10
603.7167560839357
 20
298.855297901377
 30
0.0
 40
0.9999969999999999
100
AcDbArc
 50
309.2898099999999
 51
354.289977
  0
ARC
  5
2D0
330
1A
100
AcDbEntity
  8
NOKITOI
  6
PHANTOM
 62
     8
 48
5.0
100
AcDbCircle
 10
603.4549524092299
 20
298.8552550643163
 30
0.0
 40
0.9999908507640039
100
AcDbArc
 50
309.2887092230696
 51
354.2862329477531
  0
LINE
  5
2D1
330
1A
100
AcDbEntity
  8
NOKITOI
  6
PHANTOM
 62
     8
 48
5.0
100
AcDbLine
 10
603.1038749820991
 20
298.826397135989
 30
0.0
 11
593.1185749820988
 21
290.6565971359888
 31
0.0
  0
LINE
  5
2D2
330
1A
100
AcDbEntity
  8
SEIHIN
  6
CONTINUOUS
 62
     3
100
AcDbLine
 10
495.1188560839354
 20
294.304197901377
 30
0.0
 11
493.4551560839357
 21
311.199297901377
 31
0.0
  0
ARC
  5
2D3
330
1A
100
AcDbEntity
  8
NOKITOI
  6
PHANTOM
 62
     8
 48
5.0
100
AcDbCircle
 10
548.2223810640666
 20
332.3436915113326
 30
0.0
 40
41.79999437547816
100
AcDbArc
 50
184.474295212525
 51
269.9998545921086
  0
LINE
  5
2D4
330
1A
100
AcDbEntity
  8
SEIHIN
  6
CONTINUOUS
 62
     3
100
AcDbLine
 10
614.2791560839355
 20
265.427397901377
 30
0.0
 11
620.1257560839356
 21
323.893497901377
 31
0.0
  0
ARC
  5
2D5
330
1A
100
AcDbEntity
  8
SEIHIN
  6
CONTINUOUS
 62
     3
100
AcDbCircle
 10
547.8792560839356
 20
332.343797901377
 30
0.0
 40
43.00003199999999
100
AcDbArc
 50
187.8374189999999
 51
269.9998669999999
  0
ARC
  5
2D6
330
1A
100
AcDbEntity
  8
NOKITOI
  6
PHANTOM
 62
     8
 48
5.0
100
AcDbCircle
 10
548.2223587556413
 20
332.343711612359
 30
0.0
 40
43.00001447645168
100
AcDbArc
 50
186.524910707118
 51
269.999888375144
  0
DIMENSION
  5
2D9
330
1A
100
AcDbEntity
  8
SUNPOU
  6
CONTINUOUS
100
AcDbDimension
  2
*D7
 10
521.1707963324529
 20
144.0066905194963
 30
0.0
 11
556.170750215208
 21
149.0066905194963
 31
0.0
 70
    32
  1
φ<>
  3
STANDARD
100
AcDbAlignedDimension
 13
591.1707040979631
 23
203.9441979012285
 33
0.0
 14
521.1707963324529
 24
203.944297901147
 34
0.0
100
AcDbRotatedDimension
1001
ACAD
1000
DSTYLE
1002
{
1070
   140
1040
6.0
1070
    74
1070
     0
1070
   172
1070
     1
1070
    73
1070
     0
1070
   272
1070
     2
1070
    77
1070
     3
1070
   173
1070
     1
1070
   147
1040
2.0
1070
    42
1040
6.0
1070
    44
1040
3.0
1070
    43
1040
14.0
1070
   271
1070
     0
1070
   178
1070
     4
1070
   177
1070
     4
1070
   176
1070
     4
1070
   141
1040
150.0
1070
     7
1000
_OPEN
1070
     6
1000
_OPEN
1070
    41
1040
7.0
1002
}
  0
DIMENSION
  5
2DA
330
1A
100
AcDbEntity
  8
SUNPOU
  6
CONTINUOUS
100
AcDbDimension
  2
*D8
 10
526.9705560839356
 20
162.2493009413939
 30
0.0
 11
556.1707060839356
 21
167.2493009413939
 31
0.0
 70
    32
  1
φ<>
  3
STANDARD
100
AcDbAlignedDimension
 13
585.3708560839357
 23
197.9438979013769
 33
0.0
 14
526.9705560839356
 24
197.943997901377
 34
0.0
100
AcDbRotatedDimension
1001
ACAD
1000
DSTYLE
1002
{
1070
   140
1040
6.0
1070
    74
1070
     0
1070
   172
1070
     1
1070
    73
1070
     0
1070
   272
1070
     2
1070
    77
1070
     3
1070
   173
1070
     1
1070
   147
1040
2.0
1070
    42
1040
6.0
1070
    44
1040
3.0
1070
    43
1040
14.0
1070
   271
1070
     0
1070
   178
1070
     4
1070
   177
1070
     4
1070
   176
1070
     4
1070
   141
1040
150.0
1070
     7
1000
_OPEN
1070
     6
1000
_OPEN
1070
    41
1040
7.0
1002
}
  0
LINE
  5
2DB
330
1A
100
AcDbEntity
  8
SEIHIN
  6
CONTINUOUS
 62
     3
100
AcDbLine
 10
526.9705560839356
 20
197.943997901377
 30
0.0
 11
556.1705560839357
 21
197.944097901377
 31
0.0
  0
LINE
  5
2DC
330
1A
100
AcDbEntity
  8
SEIHIN
  6
CONTINUOUS
 62
     3
100
AcDbLine
 10
556.1701560839355
 20
203.9440979013769
 30
0.0
 11
521.1707560839356
 21
203.944297901377
 31
0.0
  0
LINE
  5
2DD
330
1A
100
AcDbEntity
  8
SEIHIN
  6
CONTINUOUS
 62
     3
100
AcDbLine
 10
511.1294560839355
 20
241.3443979013769
 30
0.0
 11
556.1703560839355
 21
241.344097901377
 31
0.0
  0
ARC
  5
2DE
330
1A
100
AcDbEntity
  8
SEIHIN
  6
CONTINUOUS
 62
     3
100
AcDbCircle
 10
619.2004560839357
 20
223.697297901377
 30
0.0
 40
99.999976
100
AcDbArc
 50
183.2896119999999
 51
191.392443
  0
LINE
  5
2DF
330
1A
100
AcDbEntity
  8
SEIHIN
  6
CONTINUOUS
 62
     3
100
AcDbLine
 10
526.9707560839356
 20
197.943997901377
 30
0.0
 11
526.9708560839355
 21
203.944197901377
 31
0.0
  0
LINE
  5
2E0
330
1A
100
AcDbEntity
  8
SEIHIN
  6
CONTINUOUS
 62
     3
100
AcDbLine
 10
508.6749560839355
 20
265.146897901377
 30
0.0
 11
509.1299560839356
 21
243.302797901377
 31
0.0
  0
LINE
  5
2E1
330
1A
100
AcDbEntity
  8
SEIHIN
  6
CONTINUOUS
 62
     3
100
AcDbLine
 10
519.3652560839357
 20
217.958797901377
 30
0.0
 11
518.0210560839356
 21
241.3443979013769
 31
0.0
  0
ARC
  5
2E2
330
1A
100
AcDbEntity
  8
SEIHIN
  6
CONTINUOUS
 62
     3
100
AcDbCircle
 10
511.1294560839355
 20
243.3443979013769
 30
0.0
 40
1.999965999999999
100
AcDbArc
 50
181.191878
 51
270.0
  0
ARC
  5
2E3
330
1A
100
AcDbEntity
  8
SEIHIN
  6
CONTINUOUS
 62
     3
100
AcDbCircle
 10
542.8878560839355
 20
299.007897901377
 30
0.0
 40
47.99999699999999
100
AcDbArc
 50
185.6236509999999
 51
224.2969759999999
  0
LINE
  5
2E4
330
1A
100
AcDbEntity
  8
SEIHIN
  6
CONTINUOUS
 62
     3
100
AcDbLine
 10
508.6707560839356
 20
265.344497901377
 30
0.0
 11
515.6707560839357
 21
265.344397901377
 31
0.0
  0
ARC
  5
2E5
330
1A
100
AcDbEntity
  8
SEIHIN
  6
CONTINUOUS
 62
     3
100
AcDbCircle
 10
508.1749560839354
 20
265.136497901377
 30
0.0
 40
0.5000220000000001
100
AcDbArc
 50
1.203275
 51
44.295081
  0
DIMENSION
  5
2E6
330
1A
100
AcDbEntity
  8
SUNPOU
100
AcDbDimension
  2
*D9
 10
625.9173313186732
 20
203.944197901377
 30
0.0
 11
620.9173313186731
 21
177.8441979013771
 31
0.0
 70
    32
  1
※b<>
  3
STANDARD
100
AcDbAlignedDimension
 13
592.6642994645712
 23
213.9442021687578
 33
0.0
 14
591.1707560839357
 24
203.944197901377
 34
0.0
 50
90.0
100
AcDbRotatedDimension
1001
ACAD
1000
DSTYLE
1002
{
1070
   140
1040
6.0
1070
    74
1070
     0
1070
   172
1070
     1
1070
    73
1070
     0
1070
   272
1070
     2
1070
    77
1070
     3
1070
   173
1070
     1
1070
   147
1040
2.0
1070
    42
1040
6.0
1070
    44
1040
3.0
1070
    43
1040
14.0
1070
   271
1070
     0
1070
   178
1070
     4
1070
   177
1070
     4
1070
   176
1070
     4
1070
   141
1040
150.0
1070
     7
1000
_OPEN
1070
     6
1000
_OPEN
1070
    41
1040
7.0
1002
}
  0
ARC
  5
2E7
330
1A
100
AcDbEntity
  8
SEIHIN
  6
CONTINUOUS
 62
     3
100
AcDbCircle
 10
493.1410560839355
 20
223.697397901377
 30
0.0
 40
100.0000039999999
100
AcDbArc
 50
348.607445
 51
356.710217
  0
LINE
  5
2E8
330
1A
100
AcDbEntity
  8
CENTER_L
  6
CENTER
 62
     1
 48
5.0
100
AcDbLine
 10
556.1706560839357
 20
188.794197901377
 30
0.0
 11
556.1708170015067
 21
296.343697901377
 31
0.0
  0
LINE
  5
2E9
330
1A
100
AcDbEntity
  8
SEIHIN
  6
CONTINUOUS
 62
     3
100
AcDbLine
 10
556.1713560839355
 20
203.9440979013769
 30
0.0
 11
591.1707560839357
 21
203.944197901377
 31
0.0
  0
LINE
  5
2EA
330
1A
100
AcDbEntity
  8
SEIHIN
  6
CONTINUOUS
 62
     3
100
AcDbLine
 10
585.3708560839357
 20
197.9438979013769
 30
0.0
 11
556.1708560839356
 21
197.944097901377
 31
0.0
  0
LINE
  5
2EB
330
1A
100
AcDbEntity
  8
SEIHIN
  6
CONTINUOUS
 62
     3
100
AcDbLine
 10
585.3706560839357
 20
197.9438979013769
 30
0.0
 11
585.3706560839357
 21
203.9440979013769
 31
0.0
  0
LINE
  5
2EC
330
1A
100
AcDbEntity
  8
SEIHIN
  6
CONTINUOUS
 62
     3
100
AcDbLine
 10
593.9469560839357
 20
289.569797901377
 30
0.0
 11
604.3499560839356
 21
298.081397901377
 31
0.0
  0
LINE
  5
2ED
330
1A
100
AcDbEntity
  8
NOKITOI
  6
PHANTOM
 62
     8
 48
5.0
100
AcDbLine
 10
604.0881749820987
 20
298.0812971359891
 30
0.0
 11
593.6850749820987
 21
289.5695971359891
 31
0.0
  0
LINE
  5
2EE
330
1A
100
AcDbEntity
  8
SEIHIN
  6
CONTINUOUS
 62
     3
100
AcDbLine
 10
601.8922560839355
 20
241.343797901377
 30
0.0
 11
556.1711560839355
 21
241.344097901377
 31
0.0
  0
LINE
  5
2EF
330
1A
100
AcDbEntity
  8
SEIHIN
  6
CONTINUOUS
 62
     3
100
AcDbLine
 10
592.9762560839356
 20
217.958797901377
 30
0.0
 11
594.3205560839356
 21
241.3442979013769
 31
0.0
  0
LINE
  5
2F0
330
1A
100
AcDbEntity
  8
SEIHIN
  6
CONTINUOUS
 62
     3
100
AcDbLine
 10
547.8792560839356
 20
289.343697901377
 30
0.0
 11
593.3136560839357
 21
289.343697901377
 31
0.0
  0
LINE
  5
2F1
330
1A
100
AcDbEntity
  8
NOKITOI
  6
PHANTOM
 62
     8
 48
5.0
100
AcDbLine
 10
548.2223749820986
 20
290.543697135989
 30
0.0
 11
592.8019749820987
 21
290.543597135989
 31
0.0
  0
LINE
  5
2F2
330
1A
100
AcDbEntity
  8
NOKITOI
  6
PHANTOM
 62
     8
 48
5.0
100
AcDbLine
 10
593.0517749820987
 20
289.343597135989
 30
0.0
 11
548.2223749820986
 21
289.3436971359889
 31
0.0
  0
LINE
  5
2F3
330
1A
100
AcDbEntity
  8
NOKITOI
  6
PHANTOM
 62
     8
 48
5.0
100
AcDbLine
 10
589.0517749820987
 20
289.343597135989
 30
0.0
 11
568.893874982099
 21
289.343597135989
 31
0.0
  0
LINE
  5
2F4
330
1A
100
AcDbEntity
  8
NOKITOI
  6
PHANTOM
 62
     8
 48
5.0
100
AcDbLine
 10
588.8019749820987
 20
290.543597135989
 30
0.0
 11
568.893874982099
 21
290.543597135989
 31
0.0
  0
ARC
  5
2F5
330
1A
100
AcDbEntity
  8
SEIHIN
  6
CONTINUOUS
 62
     3
100
AcDbCircle
 10
593.3136560839357
 20
290.343697901377
 30
0.0
 40
0.9999979999999998
100
AcDbArc
 50
270.0
 51
309.2942439999999
  0
ARC
  5
2F6
330
1A
100
AcDbEntity
  8
NOKITOI
  6
PHANTOM
 62
     8
 48
5.0
100
AcDbCircle
 10
593.0517680495213
 20
290.3435946609828
 30
0.0
 40
0.9999975250179316
100
AcDbArc
 50
270.0003972084043
 51
309.2946416752298
  0
ARC
  5
2F7
330
1A
100
AcDbEntity
  8
NOKITOI
  6
PHANTOM
 62
     8
 48
5.0
100
AcDbCircle
 10
592.8019813698474
 20
291.0435994159785
 30
0.0
 40
0.5000022800304047
100
AcDbArc
 50
269.9992680212786
 51
309.2854498596058
  0
LINE
  5
2F8
330
1A
100
AcDbEntity
  8
SEIHIN
  6
CONTINUOUS
 62
     3
100
AcDbLine
 10
603.7075560839355
 20
242.5042979013769
 30
0.0
 11
614.2354560839355
 21
265.2672979013769
 31
0.0
  0
ARC
  5
2F9
330
1A
100
AcDbEntity
  8
SEIHIN
  6
CONTINUOUS
 62
     3
100
AcDbCircle
 10
601.8922560839355
 20
243.343797901377
 30
0.0
 40
2.000008999999999
100
AcDbArc
 50
270.0
 51
335.181441
  0
LINE
  5
2FA
330
1A
100
AcDbEntity
  8
SEIHIN
  6
CONTINUOUS
 62
     3
100
AcDbLine
 10
614.2708560839355
 20
265.343697901377
 30
0.0
 11
609.8636560839357
 21
265.343697901377
 31
0.0
  0
ARC
  5
2FB
330
1A
100
AcDbEntity
  8
SEIHIN
  6
CONTINUOUS
 62
     3
100
AcDbCircle
 10
613.7816560839355
 20
265.477197901377
 30
0.0
 40
0.4999890000000001
100
AcDbArc
 50
335.1776389999999
 51
354.283706
  0
MTEXT
  5
2FC
330
1A
100
AcDbEntity
  8
SUNPOU
  6
CONTINUOUS
 62
     4
100
AcDbMText
 10
522.0729159134309
 20
375.0051932718097
 30
0.0
 40
6.0
 41
0.0
 71
     7
 72
     5
  1
4-φ2.0
1001
ACAD
1000
MTEXTBEGIN
1070
    73
1070
     1
1070
    44
1040
1.0
1070
    74
1070
     0
1000
MTEXTEND
1000
MTEXTBEGIN
1070
    73
1070
     1
1070
    44
1040
1.0
1070
    74
1070
     0
1000
MTEXTEND
  0
LEADER
  5
2FD
330
1A
100
AcDbEntity
  8
SUNPOU
  6
CONTINUOUS
 62
     4
100
AcDbLeader
  3
STANDARD
 73
     0
 74
     0
 40
6.0
 41
30.19999999999999
 76
     3
 10
500.4503218766565
 20
349.2210499634624
 30
0.0
 10
518.8123382919573
 20
373.0051932718096
 30
0.0
 10
520.072915913431
 20
373.0051932718096
 30
0.0
1001
ACAD
1000
DSTYLE
1002
{
1070
     6
1000
OPEN
1070
    41
1040
7.0
1070
    42
1040
6.0
1070
    43
1040
14.0
1070
    44
1040
3.0
1070
    73
1070
     0
1070
    74
1070
     0
1070
    77
1070
     3
1070
   140
1040
6.0
1070
   141
1040
150.0
1070
   147
1040
2.0
1070
   172
1070
     1
1070
   173
1070
     1
1070
   176
1070
     4
1070
   177
1070
     4
1070
   178
1070
     4
1070
   271
1070
     0
1070
   272
1070
     2
1070
   341
1005
6D
1070
   343
1005
6D
1070
   344
1005
6D
1002
}
  0
DIMENSION
  5
2FE
330
1A
100
AcDbEntity
  8
SUNPOU
100
AcDbDimension
  2
*D10
 10
485.1608560839355
 20
395.5959910269693
 30
0.0
 11
556.3600560839356
 21
400.5959910269693
 31
0.0
 70
    32
  3
STANDARD
100
AcDbAlignedDimension
 13
627.5592560839356
 23
354.343697901377
 33
0.0
 14
485.1608560839355
 24
354.343797901377
 34
0.0
100
AcDbRotatedDimension
1001
ACAD
1000
DSTYLE
1002
{
1070
   140
1040
6.0
1070
    74
1070
     0
1070
   172
1070
     1
1070
    73
1070
     0
1070
   272
1070
     2
1070
    77
1070
     3
1070
   173
1070
     1
1070
   147
1040
2.0
1070
    42
1040
6.0
1070
    44
1040
3.0
1070
    43
1040
14.0
1070
   271
1070
     0
1070
   178
1070
     4
1070
   177
1070
     4
1070
   176
1070
     4
1070
   141
1040
150.0
1070
     7
1000
_OPEN
1070
     6
1000
_OPEN
1070
    41
1040
7.0
1002
}
  0
LINE
  5
2FF
330
1A
100
AcDbEntity
  8
SEIHIN
  6
CONTINUOUS
 62
     3
100
AcDbLine
 10
503.2208560839356
 20
350.843797901377
 30
0.0
 11
503.2208560839356
 21
343.043797901377
 31
0.0
  0
ARC
  5
300
330
1A
100
AcDbEntity
  8
SEIHIN
  6
CONTINUOUS
 62
     3
100
AcDbCircle
 10
498.2281560839355
 20
343.043797901377
 30
0.0
 40
1.999999
100
AcDbArc
 50
90.0
 51
181.6188229999999
  0
ARC
  5
301
330
1A
100
AcDbEntity
  8
SEIHIN
  6
CONTINUOUS
 62
     3
100
AcDbCircle
 10
500.4083560839355
 20
348.343797901377
 30
0.0
 40
6.000026999999999
100
AcDbArc
 50
297.9518299999999
 51
89.99904499999999
  0
LINE
  5
302
330
1A
100
AcDbEntity
  8
SEIHIN
  6
CONTINUOUS
 62
     3
100
AcDbLine
 10
486.1609560839355
 20
351.843797901377
 30
0.0
 11
486.6490560839356
 21
324.997197901377
 31
0.0
  0
ARC
  5
303
330
1A
100
AcDbEntity
  8
NOKITOI
  6
PHANTOM
 62
     8
 48
5.0
100
AcDbCircle
 10
498.4722877329486
 20
342.3437102910753
 30
0.0
 40
1.999986844954076
100
AcDbArc
 50
90.00036528735526
 51
181.7883072882699
  0
ARC
  5
304
330
1A
100
AcDbEntity
  8
NOKITOI
  6
PHANTOM
 62
     8
 48
5.0
100
AcDbCircle
 10
498.4722794768968
 20
342.3437017735158
 30
0.0
 40
0.7999953624857498
100
AcDbArc
 50
90.00032191805336
 51
181.7911273464199
  0
ARC
  5
305
330
1A
100
AcDbEntity
  8
NOKITOI
  6
PHANTOM
 62
     8
 48
5.0
100
AcDbCircle
 10
500.0103885542371
 20
331.5436839809025
 30
0.0
 40
1.999986844959662
100
AcDbArc
 50
181.7875531852363
 51
269.9996111843223
  0
ARC
  5
306
330
1A
100
AcDbEntity
  8
NOKITOI
  6
PHANTOM
 62
     8
 48
5.0
100
AcDbCircle
 10
501.9239128635454
 20
334.3437409185143
 30
0.0
 40
3.999989731271038
100
AcDbArc
 50
96.47731142013144
 51
181.7899836067308
  0
ARC
  5
307
330
1A
100
AcDbEntity
  8
NOKITOI
  6
PHANTOM
 62
     8
 48
5.0
100
AcDbCircle
 10
501.9239951947679
 20
334.343755864369
 30
0.0
 40
5.2000412730095
100
AcDbArc
 50
90.00132454306161
 51
142.0757990790561
  0
LINE
  5
308
330
1A
100
AcDbEntity
  8
SEIHIN
  6
CONTINUOUS
 62
     3
100
AcDbLine
 10
505.6299560839356
 20
324.343797901377
 30
0.0
 11
487.5040560839356
 21
324.343797901377
 31
0.0
  0
LINE
  5
309
330
1A
100
AcDbEntity
  8
SEIHIN
  6
CONTINUOUS
 62
     3
100
AcDbLine
 10
498.1290560839356
 20
327.343797901377
 30
0.0
 11
504.2902560839356
 21
327.343797901377
 31
0.0
  0
ARC
  5
30A
330
1A
100
AcDbEntity
  8
NOKITOI
  6
PHANTOM
 62
     8
 48
5.0
100
AcDbCircle
 10
498.3627109412496
 20
329.8436622818457
 30
0.0
 40
1.499965146287778
100
AcDbArc
 50
181.7866280217767
 51
269.9986264296976
  0
ARC
  5
30B
330
1A
100
AcDbEntity
  8
SEIHIN
  6
CONTINUOUS
 62
     3
100
AcDbCircle
 10
473.5514560839355
 20
309.2393979013771
 30
0.0
 40
19.999987
100
AcDbArc
 50
5.623736
 51
47.238777
  0
LINE
  5
30C
330
1A
100
AcDbEntity
  8
NOKITOI
  6
PHANTOM
 62
     8
 48
5.0
100
AcDbLine
 10
498.0113749820985
 20
331.481297135989
 30
0.0
 11
497.9258749820988
 21
334.2187971359889
 31
0.0
  0
LINE
  5
30D
330
1A
100
AcDbEntity
  8
SEIHIN
  6
CONTINUOUS
 62
     3
100
AcDbLine
 10
496.6296560839355
 20
328.801497901377
 30
0.0
 11
496.2289560839356
 21
342.987297901377
 31
0.0
  0
LINE
  5
30E
330
1A
100
AcDbEntity
  8
NOKITOI
  6
PHANTOM
 62
     8
 48
5.0
100
AcDbLine
 10
496.4732749820987
 20
342.2811971359889
 30
0.0
 11
496.8634749820985
 21
329.7968971359888
 31
0.0
  0
ARC
  5
30F
330
1A
100
AcDbEntity
  8
SEIHIN
  6
CONTINUOUS
 62
     3
100
AcDbCircle
 10
488.1487560839355
 20
325.024497901377
 30
0.0
 40
1.499973999999999
100
AcDbArc
 50
181.042877
 51
227.239657
  0
ARC
  5
310
330
1A
100
AcDbEntity
  8
SEIHIN
  6
CONTINUOUS
 62
     3
100
AcDbCircle
 10
498.1290560839356
 20
328.843797901377
 30
0.0
 40
1.499997999999999
100
AcDbArc
 50
181.615959
 51
270.0
  0
LINE
  5
311
330
1A
100
AcDbEntity
  8
NOKITOI
  6
PHANTOM
 62
     8
 48
5.0
100
AcDbLine
 10
497.6726749820991
 20
342.3186971359888
 30
0.0
 11
497.8220749820984
 21
337.5397971359891
 31
0.0
  0
ARC
  5
312
330
1A
100
AcDbEntity
  8
NOKITOI
  6
PHANTOM
 62
     8
 48
5.0
100
AcDbCircle
 10
506.051287551807
 20
329.0436855112592
 30
0.0
 40
0.5000116248877111
100
AcDbArc
 50
4.474846808342897
 51
90.00144034898337
  0
LINE
  5
313
330
1A
100
AcDbEntity
  8
NOKITOI
  6
PHANTOM
 62
     8
 48
5.0
100
AcDbLine
 10
506.0512749820991
 20
329.543697135989
 30
0.0
 11
500.0103749820986
 21
329.543697135989
 31
0.0
  0
LINE
  5
314
330
1A
100
AcDbEntity
  8
NOKITOI
  6
PHANTOM
 62
     8
 48
5.0
100
AcDbLine
 10
498.3626749820987
 20
328.3436971359889
 30
0.0
 11
504.5073749820985
 21
328.3436971359889
 31
0.0
  0
ARC
  5
315
330
1A
100
AcDbEntity
  8
SEIHIN
  6
CONTINUOUS
 62
     3
100
AcDbCircle
 10
504.2902560839356
 20
326.343797901377
 30
0.0
 40
0.9999729999999999
100
AcDbArc
 50
7.840003999999998
 51
90.0
  0
ARC
  5
316
330
1A
100
AcDbEntity
  8
NOKITOI
  6
PHANTOM
 62
     8
 48
5.0
100
AcDbCircle
 10
504.5073665579361
 20
327.3437046510454
 30
0.0
 40
0.9999924849789756
100
AcDbArc
 50
6.528264606674428
 51
89.99951732740891
  0
LINE
  5
317
330
1A
100
AcDbEntity
  8
NOKITOI
  6
PHANTOM
 62
     8
 48
5.0
100
AcDbLine
 10
502.0283749820987
 20
342.4417971359889
 30
0.0
 11
502.2891749820987
 21
343.745697135989
 31
0.0
  0
ARC
  5
318
330
1A
100
AcDbEntity
  8
NOKITOI
  6
PHANTOM
 62
     8
 48
5.0
100
AcDbCircle
 10
501.7988741990903
 20
343.8436980909906
 30
0.0
 40
0.4999990449987349
100
AcDbArc
 50
348.6967198015448
 51
89.99991027369452
  0
LINE
  5
319
330
1A
100
AcDbEntity
  8
NOKITOI
  6
PHANTOM
 62
     8
 48
5.0
100
AcDbLine
 10
504.7501749820985
 20
341.8436971359889
 30
0.0
 11
502.5186749820987
 21
341.8436971359889
 31
0.0
  0
ARC
  5
31A
330
1A
100
AcDbEntity
  8
NOKITOI
  6
PHANTOM
 62
     8
 48
5.0
100
AcDbCircle
 10
504.7501687809408
 20
341.3437036710742
 30
0.0
 40
0.4999934649531607
100
AcDbArc
 50
356.9955363203384
 51
89.99928939038005
  0
LINE
  5
31B
330
1A
100
AcDbEntity
  8
NOKITOI
  6
PHANTOM
 62
     8
 48
5.0
100
AcDbLine
 10
500.4450749820989
 20
340.6436971359891
 30
0.0
 11
503.3815749820987
 21
340.6436971359891
 31
0.0
  0
ARC
  5
31C
330
1A
100
AcDbEntity
  8
NOKITOI
  6
PHANTOM
 62
     8
 48
5.0
100
AcDbCircle
 10
502.5186677275432
 20
342.3437059858323
 30
0.0
 40
0.5000088498959383
100
AcDbArc
 50
168.6864043304884
 51
270.0008312961434
  0
LINE
  5
31D
330
1A
100
AcDbEntity
  8
NOKITOI
  6
PHANTOM
 62
     8
 48
5.0
100
AcDbLine
 10
500.9450749820989
 20
343.1436971359891
 30
0.0
 11
500.4450749820989
 21
340.6436971359891
 31
0.0
  0
LINE
  5
31E
330
1A
100
AcDbEntity
  8
NOKITOI
  6
PHANTOM
 62
     8
 48
5.0
100
AcDbLine
 10
503.7702749820986
 20
336.043697135989
 30
0.0
 11
502.9923749820991
 21
336.043697135989
 31
0.0
  0
LINE
  5
31F
330
1A
100
AcDbEntity
  8
NOKITOI
  6
PHANTOM
 62
     8
 48
5.0
100
AcDbLine
 10
502.9923749820991
 20
336.043697135989
 30
0.0
 11
503.3964749820988
 21
338.8720971359889
 31
0.0
  0
LINE
  5
320
330
1A
100
AcDbEntity
  8
NOKITOI
  6
PHANTOM
 62
     8
 48
5.0
100
AcDbLine
 10
503.3964749820988
 20
338.8720971359889
 30
0.0
 11
503.9514749820987
 21
339.4851971359891
 31
0.0
  0
LINE
  5
321
330
1A
100
AcDbEntity
  8
NOKITOI
  6
PHANTOM
 62
     8
 48
5.0
100
AcDbLine
 10
503.7702749820986
 20
336.043697135989
 30
0.0
 11
503.9514749820987
 21
339.4851971359891
 31
0.0
  0
ARC
  5
322
330
1A
100
AcDbEntity
  8
NOKITOI
  6
PHANTOM
 62
     8
 48
5.0
100
AcDbCircle
 10
504.4343680951037
 20
335.3436906009034
 30
0.0
 40
0.499993464961963
100
AcDbArc
 50
270.0007892017873
 51
356.9970361317427
  0
LINE
  5
323
330
1A
100
AcDbEntity
  8
NOKITOI
  6
PHANTOM
 62
     8
 48
5.0
100
AcDbLine
 10
504.4343749820987
 20
334.8436971359889
 30
0.0
 11
502.1852749820986
 21
334.8436971359889
 31
0.0
  0
LINE
  5
324
330
1A
100
AcDbEntity
  8
NOKITOI
  6
PHANTOM
 62
     8
 48
5.0
100
AcDbLine
 10
502.385774982099
 20
339.543697135989
 30
0.0
 11
501.9238749820988
 21
339.543697135989
 31
0.0
  0
ARC
  5
325
330
1A
100
AcDbEntity
  8
NOKITOI
  6
PHANTOM
 62
     8
 48
5.0
100
AcDbCircle
 10
501.5290892005141
 20
337.8213825016879
 30
0.0
 40
0.5000073448410256
100
AcDbArc
 50
351.8729478641243
 51
96.47829282996843
  0
LINE
  5
326
330
1A
100
AcDbEntity
  8
NOKITOI
  6
PHANTOM
 62
     8
 48
5.0
100
AcDbLine
 10
501.6903749820985
 20
335.4144971359891
 30
0.0
 11
502.0240749820986
 21
337.7506971359891
 31
0.0
  0
ARC
  5
327
330
1A
100
AcDbEntity
  8
NOKITOI
  6
PHANTOM
 62
     8
 48
5.0
100
AcDbCircle
 10
502.1853015826963
 20
335.3436664591069
 30
0.0
 40
0.4999693238254178
100
AcDbArc
 50
171.8555038770532
 51
269.9969516090348
  0
LINE
  5
328
330
1A
100
AcDbEntity
  8
NOKITOI
  6
PHANTOM
 62
     8
 48
5.0
100
AcDbLine
 10
502.385774982099
 20
339.543697135989
 30
0.0
 11
503.3815749820987
 21
340.6436971359891
 31
0.0
  0
LINE
  5
329
330
1A
100
AcDbEntity
  8
NOKITOI
  6
PHANTOM
 62
     8
 48
5.0
100
AcDbLine
 10
504.9337749820988
 20
335.3174971359889
 30
0.0
 11
505.2495749820987
 21
341.3173971359889
 31
0.0
  0
LINE
  5
32A
330
1A
100
AcDbEntity
  8
NOKITOI
  6
PHANTOM
 62
     8
 48
5.0
100
AcDbLine
 10
498.4722749820985
 20
343.1436971359891
 30
0.0
 11
500.9450749820989
 21
343.1436971359891
 31
0.0
  0
LINE
  5
32B
330
1A
100
AcDbEntity
  8
NOKITOI
  6
PHANTOM
 62
     8
 48
5.0
100
AcDbLine
 10
498.4722749820985
 20
344.343697135989
 30
0.0
 11
501.7988749820988
 21
344.343697135989
 31
0.0
  0
LINE
  5
32C
330
1A
100
AcDbEntity
  8
SEIHIN
  6
CONTINUOUS
 62
     3
100
AcDbLine
 10
485.1608560839355
 20
354.343797901377
 30
0.0
 11
500.4083560839355
 21
354.343797901377
 31
0.0
  0
LINE
  5
32D
330
1A
100
AcDbEntity
  8
SEIHIN
  6
CONTINUOUS
 62
     3
100
AcDbLine
 10
485.1608560839355
 20
351.843797901377
 30
0.0
 11
502.2206560839356
 21
351.843797901377
 31
0.0
  0
LINE
  5
32E
330
1A
100
AcDbEntity
  8
CENTER_L
  6
CENTER
 62
     1
 48
5.0
100
AcDbLine
 10
502.2213560839356
 20
348.443897901377
 30
0.0
 11
497.2156560839355
 21
348.443897901377
 31
0.0
  0
LINE
  5
32F
330
1A
100
AcDbEntity
  8
SEIHIN
  6
CONTINUOUS
 62
     3
100
AcDbLine
 10
498.2281560839355
 20
345.043797901377
 30
0.0
 11
503.2208560839356
 21
345.043797901377
 31
0.0
  0
LINE
  5
330
330
1A
100
AcDbEntity
  8
SEIHIN
  6
CONTINUOUS
 62
     3
100
AcDbLine
 10
485.1608560839355
 20
354.343797901377
 30
0.0
 11
485.1608560839355
 21
351.843797901377
 31
0.0
  0
LINE
  5
331
330
1A
100
AcDbEntity
  8
CENTER_L
  6
CENTER
 62
     1
 48
5.0
100
AcDbLine
 10
499.8212560839355
 20
350.843897901377
 30
0.0
 11
499.8212560839355
 21
345.862597901377
 31
0.0
  0
CIRCLE
  5
332
330
1A
100
AcDbEntity
  8
SEIHIN
  6
CONTINUOUS
 62
     3
100
AcDbCircle
 10
499.8212560839355
 20
348.4436979013771
 30
0.0
 40
1.0
  0
ARC
  5
333
330
1A
100
AcDbEntity
  8
SEIHIN
  6
CONTINUOUS
 62
     3
100
AcDbCircle
 10
502.2206560839356
 20
350.843797901377
 30
0.0
 40
1.0
100
AcDbArc
 50
0.0
 51
90.0
  0
ARC
  5
334
330
1A
100
AcDbEntity
  8
SEIHIN
  6
CONTINUOUS
 62
     3
100
AcDbCircle
 10
614.5131560839356
 20
343.043797901377
 30
0.0
 40
1.999999
100
AcDbArc
 50
358.381177
 51
90.0
  0
LINE
  5
335
330
1A
100
AcDbEntity
  8
SEIHIN
  6
CONTINUOUS
 62
     3
100
AcDbLine
 10
609.5204560839356
 20
350.843797901377
 30
0.0
 11
609.5204560839356
 21
343.043797901377
 31
0.0
  0
ARC
  5
336
330
1A
100
AcDbEntity
  8
SEIHIN
  6
CONTINUOUS
 62
     3
100
AcDbCircle
 10
612.3092560839356
 20
348.356297901377
 30
0.0
 40
5.999991999999999
100
AcDbArc
 50
93.710599
 51
242.302747
  0
LINE
  5
337
330
1A
100
AcDbEntity
  8
SEIHIN
  6
CONTINUOUS
 62
     3
100
AcDbLine
 10
626.0858560839356
 20
325.8163979013771
 30
0.0
 11
626.5592560839357
 21
351.843697901377
 31
0.0
  0
LINE
  5
338
330
1A
100
AcDbEntity
  8
SEIHIN
  6
CONTINUOUS
 62
     3
100
AcDbLine
 10
607.4803560839357
 20
326.4432979013771
 30
0.0
 11
604.7118560839355
 21
298.7557979013771
 31
0.0
  0
LINE
  5
339
330
1A
100
AcDbEntity
  8
NOKITOI
  6
PHANTOM
 62
     8
 48
5.0
100
AcDbLine
 10
607.318774982099
 20
327.443197135989
 30
0.0
 11
604.4499749820988
 21
298.755797135989
 31
0.0
  0
LINE
  5
33A
330
1A
100
AcDbEntity
  8
NOKITOI
  6
PHANTOM
 62
     8
 48
5.0
100
AcDbLine
 10
606.2777749820988
 20
329.093497135989
 30
0.0
 11
603.2847749820985
 21
299.1636971359889
 31
0.0
  0
ARC
  5
33B
330
1A
100
AcDbEntity
  8
NOKITOI
  6
PHANTOM
 62
     8
 48
5.0
100
AcDbCircle
 10
602.7872575562205
 20
299.213364649601
 30
0.0
 40
0.4999904508696396
100
AcDbArc
 50
309.2900846377958
 51
354.2990110749245
  0
LINE
  5
33C
330
1A
100
AcDbEntity
  8
NOKITOI
  6
PHANTOM
 62
     8
 48
5.0
100
AcDbLine
 10
614.345274982099
 20
343.1435971359889
 30
0.0
 11
611.8725749820987
 21
343.1436971359891
 31
0.0
  0
LINE
  5
33D
330
1A
100
AcDbEntity
  8
NOKITOI
  6
PHANTOM
 62
     8
 48
5.0
100
AcDbLine
 10
614.345274982099
 20
344.3435971359889
 30
0.0
 11
611.0186749820987
 21
344.343697135989
 31
0.0
  0
ARC
  5
33E
330
1A
100
AcDbEntity
  8
NOKITOI
  6
PHANTOM
 62
     8
 48
5.0
100
AcDbCircle
 10
612.807212969923
 20
331.5436339565612
 30
0.0
 40
2.000036820932882
100
AcDbArc
 50
269.9989117490339
 51
358.2110591274196
  0
LINE
  5
33F
330
1A
100
AcDbEntity
  8
NOKITOI
  6
PHANTOM
 62
     8
 48
5.0
100
AcDbLine
 10
614.4548749820987
 20
328.3436971359889
 30
0.0
 11
608.3137749820989
 21
328.3436971359889
 31
0.0
  0
ARC
  5
340
330
1A
100
AcDbEntity
  8
NOKITOI
  6
PHANTOM
 62
     8
 48
5.0
100
AcDbCircle
 10
610.8937571157476
 20
334.3437058643689
 30
0.0
 40
5.199991271650611
100
AcDbArc
 50
37.92532860473096
 51
89.99980314072548
  0
ARC
  5
341
330
1A
100
AcDbEntity
  8
NOKITOI
  6
PHANTOM
 62
     8
 48
5.0
100
AcDbCircle
 10
610.8937440551626
 20
334.3437328806527
 30
0.0
 40
3.99998565374706
100
AcDbArc
 50
358.2086966591014
 51
83.52422380468325
  0
LINE
  5
342
330
1A
100
AcDbEntity
  8
SEIHIN
  6
CONTINUOUS
 62
     3
100
AcDbLine
 10
614.6121560839356
 20
327.343797901377
 30
0.0
 11
608.4753560839356
 21
327.343797901377
 31
0.0
  0
LINE
  5
343
330
1A
100
AcDbEntity
  8
SEIHIN
  6
CONTINUOUS
 62
     3
100
AcDbLine
 10
607.2703560839356
 20
324.343797901377
 30
0.0
 11
624.5860560839355
 21
324.343697901377
 31
0.0
  0
ARC
  5
344
330
1A
100
AcDbEntity
  8
NOKITOI
  6
PHANTOM
 62
     8
 48
5.0
100
AcDbCircle
 10
606.7752880531034
 20
329.0437089662688
 30
0.0
 40
0.499988169890889
100
AcDbArc
 50
90.00149786226627
 51
174.2966061377156
  0
LINE
  5
345
330
1A
100
AcDbEntity
  8
NOKITOI
  6
PHANTOM
 62
     8
 48
5.0
100
AcDbLine
 10
606.7752749820983
 20
329.543697135989
 30
0.0
 11
612.8071749820987
 21
329.543697135989
 31
0.0
  0
ARC
  5
346
330
1A
100
AcDbEntity
  8
SEIHIN
  6
CONTINUOUS
 62
     3
100
AcDbCircle
 10
608.4753560839356
 20
326.343797901377
 30
0.0
 40
1.000030999999999
100
AcDbArc
 50
90.0
 51
174.289977
  0
ARC
  5
347
330
1A
100
AcDbEntity
  8
NOKITOI
  6
PHANTOM
 62
     8
 48
5.0
100
AcDbCircle
 10
608.3137956319396
 20
327.3437158238381
 30
0.0
 40
0.9999813123640345
100
AcDbArc
 50
90.00118317084957
 51
174.290590033351
  0
LINE
  5
348
330
1A
100
AcDbEntity
  8
NOKITOI
  6
PHANTOM
 62
     8
 48
5.0
100
AcDbLine
 10
610.7891749820987
 20
342.4416971359891
 30
0.0
 11
610.5283749820987
 21
343.745697135989
 31
0.0
  0
ARC
  5
349
330
1A
100
AcDbEntity
  8
NOKITOI
  6
PHANTOM
 62
     8
 48
5.0
100
AcDbCircle
 10
611.0186677275432
 20
343.8436882861455
 30
0.0
 40
0.500008849895925
100
AcDbArc
 50
89.99916870385492
 51
191.3135956695117
  0
ARC
  5
34A
330
1A
100
AcDbEntity
  8
NOKITOI
  6
PHANTOM
 62
     8
 48
5.0
100
AcDbCircle
 10
608.067378691594
 20
341.3437010460197
 30
0.0
 40
0.4999960899831856
100
AcDbArc
 50
90.00042508015132
 51
183.0156217414654
  0
LINE
  5
34B
330
1A
100
AcDbEntity
  8
NOKITOI
  6
PHANTOM
 62
     8
 48
5.0
100
AcDbLine
 10
608.0673749820989
 20
341.8436971359889
 30
0.0
 11
610.2988749820988
 21
341.8436971359889
 31
0.0
  0
LINE
  5
34C
330
1A
100
AcDbEntity
  8
NOKITOI
  6
PHANTOM
 62
     8
 48
5.0
100
AcDbLine
 10
612.3725749820987
 20
340.6436971359891
 30
0.0
 11
609.4359749820987
 21
340.6436971359891
 31
0.0
  0
LINE
  5
34D
330
1A
100
AcDbEntity
  8
NOKITOI
  6
PHANTOM
 62
     8
 48
5.0
100
AcDbLine
 10
611.8725749820987
 20
343.1436971359891
 30
0.0
 11
612.3725749820987
 21
340.6436971359891
 31
0.0
  0
ARC
  5
34E
330
1A
100
AcDbEntity
  8
NOKITOI
  6
PHANTOM
 62
     8
 48
5.0
100
AcDbCircle
 10
610.2988741990903
 20
342.3436961809872
 30
0.0
 40
0.4999990449987399
100
AcDbArc
 50
270.0000897263054
 51
11.30328019845509
  0
ARC
  5
34F
330
1A
100
AcDbEntity
  8
NOKITOI
  6
PHANTOM
 62
     8
 48
5.0
100
AcDbCircle
 10
611.2885043545984
 20
337.8213273684838
 30
0.0
 40
0.4999578477751074
100
AcDbArc
 50
83.52609071220776
 51
188.1330561712924
  0
LINE
  5
350
330
1A
100
AcDbEntity
  8
NOKITOI
  6
PHANTOM
 62
     8
 48
5.0
100
AcDbLine
 10
611.1272749820987
 20
335.4143971359889
 30
0.0
 11
610.7934749820988
 21
337.7505971359891
 31
0.0
  0
ARC
  5
351
330
1A
100
AcDbEntity
  8
NOKITOI
  6
PHANTOM
 62
     8
 48
5.0
100
AcDbCircle
 10
610.6322851685349
 20
335.343708880713
 30
0.0
 40
0.5000117448278309
100
AcDbArc
 50
269.9988327478018
 51
8.127314608715803
  0
LINE
  5
352
330
1A
100
AcDbEntity
  8
NOKITOI
  6
PHANTOM
 62
     8
 48
5.0
100
AcDbLine
 10
610.4317749820989
 20
339.543697135989
 30
0.0
 11
610.8937749820988
 21
339.543697135989
 31
0.0
  0
LINE
  5
353
330
1A
100
AcDbEntity
  8
NOKITOI
  6
PHANTOM
 62
     8
 48
5.0
100
AcDbLine
 10
609.4211749820988
 20
338.8720971359889
 30
0.0
 11
608.8661749820985
 21
339.4850971359889
 31
0.0
  0
LINE
  5
354
330
1A
100
AcDbEntity
  8
NOKITOI
  6
PHANTOM
 62
     8
 48
5.0
100
AcDbLine
 10
609.0472749820987
 20
336.043697135989
 30
0.0
 11
609.8251749820983
 21
336.043697135989
 31
0.0
  0
LINE
  5
355
330
1A
100
AcDbEntity
  8
NOKITOI
  6
PHANTOM
 62
     8
 48
5.0
100
AcDbLine
 10
609.0472749820987
 20
336.043697135989
 30
0.0
 11
608.8661749820985
 21
339.4850971359889
 31
0.0
  0
LINE
  5
356
330
1A
100
AcDbEntity
  8
NOKITOI
  6
PHANTOM
 62
     8
 48
5.0
100
AcDbLine
 10
609.8251749820983
 20
336.043697135989
 30
0.0
 11
609.4211749820988
 21
338.8720971359889
 31
0.0
  0
ARC
  5
357
330
1A
100
AcDbEntity
  8
NOKITOI
  6
PHANTOM
 62
     8
 48
5.0
100
AcDbCircle
 10
608.3831791035054
 20
335.3436932259584
 30
0.0
 40
0.4999960899864752
100
AcDbArc
 50
183.0147243791737
 51
269.9995277178594
  0
LINE
  5
358
330
1A
100
AcDbEntity
  8
NOKITOI
  6
PHANTOM
 62
     8
 48
5.0
100
AcDbLine
 10
608.3831749820988
 20
334.8436971359889
 30
0.0
 11
610.6322749820983
 21
334.8436971359889
 31
0.0
  0
LINE
  5
359
330
1A
100
AcDbEntity
  8
NOKITOI
  6
PHANTOM
 62
     8
 48
5.0
100
AcDbLine
 10
607.8838749820988
 20
335.3173971359889
 30
0.0
 11
607.5680749820985
 21
341.3173971359889
 31
0.0
  0
LINE
  5
35A
330
1A
100
AcDbEntity
  8
NOKITOI
  6
PHANTOM
 62
     8
 48
5.0
100
AcDbLine
 10
610.4317749820989
 20
339.543697135989
 30
0.0
 11
609.4359749820987
 21
340.6436971359891
 31
0.0
  0
LINE
  5
35B
330
1A
100
AcDbEntity
  8
NOKITOI
  6
PHANTOM
 62
     8
 48
5.0
100
AcDbLine
 10
614.8062749820987
 20
331.481097135989
 30
0.0
 11
614.8917749820984
 21
334.2186971359889
 31
0.0
  0
LINE
  5
35C
330
1A
100
AcDbEntity
  8
SEIHIN
  6
CONTINUOUS
 62
     3
100
AcDbLine
 10
616.5123560839356
 20
342.987297901377
 30
0.0
 11
616.1115560839355
 21
328.801497901377
 31
0.0
  0
LINE
  5
35D
330
1A
100
AcDbEntity
  8
NOKITOI
  6
PHANTOM
 62
     8
 48
5.0
100
AcDbLine
 10
616.3442749820988
 20
342.2811971359889
 30
0.0
 11
615.9541749820987
 21
329.7967971359889
 31
0.0
  0
ARC
  5
35E
330
1A
100
AcDbEntity
  8
SEIHIN
  6
CONTINUOUS
 62
     3
100
AcDbCircle
 10
620.6233560839355
 20
323.8436979013771
 30
0.0
 40
0.499993
100
AcDbArc
 50
90.0
 51
174.283706
  0
ARC
  5
35F
330
1A
100
AcDbEntity
  8
SEIHIN
  6
CONTINUOUS
 62
     3
100
AcDbCircle
 10
614.6121560839356
 20
328.843797901377
 30
0.0
 40
1.499997999999999
100
AcDbArc
 50
270.0
 51
358.384041
  0
ARC
  5
360
330
1A
100
AcDbEntity
  8
NOKITOI
  6
PHANTOM
 62
     8
 48
5.0
100
AcDbCircle
 10
614.4548921952768
 20
329.8437138191367
 30
0.0
 40
1.500016683246579
100
AcDbArc
 50
269.9993425123348
 51
358.207642324411
  0
ARC
  5
361
330
1A
100
AcDbEntity
  8
SEIHIN
  6
CONTINUOUS
 62
     3
100
AcDbCircle
 10
624.5860560839355
 20
325.8436979013771
 30
0.0
 40
1.500023999999999
100
AcDbArc
 50
270.0
 51
358.957193
  0
ARC
  5
362
330
1A
100
AcDbEntity
  8
NOKITOI
  6
PHANTOM
 62
     8
 48
5.0
100
AcDbCircle
 10
614.3452637451046
 20
342.3437087298061
 30
0.0
 40
1.999988406214315
100
AcDbArc
 50
358.2088726535929
 51
89.99967808195611
  0
ARC
  5
363
330
1A
100
AcDbEntity
  8
NOKITOI
  6
PHANTOM
 62
     8
 48
5.0
100
AcDbCircle
 10
614.3453189484517
 20
342.343651773516
 30
0.0
 40
0.7999453636812564
100
AcDbArc
 50
358.212343644788
 51
90.00314907315372
  0
LINE
  5
364
330
1A
100
AcDbEntity
  8
NOKITOI
  6
PHANTOM
 62
     8
 48
5.0
100
AcDbLine
 10
615.1448749820984
 20
342.3186971359888
 30
0.0
 11
614.9955749820987
 21
337.5396971359891
 31
0.0
  0
LINE
  5
365
330
1A
100
AcDbEntity
  8
CENTER_L
  6
CENTER
 62
     1
 48
5.0
100
AcDbLine
 10
610.5203560839356
 20
348.4436979013771
 30
0.0
 11
615.5261560839355
 21
348.4436979013771
 31
0.0
  0
LINE
  5
366
330
1A
100
AcDbEntity
  8
SEIHIN
  6
CONTINUOUS
 62
     3
100
AcDbLine
 10
614.5131560839356
 20
345.043797901377
 30
0.0
 11
609.5204560839356
 21
345.043797901377
 31
0.0
  0
CIRCLE
  5
367
330
1A
100
AcDbEntity
  8
SEIHIN
  6
CONTINUOUS
 62
     3
100
AcDbCircle
 10
612.9204560839355
 20
348.4436979013771
 30
0.0
 40
1.0
  0
LINE
  5
368
330
1A
100
AcDbEntity
  8
SEIHIN
  6
CONTINUOUS
 62
     3
100
AcDbLine
 10
627.5592560839356
 20
351.843697901377
 30
0.0
 11
610.5203560839356
 21
351.843797901377
 31
0.0
  0
LINE
  5
369
330
1A
100
AcDbEntity
  8
SEIHIN
  6
CONTINUOUS
 62
     3
100
AcDbLine
 10
627.5592560839356
 20
354.343697901377
 30
0.0
 11
611.9215560839356
 21
354.343797901377
 31
0.0
  0
LINE
  5
36A
330
1A
100
AcDbEntity
  8
CENTER_L
  6
CENTER
 62
     1
 48
5.0
100
AcDbLine
 10
612.9204560839355
 20
350.843797901377
 30
0.0
 11
612.9204560839355
 21
345.8623979013771
 31
0.0
  0
ARC
  5
36B
330
1A
100
AcDbEntity
  8
SEIHIN
  6
CONTINUOUS
 62
     3
100
AcDbCircle
 10
610.5203560839356
 20
350.843797901377
 30
0.0
 40
1.0
100
AcDbArc
 50
90.0
 51
180.0
  0
LINE
  5
36C
330
1A
100
AcDbEntity
  8
SEIHIN
  6
CONTINUOUS
 62
     3
100
AcDbLine
 10
627.5592560839356
 20
351.843697901377
 30
0.0
 11
627.5592560839356
 21
354.343697901377
 31
0.0
  0
LINE
  5
588
330
1A
100
AcDbEntity
  8
ZUWAKU
100
AcDbLine
 10
208.6466009793416
 20
15.19999945063829
 30
0.0
 11
447.424363660265
 21
15.19999945063828
 31
0.0
  0
LINE
  5
589
330
1A
100
AcDbEntity
  8
ZUWAKU
100
AcDbLine
 10
208.6466009793416
 20
15.59999945063829
 30
0.0
 11
447.424363660265
 21
15.59999945063829
 31
0.0
  0
LINE
  5
58A
330
1A
100
AcDbEntity
  8
ZUWAKU
100
AcDbLine
 10
208.6466009793416
 20
15.39999945063829
 30
0.0
 11
447.424363660265
 21
15.39999945063829
 31
0.0
  0
LINE
  5
58B
330
1A
100
AcDbEntity
  8
ZUWAKU
100
AcDbLine
 10
-0.0000003107263638
 20
30.79999945063827
 30
0.0
 11
797.3999996892735
 21
30.79999945063827
 31
0.0
  0
LINE
  5
58C
330
1A
100
AcDbEntity
  8
ZUWAKU
100
AcDbLine
 10
-0.0000003107263638
 20
30.59999945063826
 30
0.0
 11
797.3999996892735
 21
30.59999945063826
 31
0.0
  0
LINE
  5
58D
330
1A
100
AcDbEntity
  8
ZUWAKU
100
AcDbLine
 10
-0.0000003107263638
 20
30.39999945063826
 30
0.0
 11
797.3999996892735
 21
30.39999945063826
 31
0.0
  0
LINE
  5
58E
330
1A
100
AcDbEntity
  8
ZUWAKU
100
AcDbLine
 10
-0.0000003107263638
 20
30.19999945063826
 30
0.0
 11
797.3999996892735
 21
30.19999945063826
 31
0.0
  0
LINE
  5
58F
330
1A
100
AcDbEntity
  8
ZUWAKU
100
AcDbLine
 10
-0.0000003107263638
 20
29.99999945063825
 30
0.0
 11
797.3999996892735
 21
29.99999945063825
 31
0.0
  0
LWPOLYLINE
  5
590
330
1A
100
AcDbEntity
  8
ZUWAKU
100
AcDbPolyline
 90
        4
 70
     1
 43
0.0
 10
0.199999689273568
 20
551.3999994506384
 10
0.199999689273568
 20
0.1999994506383018
 10
797.3999996892735
 20
0.1999994506383249
 10
797.3999996892737
 20
551.3999994506384
  0
LWPOLYLINE
  5
591
330
1A
100
AcDbEntity
  8
ZUWAKU
100
AcDbPolyline
 90
        4
 70
     1
 43
0.0
 10
0.5999996892735453
 20
550.9999994506383
 10
0.5999996892735453
 20
0.5999994506382791
 10
796.9999996892738
 20
0.5999994506383253
 10
796.9999996892736
 20
550.9999994506383
  0
LWPOLYLINE
  5
592
330
1A
100
AcDbEntity
  8
ZUWAKU
100
AcDbPolyline
 90
        4
 70
     1
 43
0.0
 10
-0.0000003107263638
 20
551.5999994506382
 10
-0.0000003107263638
 20
-0.0000005493617437
 10
797.5999996892737
 20
-0.0000005493616761
 10
797.5999996892737
 20
551.5999994506383
  0
LWPOLYLINE
  5
593
330
1A
100
AcDbEntity
  8
ZUWAKU
100
AcDbPolyline
 90
        4
 70
     1
 43
0.0
 10
0.3999996892736135
 20
551.1999994506383
 10
0.3999996892736135
 20
0.3999994506383473
 10
797.1999996892736
 20
0.3999994506383242
 10
797.1999996892736
 20
551.1999994506383
  0
LWPOLYLINE
  5
594
330
1A
100
AcDbEntity
  8
ZUWAKU
100
AcDbPolyline
 90
        4
 70
     1
 43
0.0
 10
0.7999996892735908
 20
550.7999994506383
 10
0.7999996892735908
 20
0.7999994506383246
 10
796.7999996892736
 20
0.7999994506383246
 10
796.7999996892736
 20
550.7999994506383
  0
TEXT
  5
595
330
1A
100
AcDbEntity
  8
MOJI
100
AcDbText
 10
92.95778927744278
 20
12.74117758091301
 30
0.0
 40
6.0
  1
新・丸トップＲＶ１０５
 41
0.9
  7
ｽﾀｲﾙ1
100
AcDbText
  0
HATCH
  5
596
330
1A
100
AcDbEntity
  8
ZUWAKU
100
AcDbHatch
 10
0.0
 20
0.0
 30
0.0
210
0.0
220
0.0
230
1.0
  2
ANSI37
 70
     0
 71
     0
 91
        8
 92
        7
 72
     1
 73
     1
 93
       24
 10
14.50226235039349
 20
17.64484793162184
 42
-0.1989123673796348
 10
14.09221184405476
 20
18.63479742528289
 42
0.0
 10
14.09221184405476
 20
19.92499945063826
 42
-0.4142135623730912
 10
14.61721184405473
 20
20.44999945063826
 42
0.0
 10
17.59221184405464
 20
20.44999945063826
 42
0.4142135623731546
 10
18.11721184405473
 20
20.97499945063824
 42
0.0
 10
18.11721184405473
 20
22.72499945063826
 42
0.4142135623731586
 10
17.59221184405464
 20
23.24999945063826
 42
0.0
 10
14.09221184405476
 20
23.24999945063826
 42
0.4142135623730928
 10
11.2922118440548
 20
20.44999945063828
 42
0.0
 10
11.2922118440548
 20
18.63479742528301
 42
0.1989123673796619
 10
12.52236336307123
 20
15.66494894429941
 42
0.0
 10
15.43216133771591
 20
12.75515096965475
 42
-0.1989123673796613
 10
15.84221184405476
 20
11.76520147599356
 42
0.0
 10
15.84221184405476
 20
10.47499945063825
 42
-0.4142135623730911
 10
15.31721184405478
 20
9.949999450638259
 42
0.0
 10
12.34221184405487
 20
9.949999450638259
 42
0.4142135623731526
 10
11.81721184405478
 20
9.424999450638271
 42
0.0
 10
11.81721184405478
 20
7.674999450638249
 42
0.4142135623731526
 10
12.34221184405487
 20
7.149999450638262
 42
0.0
 10
15.84221184405476
 20
7.149999450638262
 42
0.4142135623731044
 10
18.64221184405482
 20
9.949999450638237
 42
0.0
 10
18.64221184405482
 20
11.76520147599351
 42
0.1989123673796604
 10
17.41206032503828
 20
14.73504995697705
 42
0.0
 97
        0
 92
        7
 72
     1
 73
     1
 93
       16
 10
23.5422118440548
 20
19.04999945063826
 42
-0.4142135623730935
 10
24.94221184405478
 20
20.44999945063826
 42
0.0
 10
26.86721184405473
 20
20.44999945063826
 42
0.4142135623731546
 10
27.39221184405483
 20
20.97499945063824
 42
0.0
 10
27.39221184405483
 20
22.72499945063826
 42
0.4142135623730951
 10
26.86721184405485
 20
23.24999945063826
 42
0.0
 10
24.94221184405466
 20
23.24999945063822
 42
0.4142135623730892
 10
20.74221184405473
 20
19.04999945063819
 42
0.0
 10
20.74221184405473
 20
11.34999945063828
 42
0.4142135623730969
 10
24.94221184405478
 20
7.149999450638262
 42
0.0
 10
26.86721184405473
 20
7.149999450638262
 42
0.4142135623731526
 10
27.39221184405483
 20
7.674999450638249
 42
0.0
 10
27.39221184405483
 20
9.424999450638271
 42
0.4142135623730891
 10
26.86721184405485
 20
9.949999450638259
 42
0.0
 10
24.94221184405478
 20
9.949999450638259
 42
-0.4142135623730928
 10
23.5422118440548
 20
11.34999945063824
 42
0.0
 97
        0
 92
        7
 72
     1
 73
     1
 93
        2
 10
24.24221184405473
 20
15.19999945063825
 42
1.0
 10
27.74221184405473
 20
15.19999945063825
 42
1.0
 97
        0
 92
        7
 72
     1
 73
     1
 93
       26
 10
37.31485832623275
 20
19.20504664420168
 42
0.0
 10
38.37649795937057
 20
22.56690548247128
 42
0.5069206636600134
 10
37.87586706017521
 20
23.24999945063826
 42
0.0
 10
36.17697768056598
 20
23.24999945063826
 42
0.3272098845218764
 10
35.67634678137062
 20
22.88309341880523
 42
0.0
 10
33.80807690673885
 20
16.96690548247134
 42
-0.3272098845219541
 10
33.30744600754337
 20
16.59999945063825
 42
0.0
 10
33.16721184405492
 20
16.59999945063825
 42
-0.4142135623731526
 10
32.64221184405482
 20
17.12499945063824
 42
0.0
 10
32.64221184405482
 20
22.72499945063826
 42
0.4142135623730951
 10
32.11721184405485
 20
23.24999945063826
 42
0.0
 10
30.36721184405474
 20
23.24999945063826
 42
0.4142135623730871
 10
29.84221184405475
 20
22.72499945063827
 42
0.0
 10
29.84221184405475
 20
7.674999450638249
 42
0.4142135623730891
 10
30.36721184405474
 20
7.149999450638262
 42
0.0
 10
32.11721184405473
 20
7.149999450638262
 42
0.4142135623731526
 10
32.64221184405482
 20
7.674999450638249
 42
0.0
 10
32.64221184405482
 20
13.27499945063827
 42
-0.4142135623731526
 10
33.16721184405492
 20
13.79999945063826
 42
0.0
 10
33.30744600754349
 20
13.79999945063826
 42
-0.3272098845218915
 10
33.80807690673885
 20
13.43309341880518
 42
0.0
 10
35.67634678137062
 20
7.516905482471333
 42
0.3272098845218902
 10
36.17697768056598
 20
7.149999450638262
 42
0.0
 10
37.87586706017521
 20
7.149999450638262
 42
0.5069206636600335
 10
38.37649795937057
 20
7.833093418805269
 42
0.0
 10
36.05010658089691
 20
15.19999945063839
 42
0.0
 97
        0
 92
        7
 72
     1
 73
     1
 93
        8
 10
43.49221184405474
 20
22.72499945063827
 42
0.4142135623731546
 10
42.96721184405464
 20
23.24999945063826
 42
0.0
 10
41.21721184405487
 20
23.24999945063826
 42
0.4142135623731507
 10
40.69221184405478
 20
22.72499945063827
 42
0.0
 10
40.69221184405478
 20
7.674999450638249
 42
0.4142135623731526
 10
41.21721184405487
 20
7.149999450638262
 42
0.0
 10
42.96721184405464
 20
7.149999450638262
 42
0.4142135623731526
 10
43.49221184405474
 20
7.674999450638249
 42
0.0
 97
        0
 92
        7
 72
     1
 73
     1
 93
       24
 10
48.39221184405483
 20
19.92499945063826
 42
-0.4142135623731546
 10
48.91721184405492
 20
20.44999945063826
 42
0.0
 10
51.89221184405482
 20
20.44999945063826
 42
0.4142135623730911
 10
52.41721184405481
 20
20.97499945063824
 42
0.0
 10
52.41721184405481
 20
22.72499945063826
 42
0.4142135623730952
 10
51.89221184405482
 20
23.24999945063826
 42
0.0
 10
48.39221184405483
 20
23.24999945063826
 42
0.4142135623731048
 10
45.59221184405475
 20
20.44999945063828
 42
0.0
 10
45.59221184405475
 20
18.63479742528301
 42
0.1989123673796613
 10
46.8223633630713
 20
15.66494894429946
 42
0.0
 10
49.73216133771598
 20
12.7551509696548
 42
-0.1989123673796402
 10
50.14221184405482
 20
11.76520147599372
 42
0.0
 10
50.14221184405482
 20
10.47499945063825
 42
-0.4142135623730911
 10
49.61721184405485
 20
9.949999450638259
 42
0.0
 10
46.64221184405483
 20
9.949999450638259
 42
0.4142135623731526
 10
46.11721184405474
 20
9.424999450638271
 42
0.0
 10
46.11721184405474
 20
7.674999450638249
 42
0.4142135623730891
 10
46.64221184405471
 20
7.149999450638262
 42
0.0
 10
50.14221184405482
 20
7.149999450638262
 42
0.4142135623730925
 10
52.94221184405478
 20
9.949999450638237
 42
0.0
 10
52.94221184405478
 20
11.76520147599351
 42
0.1989123673796675
 10
51.71206032503824
 20
14.73504995697716
 42
0.0
 10
48.80226235039367
 20
17.64484793162168
 42
-0.1989123673796652
 10
48.39221184405483
 20
18.63479742528284
 42
0.0
 97
        0
 92
        7
 72
     1
 73
     1
 93
       16
 10
57.84221184405476
 20
22.72499945063825
 42
0.414213562373103
 10
57.31721184405478
 20
23.24999945063826
 42
0.0
 10
55.56721184405478
 20
23.24999945063826
 42
0.4142135623730871
 10
55.0422118440548
 20
22.72499945063827
 42
0.0
 10
55.0422118440548
 20
9.949999450638237
 42
0.4142135623730926
 10
57.84221184405476
 20
7.149999450638262
 42
0.0
 10
61.34221184405475
 20
7.149999450638262
 42
0.4142135623731044
 10
64.14221184405483
 20
9.949999450638237
 42
0.0
 10
64.14221184405483
 20
22.72499945063826
 42
0.4142135623730951
 10
63.61721184405485
 20
23.24999945063826
 42
0.0
 10
61.86721184405474
 20
23.24999945063826
 42
0.4142135623730871
 10
61.34221184405475
 20
22.72499945063827
 42
0.0
 10
61.34221184405475
 20
10.99999945063823
 42
-0.414213562373088
 10
60.2922118440548
 20
9.949999450638259
 42
0.0
 10
58.89221184405482
 20
9.949999450638259
 42
-0.4142135623731197
 10
57.84221184405476
 20
10.99999945063823
 42
0.0
 97
        0
 92
        7
 72
     1
 73
     1
 93
        8
 10
69.0422118440548
 20
22.72499945063827
 42
0.4142135623730871
 10
68.51721184405483
 20
23.24999945063826
 42
0.0
 10
66.76721184405483
 20
23.24999945063826
 42
0.4142135623731507
 10
66.24221184405474
 20
22.72499945063827
 42
0.0
 10
66.24221184405474
 20
7.674999450638249
 42
0.4142135623730891
 10
66.76721184405471
 20
7.149999450638262
 42
0.0
 10
68.51721184405483
 20
7.149999450638262
 42
0.4142135623730891
 10
69.0422118440548
 20
7.674999450638249
 42
0.0
 97
        0
 75
     0
 76
     1
 52
0.0
 41
0.2
 77
     0
 78
     2
 53
45.0
 43
-900.9423046454053
 44
-13.20000054936167
 45
-0.4490128060534576
 46
0.4490128060534577
 79
     0
 53
135.0
 43
-900.9423046454053
 44
-13.20000054936167
 45
-0.4490128060534577
 46
-0.4490128060534576
 79
     0
 47
0.057451373970553
 98
        8
 10
16.07985465229694
 20
15.16717309652381
 10
22.4045146957128
 20
18.84406163308926
 10
25.16436757493329
 20
15.51188109670897
 10
30.91405967091077
 20
16.20129709707976
 10
41.83847170823037
 20
16.66090936462137
 10
46.89820058440318
 20
19.41857576704546
 10
56.55768566167399
 20
18.72915736573327
 10
67.82707930889637
 20
19.18876963327488
  0
LINE
  5
597
330
1A
100
AcDbEntity
  8
ZUWAKU
100
AcDbLine
 10
24.94221184405478
 20
23.24999945063822
 30
0.0
 11
26.86721184405473
 21
23.24999945063826
 31
0.0
  0
LINE
  5
598
330
1A
100
AcDbEntity
  8
ZUWAKU
100
AcDbLine
 10
26.86721184405473
 20
20.44999945063826
 30
0.0
 11
24.94221184405478
 21
20.44999945063826
 31
0.0
  0
LINE
  5
599
330
1A
100
AcDbEntity
  8
ZUWAKU
100
AcDbLine
 10
24.94221184405478
 20
9.949999450638259
 30
0.0
 11
26.86721184405473
 21
9.949999450638259
 31
0.0
  0
LINE
  5
59A
330
1A
100
AcDbEntity
  8
ZUWAKU
100
AcDbLine
 10
26.86721184405473
 20
7.149999450638262
 30
0.0
 11
24.94221184405478
 21
7.149999450638262
 31
0.0
  0
CIRCLE
  5
59B
330
1A
100
AcDbEntity
  8
ZUWAKU
100
AcDbCircle
 10
25.99221184405474
 20
15.19999945063825
 30
0.0
 40
1.75
  0
ARC
  5
59C
330
1A
100
AcDbEntity
  8
ZUWAKU
100
AcDbCircle
 10
15.49221184405473
 20
18.63479742528296
 30
0.0
 40
1.399999999999999
100
AcDbArc
 50
180.0000000000016
 51
224.9999999999988
  0
LINE
  5
59D
330
1A
100
AcDbEntity
  8
ZUWAKU
100
AcDbLine
 10
23.5422118440548
 20
19.04999945063826
 30
0.0
 11
23.5422118440548
 21
11.34999945063826
 31
0.0
  0
LINE
  5
59E
330
1A
100
AcDbEntity
  8
ZUWAKU
100
AcDbLine
 10
20.74221184405473
 20
11.34999945063826
 30
0.0
 11
20.74221184405473
 21
19.04999945063821
 31
0.0
  0
ARC
  5
59F
330
1A
100
AcDbEntity
  8
ZUWAKU
100
AcDbCircle
 10
15.49221184405473
 20
18.63479742528296
 30
0.0
 40
4.199999999999999
100
AcDbArc
 50
180.0
 51
225.0
  0
ARC
  5
5A0
330
1A
100
AcDbEntity
  8
ZUWAKU
100
AcDbCircle
 10
15.84221184405476
 20
9.949999450638259
 30
0.0
 40
2.799999999999999
100
AcDbArc
 50
270.0
 51
0.0
  0
ARC
  5
5A1
330
1A
100
AcDbEntity
  8
ZUWAKU
100
AcDbCircle
 10
24.94221184405478
 20
11.34999945063826
 30
0.0
 40
4.199999999999999
100
AcDbArc
 50
180.0
 51
270.0
  0
ARC
  5
5A2
330
1A
100
AcDbEntity
  8
ZUWAKU
100
AcDbCircle
 10
14.44221184405478
 20
11.76520147599356
 30
0.0
 40
4.199999999999999
100
AcDbArc
 50
0.0
 51
45.0
  0
LINE
  5
5A3
330
1A
100
AcDbEntity
  8
ZUWAKU
100
AcDbLine
 10
17.41206032503828
 20
14.73504995697708
 30
0.0
 11
14.5022623503936
 21
17.64484793162176
 31
0.0
  0
LINE
  5
5A4
330
1A
100
AcDbEntity
  8
ZUWAKU
100
AcDbLine
 10
15.84221184405476
 20
10.47499945063826
 30
0.0
 11
15.84221184405476
 21
11.7652014759936
 31
0.0
  0
ARC
  5
5A5
330
1A
100
AcDbEntity
  8
ZUWAKU
100
AcDbCircle
 10
15.31721184405478
 20
10.47499945063826
 30
0.0
 40
0.525
100
AcDbArc
 50
270.0
 51
0.0
  0
ARC
  5
5A6
330
1A
100
AcDbEntity
  8
ZUWAKU
100
AcDbCircle
 10
14.44221184405478
 20
11.7652014759936
 30
0.0
 40
1.399999999999999
100
AcDbArc
 50
0.0
 51
45.0
  0
LINE
  5
5A7
330
1A
100
AcDbEntity
  8
ZUWAKU
100
AcDbLine
 10
11.81721184405478
 20
7.67499945063826
 30
0.0
 11
11.81721184405478
 21
9.42499945063826
 31
0.0
  0
ARC
  5
5A8
330
1A
100
AcDbEntity
  8
ZUWAKU
100
AcDbCircle
 10
12.34221184405476
 20
7.67499945063826
 30
0.0
 40
0.525
100
AcDbArc
 50
180.0
 51
270.0
  0
ARC
  5
5A9
330
1A
100
AcDbEntity
  8
ZUWAKU
100
AcDbCircle
 10
12.34221184405476
 20
9.42499945063826
 30
0.0
 40
0.525
100
AcDbArc
 50
90.0
 51
180.0
  0
LINE
  5
5AA
330
1A
100
AcDbEntity
  8
ZUWAKU
100
AcDbLine
 10
12.34221184405476
 20
7.149999450638262
 30
0.0
 11
15.84221184405476
 21
7.149999450638262
 31
0.0
  0
LINE
  5
5AB
330
1A
100
AcDbEntity
  8
ZUWAKU
100
AcDbLine
 10
12.34221184405476
 20
9.949999450638259
 30
0.0
 11
15.31721184405478
 21
9.949999450638259
 31
0.0
  0
LINE
  5
5AC
330
1A
100
AcDbEntity
  8
ZUWAKU
100
AcDbLine
 10
12.52236336307123
 20
15.66494894429943
 30
0.0
 11
15.43216133771591
 21
12.75515096965477
 31
0.0
  0
LINE
  5
5AD
330
1A
100
AcDbEntity
  8
ZUWAKU
100
AcDbLine
 10
18.64221184405482
 20
9.949999450638259
 30
0.0
 11
18.64221184405482
 21
11.7652014759936
 31
0.0
  0
ARC
  5
5AE
330
1A
100
AcDbEntity
  8
ZUWAKU
100
AcDbCircle
 10
24.94221184405478
 20
11.34999945063826
 30
0.0
 40
1.399999999999999
100
AcDbArc
 50
180.0
 51
270.0
  0
ARC
  5
5AF
330
1A
100
AcDbEntity
  8
ZUWAKU
100
AcDbCircle
 10
17.59221184405475
 20
22.72499945063825
 30
0.0
 40
0.525
100
AcDbArc
 50
0.0
 51
90.0
  0
ARC
  5
5B0
330
1A
100
AcDbEntity
  8
ZUWAKU
100
AcDbCircle
 10
17.59221184405475
 20
20.97499945063825
 30
0.0
 40
0.525
100
AcDbArc
 50
270.0
 51
0.0
  0
LINE
  5
5B1
330
1A
100
AcDbEntity
  8
ZUWAKU
100
AcDbLine
 10
14.09221184405476
 20
23.24999945063826
 30
0.0
 11
17.59221184405475
 21
23.24999945063826
 31
0.0
  0
ARC
  5
5B2
330
1A
100
AcDbEntity
  8
ZUWAKU
100
AcDbCircle
 10
14.61721184405473
 20
19.92499945063826
 30
0.0
 40
0.525
100
AcDbArc
 50
90.0
 51
180.0
  0
LINE
  5
5B3
330
1A
100
AcDbEntity
  8
ZUWAKU
100
AcDbLine
 10
14.09221184405476
 20
19.92499945063826
 30
0.0
 11
14.09221184405476
 21
18.63479742528292
 31
0.0
  0
LINE
  5
5B4
330
1A
100
AcDbEntity
  8
ZUWAKU
100
AcDbLine
 10
17.59221184405475
 20
20.44999945063826
 30
0.0
 11
14.61721184405473
 21
20.44999945063826
 31
0.0
  0
LINE
  5
5B5
330
1A
100
AcDbEntity
  8
ZUWAKU
100
AcDbLine
 10
11.2922118440548
 20
20.44999945063826
 30
0.0
 11
11.2922118440548
 21
18.63479742528292
 31
0.0
  0
ARC
  5
5B6
330
1A
100
AcDbEntity
  8
ZUWAKU
100
AcDbCircle
 10
14.09221184405476
 20
20.44999945063826
 30
0.0
 40
2.799999999999999
100
AcDbArc
 50
90.0
 51
180.0
  0
LINE
  5
5B7
330
1A
100
AcDbEntity
  8
ZUWAKU
100
AcDbLine
 10
18.11721184405473
 20
22.72499945063825
 30
0.0
 11
18.11721184405473
 21
20.97499945063825
 31
0.0
  0
ARC
  5
5B8
330
1A
100
AcDbEntity
  8
ZUWAKU
100
AcDbCircle
 10
24.94221184405478
 20
19.04999945063826
 30
0.0
 40
1.399999999999999
100
AcDbArc
 50
90.0
 51
180.0
  0
ARC
  5
5B9
330
1A
100
AcDbEntity
  8
ZUWAKU
100
AcDbCircle
 10
24.94221184405478
 20
19.04999945063821
 30
0.0
 40
4.199999999999999
100
AcDbArc
 50
90.0
 51
180.0
  0
LINE
  5
5BA
330
1A
100
AcDbEntity
  8
ZUWAKU
100
AcDbLine
 10
79.32662923726184
 20
29.99999945063825
 30
0.0
 11
79.32662923726207
 21
0.7999994506383246
 31
0.0
  0
LINE
  5
5BB
330
1A
100
AcDbEntity
  8
ZUWAKU
100
AcDbLine
 10
79.52662923726188
 20
29.99999945063825
 30
0.0
 11
79.52662923726212
 21
0.7999994506383246
 31
0.0
  0
LINE
  5
5BC
330
1A
100
AcDbEntity
  8
ZUWAKU
100
AcDbLine
 10
79.12662923726202
 20
29.99999945063825
 30
0.0
 11
79.12662923726202
 21
0.7999994506383246
 31
0.0
  0
LINE
  5
5BD
330
1A
100
AcDbEntity
  8
ZUWAKU
100
AcDbLine
 10
64.14221184405483
 20
9.949999450638259
 30
0.0
 11
64.14221184405483
 21
22.72499945063825
 31
0.0
  0
LINE
  5
5BE
330
1A
100
AcDbEntity
  8
ZUWAKU
100
AcDbLine
 10
61.34221184405475
 20
22.72499945063825
 30
0.0
 11
61.34221184405475
 21
10.99999945063825
 31
0.0
  0
LINE
  5
5BF
330
1A
100
AcDbEntity
  8
ZUWAKU
100
AcDbLine
 10
69.0422118440548
 20
7.67499945063826
 30
0.0
 11
69.0422118440548
 21
22.72499945063825
 31
0.0
  0
LINE
  5
5C0
330
1A
100
AcDbEntity
  8
ZUWAKU
100
AcDbLine
 10
66.24221184405474
 20
22.72499945063825
 30
0.0
 11
66.24221184405474
 21
7.67499945063826
 31
0.0
  0
ARC
  5
5C1
330
1A
100
AcDbEntity
  8
ZUWAKU
100
AcDbCircle
 10
49.79221184405481
 20
18.63479742528296
 30
0.0
 40
1.399999999999999
100
AcDbArc
 50
180.0000000000016
 51
224.9999999999988
  0
ARC
  5
5C2
330
1A
100
AcDbEntity
  8
ZUWAKU
100
AcDbCircle
 10
49.79221184405481
 20
18.63479742528296
 30
0.0
 40
4.199999999999999
100
AcDbArc
 50
180.0
 51
225.0
  0
LINE
  5
5C3
330
1A
100
AcDbEntity
  8
ZUWAKU
100
AcDbLine
 10
37.31485832623275
 20
19.20504664420168
 30
0.0
 11
36.05010658089691
 21
15.19999945063828
 31
0.0
  0
LINE
  5
5C4
330
1A
100
AcDbEntity
  8
ZUWAKU
100
AcDbLine
 10
40.69221184405478
 20
22.72499945063825
 30
0.0
 11
40.69221184405478
 21
7.67499945063826
 31
0.0
  0
LINE
  5
5C5
330
1A
100
AcDbEntity
  8
ZUWAKU
100
AcDbLine
 10
43.49221184405474
 20
7.67499945063826
 30
0.0
 11
43.49221184405474
 21
22.72499945063825
 31
0.0
  0
LINE
  5
5C6
330
1A
100
AcDbEntity
  8
ZUWAKU
100
AcDbLine
 10
55.0422118440548
 20
22.72499945063825
 30
0.0
 11
55.0422118440548
 21
9.949999450638259
 31
0.0
  0
LINE
  5
5C7
330
1A
100
AcDbEntity
  8
ZUWAKU
100
AcDbLine
 10
57.84221184405476
 20
10.99999945063825
 30
0.0
 11
57.84221184405476
 21
22.72499945063825
 31
0.0
  0
LINE
  5
5C8
330
1A
100
AcDbEntity
  8
ZUWAKU
100
AcDbLine
 10
32.64221184405482
 20
17.12499945063826
 30
0.0
 11
32.64221184405482
 21
22.72499945063825
 31
0.0
  0
LINE
  5
5C9
330
1A
100
AcDbEntity
  8
ZUWAKU
100
AcDbLine
 10
29.84221184405475
 20
22.72499945063825
 30
0.0
 11
29.84221184405475
 21
7.67499945063826
 31
0.0
  0
LINE
  5
5CA
330
1A
100
AcDbEntity
  8
ZUWAKU
100
AcDbLine
 10
35.67634678137062
 20
22.88309341880523
 30
0.0
 11
33.80807690673885
 21
16.96690548247129
 31
0.0
  0
LINE
  5
5CB
330
1A
100
AcDbEntity
  8
ZUWAKU
100
AcDbLine
 10
60.2922118440548
 20
9.949999450638259
 30
0.0
 11
58.89221184405482
 21
9.949999450638259
 31
0.0
  0
LINE
  5
5CC
330
1A
100
AcDbEntity
  8
ZUWAKU
100
AcDbLine
 10
57.84221184405476
 20
7.149999450638262
 30
0.0
 11
61.34221184405475
 21
7.149999450638262
 31
0.0
  0
LINE
  5
5CD
330
1A
100
AcDbEntity
  8
ZUWAKU
100
AcDbLine
 10
41.21721184405475
 20
7.149999450638262
 30
0.0
 11
42.96721184405476
 21
7.149999450638262
 31
0.0
  0
LINE
  5
5CE
330
1A
100
AcDbEntity
  8
ZUWAKU
100
AcDbLine
 10
35.67634678137062
 20
7.516905482471287
 30
0.0
 11
33.80807690673885
 21
13.43309341880522
 31
0.0
  0
ARC
  5
5CF
330
1A
100
AcDbEntity
  8
ZUWAKU
100
AcDbCircle
 10
33.30744600754349
 20
17.12499945063826
 30
0.0
 40
0.525
100
AcDbArc
 50
270.0
 51
342.4744316262769
  0
LINE
  5
5D0
330
1A
100
AcDbEntity
  8
ZUWAKU
100
AcDbLine
 10
33.30744600754349
 20
16.59999945063825
 30
0.0
 11
33.1672118440548
 21
16.59999945063825
 31
0.0
  0
LINE
  5
5D1
330
1A
100
AcDbEntity
  8
ZUWAKU
100
AcDbLine
 10
33.1672118440548
 20
13.79999945063826
 30
0.0
 11
33.30744600754349
 21
13.79999945063826
 31
0.0
  0
ARC
  5
5D2
330
1A
100
AcDbEntity
  8
ZUWAKU
100
AcDbCircle
 10
33.1672118440548
 20
17.12499945063826
 30
0.0
 40
0.525
100
AcDbArc
 50
180.0
 51
270.0
  0
LINE
  5
5D3
330
1A
100
AcDbEntity
  8
ZUWAKU
100
AcDbLine
 10
30.36721184405474
 20
7.149999450638262
 30
0.0
 11
32.11721184405473
 21
7.149999450638262
 31
0.0
  0
ARC
  5
5D4
330
1A
100
AcDbEntity
  8
ZUWAKU
100
AcDbCircle
 10
32.11721184405473
 20
7.67499945063826
 30
0.0
 40
0.525
100
AcDbArc
 50
270.0
 51
0.0
  0
LINE
  5
5D5
330
1A
100
AcDbEntity
  8
ZUWAKU
100
AcDbLine
 10
32.64221184405482
 20
7.67499945063826
 30
0.0
 11
32.64221184405482
 21
13.27499945063826
 31
0.0
  0
LINE
  5
5D6
330
1A
100
AcDbEntity
  8
ZUWAKU
100
AcDbLine
 10
27.39221184405483
 20
9.42499945063826
 30
0.0
 11
27.39221184405483
 21
7.67499945063826
 31
0.0
  0
ARC
  5
5D7
330
1A
100
AcDbEntity
  8
ZUWAKU
100
AcDbCircle
 10
26.86721184405473
 20
7.67499945063826
 30
0.0
 40
0.525
100
AcDbArc
 50
270.0
 51
0.0
  0
ARC
  5
5D8
330
1A
100
AcDbEntity
  8
ZUWAKU
100
AcDbCircle
 10
26.86721184405473
 20
9.42499945063826
 30
0.0
 40
0.525
100
AcDbArc
 50
0.0
 51
90.0
  0
ARC
  5
5D9
330
1A
100
AcDbEntity
  8
ZUWAKU
100
AcDbCircle
 10
30.36721184405474
 20
7.67499945063826
 30
0.0
 40
0.525
100
AcDbArc
 50
180.0
 51
270.0
  0
ARC
  5
5DA
330
1A
100
AcDbEntity
  8
ZUWAKU
100
AcDbCircle
 10
33.30744600754349
 20
13.27499945063826
 30
0.0
 40
0.525
100
AcDbArc
 50
17.52556837372303
 51
90.0
  0
ARC
  5
5DB
330
1A
100
AcDbEntity
  8
ZUWAKU
100
AcDbCircle
 10
33.1672118440548
 20
13.27499945063826
 30
0.0
 40
0.525
100
AcDbArc
 50
90.0
 51
180.0
  0
ARC
  5
5DC
330
1A
100
AcDbEntity
  8
ZUWAKU
100
AcDbCircle
 10
41.21721184405475
 20
7.67499945063826
 30
0.0
 40
0.525
100
AcDbArc
 50
180.0
 51
270.0
  0
LINE
  5
5DD
330
1A
100
AcDbEntity
  8
ZUWAKU
100
AcDbLine
 10
36.1769776805661
 20
7.149999450638262
 30
0.0
 11
37.87586706017509
 21
7.149999450638262
 31
0.0
  0
ARC
  5
5DE
330
1A
100
AcDbEntity
  8
ZUWAKU
100
AcDbCircle
 10
37.87586706017509
 20
7.67499945063826
 30
0.0
 40
0.525
100
AcDbArc
 50
270.0
 51
17.52556837372303
  0
LINE
  5
5DF
330
1A
100
AcDbEntity
  8
ZUWAKU
100
AcDbLine
 10
38.37649795937057
 20
7.833093418805233
 30
0.0
 11
36.05010658089691
 21
15.19999945063828
 31
0.0
  0
ARC
  5
5E0
330
1A
100
AcDbEntity
  8
ZUWAKU
100
AcDbCircle
 10
36.1769776805661
 20
7.67499945063826
 30
0.0
 40
0.525
100
AcDbArc
 50
197.525568373723
 51
270.0
  0
ARC
  5
5E1
330
1A
100
AcDbEntity
  8
ZUWAKU
100
AcDbCircle
 10
57.84221184405476
 20
9.949999450638259
 30
0.0
 40
2.799999999999999
100
AcDbArc
 50
180.0
 51
270.0
  0
ARC
  5
5E2
330
1A
100
AcDbEntity
  8
ZUWAKU
100
AcDbCircle
 10
50.14221184405482
 20
9.949999450638259
 30
0.0
 40
2.799999999999999
100
AcDbArc
 50
270.0
 51
0.0
  0
LINE
  5
5E3
330
1A
100
AcDbEntity
  8
ZUWAKU
100
AcDbLine
 10
51.71206032503835
 20
14.73504995697708
 30
0.0
 11
48.80226235039356
 21
17.64484793162176
 31
0.0
  0
LINE
  5
5E4
330
1A
100
AcDbEntity
  8
ZUWAKU
100
AcDbLine
 10
50.14221184405482
 20
10.47499945063826
 30
0.0
 11
50.14221184405482
 21
11.7652014759936
 31
0.0
  0
ARC
  5
5E5
330
1A
100
AcDbEntity
  8
ZUWAKU
100
AcDbCircle
 10
48.74221184405474
 20
11.7652014759936
 30
0.0
 40
1.399999999999999
100
AcDbArc
 50
0.0
 51
45.0
  0
ARC
  5
5E6
330
1A
100
AcDbEntity
  8
ZUWAKU
100
AcDbCircle
 10
49.61721184405473
 20
10.47499945063826
 30
0.0
 40
0.525
100
AcDbArc
 50
270.0
 51
0.0
  0
LINE
  5
5E7
330
1A
100
AcDbEntity
  8
ZUWAKU
100
AcDbLine
 10
46.11721184405474
 20
7.67499945063826
 30
0.0
 11
46.11721184405474
 21
9.42499945063826
 31
0.0
  0
ARC
  5
5E8
330
1A
100
AcDbEntity
  8
ZUWAKU
100
AcDbCircle
 10
46.64221184405483
 20
7.67499945063826
 30
0.0
 40
0.525
100
AcDbArc
 50
180.0
 51
270.0
  0
ARC
  5
5E9
330
1A
100
AcDbEntity
  8
ZUWAKU
100
AcDbCircle
 10
42.96721184405476
 20
7.67499945063826
 30
0.0
 40
0.525
100
AcDbArc
 50
270.0
 51
0.0
  0
ARC
  5
5EA
330
1A
100
AcDbEntity
  8
ZUWAKU
100
AcDbCircle
 10
46.64221184405483
 20
9.42499945063826
 30
0.0
 40
0.525
100
AcDbArc
 50
90.0
 51
180.0
  0
LINE
  5
5EB
330
1A
100
AcDbEntity
  8
ZUWAKU
100
AcDbLine
 10
46.64221184405483
 20
9.949999450638259
 30
0.0
 11
49.61721184405473
 21
9.949999450638259
 31
0.0
  0
LINE
  5
5EC
330
1A
100
AcDbEntity
  8
ZUWAKU
100
AcDbLine
 10
46.64221184405483
 20
7.149999450638262
 30
0.0
 11
50.14221184405482
 21
7.149999450638262
 31
0.0
  0
LINE
  5
5ED
330
1A
100
AcDbEntity
  8
ZUWAKU
100
AcDbLine
 10
46.8223633630713
 20
15.66494894429943
 30
0.0
 11
49.73216133771598
 21
12.75515096965477
 31
0.0
  0
LINE
  5
5EE
330
1A
100
AcDbEntity
  8
ZUWAKU
100
AcDbLine
 10
52.94221184405478
 20
9.949999450638259
 30
0.0
 11
52.94221184405478
 21
11.7652014759936
 31
0.0
  0
ARC
  5
5EF
330
1A
100
AcDbEntity
  8
ZUWAKU
100
AcDbCircle
 10
48.74221184405474
 20
11.76520147599356
 30
0.0
 40
4.199999999999999
100
AcDbArc
 50
0.0
 51
45.0
  0
ARC
  5
5F0
330
1A
100
AcDbEntity
  8
ZUWAKU
100
AcDbCircle
 10
58.89221184405482
 20
10.99999945063825
 30
0.0
 40
1.049999999999999
100
AcDbArc
 50
180.0
 51
270.0
  0
ARC
  5
5F1
330
1A
100
AcDbEntity
  8
ZUWAKU
100
AcDbCircle
 10
61.34221184405475
 20
9.949999450638259
 30
0.0
 40
2.799999999999999
100
AcDbArc
 50
270.0
 51
0.0
  0
LINE
  5
5F2
330
1A
100
AcDbEntity
  8
ZUWAKU
100
AcDbLine
 10
66.76721184405483
 20
7.149999450638262
 30
0.0
 11
68.51721184405483
 21
7.149999450638262
 31
0.0
  0
ARC
  5
5F3
330
1A
100
AcDbEntity
  8
ZUWAKU
100
AcDbCircle
 10
66.76721184405483
 20
7.67499945063826
 30
0.0
 40
0.525
100
AcDbArc
 50
180.0
 51
270.0
  0
ARC
  5
5F4
330
1A
100
AcDbEntity
  8
ZUWAKU
100
AcDbCircle
 10
60.2922118440548
 20
10.99999945063825
 30
0.0
 40
1.049999999999999
100
AcDbArc
 50
270.0
 51
0.0
  0
ARC
  5
5F5
330
1A
100
AcDbEntity
  8
ZUWAKU
100
AcDbCircle
 10
68.51721184405483
 20
7.67499945063826
 30
0.0
 40
0.525
100
AcDbArc
 50
270.0
 51
0.0
  0
LINE
  5
5F6
330
1A
100
AcDbEntity
  8
ZUWAKU
100
AcDbLine
 10
42.96721184405476
 20
23.24999945063826
 30
0.0
 11
41.21721184405475
 21
23.24999945063826
 31
0.0
  0
ARC
  5
5F7
330
1A
100
AcDbEntity
  8
ZUWAKU
100
AcDbCircle
 10
32.11721184405473
 20
22.72499945063825
 30
0.0
 40
0.525
100
AcDbArc
 50
0.0
 51
90.0
  0
LINE
  5
5F8
330
1A
100
AcDbEntity
  8
ZUWAKU
100
AcDbLine
 10
32.11721184405473
 20
23.24999945063826
 30
0.0
 11
30.36721184405474
 21
23.24999945063826
 31
0.0
  0
ARC
  5
5F9
330
1A
100
AcDbEntity
  8
ZUWAKU
100
AcDbCircle
 10
26.86721184405473
 20
22.72499945063825
 30
0.0
 40
0.525
100
AcDbArc
 50
0.0
 51
90.0
  0
ARC
  5
5FA
330
1A
100
AcDbEntity
  8
ZUWAKU
100
AcDbCircle
 10
30.36721184405474
 20
22.72499945063825
 30
0.0
 40
0.525
100
AcDbArc
 50
90.0
 51
180.0
  0
ARC
  5
5FB
330
1A
100
AcDbEntity
  8
ZUWAKU
100
AcDbCircle
 10
26.86721184405473
 20
20.97499945063825
 30
0.0
 40
0.525
100
AcDbArc
 50
270.0
 51
0.0
  0
LINE
  5
5FC
330
1A
100
AcDbEntity
  8
ZUWAKU
100
AcDbLine
 10
27.39221184405483
 20
22.72499945063825
 30
0.0
 11
27.39221184405483
 21
20.97499945063825
 31
0.0
  0
ARC
  5
5FD
330
1A
100
AcDbEntity
  8
ZUWAKU
100
AcDbCircle
 10
41.21721184405475
 20
22.72499945063825
 30
0.0
 40
0.525
100
AcDbArc
 50
90.0
 51
180.0
  0
LINE
  5
5FE
330
1A
100
AcDbEntity
  8
ZUWAKU
100
AcDbLine
 10
36.1769776805661
 20
23.24999945063826
 30
0.0
 11
37.87586706017509
 21
23.24999945063826
 31
0.0
  0
ARC
  5
5FF
330
1A
100
AcDbEntity
  8
ZUWAKU
100
AcDbCircle
 10
37.87586706017509
 20
22.72499945063825
 30
0.0
 40
0.525
100
AcDbArc
 50
342.4744316262769
 51
90.0
  0
LINE
  5
600
330
1A
100
AcDbEntity
  8
ZUWAKU
100
AcDbLine
 10
38.37649795937057
 20
22.56690548247129
 30
0.0
 11
37.31485832623275
 21
19.20504664420168
 31
0.0
  0
ARC
  5
601
330
1A
100
AcDbEntity
  8
ZUWAKU
100
AcDbCircle
 10
36.1769776805661
 20
22.72499945063825
 30
0.0
 40
0.525
100
AcDbArc
 50
90.0
 51
162.4744316262769
  0
LINE
  5
602
330
1A
100
AcDbEntity
  8
ZUWAKU
100
AcDbLine
 10
48.39221184405483
 20
23.24999945063826
 30
0.0
 11
51.89221184405482
 21
23.24999945063826
 31
0.0
  0
LINE
  5
603
330
1A
100
AcDbEntity
  8
ZUWAKU
100
AcDbLine
 10
51.89221184405482
 20
20.44999945063826
 30
0.0
 11
48.9172118440548
 21
20.44999945063826
 31
0.0
  0
ARC
  5
604
330
1A
100
AcDbEntity
  8
ZUWAKU
100
AcDbCircle
 10
48.9172118440548
 20
19.92499945063826
 30
0.0
 40
0.525
100
AcDbArc
 50
90.0
 51
180.0
  0
LINE
  5
605
330
1A
100
AcDbEntity
  8
ZUWAKU
100
AcDbLine
 10
48.39221184405483
 20
19.92499945063826
 30
0.0
 11
48.39221184405483
 21
18.63479742528292
 31
0.0
  0
ARC
  5
606
330
1A
100
AcDbEntity
  8
ZUWAKU
100
AcDbCircle
 10
42.96721184405476
 20
22.72499945063825
 30
0.0
 40
0.525
100
AcDbArc
 50
0.0
 51
90.0
  0
LINE
  5
607
330
1A
100
AcDbEntity
  8
ZUWAKU
100
AcDbLine
 10
45.59221184405475
 20
20.44999945063826
 30
0.0
 11
45.59221184405475
 21
18.63479742528292
 31
0.0
  0
ARC
  5
608
330
1A
100
AcDbEntity
  8
ZUWAKU
100
AcDbCircle
 10
48.39221184405483
 20
20.44999945063826
 30
0.0
 40
2.799999999999999
100
AcDbArc
 50
90.0
 51
180.0
  0
ARC
  5
609
330
1A
100
AcDbEntity
  8
ZUWAKU
100
AcDbCircle
 10
57.31721184405478
 20
22.72499945063825
 30
0.0
 40
0.525
100
AcDbArc
 50
0.0
 51
90.0
  0
ARC
  5
60A
330
1A
100
AcDbEntity
  8
ZUWAKU
100
AcDbCircle
 10
55.56721184405478
 20
22.72499945063825
 30
0.0
 40
0.525
100
AcDbArc
 50
90.0
 51
180.0
  0
LINE
  5
60B
330
1A
100
AcDbEntity
  8
ZUWAKU
100
AcDbLine
 10
57.31721184405478
 20
23.24999945063826
 30
0.0
 11
55.56721184405478
 21
23.24999945063826
 31
0.0
  0
ARC
  5
60C
330
1A
100
AcDbEntity
  8
ZUWAKU
100
AcDbCircle
 10
51.89221184405482
 20
22.72499945063825
 30
0.0
 40
0.525
100
AcDbArc
 50
0.0
 51
90.0
  0
ARC
  5
60D
330
1A
100
AcDbEntity
  8
ZUWAKU
100
AcDbCircle
 10
51.89221184405482
 20
20.97499945063825
 30
0.0
 40
0.525
100
AcDbArc
 50
270.0
 51
0.0
  0
LINE
  5
60E
330
1A
100
AcDbEntity
  8
ZUWAKU
100
AcDbLine
 10
52.41721184405481
 20
22.72499945063825
 30
0.0
 11
52.41721184405481
 21
20.97499945063825
 31
0.0
  0
LINE
  5
60F
330
1A
100
AcDbEntity
  8
ZUWAKU
100
AcDbLine
 10
68.51721184405483
 20
23.24999945063826
 30
0.0
 11
66.76721184405483
 21
23.24999945063826
 31
0.0
  0
ARC
  5
610
330
1A
100
AcDbEntity
  8
ZUWAKU
100
AcDbCircle
 10
66.76721184405483
 20
22.72499945063825
 30
0.0
 40
0.525
100
AcDbArc
 50
90.0
 51
180.0
  0
ARC
  5
611
330
1A
100
AcDbEntity
  8
ZUWAKU
100
AcDbCircle
 10
63.61721184405474
 20
22.72499945063825
 30
0.0
 40
0.525
100
AcDbArc
 50
0.0
 51
90.0
  0
LINE
  5
612
330
1A
100
AcDbEntity
  8
ZUWAKU
100
AcDbLine
 10
63.61721184405474
 20
23.24999945063826
 30
0.0
 11
61.86721184405474
 21
23.24999945063826
 31
0.0
  0
ARC
  5
613
330
1A
100
AcDbEntity
  8
ZUWAKU
100
AcDbCircle
 10
61.86721184405474
 20
22.72499945063825
 30
0.0
 40
0.525
100
AcDbArc
 50
90.0
 51
180.0
  0
ARC
  5
614
330
1A
100
AcDbEntity
  8
ZUWAKU
100
AcDbCircle
 10
68.51721184405483
 20
22.72499945063825
 30
0.0
 40
0.525
100
AcDbArc
 50
0.0
 51
90.0
  0
TEXT
  5
615
330
1A
100
AcDbEntity
  8
MOJI
100
AcDbText
 10
239.8272023701247
 20
18.00492050804564
 30
0.0
 40
5.599999999999999
  1
洋風じょうごⅡ型
 41
0.9
  7
ｽﾀｲﾙ1
100
AcDbText
  0
TEXT
  5
616
330
1A
100
AcDbEntity
  8
MOJI
100
AcDbText
 10
239.8272023701247
 20
3.204920508045677
 30
0.0
 40
5.599999999999999
  1
ＲＶ１０５－ＵＴ６０
 41
0.9
  7
ｽﾀｲﾙ1
100
AcDbText
  0
LINE
  5
617
330
1A
100
AcDbEntity
  8
ZUWAKU
100
AcDbLine
 10
208.2466009793415
 20
29.99999945063825
 30
0.0
 11
208.2466009793415
 21
0.7999994506383246
 31
0.0
  0
LINE
  5
618
330
1A
100
AcDbEntity
  8
ZUWAKU
100
AcDbLine
 10
208.6466009793414
 20
29.99999945063825
 30
0.0
 11
208.6466009793416
 21
0.7999994506383246
 31
0.0
  0
LINE
  5
619
330
1A
100
AcDbEntity
  8
ZUWAKU
100
AcDbLine
 10
208.4466009793414
 20
29.99999945063825
 30
0.0
 11
208.4466009793416
 21
0.7999994506383246
 31
0.0
  0
TEXT
  5
61A
330
1A
100
AcDbEntity
  8
ZUWAKU
100
AcDbText
 10
209.7240460015512
 20
9.655355989023874
 30
0.0
 40
4.0
  1
サイズ
 41
0.9
  7
ｽﾀｲﾙ1
100
AcDbText
  0
TEXT
  5
61B
330
1A
100
AcDbEntity
  8
ZUWAKU
100
AcDbText
 10
209.7240460015509
 20
24.05535598902384
 30
0.0
 40
4.0
  1
品名
 41
0.9
  7
ｽﾀｲﾙ1
100
AcDbText
  0
LINE
  5
61C
330
1A
100
AcDbEntity
  8
ZUWAKU
100
AcDbLine
 10
648.8172021994778
 20
15.19999945063828
 30
0.0
 11
697.2490102378149
 21
15.19999945063829
 31
0.0
  0
LINE
  5
61D
330
1A
100
AcDbEntity
  8
ZUWAKU
100
AcDbLine
 10
648.817202199478
 20
15.39999945063829
 30
0.0
 11
697.2490102378149
 21
15.39999945063829
 31
0.0
  0
LINE
  5
61E
330
1A
100
AcDbEntity
  8
ZUWAKU
100
AcDbLine
 10
648.8172021994778
 20
15.59999945063829
 30
0.0
 11
697.2490102378149
 21
15.59999945063829
 31
0.0
  0
TEXT
  5
61F
330
1A
100
AcDbEntity
  8
ZUWAKU
100
AcDbText
 10
658.203937376576
 20
18.00492050804564
 30
0.0
 40
5.599999999999999
  1
　　．　　．　　
 41
0.9
  7
ｽﾀｲﾙ1
100
AcDbText
  0
TEXT
  5
620
330
1A
100
AcDbEntity
  8
SUNPOU
100
AcDbText
 10
661.9071641742184
 20
36.65388898337175
 30
0.0
 40
6.0
  1
※b　エルボの差込み寸法を示す
100
AcDbText
  0
TEXT
  5
621
330
1A
100
AcDbEntity
  8
SUNPOU
100
AcDbText
 10
661.9071641742184
 20
46.25388898337178
 30
0.0
 40
6.0
  1
※a　のきといの縁切り間隔寸法を示す
100
AcDbText
  0
LINE
  5
622
330
1A
100
AcDbEntity
  8
ZUWAKU
100
AcDbLine
 10
505.1991791874145
 20
15.19999945063829
 30
0.0
 11
552.5269554553861
 21
15.19999945063829
 31
0.0
  0
LINE
  5
623
330
1A
100
AcDbEntity
  8
ZUWAKU
100
AcDbLine
 10
505.1991791874145
 20
15.39999945063829
 30
0.0
 11
552.5269554553861
 21
15.39999945063829
 31
0.0
  0
LINE
  5
624
330
1A
100
AcDbEntity
  8
ZUWAKU
100
AcDbLine
 10
505.1991791874145
 20
15.59999945063829
 30
0.0
 11
552.5269554553861
 21
15.59999945063829
 31
0.0
  0
TEXT
  5
625
330
1A
100
AcDbEntity
  8
MOJI
100
AcDbText
 10
464.5946256925126
 20
11.94261717229824
 30
0.0
 40
5.599999999999999
  1
ＧＱ６５□
 41
0.9
  7
ｽﾀｲﾙ1
100
AcDbText
  0
LINE
  5
626
330
1A
100
AcDbEntity
  8
ZUWAKU
100
AcDbLine
 10
447.6243636602649
 20
29.99999945063825
 30
0.0
 11
447.624363660265
 21
0.7999994506383246
 31
0.0
  0
LINE
  5
627
330
1A
100
AcDbEntity
  8
ZUWAKU
100
AcDbLine
 10
447.8243636602648
 20
29.99999945063825
 30
0.0
 11
447.8243636602651
 21
0.7999994506383246
 31
0.0
  0
LINE
  5
628
330
1A
100
AcDbEntity
  8
ZUWAKU
100
AcDbLine
 10
447.424363660265
 20
29.99999945063825
 30
0.0
 11
447.424363660265
 21
0.7999994506383246
 31
0.0
  0
TEXT
  5
629
330
1A
100
AcDbEntity
  8
MOJI
100
AcDbText
 10
528.0409076615865
 20
18.00492050804564
 30
0.0
 40
5.599999999999999
  1
Ａ３
 41
0.9
  7
ｽﾀｲﾙ1
100
AcDbText
  0
LINE
  5
62A
330
1A
100
AcDbEntity
  8
ZUWAKU
100
AcDbLine
 10
504.9991791874145
 20
29.99999945063825
 30
0.0
 11
504.9991791874147
 21
0.7999994506383246
 31
0.0
  0
LINE
  5
62B
330
1A
100
AcDbEntity
  8
ZUWAKU
100
AcDbLine
 10
505.1991791874145
 20
29.99999945063825
 30
0.0
 11
505.1991791874147
 21
0.7999994506383246
 31
0.0
  0
LINE
  5
62C
330
1A
100
AcDbEntity
  8
ZUWAKU
100
AcDbLine
 10
504.7991791874146
 20
29.99999945063825
 30
0.0
 11
504.7991791874146
 21
0.7999994506383246
 31
0.0
  0
TEXT
  5
62D
330
1A
100
AcDbEntity
  8
ZUWAKU
100
AcDbText
 10
462.6937613447807
 20
2.614070361777748
 30
0.0
 40
3.0
  1
□には色品番が入ります
 41
0.9
  7
ｽﾀｲﾙ1
100
AcDbText
  0
TEXT
  5
62E
330
1A
100
AcDbEntity
  8
ZUWAKU
100
AcDbText
 10
506.6766242096243
 20
9.655355989023874
 30
0.0
 40
4.0
  1
縮尺
 41
0.9
  7
ｽﾀｲﾙ1
100
AcDbText
  0
TEXT
  5
62F
330
1A
100
AcDbEntity
  8
MOJI
100
AcDbText
 10
528.0409076615865
 20
3.204920508045677
 30
0.0
 40
5.599999999999999
  1
１/２
 41
0.9
  7
ｽﾀｲﾙ1
100
AcDbText
  0
TEXT
  5
630
330
1A
100
AcDbEntity
  8
ZUWAKU
100
AcDbText
 10
449.3018086824745
 20
24.05535598902384
 30
0.0
 40
4.0
  1
品番
 41
0.9
  7
ｽﾀｲﾙ1
100
AcDbText
  0
TEXT
  5
631
330
1A
100
AcDbEntity
  8
ZUWAKU
100
AcDbText
 10
506.6766242096242
 20
24.05535598902384
 30
0.0
 40
4.0
  1
用紙
 41
0.9
  7
ｽﾀｲﾙ1
100
AcDbText
  0
LINE
  5
632
330
1A
100
AcDbEntity
  8
ZUWAKU
100
AcDbLine
 10
648.617202199478
 20
29.99999945063825
 30
0.0
 11
648.6172021994782
 21
0.7999994506383246
 31
0.0
  0
LINE
  5
633
330
1A
100
AcDbEntity
  8
ZUWAKU
100
AcDbLine
 10
648.817202199478
 20
29.99999945063825
 30
0.0
 11
648.8172021994783
 21
0.7999994506383246
 31
0.0
  0
LINE
  5
634
330
1A
100
AcDbEntity
  8
ZUWAKU
100
AcDbLine
 10
648.4172021994782
 20
29.99999945063825
 30
0.0
 11
648.4172021994782
 21
0.7999994506383246
 31
0.0
  0
LINE
  5
635
330
1A
100
AcDbEntity
  8
ZUWAKU
100
AcDbLine
 10
552.7269554553859
 20
29.99999945063825
 30
0.0
 11
552.7269554553861
 21
0.7999994506383246
 31
0.0
  0
LINE
  5
636
330
1A
100
AcDbEntity
  8
ZUWAKU
100
AcDbLine
 10
552.9269554553859
 20
29.99999945063825
 30
0.0
 11
552.9269554553861
 21
0.7999994506383246
 31
0.0
  0
LINE
  5
637
330
1A
100
AcDbEntity
  8
ZUWAKU
100
AcDbLine
 10
552.5269554553861
 20
29.99999945063825
 30
0.0
 11
552.5269554553861
 21
0.7999994506383246
 31
0.0
  0
TEXT
  5
638
330
1A
100
AcDbEntity
  8
ZUWAKU
100
AcDbText
 10
650.2946472216876
 20
24.05535598902384
 30
0.0
 40
4.0
  1
DATE
 41
0.9
  7
ｽﾀｲﾙ1
100
AcDbText
  0
LINE
  5
639
330
1A
100
AcDbEntity
  8
ZUWAKU
100
AcDbLine
 10
697.2490102378149
 20
29.99999945063825
 30
0.0
 11
697.2490102378149
 21
0.7999994506383246
 31
0.0
  0
LINE
  5
63A
330
1A
100
AcDbEntity
  8
ZUWAKU
100
AcDbLine
 10
697.4490102378149
 20
29.99999945063825
 30
0.0
 11
697.4490102378149
 21
0.7999994506383246
 31
0.0
  0
LINE
  5
63B
330
1A
100
AcDbEntity
  8
ZUWAKU
100
AcDbLine
 10
697.6490102378147
 20
29.99999945063825
 30
0.0
 11
697.649010237815
 21
0.7999994506383246
 31
0.0
  0
LINE
  5
63C
330
1A
100
AcDbEntity
  8
ZUWAKU
100
AcDbLine
 10
697.8490102378148
 20
29.99999945063825
 30
0.0
 11
697.849010237815
 21
0.7999994506383246
 31
0.0
  0
TEXT
  5
63D
330
1A
100
AcDbEntity
  8
ZUWAKU
100
AcDbText
 10
708.5280838815174
 20
17.55383878632506
 30
0.0
 40
6.0
  1
積水化学工業株式会社
 41
0.9
  7
ｽﾀｲﾙ1
100
AcDbText
  0
TEXT
  5
63E
330
1A
100
AcDbEntity
  8
ZUWAKU
100
AcDbText
 10
708.5280838815174
 20
6.648839764492322
 30
0.0
 40
6.0
  1
建材事業部
 41
0.9
  7
ｽﾀｲﾙ1
100
AcDbText
  0
VIEWPORT
  5
22
330
17
100
AcDbEntity
 67
     1
  8
0
100
AcDbViewport
 10
313.6808219178082
 20
148.5
 30
0.0
 40
627.3616438356165
 41
297.0
 68
     2
 69
     1
1001
ACAD
1000
MVIEW
1002
{
1070
    16
1010
0.0
1020
0.0
1030
0.0
1010
0.0
1020
0.0
1030
1.0
1040
0.0
1040
297.0
1040
313.6808219178082
1040
148.5
1040
50.0
1040
0.0
1040
0.0
1070
     0
1070
   100
1070
     1
1070
     0
1070
     0
1070
     0
1070
     0
1070
     0
1040
0.0
1040
0.0
1040
0.0
1040
1.0
1040
1.0
1040
10.0
1040
10.0
1070
     0
1002
{
1002
}
1002
}
  0
VIEWPORT
  5
64
330
17
100
AcDbEntity
 67
     1
  8
VIEWPORT
100
AcDbViewport
 10
210.0
 20
148.5
 30
0.0
 40
420.0
 41
297.0
 68
     1
 69
     2
1001
ACAD
1000
MVIEW
1002
{
1070
    16
1010
0.0
1020
0.0
1030
0.0
1010
0.0
1020
0.0
1030
1.0
1040
0.0
1040
605.8799999999998
1040
420.0
1040
297.0
1040
50.0
1040
0.0
1040
0.0
1070
     0
1070
   100
1070
     1
1070
     0
1070
     0
1070
     0
1070
     0
1070
     0
1040
0.0
1040
0.0
1040
0.0
1040
10.0
1040
10.0
1040
0.0
1040
0.0
1070
     0
1002
{
1002
}
1002
}
  0
ENDSEC
  0
SECTION
  2
OBJECTS
  0
DICTIONARY
  5
C
330
0
100
AcDbDictionary
  3
ACAD_GROUP
350
D
  3
ACAD_LAYOUT
350
48D
  3
ACAD_MLINESTYLE
350
E
  3
ACAD_PLOTSETTINGS
350
48E
  3
ACAD_PLOTSTYLENAME
350
48B
  3
ACDBHEADERROUNDTRIPXREC
350
6A3
  0
DICTIONARY
  5
4BC
330
1A
100
AcDbDictionary
280
     1
  3
ACAD_LAYOUTSELFREF
360
6C5
  0
DICTIONARY
  5
4BA
330
17
100
AcDbDictionary
280
     1
  3
ACAD_LAYOUTSELFREF
360
6C4
  0
DICTIONARY
  5
D
102
{ACAD_REACTORS
330
C
102
}
330
C
100
AcDbDictionary
  0
DICTIONARY
  5
48D
102
{ACAD_REACTORS
330
C
102
}
330
C
100
AcDbDictionary
  0
DICTIONARY
  5
E
102
{ACAD_REACTORS
330
C
102
}
330
C
100
AcDbDictionary
  3
STANDARD
350
13
  0
DICTIONARY
  5
48E
102
{ACAD_REACTORS
330
C
102
}
330
C
100
AcDbDictionary
  0
ACDBDICTIONARYWDFLT
  5
48B
102
{ACAD_REACTORS
330
C
102
}
330
C
100
AcDbDictionary
281
     1
  3
Normal
350
48C
100
AcDbDictionaryWithDefault
340
48C
1001
ACAD
1000
TREAT_AS_HARD
1070
     0
  0
DICTIONARY
  5
6A3
102
{ACAD_REACTORS
330
C
102
}
330
C
100
AcDbDictionary
  3
TSTACKALIGN
350
6A4
  3
TSTACKSIZE
350
6A5
  3
HYPERLINKBASE
350
6A6
  3
STYLESHEET
350
6A7
  3
LAYOUTDICT
350
6A8
  3
PLOTSETDICT
350
6A9
  3
PLOTSTYLNAMDICT
350
6AA
  3
LWETCUNION
350
6AB
  3
INSUNITS
350
6AC
  3
CEPSNTYPE
350
6AD
  3
FINGERPRINTGUID
350
6AE
  3
VERSIONGUID
350
6AF
  3
PSVPSCALE
350
6B0
  3
DIMSTYLEDATA
350
6B1
  3
PUCSORTHOREF
350
6B2
  3
PUCSORTHOVIEW
350
6B3
  3
PUCSBASE
350
6B4
  3
PUCSORGTOP
350
6B5
  3
PUCSORGBOTTOM
350
6B6
  3
PUCSORGLEFT
350
6B7
  3
PUCSORGRIGHT
350
6B8
  3
PUCSORGFRONT
350
6B9
  3
PUCSORGBACK
350
6BA
  3
UCSORTHOREF
350
6BB
  3
UCSORTHOVIEW
350
6BC
  3
UCSBASE
350
6BD
  3
UCSORGTOP
350
6BE
  3
UCSORGBOTTOM
350
6BF
  3
UCSORGLEFT
350
6C0
  3
UCSORGRIGHT
350
6C1
  3
UCSORGFRONT
350
6C2
  3
UCSORGBACK
350
6C3
  0
XRECORD
  5
6C5
102
{ACAD_REACTORS
330
4BC
102
}
330
4BC
100
AcDbXrecord
340
1A
  0
XRECORD
  5
6C4
102
{ACAD_REACTORS
330
4BA
102
}
330
4BA
100
AcDbXrecord
340
17
  0
MLINESTYLE
  5
13
102
{ACAD_REACTORS
330
E
102
}
330
E
100
AcDbMlineStyle
  2
STANDARD
 70
     0
  3

 62
     0
 51
90.0
 52
90.0
 71
     2
 49
0.5
 62
   256
  6
BYLAYER
 49
-0.5
 62
   256
  6
BYLAYER
  0
ACDBPLACEHOLDER
  5
48C
102
{ACAD_REACTORS
330
48B
102
}
330
48B
100
AcDbPlaceHolder
280
     0
  0
XRECORD
  5
6A4
102
{ACAD_REACTORS
330
6A3
102
}
330
6A3
100
AcDbXrecord
 90
        1
  0
XRECORD
  5
6A5
102
{ACAD_REACTORS
330
6A3
102
}
330
6A3
100
AcDbXrecord
 90
       70
  0
XRECORD
  5
6A6
102
{ACAD_REACTORS
330
6A3
102
}
330
6A3
100
AcDbXrecord
  1

  0
XRECORD
  5
6A7
102
{ACAD_REACTORS
330
6A3
102
}
330
6A3
100
AcDbXrecord
  1
systemprinter.ctb
  0
XRECORD
  5
6A8
102
{ACAD_REACTORS
330
6A3
102
}
330
6A3
100
AcDbXrecord
340
48D
  0
XRECORD
  5
6A9
102
{ACAD_REACTORS
330
6A3
102
}
330
6A3
100
AcDbXrecord
340
48E
  0
XRECORD
  5
6AA
102
{ACAD_REACTORS
330
6A3
102
}
330
6A3
100
AcDbXrecord
340
48B
  0
XRECORD
  5
6AB
102
{ACAD_REACTORS
330
6A3
102
}
330
6A3
100
AcDbXrecord
 90
    10781
  0
XRECORD
  5
6AC
102
{ACAD_REACTORS
330
6A3
102
}
330
6A3
100
AcDbXrecord
 90
        0
  0
XRECORD
  5
6AD
102
{ACAD_REACTORS
330
6A3
102
}
330
6A3
100
AcDbXrecord
 90
        0
  0
XRECORD
  5
6AE
102
{ACAD_REACTORS
330
6A3
102
}
330
6A3
100
AcDbXrecord
  1
{4011F2EC-D62F-45E4-B34D-D8A059825AA8}
  0
XRECORD
  5
6AF
102
{ACAD_REACTORS
330
6A3
102
}
330
6A3
100
AcDbXrecord
  1
{4F8ACB09-B1B4-4CD8-B5BA-D682EA5745F9}
  0
XRECORD
  5
6B0
102
{ACAD_REACTORS
330
6A3
102
}
330
6A3
100
AcDbXrecord
 40
0.0
  0
XRECORD
  5
6B1
102
{ACAD_REACTORS
330
6A3
102
}
330
6A3
100
AcDbXrecord
1000
DSTYLE
1002
{
1070
   341
340
6D
1070
   343
340
6D
1070
   344
340
6D
1070
   371
 70
    -1
1070
   372
 70
    -1
1002
}
  0
XRECORD
  5
6B2
102
{ACAD_REACTORS
330
6A3
102
}
330
6A3
100
AcDbXrecord
340
0
  0
XRECORD
  5
6B3
102
{ACAD_REACTORS
330
6A3
102
}
330
6A3
100
AcDbXrecord
 70
     0
  0
XRECORD
  5
6B4
102
{ACAD_REACTORS
330
6A3
102
}
330
6A3
100
AcDbXrecord
340
0
  0
XRECORD
  5
6B5
102
{ACAD_REACTORS
330
6A3
102
}
330
6A3
100
AcDbXrecord
 10
0.0
 20
0.0
 30
0.0
  0
XRECORD
  5
6B6
102
{ACAD_REACTORS
330
6A3
102
}
330
6A3
100
AcDbXrecord
 10
0.0
 20
0.0
 30
0.0
  0
XRECORD
  5
6B7
102
{ACAD_REACTORS
330
6A3
102
}
330
6A3
100
AcDbXrecord
 10
0.0
 20
0.0
 30
0.0
  0
XRECORD
  5
6B8
102
{ACAD_REACTORS
330
6A3
102
}
330
6A3
100
AcDbXrecord
 10
0.0
 20
0.0
 30
0.0
  0
XRECORD
  5
6B9
102
{ACAD_REACTORS
330
6A3
102
}
330
6A3
100
AcDbXrecord
 10
0.0
 20
0.0
 30
0.0
  0
XRECORD
  5
6BA
102
{ACAD_REACTORS
330
6A3
102
}
330
6A3
100
AcDbXrecord
 10
0.0
 20
0.0
 30
0.0
  0
XRECORD
  5
6BB
102
{ACAD_REACTORS
330
6A3
102
}
330
6A3
100
AcDbXrecord
340
0
  0
XRECORD
  5
6BC
102
{ACAD_REACTORS
330
6A3
102
}
330
6A3
100
AcDbXrecord
 70
     0
  0
XRECORD
  5
6BD
102
{ACAD_REACTORS
330
6A3
102
}
330
6A3
100
AcDbXrecord
340
0
  0
XRECORD
  5
6BE
102
{ACAD_REACTORS
330
6A3
102
}
330
6A3
100
AcDbXrecord
 10
0.0
 20
0.0
 30
0.0
  0
XRECORD
  5
6BF
102
{ACAD_REACTORS
330
6A3
102
}
330
6A3
100
AcDbXrecord
 10
0.0
 20
0.0
 30
0.0
  0
XRECORD
  5
6C0
102
{ACAD_REACTORS
330
6A3
102
}
330
6A3
100
AcDbXrecord
 10
0.0
 20
0.0
 30
0.0
  0
XRECORD
  5
6C1
102
{ACAD_REACTORS
330
6A3
102
}
330
6A3
100
AcDbXrecord
 10
0.0
 20
0.0
 30
0.0
  0
XRECORD
  5
6C2
102
{ACAD_REACTORS
330
6A3
102
}
330
6A3
100
AcDbXrecord
 10
0.0
 20
0.0
 30
0.0
  0
XRECORD
  5
6C3
102
{ACAD_REACTORS
330
6A3
102
}
330
6A3
100
AcDbXrecord
 10
0.0
 20
0.0
 30
0.0
  0
ENDSEC
  0
EOF
