  0
SECTION
  2
HEADER
  9
$ACADVER
  1
AC1014
  9
$ACADMAINTVER
 70
     9
  9
$DWGCODEPAGE
  3
ANSI_932
  9
$INSBASE
 10
0.0
 20
0.0
 30
0.0
  9
$EXTMIN
 10
-0.05126640194635
 20
-0.0362526699479986
 30
-0.0000000000112498
  9
$EXTMAX
 10
797.6628945888771
 20
551.6439420217511
 30
0.0000000000002956
  9
$LIMMIN
 10
0.0
 20
0.0
  9
$LIMMAX
 10
840.0
 20
594.0
  9
$ORTHOMODE
 70
     0
  9
$REGENMODE
 70
     1
  9
$FILLMODE
 70
     1
  9
$QTEXTMODE
 70
     0
  9
$MIRRTEXT
 70
     1
  9
$DRAGMODE
 70
     2
  9
$LTSCALE
 40
2.0
  9
$OSMODE
 70
    35
  9
$ATTMODE
 70
     1
  9
$TEXTSIZE
 40
5.0
  9
$TRACEWID
 40
1.0
  9
$TEXTSTYLE
  7
STANDARD
  9
$CLAYER
  8
SUNPOU
  9
$CELTYPE
  6
BYLAYER
  9
$CECOLOR
 62
   256
  9
$CELTSCALE
 40
1.0
  9
$DELOBJ
 70
     1
  9
$DISPSILH
 70
     0
  9
$DIMSCALE
 40
1.0
  9
$DIMASZ
 40
7.0
  9
$DIMEXO
 40
6.0
  9
$DIMDLI
 40
14.0
  9
$DIMRND
 40
0.0
  9
$DIMDLE
 40
0.0
  9
$DIMEXE
 40
3.0
  9
$DIMTP
 40
0.0
  9
$DIMTM
 40
0.0
  9
$DIMTXT
 40
6.0
  9
$DIMCEN
 40
150.0
  9
$DIMTSZ
 40
0.0
  9
$DIMTOL
 70
     0
  9
$DIMLIM
 70
     0
  9
$DIMTIH
 70
     0
  9
$DIMTOH
 70
     0
  9
$DIMSE1
 70
     0
  9
$DIMSE2
 70
     0
  9
$DIMTAD
 70
     3
  9
$DIMZIN
 70
     0
  9
$DIMBLK
  1

  9
$DIMASO
 70
     1
  9
$DIMSHO
 70
     1
  9
$DIMPOST
  1

  9
$DIMAPOST
  1

  9
$DIMALT
 70
     0
  9
$DIMALTD
 70
     2
  9
$DIMALTF
 40
25.4
  9
$DIMLFAC
 40
1.0
  9
$DIMTOFL
 70
     1
  9
$DIMTVP
 40
0.0
  9
$DIMTIX
 70
     0
  9
$DIMSOXD
 70
     0
  9
$DIMSAH
 70
     1
  9
$DIMBLK1
  1
OPEN
  9
$DIMBLK2
  1
OPEN
  9
$DIMSTYLE
  2
STANDARD
  9
$DIMCLRD
 70
   256
  9
$DIMCLRE
 70
   256
  9
$DIMCLRT
 70
   256
  9
$DIMTFAC
 40
1.0
  9
$DIMGAP
 40
2.0
  9
$DIMJUST
 70
     0
  9
$DIMSD1
 70
     0
  9
$DIMSD2
 70
     0
  9
$DIMTOLJ
 70
     1
  9
$DIMTZIN
 70
     0
  9
$DIMALTZ
 70
     0
  9
$DIMALTTZ
 70
     0
  9
$DIMFIT
 70
     3
  9
$DIMUPT
 70
     0
  9
$DIMUNIT
 70
     2
  9
$DIMDEC
 70
     0
  9
$DIMTDEC
 70
     0
  9
$DIMALTU
 70
     2
  9
$DIMALTTD
 70
     2
  9
$DIMTXSTY
  7
STANDARD
  9
$DIMAUNIT
 70
     0
  9
$LUNITS
 70
     2
  9
$LUPREC
 70
     4
  9
$SKETCHINC
 40
1.0
  9
$FILLETRAD
 40
20.0
  9
$AUNITS
 70
     0
  9
$AUPREC
 70
     0
  9
$MENU
  1
.
  9
$ELEVATION
 40
0.0
  9
$PELEVATION
 40
0.0
  9
$THICKNESS
 40
0.0
  9
$LIMCHECK
 70
     0
  9
$BLIPMODE
 70
     0
  9
$CHAMFERA
 40
20.0
  9
$CHAMFERB
 40
20.0
  9
$CHAMFERC
 40
40.0
  9
$CHAMFERD
 40
0.0
  9
$SKPOLY
 70
     0
  9
$TDCREATE
 40
2450994.354346065
  9
$TDUPDATE
 40
2453805.636975544
  9
$TDINDWG
 40
0.0099857639
  9
$TDUSRTIMER
 40
0.0099857639
  9
$USRTIMER
 70
     1
  9
$ANGBASE
 50
0.0
  9
$ANGDIR
 70
     0
  9
$PDMODE
 70
     1
  9
$PDSIZE
 40
0.0
  9
$PLINEWID
 40
0.0
  9
$COORDS
 70
     1
  9
$SPLFRAME
 70
     0
  9
$SPLINETYPE
 70
     6
  9
$SPLINESEGS
 70
     8
  9
$ATTDIA
 70
     0
  9
$ATTREQ
 70
     1
  9
$HANDLING
 70
 10241
  9
$HANDSEED
  5
64C
  9
$SURFTAB1
 70
     6
  9
$SURFTAB2
 70
     6
  9
$SURFTYPE
 70
     6
  9
$SURFU
 70
     6
  9
$SURFV
 70
     6
  9
$UCSNAME
  2

  9
$UCSORG
 10
0.0
 20
0.0
 30
0.0
  9
$UCSXDIR
 10
1.0
 20
0.0
 30
0.0
  9
$UCSYDIR
 10
0.0
 20
1.0
 30
0.0
  9
$PUCSNAME
  2

  9
$PUCSORG
 10
0.0
 20
0.0
 30
0.0
  9
$PUCSXDIR
 10
1.0
 20
0.0
 30
0.0
  9
$PUCSYDIR
 10
0.0
 20
1.0
 30
0.0
  9
$USERI1
 70
     0
  9
$USERI2
 70
     0
  9
$USERI3
 70
     0
  9
$USERI4
 70
     0
  9
$USERI5
 70
     0
  9
$USERR1
 40
0.0
  9
$USERR2
 40
0.0
  9
$USERR3
 40
0.0
  9
$USERR4
 40
0.0
  9
$USERR5
 40
0.0
  9
$WORLDVIEW
 70
     1
  9
$SHADEDGE
 70
     3
  9
$SHADEDIF
 70
    70
  9
$TILEMODE
 70
     1
  9
$MAXACTVP
 70
    16
  9
$PINSBASE
 10
0.0
 20
0.0
 30
0.0
  9
$PLIMCHECK
 70
     0
  9
$PEXTMIN
 10
0.0
 20
0.0
 30
0.0
  9
$PEXTMAX
 10
420.0
 20
297.0
 30
0.0
  9
$PLIMMIN
 10
0.0
 20
0.0
  9
$PLIMMAX
 10
420.0
 20
297.0
  9
$UNITMODE
 70
     0
  9
$VISRETAIN
 70
     0
  9
$PLINEGEN
 70
     0
  9
$PSLTSCALE
 70
     1
  9
$TREEDEPTH
 70
  3020
  9
$PICKSTYLE
 70
     1
  9
$CMLSTYLE
  2
STANDARD
  9
$CMLJUST
 70
     0
  9
$CMLSCALE
 40
1.0
  9
$PROXYGRAPHICS
 70
     1
  9
$MEASUREMENT
 70
     1
  0
ENDSEC
  0
SECTION
  2
CLASSES
  0
CLASS
  1
ACDBDICTIONARYWDFLT
  2
AcDbDictionaryWithDefault
  3
AutoCAD 2000
 90
        0
280
     0
281
     0
  0
CLASS
  1
ACDBPLACEHOLDER
  2
AcDbPlaceHolder
  3
AutoCAD 2000
 90
        0
280
     0
281
     0
  0
CLASS
  1
LAYOUT
  2
AcDbLayout
  3
AutoCAD 2000
 90
        0
280
     0
281
     0
  0
CLASS
  1
LONG_TRANSACTION
  2
AcDbLongTransaction
  3
AutoCAD 2000
 90
        0
280
     0
281
     0
  0
CLASS
  1
LWPOLYLINE
  2
AcDbPolyline
  3
AutoCAD 2000
 90
        0
280
     0
281
     1
  0
CLASS
  1
HATCH
  2
AcDbHatch
  3
AutoCAD 2000
 90
        0
280
     0
281
     1
  0
CLASS
  1
XRECORD
  2
AcDbXrecord
  3
AutoCAD 2000
 90
        0
280
     0
281
     0
  0
CLASS
  1
LONG_TRANSACTION
  2
AcDbLongTransaction
  3
AutoCAD 2000
 90
        0
280
     0
281
     0
  0
CLASS
  1
LWPOLYLINE
  2
AcDbPolyline
  3
AutoCAD 2000
 90
        0
280
     0
281
     1
  0
CLASS
  1
HATCH
  2
AcDbHatch
  3
AutoCAD 2000
 90
        0
280
     0
281
     1
  0
CLASS
  1
XRECORD
  2
AcDbXrecord
  3
AutoCAD 2000
 90
        0
280
     0
281
     0
  0
ENDSEC
  0
SECTION
  2
TABLES
  0
TABLE
  2
VPORT
  5
8
330
0
100
AcDbSymbolTable
 70
     2
  0
VPORT
  5
628
330
8
100
AcDbSymbolTableRecord
100
AcDbViewportTableRecord
  2
*ACTIVE
 70
     0
 10
0.0
 20
0.0
 11
1.0
 21
1.0
 12
409.7470323376188
 22
277.6484274767034
 13
0.0
 23
0.0
 14
5.0
 24
5.0
 15
0.0
 25
0.0
 16
0.0
 26
0.0
 36
1.0
 17
0.0
 27
0.0
 37
0.0
 40
600.7555720366426
 41
1.795454545454545
 42
50.0
 43
0.0
 44
0.0
 50
0.0
 51
0.0
 71
     0
 72
   100
 73
     1
 74
     0
 75
     0
 76
     0
 77
     0
 78
     0
  0
ENDTAB
  0
TABLE
  2
LTYPE
  5
5
330
0
100
AcDbSymbolTable
 70
     3
  0
LTYPE
  5
14
330
5
100
AcDbSymbolTableRecord
100
AcDbLinetypeTableRecord
  2
BYBLOCK
 70
     0
  3

 72
    65
 73
     0
 40
0.0
  0
LTYPE
  5
15
330
5
100
AcDbSymbolTableRecord
100
AcDbLinetypeTableRecord
  2
BYLAYER
 70
     0
  3

 72
    65
 73
     0
 40
0.0
  0
LTYPE
  5
16
330
5
100
AcDbSymbolTableRecord
100
AcDbLinetypeTableRecord
  2
CONTINUOUS
 70
     0
  3
Solid line
 72
    65
 73
     0
 40
0.0
  0
LTYPE
  5
115
330
5
100
AcDbSymbolTableRecord
100
AcDbLinetypeTableRecord
  2
PHANTOM
 70
     0
  3
______  __  __  ______  __  __  ______  __  __ 
 72
    65
 73
     6
 40
2.5
 49
1.25
 74
     0
 49
-0.25
 74
     0
 49
0.25
 74
     0
 49
-0.25
 74
     0
 49
0.25
 74
     0
 49
-0.25
 74
     0
  0
LTYPE
  5
135
330
5
100
AcDbSymbolTableRecord
100
AcDbLinetypeTableRecord
  2
CENTER
 70
     0
  3
____ _ ____ _ ____ _ ____ _ ____ _ ____ _ ____ 
 72
    65
 73
     4
 40
2.0
 49
1.25
 74
     0
 49
-0.25
 74
     0
 49
0.25
 74
     0
 49
-0.25
 74
     0
  0
ENDTAB
  0
TABLE
  2
LAYER
  5
2
330
0
100
AcDbSymbolTable
 70
     9
  0
LAYER
  5
F
330
2
100
AcDbSymbolTableRecord
100
AcDbLayerTableRecord
  2
0
 70
     0
 62
     7
  6
CONTINUOUS
  0
LAYER
  5
62
330
2
100
AcDbSymbolTableRecord
100
AcDbLayerTableRecord
  2
VIEWPORT
 70
     0
 62
     7
  6
CONTINUOUS
  0
LAYER
  5
65
330
2
100
AcDbSymbolTableRecord
100
AcDbLayerTableRecord
  2
ZUWAKU
 70
     0
 62
     7
  6
CONTINUOUS
  0
LAYER
  5
1D2
330
2
100
AcDbSymbolTableRecord
100
AcDbLayerTableRecord
  2
SEIHIN
 70
     0
 62
     3
  6
CONTINUOUS
  0
LAYER
  5
1D3
330
2
100
AcDbSymbolTableRecord
100
AcDbLayerTableRecord
  2
SUNPOU
 70
     0
 62
     4
  6
CONTINUOUS
  0
LAYER
  5
1D4
330
2
100
AcDbSymbolTableRecord
100
AcDbLayerTableRecord
  2
CENTER_L
 70
     0
 62
     1
  6
CENTER
  0
LAYER
  5
1D5
330
2
100
AcDbSymbolTableRecord
100
AcDbLayerTableRecord
  2
NOKITOI
 70
     0
 62
     8
  6
PHANTOM
  0
LAYER
  5
1D6
330
2
100
AcDbSymbolTableRecord
100
AcDbLayerTableRecord
  2
DEFPOINTS
 70
     0
 62
     7
  6
CONTINUOUS
  0
LAYER
  5
4AD
330
2
100
AcDbSymbolTableRecord
100
AcDbLayerTableRecord
  2
MOJI
 70
     0
 62
     2
  6
CONTINUOUS
  0
ENDTAB
  0
TABLE
  2
STYLE
  5
3
330
0
100
AcDbSymbolTable
 70
     2
  0
STYLE
  5
10
330
3
100
AcDbSymbolTableRecord
100
AcDbTextStyleTableRecord
  2
STANDARD
 70
     0
 40
0.0
 41
1.0
 50
0.0
 71
     0
 42
5.0
  3
TXT
  4
bigfont.shx
  0
STYLE
  5
4AE
330
3
100
AcDbSymbolTableRecord
100
AcDbTextStyleTableRecord
  2
ｽﾀｲﾙ1
 70
     0
 40
0.0
 41
1.0
 50
0.0
 71
     0
 42
2.5
  3
MS PGothic.ttf
  4

1001
ACAD
1000
MS PGothic
1071
    32818
  0
ENDTAB
  0
TABLE
  2
VIEW
  5
6
330
0
100
AcDbSymbolTable
 70
     0
  0
ENDTAB
  0
TABLE
  2
UCS
  5
7
330
0
100
AcDbSymbolTable
 70
     0
  0
ENDTAB
  0
TABLE
  2
APPID
  5
9
330
0
100
AcDbSymbolTable
 70
     1
  0
APPID
  5
11
330
9
100
AcDbSymbolTableRecord
100
AcDbRegAppTableRecord
  2
ACAD
 70
     0
  0
ENDTAB
  0
TABLE
  2
DIMSTYLE
  5
A
330
0
100
AcDbSymbolTable
 70
     1
  0
DIMSTYLE
105
1D
102
{ACAD_REACTORS
330
2B1
330
2C6
330
2CE
330
2D8
330
2D9
330
2DA
330
2E6
330
2F0
330
2F4
330
310
102
}
330
A
100
AcDbSymbolTableRecord
100
AcDbDimStyleTableRecord
  2
STANDARD
 70
     0
  3

  4

  5

  6

  7

 40
1.0
 41
0.18
 42
0.0625
 43
0.38
 44
0.18
 45
0.0
 46
0.0
 47
0.0
 48
0.0
140
0.18
141
0.09
142
0.0
143
25.4
144
1.0
145
0.0
146
1.0
147
0.09
 71
     0
 72
     0
 73
     1
 74
     1
 75
     0
 76
     0
 77
     0
 78
     0
170
     0
171
     2
172
     0
173
     0
174
     0
175
     0
176
     0
177
     0
178
     0
270
     2
271
     4
272
     4
273
     2
274
     2
340
10
275
     0
280
     0
281
     0
282
     0
283
     1
284
     0
285
     0
286
     0
287
     3
288
     0
  0
ENDTAB
  0
TABLE
  2
BLOCK_RECORD
  5
1
330
0
100
AcDbSymbolTable
 70
    11
  0
BLOCK_RECORD
  5
1A
102
{ACAD_XDICTIONARY
360
49F
102
}
330
1
100
AcDbSymbolTableRecord
100
AcDbBlockTableRecord
  2
*MODEL_SPACE
  0
BLOCK_RECORD
  5
17
102
{ACAD_XDICTIONARY
360
49D
102
}
330
1
100
AcDbSymbolTableRecord
100
AcDbBlockTableRecord
  2
*PAPER_SPACE
  0
BLOCK_RECORD
  5
6D
330
1
100
AcDbSymbolTableRecord
100
AcDbBlockTableRecord
  2
_OPEN
  0
BLOCK_RECORD
  5
381
330
1
100
AcDbSymbolTableRecord
100
AcDbBlockTableRecord
  2
*D1
  0
BLOCK_RECORD
  5
38D
330
1
100
AcDbSymbolTableRecord
100
AcDbBlockTableRecord
  2
*D2
  0
BLOCK_RECORD
  5
399
330
1
100
AcDbSymbolTableRecord
100
AcDbBlockTableRecord
  2
*D3
  0
BLOCK_RECORD
  5
3A5
330
1
100
AcDbSymbolTableRecord
100
AcDbBlockTableRecord
  2
*D4
  0
BLOCK_RECORD
  5
3B1
330
1
100
AcDbSymbolTableRecord
100
AcDbBlockTableRecord
  2
*D5
  0
BLOCK_RECORD
  5
3BD
330
1
100
AcDbSymbolTableRecord
100
AcDbBlockTableRecord
  2
*D6
  0
BLOCK_RECORD
  5
3C9
330
1
100
AcDbSymbolTableRecord
100
AcDbBlockTableRecord
  2
*D7
  0
BLOCK_RECORD
  5
3D5
330
1
100
AcDbSymbolTableRecord
100
AcDbBlockTableRecord
  2
*D8
  0
BLOCK_RECORD
  5
3E3
330
1
100
AcDbSymbolTableRecord
100
AcDbBlockTableRecord
  2
*D9
  0
BLOCK_RECORD
  5
3EF
330
1
100
AcDbSymbolTableRecord
100
AcDbBlockTableRecord
  2
*D10
  0
ENDTAB
  0
ENDSEC
  0
SECTION
  2
BLOCKS
  0
BLOCK
  5
1B
330
1A
100
AcDbEntity
  8
0
100
AcDbBlockBegin
  2
*MODEL_SPACE
 70
     0
 10
0.0
 20
0.0
 30
0.0
  3
*MODEL_SPACE
  1

  0
ENDBLK
  5
1C
330
1A
100
AcDbEntity
  8
0
100
AcDbBlockEnd
  0
BLOCK
  5
18
330
17
100
AcDbEntity
 67
     1
  8
0
100
AcDbBlockBegin
  2
*PAPER_SPACE
 70
     0
 10
0.0
 20
0.0
 30
0.0
  3
*PAPER_SPACE
  1

  0
ENDBLK
  5
19
330
17
100
AcDbEntity
 67
     1
  8
0
100
AcDbBlockEnd
  0
BLOCK
  5
6E
330
6D
100
AcDbEntity
  8
0
100
AcDbBlockBegin
  2
_OPEN
 70
     0
 10
0.0
 20
0.0
 30
0.0
  3
_OPEN
  1

  0
LINE
  5
6F
330
6D
100
AcDbEntity
  8
0
  6
BYBLOCK
 62
     0
100
AcDbLine
 10
-1.0
 20
0.1666666666666666
 30
0.0
 11
0.0
 21
0.0
 31
0.0
  0
LINE
  5
70
330
6D
100
AcDbEntity
  8
0
  6
BYBLOCK
 62
     0
100
AcDbLine
 10
0.0
 20
0.0
 30
0.0
 11
-1.0
 21
-0.1666666666666666
 31
0.0
  0
LINE
  5
71
330
6D
100
AcDbEntity
  8
0
  6
BYBLOCK
 62
     0
100
AcDbLine
 10
0.0
 20
0.0
 30
0.0
 11
-1.0
 21
0.0
 31
0.0
  0
ENDBLK
  5
72
330
6D
100
AcDbEntity
  8
0
100
AcDbBlockEnd
  0
BLOCK
  5
3FB
330
381
100
AcDbEntity
  8
0
100
AcDbBlockBegin
  2
*D1
 70
     1
 10
0.0
 20
0.0
 30
0.0
  3
*D1
  1

  0
LINE
  5
3FC
330
381
100
AcDbEntity
  8
0
  6
BYBLOCK
 62
     4
100
AcDbLine
 10
332.9906398584804
 20
252.6927909716127
 30
0.0
 11
332.9906398584804
 21
180.1781340969818
 31
0.0
  0
LINE
  5
3FD
330
381
100
AcDbEntity
  8
0
  6
BYBLOCK
 62
     4
100
AcDbLine
 10
160.7919201539336
 20
252.6928909702945
 30
0.0
 11
160.7919201539336
 21
180.1781340969818
 31
0.0
  0
LINE
  5
3FE
330
381
100
AcDbEntity
  8
0
  6
BYBLOCK
 62
     4
100
AcDbLine
 10
325.9906398584805
 20
183.1781340969818
 30
0.0
 11
167.7919201539336
 21
183.1781340969818
 31
0.0
  0
INSERT
  5
3FF
330
381
100
AcDbEntity
  8
0
  6
BYBLOCK
 62
     4
100
AcDbBlockReference
  2
_OPEN
 10
332.9906398584804
 20
183.1781340969818
 30
0.0
 41
7.0
 42
7.0
 43
7.0
  0
INSERT
  5
400
330
381
100
AcDbEntity
  8
0
  6
BYBLOCK
 62
     4
100
AcDbBlockReference
  2
_OPEN
 10
160.7919201539336
 20
183.1781340969818
 30
0.0
 41
7.0
 42
7.0
 43
7.0
 50
180.0
  0
MTEXT
  5
401
330
381
100
AcDbEntity
  8
0
  6
BYBLOCK
 62
     4
100
AcDbMText
 10
246.891280006207
 20
188.1781340969818
 30
0.0
 40
6.0
 41
0.0
 71
     5
 72
     5
  1
\A1;172
1001
ACAD
1000
MTEXTBEGIN
1070
    73
1070
     1
1070
    44
1040
1.0
1070
    74
1070
     0
1000
MTEXTEND
1000
MTEXTBEGIN
1070
    73
1070
     1
1070
    44
1040
1.0
1070
    74
1070
     0
1000
MTEXTEND
  0
POINT
  5
402
330
381
100
AcDbEntity
  8
DEFPOINTS
  6
BYBLOCK
 62
     0
100
AcDbPoint
 10
332.9906398584804
 20
258.6927909716127
 30
0.0
  0
POINT
  5
403
330
381
100
AcDbEntity
  8
DEFPOINTS
  6
BYBLOCK
 62
     0
100
AcDbPoint
 10
160.7919201539336
 20
258.6928909702945
 30
0.0
  0
POINT
  5
404
330
381
100
AcDbEntity
  8
DEFPOINTS
  6
BYBLOCK
 62
     0
100
AcDbPoint
 10
160.7919201539336
 20
183.1781340969818
 30
0.0
  0
ENDBLK
  5
405
330
381
100
AcDbEntity
  8
0
100
AcDbBlockEnd
  0
BLOCK
  5
406
330
38D
100
AcDbEntity
  8
0
100
AcDbBlockBegin
  2
*D2
 70
     1
 10
0.0
 20
0.0
 30
0.0
  3
*D2
  1

  0
LINE
  5
407
330
38D
100
AcDbEntity
  8
0
  6
BYBLOCK
 62
     4
100
AcDbLine
 10
135.8915193385935
 20
377.6933982864466
 30
0.0
 11
135.8915193385935
 21
415.0957752669573
 31
0.0
  0
LINE
  5
408
330
38D
100
AcDbEntity
  8
0
  6
BYBLOCK
 62
     4
100
AcDbLine
 10
357.8915193385935
 20
377.6932982864466
 30
0.0
 11
357.8915193385935
 21
415.0957752669573
 31
0.0
  0
LINE
  5
409
330
38D
100
AcDbEntity
  8
0
  6
BYBLOCK
 62
     4
100
AcDbLine
 10
142.8915193385935
 20
412.0957752669573
 30
0.0
 11
350.8915193385935
 21
412.0957752669573
 31
0.0
  0
INSERT
  5
40A
330
38D
100
AcDbEntity
  8
0
  6
BYBLOCK
 62
     4
100
AcDbBlockReference
  2
_OPEN
 10
135.8915193385935
 20
412.0957752669573
 30
0.0
 41
7.0
 42
7.0
 43
7.0
 50
180.0
  0
INSERT
  5
40B
330
38D
100
AcDbEntity
  8
0
  6
BYBLOCK
 62
     4
100
AcDbBlockReference
  2
_OPEN
 10
357.8915193385935
 20
412.0957752669573
 30
0.0
 41
7.0
 42
7.0
 43
7.0
  0
MTEXT
  5
40C
330
38D
100
AcDbEntity
  8
0
  6
BYBLOCK
 62
     4
100
AcDbMText
 10
246.8915193385935
 20
417.0957752669574
 30
0.0
 40
6.0
 41
0.0
 71
     5
 72
     5
  1
\A1;222
1001
ACAD
1000
MTEXTBEGIN
1070
    73
1070
     1
1070
    44
1040
1.0
1070
    74
1070
     0
1000
MTEXTEND
1000
MTEXTBEGIN
1070
    73
1070
     1
1070
    44
1040
1.0
1070
    74
1070
     0
1000
MTEXTEND
  0
POINT
  5
40D
330
38D
100
AcDbEntity
  8
DEFPOINTS
  6
BYBLOCK
 62
     0
100
AcDbPoint
 10
135.8915193385935
 20
371.6933982864466
 30
0.0
  0
POINT
  5
40E
330
38D
100
AcDbEntity
  8
DEFPOINTS
  6
BYBLOCK
 62
     0
100
AcDbPoint
 10
357.8915193385935
 20
371.6932982864466
 30
0.0
  0
POINT
  5
40F
330
38D
100
AcDbEntity
  8
DEFPOINTS
  6
BYBLOCK
 62
     0
100
AcDbPoint
 10
357.8915193385935
 20
412.0957752669573
 30
0.0
  0
ENDBLK
  5
410
330
38D
100
AcDbEntity
  8
0
100
AcDbBlockEnd
  0
BLOCK
  5
411
330
399
100
AcDbEntity
  8
0
100
AcDbBlockBegin
  2
*D3
 70
     1
 10
0.0
 20
0.0
 30
0.0
  3
*D3
  1

  0
LINE
  5
412
330
399
100
AcDbEntity
  8
0
  6
BYBLOCK
 62
     4
100
AcDbLine
 10
286.891507385743
 20
377.6931460376728
 30
0.0
 11
286.891507385743
 21
399.1089373059108
 31
0.0
  0
LINE
  5
413
330
399
100
AcDbEntity
  8
0
  6
BYBLOCK
 62
     4
100
AcDbLine
 10
206.8915073856617
 20
377.6931181090938
 30
0.0
 11
206.8915073856617
 21
399.1089373059108
 31
0.0
  0
LINE
  5
414
330
399
100
AcDbEntity
  8
0
  6
BYBLOCK
 62
     4
100
AcDbLine
 10
279.891507385743
 20
396.1089373059107
 30
0.0
 11
213.8915073856617
 21
396.1089373059107
 31
0.0
  0
INSERT
  5
415
330
399
100
AcDbEntity
  8
0
  6
BYBLOCK
 62
     4
100
AcDbBlockReference
  2
_OPEN
 10
286.891507385743
 20
396.1089373059107
 30
0.0
 41
7.0
 42
7.0
 43
7.0
  0
INSERT
  5
416
330
399
100
AcDbEntity
  8
0
  6
BYBLOCK
 62
     4
100
AcDbBlockReference
  2
_OPEN
 10
206.8915073856617
 20
396.1089373059107
 30
0.0
 41
7.0
 42
7.0
 43
7.0
 50
180.0
  0
MTEXT
  5
417
330
399
100
AcDbEntity
  8
0
  6
BYBLOCK
 62
     4
100
AcDbMText
 10
246.8915073857024
 20
401.1089373059108
 30
0.0
 40
6.0
 41
0.0
 71
     5
 72
     5
  1
\A1;※a80
1001
ACAD
1000
MTEXTBEGIN
1070
    73
1070
     1
1070
    44
1040
1.0
1070
    74
1070
     0
1000
MTEXTEND
1000
MTEXTBEGIN
1070
    73
1070
     1
1070
    44
1040
1.0
1070
    74
1070
     0
1000
MTEXTEND
  0
POINT
  5
418
330
399
100
AcDbEntity
  8
DEFPOINTS
  6
BYBLOCK
 62
     0
100
AcDbPoint
 10
286.891507385743
 20
371.6931460376728
 30
0.0
  0
POINT
  5
419
330
399
100
AcDbEntity
  8
DEFPOINTS
  6
BYBLOCK
 62
     0
100
AcDbPoint
 10
206.8915073856617
 20
371.6931181090938
 30
0.0
  0
POINT
  5
41A
330
399
100
AcDbEntity
  8
DEFPOINTS
  6
BYBLOCK
 62
     0
100
AcDbPoint
 10
206.8915073856617
 20
396.1089373059107
 30
0.0
  0
ENDBLK
  5
41B
330
399
100
AcDbEntity
  8
0
100
AcDbBlockEnd
  0
BLOCK
  5
41C
330
3A5
100
AcDbEntity
  8
0
100
AcDbBlockBegin
  2
*D4
 70
     1
 10
0.0
 20
0.0
 30
0.0
  3
*D4
  1

  0
LINE
  5
41D
330
3A5
100
AcDbEntity
  8
0
  6
BYBLOCK
 62
     4
100
AcDbLine
 10
486.896677866564
 20
371.6927982864465
 30
0.0
 11
465.6627606239293
 21
371.6927982864465
 31
0.0
  0
LINE
  5
41E
330
3A5
100
AcDbEntity
  8
0
  6
BYBLOCK
 62
     4
100
AcDbLine
 10
549.6150780512259
 20
306.6928162865623
 30
0.0
 11
465.6627606239293
 21
306.6928162865623
 31
0.0
  0
LINE
  5
41F
330
3A5
100
AcDbEntity
  8
0
  6
BYBLOCK
 62
     4
100
AcDbLine
 10
468.6627606239293
 20
364.6927982864465
 30
0.0
 11
468.6627606239293
 21
313.6928162865623
 31
0.0
  0
INSERT
  5
420
330
3A5
100
AcDbEntity
  8
0
  6
BYBLOCK
 62
     4
100
AcDbBlockReference
  2
_OPEN
 10
468.6627606239293
 20
371.6927982864465
 30
0.0
 41
7.0
 42
7.0
 43
7.0
 50
90.0
  0
INSERT
  5
421
330
3A5
100
AcDbEntity
  8
0
  6
BYBLOCK
 62
     4
100
AcDbBlockReference
  2
_OPEN
 10
468.6627606239293
 20
306.6928162865623
 30
0.0
 41
7.0
 42
7.0
 43
7.0
 50
270.0
  0
MTEXT
  5
422
330
3A5
100
AcDbEntity
  8
0
  6
BYBLOCK
 62
     4
100
AcDbMText
 10
463.6627606239294
 20
339.1928072865045
 30
0.0
 40
6.0
 41
0.0
 71
     5
 72
     5
  1
\A1;65
 11
0.0
 21
1.0
 31
0.0
1001
ACAD
1000
MTEXTBEGIN
1070
    73
1070
     1
1070
    44
1040
1.0
1070
    74
1070
     0
1000
MTEXTEND
1000
MTEXTBEGIN
1070
    73
1070
     1
1070
    44
1040
1.0
1070
    74
1070
     0
1000
MTEXTEND
  0
POINT
  5
423
330
3A5
100
AcDbEntity
  8
DEFPOINTS
  6
BYBLOCK
 62
     0
100
AcDbPoint
 10
492.896677866564
 20
371.6927982864465
 30
0.0
  0
POINT
  5
424
330
3A5
100
AcDbEntity
  8
DEFPOINTS
  6
BYBLOCK
 62
     0
100
AcDbPoint
 10
555.6150780512259
 20
306.6928162865623
 30
0.0
  0
POINT
  5
425
330
3A5
100
AcDbEntity
  8
DEFPOINTS
  6
BYBLOCK
 62
     0
100
AcDbPoint
 10
468.6627606239293
 20
306.6928162865623
 30
0.0
  0
ENDBLK
  5
426
330
3A5
100
AcDbEntity
  8
0
100
AcDbBlockEnd
  0
BLOCK
  5
427
330
3B1
100
AcDbEntity
  8
0
100
AcDbBlockBegin
  2
*D5
 70
     1
 10
0.0
 20
0.0
 30
0.0
  3
*D5
  1

  0
LINE
  5
428
330
3B1
100
AcDbEntity
  8
0
  6
BYBLOCK
 62
     4
100
AcDbLine
 10
486.896677866564
 20
371.6927982864465
 30
0.0
 11
449.0222817470011
 21
371.6927982864465
 31
0.0
  0
LINE
  5
429
330
3B1
100
AcDbEntity
  8
0
  6
BYBLOCK
 62
     4
100
AcDbLine
 10
512.8654778665641
 20
258.6933982864465
 30
0.0
 11
449.0222817470011
 21
258.6933982864465
 31
0.0
  0
LINE
  5
42A
330
3B1
100
AcDbEntity
  8
0
  6
BYBLOCK
 62
     4
100
AcDbLine
 10
452.0222817470012
 20
364.6927982864465
 30
0.0
 11
452.0222817470012
 21
265.6933982864466
 31
0.0
  0
INSERT
  5
42B
330
3B1
100
AcDbEntity
  8
0
  6
BYBLOCK
 62
     4
100
AcDbBlockReference
  2
_OPEN
 10
452.0222817470012
 20
371.6927982864465
 30
0.0
 41
7.0
 42
7.0
 43
7.0
 50
90.0
  0
INSERT
  5
42C
330
3B1
100
AcDbEntity
  8
0
  6
BYBLOCK
 62
     4
100
AcDbBlockReference
  2
_OPEN
 10
452.0222817470012
 20
258.6933982864465
 30
0.0
 41
7.0
 42
7.0
 43
7.0
 50
270.0
  0
MTEXT
  5
42D
330
3B1
100
AcDbEntity
  8
0
  6
BYBLOCK
 62
     4
100
AcDbMText
 10
447.0222817470011
 20
315.1930982864465
 30
0.0
 40
6.0
 41
0.0
 71
     5
 72
     5
  1
\A1;113
 11
0.0
 21
1.0
 31
0.0
1001
ACAD
1000
MTEXTBEGIN
1070
    73
1070
     1
1070
    44
1040
1.0
1070
    74
1070
     0
1000
MTEXTEND
1000
MTEXTBEGIN
1070
    73
1070
     1
1070
    44
1040
1.0
1070
    74
1070
     0
1000
MTEXTEND
  0
POINT
  5
42E
330
3B1
100
AcDbEntity
  8
DEFPOINTS
  6
BYBLOCK
 62
     0
100
AcDbPoint
 10
492.896677866564
 20
371.6927982864465
 30
0.0
  0
POINT
  5
42F
330
3B1
100
AcDbEntity
  8
DEFPOINTS
  6
BYBLOCK
 62
     0
100
AcDbPoint
 10
518.865477866564
 20
258.6933982864465
 30
0.0
  0
POINT
  5
430
330
3B1
100
AcDbEntity
  8
DEFPOINTS
  6
BYBLOCK
 62
     0
100
AcDbPoint
 10
452.0222817470012
 20
258.6933982864465
 30
0.0
  0
ENDBLK
  5
431
330
3B1
100
AcDbEntity
  8
0
100
AcDbBlockEnd
  0
BLOCK
  5
432
330
3BD
100
AcDbEntity
  8
0
100
AcDbBlockBegin
  2
*D6
 70
     1
 10
0.0
 20
0.0
 30
0.0
  3
*D6
  1

  0
LINE
  5
433
330
3BD
100
AcDbEntity
  8
0
  6
BYBLOCK
 62
     4
100
AcDbLine
 10
486.896677866564
 20
371.6927982864465
 30
0.0
 11
432.5015188002816
 21
371.6927982864465
 31
0.0
  0
LINE
  5
434
330
3BD
100
AcDbEntity
  8
0
  6
BYBLOCK
 62
     4
100
AcDbLine
 10
528.7067778665639
 20
215.2929982864466
 30
0.0
 11
432.5015188002816
 21
215.2929982864466
 31
0.0
  0
LINE
  5
435
330
3BD
100
AcDbEntity
  8
0
  6
BYBLOCK
 62
     4
100
AcDbLine
 10
435.5015188002816
 20
364.6927982864465
 30
0.0
 11
435.5015188002816
 21
222.2929982864465
 31
0.0
  0
INSERT
  5
436
330
3BD
100
AcDbEntity
  8
0
  6
BYBLOCK
 62
     4
100
AcDbBlockReference
  2
_OPEN
 10
435.5015188002816
 20
371.6927982864465
 30
0.0
 41
7.0
 42
7.0
 43
7.0
 50
90.0
  0
INSERT
  5
437
330
3BD
100
AcDbEntity
  8
0
  6
BYBLOCK
 62
     4
100
AcDbBlockReference
  2
_OPEN
 10
435.5015188002816
 20
215.2929982864466
 30
0.0
 41
7.0
 42
7.0
 43
7.0
 50
270.0
  0
MTEXT
  5
438
330
3BD
100
AcDbEntity
  8
0
  6
BYBLOCK
 62
     4
100
AcDbMText
 10
430.5015188002816
 20
293.4928982864466
 30
0.0
 40
6.0
 41
0.0
 71
     5
 72
     5
  1
\A1;156
 11
0.0
 21
1.0
 31
0.0
1001
ACAD
1000
MTEXTBEGIN
1070
    73
1070
     1
1070
    44
1040
1.0
1070
    74
1070
     0
1000
MTEXTEND
1000
MTEXTBEGIN
1070
    73
1070
     1
1070
    44
1040
1.0
1070
    74
1070
     0
1000
MTEXTEND
  0
POINT
  5
439
330
3BD
100
AcDbEntity
  8
DEFPOINTS
  6
BYBLOCK
 62
     0
100
AcDbPoint
 10
492.896677866564
 20
371.6927982864465
 30
0.0
  0
POINT
  5
43A
330
3BD
100
AcDbEntity
  8
DEFPOINTS
  6
BYBLOCK
 62
     0
100
AcDbPoint
 10
534.7067778665639
 20
215.2929982864466
 30
0.0
  0
POINT
  5
43B
330
3BD
100
AcDbEntity
  8
DEFPOINTS
  6
BYBLOCK
 62
     0
100
AcDbPoint
 10
435.5015188002816
 20
215.2929982864466
 30
0.0
  0
ENDBLK
  5
43C
330
3BD
100
AcDbEntity
  8
0
100
AcDbBlockEnd
  0
BLOCK
  5
43D
330
3C9
100
AcDbEntity
  8
0
100
AcDbBlockBegin
  2
*D7
 70
     1
 10
0.0
 20
0.0
 30
0.0
  3
*D7
  1

  0
LINE
  5
43E
330
3C9
100
AcDbEntity
  8
0
  6
BYBLOCK
 62
     4
100
AcDbLine
 10
598.9066715650937
 20
215.2928982864465
 30
0.0
 11
598.9066715650937
 21
160.0218406071721
 31
0.0
  0
LINE
  5
43F
330
3C9
100
AcDbEntity
  8
0
  6
BYBLOCK
 62
     4
100
AcDbLine
 10
528.9067150522705
 20
215.2928982864465
 30
0.0
 11
528.9067150522705
 21
160.0218406071721
 31
0.0
  0
LINE
  5
440
330
3C9
100
AcDbEntity
  8
0
  6
BYBLOCK
 62
     4
100
AcDbLine
 10
591.9066715650938
 20
163.0218406071721
 30
0.0
 11
535.9067150522705
 21
163.0218406071721
 31
0.0
  0
INSERT
  5
441
330
3C9
100
AcDbEntity
  8
0
  6
BYBLOCK
 62
     4
100
AcDbBlockReference
  2
_OPEN
 10
598.9066715650937
 20
163.0218406071721
 30
0.0
 41
7.0
 42
7.0
 43
7.0
  0
INSERT
  5
442
330
3C9
100
AcDbEntity
  8
0
  6
BYBLOCK
 62
     4
100
AcDbBlockReference
  2
_OPEN
 10
528.9067150522705
 20
163.0218406071721
 30
0.0
 41
7.0
 42
7.0
 43
7.0
 50
180.0
  0
MTEXT
  5
443
330
3C9
100
AcDbEntity
  8
0
  6
BYBLOCK
 62
     4
100
AcDbMText
 10
563.9066933086821
 20
168.0218406071721
 30
0.0
 40
6.0
 41
0.0
 71
     5
 72
     5
  1
\A1;φ70
1001
ACAD
1000
MTEXTBEGIN
1070
    73
1070
     1
1070
    44
1040
1.0
1070
    74
1070
     0
1000
MTEXTEND
1000
MTEXTBEGIN
1070
    73
1070
     1
1070
    44
1040
1.0
1070
    74
1070
     0
1000
MTEXTEND
  0
POINT
  5
444
330
3C9
100
AcDbEntity
  8
DEFPOINTS
  6
BYBLOCK
 62
     0
100
AcDbPoint
 10
598.9066715650937
 20
221.2928982864466
 30
0.0
  0
POINT
  5
445
330
3C9
100
AcDbEntity
  8
DEFPOINTS
  6
BYBLOCK
 62
     0
100
AcDbPoint
 10
528.9067150522705
 20
221.2928982864466
 30
0.0
  0
POINT
  5
446
330
3C9
100
AcDbEntity
  8
DEFPOINTS
  6
BYBLOCK
 62
     0
100
AcDbPoint
 10
528.9067150522705
 20
163.0218406071721
 30
0.0
  0
ENDBLK
  5
447
330
3C9
100
AcDbEntity
  8
0
100
AcDbBlockEnd
  0
BLOCK
  5
448
330
3D5
100
AcDbEntity
  8
0
100
AcDbBlockBegin
  2
*D8
 70
     1
 10
0.0
 20
0.0
 30
0.0
  3
*D8
  1

  0
LINE
  5
449
330
3D5
100
AcDbEntity
  8
0
  6
BYBLOCK
 62
     4
100
AcDbLine
 10
606.4003391647768
 20
231.2928982864466
 30
0.0
 11
642.162017888987
 21
231.2928982864466
 31
0.0
  0
LINE
  5
44A
330
3D5
100
AcDbEntity
  8
0
  6
BYBLOCK
 62
     4
100
AcDbLine
 10
604.9066330393327
 20
221.2927071018283
 30
0.0
 11
642.162017888987
 21
221.2927071018283
 31
0.0
  0
LINE
  5
44B
330
3D5
100
AcDbEntity
  8
0
  6
BYBLOCK
 62
     4
100
AcDbLine
 10
639.162017888987
 20
238.2928982864465
 30
0.0
 11
639.162017888987
 21
245.2928982864465
 31
0.0
  0
LINE
  5
44C
330
3D5
100
AcDbEntity
  8
0
  6
BYBLOCK
 62
     4
100
AcDbLine
 10
639.162017888987
 20
214.2927071018283
 30
0.0
 11
639.162017888987
 21
183.0927071018283
 31
0.0
  0
LINE
  5
44D
330
3D5
100
AcDbEntity
  8
0
  6
BYBLOCK
 62
     4
100
AcDbLine
 10
639.162017888987
 20
231.2928982864466
 30
0.0
 11
639.162017888987
 21
221.2927071018283
 31
0.0
  0
INSERT
  5
44E
330
3D5
100
AcDbEntity
  8
0
  6
BYBLOCK
 62
     4
100
AcDbBlockReference
  2
_OPEN
 10
639.162017888987
 20
231.2928982864466
 30
0.0
 41
7.0
 42
7.0
 43
7.0
 50
270.0
  0
INSERT
  5
44F
330
3D5
100
AcDbEntity
  8
0
  6
BYBLOCK
 62
     4
100
AcDbBlockReference
  2
_OPEN
 10
639.162017888987
 20
221.2927071018283
 30
0.0
 41
7.0
 42
7.0
 43
7.0
 50
90.0
  0
MTEXT
  5
450
330
3D5
100
AcDbEntity
  8
0
  6
BYBLOCK
 62
     4
100
AcDbMText
 10
634.162017888987
 20
195.1927071018283
 30
0.0
 40
6.0
 41
0.0
 71
     5
 72
     5
  1
\A1;※b10
 11
0.0
 21
1.0
 31
0.0
1001
ACAD
1000
MTEXTBEGIN
1070
    73
1070
     1
1070
    44
1040
1.0
1070
    74
1070
     0
1000
MTEXTEND
1000
MTEXTBEGIN
1070
    73
1070
     1
1070
    44
1040
1.0
1070
    74
1070
     0
1000
MTEXTEND
  0
POINT
  5
451
330
3D5
100
AcDbEntity
  8
DEFPOINTS
  6
BYBLOCK
 62
     0
100
AcDbPoint
 10
600.4003391647768
 20
231.2928982864466
 30
0.0
  0
POINT
  5
452
330
3D5
100
AcDbEntity
  8
DEFPOINTS
  6
BYBLOCK
 62
     0
100
AcDbPoint
 10
598.9066330393328
 20
221.2927071018283
 30
0.0
  0
POINT
  5
453
330
3D5
100
AcDbEntity
  8
DEFPOINTS
  6
BYBLOCK
 62
     0
100
AcDbPoint
 10
639.162017888987
 20
221.2927071018283
 30
0.0
  0
ENDBLK
  5
454
330
3D5
100
AcDbEntity
  8
0
100
AcDbBlockEnd
  0
BLOCK
  5
455
330
3E3
100
AcDbEntity
  8
0
100
AcDbBlockBegin
  2
*D9
 70
     1
 10
0.0
 20
0.0
 30
0.0
  3
*D9
  1

  0
LINE
  5
456
330
3E3
100
AcDbEntity
  8
0
  6
BYBLOCK
 62
     4
100
AcDbLine
 10
593.106877866564
 20
209.2929982864466
 30
0.0
 11
593.106877866564
 21
180.2123221817944
 31
0.0
  0
LINE
  5
457
330
3E3
100
AcDbEntity
  8
0
  6
BYBLOCK
 62
     4
100
AcDbLine
 10
534.7066778665639
 20
209.2929982864466
 30
0.0
 11
534.7066778665639
 21
180.2123221817944
 31
0.0
  0
LINE
  5
458
330
3E3
100
AcDbEntity
  8
0
  6
BYBLOCK
 62
     4
100
AcDbLine
 10
586.1068778665639
 20
183.2123221817944
 30
0.0
 11
541.7066778665639
 21
183.2123221817944
 31
0.0
  0
INSERT
  5
459
330
3E3
100
AcDbEntity
  8
0
  6
BYBLOCK
 62
     4
100
AcDbBlockReference
  2
_OPEN
 10
593.106877866564
 20
183.2123221817944
 30
0.0
 41
7.0
 42
7.0
 43
7.0
  0
INSERT
  5
45A
330
3E3
100
AcDbEntity
  8
0
  6
BYBLOCK
 62
     4
100
AcDbBlockReference
  2
_OPEN
 10
534.7066778665639
 20
183.2123221817944
 30
0.0
 41
7.0
 42
7.0
 43
7.0
 50
180.0
  0
MTEXT
  5
45B
330
3E3
100
AcDbEntity
  8
0
  6
BYBLOCK
 62
     4
100
AcDbMText
 10
563.906777866564
 20
188.2123221817943
 30
0.0
 40
6.0
 41
0.0
 71
     5
 72
     5
  1
\A1;φ58
1001
ACAD
1000
MTEXTBEGIN
1070
    73
1070
     1
1070
    44
1040
1.0
1070
    74
1070
     0
1000
MTEXTEND
1000
MTEXTBEGIN
1070
    73
1070
     1
1070
    44
1040
1.0
1070
    74
1070
     0
1000
MTEXTEND
  0
POINT
  5
45C
330
3E3
100
AcDbEntity
  8
DEFPOINTS
  6
BYBLOCK
 62
     0
100
AcDbPoint
 10
593.106877866564
 20
215.2929982864466
 30
0.0
  0
POINT
  5
45D
330
3E3
100
AcDbEntity
  8
DEFPOINTS
  6
BYBLOCK
 62
     0
100
AcDbPoint
 10
534.7066778665639
 20
215.2929982864466
 30
0.0
  0
POINT
  5
45E
330
3E3
100
AcDbEntity
  8
DEFPOINTS
  6
BYBLOCK
 62
     0
100
AcDbPoint
 10
534.7066778665639
 20
183.2123221817944
 30
0.0
  0
ENDBLK
  5
45F
330
3E3
100
AcDbEntity
  8
0
100
AcDbBlockEnd
  0
BLOCK
  5
460
330
3EF
100
AcDbEntity
  8
0
100
AcDbBlockBegin
  2
*D10
 70
     1
 10
0.0
 20
0.0
 30
0.0
  3
*D10
  1

  0
LINE
  5
461
330
3EF
100
AcDbEntity
  8
0
  6
BYBLOCK
 62
     4
100
AcDbLine
 10
492.896677866564
 20
377.6927982864465
 30
0.0
 11
492.896677866564
 21
415.0957752669573
 31
0.0
  0
LINE
  5
462
330
3EF
100
AcDbEntity
  8
0
  6
BYBLOCK
 62
     4
100
AcDbLine
 10
635.295077866564
 20
377.6927982864465
 30
0.0
 11
635.295077866564
 21
415.0957752669573
 31
0.0
  0
LINE
  5
463
330
3EF
100
AcDbEntity
  8
0
  6
BYBLOCK
 62
     4
100
AcDbLine
 10
499.896677866564
 20
412.0957752669573
 30
0.0
 11
628.295077866564
 21
412.0957752669573
 31
0.0
  0
INSERT
  5
464
330
3EF
100
AcDbEntity
  8
0
  6
BYBLOCK
 62
     4
100
AcDbBlockReference
  2
_OPEN
 10
492.896677866564
 20
412.0957752669573
 30
0.0
 41
7.0
 42
7.0
 43
7.0
 50
180.0
  0
INSERT
  5
465
330
3EF
100
AcDbEntity
  8
0
  6
BYBLOCK
 62
     4
100
AcDbBlockReference
  2
_OPEN
 10
635.295077866564
 20
412.0957752669573
 30
0.0
 41
7.0
 42
7.0
 43
7.0
  0
MTEXT
  5
466
330
3EF
100
AcDbEntity
  8
0
  6
BYBLOCK
 62
     4
100
AcDbMText
 10
564.095877866564
 20
417.0957752669574
 30
0.0
 40
6.0
 41
0.0
 71
     5
 72
     5
  1
\A1;142
1001
ACAD
1000
MTEXTBEGIN
1070
    73
1070
     1
1070
    44
1040
1.0
1070
    74
1070
     0
1000
MTEXTEND
1000
MTEXTBEGIN
1070
    73
1070
     1
1070
    44
1040
1.0
1070
    74
1070
     0
1000
MTEXTEND
  0
POINT
  5
467
330
3EF
100
AcDbEntity
  8
DEFPOINTS
  6
BYBLOCK
 62
     0
100
AcDbPoint
 10
492.896677866564
 20
371.6927982864465
 30
0.0
  0
POINT
  5
468
330
3EF
100
AcDbEntity
  8
DEFPOINTS
  6
BYBLOCK
 62
     0
100
AcDbPoint
 10
635.295077866564
 20
371.6927982864465
 30
0.0
  0
POINT
  5
469
330
3EF
100
AcDbEntity
  8
DEFPOINTS
  6
BYBLOCK
 62
     0
100
AcDbPoint
 10
635.295077866564
 20
412.0957752669573
 30
0.0
  0
ENDBLK
  5
46A
330
3EF
100
AcDbEntity
  8
0
100
AcDbBlockEnd
  0
ENDSEC
  0
SECTION
  2
ENTITIES
  0
LINE
  5
2AE
330
1A
100
AcDbEntity
  8
CENTER_L
  6
CENTER
 62
     1
 48
5.0
100
AcDbLine
 10
277.6079084547657
 20
179.7618899417254
 30
0.0
 11
277.6081084547657
 21
358.5046899417254
 31
0.0
  0
ARC
  5
2AF
330
1A
100
AcDbEntity
  8
SEIHIN
  6
CONTINUOUS
 62
     3
100
AcDbCircle
 10
-603.9875915452344
 20
486.9461899417254
 30
0.0
 40
999.999966
100
AcDbArc
 50
345.4853459999999
 51
350.2388209999999
  0
ARC
  5
2B0
330
1A
100
AcDbEntity
  8
SEIHIN
  6
CONTINUOUS
 62
     3
100
AcDbCircle
 10
1159.203408454765
 20
486.9452899417255
 30
0.0
 40
999.99979
100
AcDbArc
 50
189.760903
 51
194.514443
  0
DIMENSION
  5
2B1
330
1A
100
AcDbEntity
  8
SUNPOU
100
AcDbDimension
  2
*D1
 10
191.5085092701057
 20
159.3072257522607
 30
0.0
 11
277.6078691223792
 21
164.3072257522607
 31
0.0
 12
30.71658911617214
 22
-23.8709083447211
 32
0.0
 70
    32
  3
STANDARD
100
AcDbAlignedDimension
 13
363.7072289746526
 23
234.8218826268916
 33
0.0
 14
191.5085092701057
 24
234.8219826255734
 34
0.0
100
AcDbRotatedDimension
1001
ACAD
1000
DSTYLE
1002
{
1070
   140
1040
6.0
1070
    74
1070
     0
1070
   172
1070
     1
1070
    73
1070
     0
1070
   272
1070
     2
1070
    77
1070
     3
1070
   173
1070
     1
1070
   147
1040
2.0
1070
    42
1040
6.0
1070
    44
1040
3.0
1070
    43
1040
14.0
1070
   271
1070
     0
1070
   178
1070
     4
1070
   177
1070
     4
1070
   176
1070
     4
1070
   141
1040
150.0
1070
     7
1000
_OPEN
1070
     6
1000
_OPEN
1070
    41
1040
7.0
1002
}
  0
LINE
  5
2B2
330
1A
100
AcDbEntity
  8
SEIHIN
  6
CONTINUOUS
 62
     3
100
AcDbLine
 10
369.6454084547657
 20
258.8231899417254
 30
0.0
 11
277.6081084547657
 21
258.8232899417254
 31
0.0
  0
LINE
  5
2B3
330
1A
100
AcDbEntity
  8
SEIHIN
  6
CONTINUOUS
 62
     3
100
AcDbLine
 10
312.6079084547658
 20
197.4220899417255
 30
0.0
 11
277.6079084547657
 21
197.4220899417255
 31
0.0
  0
LINE
  5
2B4
330
1A
100
AcDbEntity
  8
SEIHIN
  6
CONTINUOUS
 62
     3
100
AcDbLine
 10
306.8081084547657
 20
191.4221899417254
 30
0.0
 11
277.6081084547657
 21
191.4223899417254
 31
0.0
  0
LINE
  5
2B5
330
1A
100
AcDbEntity
  8
SEIHIN
  6
CONTINUOUS
 62
     3
100
AcDbLine
 10
362.1610084547657
 20
234.8218899417254
 30
0.0
 11
277.6084084547657
 21
234.8222899417254
 31
0.0
  0
ARC
  5
2B6
330
1A
100
AcDbEntity
  8
SEIHIN
  6
CONTINUOUS
 62
     3
100
AcDbCircle
 10
340.6375084547657
 20
217.1758899417254
 30
0.0
 40
90.99997900000001
100
AcDbArc
 50
183.2900189999999
 51
192.537214
  0
ARC
  5
2B7
330
1A
100
AcDbEntity
  8
SEIHIN
  6
CONTINUOUS
 62
     3
100
AcDbCircle
 10
340.6375084547657
 20
217.1758899417254
 30
0.0
 40
99.99998000000001
100
AcDbArc
 50
183.2900689999999
 51
191.392915
  0
LINE
  5
2B8
330
1A
100
AcDbEntity
  8
SEIHIN
  6
CONTINUOUS
 62
     3
100
AcDbLine
 10
242.6079084547657
 20
197.4220899417255
 30
0.0
 11
277.6079084547657
 21
197.4220899417255
 31
0.0
  0
LINE
  5
2B9
330
1A
100
AcDbEntity
  8
SEIHIN
  6
CONTINUOUS
 62
     3
100
AcDbLine
 10
248.4078084547657
 20
191.4221899417254
 30
0.0
 11
277.6078084547658
 21
191.4223899417254
 31
0.0
  0
LINE
  5
2BA
330
1A
100
AcDbEntity
  8
SEIHIN
  6
CONTINUOUS
 62
     3
100
AcDbLine
 10
248.4080084547656
 20
191.4221899417254
 30
0.0
 11
248.4080084547656
 21
197.4224899417254
 31
0.0
  0
LINE
  5
2BB
330
1A
100
AcDbEntity
  8
SEIHIN
  6
CONTINUOUS
 62
     3
100
AcDbLine
 10
193.0550084547657
 20
234.8219899417255
 30
0.0
 11
277.6076084547657
 21
234.8223899417255
 31
0.0
  0
LINE
  5
2BC
330
1A
100
AcDbEntity
  8
SEIHIN
  6
CONTINUOUS
 62
     3
100
AcDbLine
 10
185.5706084547658
 20
258.8232899417254
 30
0.0
 11
277.6079084547657
 21
258.8232899417254
 31
0.0
  0
ARC
  5
2BD
330
1A
100
AcDbEntity
  8
SEIHIN
  6
CONTINUOUS
 62
     3
100
AcDbCircle
 10
193.0550084547657
 20
236.8219899417255
 30
0.0
 40
2.000021999999999
100
AcDbArc
 50
194.51566
 51
270.0
  0
LINE
  5
2BE
330
1A
100
AcDbEntity
  8
SEIHIN
  6
CONTINUOUS
 62
     3
100
AcDbLine
 10
249.7874084547657
 20
211.9532899417254
 30
0.0
 11
248.4728084547658
 21
234.8220899417254
 31
0.0
  0
LINE
  5
2BF
330
1A
100
AcDbEntity
  8
SEIHIN
  6
CONTINUOUS
 62
     3
100
AcDbLine
 10
239.4579084547657
 20
234.8220899417254
 30
0.0
 11
240.8023084547657
 21
211.4366899417254
 31
0.0
  0
ARC
  5
2C0
330
1A
100
AcDbEntity
  8
SEIHIN
  6
CONTINUOUS
 62
     3
100
AcDbCircle
 10
214.5784084547656
 20
217.1759899417254
 30
0.0
 40
99.99994200000001
100
AcDbArc
 50
348.606793
 51
356.709699
  0
ARC
  5
2C1
330
1A
100
AcDbEntity
  8
SEIHIN
  6
CONTINUOUS
 62
     3
100
AcDbCircle
 10
214.5784084547656
 20
217.1759899417254
 30
0.0
 40
91.00000899999999
100
AcDbArc
 50
347.4626629999999
 51
356.709792
  0
LINE
  5
2C2
330
1A
100
AcDbEntity
  8
SEIHIN
  6
CONTINUOUS
 62
     3
100
AcDbLine
 10
306.8080084547657
 20
191.4221899417254
 30
0.0
 11
306.8079084547658
 21
197.4224899417254
 31
0.0
  0
LINE
  5
2C3
330
1A
100
AcDbEntity
  8
SEIHIN
  6
CONTINUOUS
 62
     3
100
AcDbLine
 10
315.7580084547657
 20
234.8220899417254
 30
0.0
 11
314.4136084547657
 21
211.4366899417254
 31
0.0
  0
LINE
  5
2C4
330
1A
100
AcDbEntity
  8
SEIHIN
  6
CONTINUOUS
 62
     3
100
AcDbLine
 10
305.4284084547658
 20
211.9531899417254
 30
0.0
 11
306.7431084547657
 21
234.8220899417254
 31
0.0
  0
ARC
  5
2C5
330
1A
100
AcDbEntity
  8
SEIHIN
  6
CONTINUOUS
 62
     3
100
AcDbCircle
 10
362.1610084547657
 20
236.8218899417254
 30
0.0
 40
2.000021999999999
100
AcDbArc
 50
270.0
 51
345.4843399999999
  0
DIMENSION
  5
2C6
330
1A
100
AcDbEntity
  8
SUNPOU
100
AcDbDimension
  2
*D2
 10
388.6081084547657
 20
388.2248669222363
 30
0.0
 11
277.6081084547657
 21
393.2248669222362
 31
0.0
 12
30.71658911617214
 22
-23.8709083447211
 32
0.0
 70
    32
  3
STANDARD
100
AcDbAlignedDimension
 13
166.6081084547657
 23
347.8224899417255
 33
0.0
 14
388.6081084547657
 24
347.8223899417255
 34
0.0
100
AcDbRotatedDimension
1001
ACAD
1000
DSTYLE
1002
{
1070
   140
1040
6.0
1070
    74
1070
     0
1070
   172
1070
     1
1070
    73
1070
     0
1070
   272
1070
     2
1070
    77
1070
     3
1070
   173
1070
     1
1070
   147
1040
2.0
1070
    42
1040
6.0
1070
    44
1040
3.0
1070
    43
1040
14.0
1070
   271
1070
     0
1070
   178
1070
     4
1070
   177
1070
     4
1070
   176
1070
     4
1070
   141
1040
150.0
1070
     7
1000
_OPEN
1070
     6
1000
_OPEN
1070
    41
1040
7.0
1002
}
  0
LINE
  5
2C7
330
1A
100
AcDbEntity
  8
SEIHIN
  6
CONTINUOUS
 62
     3
100
AcDbLine
 10
169.5810084547657
 20
317.8218899417254
 30
0.0
 11
277.6068084547658
 21
317.8227899417254
 31
0.0
  0
LINE
  5
2C8
330
1A
100
AcDbEntity
  8
SEIHIN
  6
CONTINUOUS
 62
     3
100
AcDbLine
 10
277.6071084547657
 20
347.8223899417255
 30
0.0
 11
166.6081084547657
 21
347.8218899417254
 31
0.0
  0
LINE
  5
2C9
330
1A
100
AcDbEntity
  8
SEIHIN
  6
CONTINUOUS
 62
     3
100
AcDbLine
 10
277.6070084547658
 20
345.3224899417254
 30
0.0
 11
166.6081084547657
 21
345.3217899417254
 31
0.0
  0
LINE
  5
2CA
330
1A
100
AcDbEntity
  8
SEIHIN
  6
CONTINUOUS
 62
     3
100
AcDbLine
 10
166.6081084547657
 20
347.8224899417255
 30
0.0
 11
166.6081084547657
 21
336.5218899417254
 31
0.0
  0
LINE
  5
2CB
330
1A
100
AcDbEntity
  8
SEIHIN
  6
CONTINUOUS
 62
     3
100
AcDbLine
 10
167.6081084547657
 20
345.3224899417254
 30
0.0
 11
168.0812084547657
 21
319.2945899417254
 31
0.0
  0
ARC
  5
2CC
330
1A
100
AcDbEntity
  8
SEIHIN
  6
CONTINUOUS
 62
     3
100
AcDbCircle
 10
169.5810084547657
 20
319.3218899417254
 30
0.0
 40
1.499973999999999
100
AcDbArc
 50
181.042877
 51
270.0
  0
LINE
  5
2CD
330
1A
100
AcDbEntity
  8
SEIHIN
  6
CONTINUOUS
 62
     3
100
AcDbLine
 10
166.6081084547657
 20
336.5221899417255
 30
0.0
 11
167.7680084547657
 21
336.5221899417255
 31
0.0
  0
DIMENSION
  5
2CE
330
1A
100
AcDbEntity
  8
SUNPOU
100
AcDbDimension
  2
*D3
 10
237.6080965018338
 20
372.2380289611896
 30
0.0
 11
277.6080965018745
 21
377.2380289611896
 31
0.0
 12
30.71658911617214
 22
-23.8709083447211
 32
0.0
 70
    32
  1
※a<>
  3
STANDARD
100
AcDbAlignedDimension
 13
317.6080965019152
 23
347.8222376929517
 33
0.0
 14
237.6080965018338
 24
347.8222097643727
 34
0.0
100
AcDbRotatedDimension
1001
ACAD
1000
DSTYLE
1002
{
1070
   140
1040
6.0
1070
    74
1070
     0
1070
   172
1070
     1
1070
    73
1070
     0
1070
   272
1070
     2
1070
    77
1070
     3
1070
   173
1070
     1
1070
   147
1040
2.0
1070
    42
1040
6.0
1070
    44
1040
3.0
1070
    43
1040
14.0
1070
   271
1070
     0
1070
   178
1070
     4
1070
   177
1070
     4
1070
   176
1070
     4
1070
   141
1040
150.0
1070
     7
1000
_OPEN
1070
     6
1000
_OPEN
1070
    41
1040
7.0
1002
}
  0
LINE
  5
2CF
330
1A
100
AcDbEntity
  8
SEIHIN
  6
CONTINUOUS
 62
     3
100
AcDbLine
 10
277.6090084547657
 20
345.3224899417254
 30
0.0
 11
388.6079084547657
 21
345.3217899417254
 31
0.0
  0
LINE
  5
2D0
330
1A
100
AcDbEntity
  8
SEIHIN
  6
CONTINUOUS
 62
     3
100
AcDbLine
 10
385.6350084547658
 20
317.8216899417254
 30
0.0
 11
277.6091084547656
 21
317.8226899417254
 31
0.0
  0
LINE
  5
2D1
330
1A
100
AcDbEntity
  8
SEIHIN
  6
CONTINUOUS
 62
     3
100
AcDbLine
 10
277.6090084547657
 20
347.8224899417255
 30
0.0
 11
388.6080084547657
 21
347.8217899417254
 31
0.0
  0
ARC
  5
2D2
330
1A
100
AcDbEntity
  8
SEIHIN
  6
CONTINUOUS
 62
     3
100
AcDbCircle
 10
173.1870084547657
 20
317.3218899417254
 30
0.0
 40
0.499972
100
AcDbArc
 50
9.765660999999999
 51
90.0
  0
LINE
  5
2D3
330
1A
100
AcDbEntity
  8
SEIHIN
  6
CONTINUOUS
 62
     3
100
AcDbLine
 10
388.6081084547657
 20
347.8223899417255
 30
0.0
 11
388.6081084547657
 21
336.5218899417254
 31
0.0
  0
LINE
  5
2D4
330
1A
100
AcDbEntity
  8
SEIHIN
  6
CONTINUOUS
 62
     3
100
AcDbLine
 10
387.6081084547657
 20
345.3223899417255
 30
0.0
 11
387.1349084547658
 21
319.2944899417255
 31
0.0
  0
ARC
  5
2D5
330
1A
100
AcDbEntity
  8
SEIHIN
  6
CONTINUOUS
 62
     3
100
AcDbCircle
 10
385.6350084547658
 20
319.3216899417254
 30
0.0
 40
1.500072999999999
100
AcDbArc
 50
270.0
 51
358.9610809999999
  0
ARC
  5
2D6
330
1A
100
AcDbEntity
  8
SEIHIN
  6
CONTINUOUS
 62
     3
100
AcDbCircle
 10
382.0290084547658
 20
317.3217899417254
 30
0.0
 40
0.5000130000000001
100
AcDbArc
 50
90.0
 51
170.247575
  0
LINE
  5
2D7
330
1A
100
AcDbEntity
  8
SEIHIN
  6
CONTINUOUS
 62
     3
100
AcDbLine
 10
388.6081084547657
 20
336.5219899417254
 30
0.0
 11
387.4481084547657
 21
336.5219899417254
 31
0.0
  0
DIMENSION
  5
2D8
330
1A
100
AcDbEntity
  8
SUNPOU
100
AcDbDimension
  2
*D4
 10
499.3793497401015
 20
282.8219079418412
 30
0.0
 11
494.3793497401015
 21
315.3218989417833
 31
0.0
 12
30.71658911617214
 22
-23.8709083447211
 32
0.0
 70
    32
  3
STANDARD
100
AcDbAlignedDimension
 13
523.6132669827362
 23
347.8218899417254
 33
0.0
 14
586.3316671673981
 24
282.8219079418412
 34
0.0
 50
90.0
100
AcDbRotatedDimension
1001
ACAD
1000
DSTYLE
1002
{
1070
   140
1040
6.0
1070
    74
1070
     0
1070
   172
1070
     1
1070
    73
1070
     0
1070
   272
1070
     2
1070
    77
1070
     3
1070
   173
1070
     1
1070
   147
1040
2.0
1070
    42
1040
6.0
1070
    44
1040
3.0
1070
    43
1040
14.0
1070
   271
1070
     0
1070
   178
1070
     4
1070
   177
1070
     4
1070
   176
1070
     4
1070
   141
1040
150.0
1070
     7
1000
_OPEN
1070
     6
1000
_OPEN
1070
    41
1040
7.0
1002
}
  0
DIMENSION
  5
2D9
330
1A
100
AcDbEntity
  8
SUNPOU
100
AcDbDimension
  2
*D5
 10
482.7388708631732
 20
234.8224899417254
 30
0.0
 11
477.7388708631733
 21
291.3221899417255
 31
0.0
 12
30.71658911617214
 22
-23.8709083447211
 32
0.0
 70
    32
  3
STANDARD
100
AcDbAlignedDimension
 13
523.6132669827362
 23
347.8218899417254
 33
0.0
 14
549.5820669827362
 24
234.8224899417254
 34
0.0
 50
90.0
100
AcDbRotatedDimension
1001
ACAD
1000
DSTYLE
1002
{
1070
   140
1040
6.0
1070
    74
1070
     0
1070
   172
1070
     1
1070
    73
1070
     0
1070
   272
1070
     2
1070
    77
1070
     3
1070
   173
1070
     1
1070
   147
1040
2.0
1070
    42
1040
6.0
1070
    44
1040
3.0
1070
    43
1040
14.0
1070
   271
1070
     0
1070
   178
1070
     4
1070
   177
1070
     4
1070
   176
1070
     4
1070
   141
1040
150.0
1070
     7
1000
_OPEN
1070
     6
1000
_OPEN
1070
    41
1040
7.0
1002
}
  0
DIMENSION
  5
2DA
330
1A
100
AcDbEntity
  8
SUNPOU
100
AcDbDimension
  2
*D6
 10
466.2181079164538
 20
191.4220899417254
 30
0.0
 11
461.2181079164537
 21
269.6219899417254
 31
0.0
 12
30.71658911617214
 22
-23.8709083447211
 32
0.0
 70
    32
  3
STANDARD
100
AcDbAlignedDimension
 13
523.6132669827362
 23
347.8218899417254
 33
0.0
 14
565.4233669827361
 24
191.4220899417254
 34
0.0
 50
90.0
100
AcDbRotatedDimension
1001
ACAD
1000
DSTYLE
1002
{
1070
   140
1040
6.0
1070
    74
1070
     0
1070
   172
1070
     1
1070
    73
1070
     0
1070
   272
1070
     2
1070
    77
1070
     3
1070
   173
1070
     1
1070
   147
1040
2.0
1070
    42
1040
6.0
1070
    44
1040
3.0
1070
    43
1040
14.0
1070
   271
1070
     0
1070
   178
1070
     4
1070
   177
1070
     4
1070
   176
1070
     4
1070
   141
1040
150.0
1070
     7
1000
_OPEN
1070
     6
1000
_OPEN
1070
    41
1040
7.0
1002
}
  0
LINE
  5
2DB
330
1A
100
AcDbEntity
  8
SEIHIN
  6
CONTINUOUS
 62
     3
100
AcDbLine
 10
645.9328669827361
 20
319.9213899417254
 30
0.0
 11
643.164366982736
 21
292.2339899417254
 31
0.0
  0
LINE
  5
2DC
330
1A
100
AcDbEntity
  8
NOKITOI
  6
PHANTOM
 62
     8
 48
5.0
100
AcDbLine
 10
646.033045144808
 20
320.9214907382544
 30
0.0
 11
643.1642451448079
 21
292.2340907382544
 31
0.0
  0
LINE
  5
2DD
330
1A
100
AcDbEntity
  8
NOKITOI
  6
PHANTOM
 62
     8
 48
5.0
100
AcDbLine
 10
644.9920451448079
 20
322.5717907382545
 30
0.0
 11
641.9990451448074
 21
292.6419907382543
 31
0.0
  0
LINE
  5
2DE
330
1A
100
AcDbEntity
  8
SEIHIN
  6
CONTINUOUS
 62
     3
100
AcDbLine
 10
652.7317669827361
 20
258.9055899417254
 30
0.0
 11
658.5782669827363
 21
317.3715899417254
 31
0.0
  0
ARC
  5
2DF
330
1A
100
AcDbEntity
  8
NOKITOI
  6
PHANTOM
 62
     8
 48
5.0
100
AcDbCircle
 10
586.9366512267756
 20
325.8219851135981
 30
0.0
 40
41.79999437547816
100
AcDbArc
 50
184.474295212525
 51
269.9998545921086
  0
LINE
  5
2E0
330
1A
100
AcDbEntity
  8
SEIHIN
  6
CONTINUOUS
 62
     3
100
AcDbLine
 10
533.5712669827362
 20
287.7821899417255
 30
0.0
 11
531.9077669827361
 21
304.6773899417255
 31
0.0
  0
ARC
  5
2E1
330
1A
100
AcDbEntity
  8
SEIHIN
  6
CONTINUOUS
 62
     3
100
AcDbCircle
 10
586.3317669827361
 20
325.8218899417254
 30
0.0
 40
42.999982
100
AcDbArc
 50
187.837437
 51
269.9998669999999
  0
ARC
  5
2E2
330
1A
100
AcDbEntity
  8
NOKITOI
  6
PHANTOM
 62
     8
 48
5.0
100
AcDbCircle
 10
586.9366289183504
 20
325.8220052146245
 30
0.0
 40
43.00001447645168
100
AcDbArc
 50
186.524910707118
 51
269.999888375144
  0
LINE
  5
2E3
330
1A
100
AcDbEntity
  8
CENTER_L
  6
CENTER
 62
     1
 48
5.0
100
AcDbLine
 10
594.6232669827361
 20
182.2723899417254
 30
0.0
 11
594.6233669827361
 21
315.9425899417255
 31
0.0
  0
DIMENSION
  5
2E6
330
1A
100
AcDbEntity
  8
SUNPOU
  6
CONTINUOUS
100
AcDbDimension
  2
*D7
 10
559.6233041684427
 20
139.150932262451
 30
0.0
 11
594.6232824248543
 21
144.150932262451
 31
0.0
 12
30.71658911617214
 22
-23.8709083447211
 32
0.0
 70
    32
  1
φ<>
  3
STANDARD
100
AcDbAlignedDimension
 13
629.6232606812659
 23
197.4219899417254
 33
0.0
 14
559.6233041684427
 24
197.4219899417254
 34
0.0
100
AcDbRotatedDimension
1001
ACAD
1000
DSTYLE
1002
{
1070
   140
1040
6.0
1070
    74
1070
     0
1070
   172
1070
     1
1070
    73
1070
     0
1070
   272
1070
     2
1070
    77
1070
     3
1070
   173
1070
     1
1070
   147
1040
2.0
1070
    42
1040
6.0
1070
    44
1040
3.0
1070
    43
1040
14.0
1070
   271
1070
     0
1070
   178
1070
     4
1070
   177
1070
     4
1070
   176
1070
     4
1070
   141
1040
150.0
1070
     7
1000
_OPEN
1070
     6
1000
_OPEN
1070
    41
1040
7.0
1002
}
  0
LINE
  5
2E7
330
1A
100
AcDbEntity
  8
SEIHIN
  6
CONTINUOUS
 62
     3
100
AcDbLine
 10
559.6233669827361
 20
197.4219899417254
 30
0.0
 11
594.6233669827361
 21
197.4219899417254
 31
0.0
  0
LINE
  5
2E8
330
1A
100
AcDbEntity
  8
SEIHIN
  6
CONTINUOUS
 62
     3
100
AcDbLine
 10
549.5820669827362
 20
234.8224899417254
 30
0.0
 11
594.6229669827362
 21
234.8221899417254
 31
0.0
  0
ARC
  5
2E9
330
1A
100
AcDbEntity
  8
SEIHIN
  6
CONTINUOUS
 62
     3
100
AcDbCircle
 10
657.6528669827362
 20
217.1757899417254
 30
0.0
 40
100.000039
100
AcDbArc
 50
183.2900689999999
 51
191.39296
  0
LINE
  5
2EA
330
1A
100
AcDbEntity
  8
SEIHIN
  6
CONTINUOUS
 62
     3
100
AcDbLine
 10
547.1274669827362
 20
258.6249899417255
 30
0.0
 11
547.5825669827361
 21
236.7808899417255
 31
0.0
  0
LINE
  5
2EB
330
1A
100
AcDbEntity
  8
SEIHIN
  6
CONTINUOUS
 62
     3
100
AcDbLine
 10
556.473366982736
 20
234.8219899417255
 30
0.0
 11
557.8176669827362
 21
211.4365899417254
 31
0.0
  0
ARC
  5
2EC
330
1A
100
AcDbEntity
  8
SEIHIN
  6
CONTINUOUS
 62
     3
100
AcDbCircle
 10
549.5820669827362
 20
236.8224899417255
 30
0.0
 40
1.999966999999999
100
AcDbArc
 50
181.194743
 51
270.0
  0
ARC
  5
2ED
330
1A
100
AcDbEntity
  8
SEIHIN
  6
CONTINUOUS
 62
     3
100
AcDbCircle
 10
581.3403669827362
 20
292.4859899417254
 30
0.0
 40
47.99994199999999
100
AcDbArc
 50
185.623544
 51
224.2969759999999
  0
LINE
  5
2EE
330
1A
100
AcDbEntity
  8
SEIHIN
  6
CONTINUOUS
 62
     3
100
AcDbLine
 10
547.1232669827361
 20
258.8225899417254
 30
0.0
 11
554.1232669827361
 21
258.8224899417255
 31
0.0
  0
ARC
  5
2EF
330
1A
100
AcDbEntity
  8
SEIHIN
  6
CONTINUOUS
 62
     3
100
AcDbCircle
 10
546.6275669827362
 20
258.6145899417255
 30
0.0
 40
0.5000210000000001
100
AcDbArc
 50
1.191818999999999
 51
44.295081
  0
DIMENSION
  5
2F0
330
1A
100
AcDbEntity
  8
SUNPOU
100
AcDbDimension
  2
*D8
 10
669.8786070051592
 20
197.4217987571072
 30
0.0
 11
664.8786070051592
 21
171.3217987571072
 31
0.0
 12
30.71658911617214
 22
-23.8709083447211
 32
0.0
 70
    32
  1
※b<>
  3
STANDARD
100
AcDbAlignedDimension
 13
631.116928280949
 23
207.4219899417254
 33
0.0
 14
629.6232221555048
 24
197.4217987571072
 34
0.0
 50
90.0
100
AcDbRotatedDimension
1001
ACAD
1000
DSTYLE
1002
{
1070
   140
1040
6.0
1070
    74
1070
     0
1070
   172
1070
     1
1070
    73
1070
     0
1070
   272
1070
     2
1070
    77
1070
     3
1070
   173
1070
     1
1070
   147
1040
2.0
1070
    42
1040
6.0
1070
    44
1040
3.0
1070
    43
1040
14.0
1070
   271
1070
     0
1070
   178
1070
     4
1070
   177
1070
     4
1070
   176
1070
     4
1070
   141
1040
150.0
1070
     7
1000
_OPEN
1070
     6
1000
_OPEN
1070
    41
1040
7.0
1002
}
  0
ARC
  5
2F1
330
1A
100
AcDbEntity
  8
SEIHIN
  6
CONTINUOUS
 62
     3
100
AcDbCircle
 10
531.5937669827362
 20
217.1758899417254
 30
0.0
 40
99.99999100000001
100
AcDbArc
 50
348.606804
 51
356.709699
  0
ARC
  5
2F2
330
1A
100
AcDbEntity
  8
SEIHIN
  6
CONTINUOUS
 62
     3
100
AcDbCircle
 10
531.5937669827362
 20
217.1758899417254
 30
0.0
 40
91.00000899999999
100
AcDbArc
 50
347.4626629999999
 51
356.709792
  0
ARC
  5
2F3
330
1A
100
AcDbEntity
  8
SEIHIN
  6
CONTINUOUS
 62
     3
100
AcDbCircle
 10
657.6528669827362
 20
217.1757899417254
 30
0.0
 40
91.00006699999999
100
AcDbArc
 50
183.2900159999999
 51
192.537139
  0
DIMENSION
  5
2F4
330
1A
100
AcDbEntity
  8
SUNPOU
  6
CONTINUOUS
100
AcDbDimension
  2
*D9
 10
565.4232669827361
 20
159.3414138370732
 30
0.0
 11
594.6233669827361
 21
164.3414138370733
 31
0.0
 12
30.71658911617214
 22
-23.8709083447211
 32
0.0
 70
    32
  1
φ<>
  3
STANDARD
100
AcDbAlignedDimension
 13
623.8234669827361
 23
191.4220899417254
 33
0.0
 14
565.4232669827361
 24
191.4220899417254
 34
0.0
100
AcDbRotatedDimension
1001
ACAD
1000
DSTYLE
1002
{
1070
   140
1040
6.0
1070
    74
1070
     0
1070
   172
1070
     1
1070
    73
1070
     0
1070
   272
1070
     2
1070
    77
1070
     3
1070
   173
1070
     1
1070
   147
1040
2.0
1070
    42
1040
6.0
1070
    44
1040
3.0
1070
    43
1040
14.0
1070
   271
1070
     0
1070
   178
1070
     4
1070
   177
1070
     4
1070
   176
1070
     4
1070
   141
1040
150.0
1070
     7
1000
_OPEN
1070
     6
1000
_OPEN
1070
    41
1040
7.0
1002
}
  0
LINE
  5
2F5
330
1A
100
AcDbEntity
  8
SEIHIN
  6
CONTINUOUS
 62
     3
100
AcDbLine
 10
629.6232669827361
 20
197.4219899417254
 30
0.0
 11
594.6232669827361
 21
197.4219899417254
 31
0.0
  0
LINE
  5
2F6
330
1A
100
AcDbEntity
  8
SEIHIN
  6
CONTINUOUS
 62
     3
100
AcDbLine
 10
623.8234669827361
 20
191.4220899417254
 30
0.0
 11
594.6234669827361
 21
191.4222899417254
 31
0.0
  0
LINE
  5
2F7
330
1A
100
AcDbEntity
  8
SEIHIN
  6
CONTINUOUS
 62
     3
100
AcDbLine
 10
565.4232669827361
 20
191.4220899417254
 30
0.0
 11
594.6231669827361
 21
191.4222899417254
 31
0.0
  0
LINE
  5
2F8
330
1A
100
AcDbEntity
  8
SEIHIN
  6
CONTINUOUS
 62
     3
100
AcDbLine
 10
565.4233669827361
 20
191.4220899417254
 30
0.0
 11
565.423466982736
 21
197.4223899417254
 31
0.0
  0
LINE
  5
2F9
330
1A
100
AcDbEntity
  8
SEIHIN
  6
CONTINUOUS
 62
     3
100
AcDbLine
 10
623.8233669827361
 20
191.4220899417254
 30
0.0
 11
623.8233669827361
 21
197.4222899417254
 31
0.0
  0
LINE
  5
2FA
330
1A
100
AcDbEntity
  8
SEIHIN
  6
CONTINUOUS
 62
     3
100
AcDbLine
 10
586.3317669827361
 20
282.8218899417255
 30
0.0
 11
631.7661669827361
 21
282.8218899417255
 31
0.0
  0
LINE
  5
2FB
330
1A
100
AcDbEntity
  8
NOKITOI
  6
PHANTOM
 62
     8
 48
5.0
100
AcDbLine
 10
631.7660451448078
 20
282.8218907382544
 30
0.0
 11
586.9366451448077
 21
282.8219907382544
 31
0.0
  0
LINE
  5
2FC
330
1A
100
AcDbEntity
  8
NOKITOI
  6
PHANTOM
 62
     8
 48
5.0
100
AcDbLine
 10
586.9366451448077
 20
284.0219907382545
 30
0.0
 11
631.5162451448077
 21
284.0218907382545
 31
0.0
  0
LINE
  5
2FD
330
1A
100
AcDbEntity
  8
SEIHIN
  6
CONTINUOUS
 62
     3
100
AcDbLine
 10
640.3449669827361
 20
234.8219899417255
 30
0.0
 11
594.623766982736
 21
234.8221899417254
 31
0.0
  0
LINE
  5
2FE
330
1A
100
AcDbEntity
  8
SEIHIN
  6
CONTINUOUS
 62
     3
100
AcDbLine
 10
566.8027669827361
 20
211.9530899417254
 30
0.0
 11
565.4882669827361
 21
234.8219899417255
 31
0.0
  0
LINE
  5
2FF
330
1A
100
AcDbEntity
  8
SEIHIN
  6
CONTINUOUS
 62
     3
100
AcDbLine
 10
622.4437669827361
 20
211.9530899417254
 30
0.0
 11
623.758466982736
 21
234.8218899417254
 31
0.0
  0
LINE
  5
300
330
1A
100
AcDbEntity
  8
NOKITOI
  6
PHANTOM
 62
     8
 48
5.0
100
AcDbLine
 10
627.5162451448077
 20
284.0218907382545
 30
0.0
 11
607.608145144808
 21
284.0218907382545
 31
0.0
  0
LINE
  5
301
330
1A
100
AcDbEntity
  8
NOKITOI
  6
PHANTOM
 62
     8
 48
5.0
100
AcDbLine
 10
627.7660451448078
 20
282.8218907382544
 30
0.0
 11
607.608145144808
 21
282.8218907382544
 31
0.0
  0
LINE
  5
302
330
1A
100
AcDbEntity
  8
SEIHIN
  6
CONTINUOUS
 62
     3
100
AcDbLine
 10
642.1602669827361
 20
235.9823899417254
 30
0.0
 11
652.687966982736
 21
258.7454899417255
 31
0.0
  0
LINE
  5
303
330
1A
100
AcDbEntity
  8
SEIHIN
  6
CONTINUOUS
 62
     3
100
AcDbLine
 10
632.7733669827361
 20
234.8218899417254
 30
0.0
 11
631.428966982736
 21
211.4365899417254
 31
0.0
  0
ARC
  5
304
330
1A
100
AcDbEntity
  8
SEIHIN
  6
CONTINUOUS
 62
     3
100
AcDbCircle
 10
640.3449669827361
 20
236.8219899417255
 30
0.0
 40
1.999963999999999
100
AcDbArc
 50
270.0
 51
335.180239
  0
ARC
  5
305
330
1A
100
AcDbEntity
  8
SEIHIN
  6
CONTINUOUS
 62
     3
100
AcDbCircle
 10
652.234166982736
 20
258.9553899417254
 30
0.0
 40
0.4999890000000001
100
AcDbArc
 50
335.1776389999999
 51
354.283706
  0
LINE
  5
306
330
1A
100
AcDbEntity
  8
SEIHIN
  6
CONTINUOUS
 62
     3
100
AcDbLine
 10
652.723366982736
 20
258.8218899417254
 30
0.0
 11
648.3162669827361
 21
258.8218899417254
 31
0.0
  0
LINE
  5
307
330
1A
100
AcDbEntity
  8
SEIHIN
  6
CONTINUOUS
 62
     3
100
AcDbLine
 10
632.3994669827361
 20
283.0479899417255
 30
0.0
 11
642.8024669827362
 21
291.5595899417254
 31
0.0
  0
LINE
  5
308
330
1A
100
AcDbEntity
  8
NOKITOI
  6
PHANTOM
 62
     8
 48
5.0
100
AcDbLine
 10
642.8024451448077
 20
291.5595907382546
 30
0.0
 11
632.3993451448077
 21
283.0478907382545
 31
0.0
  0
LINE
  5
309
330
1A
100
AcDbEntity
  8
NOKITOI
  6
PHANTOM
 62
     8
 48
5.0
100
AcDbLine
 10
641.8181451448081
 20
292.3046907382545
 30
0.0
 11
631.8328451448078
 21
284.1348907382543
 31
0.0
  0
ARC
  5
30A
330
1A
100
AcDbEntity
  8
SEIHIN
  6
CONTINUOUS
 62
     3
100
AcDbCircle
 10
631.7661669827361
 20
283.8218899417254
 30
0.0
 40
1.000036
100
AcDbArc
 50
270.0
 51
309.290616
  0
ARC
  5
30B
330
1A
100
AcDbEntity
  8
NOKITOI
  6
PHANTOM
 62
     8
 48
5.0
100
AcDbCircle
 10
631.5162515325564
 20
284.521893018244
 30
0.0
 40
0.5000022800304047
100
AcDbArc
 50
269.9992680212786
 51
309.2854498596058
  0
ARC
  5
30C
330
1A
100
AcDbEntity
  8
NOKITOI
  6
PHANTOM
 62
     8
 48
5.0
100
AcDbCircle
 10
631.7660382122303
 20
283.8218882632483
 30
0.0
 40
0.9999975250179316
100
AcDbArc
 50
270.0003972084043
 51
309.2946416752298
  0
ARC
  5
30D
330
1A
100
AcDbEntity
  8
SEIHIN
  6
CONTINUOUS
 62
     3
100
AcDbCircle
 10
642.1693669827361
 20
292.3334899417254
 30
0.0
 40
0.9999859999999999
100
AcDbArc
 50
309.2861819999999
 51
354.289407
  0
ARC
  5
30E
330
1A
100
AcDbEntity
  8
NOKITOI
  6
PHANTOM
 62
     8
 48
5.0
100
AcDbCircle
 10
642.1692225719389
 20
292.3335486665818
 30
0.0
 40
0.9999908507640039
100
AcDbArc
 50
309.2887092230696
 51
354.2862329477531
  0
ARC
  5
30F
330
1A
100
AcDbEntity
  8
NOKITOI
  6
PHANTOM
 62
     8
 48
5.0
100
AcDbCircle
 10
641.5015277189295
 20
292.6916582518665
 30
0.0
 40
0.4999904508696396
100
AcDbArc
 50
309.2900846377958
 51
354.2990110749245
  0
DIMENSION
  5
310
330
1A
100
AcDbEntity
  8
SUNPOU
100
AcDbDimension
  2
*D10
 10
666.0116669827361
 20
388.2248669222363
 30
0.0
 11
594.8124669827361
 21
393.2248669222362
 31
0.0
 12
30.71658911617214
 22
-23.8709083447211
 32
0.0
 70
    32
  3
STANDARD
100
AcDbAlignedDimension
 13
523.6132669827362
 23
347.8218899417254
 33
0.0
 14
666.0116669827361
 24
347.8218899417254
 34
0.0
100
AcDbRotatedDimension
1001
ACAD
1000
DSTYLE
1002
{
1070
   140
1040
6.0
1070
    74
1070
     0
1070
   172
1070
     1
1070
    73
1070
     0
1070
   272
1070
     2
1070
    77
1070
     3
1070
   173
1070
     1
1070
   147
1040
2.0
1070
    42
1040
6.0
1070
    44
1040
3.0
1070
    43
1040
14.0
1070
   271
1070
     0
1070
   178
1070
     4
1070
   177
1070
     4
1070
   176
1070
     4
1070
   141
1040
150.0
1070
     7
1000
_OPEN
1070
     6
1000
_OPEN
1070
    41
1040
7.0
1002
}
  0
MTEXT
  5
311
330
1A
100
AcDbEntity
  8
SUNPOU
  6
CONTINUOUS
 62
     4
100
AcDbMText
 10
556.5776162652896
 20
370.0223871199696
 30
0.0
 40
6.0
 41
0.0
 71
     7
 72
     5
  1
4-φ2.0
1001
ACAD
1000
MTEXTBEGIN
1070
    73
1070
     1
1070
    44
1040
1.0
1070
    74
1070
     0
1000
MTEXTEND
1000
MTEXTBEGIN
1070
    73
1070
     1
1070
    44
1040
1.0
1070
    74
1070
     0
1000
MTEXTEND
  0
LEADER
  5
312
330
1A
100
AcDbEntity
  8
SUNPOU
  6
CONTINUOUS
 62
     4
100
AcDbLeader
  3
STANDARD
 73
     0
 74
     0
 40
6.0
 41
30.19999999999999
 76
     3
 10
538.9496794167357
 20
342.9172957683862
 30
0.0
 10
553.032511380858
 20
368.0223871199696
 30
0.0
 10
554.5776162652896
 20
368.0223871199696
 30
0.0
1001
ACAD
1000
DSTYLE
1002
{
1070
     6
1000
OPEN
1070
    41
1040
7.0
1070
    42
1040
6.0
1070
    43
1040
14.0
1070
    44
1040
3.0
1070
    73
1070
     0
1070
    74
1070
     0
1070
    77
1070
     3
1070
   140
1040
6.0
1070
   141
1040
150.0
1070
   147
1040
2.0
1070
   172
1070
     1
1070
   173
1070
     1
1070
   176
1070
     4
1070
   177
1070
     4
1070
   178
1070
     4
1070
   271
1070
     0
1070
   272
1070
     2
1070
   341
1005
6D
1070
   343
1005
6D
1070
   344
1005
6D
1002
}
  0
LINE
  5
313
330
1A
100
AcDbEntity
  8
CENTER_L
  6
CENTER
 62
     1
 48
5.0
100
AcDbLine
 10
538.2736669827361
 20
344.3218899417254
 30
0.0
 11
538.2737669827361
 21
339.3405899417255
 31
0.0
  0
LINE
  5
314
330
1A
100
AcDbEntity
  8
SEIHIN
  6
CONTINUOUS
 62
     3
100
AcDbLine
 10
541.6731669827361
 20
344.3218899417254
 30
0.0
 11
541.6732669827361
 21
336.5218899417254
 31
0.0
  0
ARC
  5
315
330
1A
100
AcDbEntity
  8
SEIHIN
  6
CONTINUOUS
 62
     3
100
AcDbCircle
 10
538.8607669827361
 20
341.8218899417254
 30
0.0
 40
6.000026999999999
100
AcDbArc
 50
297.9518299999999
 51
90.0
  0
LINE
  5
316
330
1A
100
AcDbEntity
  8
SEIHIN
  6
CONTINUOUS
 62
     3
100
AcDbLine
 10
524.6132669827361
 20
345.3217899417254
 30
0.0
 11
525.1015669827361
 21
318.4751899417254
 31
0.0
  0
ARC
  5
317
330
1A
100
AcDbEntity
  8
SEIHIN
  6
CONTINUOUS
 62
     3
100
AcDbCircle
 10
512.003966982736
 20
302.7173899417255
 30
0.0
 40
20.000037
100
AcDbArc
 50
5.623708
 51
47.238777
  0
LINE
  5
318
330
1A
100
AcDbEntity
  8
SEIHIN
  6
CONTINUOUS
 62
     3
100
AcDbLine
 10
544.0824669827361
 20
317.8218899417254
 30
0.0
 11
525.9565669827361
 21
317.8217899417254
 31
0.0
  0
ARC
  5
319
330
1A
100
AcDbEntity
  8
SEIHIN
  6
CONTINUOUS
 62
     3
100
AcDbCircle
 10
526.6012669827362
 20
318.5024899417254
 30
0.0
 40
1.499973999999999
100
AcDbArc
 50
181.042877
 51
227.239657
  0
LINE
  5
31A
330
1A
100
AcDbEntity
  8
NOKITOI
  6
PHANTOM
 62
     8
 48
5.0
100
AcDbLine
 10
540.4046451448075
 20
328.8927907382546
 30
0.0
 11
540.7383451448076
 21
331.2289907382545
 31
0.0
  0
LINE
  5
31B
330
1A
100
AcDbEntity
  8
NOKITOI
  6
PHANTOM
 62
     8
 48
5.0
100
AcDbLine
 10
543.6480451448078
 20
328.7957907382544
 30
0.0
 11
543.9638451448076
 21
334.7956907382544
 31
0.0
  0
LINE
  5
31C
330
1A
100
AcDbEntity
  8
NOKITOI
  6
PHANTOM
 62
     8
 48
5.0
100
AcDbLine
 10
535.1875451448076
 20
335.7594907382544
 30
0.0
 11
535.5777451448075
 21
323.2751907382543
 31
0.0
  0
ARC
  5
31D
330
1A
100
AcDbEntity
  8
NOKITOI
  6
PHANTOM
 62
     8
 48
5.0
100
AcDbCircle
 10
540.6381830262544
 20
327.8220345207798
 30
0.0
 40
3.999989731271038
100
AcDbArc
 50
96.47731142013144
 51
181.7899836067308
  0
LINE
  5
31E
330
1A
100
AcDbEntity
  8
SEIHIN
  6
CONTINUOUS
 62
     3
100
AcDbLine
 10
535.0821669827362
 20
322.2794899417255
 30
0.0
 11
534.681466982736
 21
336.4653899417255
 31
0.0
  0
LINE
  5
31F
330
1A
100
AcDbEntity
  8
NOKITOI
  6
PHANTOM
 62
     8
 48
5.0
100
AcDbLine
 10
544.7655451448081
 20
323.0219907382545
 30
0.0
 11
538.7246451448077
 21
323.0219907382545
 31
0.0
  0
LINE
  5
320
330
1A
100
AcDbEntity
  8
SEIHIN
  6
CONTINUOUS
 62
     3
100
AcDbLine
 10
536.5815669827362
 20
320.8218899417254
 30
0.0
 11
542.7426669827362
 21
320.8218899417254
 31
0.0
  0
LINE
  5
321
330
1A
100
AcDbEntity
  8
NOKITOI
  6
PHANTOM
 62
     8
 48
5.0
100
AcDbLine
 10
537.0769451448077
 20
321.8219907382544
 30
0.0
 11
543.2216451448075
 21
321.8219907382544
 31
0.0
  0
ARC
  5
322
330
1A
100
AcDbEntity
  8
SEIHIN
  6
CONTINUOUS
 62
     3
100
AcDbCircle
 10
536.5815669827362
 20
322.3218899417254
 30
0.0
 40
1.5
100
AcDbArc
 50
181.6197769999999
 51
270.0
  0
ARC
  5
323
330
1A
100
AcDbEntity
  8
NOKITOI
  6
PHANTOM
 62
     8
 48
5.0
100
AcDbCircle
 10
537.0769811039585
 20
323.3219558841112
 30
0.0
 40
1.499965146287778
100
AcDbArc
 50
181.7866280217767
 51
269.9986264296976
  0
LINE
  5
324
330
1A
100
AcDbEntity
  8
NOKITOI
  6
PHANTOM
 62
     8
 48
5.0
100
AcDbLine
 10
536.7256451448074
 20
324.9595907382544
 30
0.0
 11
536.6401451448077
 21
327.6970907382544
 31
0.0
  0
ARC
  5
325
330
1A
100
AcDbEntity
  8
NOKITOI
  6
PHANTOM
 62
     8
 48
5.0
100
AcDbCircle
 10
538.7246587169461
 20
325.021977583168
 30
0.0
 40
1.999986844959662
100
AcDbArc
 50
181.7875531852363
 51
269.9996111843223
  0
ARC
  5
326
330
1A
100
AcDbEntity
  8
SEIHIN
  6
CONTINUOUS
 62
     3
100
AcDbCircle
 10
542.7426669827362
 20
319.8218899417254
 30
0.0
 40
1.000022999999999
100
AcDbArc
 50
7.839222
 51
90.0
  0
LINE
  5
327
330
1A
100
AcDbEntity
  8
NOKITOI
  6
PHANTOM
 62
     8
 48
5.0
100
AcDbLine
 10
543.1486451448076
 20
328.3219907382544
 30
0.0
 11
540.8995451448077
 21
328.3219907382544
 31
0.0
  0
ARC
  5
328
330
1A
100
AcDbEntity
  8
NOKITOI
  6
PHANTOM
 62
     8
 48
5.0
100
AcDbCircle
 10
540.8995717454054
 20
328.8219600613724
 30
0.0
 40
0.4999693238254178
100
AcDbArc
 50
171.8555038770532
 51
269.9969516090348
  0
ARC
  5
329
330
1A
100
AcDbEntity
  8
NOKITOI
  6
PHANTOM
 62
     8
 48
5.0
100
AcDbCircle
 10
543.1486382578127
 20
328.8219842031689
 30
0.0
 40
0.499993464961963
100
AcDbArc
 50
270.0007892017873
 51
356.9970361317427
  0
ARC
  5
32A
330
1A
100
AcDbEntity
  8
NOKITOI
  6
PHANTOM
 62
     8
 48
5.0
100
AcDbCircle
 10
544.765557714516
 20
322.5219791135247
 30
0.0
 40
0.5000116248877111
100
AcDbArc
 50
4.474846808342897
 51
90.00144034898337
  0
ARC
  5
32B
330
1A
100
AcDbEntity
  8
NOKITOI
  6
PHANTOM
 62
     8
 48
5.0
100
AcDbCircle
 10
543.2216367206451
 20
320.8219982533109
 30
0.0
 40
0.9999924849789756
100
AcDbArc
 50
6.528264606674428
 51
89.99951732740891
  0
LINE
  5
32C
330
1A
100
AcDbEntity
  8
SEIHIN
  6
CONTINUOUS
 62
     3
100
AcDbLine
 10
536.6806669827361
 20
338.5218899417254
 30
0.0
 11
541.6732669827361
 21
338.5218899417254
 31
0.0
  0
LINE
  5
32D
330
1A
100
AcDbEntity
  8
NOKITOI
  6
PHANTOM
 62
     8
 48
5.0
100
AcDbLine
 10
537.1865451448075
 20
337.8219907382544
 30
0.0
 11
540.5131451448077
 21
337.8219907382544
 31
0.0
  0
LINE
  5
32E
330
1A
100
AcDbEntity
  8
NOKITOI
  6
PHANTOM
 62
     8
 48
5.0
100
AcDbLine
 10
537.1865451448075
 20
336.6219907382546
 30
0.0
 11
539.659345144808
 21
336.6219907382546
 31
0.0
  0
LINE
  5
32F
330
1A
100
AcDbEntity
  8
NOKITOI
  6
PHANTOM
 62
     8
 48
5.0
100
AcDbLine
 10
539.159345144808
 20
334.1219907382546
 30
0.0
 11
542.0958451448077
 21
334.1219907382546
 31
0.0
  0
ARC
  5
330
330
1A
100
AcDbEntity
  8
NOKITOI
  6
PHANTOM
 62
     8
 48
5.0
100
AcDbCircle
 10
540.6382653574769
 20
327.8220494666344
 30
0.0
 40
5.2000412730095
100
AcDbArc
 50
90.00132454306161
 51
142.0757990790561
  0
LINE
  5
331
330
1A
100
AcDbEntity
  8
NOKITOI
  6
PHANTOM
 62
     8
 48
5.0
100
AcDbLine
 10
539.659345144808
 20
336.6219907382546
 30
0.0
 11
539.159345144808
 21
334.1219907382546
 31
0.0
  0
ARC
  5
332
330
1A
100
AcDbEntity
  8
SEIHIN
  6
CONTINUOUS
 62
     3
100
AcDbCircle
 10
536.6806669827361
 20
336.5217899417255
 30
0.0
 40
1.999997999999999
100
AcDbArc
 50
90.0
 51
181.615959
  0
LINE
  5
333
330
1A
100
AcDbEntity
  8
NOKITOI
  6
PHANTOM
 62
     8
 48
5.0
100
AcDbLine
 10
536.386945144808
 20
335.7969907382543
 30
0.0
 11
536.5363451448074
 21
331.0180907382545
 31
0.0
  0
ARC
  5
334
330
1A
100
AcDbEntity
  8
NOKITOI
  6
PHANTOM
 62
     8
 48
5.0
100
AcDbCircle
 10
537.1865496396058
 20
335.8219953757813
 30
0.0
 40
0.7999953624857498
100
AcDbArc
 50
90.00032191805336
 51
181.7911273464199
  0
ARC
  5
335
330
1A
100
AcDbEntity
  8
NOKITOI
  6
PHANTOM
 62
     8
 48
5.0
100
AcDbCircle
 10
537.1865578956576
 20
335.8220038933408
 30
0.0
 40
1.999986844954076
100
AcDbArc
 50
90.00036528735526
 51
181.7883072882699
  0
ARC
  5
336
330
1A
100
AcDbEntity
  8
NOKITOI
  6
PHANTOM
 62
     8
 48
5.0
100
AcDbCircle
 10
540.5131443617992
 20
337.3219916932561
 30
0.0
 40
0.4999990449987349
100
AcDbArc
 50
348.6967198015448
 51
89.99991027369452
  0
ARC
  5
337
330
1A
100
AcDbEntity
  8
NOKITOI
  6
PHANTOM
 62
     8
 48
5.0
100
AcDbCircle
 10
541.2329378902523
 20
335.8219995880978
 30
0.0
 40
0.5000088498959383
100
AcDbArc
 50
168.6864043304884
 51
270.0008312961434
  0
ARC
  5
338
330
1A
100
AcDbEntity
  8
NOKITOI
  6
PHANTOM
 62
     8
 48
5.0
100
AcDbCircle
 10
543.4644389436498
 20
334.8219972733397
 30
0.0
 40
0.4999934649531607
100
AcDbArc
 50
356.9955363203384
 51
89.99928939038005
  0
LINE
  5
339
330
1A
100
AcDbEntity
  8
NOKITOI
  6
PHANTOM
 62
     8
 48
5.0
100
AcDbLine
 10
543.4644451448075
 20
335.3219907382544
 30
0.0
 11
541.2329451448076
 21
335.3219907382544
 31
0.0
  0
LINE
  5
33A
330
1A
100
AcDbEntity
  8
NOKITOI
  6
PHANTOM
 62
     8
 48
5.0
100
AcDbLine
 10
541.1000451448081
 20
333.0219907382545
 30
0.0
 11
540.6381451448078
 21
333.0219907382545
 31
0.0
  0
ARC
  5
33B
330
1A
100
AcDbEntity
  8
NOKITOI
  6
PHANTOM
 62
     8
 48
5.0
100
AcDbCircle
 10
540.2433593632231
 20
331.2996761039534
 30
0.0
 40
0.5000073448410256
100
AcDbArc
 50
351.8729478641243
 51
96.47829282996843
  0
LINE
  5
33C
330
1A
100
AcDbEntity
  8
NOKITOI
  6
PHANTOM
 62
     8
 48
5.0
100
AcDbLine
 10
542.4845451448077
 20
329.5219907382544
 30
0.0
 11
542.6657451448077
 21
332.9634907382546
 31
0.0
  0
LINE
  5
33D
330
1A
100
AcDbEntity
  8
NOKITOI
  6
PHANTOM
 62
     8
 48
5.0
100
AcDbLine
 10
542.1107451448079
 20
332.3503907382543
 30
0.0
 11
542.6657451448077
 21
332.9634907382546
 31
0.0
  0
LINE
  5
33E
330
1A
100
AcDbEntity
  8
NOKITOI
  6
PHANTOM
 62
     8
 48
5.0
100
AcDbLine
 10
541.7066451448081
 20
329.5219907382544
 30
0.0
 11
542.1107451448079
 21
332.3503907382543
 31
0.0
  0
LINE
  5
33F
330
1A
100
AcDbEntity
  8
NOKITOI
  6
PHANTOM
 62
     8
 48
5.0
100
AcDbLine
 10
542.4845451448077
 20
329.5219907382544
 30
0.0
 11
541.7066451448081
 21
329.5219907382544
 31
0.0
  0
LINE
  5
340
330
1A
100
AcDbEntity
  8
NOKITOI
  6
PHANTOM
 62
     8
 48
5.0
100
AcDbLine
 10
541.1000451448081
 20
333.0219907382545
 30
0.0
 11
542.0958451448077
 21
334.1219907382546
 31
0.0
  0
LINE
  5
341
330
1A
100
AcDbEntity
  8
NOKITOI
  6
PHANTOM
 62
     8
 48
5.0
100
AcDbLine
 10
540.7426451448077
 20
335.9200907382543
 30
0.0
 11
541.0034451448077
 21
337.2239907382545
 31
0.0
  0
LINE
  5
342
330
1A
100
AcDbEntity
  8
SEIHIN
  6
CONTINUOUS
 62
     3
100
AcDbLine
 10
523.6132669827362
 20
347.8218899417254
 30
0.0
 11
538.8607669827361
 21
347.8218899417254
 31
0.0
  0
LINE
  5
343
330
1A
100
AcDbEntity
  8
SEIHIN
  6
CONTINUOUS
 62
     3
100
AcDbLine
 10
523.6132669827362
 20
345.3218899417254
 30
0.0
 11
540.6730669827361
 21
345.3218899417254
 31
0.0
  0
LINE
  5
344
330
1A
100
AcDbEntity
  8
SEIHIN
  6
CONTINUOUS
 62
     3
100
AcDbLine
 10
523.6132669827362
 20
347.8218899417254
 30
0.0
 11
523.6132669827362
 21
345.3218899417254
 31
0.0
  0
LINE
  5
345
330
1A
100
AcDbEntity
  8
CENTER_L
  6
CENTER
 62
     1
 48
5.0
100
AcDbLine
 10
540.6737669827362
 20
341.9219899417255
 30
0.0
 11
535.6680669827362
 21
341.9218899417255
 31
0.0
  0
CIRCLE
  5
346
330
1A
100
AcDbEntity
  8
SEIHIN
  6
CONTINUOUS
 62
     3
100
AcDbCircle
 10
538.2742669827361
 20
341.9191899417255
 30
0.0
 40
1.0
  0
ARC
  5
347
330
1A
100
AcDbEntity
  8
SEIHIN
  6
CONTINUOUS
 62
     3
100
AcDbCircle
 10
540.6730669827361
 20
344.3218899417254
 30
0.0
 40
1.0
100
AcDbArc
 50
0.0
 51
90.0
  0
LINE
  5
348
330
1A
100
AcDbEntity
  8
CENTER_L
  6
CENTER
 62
     1
 48
5.0
100
AcDbLine
 10
651.3728669827362
 20
344.3219899417255
 30
0.0
 11
651.3729669827362
 21
339.3405899417255
 31
0.0
  0
LINE
  5
349
330
1A
100
AcDbEntity
  8
SEIHIN
  6
CONTINUOUS
 62
     3
100
AcDbLine
 10
647.9728669827361
 20
344.3219899417255
 30
0.0
 11
647.9729669827361
 21
336.5219899417254
 31
0.0
  0
ARC
  5
34A
330
1A
100
AcDbEntity
  8
SEIHIN
  6
CONTINUOUS
 62
     3
100
AcDbCircle
 10
650.7616669827362
 20
341.8344899417254
 30
0.0
 40
5.999994999999999
100
AcDbArc
 50
93.711552
 51
242.302747
  0
LINE
  5
34B
330
1A
100
AcDbEntity
  8
SEIHIN
  6
CONTINUOUS
 62
     3
100
AcDbLine
 10
664.538366982736
 20
319.2945899417254
 30
0.0
 11
665.0116669827362
 21
345.3218899417254
 31
0.0
  0
LINE
  5
34C
330
1A
100
AcDbEntity
  8
SEIHIN
  6
CONTINUOUS
 62
     3
100
AcDbLine
 10
645.7229669827361
 20
317.8219899417255
 30
0.0
 11
663.038566982736
 21
317.8217899417254
 31
0.0
  0
ARC
  5
34D
330
1A
100
AcDbEntity
  8
SEIHIN
  6
CONTINUOUS
 62
     3
100
AcDbCircle
 10
659.0758669827364
 20
317.3217899417254
 30
0.0
 40
0.499993
100
AcDbArc
 50
90.0
 51
174.283706
  0
ARC
  5
34E
330
1A
100
AcDbEntity
  8
SEIHIN
  6
CONTINUOUS
 62
     3
100
AcDbCircle
 10
646.927866982736
 20
319.8218899417254
 30
0.0
 40
0.9999809999999998
100
AcDbArc
 50
90.0
 51
174.289407
  0
LINE
  5
34F
330
1A
100
AcDbEntity
  8
NOKITOI
  6
PHANTOM
 62
     8
 48
5.0
100
AcDbLine
 10
645.4895451448074
 20
323.0219907382545
 30
0.0
 11
651.5214451448078
 21
323.0219907382545
 31
0.0
  0
ARC
  5
350
330
1A
100
AcDbEntity
  8
NOKITOI
  6
PHANTOM
 62
     8
 48
5.0
100
AcDbCircle
 10
647.0280657946487
 20
320.8220094261036
 30
0.0
 40
0.9999813123640345
100
AcDbArc
 50
90.00118317084957
 51
174.290590033351
  0
ARC
  5
351
330
1A
100
AcDbEntity
  8
NOKITOI
  6
PHANTOM
 62
     8
 48
5.0
100
AcDbCircle
 10
645.4895582158123
 20
322.5220025685343
 30
0.0
 40
0.499988169890889
100
AcDbArc
 50
90.00149786226627
 51
174.2966061377156
  0
LINE
  5
352
330
1A
100
AcDbEntity
  8
NOKITOI
  6
PHANTOM
 62
     8
 48
5.0
100
AcDbLine
 10
655.0585451448077
 20
335.7594907382544
 30
0.0
 11
654.6684451448077
 21
323.2750907382544
 31
0.0
  0
LINE
  5
353
330
1A
100
AcDbEntity
  8
NOKITOI
  6
PHANTOM
 62
     8
 48
5.0
100
AcDbLine
 10
646.5981451448079
 20
328.7956907382544
 30
0.0
 11
646.2823451448075
 21
334.7956907382544
 31
0.0
  0
LINE
  5
354
330
1A
100
AcDbEntity
  8
NOKITOI
  6
PHANTOM
 62
     8
 48
5.0
100
AcDbLine
 10
649.8415451448076
 20
328.8926907382544
 30
0.0
 11
649.5077451448078
 21
331.2288907382546
 31
0.0
  0
ARC
  5
355
330
1A
100
AcDbEntity
  8
NOKITOI
  6
PHANTOM
 62
     8
 48
5.0
100
AcDbCircle
 10
649.6080142178716
 20
327.8220264829182
 30
0.0
 40
3.99998565374706
100
AcDbArc
 50
358.2086966591014
 51
83.52422380468325
  0
LINE
  5
356
330
1A
100
AcDbEntity
  8
SEIHIN
  6
CONTINUOUS
 62
     3
100
AcDbLine
 10
654.9648669827361
 20
336.4654899417255
 30
0.0
 11
654.5640669827362
 21
322.2795899417254
 31
0.0
  0
ARC
  5
357
330
1A
100
AcDbEntity
  8
SEIHIN
  6
CONTINUOUS
 62
     3
100
AcDbCircle
 10
653.064666982736
 20
322.3219899417255
 30
0.0
 40
1.5
100
AcDbArc
 50
270.0
 51
358.3802229999999
  0
ARC
  5
358
330
1A
100
AcDbEntity
  8
NOKITOI
  6
PHANTOM
 62
     8
 48
5.0
100
AcDbCircle
 10
653.1691623579859
 20
323.3220074214022
 30
0.0
 40
1.500016683246579
100
AcDbArc
 50
269.9993425123348
 51
358.207642324411
  0
LINE
  5
359
330
1A
100
AcDbEntity
  8
NOKITOI
  6
PHANTOM
 62
     8
 48
5.0
100
AcDbLine
 10
653.5205451448078
 20
324.9593907382545
 30
0.0
 11
653.6060451448074
 21
327.6969907382544
 31
0.0
  0
LINE
  5
35A
330
1A
100
AcDbEntity
  8
NOKITOI
  6
PHANTOM
 62
     8
 48
5.0
100
AcDbLine
 10
647.0974451448078
 20
328.3219907382544
 30
0.0
 11
649.3465451448074
 21
328.3219907382544
 31
0.0
  0
ARC
  5
35B
330
1A
100
AcDbEntity
  8
NOKITOI
  6
PHANTOM
 62
     8
 48
5.0
100
AcDbCircle
 10
647.0974492662143
 20
328.8219868282239
 30
0.0
 40
0.4999960899864752
100
AcDbArc
 50
183.0147243791737
 51
269.9995277178594
  0
ARC
  5
35C
330
1A
100
AcDbEntity
  8
NOKITOI
  6
PHANTOM
 62
     8
 48
5.0
100
AcDbCircle
 10
649.3465553312439
 20
328.8220024829785
 30
0.0
 40
0.5000117448278309
100
AcDbArc
 50
269.9988327478018
 51
8.127314608715803
  0
LINE
  5
35D
330
1A
100
AcDbEntity
  8
SEIHIN
  6
CONTINUOUS
 62
     3
100
AcDbLine
 10
653.064666982736
 20
320.8219899417255
 30
0.0
 11
646.927866982736
 21
320.8218899417254
 31
0.0
  0
LINE
  5
35E
330
1A
100
AcDbEntity
  8
NOKITOI
  6
PHANTOM
 62
     8
 48
5.0
100
AcDbLine
 10
653.1691451448077
 20
321.8219907382544
 30
0.0
 11
647.0280451448079
 21
321.8219907382544
 31
0.0
  0
ARC
  5
35F
330
1A
100
AcDbEntity
  8
NOKITOI
  6
PHANTOM
 62
     8
 48
5.0
100
AcDbCircle
 10
651.521483132632
 20
325.0219275588266
 30
0.0
 40
2.000036820932882
100
AcDbArc
 50
269.9989117490339
 51
358.2110591274196
  0
ARC
  5
360
330
1A
100
AcDbEntity
  8
SEIHIN
  6
CONTINUOUS
 62
     3
100
AcDbCircle
 10
652.9656669827361
 20
336.5219899417254
 30
0.0
 40
1.999999
100
AcDbArc
 50
358.381177
 51
90.0
  0
ARC
  5
361
330
1A
100
AcDbEntity
  8
NOKITOI
  6
PHANTOM
 62
     8
 48
5.0
100
AcDbCircle
 10
653.0595339078136
 20
335.8220023320715
 30
0.0
 40
1.999988406214315
100
AcDbArc
 50
358.2088726535929
 51
89.99967808195611
  0
ARC
  5
362
330
1A
100
AcDbEntity
  8
NOKITOI
  6
PHANTOM
 62
     8
 48
5.0
100
AcDbCircle
 10
649.7329378902523
 20
337.321981888411
 30
0.0
 40
0.500008849895925
100
AcDbArc
 50
89.99916870385492
 51
191.3135956695117
  0
LINE
  5
363
330
1A
100
AcDbEntity
  8
SEIHIN
  6
CONTINUOUS
 62
     3
100
AcDbLine
 10
652.9656669827361
 20
338.5219899417254
 30
0.0
 11
647.9729669827361
 21
338.5219899417254
 31
0.0
  0
LINE
  5
364
330
1A
100
AcDbEntity
  8
NOKITOI
  6
PHANTOM
 62
     8
 48
5.0
100
AcDbLine
 10
653.0595451448079
 20
337.8218907382544
 30
0.0
 11
649.7329451448076
 21
337.8219907382544
 31
0.0
  0
LINE
  5
365
330
1A
100
AcDbEntity
  8
NOKITOI
  6
PHANTOM
 62
     8
 48
5.0
100
AcDbLine
 10
653.0595451448079
 20
336.6218907382544
 30
0.0
 11
650.5868451448077
 21
336.6219907382546
 31
0.0
  0
LINE
  5
366
330
1A
100
AcDbEntity
  8
NOKITOI
  6
PHANTOM
 62
     8
 48
5.0
100
AcDbLine
 10
653.8591451448073
 20
335.7969907382543
 30
0.0
 11
653.7098451448078
 21
331.0179907382545
 31
0.0
  0
LINE
  5
367
330
1A
100
AcDbEntity
  8
NOKITOI
  6
PHANTOM
 62
     8
 48
5.0
100
AcDbLine
 10
651.0868451448077
 20
334.1219907382546
 30
0.0
 11
648.1502451448077
 21
334.1219907382546
 31
0.0
  0
LINE
  5
368
330
1A
100
AcDbEntity
  8
NOKITOI
  6
PHANTOM
 62
     8
 48
5.0
100
AcDbLine
 10
646.7816451448079
 20
335.3219907382544
 30
0.0
 11
649.0131451448078
 21
335.3219907382544
 31
0.0
  0
LINE
  5
369
330
1A
100
AcDbEntity
  8
NOKITOI
  6
PHANTOM
 62
     8
 48
5.0
100
AcDbLine
 10
649.1460451448078
 20
333.0219907382545
 30
0.0
 11
648.1502451448077
 21
334.1219907382546
 31
0.0
  0
ARC
  5
36A
330
1A
100
AcDbEntity
  8
NOKITOI
  6
PHANTOM
 62
     8
 48
5.0
100
AcDbCircle
 10
646.781648854303
 20
334.8219946482851
 30
0.0
 40
0.4999960899831856
100
AcDbArc
 50
90.00042508015132
 51
183.0156217414654
  0
LINE
  5
36B
330
1A
100
AcDbEntity
  8
NOKITOI
  6
PHANTOM
 62
     8
 48
5.0
100
AcDbLine
 10
648.5394451448073
 20
329.5219907382544
 30
0.0
 11
648.1354451448078
 21
332.3503907382543
 31
0.0
  0
LINE
  5
36C
330
1A
100
AcDbEntity
  8
NOKITOI
  6
PHANTOM
 62
     8
 48
5.0
100
AcDbLine
 10
647.7615451448078
 20
329.5219907382544
 30
0.0
 11
647.5804451448075
 21
332.9633907382544
 31
0.0
  0
LINE
  5
36D
330
1A
100
AcDbEntity
  8
NOKITOI
  6
PHANTOM
 62
     8
 48
5.0
100
AcDbLine
 10
647.7615451448078
 20
329.5219907382544
 30
0.0
 11
648.5394451448073
 21
329.5219907382544
 31
0.0
  0
LINE
  5
36E
330
1A
100
AcDbEntity
  8
NOKITOI
  6
PHANTOM
 62
     8
 48
5.0
100
AcDbLine
 10
648.1354451448078
 20
332.3503907382543
 30
0.0
 11
647.5804451448075
 21
332.9633907382544
 31
0.0
  0
ARC
  5
36F
330
1A
100
AcDbEntity
  8
NOKITOI
  6
PHANTOM
 62
     8
 48
5.0
100
AcDbCircle
 10
649.0131443617992
 20
335.8219897832527
 30
0.0
 40
0.4999990449987399
100
AcDbArc
 50
270.0000897263054
 51
11.30328019845509
  0
LINE
  5
370
330
1A
100
AcDbEntity
  8
NOKITOI
  6
PHANTOM
 62
     8
 48
5.0
100
AcDbLine
 10
649.1460451448078
 20
333.0219907382545
 30
0.0
 11
649.6080451448078
 21
333.0219907382545
 31
0.0
  0
ARC
  5
371
330
1A
100
AcDbEntity
  8
NOKITOI
  6
PHANTOM
 62
     8
 48
5.0
100
AcDbCircle
 10
650.0027745173074
 20
331.2996209707493
 30
0.0
 40
0.4999578477751074
100
AcDbArc
 50
83.52609071220776
 51
188.1330561712924
  0
ARC
  5
372
330
1A
100
AcDbEntity
  8
NOKITOI
  6
PHANTOM
 62
     8
 48
5.0
100
AcDbCircle
 10
649.6080272784565
 20
327.8219994666343
 30
0.0
 40
5.199991271650611
100
AcDbArc
 50
37.92532860473096
 51
89.99980314072548
  0
ARC
  5
373
330
1A
100
AcDbEntity
  8
NOKITOI
  6
PHANTOM
 62
     8
 48
5.0
100
AcDbCircle
 10
653.0595891111606
 20
335.8219453757814
 30
0.0
 40
0.7999453636812564
100
AcDbArc
 50
358.212343644788
 51
90.00314907315372
  0
LINE
  5
374
330
1A
100
AcDbEntity
  8
NOKITOI
  6
PHANTOM
 62
     8
 48
5.0
100
AcDbLine
 10
650.5868451448077
 20
336.6219907382546
 30
0.0
 11
651.0868451448077
 21
334.1219907382546
 31
0.0
  0
LINE
  5
375
330
1A
100
AcDbEntity
  8
NOKITOI
  6
PHANTOM
 62
     8
 48
5.0
100
AcDbLine
 10
649.5034451448077
 20
335.9199907382546
 30
0.0
 11
649.2426451448077
 21
337.2239907382545
 31
0.0
  0
ARC
  5
376
330
1A
100
AcDbEntity
  8
SEIHIN
  6
CONTINUOUS
 62
     3
100
AcDbCircle
 10
663.038566982736
 20
319.3217899417254
 30
0.0
 40
1.500022999999999
100
AcDbArc
 50
270.0
 51
358.961012
  0
LINE
  5
377
330
1A
100
AcDbEntity
  8
SEIHIN
  6
CONTINUOUS
 62
     3
100
AcDbLine
 10
666.0116669827361
 20
347.8218899417254
 30
0.0
 11
650.3739669827361
 21
347.8218899417254
 31
0.0
  0
LINE
  5
378
330
1A
100
AcDbEntity
  8
SEIHIN
  6
CONTINUOUS
 62
     3
100
AcDbLine
 10
666.0116669827361
 20
345.3218899417254
 30
0.0
 11
648.9727669827361
 21
345.3219899417255
 31
0.0
  0
ARC
  5
379
330
1A
100
AcDbEntity
  8
SEIHIN
  6
CONTINUOUS
 62
     3
100
AcDbCircle
 10
648.9727669827361
 20
344.3219899417255
 30
0.0
 40
1.0
100
AcDbArc
 50
90.0
 51
180.0
  0
LINE
  5
37A
330
1A
100
AcDbEntity
  8
CENTER_L
  6
CENTER
 62
     1
 48
5.0
100
AcDbLine
 10
648.9727669827361
 20
341.9218899417255
 30
0.0
 11
653.978566982736
 21
341.9218899417255
 31
0.0
  0
CIRCLE
  5
37B
330
1A
100
AcDbEntity
  8
SEIHIN
  6
CONTINUOUS
 62
     3
100
AcDbCircle
 10
651.3728669827362
 20
341.9218899417255
 30
0.0
 40
1.0
  0
LINE
  5
37C
330
1A
100
AcDbEntity
  8
SEIHIN
  6
CONTINUOUS
 62
     3
100
AcDbLine
 10
666.0116669827361
 20
345.3218899417254
 30
0.0
 11
666.0116669827361
 21
347.8218899417254
 31
0.0
  0
LINE
  5
56B
330
1A
100
AcDbEntity
  8
ZUWAKU
100
AcDbLine
 10
208.6466009793416
 20
15.19999945063829
 30
0.0
 11
447.424363660265
 21
15.19999945063828
 31
0.0
  0
LINE
  5
56C
330
1A
100
AcDbEntity
  8
ZUWAKU
100
AcDbLine
 10
208.6466009793416
 20
15.59999945063829
 30
0.0
 11
447.424363660265
 21
15.59999945063829
 31
0.0
  0
LINE
  5
56D
330
1A
100
AcDbEntity
  8
ZUWAKU
100
AcDbLine
 10
208.6466009793416
 20
15.39999945063829
 30
0.0
 11
447.424363660265
 21
15.39999945063829
 31
0.0
  0
LINE
  5
56E
330
1A
100
AcDbEntity
  8
ZUWAKU
100
AcDbLine
 10
-0.0000003107263638
 20
30.79999945063827
 30
0.0
 11
797.3999996892735
 21
30.79999945063827
 31
0.0
  0
LINE
  5
56F
330
1A
100
AcDbEntity
  8
ZUWAKU
100
AcDbLine
 10
-0.0000003107263638
 20
30.59999945063826
 30
0.0
 11
797.3999996892735
 21
30.59999945063826
 31
0.0
  0
LINE
  5
570
330
1A
100
AcDbEntity
  8
ZUWAKU
100
AcDbLine
 10
-0.0000003107263638
 20
30.39999945063826
 30
0.0
 11
797.3999996892735
 21
30.39999945063826
 31
0.0
  0
LINE
  5
571
330
1A
100
AcDbEntity
  8
ZUWAKU
100
AcDbLine
 10
-0.0000003107263638
 20
30.19999945063826
 30
0.0
 11
797.3999996892735
 21
30.19999945063826
 31
0.0
  0
LINE
  5
572
330
1A
100
AcDbEntity
  8
ZUWAKU
100
AcDbLine
 10
-0.0000003107263638
 20
29.99999945063825
 30
0.0
 11
797.3999996892735
 21
29.99999945063825
 31
0.0
  0
LWPOLYLINE
  5
573
330
1A
100
AcDbEntity
  8
ZUWAKU
100
AcDbPolyline
 90
        4
 70
     1
 43
0.0
 10
0.199999689273568
 20
551.3999994506384
 10
0.199999689273568
 20
0.1999994506383018
 10
797.3999996892735
 20
0.1999994506383249
 10
797.3999996892737
 20
551.3999994506384
  0
LWPOLYLINE
  5
574
330
1A
100
AcDbEntity
  8
ZUWAKU
100
AcDbPolyline
 90
        4
 70
     1
 43
0.0
 10
0.5999996892735453
 20
550.9999994506383
 10
0.5999996892735453
 20
0.5999994506382791
 10
796.9999996892738
 20
0.5999994506383253
 10
796.9999996892736
 20
550.9999994506383
  0
LWPOLYLINE
  5
575
330
1A
100
AcDbEntity
  8
ZUWAKU
100
AcDbPolyline
 90
        4
 70
     1
 43
0.0
 10
-0.0000003107263638
 20
551.5999994506382
 10
-0.0000003107263638
 20
-0.0000005493617437
 10
797.5999996892737
 20
-0.0000005493616761
 10
797.5999996892737
 20
551.5999994506383
  0
LWPOLYLINE
  5
576
330
1A
100
AcDbEntity
  8
ZUWAKU
100
AcDbPolyline
 90
        4
 70
     1
 43
0.0
 10
0.3999996892736135
 20
551.1999994506383
 10
0.3999996892736135
 20
0.3999994506383473
 10
797.1999996892736
 20
0.3999994506383242
 10
797.1999996892736
 20
551.1999994506383
  0
LWPOLYLINE
  5
577
330
1A
100
AcDbEntity
  8
ZUWAKU
100
AcDbPolyline
 90
        4
 70
     1
 43
0.0
 10
0.7999996892735908
 20
550.7999994506383
 10
0.7999996892735908
 20
0.7999994506383246
 10
796.7999996892736
 20
0.7999994506383246
 10
796.7999996892736
 20
550.7999994506383
  0
TEXT
  5
578
330
1A
100
AcDbEntity
  8
MOJI
100
AcDbText
 10
92.95778927744278
 20
12.74117758091301
 30
0.0
 40
6.0
  1
新・丸トップＲＶ１０５
 41
0.9
  7
ｽﾀｲﾙ1
100
AcDbText
  0
HATCH
  5
579
330
1A
100
AcDbEntity
  8
ZUWAKU
100
AcDbHatch
 10
0.0
 20
0.0
 30
0.0
210
0.0
220
0.0
230
1.0
  2
ANSI37
 70
     0
 71
     0
 91
        8
 92
        7
 72
     1
 73
     1
 93
       24
 10
14.50226235039349
 20
17.64484793162184
 42
-0.1989123673796348
 10
14.09221184405476
 20
18.63479742528289
 42
0.0
 10
14.09221184405476
 20
19.92499945063826
 42
-0.4142135623730912
 10
14.61721184405473
 20
20.44999945063826
 42
0.0
 10
17.59221184405464
 20
20.44999945063826
 42
0.4142135623731546
 10
18.11721184405473
 20
20.97499945063824
 42
0.0
 10
18.11721184405473
 20
22.72499945063826
 42
0.4142135623731586
 10
17.59221184405464
 20
23.24999945063826
 42
0.0
 10
14.09221184405476
 20
23.24999945063826
 42
0.4142135623730928
 10
11.2922118440548
 20
20.44999945063828
 42
0.0
 10
11.2922118440548
 20
18.63479742528301
 42
0.1989123673796619
 10
12.52236336307123
 20
15.66494894429941
 42
0.0
 10
15.43216133771591
 20
12.75515096965475
 42
-0.1989123673796613
 10
15.84221184405476
 20
11.76520147599356
 42
0.0
 10
15.84221184405476
 20
10.47499945063825
 42
-0.4142135623730911
 10
15.31721184405478
 20
9.949999450638259
 42
0.0
 10
12.34221184405487
 20
9.949999450638259
 42
0.4142135623731526
 10
11.81721184405478
 20
9.424999450638271
 42
0.0
 10
11.81721184405478
 20
7.674999450638249
 42
0.4142135623731526
 10
12.34221184405487
 20
7.149999450638262
 42
0.0
 10
15.84221184405476
 20
7.149999450638262
 42
0.4142135623731044
 10
18.64221184405482
 20
9.949999450638237
 42
0.0
 10
18.64221184405482
 20
11.76520147599351
 42
0.1989123673796604
 10
17.41206032503828
 20
14.73504995697705
 42
0.0
 97
        0
 92
        7
 72
     1
 73
     1
 93
       16
 10
23.5422118440548
 20
19.04999945063826
 42
-0.4142135623730935
 10
24.94221184405478
 20
20.44999945063826
 42
0.0
 10
26.86721184405473
 20
20.44999945063826
 42
0.4142135623731546
 10
27.39221184405483
 20
20.97499945063824
 42
0.0
 10
27.39221184405483
 20
22.72499945063826
 42
0.4142135623730951
 10
26.86721184405485
 20
23.24999945063826
 42
0.0
 10
24.94221184405466
 20
23.24999945063822
 42
0.4142135623730892
 10
20.74221184405473
 20
19.04999945063819
 42
0.0
 10
20.74221184405473
 20
11.34999945063828
 42
0.4142135623730969
 10
24.94221184405478
 20
7.149999450638262
 42
0.0
 10
26.86721184405473
 20
7.149999450638262
 42
0.4142135623731526
 10
27.39221184405483
 20
7.674999450638249
 42
0.0
 10
27.39221184405483
 20
9.424999450638271
 42
0.4142135623730891
 10
26.86721184405485
 20
9.949999450638259
 42
0.0
 10
24.94221184405478
 20
9.949999450638259
 42
-0.4142135623730928
 10
23.5422118440548
 20
11.34999945063824
 42
0.0
 97
        0
 92
        7
 72
     1
 73
     1
 93
        2
 10
24.24221184405473
 20
15.19999945063825
 42
1.0
 10
27.74221184405473
 20
15.19999945063825
 42
1.0
 97
        0
 92
        7
 72
     1
 73
     1
 93
       26
 10
37.31485832623275
 20
19.20504664420168
 42
0.0
 10
38.37649795937057
 20
22.56690548247128
 42
0.5069206636600134
 10
37.87586706017521
 20
23.24999945063826
 42
0.0
 10
36.17697768056598
 20
23.24999945063826
 42
0.3272098845218764
 10
35.67634678137062
 20
22.88309341880523
 42
0.0
 10
33.80807690673885
 20
16.96690548247134
 42
-0.3272098845219541
 10
33.30744600754337
 20
16.59999945063825
 42
0.0
 10
33.16721184405492
 20
16.59999945063825
 42
-0.4142135623731526
 10
32.64221184405482
 20
17.12499945063824
 42
0.0
 10
32.64221184405482
 20
22.72499945063826
 42
0.4142135623730951
 10
32.11721184405485
 20
23.24999945063826
 42
0.0
 10
30.36721184405474
 20
23.24999945063826
 42
0.4142135623730871
 10
29.84221184405475
 20
22.72499945063827
 42
0.0
 10
29.84221184405475
 20
7.674999450638249
 42
0.4142135623730891
 10
30.36721184405474
 20
7.149999450638262
 42
0.0
 10
32.11721184405473
 20
7.149999450638262
 42
0.4142135623731526
 10
32.64221184405482
 20
7.674999450638249
 42
0.0
 10
32.64221184405482
 20
13.27499945063827
 42
-0.4142135623731526
 10
33.16721184405492
 20
13.79999945063826
 42
0.0
 10
33.30744600754349
 20
13.79999945063826
 42
-0.3272098845218915
 10
33.80807690673885
 20
13.43309341880518
 42
0.0
 10
35.67634678137062
 20
7.516905482471333
 42
0.3272098845218902
 10
36.17697768056598
 20
7.149999450638262
 42
0.0
 10
37.87586706017521
 20
7.149999450638262
 42
0.5069206636600335
 10
38.37649795937057
 20
7.833093418805269
 42
0.0
 10
36.05010658089691
 20
15.19999945063839
 42
0.0
 97
        0
 92
        7
 72
     1
 73
     1
 93
        8
 10
43.49221184405474
 20
22.72499945063827
 42
0.4142135623731546
 10
42.96721184405464
 20
23.24999945063826
 42
0.0
 10
41.21721184405487
 20
23.24999945063826
 42
0.4142135623731507
 10
40.69221184405478
 20
22.72499945063827
 42
0.0
 10
40.69221184405478
 20
7.674999450638249
 42
0.4142135623731526
 10
41.21721184405487
 20
7.149999450638262
 42
0.0
 10
42.96721184405464
 20
7.149999450638262
 42
0.4142135623731526
 10
43.49221184405474
 20
7.674999450638249
 42
0.0
 97
        0
 92
        7
 72
     1
 73
     1
 93
       24
 10
48.39221184405483
 20
19.92499945063826
 42
-0.4142135623731546
 10
48.91721184405492
 20
20.44999945063826
 42
0.0
 10
51.89221184405482
 20
20.44999945063826
 42
0.4142135623730911
 10
52.41721184405481
 20
20.97499945063824
 42
0.0
 10
52.41721184405481
 20
22.72499945063826
 42
0.4142135623730952
 10
51.89221184405482
 20
23.24999945063826
 42
0.0
 10
48.39221184405483
 20
23.24999945063826
 42
0.4142135623731048
 10
45.59221184405475
 20
20.44999945063828
 42
0.0
 10
45.59221184405475
 20
18.63479742528301
 42
0.1989123673796613
 10
46.8223633630713
 20
15.66494894429946
 42
0.0
 10
49.73216133771598
 20
12.7551509696548
 42
-0.1989123673796402
 10
50.14221184405482
 20
11.76520147599372
 42
0.0
 10
50.14221184405482
 20
10.47499945063825
 42
-0.4142135623730911
 10
49.61721184405485
 20
9.949999450638259
 42
0.0
 10
46.64221184405483
 20
9.949999450638259
 42
0.4142135623731526
 10
46.11721184405474
 20
9.424999450638271
 42
0.0
 10
46.11721184405474
 20
7.674999450638249
 42
0.4142135623730891
 10
46.64221184405471
 20
7.149999450638262
 42
0.0
 10
50.14221184405482
 20
7.149999450638262
 42
0.4142135623730925
 10
52.94221184405478
 20
9.949999450638237
 42
0.0
 10
52.94221184405478
 20
11.76520147599351
 42
0.1989123673796675
 10
51.71206032503824
 20
14.73504995697716
 42
0.0
 10
48.80226235039367
 20
17.64484793162168
 42
-0.1989123673796652
 10
48.39221184405483
 20
18.63479742528284
 42
0.0
 97
        0
 92
        7
 72
     1
 73
     1
 93
       16
 10
57.84221184405476
 20
22.72499945063825
 42
0.414213562373103
 10
57.31721184405478
 20
23.24999945063826
 42
0.0
 10
55.56721184405478
 20
23.24999945063826
 42
0.4142135623730871
 10
55.0422118440548
 20
22.72499945063827
 42
0.0
 10
55.0422118440548
 20
9.949999450638237
 42
0.4142135623730926
 10
57.84221184405476
 20
7.149999450638262
 42
0.0
 10
61.34221184405475
 20
7.149999450638262
 42
0.4142135623731044
 10
64.14221184405483
 20
9.949999450638237
 42
0.0
 10
64.14221184405483
 20
22.72499945063826
 42
0.4142135623730951
 10
63.61721184405485
 20
23.24999945063826
 42
0.0
 10
61.86721184405474
 20
23.24999945063826
 42
0.4142135623730871
 10
61.34221184405475
 20
22.72499945063827
 42
0.0
 10
61.34221184405475
 20
10.99999945063823
 42
-0.414213562373088
 10
60.2922118440548
 20
9.949999450638259
 42
0.0
 10
58.89221184405482
 20
9.949999450638259
 42
-0.4142135623731197
 10
57.84221184405476
 20
10.99999945063823
 42
0.0
 97
        0
 92
        7
 72
     1
 73
     1
 93
        8
 10
69.0422118440548
 20
22.72499945063827
 42
0.4142135623730871
 10
68.51721184405483
 20
23.24999945063826
 42
0.0
 10
66.76721184405483
 20
23.24999945063826
 42
0.4142135623731507
 10
66.24221184405474
 20
22.72499945063827
 42
0.0
 10
66.24221184405474
 20
7.674999450638249
 42
0.4142135623730891
 10
66.76721184405471
 20
7.149999450638262
 42
0.0
 10
68.51721184405483
 20
7.149999450638262
 42
0.4142135623730891
 10
69.0422118440548
 20
7.674999450638249
 42
0.0
 97
        0
 75
     0
 76
     1
 52
0.0
 41
0.2
 77
     0
 78
     2
 53
45.0
 43
-900.9423046454053
 44
-13.20000054936167
 45
-0.4490128060534576
 46
0.4490128060534577
 79
     0
 53
135.0
 43
-900.9423046454053
 44
-13.20000054936167
 45
-0.4490128060534577
 46
-0.4490128060534576
 79
     0
 47
0.057451373970553
 98
        8
 10
16.07985465229694
 20
15.16717309652381
 10
22.4045146957128
 20
18.84406163308926
 10
25.16436757493329
 20
15.51188109670897
 10
30.91405967091077
 20
16.20129709707976
 10
41.83847170823037
 20
16.66090936462137
 10
46.89820058440318
 20
19.41857576704546
 10
56.55768566167399
 20
18.72915736573327
 10
67.82707930889637
 20
19.18876963327488
  0
LINE
  5
57A
330
1A
100
AcDbEntity
  8
ZUWAKU
100
AcDbLine
 10
24.94221184405478
 20
23.24999945063822
 30
0.0
 11
26.86721184405473
 21
23.24999945063826
 31
0.0
  0
LINE
  5
57B
330
1A
100
AcDbEntity
  8
ZUWAKU
100
AcDbLine
 10
26.86721184405473
 20
20.44999945063826
 30
0.0
 11
24.94221184405478
 21
20.44999945063826
 31
0.0
  0
LINE
  5
57C
330
1A
100
AcDbEntity
  8
ZUWAKU
100
AcDbLine
 10
24.94221184405478
 20
9.949999450638259
 30
0.0
 11
26.86721184405473
 21
9.949999450638259
 31
0.0
  0
LINE
  5
57D
330
1A
100
AcDbEntity
  8
ZUWAKU
100
AcDbLine
 10
26.86721184405473
 20
7.149999450638262
 30
0.0
 11
24.94221184405478
 21
7.149999450638262
 31
0.0
  0
CIRCLE
  5
57E
330
1A
100
AcDbEntity
  8
ZUWAKU
100
AcDbCircle
 10
25.99221184405474
 20
15.19999945063825
 30
0.0
 40
1.75
  0
ARC
  5
57F
330
1A
100
AcDbEntity
  8
ZUWAKU
100
AcDbCircle
 10
15.49221184405473
 20
18.63479742528296
 30
0.0
 40
1.399999999999999
100
AcDbArc
 50
180.0000000000016
 51
224.9999999999988
  0
LINE
  5
580
330
1A
100
AcDbEntity
  8
ZUWAKU
100
AcDbLine
 10
23.5422118440548
 20
19.04999945063826
 30
0.0
 11
23.5422118440548
 21
11.34999945063826
 31
0.0
  0
LINE
  5
581
330
1A
100
AcDbEntity
  8
ZUWAKU
100
AcDbLine
 10
20.74221184405473
 20
11.34999945063826
 30
0.0
 11
20.74221184405473
 21
19.04999945063821
 31
0.0
  0
ARC
  5
582
330
1A
100
AcDbEntity
  8
ZUWAKU
100
AcDbCircle
 10
15.49221184405473
 20
18.63479742528296
 30
0.0
 40
4.199999999999999
100
AcDbArc
 50
180.0
 51
225.0
  0
ARC
  5
583
330
1A
100
AcDbEntity
  8
ZUWAKU
100
AcDbCircle
 10
15.84221184405476
 20
9.949999450638259
 30
0.0
 40
2.799999999999999
100
AcDbArc
 50
270.0
 51
0.0
  0
ARC
  5
584
330
1A
100
AcDbEntity
  8
ZUWAKU
100
AcDbCircle
 10
24.94221184405478
 20
11.34999945063826
 30
0.0
 40
4.199999999999999
100
AcDbArc
 50
180.0
 51
270.0
  0
ARC
  5
585
330
1A
100
AcDbEntity
  8
ZUWAKU
100
AcDbCircle
 10
14.44221184405478
 20
11.76520147599356
 30
0.0
 40
4.199999999999999
100
AcDbArc
 50
0.0
 51
45.0
  0
LINE
  5
586
330
1A
100
AcDbEntity
  8
ZUWAKU
100
AcDbLine
 10
17.41206032503828
 20
14.73504995697708
 30
0.0
 11
14.5022623503936
 21
17.64484793162176
 31
0.0
  0
LINE
  5
587
330
1A
100
AcDbEntity
  8
ZUWAKU
100
AcDbLine
 10
15.84221184405476
 20
10.47499945063826
 30
0.0
 11
15.84221184405476
 21
11.7652014759936
 31
0.0
  0
ARC
  5
588
330
1A
100
AcDbEntity
  8
ZUWAKU
100
AcDbCircle
 10
15.31721184405478
 20
10.47499945063826
 30
0.0
 40
0.525
100
AcDbArc
 50
270.0
 51
0.0
  0
ARC
  5
589
330
1A
100
AcDbEntity
  8
ZUWAKU
100
AcDbCircle
 10
14.44221184405478
 20
11.7652014759936
 30
0.0
 40
1.399999999999999
100
AcDbArc
 50
0.0
 51
45.0
  0
LINE
  5
58A
330
1A
100
AcDbEntity
  8
ZUWAKU
100
AcDbLine
 10
11.81721184405478
 20
7.67499945063826
 30
0.0
 11
11.81721184405478
 21
9.42499945063826
 31
0.0
  0
ARC
  5
58B
330
1A
100
AcDbEntity
  8
ZUWAKU
100
AcDbCircle
 10
12.34221184405476
 20
7.67499945063826
 30
0.0
 40
0.525
100
AcDbArc
 50
180.0
 51
270.0
  0
ARC
  5
58C
330
1A
100
AcDbEntity
  8
ZUWAKU
100
AcDbCircle
 10
12.34221184405476
 20
9.42499945063826
 30
0.0
 40
0.525
100
AcDbArc
 50
90.0
 51
180.0
  0
LINE
  5
58D
330
1A
100
AcDbEntity
  8
ZUWAKU
100
AcDbLine
 10
12.34221184405476
 20
7.149999450638262
 30
0.0
 11
15.84221184405476
 21
7.149999450638262
 31
0.0
  0
LINE
  5
58E
330
1A
100
AcDbEntity
  8
ZUWAKU
100
AcDbLine
 10
12.34221184405476
 20
9.949999450638259
 30
0.0
 11
15.31721184405478
 21
9.949999450638259
 31
0.0
  0
LINE
  5
58F
330
1A
100
AcDbEntity
  8
ZUWAKU
100
AcDbLine
 10
12.52236336307123
 20
15.66494894429943
 30
0.0
 11
15.43216133771591
 21
12.75515096965477
 31
0.0
  0
LINE
  5
590
330
1A
100
AcDbEntity
  8
ZUWAKU
100
AcDbLine
 10
18.64221184405482
 20
9.949999450638259
 30
0.0
 11
18.64221184405482
 21
11.7652014759936
 31
0.0
  0
ARC
  5
591
330
1A
100
AcDbEntity
  8
ZUWAKU
100
AcDbCircle
 10
24.94221184405478
 20
11.34999945063826
 30
0.0
 40
1.399999999999999
100
AcDbArc
 50
180.0
 51
270.0
  0
ARC
  5
592
330
1A
100
AcDbEntity
  8
ZUWAKU
100
AcDbCircle
 10
17.59221184405475
 20
22.72499945063825
 30
0.0
 40
0.525
100
AcDbArc
 50
0.0
 51
90.0
  0
ARC
  5
593
330
1A
100
AcDbEntity
  8
ZUWAKU
100
AcDbCircle
 10
17.59221184405475
 20
20.97499945063825
 30
0.0
 40
0.525
100
AcDbArc
 50
270.0
 51
0.0
  0
LINE
  5
594
330
1A
100
AcDbEntity
  8
ZUWAKU
100
AcDbLine
 10
14.09221184405476
 20
23.24999945063826
 30
0.0
 11
17.59221184405475
 21
23.24999945063826
 31
0.0
  0
ARC
  5
595
330
1A
100
AcDbEntity
  8
ZUWAKU
100
AcDbCircle
 10
14.61721184405473
 20
19.92499945063826
 30
0.0
 40
0.525
100
AcDbArc
 50
90.0
 51
180.0
  0
LINE
  5
596
330
1A
100
AcDbEntity
  8
ZUWAKU
100
AcDbLine
 10
14.09221184405476
 20
19.92499945063826
 30
0.0
 11
14.09221184405476
 21
18.63479742528292
 31
0.0
  0
LINE
  5
597
330
1A
100
AcDbEntity
  8
ZUWAKU
100
AcDbLine
 10
17.59221184405475
 20
20.44999945063826
 30
0.0
 11
14.61721184405473
 21
20.44999945063826
 31
0.0
  0
LINE
  5
598
330
1A
100
AcDbEntity
  8
ZUWAKU
100
AcDbLine
 10
11.2922118440548
 20
20.44999945063826
 30
0.0
 11
11.2922118440548
 21
18.63479742528292
 31
0.0
  0
ARC
  5
599
330
1A
100
AcDbEntity
  8
ZUWAKU
100
AcDbCircle
 10
14.09221184405476
 20
20.44999945063826
 30
0.0
 40
2.799999999999999
100
AcDbArc
 50
90.0
 51
180.0
  0
LINE
  5
59A
330
1A
100
AcDbEntity
  8
ZUWAKU
100
AcDbLine
 10
18.11721184405473
 20
22.72499945063825
 30
0.0
 11
18.11721184405473
 21
20.97499945063825
 31
0.0
  0
ARC
  5
59B
330
1A
100
AcDbEntity
  8
ZUWAKU
100
AcDbCircle
 10
24.94221184405478
 20
19.04999945063826
 30
0.0
 40
1.399999999999999
100
AcDbArc
 50
90.0
 51
180.0
  0
ARC
  5
59C
330
1A
100
AcDbEntity
  8
ZUWAKU
100
AcDbCircle
 10
24.94221184405478
 20
19.04999945063821
 30
0.0
 40
4.199999999999999
100
AcDbArc
 50
90.0
 51
180.0
  0
LINE
  5
59D
330
1A
100
AcDbEntity
  8
ZUWAKU
100
AcDbLine
 10
79.32662923726184
 20
29.99999945063825
 30
0.0
 11
79.32662923726207
 21
0.7999994506383246
 31
0.0
  0
LINE
  5
59E
330
1A
100
AcDbEntity
  8
ZUWAKU
100
AcDbLine
 10
79.52662923726188
 20
29.99999945063825
 30
0.0
 11
79.52662923726212
 21
0.7999994506383246
 31
0.0
  0
LINE
  5
59F
330
1A
100
AcDbEntity
  8
ZUWAKU
100
AcDbLine
 10
79.12662923726202
 20
29.99999945063825
 30
0.0
 11
79.12662923726202
 21
0.7999994506383246
 31
0.0
  0
LINE
  5
5A0
330
1A
100
AcDbEntity
  8
ZUWAKU
100
AcDbLine
 10
64.14221184405483
 20
9.949999450638259
 30
0.0
 11
64.14221184405483
 21
22.72499945063825
 31
0.0
  0
LINE
  5
5A1
330
1A
100
AcDbEntity
  8
ZUWAKU
100
AcDbLine
 10
61.34221184405475
 20
22.72499945063825
 30
0.0
 11
61.34221184405475
 21
10.99999945063825
 31
0.0
  0
LINE
  5
5A2
330
1A
100
AcDbEntity
  8
ZUWAKU
100
AcDbLine
 10
69.0422118440548
 20
7.67499945063826
 30
0.0
 11
69.0422118440548
 21
22.72499945063825
 31
0.0
  0
LINE
  5
5A3
330
1A
100
AcDbEntity
  8
ZUWAKU
100
AcDbLine
 10
66.24221184405474
 20
22.72499945063825
 30
0.0
 11
66.24221184405474
 21
7.67499945063826
 31
0.0
  0
ARC
  5
5A4
330
1A
100
AcDbEntity
  8
ZUWAKU
100
AcDbCircle
 10
49.79221184405481
 20
18.63479742528296
 30
0.0
 40
1.399999999999999
100
AcDbArc
 50
180.0000000000016
 51
224.9999999999988
  0
ARC
  5
5A5
330
1A
100
AcDbEntity
  8
ZUWAKU
100
AcDbCircle
 10
49.79221184405481
 20
18.63479742528296
 30
0.0
 40
4.199999999999999
100
AcDbArc
 50
180.0
 51
225.0
  0
LINE
  5
5A6
330
1A
100
AcDbEntity
  8
ZUWAKU
100
AcDbLine
 10
37.31485832623275
 20
19.20504664420168
 30
0.0
 11
36.05010658089691
 21
15.19999945063828
 31
0.0
  0
LINE
  5
5A7
330
1A
100
AcDbEntity
  8
ZUWAKU
100
AcDbLine
 10
40.69221184405478
 20
22.72499945063825
 30
0.0
 11
40.69221184405478
 21
7.67499945063826
 31
0.0
  0
LINE
  5
5A8
330
1A
100
AcDbEntity
  8
ZUWAKU
100
AcDbLine
 10
43.49221184405474
 20
7.67499945063826
 30
0.0
 11
43.49221184405474
 21
22.72499945063825
 31
0.0
  0
LINE
  5
5A9
330
1A
100
AcDbEntity
  8
ZUWAKU
100
AcDbLine
 10
55.0422118440548
 20
22.72499945063825
 30
0.0
 11
55.0422118440548
 21
9.949999450638259
 31
0.0
  0
LINE
  5
5AA
330
1A
100
AcDbEntity
  8
ZUWAKU
100
AcDbLine
 10
57.84221184405476
 20
10.99999945063825
 30
0.0
 11
57.84221184405476
 21
22.72499945063825
 31
0.0
  0
LINE
  5
5AB
330
1A
100
AcDbEntity
  8
ZUWAKU
100
AcDbLine
 10
32.64221184405482
 20
17.12499945063826
 30
0.0
 11
32.64221184405482
 21
22.72499945063825
 31
0.0
  0
LINE
  5
5AC
330
1A
100
AcDbEntity
  8
ZUWAKU
100
AcDbLine
 10
29.84221184405475
 20
22.72499945063825
 30
0.0
 11
29.84221184405475
 21
7.67499945063826
 31
0.0
  0
LINE
  5
5AD
330
1A
100
AcDbEntity
  8
ZUWAKU
100
AcDbLine
 10
35.67634678137062
 20
22.88309341880523
 30
0.0
 11
33.80807690673885
 21
16.96690548247129
 31
0.0
  0
LINE
  5
5AE
330
1A
100
AcDbEntity
  8
ZUWAKU
100
AcDbLine
 10
60.2922118440548
 20
9.949999450638259
 30
0.0
 11
58.89221184405482
 21
9.949999450638259
 31
0.0
  0
LINE
  5
5AF
330
1A
100
AcDbEntity
  8
ZUWAKU
100
AcDbLine
 10
57.84221184405476
 20
7.149999450638262
 30
0.0
 11
61.34221184405475
 21
7.149999450638262
 31
0.0
  0
LINE
  5
5B0
330
1A
100
AcDbEntity
  8
ZUWAKU
100
AcDbLine
 10
41.21721184405475
 20
7.149999450638262
 30
0.0
 11
42.96721184405476
 21
7.149999450638262
 31
0.0
  0
LINE
  5
5B1
330
1A
100
AcDbEntity
  8
ZUWAKU
100
AcDbLine
 10
35.67634678137062
 20
7.516905482471287
 30
0.0
 11
33.80807690673885
 21
13.43309341880522
 31
0.0
  0
ARC
  5
5B2
330
1A
100
AcDbEntity
  8
ZUWAKU
100
AcDbCircle
 10
33.30744600754349
 20
17.12499945063826
 30
0.0
 40
0.525
100
AcDbArc
 50
270.0
 51
342.4744316262769
  0
LINE
  5
5B3
330
1A
100
AcDbEntity
  8
ZUWAKU
100
AcDbLine
 10
33.30744600754349
 20
16.59999945063825
 30
0.0
 11
33.1672118440548
 21
16.59999945063825
 31
0.0
  0
LINE
  5
5B4
330
1A
100
AcDbEntity
  8
ZUWAKU
100
AcDbLine
 10
33.1672118440548
 20
13.79999945063826
 30
0.0
 11
33.30744600754349
 21
13.79999945063826
 31
0.0
  0
ARC
  5
5B5
330
1A
100
AcDbEntity
  8
ZUWAKU
100
AcDbCircle
 10
33.1672118440548
 20
17.12499945063826
 30
0.0
 40
0.525
100
AcDbArc
 50
180.0
 51
270.0
  0
LINE
  5
5B6
330
1A
100
AcDbEntity
  8
ZUWAKU
100
AcDbLine
 10
30.36721184405474
 20
7.149999450638262
 30
0.0
 11
32.11721184405473
 21
7.149999450638262
 31
0.0
  0
ARC
  5
5B7
330
1A
100
AcDbEntity
  8
ZUWAKU
100
AcDbCircle
 10
32.11721184405473
 20
7.67499945063826
 30
0.0
 40
0.525
100
AcDbArc
 50
270.0
 51
0.0
  0
LINE
  5
5B8
330
1A
100
AcDbEntity
  8
ZUWAKU
100
AcDbLine
 10
32.64221184405482
 20
7.67499945063826
 30
0.0
 11
32.64221184405482
 21
13.27499945063826
 31
0.0
  0
LINE
  5
5B9
330
1A
100
AcDbEntity
  8
ZUWAKU
100
AcDbLine
 10
27.39221184405483
 20
9.42499945063826
 30
0.0
 11
27.39221184405483
 21
7.67499945063826
 31
0.0
  0
ARC
  5
5BA
330
1A
100
AcDbEntity
  8
ZUWAKU
100
AcDbCircle
 10
26.86721184405473
 20
7.67499945063826
 30
0.0
 40
0.525
100
AcDbArc
 50
270.0
 51
0.0
  0
ARC
  5
5BB
330
1A
100
AcDbEntity
  8
ZUWAKU
100
AcDbCircle
 10
26.86721184405473
 20
9.42499945063826
 30
0.0
 40
0.525
100
AcDbArc
 50
0.0
 51
90.0
  0
ARC
  5
5BC
330
1A
100
AcDbEntity
  8
ZUWAKU
100
AcDbCircle
 10
30.36721184405474
 20
7.67499945063826
 30
0.0
 40
0.525
100
AcDbArc
 50
180.0
 51
270.0
  0
ARC
  5
5BD
330
1A
100
AcDbEntity
  8
ZUWAKU
100
AcDbCircle
 10
33.30744600754349
 20
13.27499945063826
 30
0.0
 40
0.525
100
AcDbArc
 50
17.52556837372303
 51
90.0
  0
ARC
  5
5BE
330
1A
100
AcDbEntity
  8
ZUWAKU
100
AcDbCircle
 10
33.1672118440548
 20
13.27499945063826
 30
0.0
 40
0.525
100
AcDbArc
 50
90.0
 51
180.0
  0
ARC
  5
5BF
330
1A
100
AcDbEntity
  8
ZUWAKU
100
AcDbCircle
 10
41.21721184405475
 20
7.67499945063826
 30
0.0
 40
0.525
100
AcDbArc
 50
180.0
 51
270.0
  0
LINE
  5
5C0
330
1A
100
AcDbEntity
  8
ZUWAKU
100
AcDbLine
 10
36.1769776805661
 20
7.149999450638262
 30
0.0
 11
37.87586706017509
 21
7.149999450638262
 31
0.0
  0
ARC
  5
5C1
330
1A
100
AcDbEntity
  8
ZUWAKU
100
AcDbCircle
 10
37.87586706017509
 20
7.67499945063826
 30
0.0
 40
0.525
100
AcDbArc
 50
270.0
 51
17.52556837372303
  0
LINE
  5
5C2
330
1A
100
AcDbEntity
  8
ZUWAKU
100
AcDbLine
 10
38.37649795937057
 20
7.833093418805233
 30
0.0
 11
36.05010658089691
 21
15.19999945063828
 31
0.0
  0
ARC
  5
5C3
330
1A
100
AcDbEntity
  8
ZUWAKU
100
AcDbCircle
 10
36.1769776805661
 20
7.67499945063826
 30
0.0
 40
0.525
100
AcDbArc
 50
197.525568373723
 51
270.0
  0
ARC
  5
5C4
330
1A
100
AcDbEntity
  8
ZUWAKU
100
AcDbCircle
 10
57.84221184405476
 20
9.949999450638259
 30
0.0
 40
2.799999999999999
100
AcDbArc
 50
180.0
 51
270.0
  0
ARC
  5
5C5
330
1A
100
AcDbEntity
  8
ZUWAKU
100
AcDbCircle
 10
50.14221184405482
 20
9.949999450638259
 30
0.0
 40
2.799999999999999
100
AcDbArc
 50
270.0
 51
0.0
  0
LINE
  5
5C6
330
1A
100
AcDbEntity
  8
ZUWAKU
100
AcDbLine
 10
51.71206032503835
 20
14.73504995697708
 30
0.0
 11
48.80226235039356
 21
17.64484793162176
 31
0.0
  0
LINE
  5
5C7
330
1A
100
AcDbEntity
  8
ZUWAKU
100
AcDbLine
 10
50.14221184405482
 20
10.47499945063826
 30
0.0
 11
50.14221184405482
 21
11.7652014759936
 31
0.0
  0
ARC
  5
5C8
330
1A
100
AcDbEntity
  8
ZUWAKU
100
AcDbCircle
 10
48.74221184405474
 20
11.7652014759936
 30
0.0
 40
1.399999999999999
100
AcDbArc
 50
0.0
 51
45.0
  0
ARC
  5
5C9
330
1A
100
AcDbEntity
  8
ZUWAKU
100
AcDbCircle
 10
49.61721184405473
 20
10.47499945063826
 30
0.0
 40
0.525
100
AcDbArc
 50
270.0
 51
0.0
  0
LINE
  5
5CA
330
1A
100
AcDbEntity
  8
ZUWAKU
100
AcDbLine
 10
46.11721184405474
 20
7.67499945063826
 30
0.0
 11
46.11721184405474
 21
9.42499945063826
 31
0.0
  0
ARC
  5
5CB
330
1A
100
AcDbEntity
  8
ZUWAKU
100
AcDbCircle
 10
46.64221184405483
 20
7.67499945063826
 30
0.0
 40
0.525
100
AcDbArc
 50
180.0
 51
270.0
  0
ARC
  5
5CC
330
1A
100
AcDbEntity
  8
ZUWAKU
100
AcDbCircle
 10
42.96721184405476
 20
7.67499945063826
 30
0.0
 40
0.525
100
AcDbArc
 50
270.0
 51
0.0
  0
ARC
  5
5CD
330
1A
100
AcDbEntity
  8
ZUWAKU
100
AcDbCircle
 10
46.64221184405483
 20
9.42499945063826
 30
0.0
 40
0.525
100
AcDbArc
 50
90.0
 51
180.0
  0
LINE
  5
5CE
330
1A
100
AcDbEntity
  8
ZUWAKU
100
AcDbLine
 10
46.64221184405483
 20
9.949999450638259
 30
0.0
 11
49.61721184405473
 21
9.949999450638259
 31
0.0
  0
LINE
  5
5CF
330
1A
100
AcDbEntity
  8
ZUWAKU
100
AcDbLine
 10
46.64221184405483
 20
7.149999450638262
 30
0.0
 11
50.14221184405482
 21
7.149999450638262
 31
0.0
  0
LINE
  5
5D0
330
1A
100
AcDbEntity
  8
ZUWAKU
100
AcDbLine
 10
46.8223633630713
 20
15.66494894429943
 30
0.0
 11
49.73216133771598
 21
12.75515096965477
 31
0.0
  0
LINE
  5
5D1
330
1A
100
AcDbEntity
  8
ZUWAKU
100
AcDbLine
 10
52.94221184405478
 20
9.949999450638259
 30
0.0
 11
52.94221184405478
 21
11.7652014759936
 31
0.0
  0
ARC
  5
5D2
330
1A
100
AcDbEntity
  8
ZUWAKU
100
AcDbCircle
 10
48.74221184405474
 20
11.76520147599356
 30
0.0
 40
4.199999999999999
100
AcDbArc
 50
0.0
 51
45.0
  0
ARC
  5
5D3
330
1A
100
AcDbEntity
  8
ZUWAKU
100
AcDbCircle
 10
58.89221184405482
 20
10.99999945063825
 30
0.0
 40
1.049999999999999
100
AcDbArc
 50
180.0
 51
270.0
  0
ARC
  5
5D4
330
1A
100
AcDbEntity
  8
ZUWAKU
100
AcDbCircle
 10
61.34221184405475
 20
9.949999450638259
 30
0.0
 40
2.799999999999999
100
AcDbArc
 50
270.0
 51
0.0
  0
LINE
  5
5D5
330
1A
100
AcDbEntity
  8
ZUWAKU
100
AcDbLine
 10
66.76721184405483
 20
7.149999450638262
 30
0.0
 11
68.51721184405483
 21
7.149999450638262
 31
0.0
  0
ARC
  5
5D6
330
1A
100
AcDbEntity
  8
ZUWAKU
100
AcDbCircle
 10
66.76721184405483
 20
7.67499945063826
 30
0.0
 40
0.525
100
AcDbArc
 50
180.0
 51
270.0
  0
ARC
  5
5D7
330
1A
100
AcDbEntity
  8
ZUWAKU
100
AcDbCircle
 10
60.2922118440548
 20
10.99999945063825
 30
0.0
 40
1.049999999999999
100
AcDbArc
 50
270.0
 51
0.0
  0
ARC
  5
5D8
330
1A
100
AcDbEntity
  8
ZUWAKU
100
AcDbCircle
 10
68.51721184405483
 20
7.67499945063826
 30
0.0
 40
0.525
100
AcDbArc
 50
270.0
 51
0.0
  0
LINE
  5
5D9
330
1A
100
AcDbEntity
  8
ZUWAKU
100
AcDbLine
 10
42.96721184405476
 20
23.24999945063826
 30
0.0
 11
41.21721184405475
 21
23.24999945063826
 31
0.0
  0
ARC
  5
5DA
330
1A
100
AcDbEntity
  8
ZUWAKU
100
AcDbCircle
 10
32.11721184405473
 20
22.72499945063825
 30
0.0
 40
0.525
100
AcDbArc
 50
0.0
 51
90.0
  0
LINE
  5
5DB
330
1A
100
AcDbEntity
  8
ZUWAKU
100
AcDbLine
 10
32.11721184405473
 20
23.24999945063826
 30
0.0
 11
30.36721184405474
 21
23.24999945063826
 31
0.0
  0
ARC
  5
5DC
330
1A
100
AcDbEntity
  8
ZUWAKU
100
AcDbCircle
 10
26.86721184405473
 20
22.72499945063825
 30
0.0
 40
0.525
100
AcDbArc
 50
0.0
 51
90.0
  0
ARC
  5
5DD
330
1A
100
AcDbEntity
  8
ZUWAKU
100
AcDbCircle
 10
30.36721184405474
 20
22.72499945063825
 30
0.0
 40
0.525
100
AcDbArc
 50
90.0
 51
180.0
  0
ARC
  5
5DE
330
1A
100
AcDbEntity
  8
ZUWAKU
100
AcDbCircle
 10
26.86721184405473
 20
20.97499945063825
 30
0.0
 40
0.525
100
AcDbArc
 50
270.0
 51
0.0
  0
LINE
  5
5DF
330
1A
100
AcDbEntity
  8
ZUWAKU
100
AcDbLine
 10
27.39221184405483
 20
22.72499945063825
 30
0.0
 11
27.39221184405483
 21
20.97499945063825
 31
0.0
  0
ARC
  5
5E0
330
1A
100
AcDbEntity
  8
ZUWAKU
100
AcDbCircle
 10
41.21721184405475
 20
22.72499945063825
 30
0.0
 40
0.525
100
AcDbArc
 50
90.0
 51
180.0
  0
LINE
  5
5E1
330
1A
100
AcDbEntity
  8
ZUWAKU
100
AcDbLine
 10
36.1769776805661
 20
23.24999945063826
 30
0.0
 11
37.87586706017509
 21
23.24999945063826
 31
0.0
  0
ARC
  5
5E2
330
1A
100
AcDbEntity
  8
ZUWAKU
100
AcDbCircle
 10
37.87586706017509
 20
22.72499945063825
 30
0.0
 40
0.525
100
AcDbArc
 50
342.4744316262769
 51
90.0
  0
LINE
  5
5E3
330
1A
100
AcDbEntity
  8
ZUWAKU
100
AcDbLine
 10
38.37649795937057
 20
22.56690548247129
 30
0.0
 11
37.31485832623275
 21
19.20504664420168
 31
0.0
  0
ARC
  5
5E4
330
1A
100
AcDbEntity
  8
ZUWAKU
100
AcDbCircle
 10
36.1769776805661
 20
22.72499945063825
 30
0.0
 40
0.525
100
AcDbArc
 50
90.0
 51
162.4744316262769
  0
LINE
  5
5E5
330
1A
100
AcDbEntity
  8
ZUWAKU
100
AcDbLine
 10
48.39221184405483
 20
23.24999945063826
 30
0.0
 11
51.89221184405482
 21
23.24999945063826
 31
0.0
  0
LINE
  5
5E6
330
1A
100
AcDbEntity
  8
ZUWAKU
100
AcDbLine
 10
51.89221184405482
 20
20.44999945063826
 30
0.0
 11
48.9172118440548
 21
20.44999945063826
 31
0.0
  0
ARC
  5
5E7
330
1A
100
AcDbEntity
  8
ZUWAKU
100
AcDbCircle
 10
48.9172118440548
 20
19.92499945063826
 30
0.0
 40
0.525
100
AcDbArc
 50
90.0
 51
180.0
  0
LINE
  5
5E8
330
1A
100
AcDbEntity
  8
ZUWAKU
100
AcDbLine
 10
48.39221184405483
 20
19.92499945063826
 30
0.0
 11
48.39221184405483
 21
18.63479742528292
 31
0.0
  0
ARC
  5
5E9
330
1A
100
AcDbEntity
  8
ZUWAKU
100
AcDbCircle
 10
42.96721184405476
 20
22.72499945063825
 30
0.0
 40
0.525
100
AcDbArc
 50
0.0
 51
90.0
  0
LINE
  5
5EA
330
1A
100
AcDbEntity
  8
ZUWAKU
100
AcDbLine
 10
45.59221184405475
 20
20.44999945063826
 30
0.0
 11
45.59221184405475
 21
18.63479742528292
 31
0.0
  0
ARC
  5
5EB
330
1A
100
AcDbEntity
  8
ZUWAKU
100
AcDbCircle
 10
48.39221184405483
 20
20.44999945063826
 30
0.0
 40
2.799999999999999
100
AcDbArc
 50
90.0
 51
180.0
  0
ARC
  5
5EC
330
1A
100
AcDbEntity
  8
ZUWAKU
100
AcDbCircle
 10
57.31721184405478
 20
22.72499945063825
 30
0.0
 40
0.525
100
AcDbArc
 50
0.0
 51
90.0
  0
ARC
  5
5ED
330
1A
100
AcDbEntity
  8
ZUWAKU
100
AcDbCircle
 10
55.56721184405478
 20
22.72499945063825
 30
0.0
 40
0.525
100
AcDbArc
 50
90.0
 51
180.0
  0
LINE
  5
5EE
330
1A
100
AcDbEntity
  8
ZUWAKU
100
AcDbLine
 10
57.31721184405478
 20
23.24999945063826
 30
0.0
 11
55.56721184405478
 21
23.24999945063826
 31
0.0
  0
ARC
  5
5EF
330
1A
100
AcDbEntity
  8
ZUWAKU
100
AcDbCircle
 10
51.89221184405482
 20
22.72499945063825
 30
0.0
 40
0.525
100
AcDbArc
 50
0.0
 51
90.0
  0
ARC
  5
5F0
330
1A
100
AcDbEntity
  8
ZUWAKU
100
AcDbCircle
 10
51.89221184405482
 20
20.97499945063825
 30
0.0
 40
0.525
100
AcDbArc
 50
270.0
 51
0.0
  0
LINE
  5
5F1
330
1A
100
AcDbEntity
  8
ZUWAKU
100
AcDbLine
 10
52.41721184405481
 20
22.72499945063825
 30
0.0
 11
52.41721184405481
 21
20.97499945063825
 31
0.0
  0
LINE
  5
5F2
330
1A
100
AcDbEntity
  8
ZUWAKU
100
AcDbLine
 10
68.51721184405483
 20
23.24999945063826
 30
0.0
 11
66.76721184405483
 21
23.24999945063826
 31
0.0
  0
ARC
  5
5F3
330
1A
100
AcDbEntity
  8
ZUWAKU
100
AcDbCircle
 10
66.76721184405483
 20
22.72499945063825
 30
0.0
 40
0.525
100
AcDbArc
 50
90.0
 51
180.0
  0
ARC
  5
5F4
330
1A
100
AcDbEntity
  8
ZUWAKU
100
AcDbCircle
 10
63.61721184405474
 20
22.72499945063825
 30
0.0
 40
0.525
100
AcDbArc
 50
0.0
 51
90.0
  0
LINE
  5
5F5
330
1A
100
AcDbEntity
  8
ZUWAKU
100
AcDbLine
 10
63.61721184405474
 20
23.24999945063826
 30
0.0
 11
61.86721184405474
 21
23.24999945063826
 31
0.0
  0
ARC
  5
5F6
330
1A
100
AcDbEntity
  8
ZUWAKU
100
AcDbCircle
 10
61.86721184405474
 20
22.72499945063825
 30
0.0
 40
0.525
100
AcDbArc
 50
90.0
 51
180.0
  0
ARC
  5
5F7
330
1A
100
AcDbEntity
  8
ZUWAKU
100
AcDbCircle
 10
68.51721184405483
 20
22.72499945063825
 30
0.0
 40
0.525
100
AcDbArc
 50
0.0
 51
90.0
  0
TEXT
  5
5F8
330
1A
100
AcDbEntity
  8
MOJI
100
AcDbText
 10
239.8272023701247
 20
18.00492050804564
 30
0.0
 40
5.599999999999999
  1
洋風じょうごⅡ型
 41
0.9
  7
ｽﾀｲﾙ1
100
AcDbText
  0
TEXT
  5
5F9
330
1A
100
AcDbEntity
  8
MOJI
100
AcDbText
 10
239.8272023701247
 20
3.204920508045677
 30
0.0
 40
5.599999999999999
  1
ＲＶ１０５－Ｙ６０・ＵＴ６０
 41
0.9
  7
ｽﾀｲﾙ1
100
AcDbText
  0
LINE
  5
5FA
330
1A
100
AcDbEntity
  8
ZUWAKU
100
AcDbLine
 10
208.2466009793415
 20
29.99999945063825
 30
0.0
 11
208.2466009793415
 21
0.7999994506383246
 31
0.0
  0
LINE
  5
5FB
330
1A
100
AcDbEntity
  8
ZUWAKU
100
AcDbLine
 10
208.6466009793414
 20
29.99999945063825
 30
0.0
 11
208.6466009793416
 21
0.7999994506383246
 31
0.0
  0
LINE
  5
5FC
330
1A
100
AcDbEntity
  8
ZUWAKU
100
AcDbLine
 10
208.4466009793414
 20
29.99999945063825
 30
0.0
 11
208.4466009793416
 21
0.7999994506383246
 31
0.0
  0
TEXT
  5
5FD
330
1A
100
AcDbEntity
  8
ZUWAKU
100
AcDbText
 10
209.7240460015512
 20
9.655355989023874
 30
0.0
 40
4.0
  1
サイズ
 41
0.9
  7
ｽﾀｲﾙ1
100
AcDbText
  0
TEXT
  5
5FE
330
1A
100
AcDbEntity
  8
ZUWAKU
100
AcDbText
 10
209.7240460015509
 20
24.05535598902384
 30
0.0
 40
4.0
  1
品名
 41
0.9
  7
ｽﾀｲﾙ1
100
AcDbText
  0
LINE
  5
5FF
330
1A
100
AcDbEntity
  8
ZUWAKU
100
AcDbLine
 10
648.8172021994778
 20
15.19999945063828
 30
0.0
 11
697.2490102378149
 21
15.19999945063829
 31
0.0
  0
LINE
  5
600
330
1A
100
AcDbEntity
  8
ZUWAKU
100
AcDbLine
 10
648.817202199478
 20
15.39999945063829
 30
0.0
 11
697.2490102378149
 21
15.39999945063829
 31
0.0
  0
LINE
  5
601
330
1A
100
AcDbEntity
  8
ZUWAKU
100
AcDbLine
 10
648.8172021994778
 20
15.59999945063829
 30
0.0
 11
697.2490102378149
 21
15.59999945063829
 31
0.0
  0
TEXT
  5
602
330
1A
100
AcDbEntity
  8
ZUWAKU
100
AcDbText
 10
658.203937376576
 20
18.00492050804564
 30
0.0
 40
5.599999999999999
  1
　　．　　．　　
 41
0.9
  7
ｽﾀｲﾙ1
100
AcDbText
  0
TEXT
  5
603
330
1A
100
AcDbEntity
  8
SUNPOU
100
AcDbText
 10
661.9071641742184
 20
36.65388898337175
 30
0.0
 40
6.0
  1
※b　エルボの差込み寸法を示す
100
AcDbText
  0
TEXT
  5
604
330
1A
100
AcDbEntity
  8
SUNPOU
100
AcDbText
 10
661.9071641742184
 20
46.25388898337178
 30
0.0
 40
6.0
  1
※a　のきといの縁切り間隔寸法を示す
100
AcDbText
  0
LINE
  5
605
330
1A
100
AcDbEntity
  8
ZUWAKU
100
AcDbLine
 10
505.1991791874145
 20
15.19999945063829
 30
0.0
 11
552.5269554553861
 21
15.19999945063829
 31
0.0
  0
LINE
  5
606
330
1A
100
AcDbEntity
  8
ZUWAKU
100
AcDbLine
 10
505.1991791874145
 20
15.39999945063829
 30
0.0
 11
552.5269554553861
 21
15.39999945063829
 31
0.0
  0
LINE
  5
607
330
1A
100
AcDbEntity
  8
ZUWAKU
100
AcDbLine
 10
505.1991791874145
 20
15.59999945063829
 30
0.0
 11
552.5269554553861
 21
15.59999945063829
 31
0.0
  0
TEXT
  5
608
330
1A
100
AcDbEntity
  8
MOJI
100
AcDbText
 10
464.5946256925126
 20
11.94261717229824
 30
0.0
 40
5.599999999999999
  1
ＧＱ６６□
 41
0.9
  7
ｽﾀｲﾙ1
100
AcDbText
  0
LINE
  5
609
330
1A
100
AcDbEntity
  8
ZUWAKU
100
AcDbLine
 10
447.6243636602649
 20
29.99999945063825
 30
0.0
 11
447.624363660265
 21
0.7999994506383246
 31
0.0
  0
LINE
  5
60A
330
1A
100
AcDbEntity
  8
ZUWAKU
100
AcDbLine
 10
447.8243636602648
 20
29.99999945063825
 30
0.0
 11
447.8243636602651
 21
0.7999994506383246
 31
0.0
  0
LINE
  5
60B
330
1A
100
AcDbEntity
  8
ZUWAKU
100
AcDbLine
 10
447.424363660265
 20
29.99999945063825
 30
0.0
 11
447.424363660265
 21
0.7999994506383246
 31
0.0
  0
TEXT
  5
60C
330
1A
100
AcDbEntity
  8
MOJI
100
AcDbText
 10
528.0409076615865
 20
18.00492050804564
 30
0.0
 40
5.599999999999999
  1
Ａ３
 41
0.9
  7
ｽﾀｲﾙ1
100
AcDbText
  0
LINE
  5
60D
330
1A
100
AcDbEntity
  8
ZUWAKU
100
AcDbLine
 10
504.9991791874145
 20
29.99999945063825
 30
0.0
 11
504.9991791874147
 21
0.7999994506383246
 31
0.0
  0
LINE
  5
60E
330
1A
100
AcDbEntity
  8
ZUWAKU
100
AcDbLine
 10
505.1991791874145
 20
29.99999945063825
 30
0.0
 11
505.1991791874147
 21
0.7999994506383246
 31
0.0
  0
LINE
  5
60F
330
1A
100
AcDbEntity
  8
ZUWAKU
100
AcDbLine
 10
504.7991791874146
 20
29.99999945063825
 30
0.0
 11
504.7991791874146
 21
0.7999994506383246
 31
0.0
  0
TEXT
  5
610
330
1A
100
AcDbEntity
  8
ZUWAKU
100
AcDbText
 10
462.6937613447807
 20
2.614070361777748
 30
0.0
 40
3.0
  1
□には色品番が入ります
 41
0.9
  7
ｽﾀｲﾙ1
100
AcDbText
  0
TEXT
  5
611
330
1A
100
AcDbEntity
  8
ZUWAKU
100
AcDbText
 10
506.6766242096243
 20
9.655355989023874
 30
0.0
 40
4.0
  1
縮尺
 41
0.9
  7
ｽﾀｲﾙ1
100
AcDbText
  0
TEXT
  5
612
330
1A
100
AcDbEntity
  8
MOJI
100
AcDbText
 10
528.0409076615865
 20
3.204920508045677
 30
0.0
 40
5.599999999999999
  1
１/２
 41
0.9
  7
ｽﾀｲﾙ1
100
AcDbText
  0
TEXT
  5
613
330
1A
100
AcDbEntity
  8
ZUWAKU
100
AcDbText
 10
449.3018086824745
 20
24.05535598902384
 30
0.0
 40
4.0
  1
品番
 41
0.9
  7
ｽﾀｲﾙ1
100
AcDbText
  0
TEXT
  5
614
330
1A
100
AcDbEntity
  8
ZUWAKU
100
AcDbText
 10
506.6766242096242
 20
24.05535598902384
 30
0.0
 40
4.0
  1
用紙
 41
0.9
  7
ｽﾀｲﾙ1
100
AcDbText
  0
LINE
  5
615
330
1A
100
AcDbEntity
  8
ZUWAKU
100
AcDbLine
 10
648.617202199478
 20
29.99999945063825
 30
0.0
 11
648.6172021994782
 21
0.7999994506383246
 31
0.0
  0
LINE
  5
616
330
1A
100
AcDbEntity
  8
ZUWAKU
100
AcDbLine
 10
648.817202199478
 20
29.99999945063825
 30
0.0
 11
648.8172021994783
 21
0.7999994506383246
 31
0.0
  0
LINE
  5
617
330
1A
100
AcDbEntity
  8
ZUWAKU
100
AcDbLine
 10
648.4172021994782
 20
29.99999945063825
 30
0.0
 11
648.4172021994782
 21
0.7999994506383246
 31
0.0
  0
LINE
  5
618
330
1A
100
AcDbEntity
  8
ZUWAKU
100
AcDbLine
 10
552.7269554553859
 20
29.99999945063825
 30
0.0
 11
552.7269554553861
 21
0.7999994506383246
 31
0.0
  0
LINE
  5
619
330
1A
100
AcDbEntity
  8
ZUWAKU
100
AcDbLine
 10
552.9269554553859
 20
29.99999945063825
 30
0.0
 11
552.9269554553861
 21
0.7999994506383246
 31
0.0
  0
LINE
  5
61A
330
1A
100
AcDbEntity
  8
ZUWAKU
100
AcDbLine
 10
552.5269554553861
 20
29.99999945063825
 30
0.0
 11
552.5269554553861
 21
0.7999994506383246
 31
0.0
  0
TEXT
  5
61B
330
1A
100
AcDbEntity
  8
ZUWAKU
100
AcDbText
 10
650.2946472216876
 20
24.05535598902384
 30
0.0
 40
4.0
  1
DATE
 41
0.9
  7
ｽﾀｲﾙ1
100
AcDbText
  0
LINE
  5
61C
330
1A
100
AcDbEntity
  8
ZUWAKU
100
AcDbLine
 10
697.2490102378149
 20
29.99999945063825
 30
0.0
 11
697.2490102378149
 21
0.7999994506383246
 31
0.0
  0
LINE
  5
61D
330
1A
100
AcDbEntity
  8
ZUWAKU
100
AcDbLine
 10
697.4490102378149
 20
29.99999945063825
 30
0.0
 11
697.4490102378149
 21
0.7999994506383246
 31
0.0
  0
LINE
  5
61E
330
1A
100
AcDbEntity
  8
ZUWAKU
100
AcDbLine
 10
697.6490102378147
 20
29.99999945063825
 30
0.0
 11
697.649010237815
 21
0.7999994506383246
 31
0.0
  0
LINE
  5
61F
330
1A
100
AcDbEntity
  8
ZUWAKU
100
AcDbLine
 10
697.8490102378148
 20
29.99999945063825
 30
0.0
 11
697.849010237815
 21
0.7999994506383246
 31
0.0
  0
TEXT
  5
620
330
1A
100
AcDbEntity
  8
ZUWAKU
100
AcDbText
 10
708.5280838815174
 20
17.55383878632506
 30
0.0
 40
6.0
  1
積水化学工業株式会社
 41
0.9
  7
ｽﾀｲﾙ1
100
AcDbText
  0
TEXT
  5
621
330
1A
100
AcDbEntity
  8
ZUWAKU
100
AcDbText
 10
708.5280838815174
 20
6.648839764492322
 30
0.0
 40
6.0
  1
建材事業部
 41
0.9
  7
ｽﾀｲﾙ1
100
AcDbText
  0
VIEWPORT
  5
22
330
17
100
AcDbEntity
 67
     1
  8
0
100
AcDbViewport
 10
313.6808219178082
 20
148.5
 30
0.0
 40
627.3616438356165
 41
297.0
 68
     2
 69
     1
1001
ACAD
1000
MVIEW
1002
{
1070
    16
1010
0.0
1020
0.0
1030
0.0
1010
0.0
1020
0.0
1030
1.0
1040
0.0
1040
297.0
1040
313.6808219178082
1040
148.5
1040
50.0
1040
0.0
1040
0.0
1070
     0
1070
   100
1070
     1
1070
     0
1070
     0
1070
     0
1070
     0
1070
     0
1040
0.0
1040
0.0
1040
0.0
1040
1.0
1040
1.0
1040
10.0
1040
10.0
1070
     0
1002
{
1002
}
1002
}
  0
VIEWPORT
  5
64
330
17
100
AcDbEntity
 67
     1
  8
VIEWPORT
100
AcDbViewport
 10
210.0
 20
148.5
 30
0.0
 40
420.0
 41
297.0
 68
     1
 69
     2
1001
ACAD
1000
MVIEW
1002
{
1070
    16
1010
0.0
1020
0.0
1030
0.0
1010
0.0
1020
0.0
1030
1.0
1040
0.0
1040
605.8799999999998
1040
420.0
1040
297.0
1040
50.0
1040
0.0
1040
0.0
1070
     0
1070
   100
1070
     1
1070
     0
1070
     0
1070
     0
1070
     0
1070
     0
1040
0.0
1040
0.0
1040
0.0
1040
10.0
1040
10.0
1040
0.0
1040
0.0
1070
     0
1002
{
1002
}
1002
}
  0
ENDSEC
  0
SECTION
  2
OBJECTS
  0
DICTIONARY
  5
C
330
0
100
AcDbDictionary
  3
ACAD_GROUP
350
D
  3
ACAD_LAYOUT
350
470
  3
ACAD_MLINESTYLE
350
E
  3
ACAD_PLOTSETTINGS
350
471
  3
ACAD_PLOTSTYLENAME
350
46E
  3
ACDBHEADERROUNDTRIPXREC
350
629
  0
DICTIONARY
  5
49F
330
1A
100
AcDbDictionary
280
     1
  3
ACAD_LAYOUTSELFREF
360
64B
  0
DICTIONARY
  5
49D
330
17
100
AcDbDictionary
280
     1
  3
ACAD_LAYOUTSELFREF
360
64A
  0
DICTIONARY
  5
D
102
{ACAD_REACTORS
330
C
102
}
330
C
100
AcDbDictionary
  0
DICTIONARY
  5
470
102
{ACAD_REACTORS
330
C
102
}
330
C
100
AcDbDictionary
  0
DICTIONARY
  5
E
102
{ACAD_REACTORS
330
C
102
}
330
C
100
AcDbDictionary
  3
STANDARD
350
13
  0
DICTIONARY
  5
471
102
{ACAD_REACTORS
330
C
102
}
330
C
100
AcDbDictionary
  0
ACDBDICTIONARYWDFLT
  5
46E
102
{ACAD_REACTORS
330
C
102
}
330
C
100
AcDbDictionary
281
     1
  3
Normal
350
46F
100
AcDbDictionaryWithDefault
340
46F
1001
ACAD
1000
TREAT_AS_HARD
1070
     0
  0
DICTIONARY
  5
629
102
{ACAD_REACTORS
330
C
102
}
330
C
100
AcDbDictionary
  3
TSTACKALIGN
350
62A
  3
TSTACKSIZE
350
62B
  3
HYPERLINKBASE
350
62C
  3
STYLESHEET
350
62D
  3
LAYOUTDICT
350
62E
  3
PLOTSETDICT
350
62F
  3
PLOTSTYLNAMDICT
350
630
  3
LWETCUNION
350
631
  3
INSUNITS
350
632
  3
CEPSNTYPE
350
633
  3
FINGERPRINTGUID
350
634
  3
VERSIONGUID
350
635
  3
PSVPSCALE
350
636
  3
DIMSTYLEDATA
350
637
  3
PUCSORTHOREF
350
638
  3
PUCSORTHOVIEW
350
639
  3
PUCSBASE
350
63A
  3
PUCSORGTOP
350
63B
  3
PUCSORGBOTTOM
350
63C
  3
PUCSORGLEFT
350
63D
  3
PUCSORGRIGHT
350
63E
  3
PUCSORGFRONT
350
63F
  3
PUCSORGBACK
350
640
  3
UCSORTHOREF
350
641
  3
UCSORTHOVIEW
350
642
  3
UCSBASE
350
643
  3
UCSORGTOP
350
644
  3
UCSORGBOTTOM
350
645
  3
UCSORGLEFT
350
646
  3
UCSORGRIGHT
350
647
  3
UCSORGFRONT
350
648
  3
UCSORGBACK
350
649
  0
XRECORD
  5
64B
102
{ACAD_REACTORS
330
49F
102
}
330
49F
100
AcDbXrecord
340
1A
  0
XRECORD
  5
64A
102
{ACAD_REACTORS
330
49D
102
}
330
49D
100
AcDbXrecord
340
17
  0
MLINESTYLE
  5
13
102
{ACAD_REACTORS
330
E
102
}
330
E
100
AcDbMlineStyle
  2
STANDARD
 70
     0
  3

 62
     0
 51
90.0
 52
90.0
 71
     2
 49
0.5
 62
   256
  6
BYLAYER
 49
-0.5
 62
   256
  6
BYLAYER
  0
ACDBPLACEHOLDER
  5
46F
102
{ACAD_REACTORS
330
46E
102
}
330
46E
100
AcDbPlaceHolder
280
     0
  0
XRECORD
  5
62A
102
{ACAD_REACTORS
330
629
102
}
330
629
100
AcDbXrecord
 90
        1
  0
XRECORD
  5
62B
102
{ACAD_REACTORS
330
629
102
}
330
629
100
AcDbXrecord
 90
       70
  0
XRECORD
  5
62C
102
{ACAD_REACTORS
330
629
102
}
330
629
100
AcDbXrecord
  1

  0
XRECORD
  5
62D
102
{ACAD_REACTORS
330
629
102
}
330
629
100
AcDbXrecord
  1
systemprinter.ctb
  0
XRECORD
  5
62E
102
{ACAD_REACTORS
330
629
102
}
330
629
100
AcDbXrecord
340
470
  0
XRECORD
  5
62F
102
{ACAD_REACTORS
330
629
102
}
330
629
100
AcDbXrecord
340
471
  0
XRECORD
  5
630
102
{ACAD_REACTORS
330
629
102
}
330
629
100
AcDbXrecord
340
46E
  0
XRECORD
  5
631
102
{ACAD_REACTORS
330
629
102
}
330
629
100
AcDbXrecord
 90
    10781
  0
XRECORD
  5
632
102
{ACAD_REACTORS
330
629
102
}
330
629
100
AcDbXrecord
 90
        0
  0
XRECORD
  5
633
102
{ACAD_REACTORS
330
629
102
}
330
629
100
AcDbXrecord
 90
        0
  0
XRECORD
  5
634
102
{ACAD_REACTORS
330
629
102
}
330
629
100
AcDbXrecord
  1
{7CA55BBC-CEE4-42F5-B462-4CE958D5536B}
  0
XRECORD
  5
635
102
{ACAD_REACTORS
330
629
102
}
330
629
100
AcDbXrecord
  1
{FD9F28AC-BBE6-4267-B069-9AB3E0CA2779}
  0
XRECORD
  5
636
102
{ACAD_REACTORS
330
629
102
}
330
629
100
AcDbXrecord
 40
0.0
  0
XRECORD
  5
637
102
{ACAD_REACTORS
330
629
102
}
330
629
100
AcDbXrecord
1000
DSTYLE
1002
{
1070
   341
340
6D
1070
   343
340
6D
1070
   344
340
6D
1070
   371
 70
    -1
1070
   372
 70
    -1
1002
}
  0
XRECORD
  5
638
102
{ACAD_REACTORS
330
629
102
}
330
629
100
AcDbXrecord
340
0
  0
XRECORD
  5
639
102
{ACAD_REACTORS
330
629
102
}
330
629
100
AcDbXrecord
 70
     0
  0
XRECORD
  5
63A
102
{ACAD_REACTORS
330
629
102
}
330
629
100
AcDbXrecord
340
0
  0
XRECORD
  5
63B
102
{ACAD_REACTORS
330
629
102
}
330
629
100
AcDbXrecord
 10
0.0
 20
0.0
 30
0.0
  0
XRECORD
  5
63C
102
{ACAD_REACTORS
330
629
102
}
330
629
100
AcDbXrecord
 10
0.0
 20
0.0
 30
0.0
  0
XRECORD
  5
63D
102
{ACAD_REACTORS
330
629
102
}
330
629
100
AcDbXrecord
 10
0.0
 20
0.0
 30
0.0
  0
XRECORD
  5
63E
102
{ACAD_REACTORS
330
629
102
}
330
629
100
AcDbXrecord
 10
0.0
 20
0.0
 30
0.0
  0
XRECORD
  5
63F
102
{ACAD_REACTORS
330
629
102
}
330
629
100
AcDbXrecord
 10
0.0
 20
0.0
 30
0.0
  0
XRECORD
  5
640
102
{ACAD_REACTORS
330
629
102
}
330
629
100
AcDbXrecord
 10
0.0
 20
0.0
 30
0.0
  0
XRECORD
  5
641
102
{ACAD_REACTORS
330
629
102
}
330
629
100
AcDbXrecord
340
0
  0
XRECORD
  5
642
102
{ACAD_REACTORS
330
629
102
}
330
629
100
AcDbXrecord
 70
     0
  0
XRECORD
  5
643
102
{ACAD_REACTORS
330
629
102
}
330
629
100
AcDbXrecord
340
0
  0
XRECORD
  5
644
102
{ACAD_REACTORS
330
629
102
}
330
629
100
AcDbXrecord
 10
0.0
 20
0.0
 30
0.0
  0
XRECORD
  5
645
102
{ACAD_REACTORS
330
629
102
}
330
629
100
AcDbXrecord
 10
0.0
 20
0.0
 30
0.0
  0
XRECORD
  5
646
102
{ACAD_REACTORS
330
629
102
}
330
629
100
AcDbXrecord
 10
0.0
 20
0.0
 30
0.0
  0
XRECORD
  5
647
102
{ACAD_REACTORS
330
629
102
}
330
629
100
AcDbXrecord
 10
0.0
 20
0.0
 30
0.0
  0
XRECORD
  5
648
102
{ACAD_REACTORS
330
629
102
}
330
629
100
AcDbXrecord
 10
0.0
 20
0.0
 30
0.0
  0
XRECORD
  5
649
102
{ACAD_REACTORS
330
629
102
}
330
629
100
AcDbXrecord
 10
0.0
 20
0.0
 30
0.0
  0
ENDSEC
  0
EOF
