  0
SECTION
  2
HEADER
  9
$ACADVER
  1
AC1014
  9
$ACADMAINTVER
 70
     9
  9
$DWGCODEPAGE
  3
ANSI_932
  9
$INSBASE
 10
0.0
 20
0.0
 30
0.0
  9
$EXTMIN
 10
-0.05126640194635
 20
-0.0362526699479986
 30
-0.0000000000112498
  9
$EXTMAX
 10
797.6628945888771
 20
551.6439420217511
 30
0.0000000000002956
  9
$LIMMIN
 10
0.0
 20
0.0
  9
$LIMMAX
 10
840.0
 20
594.0
  9
$ORTHOMODE
 70
     0
  9
$REGENMODE
 70
     1
  9
$FILLMODE
 70
     1
  9
$QTEXTMODE
 70
     0
  9
$MIRRTEXT
 70
     1
  9
$DRAGMODE
 70
     2
  9
$LTSCALE
 40
2.0
  9
$OSMODE
 70
    35
  9
$ATTMODE
 70
     1
  9
$TEXTSIZE
 40
5.0
  9
$TRACEWID
 40
1.0
  9
$TEXTSTYLE
  7
STANDARD
  9
$CLAYER
  8
ZUWAKU
  9
$CELTYPE
  6
BYLAYER
  9
$CECOLOR
 62
   256
  9
$CELTSCALE
 40
1.0
  9
$DELOBJ
 70
     1
  9
$DISPSILH
 70
     0
  9
$DIMSCALE
 40
1.0
  9
$DIMASZ
 40
7.0
  9
$DIMEXO
 40
6.0
  9
$DIMDLI
 40
14.0
  9
$DIMRND
 40
0.0
  9
$DIMDLE
 40
0.0
  9
$DIMEXE
 40
3.0
  9
$DIMTP
 40
0.0
  9
$DIMTM
 40
0.0
  9
$DIMTXT
 40
6.0
  9
$DIMCEN
 40
150.0
  9
$DIMTSZ
 40
0.0
  9
$DIMTOL
 70
     0
  9
$DIMLIM
 70
     0
  9
$DIMTIH
 70
     0
  9
$DIMTOH
 70
     0
  9
$DIMSE1
 70
     0
  9
$DIMSE2
 70
     0
  9
$DIMTAD
 70
     3
  9
$DIMZIN
 70
     0
  9
$DIMBLK
  1

  9
$DIMASO
 70
     1
  9
$DIMSHO
 70
     1
  9
$DIMPOST
  1

  9
$DIMAPOST
  1

  9
$DIMALT
 70
     0
  9
$DIMALTD
 70
     2
  9
$DIMALTF
 40
25.4
  9
$DIMLFAC
 40
1.0
  9
$DIMTOFL
 70
     1
  9
$DIMTVP
 40
0.0
  9
$DIMTIX
 70
     0
  9
$DIMSOXD
 70
     0
  9
$DIMSAH
 70
     1
  9
$DIMBLK1
  1
OPEN
  9
$DIMBLK2
  1
OPEN
  9
$DIMSTYLE
  2
STANDARD
  9
$DIMCLRD
 70
     4
  9
$DIMCLRE
 70
     4
  9
$DIMCLRT
 70
     4
  9
$DIMTFAC
 40
1.0
  9
$DIMGAP
 40
2.0
  9
$DIMJUST
 70
     0
  9
$DIMSD1
 70
     0
  9
$DIMSD2
 70
     0
  9
$DIMTOLJ
 70
     1
  9
$DIMTZIN
 70
     0
  9
$DIMALTZ
 70
     0
  9
$DIMALTTZ
 70
     0
  9
$DIMFIT
 70
     3
  9
$DIMUPT
 70
     0
  9
$DIMUNIT
 70
     2
  9
$DIMDEC
 70
     0
  9
$DIMTDEC
 70
     2
  9
$DIMALTU
 70
     2
  9
$DIMALTTD
 70
     2
  9
$DIMTXSTY
  7
STANDARD
  9
$DIMAUNIT
 70
     0
  9
$LUNITS
 70
     2
  9
$LUPREC
 70
     4
  9
$SKETCHINC
 40
1.0
  9
$FILLETRAD
 40
20.0
  9
$AUNITS
 70
     0
  9
$AUPREC
 70
     0
  9
$MENU
  1
.
  9
$ELEVATION
 40
0.0
  9
$PELEVATION
 40
0.0
  9
$THICKNESS
 40
0.0
  9
$LIMCHECK
 70
     0
  9
$BLIPMODE
 70
     0
  9
$CHAMFERA
 40
20.0
  9
$CHAMFERB
 40
20.0
  9
$CHAMFERC
 40
40.0
  9
$CHAMFERD
 40
0.0
  9
$SKPOLY
 70
     0
  9
$TDCREATE
 40
2451201.602350926
  9
$TDUPDATE
 40
2453805.617610486
  9
$TDINDWG
 40
0.0214442361
  9
$TDUSRTIMER
 40
0.0214442361
  9
$USRTIMER
 70
     1
  9
$ANGBASE
 50
0.0
  9
$ANGDIR
 70
     0
  9
$PDMODE
 70
     0
  9
$PDSIZE
 40
0.0
  9
$PLINEWID
 40
0.0
  9
$COORDS
 70
     1
  9
$SPLFRAME
 70
     0
  9
$SPLINETYPE
 70
     6
  9
$SPLINESEGS
 70
     8
  9
$ATTDIA
 70
     0
  9
$ATTREQ
 70
     1
  9
$HANDLING
 70
 10241
  9
$HANDSEED
  5
774
  9
$SURFTAB1
 70
     6
  9
$SURFTAB2
 70
     6
  9
$SURFTYPE
 70
     6
  9
$SURFU
 70
     6
  9
$SURFV
 70
     6
  9
$UCSNAME
  2

  9
$UCSORG
 10
0.0
 20
0.0
 30
0.0
  9
$UCSXDIR
 10
1.0
 20
0.0
 30
0.0
  9
$UCSYDIR
 10
0.0
 20
1.0
 30
0.0
  9
$PUCSNAME
  2

  9
$PUCSORG
 10
0.0
 20
0.0
 30
0.0
  9
$PUCSXDIR
 10
1.0
 20
0.0
 30
0.0
  9
$PUCSYDIR
 10
0.0
 20
1.0
 30
0.0
  9
$USERI1
 70
     0
  9
$USERI2
 70
     0
  9
$USERI3
 70
     0
  9
$USERI4
 70
     0
  9
$USERI5
 70
     0
  9
$USERR1
 40
0.0
  9
$USERR2
 40
0.0
  9
$USERR3
 40
0.0
  9
$USERR4
 40
0.0
  9
$USERR5
 40
0.0
  9
$WORLDVIEW
 70
     1
  9
$SHADEDGE
 70
     3
  9
$SHADEDIF
 70
    70
  9
$TILEMODE
 70
     1
  9
$MAXACTVP
 70
    16
  9
$PINSBASE
 10
0.0
 20
0.0
 30
0.0
  9
$PLIMCHECK
 70
     0
  9
$PEXTMIN
 10
0.0
 20
0.0
 30
0.0
  9
$PEXTMAX
 10
420.0
 20
297.0
 30
0.0
  9
$PLIMMIN
 10
0.0
 20
0.0
  9
$PLIMMAX
 10
420.0
 20
297.0
  9
$UNITMODE
 70
     0
  9
$VISRETAIN
 70
     0
  9
$PLINEGEN
 70
     0
  9
$PSLTSCALE
 70
     1
  9
$TREEDEPTH
 70
  3020
  9
$PICKSTYLE
 70
     1
  9
$CMLSTYLE
  2
STANDARD
  9
$CMLJUST
 70
     0
  9
$CMLSCALE
 40
1.0
  9
$PROXYGRAPHICS
 70
     1
  9
$MEASUREMENT
 70
     1
  0
ENDSEC
  0
SECTION
  2
CLASSES
  0
CLASS
  1
ACDBDICTIONARYWDFLT
  2
AcDbDictionaryWithDefault
  3
AutoCAD 2000
 90
        0
280
     0
281
     0
  0
CLASS
  1
ACDBPLACEHOLDER
  2
AcDbPlaceHolder
  3
AutoCAD 2000
 90
        0
280
     0
281
     0
  0
CLASS
  1
LAYOUT
  2
AcDbLayout
  3
AutoCAD 2000
 90
        0
280
     0
281
     0
  0
CLASS
  1
LONG_TRANSACTION
  2
AcDbLongTransaction
  3
AutoCAD 2000
 90
        0
280
     0
281
     0
  0
CLASS
  1
LWPOLYLINE
  2
AcDbPolyline
  3
AutoCAD 2000
 90
        0
280
     0
281
     1
  0
CLASS
  1
HATCH
  2
AcDbHatch
  3
AutoCAD 2000
 90
        0
280
     0
281
     1
  0
CLASS
  1
XRECORD
  2
AcDbXrecord
  3
AutoCAD 2000
 90
        0
280
     0
281
     0
  0
CLASS
  1
LONG_TRANSACTION
  2
AcDbLongTransaction
  3
AutoCAD 2000
 90
        0
280
     0
281
     0
  0
CLASS
  1
LWPOLYLINE
  2
AcDbPolyline
  3
AutoCAD 2000
 90
        0
280
     0
281
     1
  0
CLASS
  1
HATCH
  2
AcDbHatch
  3
AutoCAD 2000
 90
        0
280
     0
281
     1
  0
CLASS
  1
XRECORD
  2
AcDbXrecord
  3
AutoCAD 2000
 90
        0
280
     0
281
     0
  0
ENDSEC
  0
SECTION
  2
TABLES
  0
TABLE
  2
VPORT
  5
8
330
0
100
AcDbSymbolTable
 70
     2
  0
VPORT
  5
750
330
8
100
AcDbSymbolTableRecord
100
AcDbViewportTableRecord
  2
*ACTIVE
 70
     0
 10
0.0
 20
0.0
 11
1.0
 21
1.0
 12
422.2627707618019
 22
276.5106324082917
 13
0.0
 23
0.0
 14
5.0
 24
5.0
 15
0.0
 25
0.0
 16
0.0
 26
0.0
 36
1.0
 17
0.0
 27
0.0
 37
0.0
 40
600.7555714837613
 41
1.795454545454545
 42
50.0
 43
0.0
 44
0.0
 50
0.0
 51
0.0
 71
     0
 72
   100
 73
     1
 74
     0
 75
     0
 76
     0
 77
     0
 78
     0
  0
ENDTAB
  0
TABLE
  2
LTYPE
  5
5
330
0
100
AcDbSymbolTable
 70
     3
  0
LTYPE
  5
14
330
5
100
AcDbSymbolTableRecord
100
AcDbLinetypeTableRecord
  2
BYBLOCK
 70
     0
  3

 72
    65
 73
     0
 40
0.0
  0
LTYPE
  5
15
330
5
100
AcDbSymbolTableRecord
100
AcDbLinetypeTableRecord
  2
BYLAYER
 70
     0
  3

 72
    65
 73
     0
 40
0.0
  0
LTYPE
  5
16
330
5
100
AcDbSymbolTableRecord
100
AcDbLinetypeTableRecord
  2
CONTINUOUS
 70
     0
  3
Solid line
 72
    65
 73
     0
 40
0.0
  0
LTYPE
  5
115
330
5
100
AcDbSymbolTableRecord
100
AcDbLinetypeTableRecord
  2
PHANTOM
 70
     0
  3
______  __  __  ______  __  __  ______  __  __ 
 72
    65
 73
     6
 40
2.5
 49
1.25
 74
     0
 49
-0.25
 74
     0
 49
0.25
 74
     0
 49
-0.25
 74
     0
 49
0.25
 74
     0
 49
-0.25
 74
     0
  0
LTYPE
  5
135
330
5
100
AcDbSymbolTableRecord
100
AcDbLinetypeTableRecord
  2
CENTER
 70
     0
  3
____ _ ____ _ ____ _ ____ _ ____ _ ____ _ ____ 
 72
    65
 73
     4
 40
2.0
 49
1.25
 74
     0
 49
-0.25
 74
     0
 49
0.25
 74
     0
 49
-0.25
 74
     0
  0
ENDTAB
  0
TABLE
  2
LAYER
  5
2
330
0
100
AcDbSymbolTable
 70
     9
  0
LAYER
  5
F
330
2
100
AcDbSymbolTableRecord
100
AcDbLayerTableRecord
  2
0
 70
     0
 62
     7
  6
CONTINUOUS
  0
LAYER
  5
62
330
2
100
AcDbSymbolTableRecord
100
AcDbLayerTableRecord
  2
VIEWPORT
 70
     0
 62
     7
  6
CONTINUOUS
  0
LAYER
  5
65
330
2
100
AcDbSymbolTableRecord
100
AcDbLayerTableRecord
  2
ZUWAKU
 70
     0
 62
     7
  6
CONTINUOUS
  0
LAYER
  5
154
330
2
100
AcDbSymbolTableRecord
100
AcDbLayerTableRecord
  2
SEIHIN
 70
     0
 62
     3
  6
CONTINUOUS
  0
LAYER
  5
155
330
2
100
AcDbSymbolTableRecord
100
AcDbLayerTableRecord
  2
SUNPOU
 70
     0
 62
     4
  6
CONTINUOUS
  0
LAYER
  5
156
330
2
100
AcDbSymbolTableRecord
100
AcDbLayerTableRecord
  2
CENTER_L
 70
     0
 62
     1
  6
CENTER
  0
LAYER
  5
157
330
2
100
AcDbSymbolTableRecord
100
AcDbLayerTableRecord
  2
NOKITOI
 70
     0
 62
     8
  6
PHANTOM
  0
LAYER
  5
158
330
2
100
AcDbSymbolTableRecord
100
AcDbLayerTableRecord
  2
DEFPOINTS
 70
     0
 62
     7
  6
CONTINUOUS
  0
LAYER
  5
5D5
330
2
100
AcDbSymbolTableRecord
100
AcDbLayerTableRecord
  2
MOJI
 70
     0
 62
     2
  6
CONTINUOUS
  0
ENDTAB
  0
TABLE
  2
STYLE
  5
3
330
0
100
AcDbSymbolTable
 70
     2
  0
STYLE
  5
10
330
3
100
AcDbSymbolTableRecord
100
AcDbTextStyleTableRecord
  2
STANDARD
 70
     0
 40
0.0
 41
1.0
 50
0.0
 71
     0
 42
5.0
  3
TXT
  4
bigfont.shx
  0
STYLE
  5
5D6
330
3
100
AcDbSymbolTableRecord
100
AcDbTextStyleTableRecord
  2
ｽﾀｲﾙ1
 70
     0
 40
0.0
 41
1.0
 50
0.0
 71
     0
 42
2.5
  3
MS PGothic.ttf
  4

1001
ACAD
1000
MS PGothic
1071
    32818
  0
ENDTAB
  0
TABLE
  2
VIEW
  5
6
330
0
100
AcDbSymbolTable
 70
     0
  0
ENDTAB
  0
TABLE
  2
UCS
  5
7
330
0
100
AcDbSymbolTable
 70
     0
  0
ENDTAB
  0
TABLE
  2
APPID
  5
9
330
0
100
AcDbSymbolTable
 70
     1
  0
APPID
  5
11
330
9
100
AcDbSymbolTableRecord
100
AcDbRegAppTableRecord
  2
ACAD
 70
     0
  0
ENDTAB
  0
TABLE
  2
DIMSTYLE
  5
A
330
0
100
AcDbSymbolTable
 70
     1
  0
DIMSTYLE
105
1D
102
{ACAD_REACTORS
330
352
330
3B3
330
3C0
330
3CD
330
3DA
330
3E7
330
3F6
330
406
330
420
330
471
330
47E
330
48B
102
}
330
A
100
AcDbSymbolTableRecord
100
AcDbDimStyleTableRecord
  2
STANDARD
 70
     0
  3

  4

  5

  6

  7

 40
1.0
 41
0.18
 42
0.0625
 43
0.38
 44
0.18
 45
0.0
 46
0.0
 47
0.0
 48
0.0
140
0.18
141
0.09
142
0.0
143
25.4
144
1.0
145
0.0
146
1.0
147
0.09
 71
     0
 72
     0
 73
     1
 74
     1
 75
     0
 76
     0
 77
     0
 78
     0
170
     0
171
     2
172
     0
173
     0
174
     0
175
     0
176
     0
177
     0
178
     0
270
     2
271
     4
272
     4
273
     2
274
     2
340
10
275
     0
280
     0
281
     0
282
     0
283
     1
284
     0
285
     0
286
     0
287
     3
288
     0
  0
ENDTAB
  0
TABLE
  2
BLOCK_RECORD
  5
1
330
0
100
AcDbSymbolTable
 70
    13
  0
BLOCK_RECORD
  5
1A
102
{ACAD_XDICTIONARY
360
5C7
102
}
330
1
100
AcDbSymbolTableRecord
100
AcDbBlockTableRecord
  2
*MODEL_SPACE
  0
BLOCK_RECORD
  5
17
102
{ACAD_XDICTIONARY
360
5C5
102
}
330
1
100
AcDbSymbolTableRecord
100
AcDbBlockTableRecord
  2
*PAPER_SPACE
  0
BLOCK_RECORD
  5
6D
330
1
100
AcDbSymbolTableRecord
100
AcDbBlockTableRecord
  2
_OPEN
  0
BLOCK_RECORD
  5
38D
330
1
100
AcDbSymbolTableRecord
100
AcDbBlockTableRecord
  2
*D1
  0
BLOCK_RECORD
  5
3A7
330
1
100
AcDbSymbolTableRecord
100
AcDbBlockTableRecord
  2
*D2
  0
BLOCK_RECORD
  5
3B4
330
1
100
AcDbSymbolTableRecord
100
AcDbBlockTableRecord
  2
*D3
  0
BLOCK_RECORD
  5
3C1
330
1
100
AcDbSymbolTableRecord
100
AcDbBlockTableRecord
  2
*D4
  0
BLOCK_RECORD
  5
3CE
330
1
100
AcDbSymbolTableRecord
100
AcDbBlockTableRecord
  2
*D5
  0
BLOCK_RECORD
  5
3DB
330
1
100
AcDbSymbolTableRecord
100
AcDbBlockTableRecord
  2
*D6
  0
BLOCK_RECORD
  5
3E8
330
1
100
AcDbSymbolTableRecord
100
AcDbBlockTableRecord
  2
*D7
  0
BLOCK_RECORD
  5
3F8
330
1
100
AcDbSymbolTableRecord
100
AcDbBlockTableRecord
  2
*D8
  0
BLOCK_RECORD
  5
414
330
1
100
AcDbSymbolTableRecord
100
AcDbBlockTableRecord
  2
*D9
  0
BLOCK_RECORD
  5
465
330
1
100
AcDbSymbolTableRecord
100
AcDbBlockTableRecord
  2
*D10
  0
BLOCK_RECORD
  5
472
330
1
100
AcDbSymbolTableRecord
100
AcDbBlockTableRecord
  2
*D11
  0
BLOCK_RECORD
  5
47F
330
1
100
AcDbSymbolTableRecord
100
AcDbBlockTableRecord
  2
*D12
  0
ENDTAB
  0
ENDSEC
  0
SECTION
  2
BLOCKS
  0
BLOCK
  5
1B
330
1A
100
AcDbEntity
  8
0
100
AcDbBlockBegin
  2
*MODEL_SPACE
 70
     0
 10
0.0
 20
0.0
 30
0.0
  3
*MODEL_SPACE
  1

  0
ENDBLK
  5
1C
330
1A
100
AcDbEntity
  8
0
100
AcDbBlockEnd
  0
BLOCK
  5
18
330
17
100
AcDbEntity
 67
     1
  8
0
100
AcDbBlockBegin
  2
*PAPER_SPACE
 70
     0
 10
0.0
 20
0.0
 30
0.0
  3
*PAPER_SPACE
  1

  0
ENDBLK
  5
19
330
17
100
AcDbEntity
 67
     1
  8
0
100
AcDbBlockEnd
  0
BLOCK
  5
6E
330
6D
100
AcDbEntity
  8
0
100
AcDbBlockBegin
  2
_OPEN
 70
     0
 10
0.0
 20
0.0
 30
0.0
  3
_OPEN
  1

  0
LINE
  5
6F
330
6D
100
AcDbEntity
  8
0
  6
BYBLOCK
 62
     0
100
AcDbLine
 10
-1.0
 20
0.1666666666666666
 30
0.0
 11
0.0
 21
0.0
 31
0.0
  0
LINE
  5
70
330
6D
100
AcDbEntity
  8
0
  6
BYBLOCK
 62
     0
100
AcDbLine
 10
0.0
 20
0.0
 30
0.0
 11
-1.0
 21
-0.1666666666666666
 31
0.0
  0
LINE
  5
71
330
6D
100
AcDbEntity
  8
0
  6
BYBLOCK
 62
     0
100
AcDbLine
 10
0.0
 20
0.0
 30
0.0
 11
-1.0
 21
0.0
 31
0.0
  0
ENDBLK
  5
72
330
6D
100
AcDbEntity
  8
0
100
AcDbBlockEnd
  0
BLOCK
  5
589
330
38D
100
AcDbEntity
  8
0
100
AcDbBlockBegin
  2
*D1
 70
     1
 10
0.0
 20
0.0
 30
0.0
  3
*D1
  1

  0
LINE
  5
58A
330
38D
100
AcDbEntity
  8
0
  6
BYBLOCK
 62
     4
100
AcDbLine
 10
657.979474190523
 20
352.4303282245323
 30
0.0
 11
684.1966641425258
 21
352.4303282245323
 31
0.0
  0
LINE
  5
58B
330
38D
100
AcDbEntity
  8
0
  6
BYBLOCK
 62
     4
100
AcDbLine
 10
628.7398741905231
 20
288.7302282245324
 30
0.0
 11
684.1966641425258
 21
288.7302282245324
 31
0.0
  0
LINE
  5
58C
330
38D
100
AcDbEntity
  8
0
  6
BYBLOCK
 62
     4
100
AcDbLine
 10
681.1966641425258
 20
345.4303282245323
 30
0.0
 11
681.1966641425258
 21
295.7302282245324
 31
0.0
  0
INSERT
  5
58D
330
38D
100
AcDbEntity
  8
0
  6
BYBLOCK
 62
     4
100
AcDbBlockReference
  2
_OPEN
 10
681.1966641425258
 20
352.4303282245323
 30
0.0
 41
7.0
 42
7.0
 43
7.0
 50
90.0
  0
INSERT
  5
58E
330
38D
100
AcDbEntity
  8
0
  6
BYBLOCK
 62
     4
100
AcDbBlockReference
  2
_OPEN
 10
681.1966641425258
 20
288.7302282245324
 30
0.0
 41
7.0
 42
7.0
 43
7.0
 50
270.0
  0
MTEXT
  5
58F
330
38D
100
AcDbEntity
  8
0
  6
BYBLOCK
 62
     4
100
AcDbMText
 10
676.1966641425258
 20
320.5802782245324
 30
0.0
 40
6.0
 41
0.0
 71
     5
 72
     5
  1
\A1;64
 11
0.0
 21
1.0
 31
0.0
1001
ACAD
1000
MTEXTBEGIN
1070
    73
1070
     1
1070
    44
1040
1.0
1070
    74
1070
     0
1000
MTEXTEND
1000
MTEXTBEGIN
1070
    73
1070
     1
1070
    44
1040
1.0
1070
    74
1070
     0
1000
MTEXTEND
  0
POINT
  5
590
330
38D
100
AcDbEntity
  8
DEFPOINTS
  6
BYBLOCK
 62
     0
100
AcDbPoint
 10
651.9794741905229
 20
352.4303282245323
 30
0.0
  0
POINT
  5
591
330
38D
100
AcDbEntity
  8
DEFPOINTS
  6
BYBLOCK
 62
     0
100
AcDbPoint
 10
622.7398741905231
 20
288.7302282245324
 30
0.0
  0
POINT
  5
592
330
38D
100
AcDbEntity
  8
DEFPOINTS
  6
BYBLOCK
 62
     0
100
AcDbPoint
 10
681.1966641425258
 20
288.7302282245324
 30
0.0
  0
ENDBLK
  5
593
330
38D
100
AcDbEntity
  8
0
100
AcDbBlockEnd
  0
BLOCK
  5
3A8
330
3A7
100
AcDbEntity
  8
0
100
AcDbBlockBegin
  2
*D2
 70
     1
 10
0.0
 20
0.0
 30
0.0
  3
*D2
  1

  0
LINE
  5
3A9
330
3A7
100
AcDbEntity
  8
0
  6
BYBLOCK
 62
     4
100
AcDbLine
 10
623.8648764478798
 20
382.0270450875537
 30
0.0
 11
623.8648764478798
 21
433.258842279198
 31
0.0
  0
LINE
  5
3AA
330
3A7
100
AcDbEntity
  8
0
  6
BYBLOCK
 62
     4
100
AcDbLine
 10
557.4822764478802
 20
326.5269264923215
 30
0.0
 11
557.4822764478802
 21
433.258842279198
 31
0.0
  0
LINE
  5
3AB
330
3A7
100
AcDbEntity
  8
0
  6
BYBLOCK
 62
     4
100
AcDbLine
 10
616.8648764478798
 20
430.258842279198
 30
0.0
 11
564.4822764478801
 21
430.258842279198
 31
0.0
  0
INSERT
  5
3AC
330
3A7
100
AcDbEntity
  8
0
  6
BYBLOCK
 62
     4
100
AcDbBlockReference
  2
_OPEN
 10
623.8648764478798
 20
430.258842279198
 30
0.0
 41
7.0
 42
7.0
 43
7.0
  0
INSERT
  5
3AD
330
3A7
100
AcDbEntity
  8
0
  6
BYBLOCK
 62
     4
100
AcDbBlockReference
  2
_OPEN
 10
557.4822764478802
 20
430.258842279198
 30
0.0
 41
7.0
 42
7.0
 43
7.0
 50
180.0
  0
MTEXT
  5
3AE
330
3A7
100
AcDbEntity
  8
0
  6
BYBLOCK
 62
     4
100
AcDbMText
 10
590.67357644788
 20
435.2588422791979
 30
0.0
 40
6.0
 41
0.0
 71
     5
 72
     5
  1
\A1;66
1001
ACAD
1000
MTEXTBEGIN
1070
    73
1070
     1
1070
    44
1040
1.0
1070
    74
1070
     0
1000
MTEXTEND
1000
MTEXTBEGIN
1070
    73
1070
     1
1070
    44
1040
1.0
1070
    74
1070
     0
1000
MTEXTEND
  0
POINT
  5
3AF
330
3A7
100
AcDbEntity
  8
DEFPOINTS
  6
BYBLOCK
 62
     0
100
AcDbPoint
 10
623.8648764478798
 20
376.0270450875537
 30
0.0
  0
POINT
  5
3B0
330
3A7
100
AcDbEntity
  8
DEFPOINTS
  6
BYBLOCK
 62
     0
100
AcDbPoint
 10
557.4822764478802
 20
320.5269264923215
 30
0.0
  0
POINT
  5
3B1
330
3A7
100
AcDbEntity
  8
DEFPOINTS
  6
BYBLOCK
 62
     0
100
AcDbPoint
 10
557.4822764478802
 20
430.258842279198
 30
0.0
  0
ENDBLK
  5
3B2
330
3A7
100
AcDbEntity
  8
0
100
AcDbBlockEnd
  0
BLOCK
  5
52F
330
3B4
100
AcDbEntity
  8
0
100
AcDbBlockBegin
  2
*D3
 70
     1
 10
0.0
 20
0.0
 30
0.0
  3
*D3
  1

  0
LINE
  5
530
330
3B4
100
AcDbEntity
  8
0
  6
BYBLOCK
 62
     4
100
AcDbLine
 10
623.8648764478798
 20
382.0270450875537
 30
0.0
 11
623.8648764478798
 21
451.257133696439
 31
0.0
  0
LINE
  5
531
330
3B4
100
AcDbEntity
  8
0
  6
BYBLOCK
 62
     4
100
AcDbLine
 10
446.2821764478798
 20
411.0268450875538
 30
0.0
 11
446.2821764478798
 21
451.257133696439
 31
0.0
  0
LINE
  5
532
330
3B4
100
AcDbEntity
  8
0
  6
BYBLOCK
 62
     4
100
AcDbLine
 10
616.8648764478798
 20
448.257133696439
 30
0.0
 11
453.2821764478798
 21
448.257133696439
 31
0.0
  0
INSERT
  5
533
330
3B4
100
AcDbEntity
  8
0
  6
BYBLOCK
 62
     4
100
AcDbBlockReference
  2
_OPEN
 10
623.8648764478798
 20
448.257133696439
 30
0.0
 41
7.0
 42
7.0
 43
7.0
  0
INSERT
  5
534
330
3B4
100
AcDbEntity
  8
0
  6
BYBLOCK
 62
     4
100
AcDbBlockReference
  2
_OPEN
 10
446.2821764478798
 20
448.257133696439
 30
0.0
 41
7.0
 42
7.0
 43
7.0
 50
180.0
  0
MTEXT
  5
535
330
3B4
100
AcDbEntity
  8
0
  6
BYBLOCK
 62
     4
100
AcDbMText
 10
535.0735264478799
 20
453.257133696439
 30
0.0
 40
6.0
 41
0.0
 71
     5
 72
     5
  1
\A1;178
1001
ACAD
1000
MTEXTBEGIN
1070
    73
1070
     1
1070
    44
1040
1.0
1070
    74
1070
     0
1000
MTEXTEND
1000
MTEXTBEGIN
1070
    73
1070
     1
1070
    44
1040
1.0
1070
    74
1070
     0
1000
MTEXTEND
  0
POINT
  5
536
330
3B4
100
AcDbEntity
  8
DEFPOINTS
  6
BYBLOCK
 62
     0
100
AcDbPoint
 10
623.8648764478798
 20
376.0270450875537
 30
0.0
  0
POINT
  5
537
330
3B4
100
AcDbEntity
  8
DEFPOINTS
  6
BYBLOCK
 62
     0
100
AcDbPoint
 10
446.2821764478798
 20
405.0268450875537
 30
0.0
  0
POINT
  5
538
330
3B4
100
AcDbEntity
  8
DEFPOINTS
  6
BYBLOCK
 62
     0
100
AcDbPoint
 10
446.2821764478798
 20
448.257133696439
 30
0.0
  0
ENDBLK
  5
539
330
3B4
100
AcDbEntity
  8
0
100
AcDbBlockEnd
  0
BLOCK
  5
550
330
3C1
100
AcDbEntity
  8
0
100
AcDbBlockBegin
  2
*D4
 70
     1
 10
0.0
 20
0.0
 30
0.0
  3
*D4
  1

  0
LINE
  5
551
330
3C1
100
AcDbEntity
  8
0
  6
BYBLOCK
 62
     4
100
AcDbLine
 10
440.2821764478798
 20
405.0268450875537
 30
0.0
 11
413.8034346761109
 21
405.0268450875537
 31
0.0
  0
LINE
  5
552
330
3C1
100
AcDbEntity
  8
0
  6
BYBLOCK
 62
     4
100
AcDbLine
 10
543.1906764478799
 20
312.3269450875538
 30
0.0
 11
413.8034346761109
 21
312.3269450875538
 31
0.0
  0
LINE
  5
553
330
3C1
100
AcDbEntity
  8
0
  6
BYBLOCK
 62
     4
100
AcDbLine
 10
416.803434676111
 20
398.0268450875538
 30
0.0
 11
416.803434676111
 21
319.3269450875538
 31
0.0
  0
INSERT
  5
554
330
3C1
100
AcDbEntity
  8
0
  6
BYBLOCK
 62
     4
100
AcDbBlockReference
  2
_OPEN
 10
416.803434676111
 20
405.0268450875537
 30
0.0
 41
7.0
 42
7.0
 43
7.0
 50
90.0
  0
INSERT
  5
555
330
3C1
100
AcDbEntity
  8
0
  6
BYBLOCK
 62
     4
100
AcDbBlockReference
  2
_OPEN
 10
416.803434676111
 20
312.3269450875538
 30
0.0
 41
7.0
 42
7.0
 43
7.0
 50
270.0
  0
MTEXT
  5
556
330
3C1
100
AcDbEntity
  8
0
  6
BYBLOCK
 62
     4
100
AcDbMText
 10
411.803434676111
 20
358.6768950875538
 30
0.0
 40
6.0
 41
0.0
 71
     5
 72
     5
  1
\A1;93
 11
0.0
 21
1.0
 31
0.0
1001
ACAD
1000
MTEXTBEGIN
1070
    73
1070
     1
1070
    44
1040
1.0
1070
    74
1070
     0
1000
MTEXTEND
1000
MTEXTBEGIN
1070
    73
1070
     1
1070
    44
1040
1.0
1070
    74
1070
     0
1000
MTEXTEND
  0
POINT
  5
557
330
3C1
100
AcDbEntity
  8
DEFPOINTS
  6
BYBLOCK
 62
     0
100
AcDbPoint
 10
446.2821764478798
 20
405.0268450875537
 30
0.0
  0
POINT
  5
558
330
3C1
100
AcDbEntity
  8
DEFPOINTS
  6
BYBLOCK
 62
     0
100
AcDbPoint
 10
549.1906764478799
 20
312.3269450875538
 30
0.0
  0
POINT
  5
559
330
3C1
100
AcDbEntity
  8
DEFPOINTS
  6
BYBLOCK
 62
     0
100
AcDbPoint
 10
416.803434676111
 20
312.3269450875538
 30
0.0
  0
ENDBLK
  5
55A
330
3C1
100
AcDbEntity
  8
0
100
AcDbBlockEnd
  0
BLOCK
  5
545
330
3CE
100
AcDbEntity
  8
0
100
AcDbBlockBegin
  2
*D5
 70
     1
 10
0.0
 20
0.0
 30
0.0
  3
*D5
  1

  0
LINE
  5
546
330
3CE
100
AcDbEntity
  8
0
  6
BYBLOCK
 62
     4
100
AcDbLine
 10
440.2821764478798
 20
405.0268450875537
 30
0.0
 11
397.5176220060302
 21
405.0268450875537
 31
0.0
  0
LINE
  5
547
330
3CE
100
AcDbEntity
  8
0
  6
BYBLOCK
 62
     4
100
AcDbLine
 10
510.7296357340803
 20
235.571472155116
 30
0.0
 11
397.5176220060302
 21
235.571472155116
 31
0.0
  0
LINE
  5
548
330
3CE
100
AcDbEntity
  8
0
  6
BYBLOCK
 62
     4
100
AcDbLine
 10
400.5176220060302
 20
398.0268450875538
 30
0.0
 11
400.5176220060302
 21
242.571472155116
 31
0.0
  0
INSERT
  5
549
330
3CE
100
AcDbEntity
  8
0
  6
BYBLOCK
 62
     4
100
AcDbBlockReference
  2
_OPEN
 10
400.5176220060302
 20
405.0268450875537
 30
0.0
 41
7.0
 42
7.0
 43
7.0
 50
90.0
  0
INSERT
  5
54A
330
3CE
100
AcDbEntity
  8
0
  6
BYBLOCK
 62
     4
100
AcDbBlockReference
  2
_OPEN
 10
400.5176220060302
 20
235.571472155116
 30
0.0
 41
7.0
 42
7.0
 43
7.0
 50
270.0
  0
MTEXT
  5
54B
330
3CE
100
AcDbEntity
  8
0
  6
BYBLOCK
 62
     4
100
AcDbMText
 10
395.5176220060302
 20
320.2991586213349
 30
0.0
 40
6.0
 41
0.0
 71
     5
 72
     5
  1
\A1;169
 11
0.0
 21
1.0
 31
0.0
1001
ACAD
1000
MTEXTBEGIN
1070
    73
1070
     1
1070
    44
1040
1.0
1070
    74
1070
     0
1000
MTEXTEND
1000
MTEXTBEGIN
1070
    73
1070
     1
1070
    44
1040
1.0
1070
    74
1070
     0
1000
MTEXTEND
  0
POINT
  5
54C
330
3CE
100
AcDbEntity
  8
DEFPOINTS
  6
BYBLOCK
 62
     0
100
AcDbPoint
 10
446.2821764478798
 20
405.0268450875537
 30
0.0
  0
POINT
  5
54D
330
3CE
100
AcDbEntity
  8
DEFPOINTS
  6
BYBLOCK
 62
     0
100
AcDbPoint
 10
516.7296357340802
 20
235.571472155116
 30
0.0
  0
POINT
  5
54E
330
3CE
100
AcDbEntity
  8
DEFPOINTS
  6
BYBLOCK
 62
     0
100
AcDbPoint
 10
400.5176220060302
 20
235.571472155116
 30
0.0
  0
ENDBLK
  5
54F
330
3CE
100
AcDbEntity
  8
0
100
AcDbBlockEnd
  0
BLOCK
  5
53A
330
3DB
100
AcDbEntity
  8
0
100
AcDbBlockBegin
  2
*D6
 70
     1
 10
0.0
 20
0.0
 30
0.0
  3
*D6
  1

  0
LINE
  5
53B
330
3DB
100
AcDbEntity
  8
0
  6
BYBLOCK
 62
     4
100
AcDbLine
 10
440.2821764478798
 20
405.0268450875537
 30
0.0
 11
380.290665956295
 21
405.0268450875537
 31
0.0
  0
LINE
  5
53C
330
3DB
100
AcDbEntity
  8
0
  6
BYBLOCK
 62
     4
100
AcDbLine
 10
530.13227644788
 20
191.6269950875537
 30
0.0
 11
380.290665956295
 21
191.6269950875537
 31
0.0
  0
LINE
  5
53D
330
3DB
100
AcDbEntity
  8
0
  6
BYBLOCK
 62
     4
100
AcDbLine
 10
383.290665956295
 20
398.0268450875538
 30
0.0
 11
383.290665956295
 21
198.6269950875538
 31
0.0
  0
INSERT
  5
53E
330
3DB
100
AcDbEntity
  8
0
  6
BYBLOCK
 62
     4
100
AcDbBlockReference
  2
_OPEN
 10
383.290665956295
 20
405.0268450875537
 30
0.0
 41
7.0
 42
7.0
 43
7.0
 50
90.0
  0
INSERT
  5
53F
330
3DB
100
AcDbEntity
  8
0
  6
BYBLOCK
 62
     4
100
AcDbBlockReference
  2
_OPEN
 10
383.290665956295
 20
191.6269950875537
 30
0.0
 41
7.0
 42
7.0
 43
7.0
 50
270.0
  0
MTEXT
  5
540
330
3DB
100
AcDbEntity
  8
0
  6
BYBLOCK
 62
     4
100
AcDbMText
 10
378.290665956295
 20
298.3269200875538
 30
0.0
 40
6.0
 41
0.0
 71
     5
 72
     5
  1
\A1;213
 11
0.0
 21
1.0
 31
0.0
1001
ACAD
1000
MTEXTBEGIN
1070
    73
1070
     1
1070
    44
1040
1.0
1070
    74
1070
     0
1000
MTEXTEND
1000
MTEXTBEGIN
1070
    73
1070
     1
1070
    44
1040
1.0
1070
    74
1070
     0
1000
MTEXTEND
  0
POINT
  5
541
330
3DB
100
AcDbEntity
  8
DEFPOINTS
  6
BYBLOCK
 62
     0
100
AcDbPoint
 10
446.2821764478798
 20
405.0268450875537
 30
0.0
  0
POINT
  5
542
330
3DB
100
AcDbEntity
  8
DEFPOINTS
  6
BYBLOCK
 62
     0
100
AcDbPoint
 10
536.13227644788
 20
191.6269950875537
 30
0.0
  0
POINT
  5
543
330
3DB
100
AcDbEntity
  8
DEFPOINTS
  6
BYBLOCK
 62
     0
100
AcDbPoint
 10
383.290665956295
 20
191.6269950875537
 30
0.0
  0
ENDBLK
  5
544
330
3DB
100
AcDbEntity
  8
0
100
AcDbBlockEnd
  0
BLOCK
  5
3E9
330
3E8
100
AcDbEntity
  8
0
100
AcDbBlockBegin
  2
*D7
 70
     1
 10
0.0
 20
0.0
 30
0.0
  3
*D7
  1

  0
LINE
  5
3EA
330
3E8
100
AcDbEntity
  8
0
  6
BYBLOCK
 62
     4
100
AcDbLine
 10
557.48227644788
 20
299.3269265916386
 30
0.0
 11
557.48227644788
 21
272.753462760281
 31
0.0
  0
LINE
  5
3EB
330
3E8
100
AcDbEntity
  8
0
  6
BYBLOCK
 62
     4
100
AcDbLine
 10
565.3322764478799
 20
248.0271450898826
 30
0.0
 11
565.3322764478799
 21
278.7534627602811
 31
0.0
  0
LINE
  5
3EC
330
3E8
100
AcDbEntity
  8
0
  6
BYBLOCK
 62
     4
100
AcDbLine
 10
550.4822764478801
 20
275.753462760281
 30
0.0
 11
543.48227644788
 21
275.753462760281
 31
0.0
  0
LINE
  5
3ED
330
3E8
100
AcDbEntity
  8
0
  6
BYBLOCK
 62
     4
100
AcDbLine
 10
572.3322764478799
 20
275.753462760281
 30
0.0
 11
587.3322764478799
 21
275.753462760281
 31
0.0
  0
LINE
  5
3EE
330
3E8
100
AcDbEntity
  8
0
  6
BYBLOCK
 62
     4
100
AcDbLine
 10
557.48227644788
 20
275.753462760281
 30
0.0
 11
565.3322764478799
 21
275.753462760281
 31
0.0
  0
INSERT
  5
3EF
330
3E8
100
AcDbEntity
  8
0
  6
BYBLOCK
 62
     4
100
AcDbBlockReference
  2
_OPEN
 10
557.48227644788
 20
275.753462760281
 30
0.0
 41
7.0
 42
7.0
 43
7.0
  0
INSERT
  5
3F0
330
3E8
100
AcDbEntity
  8
0
  6
BYBLOCK
 62
     4
100
AcDbBlockReference
  2
_OPEN
 10
565.3322764478799
 20
275.753462760281
 30
0.0
 41
7.0
 42
7.0
 43
7.0
 50
180.0
  0
MTEXT
  5
3F1
330
3E8
100
AcDbEntity
  8
0
  6
BYBLOCK
 62
     4
100
AcDbMText
 10
583.33227644788
 20
280.7534627602811
 30
0.0
 40
6.0
 41
0.0
 71
     5
 72
     5
  1
\A1;8
1001
ACAD
1000
MTEXTBEGIN
1070
    73
1070
     1
1070
    44
1040
1.0
1070
    74
1070
     0
1000
MTEXTEND
1000
MTEXTBEGIN
1070
    73
1070
     1
1070
    44
1040
1.0
1070
    74
1070
     0
1000
MTEXTEND
  0
POINT
  5
3F2
330
3E8
100
AcDbEntity
  8
DEFPOINTS
  6
BYBLOCK
 62
     0
100
AcDbPoint
 10
557.48227644788
 20
305.3269265916386
 30
0.0
  0
POINT
  5
3F3
330
3E8
100
AcDbEntity
  8
DEFPOINTS
  6
BYBLOCK
 62
     0
100
AcDbPoint
 10
565.3322764478799
 20
242.0271450898826
 30
0.0
  0
POINT
  5
3F4
330
3E8
100
AcDbEntity
  8
DEFPOINTS
  6
BYBLOCK
 62
     0
100
AcDbPoint
 10
565.3322764478799
 20
275.753462760281
 30
0.0
  0
ENDBLK
  5
3F5
330
3E8
100
AcDbEntity
  8
0
100
AcDbBlockEnd
  0
BLOCK
  5
4EE
330
3F8
100
AcDbEntity
  8
0
100
AcDbBlockBegin
  2
*D8
 70
     1
 10
0.0
 20
0.0
 30
0.0
  3
*D8
  1

  0
LINE
  5
4EF
330
3F8
100
AcDbEntity
  8
0
  6
BYBLOCK
 62
     4
100
AcDbLine
 10
607.8257624213428
 20
207.6269578325219
 30
0.0
 11
652.3525504760778
 21
207.6269578325219
 31
0.0
  0
LINE
  5
4F0
330
3F8
100
AcDbEntity
  8
0
  6
BYBLOCK
 62
     4
100
AcDbLine
 10
606.3320764478801
 20
197.6269650875537
 30
0.0
 11
652.3525504760778
 21
197.6269650875537
 31
0.0
  0
LINE
  5
4F1
330
3F8
100
AcDbEntity
  8
0
  6
BYBLOCK
 62
     4
100
AcDbLine
 10
649.3525504760778
 20
214.6269578325219
 30
0.0
 11
649.3525504760778
 21
221.6269578325219
 31
0.0
  0
LINE
  5
4F2
330
3F8
100
AcDbEntity
  8
0
  6
BYBLOCK
 62
     4
100
AcDbLine
 10
649.3525504760778
 20
190.6269650875538
 30
0.0
 11
649.3525504760778
 21
159.4269650875538
 31
0.0
  0
LINE
  5
4F3
330
3F8
100
AcDbEntity
  8
0
  6
BYBLOCK
 62
     4
100
AcDbLine
 10
649.3525504760778
 20
207.6269578325219
 30
0.0
 11
649.3525504760778
 21
197.6269650875537
 31
0.0
  0
INSERT
  5
4F4
330
3F8
100
AcDbEntity
  8
0
  6
BYBLOCK
 62
     4
100
AcDbBlockReference
  2
_OPEN
 10
649.3525504760778
 20
207.6269578325219
 30
0.0
 41
7.0
 42
7.0
 43
7.0
 50
270.0
  0
INSERT
  5
4F5
330
3F8
100
AcDbEntity
  8
0
  6
BYBLOCK
 62
     4
100
AcDbBlockReference
  2
_OPEN
 10
649.3525504760778
 20
197.6269650875537
 30
0.0
 41
7.0
 42
7.0
 43
7.0
 50
90.0
  0
MTEXT
  5
4F6
330
3F8
100
AcDbEntity
  8
0
  6
BYBLOCK
 62
     4
100
AcDbMText
 10
644.3525504760778
 20
171.5269650875538
 30
0.0
 40
6.0
 41
0.0
 71
     5
 72
     5
  1
\A1;※b10
 11
0.0
 21
1.0
 31
0.0
1001
ACAD
1000
MTEXTBEGIN
1070
    73
1070
     1
1070
    44
1040
1.0
1070
    74
1070
     0
1000
MTEXTEND
1000
MTEXTBEGIN
1070
    73
1070
     1
1070
    44
1040
1.0
1070
    74
1070
     0
1000
MTEXTEND
  0
POINT
  5
4F7
330
3F8
100
AcDbEntity
  8
DEFPOINTS
  6
BYBLOCK
 62
     0
100
AcDbPoint
 10
601.8257624213427
 20
207.6269578325219
 30
0.0
  0
POINT
  5
4F8
330
3F8
100
AcDbEntity
  8
DEFPOINTS
  6
BYBLOCK
 62
     0
100
AcDbPoint
 10
600.3320764478801
 20
197.6269650875537
 30
0.0
  0
POINT
  5
4F9
330
3F8
100
AcDbEntity
  8
DEFPOINTS
  6
BYBLOCK
 62
     0
100
AcDbPoint
 10
649.3525504760778
 20
197.6269650875537
 30
0.0
  0
ENDBLK
  5
4FA
330
3F8
100
AcDbEntity
  8
0
100
AcDbBlockEnd
  0
BLOCK
  5
57E
330
414
100
AcDbEntity
  8
0
100
AcDbBlockBegin
  2
*D9
 70
     1
 10
0.0
 20
0.0
 30
0.0
  3
*D9
  1

  0
LINE
  5
57F
330
414
100
AcDbEntity
  8
0
  6
BYBLOCK
 62
     4
100
AcDbLine
 10
628.446574190523
 20
168.0300382245324
 30
0.0
 11
628.446574190523
 21
131.3405275495959
 31
0.0
  0
LINE
  5
580
330
414
100
AcDbEntity
  8
0
  6
BYBLOCK
 62
     4
100
AcDbLine
 10
558.4471741905231
 20
168.0302482245324
 30
0.0
 11
558.4471741905231
 21
131.3405275495959
 31
0.0
  0
LINE
  5
581
330
414
100
AcDbEntity
  8
0
  6
BYBLOCK
 62
     4
100
AcDbLine
 10
621.446574190523
 20
134.3405275495959
 30
0.0
 11
565.4471741905231
 21
134.3405275495959
 31
0.0
  0
INSERT
  5
582
330
414
100
AcDbEntity
  8
0
  6
BYBLOCK
 62
     4
100
AcDbBlockReference
  2
_OPEN
 10
628.446574190523
 20
134.3405275495959
 30
0.0
 41
7.0
 42
7.0
 43
7.0
  0
INSERT
  5
583
330
414
100
AcDbEntity
  8
0
  6
BYBLOCK
 62
     4
100
AcDbBlockReference
  2
_OPEN
 10
558.4471741905231
 20
134.3405275495959
 30
0.0
 41
7.0
 42
7.0
 43
7.0
 50
180.0
  0
MTEXT
  5
584
330
414
100
AcDbEntity
  8
0
  6
BYBLOCK
 62
     4
100
AcDbMText
 10
593.4468741905231
 20
139.3405275495959
 30
0.0
 40
6.0
 41
0.0
 71
     5
 72
     5
  1
\A1;φ70
1001
ACAD
1000
MTEXTBEGIN
1070
    73
1070
     1
1070
    44
1040
1.0
1070
    74
1070
     0
1000
MTEXTEND
1000
MTEXTBEGIN
1070
    73
1070
     1
1070
    44
1040
1.0
1070
    74
1070
     0
1000
MTEXTEND
  0
POINT
  5
585
330
414
100
AcDbEntity
  8
DEFPOINTS
  6
BYBLOCK
 62
     0
100
AcDbPoint
 10
628.446574190523
 20
174.0300382245323
 30
0.0
  0
POINT
  5
586
330
414
100
AcDbEntity
  8
DEFPOINTS
  6
BYBLOCK
 62
     0
100
AcDbPoint
 10
558.4471741905231
 20
174.0302482245324
 30
0.0
  0
POINT
  5
587
330
414
100
AcDbEntity
  8
DEFPOINTS
  6
BYBLOCK
 62
     0
100
AcDbPoint
 10
558.4471741905231
 20
134.3405275495959
 30
0.0
  0
ENDBLK
  5
588
330
414
100
AcDbEntity
  8
0
100
AcDbBlockEnd
  0
BLOCK
  5
519
330
465
100
AcDbEntity
  8
0
100
AcDbBlockBegin
  2
*D10
 70
     1
 10
0.0
 20
0.0
 30
0.0
  3
*D10
  1

  0
LINE
  5
51A
330
465
100
AcDbEntity
  8
0
  6
BYBLOCK
 62
     4
100
AcDbLine
 10
164.2417271279337
 20
410.7748450875535
 30
0.0
 11
164.2417271279337
 21
432.7118133869403
 31
0.0
  0
LINE
  5
51B
330
465
100
AcDbEntity
  8
0
  6
BYBLOCK
 62
     4
100
AcDbLine
 10
224.2417271279266
 20
410.7748156759299
 30
0.0
 11
224.2417271279266
 21
432.7118133869403
 31
0.0
  0
LINE
  5
51C
330
465
100
AcDbEntity
  8
0
  6
BYBLOCK
 62
     4
100
AcDbLine
 10
171.2417271279337
 20
429.7118133869402
 30
0.0
 11
217.2417271279266
 21
429.7118133869402
 31
0.0
  0
INSERT
  5
51D
330
465
100
AcDbEntity
  8
0
  6
BYBLOCK
 62
     4
100
AcDbBlockReference
  2
_OPEN
 10
164.2417271279337
 20
429.7118133869402
 30
0.0
 41
7.0
 42
7.0
 43
7.0
 50
180.0
  0
INSERT
  5
51E
330
465
100
AcDbEntity
  8
0
  6
BYBLOCK
 62
     4
100
AcDbBlockReference
  2
_OPEN
 10
224.2417271279266
 20
429.7118133869402
 30
0.0
 41
7.0
 42
7.0
 43
7.0
  0
MTEXT
  5
51F
330
465
100
AcDbEntity
  8
0
  6
BYBLOCK
 62
     4
100
AcDbMText
 10
194.2417271279302
 20
434.7118133869403
 30
0.0
 40
6.0
 41
0.0
 71
     5
 72
     5
  1
\A1;※a60
1001
ACAD
1000
MTEXTBEGIN
1070
    73
1070
     1
1070
    44
1040
1.0
1070
    74
1070
     0
1000
MTEXTEND
1000
MTEXTBEGIN
1070
    73
1070
     1
1070
    44
1040
1.0
1070
    74
1070
     0
1000
MTEXTEND
  0
POINT
  5
520
330
465
100
AcDbEntity
  8
DEFPOINTS
  6
BYBLOCK
 62
     0
100
AcDbPoint
 10
164.2417271279337
 20
404.7748450875536
 30
0.0
  0
POINT
  5
521
330
465
100
AcDbEntity
  8
DEFPOINTS
  6
BYBLOCK
 62
     0
100
AcDbPoint
 10
224.2417271279266
 20
404.77481567593
 30
0.0
  0
POINT
  5
522
330
465
100
AcDbEntity
  8
DEFPOINTS
  6
BYBLOCK
 62
     0
100
AcDbPoint
 10
224.2417271279266
 20
429.7118133869402
 30
0.0
  0
ENDBLK
  5
523
330
465
100
AcDbEntity
  8
0
100
AcDbBlockEnd
  0
BLOCK
  5
524
330
472
100
AcDbEntity
  8
0
100
AcDbBlockBegin
  2
*D11
 70
     1
 10
0.0
 20
0.0
 30
0.0
  3
*D11
  1

  0
LINE
  5
525
330
472
100
AcDbEntity
  8
0
  6
BYBLOCK
 62
     4
100
AcDbLine
 10
296.2417297572327
 20
410.7747450875538
 30
0.0
 11
296.2417297572327
 21
450.9272369262077
 31
0.0
  0
LINE
  5
526
330
472
100
AcDbEntity
  8
0
  6
BYBLOCK
 62
     4
100
AcDbLine
 10
92.24172975723273
 20
410.7748450875535
 30
0.0
 11
92.24172975723273
 21
450.9272369262077
 31
0.0
  0
LINE
  5
527
330
472
100
AcDbEntity
  8
0
  6
BYBLOCK
 62
     4
100
AcDbLine
 10
289.2417297572326
 20
447.9272369262077
 30
0.0
 11
99.24172975723273
 21
447.9272369262077
 31
0.0
  0
INSERT
  5
528
330
472
100
AcDbEntity
  8
0
  6
BYBLOCK
 62
     4
100
AcDbBlockReference
  2
_OPEN
 10
296.2417297572327
 20
447.9272369262077
 30
0.0
 41
7.0
 42
7.0
 43
7.0
  0
INSERT
  5
529
330
472
100
AcDbEntity
  8
0
  6
BYBLOCK
 62
     4
100
AcDbBlockReference
  2
_OPEN
 10
92.24172975723273
 20
447.9272369262077
 30
0.0
 41
7.0
 42
7.0
 43
7.0
 50
180.0
  0
MTEXT
  5
52A
330
472
100
AcDbEntity
  8
0
  6
BYBLOCK
 62
     4
100
AcDbMText
 10
194.2417297572327
 20
452.9272369262078
 30
0.0
 40
6.0
 41
0.0
 71
     5
 72
     5
  1
\A1;204
1001
ACAD
1000
MTEXTBEGIN
1070
    73
1070
     1
1070
    44
1040
1.0
1070
    74
1070
     0
1000
MTEXTEND
1000
MTEXTBEGIN
1070
    73
1070
     1
1070
    44
1040
1.0
1070
    74
1070
     0
1000
MTEXTEND
  0
POINT
  5
52B
330
472
100
AcDbEntity
  8
DEFPOINTS
  6
BYBLOCK
 62
     0
100
AcDbPoint
 10
296.2417297572327
 20
404.7747450875538
 30
0.0
  0
POINT
  5
52C
330
472
100
AcDbEntity
  8
DEFPOINTS
  6
BYBLOCK
 62
     0
100
AcDbPoint
 10
92.24172975723273
 20
404.7748450875536
 30
0.0
  0
POINT
  5
52D
330
472
100
AcDbEntity
  8
DEFPOINTS
  6
BYBLOCK
 62
     0
100
AcDbPoint
 10
92.24172975723273
 20
447.9272369262077
 30
0.0
  0
ENDBLK
  5
52E
330
472
100
AcDbEntity
  8
0
100
AcDbBlockEnd
  0
BLOCK
  5
573
330
47F
100
AcDbEntity
  8
0
100
AcDbBlockBegin
  2
*D12
 70
     1
 10
0.0
 20
0.0
 30
0.0
  3
*D12
  1

  0
LINE
  5
574
330
47F
100
AcDbEntity
  8
0
  6
BYBLOCK
 62
     4
100
AcDbLine
 10
269.3563289727977
 20
205.430423383085
 30
0.0
 11
269.3563289727977
 21
131.8264467744739
 31
0.0
  0
LINE
  5
575
330
47F
100
AcDbEntity
  8
0
  6
BYBLOCK
 62
     4
100
AcDbLine
 10
175.3563347497996
 20
205.4305282245323
 30
0.0
 11
175.3563347497996
 21
131.8264467744739
 31
0.0
  0
LINE
  5
576
330
47F
100
AcDbEntity
  8
0
  6
BYBLOCK
 62
     4
100
AcDbLine
 10
262.3563289727977
 20
134.8264467744739
 30
0.0
 11
182.3563347497996
 21
134.8264467744739
 31
0.0
  0
INSERT
  5
577
330
47F
100
AcDbEntity
  8
0
  6
BYBLOCK
 62
     4
100
AcDbBlockReference
  2
_OPEN
 10
269.3563289727977
 20
134.8264467744739
 30
0.0
 41
7.0
 42
7.0
 43
7.0
  0
INSERT
  5
578
330
47F
100
AcDbEntity
  8
0
  6
BYBLOCK
 62
     4
100
AcDbBlockReference
  2
_OPEN
 10
175.3563347497996
 20
134.8264467744739
 30
0.0
 41
7.0
 42
7.0
 43
7.0
 50
180.0
  0
MTEXT
  5
579
330
47F
100
AcDbEntity
  8
0
  6
BYBLOCK
 62
     4
100
AcDbMText
 10
222.3563318612987
 20
139.8264467744739
 30
0.0
 40
6.0
 41
0.0
 71
     5
 72
     5
  1
\A1;94
1001
ACAD
1000
MTEXTBEGIN
1070
    73
1070
     1
1070
    44
1040
1.0
1070
    74
1070
     0
1000
MTEXTEND
1000
MTEXTBEGIN
1070
    73
1070
     1
1070
    44
1040
1.0
1070
    74
1070
     0
1000
MTEXTEND
  0
POINT
  5
57A
330
47F
100
AcDbEntity
  8
DEFPOINTS
  6
BYBLOCK
 62
     0
100
AcDbPoint
 10
269.3563289727977
 20
211.430423383085
 30
0.0
  0
POINT
  5
57B
330
47F
100
AcDbEntity
  8
DEFPOINTS
  6
BYBLOCK
 62
     0
100
AcDbPoint
 10
175.3563347497996
 20
211.4305282245323
 30
0.0
  0
POINT
  5
57C
330
47F
100
AcDbEntity
  8
DEFPOINTS
  6
BYBLOCK
 62
     0
100
AcDbPoint
 10
175.3563347497996
 20
134.8264467744739
 30
0.0
  0
ENDBLK
  5
57D
330
47F
100
AcDbEntity
  8
0
100
AcDbBlockEnd
  0
ENDSEC
  0
SECTION
  2
ENTITIES
  0
LINE
  5
276
330
1A
100
AcDbEntity
  8
CENTER_L
  6
CENTER
 62
     1
 48
5.0
100
AcDbLine
 10
222.3562274998759
 20
159.0468282245324
 30
0.0
 11
222.3563274998758
 21
387.1763282245322
 31
0.0
  0
LINE
  5
277
330
1A
100
AcDbEntity
  8
SEIHIN
  6
CONTINUOUS
 62
     3
100
AcDbLine
 10
258.8044274998759
 20
300.9696282245324
 30
0.0
 11
254.0771274998759
 21
235.5756282245323
 31
0.0
  0
LINE
  5
278
330
1A
100
AcDbEntity
  8
SEIHIN
  6
CONTINUOUS
 62
     3
100
AcDbLine
 10
260.8993274998758
 20
302.2092282245323
 30
0.0
 11
256.2030274998759
 21
237.2445282245324
 31
0.0
  0
LINE
  5
279
330
1A
100
AcDbEntity
  8
SEIHIN
  6
CONTINUOUS
 62
     3
100
AcDbLine
 10
263.4852274998757
 20
254.7650282245324
 30
0.0
 11
267.2242274998759
 21
306.4873282245323
 31
0.0
  0
LINE
  5
27A
330
1A
100
AcDbEntity
  8
SEIHIN
  6
CONTINUOUS
 62
     3
100
AcDbLine
 10
297.3563274998758
 20
337.4302282245324
 30
0.0
 11
288.4642274998757
 21
250.9566282245324
 31
0.0
  0
LINE
  5
27B
330
1A
100
AcDbEntity
  8
SEIHIN
  6
CONTINUOUS
 62
     3
100
AcDbLine
 10
286.4896274998757
 20
319.2766282245323
 30
0.0
 11
279.4642274998758
 21
250.9566282245324
 31
0.0
  0
LINE
  5
27C
330
1A
100
AcDbEntity
  8
SEIHIN
  6
CONTINUOUS
 62
     3
100
AcDbLine
 10
183.8133274998759
 20
302.2093282245324
 30
0.0
 11
188.5096274998758
 21
237.2445282245324
 31
0.0
  0
LINE
  5
27D
330
1A
100
AcDbEntity
  8
SEIHIN
  6
CONTINUOUS
 62
     3
100
AcDbLine
 10
185.9081274998758
 20
300.9696282245324
 30
0.0
 11
190.6354274998759
 21
235.5757282245324
 31
0.0
  0
LINE
  5
27E
330
1A
100
AcDbEntity
  8
SEIHIN
  6
CONTINUOUS
 62
     3
100
AcDbLine
 10
181.2273274998759
 20
254.7651282245324
 30
0.0
 11
177.4884274998758
 21
306.4873282245323
 31
0.0
  0
LINE
  5
27F
330
1A
100
AcDbEntity
  8
SEIHIN
  6
CONTINUOUS
 62
     3
100
AcDbLine
 10
147.3564274998758
 20
337.4302282245324
 30
0.0
 11
156.2484274998759
 21
250.9566282245324
 31
0.0
  0
LINE
  5
280
330
1A
100
AcDbEntity
  8
SEIHIN
  6
CONTINUOUS
 62
     3
100
AcDbLine
 10
158.2231274998758
 20
319.2767282245323
 30
0.0
 11
165.2484274998759
 21
250.9566282245324
 31
0.0
  0
ARC
  5
281
330
1A
100
AcDbEntity
  8
SEIHIN
  6
CONTINUOUS
 62
     3
100
AcDbCircle
 10
186.5265314998376
 20
214.4305254186964
 30
0.0
 40
2.999997194166745
100
AcDbArc
 50
199.9032396797321
 51
269.9999236062856
  0
ARC
  5
282
330
1A
100
AcDbEntity
  8
SEIHIN
  6
CONTINUOUS
 62
     3
100
AcDbCircle
 10
285.3859363091215
 20
193.784659853847
 30
0.0
 40
100.0000614461107
100
AcDbArc
 50
183.2903729490355
 51
191.3932407290981
  0
ARC
  5
283
330
1A
100
AcDbEntity
  8
SEIHIN
  6
CONTINUOUS
 62
     3
100
AcDbCircle
 10
211.1492080337947
 20
256.9281689419909
 30
0.0
 40
29.99996133049999
100
AcDbArc
 50
184.1346965354087
 51
226.9682472636282
  0
LINE
  5
284
330
1A
100
AcDbEntity
  8
SEIHIN
  6
CONTINUOUS
 62
     3
100
AcDbLine
 10
168.3703274998757
 20
226.4304282245324
 30
0.0
 11
222.3563274998758
 21
226.4304282245324
 31
0.0
  0
LINE
  5
285
330
1A
100
AcDbEntity
  8
SEIHIN
  6
CONTINUOUS
 62
     3
100
AcDbLine
 10
166.3561274998759
 20
231.4304282245324
 30
0.0
 11
222.3563274998758
 21
231.4304282245324
 31
0.0
  0
LINE
  5
286
330
1A
100
AcDbEntity
  8
SEIHIN
  6
CONTINUOUS
 62
     3
100
AcDbLine
 10
177.5265274998758
 20
211.4305282245323
 30
0.0
 11
222.3562274998759
 21
211.4305282245323
 31
0.0
  0
ARC
  5
289
330
1A
100
AcDbEntity
  8
SEIHIN
  6
CONTINUOUS
 62
     3
100
AcDbCircle
 10
150.7961717509047
 20
201.4945565917292
 30
0.0
 40
35.0000091808058
100
AcDbArc
 50
19.90258406978672
 51
43.50892665719264
  0
ARC
  5
28A
330
1A
100
AcDbEntity
  8
SEIHIN
  6
CONTINUOUS
 62
     3
100
AcDbCircle
 10
141.7963649227826
 20
201.4944057671868
 30
0.0
 40
34.99997291824177
100
AcDbArc
 50
19.90286814897052
 51
43.50932344003255
  0
LINE
  5
28B
330
1A
100
AcDbEntity
  8
SEIHIN
  6
CONTINUOUS
 62
     3
100
AcDbLine
 10
185.5507274998758
 20
188.0450282245324
 30
0.0
 11
184.2062274998759
 21
211.4303282245324
 31
0.0
  0
ARC
  5
28C
330
1A
100
AcDbEntity
  8
SEIHIN
  6
CONTINUOUS
 62
     3
100
AcDbCircle
 10
177.5265314998376
 20
214.4305254186964
 30
0.0
 40
2.999997194166745
100
AcDbArc
 50
199.9032396797321
 51
269.9999236062856
  0
ARC
  5
28D
330
1A
100
AcDbEntity
  8
SEIHIN
  6
CONTINUOUS
 62
     3
100
AcDbCircle
 10
186.0910983551722
 20
254.0253845264235
 30
0.0
 40
30.00003781694192
100
AcDbArc
 50
185.8711548508347
 51
228.8658050713096
  0
ARC
  5
28E
330
1A
100
AcDbEntity
  8
SEIHIN
  6
CONTINUOUS
 62
     3
100
AcDbCircle
 10
195.0910983551722
 20
254.0253845264235
 30
0.0
 40
30.00003781694192
100
AcDbArc
 50
185.8711548508347
 51
228.8658050713096
  0
ARC
  5
28F
330
1A
100
AcDbEntity
  8
SEIHIN
  6
CONTINUOUS
 62
     3
100
AcDbCircle
 10
169.3563260665417
 20
227.6563318164012
 30
0.0
 40
2.999998566668002
100
AcDbArc
 50
180.0000685996745
 51
223.5089750479619
  0
LINE
  5
290
330
1A
100
AcDbEntity
  8
SEIHIN
  6
CONTINUOUS
 62
     3
100
AcDbLine
 10
166.3563274998758
 20
227.6563282245323
 30
0.0
 11
166.3563274998758
 21
231.4304282245324
 31
0.0
  0
ARC
  5
291
330
1A
100
AcDbEntity
  8
SEIHIN
  6
CONTINUOUS
 62
     3
100
AcDbCircle
 10
178.3563260665417
 20
227.6563318164012
 30
0.0
 40
2.999998566668058
100
AcDbArc
 50
180.0000685996756
 51
223.5089750479627
  0
LINE
  5
292
330
1A
100
AcDbEntity
  8
SEIHIN
  6
CONTINUOUS
 62
     3
100
AcDbLine
 10
175.3563274998758
 20
227.6563282245323
 30
0.0
 11
175.3563274998758
 21
231.4304282245324
 31
0.0
  0
ARC
  5
296
330
1A
100
AcDbEntity
  8
SEIHIN
  6
CONTINUOUS
 62
     3
100
AcDbCircle
 10
159.3266641311707
 20
193.7851125231017
 30
0.0
 40
100.0000478031763
100
AcDbArc
 50
348.6063762266584
 51
356.7093094226328
  0
LINE
  5
297
330
1A
100
AcDbEntity
  8
SEIHIN
  6
CONTINUOUS
 62
     3
100
AcDbLine
 10
222.3565274998758
 20
174.0305682245324
 30
0.0
 11
257.3560274998759
 21
174.0303382245324
 31
0.0
  0
LINE
  5
298
330
1A
100
AcDbEntity
  8
SEIHIN
  6
CONTINUOUS
 62
     3
100
AcDbLine
 10
193.1559274998759
 20
167.7304082245324
 30
0.0
 11
222.3559274998758
 21
167.7305782245324
 31
0.0
  0
LINE
  5
299
330
1A
100
AcDbEntity
  8
SEIHIN
  6
CONTINUOUS
 62
     3
100
AcDbLine
 10
222.3559274998758
 20
174.0305482245324
 30
0.0
 11
187.3564274998758
 21
174.0303882245324
 31
0.0
  0
LINE
  5
29A
330
1A
100
AcDbEntity
  8
SEIHIN
  6
CONTINUOUS
 62
     3
100
AcDbLine
 10
193.1561274998758
 20
167.7304082245324
 30
0.0
 11
193.1561274998758
 21
174.0305482245324
 31
0.0
  0
LINE
  5
29B
330
1A
100
AcDbEntity
  8
SEIHIN
  6
CONTINUOUS
 62
     3
100
AcDbLine
 10
251.5565274998758
 20
167.7303782245324
 30
0.0
 11
222.3565274998758
 21
167.7305982245323
 31
0.0
  0
LINE
  5
29C
330
1A
100
AcDbEntity
  8
SEIHIN
  6
CONTINUOUS
 62
     3
100
AcDbLine
 10
251.5563274998759
 20
167.7303782245324
 30
0.0
 11
251.5563274998759
 21
174.0305082245324
 31
0.0
  0
LINE
  5
29D
330
1A
100
AcDbEntity
  8
SEIHIN
  6
CONTINUOUS
 62
     3
100
AcDbLine
 10
254.0354274998758
 20
234.9988282245324
 30
0.0
 11
222.3563274998758
 21
234.9989282245324
 31
0.0
  0
LINE
  5
29E
330
1A
100
AcDbEntity
  8
SEIHIN
  6
CONTINUOUS
 62
     3
100
AcDbLine
 10
276.3423274998758
 20
226.4303282245324
 30
0.0
 11
222.3563274998758
 21
226.4304282245324
 31
0.0
  0
LINE
  5
29F
330
1A
100
AcDbEntity
  8
SEIHIN
  6
CONTINUOUS
 62
     3
100
AcDbLine
 10
278.3565274998759
 20
231.4303282245324
 30
0.0
 11
222.3563274998758
 21
231.4304282245324
 31
0.0
  0
LINE
  5
2A0
330
1A
100
AcDbEntity
  8
SEIHIN
  6
CONTINUOUS
 62
     3
100
AcDbLine
 10
267.1859274998758
 20
211.4304282245324
 30
0.0
 11
222.3563274998758
 21
211.4305282245323
 31
0.0
  0
LINE
  5
2A1
330
1A
100
AcDbEntity
  8
SEIHIN
  6
CONTINUOUS
 62
     3
100
AcDbLine
 10
190.6771274998759
 20
234.9989282245324
 30
0.0
 11
222.3563274998758
 21
234.9989282245324
 31
0.0
  0
ARC
  5
2A2
330
1A
100
AcDbEntity
  8
SEIHIN
  6
CONTINUOUS
 62
     3
100
AcDbCircle
 10
293.9163785216093
 20
201.4944489397159
 30
0.0
 40
35.00000734082735
100
AcDbArc
 50
136.4908274984994
 51
160.0974015174872
  0
ARC
  5
2A3
330
1A
100
AcDbEntity
  8
SEIHIN
  6
CONTINUOUS
 62
     3
100
AcDbCircle
 10
302.9163785216092
 20
201.4944489397158
 30
0.0
 40
35.00000734082739
100
AcDbArc
 50
136.4908274984992
 51
160.0974015174871
  0
LINE
  5
2A4
330
1A
100
AcDbEntity
  8
SEIHIN
  6
CONTINUOUS
 62
     3
100
AcDbLine
 10
259.1618274998757
 20
188.0449282245324
 30
0.0
 11
260.5063274998758
 21
211.4303282245324
 31
0.0
  0
ARC
  5
2A5
330
1A
100
AcDbEntity
  8
SEIHIN
  6
CONTINUOUS
 62
     3
100
AcDbCircle
 10
267.1859662558979
 20
214.430455411786
 30
0.0
 40
3.000027187503914
100
AcDbArc
 50
269.9992598212089
 51
340.0983896648339
  0
ARC
  5
2A6
330
1A
100
AcDbEntity
  8
SEIHIN
  6
CONTINUOUS
 62
     3
100
AcDbCircle
 10
258.1859992351561
 20
214.4304083978435
 30
0.0
 40
2.999980174168779
100
AcDbArc
 50
269.9986299480112
 51
340.0990195380308
  0
ARC
  5
2A7
330
1A
100
AcDbEntity
  8
SEIHIN
  6
CONTINUOUS
 62
     3
100
AcDbCircle
 10
258.6214570803605
 20
254.0253853677058
 30
0.0
 40
30.00004769884578
100
AcDbArc
 50
311.1339237649787
 51
354.1286534819281
  0
ARC
  5
2A8
330
1A
100
AcDbEntity
  8
SEIHIN
  6
CONTINUOUS
 62
     3
100
AcDbCircle
 10
233.5633123106829
 20
256.9280964534615
 30
0.0
 40
30.00000508959789
100
AcDbArc
 50
313.0317652616763
 51
355.8650653416501
  0
ARC
  5
2A9
330
1A
100
AcDbEntity
  8
SEIHIN
  6
CONTINUOUS
 62
     3
100
AcDbCircle
 10
249.621494685593
 20
254.025264834378
 30
0.0
 40
29.99999796114521
100
AcDbArc
 50
311.1341649487329
 51
354.1288751291227
  0
ARC
  5
2AA
330
1A
100
AcDbEntity
  8
SEIHIN
  6
CONTINUOUS
 62
     3
100
AcDbCircle
 10
266.3562289332099
 20
227.6563318164012
 30
0.0
 40
2.999998566668051
100
AcDbArc
 50
316.4910249520373
 51
359.9999314003243
  0
LINE
  5
2AB
330
1A
100
AcDbEntity
  8
SEIHIN
  6
CONTINUOUS
 62
     3
100
AcDbLine
 10
269.3563274998758
 20
227.6563282245323
 30
0.0
 11
269.3563274998758
 21
231.4303282245324
 31
0.0
  0
ARC
  5
2AC
330
1A
100
AcDbEntity
  8
SEIHIN
  6
CONTINUOUS
 62
     3
100
AcDbCircle
 10
275.35622893321
 20
227.6563318164012
 30
0.0
 40
2.999998566668054
100
AcDbArc
 50
316.4910249520388
 51
359.9999314003254
  0
LINE
  5
2AD
330
1A
100
AcDbEntity
  8
SEIHIN
  6
CONTINUOUS
 62
     3
100
AcDbLine
 10
278.3562274998759
 20
227.6563282245323
 30
0.0
 11
278.3562274998759
 21
231.4303282245324
 31
0.0
  0
LINE
  5
2AE
330
1A
100
AcDbEntity
  8
SEIHIN
  6
CONTINUOUS
 62
     3
100
AcDbLine
 10
122.8564274998758
 20
369.4304282245323
 30
0.0
 11
222.3562274998759
 21
369.4304282245323
 31
0.0
  0
LINE
  5
2AF
330
1A
100
AcDbEntity
  8
SEIHIN
  6
CONTINUOUS
 62
     3
100
AcDbLine
 10
145.3563274998758
 20
337.4302282245324
 30
0.0
 11
222.3562274998759
 21
337.4303282245323
 31
0.0
  0
LINE
  5
2B0
330
1A
100
AcDbEntity
  8
SEIHIN
  6
CONTINUOUS
 62
     3
100
AcDbLine
 10
145.3563274998758
 20
344.4303282245324
 30
0.0
 11
222.3562274998759
 21
344.4304282245323
 31
0.0
  0
LINE
  5
2B1
330
1A
100
AcDbEntity
  8
SEIHIN
  6
CONTINUOUS
 62
     3
100
AcDbLine
 10
124.8564274998758
 20
367.4304282245323
 30
0.0
 11
222.3562274998759
 21
367.4303282245324
 31
0.0
  0
LINE
  5
2B2
330
1A
100
AcDbEntity
  8
SEIHIN
  6
CONTINUOUS
 62
     3
100
AcDbLine
 10
120.3563274998758
 20
381.1781282245322
 30
0.0
 11
222.3561274998759
 21
381.1781282245322
 31
0.0
  0
ARC
  5
2B3
330
1A
100
AcDbEntity
  8
SEIHIN
  6
CONTINUOUS
 62
     3
100
AcDbCircle
 10
173.8894487040823
 20
326.6097470259144
 30
0.0
 40
25.9999884074137
100
AcDbArc
 50
293.160191306657
 51
329.965324842719
  0
ARC
  5
2B4
330
1A
100
AcDbEntity
  8
SEIHIN
  6
CONTINUOUS
 62
     3
100
AcDbCircle
 10
173.8894303700415
 20
326.6097305571828
 30
0.0
 40
20.00001416811993
100
AcDbArc
 50
281.5302175565223
 51
336.6729020488492
  0
ARC
  5
2B5
330
1A
100
AcDbEntity
  8
SEIHIN
  6
CONTINUOUS
 62
     3
100
AcDbCircle
 10
173.8894769017853
 20
326.6097724238297
 30
0.0
 40
28.00001529399143
100
AcDbArc
 50
296.0531768494107
 51
327.5837952625755
  0
ARC
  5
2B6
330
1A
100
AcDbEntity
  8
SEIHIN
  6
CONTINUOUS
 62
     3
100
AcDbCircle
 10
118.8564360887832
 20
353.6827173970194
 30
0.0
 40
14.99998166432555
100
AcDbArc
 50
10.42457186302109
 51
66.4218267507004
  0
ARC
  5
2B7
330
1A
100
AcDbEntity
  8
SEIHIN
  6
CONTINUOUS
 62
     3
100
AcDbCircle
 10
186.4068274553499
 20
301.0057281471106
 30
0.0
 40
0.5000048499764915
100
AcDbArc
 50
116.0525717522115
 51
184.1403086525373
  0
LINE
  5
2B8
330
1A
100
AcDbEntity
  8
SEIHIN
  6
CONTINUOUS
 62
     3
100
AcDbLine
 10
183.7874274998758
 20
302.5674282245324
 30
0.0
 11
177.4563274998758
 21
306.9303282245324
 31
0.0
  0
ARC
  5
2B9
330
1A
100
AcDbEntity
  8
SEIHIN
  6
CONTINUOUS
 62
     3
100
AcDbCircle
 10
177.9870805353499
 20
306.5233662653174
 30
0.0
 40
0.500053327934367
100
AcDbArc
 50
101.5302197303082
 51
184.1327976758834
  0
ARC
  5
2BA
330
1A
100
AcDbEntity
  8
SEIHIN
  6
CONTINUOUS
 62
     3
100
AcDbCircle
 10
184.3120320162485
 20
302.2454356389242
 30
0.0
 40
0.5000099399257544
100
AcDbArc
 50
113.1662989914276
 51
184.1411271601876
  0
ARC
  5
2BB
330
1A
100
AcDbEntity
  8
SEIHIN
  6
CONTINUOUS
 62
     3
100
AcDbCircle
 10
133.3542152024344
 20
316.7194487682478
 30
0.0
 40
25.00004954145825
100
AcDbArc
 50
5.871110371498314
 51
55.93815899523736
  0
ARC
  5
2BC
330
1A
100
AcDbEntity
  8
SEIHIN
  6
CONTINUOUS
 62
     3
100
AcDbCircle
 10
148.3582652686949
 20
359.1269897102415
 30
0.0
 40
15.00001832902513
100
AcDbArc
 50
190.4243544625606
 51
258.4555008054347
  0
LINE
  5
2BD
330
1A
100
AcDbEntity
  8
SEIHIN
  6
CONTINUOUS
 62
     3
100
AcDbLine
 10
145.3563274998758
 20
344.4303282245324
 30
0.0
 11
145.3563274998758
 21
337.4302282245324
 31
0.0
  0
ARC
  5
2BE
330
1A
100
AcDbEntity
  8
SEIHIN
  6
CONTINUOUS
 62
     3
100
AcDbCircle
 10
135.3563103709017
 20
377.7219850359518
 30
0.0
 40
14.99998287108808
100
AcDbArc
 50
179.9998350315859
 51
213.5573294895394
  0
LINE
  5
2BF
330
1A
100
AcDbEntity
  8
SEIHIN
  6
CONTINUOUS
 62
     3
100
AcDbLine
 10
120.3563274998758
 20
381.1781282245322
 30
0.0
 11
120.3563274998758
 21
377.7219282245324
 31
0.0
  0
LINE
  5
2C0
330
1A
100
AcDbEntity
  8
SEIHIN
  6
CONTINUOUS
 62
     3
100
AcDbLine
 10
124.8563274998758
 20
369.4304282245323
 30
0.0
 11
124.8563274998758
 21
367.4304282245323
 31
0.0
  0
ARC
  5
2C1
330
1A
100
AcDbEntity
  8
SEIHIN
  6
CONTINUOUS
 62
     3
100
AcDbCircle
 10
325.8563237820461
 20
353.6826235403328
 30
0.0
 40
14.99997798231786
100
AcDbArc
 50
113.5781996884425
 51
169.5439887902752
  0
LINE
  5
2C2
330
1A
100
AcDbEntity
  8
SEIHIN
  6
CONTINUOUS
 62
     3
100
AcDbLine
 10
319.8563274998758
 20
367.4303282245324
 30
0.0
 11
222.3565274998758
 21
367.4304282245323
 31
0.0
  0
LINE
  5
2C3
330
1A
100
AcDbEntity
  8
SEIHIN
  6
CONTINUOUS
 62
     3
100
AcDbLine
 10
321.8563274998758
 20
369.4303282245324
 30
0.0
 11
222.3565274998758
 21
369.4304282245323
 31
0.0
  0
LINE
  5
2C4
330
1A
100
AcDbEntity
  8
SEIHIN
  6
CONTINUOUS
 62
     3
100
AcDbLine
 10
324.3563274998758
 20
381.1780282245324
 30
0.0
 11
222.3565274998758
 21
381.1781282245322
 31
0.0
  0
ARC
  5
2C5
330
1A
100
AcDbEntity
  8
SEIHIN
  6
CONTINUOUS
 62
     3
100
AcDbCircle
 10
251.9988768626141
 20
318.4922692269691
 30
0.0
 40
0.5000070723641112
100
AcDbArc
 50
23.32288995937115
 51
78.66772518556984
  0
LINE
  5
2C6
330
1A
100
AcDbEntity
  8
SEIHIN
  6
CONTINUOUS
 62
     3
100
AcDbLine
 10
248.3144274998758
 20
313.5960282245324
 30
0.0
 11
252.3563274998758
 21
318.9303282245324
 31
0.0
  0
ARC
  5
2C7
330
1A
100
AcDbEntity
  8
SEIHIN
  6
CONTINUOUS
 62
     3
100
AcDbCircle
 10
222.3566852124038
 20
170.4302227685137
 30
0.0
 40
151.5000054564409
100
AcDbArc
 50
78.67894170957277
 51
90.00013528328311
  0
ARC
  5
2C8
330
1A
100
AcDbEntity
  8
SEIHIN
  6
CONTINUOUS
 62
     3
100
AcDbCircle
 10
270.823362162568
 20
326.6095972118992
 30
0.0
 40
27.99993872907295
100
AcDbArc
 50
212.41563711602
 51
243.9463273053023
  0
ARC
  5
2C9
330
1A
100
AcDbEntity
  8
SEIHIN
  6
CONTINUOUS
 62
     3
100
AcDbCircle
 10
270.8233388465247
 20
326.6096182521635
 30
0.0
 40
25.9999614760326
100
AcDbArc
 50
210.5373789364
 51
246.839225914104
  0
ARC
  5
2CA
330
1A
100
AcDbEntity
  8
SEIHIN
  6
CONTINUOUS
 62
     3
100
AcDbCircle
 10
270.8232486592661
 20
326.6096923012598
 30
0.0
 40
19.99998148738868
100
AcDbArc
 50
203.3267069930551
 51
258.4696930866168
  0
LINE
  5
2CB
330
1A
100
AcDbEntity
  8
SEIHIN
  6
CONTINUOUS
 62
     3
100
AcDbLine
 10
299.3563274998758
 20
337.4302282245324
 30
0.0
 11
222.3564274998758
 21
337.4303282245323
 31
0.0
  0
LINE
  5
2CC
330
1A
100
AcDbEntity
  8
SEIHIN
  6
CONTINUOUS
 62
     3
100
AcDbLine
 10
299.3563274998758
 20
344.4303282245324
 30
0.0
 11
222.3564274998758
 21
344.4304282245323
 31
0.0
  0
ARC
  5
2CD
330
1A
100
AcDbEntity
  8
SEIHIN
  6
CONTINUOUS
 62
     3
100
AcDbCircle
 10
222.3562007134303
 20
170.430269524384
 30
0.0
 40
145.4999587002036
100
AcDbArc
 50
79.81388172659428
 51
89.99995007333133
  0
ARC
  5
2CE
330
1A
100
AcDbEntity
  8
SEIHIN
  6
CONTINUOUS
 62
     3
100
AcDbCircle
 10
222.3566323740314
 20
170.4302320136048
 30
0.0
 40
143.4999962112513
100
AcDbArc
 50
80.17251400668579
 51
90.00012172824286
  0
LINE
  5
2CF
330
1A
100
AcDbEntity
  8
SEIHIN
  6
CONTINUOUS
 62
     3
100
AcDbLine
 10
196.3981274998759
 20
313.5960282245324
 30
0.0
 11
192.3563274998758
 21
318.9304282245324
 31
0.0
  0
ARC
  5
2D0
330
1A
100
AcDbEntity
  8
SEIHIN
  6
CONTINUOUS
 62
     3
100
AcDbCircle
 10
222.3561237174968
 20
170.4302193021669
 30
0.0
 40
143.5000089225101
100
AcDbArc
 50
89.99991863505552
 51
99.82748555656453
  0
ARC
  5
2D1
330
1A
100
AcDbEntity
  8
SEIHIN
  6
CONTINUOUS
 62
     3
100
AcDbCircle
 10
222.3565060751389
 20
170.4302532750672
 30
0.0
 40
145.4999749495746
100
AcDbArc
 50
90.00007032034815
 51
100.2770116256961
  0
ARC
  5
2D2
330
1A
100
AcDbEntity
  8
SEIHIN
  6
CONTINUOUS
 62
     3
100
AcDbCircle
 10
197.9484817804721
 20
311.3318977201836
 30
0.0
 40
0.4999701661409504
100
AcDbArc
 50
99.82961117845732
 51
147.5819338799854
  0
ARC
  5
2D3
330
1A
100
AcDbEntity
  8
SEIHIN
  6
CONTINUOUS
 62
     3
100
AcDbCircle
 10
246.7641732192796
 20
311.3318977201838
 30
0.0
 40
0.4999701661408812
100
AcDbArc
 50
32.41806612000355
 51
80.17038882153405
  0
ARC
  5
2D4
330
1A
100
AcDbEntity
  8
SEIHIN
  6
CONTINUOUS
 62
     3
100
AcDbCircle
 10
247.9988835780162
 20
313.1449587786677
 30
0.0
 40
0.4999546648120515
100
AcDbArc
 50
30.52970130832941
 51
79.81052854931289
  0
ARC
  5
2D5
330
1A
100
AcDbEntity
  8
SEIHIN
  6
CONTINUOUS
 62
     3
100
AcDbCircle
 10
222.3561698115732
 20
170.4302225066165
 30
0.0
 40
151.5000057179978
100
AcDbArc
 50
89.9999403638688
 51
101.3210582799672
  0
ARC
  5
2D6
330
1A
100
AcDbEntity
  8
SEIHIN
  6
CONTINUOUS
 62
     3
100
AcDbCircle
 10
192.7137617096505
 20
318.4922559196106
 30
0.0
 40
0.4999972560938874
100
AcDbArc
 50
101.3188935971973
 51
156.6749644351633
  0
ARC
  5
2D7
330
1A
100
AcDbEntity
  8
SEIHIN
  6
CONTINUOUS
 62
     3
100
AcDbCircle
 10
258.3058243330437
 20
301.0056337297615
 30
0.0
 40
0.5000012450136352
100
AcDbArc
 50
355.8705090845529
 51
63.9468166819006
  0
ARC
  5
2D8
330
1A
100
AcDbEntity
  8
SEIHIN
  6
CONTINUOUS
 62
     3
100
AcDbCircle
 10
266.7255288223486
 20
306.5233264797984
 30
0.0
 40
0.5000034549887659
100
AcDbArc
 50
355.8598713345182
 51
78.46327644993341
  0
ARC
  5
2D9
330
1A
100
AcDbEntity
  8
SEIHIN
  6
CONTINUOUS
 62
     3
100
AcDbCircle
 10
260.400640606225
 20
302.2453067126891
 30
0.0
 40
0.4999902751122582
100
AcDbArc
 50
355.862033120818
 51
66.84739703505044
  0
LINE
  5
2DA
330
1A
100
AcDbEntity
  8
SEIHIN
  6
CONTINUOUS
 62
     3
100
AcDbLine
 10
260.9252274998758
 20
302.5674282245324
 30
0.0
 11
267.2562274998758
 21
306.9302282245324
 31
0.0
  0
ARC
  5
2DB
330
1A
100
AcDbEntity
  8
SEIHIN
  6
CONTINUOUS
 62
     3
100
AcDbCircle
 10
311.3584661770667
 20
316.7193928371474
 30
0.0
 40
24.99997179955699
100
AcDbArc
 50
124.0617577950397
 51
174.1289728382243
  0
ARC
  5
2DC
330
1A
100
AcDbEntity
  8
SEIHIN
  6
CONTINUOUS
 62
     3
100
AcDbCircle
 10
296.3544976258256
 20
359.1268977777629
 30
0.0
 40
15.00000464085541
100
AcDbArc
 50
281.5440892374475
 51
349.5441440383996
  0
LINE
  5
2DD
330
1A
100
AcDbEntity
  8
SEIHIN
  6
CONTINUOUS
 62
     3
100
AcDbLine
 10
299.3563274998758
 20
344.4303282245324
 30
0.0
 11
299.3563274998758
 21
337.4302282245324
 31
0.0
  0
LINE
  5
2DE
330
1A
100
AcDbEntity
  8
CENTER_L
  6
CENTER
 62
     1
 48
5.0
100
AcDbLine
 10
222.3563274998758
 20
387.1763282245322
 30
0.0
 11
222.3563274998758
 21
390.4722282245324
 31
0.0
  0
ARC
  5
2DF
330
1A
100
AcDbEntity
  8
SEIHIN
  6
CONTINUOUS
 62
     3
100
AcDbCircle
 10
309.3564586571072
 20
377.7220315602946
 30
0.0
 40
14.99996884312457
100
AcDbArc
 50
326.4419633449451
 51
359.9996052856438
  0
LINE
  5
2E0
330
1A
100
AcDbEntity
  8
SEIHIN
  6
CONTINUOUS
 62
     3
100
AcDbLine
 10
319.8564274998758
 20
369.4303282245324
 30
0.0
 11
319.8564274998758
 21
367.4303282245324
 31
0.0
  0
LINE
  5
2E1
330
1A
100
AcDbEntity
  8
SEIHIN
  6
CONTINUOUS
 62
     3
100
AcDbLine
 10
324.3563274998758
 20
381.1780282245324
 30
0.0
 11
324.3563274998758
 21
377.7219282245324
 31
0.0
  0
LINE
  5
2E2
330
1A
100
AcDbEntity
  8
SEIHIN
  6
CONTINUOUS
 62
     3
100
AcDbLine
 10
520.169374190523
 20
316.4371282245324
 30
0.0
 11
528.393174190523
 21
254.1715282245324
 31
0.0
  0
LINE
  5
2E3
330
1A
100
AcDbEntity
  8
SEIHIN
  6
CONTINUOUS
 62
     3
100
AcDbLine
 10
510.5402741905231
 20
321.2009282245324
 30
0.0
 11
519.393174190523
 21
254.1715282245324
 31
0.0
  0
LINE
  5
2E4
330
1A
100
AcDbEntity
  8
SEIHIN
  6
CONTINUOUS
 62
     3
100
AcDbLine
 10
647.6486741905232
 20
322.9633282245324
 30
0.0
 11
641.5969741905228
 21
231.4302282245323
 31
0.0
  0
LINE
  5
2E9
330
1A
100
AcDbEntity
  8
SEIHIN
  6
CONTINUOUS
 62
     3
100
AcDbLine
 10
546.5668741905231
 20
211.4307282245324
 30
0.0
 11
593.446574190523
 21
211.4304282245324
 31
0.0
  0
LINE
  5
2EA
330
1A
100
AcDbEntity
  8
SEIHIN
  6
CONTINUOUS
 62
     3
100
AcDbLine
 10
564.2466741905232
 20
168.0302782245324
 30
0.0
 11
593.4466741905232
 21
168.0304482245324
 31
0.0
  0
LINE
  5
2EB
330
1A
100
AcDbEntity
  8
SEIHIN
  6
CONTINUOUS
 62
     3
100
AcDbLine
 10
593.4466741905232
 20
174.0304182245324
 30
0.0
 11
558.4471741905231
 21
174.0302482245324
 31
0.0
  0
LINE
  5
2EC
330
1A
100
AcDbEntity
  8
SEIHIN
  6
CONTINUOUS
 62
     3
100
AcDbLine
 10
535.396774190523
 20
231.4301282245324
 30
0.0
 11
641.5969741905228
 21
231.4302282245323
 31
0.0
  0
LINE
  5
2ED
330
1A
100
AcDbEntity
  8
SEIHIN
  6
CONTINUOUS
 62
     3
100
AcDbLine
 10
536.7611741905232
 20
226.4301282245323
 30
0.0
 11
641.3469741905228
 21
226.4302282245324
 31
0.0
  0
ARC
  5
2EE
330
1A
100
AcDbEntity
  8
SEIHIN
  6
CONTINUOUS
 62
     3
100
AcDbCircle
 10
656.4765917787099
 20
193.7844917187159
 30
0.0
 40
99.99996646474849
100
AcDbArc
 50
183.2903369746885
 51
191.3932352511894
  0
LINE
  5
2EF
330
1A
100
AcDbEntity
  8
SEIHIN
  6
CONTINUOUS
 62
     3
100
AcDbLine
 10
564.2468741905231
 20
168.0302782245324
 30
0.0
 11
564.2468741905231
 21
174.0304182245324
 31
0.0
  0
ARC
  5
2F0
330
1A
100
AcDbEntity
  8
SEIHIN
  6
CONTINUOUS
 62
     3
100
AcDbCircle
 10
519.8368602651608
 20
201.4940507659576
 30
0.0
 40
35.00004802604775
100
AcDbArc
 50
19.90344169487431
 51
43.50933086955659
  0
ARC
  5
2F1
330
1A
100
AcDbEntity
  8
SEIHIN
  6
CONTINUOUS
 62
     3
100
AcDbCircle
 10
510.8368602651608
 20
201.4940507659576
 30
0.0
 40
35.00004802604775
100
AcDbArc
 50
19.90344169487431
 51
43.50933086955659
  0
ARC
  5
2F2
330
1A
100
AcDbEntity
  8
SEIHIN
  6
CONTINUOUS
 62
     3
100
AcDbCircle
 10
546.567078191721
 20
214.4307254177297
 30
0.0
 40
2.99999719499989
100
AcDbArc
 50
199.9032396543331
 51
269.9980137215704
  0
LINE
  5
2F3
330
1A
100
AcDbEntity
  8
SEIHIN
  6
CONTINUOUS
 62
     3
100
AcDbLine
 10
556.641474190523
 20
188.0448282245323
 30
0.0
 11
555.296974190523
 21
211.4302282245323
 31
0.0
  0
ARC
  5
2F4
330
1A
100
AcDbEntity
  8
SEIHIN
  6
CONTINUOUS
 62
     3
100
AcDbCircle
 10
555.5670781917212
 20
214.4307254177297
 30
0.0
 40
2.999997195000016
100
AcDbArc
 50
199.9032396543334
 51
269.9980137215704
  0
ARC
  5
2F5
330
1A
100
AcDbEntity
  8
SEIHIN
  6
CONTINUOUS
 62
     3
100
AcDbCircle
 10
549.1349519777696
 20
258.099660127928
 30
0.0
 40
29.99996029748821
100
AcDbArc
 50
187.5237935152664
 51
242.1715029683423
  0
ARC
  5
2F6
330
1A
100
AcDbEntity
  8
SEIHIN
  6
CONTINUOUS
 62
     3
100
AcDbCircle
 10
558.1349834555545
 20
258.0997150587472
 30
0.0
 40
29.99999869683588
100
AcDbArc
 50
187.5238896504477
 51
242.7457196632367
  0
LINE
  5
2F7
330
1A
100
AcDbEntity
  8
SEIHIN
  6
CONTINUOUS
 62
     3
100
AcDbLine
 10
535.396774190523
 20
231.1270282245324
 30
0.0
 11
535.396774190523
 21
227.6560282245324
 31
0.0
  0
ARC
  5
2F8
330
1A
100
AcDbEntity
  8
SEIHIN
  6
CONTINUOUS
 62
     3
100
AcDbCircle
 10
538.3967364942161
 20
227.6561226865902
 30
0.0
 40
2.999962305180308
100
AcDbArc
 50
180.0018041150798
 51
223.5120254721448
  0
ARC
  5
2F9
330
1A
100
AcDbEntity
  8
SEIHIN
  6
CONTINUOUS
 62
     3
100
AcDbCircle
 10
534.8968102081175
 20
231.1269684807882
 30
0.0
 40
0.4999639859750333
100
AcDbArc
 50
0.0068466219618577
 51
62.17571151337821
  0
LINE
  5
2FA
330
1A
100
AcDbEntity
  8
SEIHIN
  6
CONTINUOUS
 62
     3
100
AcDbLine
 10
544.396774190523
 20
231.4301282245324
 30
0.0
 11
544.396774190523
 21
227.6560282245324
 31
0.0
  0
ARC
  5
2FB
330
1A
100
AcDbEntity
  8
SEIHIN
  6
CONTINUOUS
 62
     3
100
AcDbCircle
 10
547.3967364942161
 20
227.6561226865902
 30
0.0
 40
2.999962305180308
100
AcDbArc
 50
180.0018041150798
 51
223.5120254721448
  0
LINE
  5
2FC
330
1A
100
AcDbEntity
  8
CENTER_L
  6
CENTER
 62
     1
 48
5.0
100
AcDbLine
 10
593.4468741905232
 20
159.1605082245324
 30
0.0
 11
593.4468741905231
 21
218.4304282268613
 31
0.0
  0
ARC
  5
2FD
330
1A
100
AcDbEntity
  8
SEIHIN
  6
CONTINUOUS
 62
     3
100
AcDbCircle
 10
530.4173072339342
 20
193.7848846755706
 30
0.0
 40
99.99995569174144
100
AcDbArc
 50
348.6063584884347
 51
356.7092649795769
  0
LINE
  5
2FE
330
1A
100
AcDbEntity
  8
SEIHIN
  6
CONTINUOUS
 62
     3
100
AcDbLine
 10
622.6471741905229
 20
168.0302782245324
 30
0.0
 11
593.4471741905232
 21
168.0304482245324
 31
0.0
  0
LINE
  5
2FF
330
1A
100
AcDbEntity
  8
SEIHIN
  6
CONTINUOUS
 62
     3
100
AcDbLine
 10
593.4471741905232
 20
174.0304182245324
 30
0.0
 11
628.4466741905232
 21
174.0302482245324
 31
0.0
  0
LINE
  5
300
330
1A
100
AcDbEntity
  8
SEIHIN
  6
CONTINUOUS
 62
     3
100
AcDbLine
 10
622.6469741905232
 20
168.0302782245324
 30
0.0
 11
622.6469741905232
 21
174.0304182245324
 31
0.0
  0
LINE
  5
301
330
1A
100
AcDbEntity
  8
SEIHIN
  6
CONTINUOUS
 62
     3
100
AcDbLine
 10
641.5969741905228
 20
231.4302282245323
 30
0.0
 11
640.7394741905232
 21
214.2804282245324
 31
0.0
  0
LINE
  5
302
330
1A
100
AcDbEntity
  8
SEIHIN
  6
CONTINUOUS
 62
     3
100
AcDbLine
 10
637.7432741905231
 20
211.4302282245323
 30
0.0
 11
593.4473741905231
 21
211.4304282245324
 31
0.0
  0
LINE
  5
303
330
1A
100
AcDbEntity
  8
SEIHIN
  6
CONTINUOUS
 62
     3
100
AcDbLine
 10
630.2523741905229
 20
188.0448282245323
 30
0.0
 11
631.596874190523
 21
211.4302282245323
 31
0.0
  0
ARC
  5
304
330
1A
100
AcDbEntity
  8
SEIHIN
  6
CONTINUOUS
 62
     3
100
AcDbCircle
 10
637.7431990443151
 20
214.4302518660128
 30
0.0
 40
3.000023641583432
100
AcDbArc
 50
269.9995253312792
 51
357.1354987757296
  0
ARC
  5
305
330
1A
100
AcDbEntity
  8
SEIHIN
  6
CONTINUOUS
 62
     3
100
AcDbCircle
 10
643.2078946948085
 20
264.8637033898206
 30
0.0
 40
0.4999634143972232
100
AcDbArc
 50
335.1792351883117
 51
354.2863034214723
  0
LINE
  5
306
330
1A
100
AcDbEntity
  8
NOKITOI
  6
PHANTOM
 62
     8
 48
5.0
100
AcDbLine
 10
622.4777930886862
 20
288.7301274591444
 30
0.0
 11
577.6483930886861
 21
288.7302274591443
 31
0.0
  0
LINE
  5
307
330
1A
100
AcDbEntity
  8
NOKITOI
  6
PHANTOM
 62
     8
 48
5.0
100
AcDbLine
 10
577.6483930886861
 20
289.9302274591444
 30
0.0
 11
622.2279930886862
 21
289.9301274591444
 31
0.0
  0
LINE
  5
308
330
1A
100
AcDbEntity
  8
SEIHIN
  6
CONTINUOUS
 62
     3
100
AcDbLine
 10
577.305274190523
 20
288.7302282245324
 30
0.0
 11
622.7398741905231
 21
288.7302282245324
 31
0.0
  0
LINE
  5
309
330
1A
100
AcDbEntity
  8
SEIHIN
  6
CONTINUOUS
 62
     3
100
AcDbLine
 10
532.9142741905232
 20
378.3140282245322
 30
0.0
 11
541.9098741905231
 21
356.1978282245323
 31
0.0
  0
ARC
  5
30A
330
1A
100
AcDbEntity
  8
SEIHIN
  6
CONTINUOUS
 62
     3
100
AcDbCircle
 10
472.8967289899147
 20
353.6824864314248
 30
0.0
 40
15.00001467509729
100
AcDbArc
 50
10.45574106228989
 51
65.20606825574522
  0
LINE
  5
30B
330
1A
100
AcDbEntity
  8
SEIHIN
  6
CONTINUOUS
 62
     3
100
AcDbLine
 10
525.596774190523
 20
337.4301282245324
 30
0.0
 11
499.396774190523
 21
337.4301282245324
 31
0.0
  0
LINE
  5
30C
330
1A
100
AcDbEntity
  8
SEIHIN
  6
CONTINUOUS
 62
     3
100
AcDbLine
 10
527.654174190523
 20
344.4302282245324
 30
0.0
 11
499.396774190523
 21
344.4301282245324
 31
0.0
  0
ARC
  5
30D
330
1A
100
AcDbEntity
  8
SEIHIN
  6
CONTINUOUS
 62
     3
100
AcDbCircle
 10
495.3846486220643
 20
313.1637568169876
 30
0.0
 40
24.99995163746397
100
AcDbArc
 50
7.523632052087343
 51
76.08480398340664
  0
ARC
  5
30E
330
1A
100
AcDbEntity
  8
SEIHIN
  6
CONTINUOUS
 62
     3
100
AcDbCircle
 10
485.7554457292122
 20
317.9274787409572
 30
0.0
 40
24.9999647284237
100
AcDbArc
 50
7.523808580847106
 51
51.27038058832276
  0
ARC
  5
30F
330
1A
100
AcDbEntity
  8
SEIHIN
  6
CONTINUOUS
 62
     3
100
AcDbCircle
 10
502.3986604132808
 20
359.1266429968854
 30
0.0
 40
14.99998890616825
100
AcDbArc
 50
190.4921680549895
 51
255.5154301272037
  0
ARC
  5
310
330
1A
100
AcDbEntity
  8
SEIHIN
  6
CONTINUOUS
 62
     3
100
AcDbCircle
 10
498.3967838781168
 20
343.6352157165037
 30
0.0
 40
0.9999903124843381
100
AcDbArc
 50
0.0007166641974505
 51
75.51700015780824
  0
LINE
  5
311
330
1A
100
AcDbEntity
  8
SEIHIN
  6
CONTINUOUS
 62
     3
100
AcDbLine
 10
499.396774190523
 20
343.6352282245324
 30
0.0
 11
499.396774190523
 21
337.4301282245324
 31
0.0
  0
ARC
  5
312
330
1A
100
AcDbEntity
  8
NOKITOI
  6
PHANTOM
 62
     8
 48
5.0
100
AcDbCircle
 10
577.6483768622288
 20
331.7302419355144
 30
0.0
 40
43.00001447645168
100
AcDbArc
 50
186.524910707118
 51
269.999888375144
  0
ARC
  5
313
330
1A
100
AcDbEntity
  8
NOKITOI
  6
PHANTOM
 62
     8
 48
5.0
100
AcDbCircle
 10
577.648399170654
 20
331.7302218344881
 30
0.0
 40
41.79999437547816
100
AcDbArc
 50
184.474295212525
 51
269.9998545921086
  0
ARC
  5
314
330
1A
100
AcDbEntity
  8
SEIHIN
  6
CONTINUOUS
 62
     3
100
AcDbCircle
 10
577.3052944121859
 20
331.7302105956409
 30
0.0
 40
42.99998237127651
100
AcDbArc
 50
187.8374103751387
 51
269.9998398093788
  0
LINE
  5
315
330
1A
100
AcDbEntity
  8
NOKITOI
  6
PHANTOM
 62
     8
 48
5.0
100
AcDbLine
 10
531.1163930886859
 20
334.8010274591445
 30
0.0
 11
531.4500930886861
 21
337.1372274591445
 31
0.0
  0
LINE
  5
316
330
1A
100
AcDbEntity
  8
NOKITOI
  6
PHANTOM
 62
     8
 48
5.0
100
AcDbLine
 10
533.1962930886861
 20
335.4302274591444
 30
0.0
 11
533.3774930886861
 21
338.8717274591445
 31
0.0
  0
LINE
  5
317
330
1A
100
AcDbEntity
  8
NOKITOI
  6
PHANTOM
 62
     8
 48
5.0
100
AcDbLine
 10
532.4183930886865
 20
335.4302274591444
 30
0.0
 11
532.8224930886863
 21
338.2586274591442
 31
0.0
  0
LINE
  5
318
330
1A
100
AcDbEntity
  8
NOKITOI
  6
PHANTOM
 62
     8
 48
5.0
100
AcDbLine
 10
534.3597930886862
 20
334.7040274591443
 30
0.0
 11
534.6755930886861
 21
340.7039274591443
 31
0.0
  0
LINE
  5
319
330
1A
100
AcDbEntity
  8
NOKITOI
  6
PHANTOM
 62
     8
 48
5.0
100
AcDbLine
 10
525.8992930886861
 20
341.6677274591443
 30
0.0
 11
526.2894930886859
 21
329.1834274591443
 31
0.0
  0
LINE
  5
31A
330
1A
100
AcDbEntity
  8
SEIHIN
  6
CONTINUOUS
 62
     3
100
AcDbLine
 10
526.0556741905229
 20
328.1878282245323
 30
0.0
 11
525.654974190523
 21
342.3737282245324
 31
0.0
  0
LINE
  5
31B
330
1A
100
AcDbEntity
  8
NOKITOI
  6
PHANTOM
 62
     8
 48
5.0
100
AcDbLine
 10
527.0986930886865
 20
341.7052274591442
 30
0.0
 11
527.2480930886858
 21
336.9263274591444
 31
0.0
  0
ARC
  5
31C
330
1A
100
AcDbEntity
  8
NOKITOI
  6
PHANTOM
 62
     8
 48
5.0
100
AcDbCircle
 10
531.3499309701328
 20
333.7302712416697
 30
0.0
 40
3.999989731271038
100
AcDbArc
 50
96.47731142013144
 51
181.7899836067308
  0
ARC
  5
31D
330
1A
100
AcDbEntity
  8
NOKITOI
  6
PHANTOM
 62
     8
 48
5.0
100
AcDbCircle
 10
531.3500133013554
 20
333.7302861875244
 30
0.0
 40
5.2000412730095
100
AcDbArc
 50
90.00132454306161
 51
142.0757990790561
  0
LINE
  5
31E
330
1A
100
AcDbEntity
  8
NOKITOI
  6
PHANTOM
 62
     8
 48
5.0
100
AcDbLine
 10
535.4772930886865
 20
328.9302274591444
 30
0.0
 11
529.4363930886861
 21
328.9302274591444
 31
0.0
  0
ARC
  5
31F
330
1A
100
AcDbEntity
  8
NOKITOI
  6
PHANTOM
 62
     8
 48
5.0
100
AcDbCircle
 10
531.6113196892838
 20
334.7301967822623
 30
0.0
 40
0.4999693238254178
100
AcDbArc
 50
171.8555038770532
 51
269.9969516090348
  0
LINE
  5
320
330
1A
100
AcDbEntity
  8
NOKITOI
  6
PHANTOM
 62
     8
 48
5.0
100
AcDbLine
 10
527.7886930886861
 20
327.7302274591443
 30
0.0
 11
533.9333930886859
 21
327.7302274591443
 31
0.0
  0
LINE
  5
321
330
1A
100
AcDbEntity
  8
SEIHIN
  6
CONTINUOUS
 62
     3
100
AcDbLine
 10
527.5550741905231
 20
326.7302282245324
 30
0.0
 11
533.716274190523
 21
326.7302282245324
 31
0.0
  0
LINE
  5
322
330
1A
100
AcDbEntity
  8
NOKITOI
  6
PHANTOM
 62
     8
 48
5.0
100
AcDbLine
 10
527.4373930886858
 20
330.8678274591443
 30
0.0
 11
527.3518930886861
 21
333.6053274591443
 31
0.0
  0
ARC
  5
323
330
1A
100
AcDbEntity
  8
NOKITOI
  6
PHANTOM
 62
     8
 48
5.0
100
AcDbCircle
 10
527.788729047837
 20
329.2301926050011
 30
0.0
 40
1.499965146287778
100
AcDbArc
 50
181.7866280217767
 51
269.9986264296976
  0
ARC
  5
324
330
1A
100
AcDbEntity
  8
SEIHIN
  6
CONTINUOUS
 62
     3
100
AcDbCircle
 10
527.5550759648758
 20
328.2302264995306
 30
0.0
 40
1.499998274999174
100
AcDbArc
 50
181.6158911515873
 51
269.9999322246387
  0
ARC
  5
325
330
1A
100
AcDbEntity
  8
NOKITOI
  6
PHANTOM
 62
     8
 48
5.0
100
AcDbCircle
 10
529.4364066608245
 20
330.930214304058
 30
0.0
 40
1.999986844959662
100
AcDbArc
 50
181.7875531852363
 51
269.9996111843223
  0
ARC
  5
326
330
1A
100
AcDbEntity
  8
NOKITOI
  6
PHANTOM
 62
     8
 48
5.0
100
AcDbCircle
 10
533.9333846645236
 20
326.7302349742008
 30
0.0
 40
0.9999924849789756
100
AcDbArc
 50
6.528264606674428
 51
89.99951732740891
  0
ARC
  5
327
330
1A
100
AcDbEntity
  8
NOKITOI
  6
PHANTOM
 62
     8
 48
5.0
100
AcDbCircle
 10
535.4773056583944
 20
328.4302158344146
 30
0.0
 40
0.5000116248877111
100
AcDbArc
 50
4.474846808342897
 51
90.00144034898337
  0
ARC
  5
328
330
1A
100
AcDbEntity
  8
SEIHIN
  6
CONTINUOUS
 62
     3
100
AcDbCircle
 10
533.7163004158147
 20
325.730205362555
 30
0.0
 40
1.000022862321298
100
AcDbArc
 50
7.840724767182681
 51
90.00150256417033
  0
ARC
  5
329
330
1A
100
AcDbEntity
  8
NOKITOI
  6
PHANTOM
 62
     8
 48
5.0
100
AcDbCircle
 10
533.8603862016912
 20
334.7302209240588
 30
0.0
 40
0.499993464961963
100
AcDbArc
 50
270.0007892017873
 51
356.9970361317427
  0
LINE
  5
32A
330
1A
100
AcDbEntity
  8
NOKITOI
  6
PHANTOM
 62
     8
 48
5.0
100
AcDbLine
 10
533.860393088686
 20
334.2302274591443
 30
0.0
 11
531.6112930886861
 21
334.2302274591443
 31
0.0
  0
LINE
  5
32B
330
1A
100
AcDbEntity
  8
NOKITOI
  6
PHANTOM
 62
     8
 48
5.0
100
AcDbLine
 10
533.1962930886861
 20
335.4302274591444
 30
0.0
 11
532.4183930886865
 21
335.4302274591444
 31
0.0
  0
LINE
  5
32C
330
1A
100
AcDbEntity
  8
NOKITOI
  6
PHANTOM
 62
     8
 48
5.0
100
AcDbLine
 10
529.8710930886864
 20
340.0302274591445
 30
0.0
 11
532.8075930886861
 21
340.0302274591445
 31
0.0
  0
ARC
  5
32D
330
1A
100
AcDbEntity
  8
NOKITOI
  6
PHANTOM
 62
     8
 48
5.0
100
AcDbCircle
 10
530.9551073071015
 20
337.2079128248433
 30
0.0
 40
0.5000073448410256
100
AcDbArc
 50
351.8729478641243
 51
96.47829282996843
  0
LINE
  5
32E
330
1A
100
AcDbEntity
  8
NOKITOI
  6
PHANTOM
 62
     8
 48
5.0
100
AcDbLine
 10
527.8982930886859
 20
343.7302274591443
 30
0.0
 11
531.2248930886863
 21
343.7302274591443
 31
0.0
  0
LINE
  5
32F
330
1A
100
AcDbEntity
  8
SEIHIN
  6
CONTINUOUS
 62
     3
100
AcDbLine
 10
527.654174190523
 20
344.4302282245324
 30
0.0
 11
538.646774190523
 21
344.4302282245324
 31
0.0
  0
LINE
  5
330
330
1A
100
AcDbEntity
  8
NOKITOI
  6
PHANTOM
 62
     8
 48
5.0
100
AcDbLine
 10
530.3710930886864
 20
342.5302274591445
 30
0.0
 11
529.8710930886864
 21
340.0302274591445
 31
0.0
  0
ARC
  5
331
330
1A
100
AcDbEntity
  8
NOKITOI
  6
PHANTOM
 62
     8
 48
5.0
100
AcDbCircle
 10
527.898305839536
 20
341.7302406142308
 30
0.0
 40
1.999986844954076
100
AcDbArc
 50
90.00036528735526
 51
181.7883072882699
  0
ARC
  5
332
330
1A
100
AcDbEntity
  8
SEIHIN
  6
CONTINUOUS
 62
     3
100
AcDbCircle
 10
527.6541750545109
 20
342.4302291132828
 30
0.0
 40
1.999999111249751
100
AcDbArc
 50
90.00002475144132
 51
181.6188473305815
  0
ARC
  5
333
330
1A
100
AcDbEntity
  8
NOKITOI
  6
PHANTOM
 62
     8
 48
5.0
100
AcDbCircle
 10
527.8982975834842
 20
341.7302320966712
 30
0.0
 40
0.7999953624857498
100
AcDbArc
 50
90.00032191805336
 51
181.7911273464199
  0
LINE
  5
334
330
1A
100
AcDbEntity
  8
NOKITOI
  6
PHANTOM
 62
     8
 48
5.0
100
AcDbLine
 10
527.8982930886859
 20
342.5302274591445
 30
0.0
 11
530.3710930886864
 21
342.5302274591445
 31
0.0
  0
ARC
  5
335
330
1A
100
AcDbEntity
  8
SEIHIN
  6
CONTINUOUS
 62
     3
100
AcDbCircle
 10
532.6467840287091
 20
352.430142847011
 30
0.0
 40
10.00001462248349
100
AcDbArc
 50
269.9999436314283
 51
22.13362744087919
  0
ARC
  5
336
330
1A
100
AcDbEntity
  8
NOKITOI
  6
PHANTOM
 62
     8
 48
5.0
100
AcDbCircle
 10
531.2248923056777
 20
343.230228414146
 30
0.0
 40
0.4999990449987349
100
AcDbArc
 50
348.6967198015448
 51
89.99991027369452
  0
LINE
  5
337
330
1A
100
AcDbEntity
  8
SEIHIN
  6
CONTINUOUS
 62
     3
100
AcDbLine
 10
532.646774190523
 20
344.4302282245324
 30
0.0
 11
532.646774190523
 21
342.4302282245324
 31
0.0
  0
ARC
  5
338
330
1A
100
AcDbEntity
  8
NOKITOI
  6
PHANTOM
 62
     8
 48
5.0
100
AcDbCircle
 10
534.1761868875282
 20
340.7302339942296
 30
0.0
 40
0.4999934649531607
100
AcDbArc
 50
356.9955363203384
 51
89.99928939038005
  0
ARC
  5
339
330
1A
100
AcDbEntity
  8
NOKITOI
  6
PHANTOM
 62
     8
 48
5.0
100
AcDbCircle
 10
531.9446858341307
 20
341.7302363089878
 30
0.0
 40
0.5000088498959383
100
AcDbArc
 50
168.6864043304884
 51
270.0008312961434
  0
LINE
  5
33A
330
1A
100
AcDbEntity
  8
NOKITOI
  6
PHANTOM
 62
     8
 48
5.0
100
AcDbLine
 10
534.176193088686
 20
341.2302274591443
 30
0.0
 11
531.9446930886861
 21
341.2302274591443
 31
0.0
  0
LINE
  5
33B
330
1A
100
AcDbEntity
  8
NOKITOI
  6
PHANTOM
 62
     8
 48
5.0
100
AcDbLine
 10
531.8117930886865
 20
338.9302274591444
 30
0.0
 11
531.3498930886862
 21
338.9302274591444
 31
0.0
  0
LINE
  5
33C
330
1A
100
AcDbEntity
  8
NOKITOI
  6
PHANTOM
 62
     8
 48
5.0
100
AcDbLine
 10
532.8224930886863
 20
338.2586274591442
 30
0.0
 11
533.3774930886861
 21
338.8717274591445
 31
0.0
  0
LINE
  5
33D
330
1A
100
AcDbEntity
  8
NOKITOI
  6
PHANTOM
 62
     8
 48
5.0
100
AcDbLine
 10
531.8117930886865
 20
338.9302274591444
 30
0.0
 11
532.8075930886861
 21
340.0302274591445
 31
0.0
  0
LINE
  5
33E
330
1A
100
AcDbEntity
  8
NOKITOI
  6
PHANTOM
 62
     8
 48
5.0
100
AcDbLine
 10
531.4543930886862
 20
341.8283274591443
 30
0.0
 11
531.7151930886861
 21
343.1322274591444
 31
0.0
  0
LINE
  5
33F
330
1A
100
AcDbEntity
  8
SEIHIN
  6
CONTINUOUS
 62
     3
100
AcDbLine
 10
474.396774190523
 20
381.4301282245324
 30
0.0
 11
528.282674190523
 21
381.4301282245324
 31
0.0
  0
LINE
  5
340
330
1A
100
AcDbEntity
  8
SEIHIN
  6
CONTINUOUS
 62
     3
100
AcDbLine
 10
536.5276741905232
 20
369.4301282245323
 30
0.0
 11
477.1680741905232
 21
369.4301282245323
 31
0.0
  0
LINE
  5
341
330
1A
100
AcDbEntity
  8
SEIHIN
  6
CONTINUOUS
 62
     3
100
AcDbLine
 10
537.3411741905231
 20
367.4301282245324
 30
0.0
 11
479.494874190523
 21
367.4301282245324
 31
0.0
  0
ARC
  5
342
330
1A
100
AcDbEntity
  8
SEIHIN
  6
CONTINUOUS
 62
     3
100
AcDbCircle
 10
489.3967649272291
 20
377.7217600025015
 30
0.0
 40
14.99999073686133
100
AcDbArc
 50
179.9997394108768
 51
212.5033634344738
  0
LINE
  5
343
330
1A
100
AcDbEntity
  8
SEIHIN
  6
CONTINUOUS
 62
     3
100
AcDbLine
 10
478.896774190523
 20
367.7537282245324
 30
0.0
 11
478.896774190523
 21
368.9301282245324
 31
0.0
  0
ARC
  5
344
330
1A
100
AcDbEntity
  8
SEIHIN
  6
CONTINUOUS
 62
     3
100
AcDbCircle
 10
477.1680952872339
 20
369.9301166492645
 30
0.0
 40
0.4999884251772415
100
AcDbArc
 50
212.4925055120689
 51
269.9975824390613
  0
ARC
  5
345
330
1A
100
AcDbEntity
  8
SEIHIN
  6
CONTINUOUS
 62
     3
100
AcDbCircle
 10
478.3967741905231
 20
368.9301282245324
 30
0.0
 40
0.4999999999998864
100
AcDbArc
 50
0.0000000000065138
 51
90.00000000001303
  0
ARC
  5
346
330
1A
100
AcDbEntity
  8
SEIHIN
  6
CONTINUOUS
 62
     3
100
AcDbCircle
 10
479.3967738405227
 20
367.7537287717785
 30
0.0
 40
0.4999996500001356
100
AcDbArc
 50
180.0000627098263
 51
245.2033128717879
  0
LINE
  5
347
330
1A
100
AcDbEntity
  8
SEIHIN
  6
CONTINUOUS
 62
     3
100
AcDbLine
 10
474.396774190523
 20
377.7217282245324
 30
0.0
 11
474.396774190523
 21
381.4301282245324
 31
0.0
  0
ARC
  5
348
330
1A
100
AcDbEntity
  8
SEIHIN
  6
CONTINUOUS
 62
     3
100
AcDbCircle
 10
528.2826646379375
 20
376.4301346515406
 30
0.0
 40
4.999993573000872
100
AcDbArc
 50
22.13432095432242
 51
89.99989053529363
  0
LINE
  5
349
330
1A
100
AcDbEntity
  8
CENTER_L
  6
CENTER
 62
     1
 48
5.0
100
AcDbLine
 10
527.2575741905232
 20
376.4301282245324
 30
0.0
 11
518.6971741905231
 21
376.4301282245324
 31
0.0
  0
ARC
  5
34A
330
1A
100
AcDbEntity
  8
SEIHIN
  6
CONTINUOUS
 62
     3
100
AcDbCircle
 10
522.884974190523
 20
376.4301282245324
 30
0.0
 40
1.0
100
AcDbArc
 50
0.0
 51
180.0
  0
ARC
  5
34B
330
1A
100
AcDbEntity
  8
SEIHIN
  6
CONTINUOUS
 62
     3
100
AcDbCircle
 10
522.884974190523
 20
376.4301282245324
 30
0.0
 40
1.000000000000113
100
AcDbArc
 50
180.0
 51
0.0
  0
LINE
  5
34C
330
1A
100
AcDbEntity
  8
CENTER_L
  6
CENTER
 62
     1
 48
5.0
100
AcDbLine
 10
522.884974190523
 20
380.8028282245324
 30
0.0
 11
522.884974190523
 21
372.2424282245322
 31
0.0
  0
ARC
  5
34D
330
1A
100
AcDbEntity
  8
NOKITOI
  6
PHANTOM
 62
     8
 48
5.0
100
AcDbCircle
 10
643.771281851692
 20
341.7302390529615
 30
0.0
 40
1.999988406214315
100
AcDbArc
 50
358.2088726535929
 51
89.99967808195611
  0
ARC
  5
34E
330
1A
100
AcDbEntity
  8
SEIHIN
  6
CONTINUOUS
 62
     3
100
AcDbCircle
 10
643.9392733265349
 20
342.4303291132829
 30
0.0
 40
1.999999111249786
100
AcDbArc
 50
358.3811526694152
 51
89.99997524855217
  0
LINE
  5
34F
330
1A
100
AcDbEntity
  8
SEIHIN
  6
CONTINUOUS
 62
     3
100
AcDbLine
 10
638.946474190523
 20
352.4302282245324
 30
0.0
 11
651.9794741905229
 21
352.4303282245323
 31
0.0
  0
LINE
  5
350
330
1A
100
AcDbEntity
  8
SEIHIN
  6
CONTINUOUS
 62
     3
100
AcDbLine
 10
649.2176741905232
 20
323.4303282245325
 30
0.0
 11
636.6664741905233
 21
323.4303282245325
 31
0.0
  0
LINE
  5
351
330
1A
100
AcDbEntity
  8
SEIHIN
  6
CONTINUOUS
 62
     3
100
AcDbLine
 10
645.9384741905227
 20
342.3738282245324
 30
0.0
 11
645.5376741905229
 21
328.1879282245323
 31
0.0
  0
DIMENSION
  5
352
330
1A
100
AcDbEntity
  8
SUNPOU
100
AcDbDimension
  2
*D1
 10
681.1966641425258
 20
288.7302282245324
 30
0.0
 11
676.1966641425258
 21
320.5802782245324
 31
0.0
 70
    32
  3
STANDARD
100
AcDbAlignedDimension
 13
651.9794741905229
 23
352.4303282245323
 33
0.0
 14
622.7398741905231
 24
288.7302282245324
 34
0.0
 50
90.0
100
AcDbRotatedDimension
1001
ACAD
1000
DSTYLE
1002
{
1070
   140
1040
6.0
1070
    74
1070
     0
1070
   172
1070
     1
1070
    73
1070
     0
1070
   272
1070
     2
1070
    77
1070
     3
1070
   173
1070
     1
1070
   147
1040
2.0
1070
    42
1040
6.0
1070
    44
1040
3.0
1070
    43
1040
14.0
1070
   271
1070
     0
1070
   178
1070
     4
1070
   177
1070
     4
1070
   176
1070
     4
1070
   141
1040
150.0
1070
     7
1000
_OPEN
1070
     6
1000
_OPEN
1070
    41
1040
7.0
1002
}
  0
LINE
  5
353
330
1A
100
AcDbEntity
  8
CENTER_L
  6
CENTER
 62
     1
 48
5.0
100
AcDbLine
 10
585.5968741905232
 20
281.7302097286173
 30
0.0
 11
585.5968741905233
 21
296.9302096293001
 31
0.0
  0
LINE
  5
354
330
1A
100
AcDbEntity
  8
NOKITOI
  6
PHANTOM
 62
     8
 48
5.0
100
AcDbLine
 10
636.7447930886864
 20
326.8297274591444
 30
0.0
 11
633.8759930886863
 21
298.1423274591443
 31
0.0
  0
LINE
  5
355
330
1A
100
AcDbEntity
  8
NOKITOI
  6
PHANTOM
 62
     8
 48
5.0
100
AcDbLine
 10
635.7037930886863
 20
328.4800274591444
 30
0.0
 11
632.7107930886859
 21
298.5502274591443
 31
0.0
  0
LINE
  5
356
330
1A
100
AcDbEntity
  8
SEIHIN
  6
CONTINUOUS
 62
     3
100
AcDbLine
 10
636.9064741905231
 20
325.8298282245324
 30
0.0
 11
634.1379741905232
 21
298.1423282245324
 31
0.0
  0
LINE
  5
357
330
1A
100
AcDbEntity
  8
NOKITOI
  6
PHANTOM
 62
     8
 48
5.0
100
AcDbLine
 10
618.2279930886862
 20
289.9301274591444
 30
0.0
 11
598.3198930886866
 21
289.9301274591444
 31
0.0
  0
LINE
  5
358
330
1A
100
AcDbEntity
  8
NOKITOI
  6
PHANTOM
 62
     8
 48
5.0
100
AcDbLine
 10
618.4777930886862
 20
288.7301274591444
 30
0.0
 11
598.3198930886866
 21
288.7301274591444
 31
0.0
  0
LINE
  5
359
330
1A
100
AcDbEntity
  8
NOKITOI
  6
PHANTOM
 62
     8
 48
5.0
100
AcDbLine
 10
633.5141930886861
 20
297.4678274591445
 30
0.0
 11
623.1110930886861
 21
288.9561274591445
 31
0.0
  0
LINE
  5
35A
330
1A
100
AcDbEntity
  8
NOKITOI
  6
PHANTOM
 62
     8
 48
5.0
100
AcDbLine
 10
632.5298930886865
 20
298.2129274591443
 30
0.0
 11
622.5445930886863
 21
290.0431274591442
 31
0.0
  0
LINE
  5
35B
330
1A
100
AcDbEntity
  8
SEIHIN
  6
CONTINUOUS
 62
     3
100
AcDbLine
 10
623.3730741905231
 20
288.9563282245323
 30
0.0
 11
633.7761741905231
 21
297.4679282245324
 31
0.0
  0
ARC
  5
35C
330
1A
100
AcDbEntity
  8
NOKITOI
  6
PHANTOM
 62
     8
 48
5.0
100
AcDbCircle
 10
622.2279994764349
 20
290.4301297391339
 30
0.0
 40
0.5000022800304047
100
AcDbArc
 50
269.9992680212786
 51
309.2854498596058
  0
ARC
  5
35D
330
1A
100
AcDbEntity
  8
NOKITOI
  6
PHANTOM
 62
     8
 48
5.0
100
AcDbCircle
 10
622.4777861561087
 20
289.7301249841382
 30
0.0
 40
0.9999975250179316
100
AcDbArc
 50
270.0003972084043
 51
309.2946416752298
  0
ARC
  5
35E
330
1A
100
AcDbEntity
  8
SEIHIN
  6
CONTINUOUS
 62
     3
100
AcDbCircle
 10
622.7397785552616
 20
289.7301940858667
 30
0.0
 40
0.9999658659075249
100
AcDbArc
 50
270.0054796839196
 51
309.2952897056432
  0
ARC
  5
35F
330
1A
100
AcDbEntity
  8
NOKITOI
  6
PHANTOM
 62
     8
 48
5.0
100
AcDbCircle
 10
632.213275662808
 20
298.5998949727564
 30
0.0
 40
0.4999904508696396
100
AcDbArc
 50
309.2900846377958
 51
354.2990110749245
  0
ARC
  5
360
330
1A
100
AcDbEntity
  8
NOKITOI
  6
PHANTOM
 62
     8
 48
5.0
100
AcDbCircle
 10
632.8809705158173
 20
298.2417853874718
 30
0.0
 40
0.9999908507640039
100
AcDbArc
 50
309.2887092230696
 51
354.2862329477531
  0
ARC
  5
361
330
1A
100
AcDbEntity
  8
SEIHIN
  6
CONTINUOUS
 62
     3
100
AcDbCircle
 10
633.1429156200534
 20
298.2419054647401
 30
0.0
 40
1.000028592307649
100
AcDbArc
 50
309.2896048481104
 51
354.2853373226812
  0
LINE
  5
362
330
1A
100
AcDbEntity
  8
NOKITOI
  6
PHANTOM
 62
     8
 48
5.0
100
AcDbLine
 10
637.3098930886863
 20
334.7039274591443
 30
0.0
 11
636.9940930886859
 21
340.7039274591443
 31
0.0
  0
LINE
  5
363
330
1A
100
AcDbEntity
  8
NOKITOI
  6
PHANTOM
 62
     8
 48
5.0
100
AcDbLine
 10
639.2511930886858
 20
335.4302274591444
 30
0.0
 11
638.8471930886862
 21
338.2586274591442
 31
0.0
  0
LINE
  5
364
330
1A
100
AcDbEntity
  8
NOKITOI
  6
PHANTOM
 62
     8
 48
5.0
100
AcDbLine
 10
638.4732930886862
 20
335.4302274591444
 30
0.0
 11
638.2921930886859
 21
338.8716274591443
 31
0.0
  0
LINE
  5
365
330
1A
100
AcDbEntity
  8
NOKITOI
  6
PHANTOM
 62
     8
 48
5.0
100
AcDbLine
 10
644.5708930886858
 20
341.7052274591442
 30
0.0
 11
644.4215930886862
 21
336.9262274591445
 31
0.0
  0
LINE
  5
366
330
1A
100
AcDbEntity
  8
NOKITOI
  6
PHANTOM
 62
     8
 48
5.0
100
AcDbLine
 10
640.5532930886861
 20
334.8009274591443
 30
0.0
 11
640.2194930886862
 21
337.1371274591445
 31
0.0
  0
ARC
  5
367
330
1A
100
AcDbEntity
  8
NOKITOI
  6
PHANTOM
 62
     8
 48
5.0
100
AcDbCircle
 10
640.3197621617501
 20
333.7302632038082
 30
0.0
 40
3.99998565374706
100
AcDbArc
 50
358.2086966591014
 51
83.52422380468325
  0
ARC
  5
368
330
1A
100
AcDbEntity
  8
NOKITOI
  6
PHANTOM
 62
     8
 48
5.0
100
AcDbCircle
 10
640.3197752223349
 20
333.7302361875243
 30
0.0
 40
5.199991271650611
100
AcDbArc
 50
37.92532860473096
 51
89.99980314072548
  0
LINE
  5
369
330
1A
100
AcDbEntity
  8
NOKITOI
  6
PHANTOM
 62
     8
 48
5.0
100
AcDbLine
 10
645.7702930886862
 20
341.6677274591443
 30
0.0
 11
645.3801930886861
 21
329.1833274591443
 31
0.0
  0
LINE
  5
36A
330
1A
100
AcDbEntity
  8
NOKITOI
  6
PHANTOM
 62
     8
 48
5.0
100
AcDbLine
 10
636.2012930886858
 20
328.9302274591444
 30
0.0
 11
642.2331930886862
 21
328.9302274591444
 31
0.0
  0
ARC
  5
36B
330
1A
100
AcDbEntity
  8
NOKITOI
  6
PHANTOM
 62
     8
 48
5.0
100
AcDbCircle
 10
637.7398137385271
 20
326.7302461469935
 30
0.0
 40
0.9999813123640345
100
AcDbArc
 50
90.00118317084957
 51
174.290590033351
  0
ARC
  5
36C
330
1A
100
AcDbEntity
  8
SEIHIN
  6
CONTINUOUS
 62
     3
100
AcDbCircle
 10
637.9014948403642
 20
325.7303469123816
 30
0.0
 40
0.9999813123638924
100
AcDbArc
 50
90.001183170839
 51
174.2905900333418
  0
ARC
  5
36D
330
1A
100
AcDbEntity
  8
NOKITOI
  6
PHANTOM
 62
     8
 48
5.0
100
AcDbCircle
 10
637.8091972100929
 20
334.7302235491138
 30
0.0
 40
0.4999960899864752
100
AcDbArc
 50
183.0147243791737
 51
269.9995277178594
  0
ARC
  5
36E
330
1A
100
AcDbEntity
  8
NOKITOI
  6
PHANTOM
 62
     8
 48
5.0
100
AcDbCircle
 10
636.2013061596908
 20
328.4302392894242
 30
0.0
 40
0.499988169890889
100
AcDbArc
 50
90.00149786226627
 51
174.2966061377156
  0
ARC
  5
36F
330
1A
100
AcDbEntity
  8
SEIHIN
  6
CONTINUOUS
 62
     3
100
AcDbCircle
 10
644.0382738682037
 20
328.2303279111989
 30
0.0
 40
1.499999686666604
100
AcDbArc
 50
270.0000123116905
 51
358.3802351836159
  0
LINE
  5
370
330
1A
100
AcDbEntity
  8
NOKITOI
  6
PHANTOM
 62
     8
 48
5.0
100
AcDbLine
 10
644.2322930886862
 20
330.8676274591444
 30
0.0
 11
644.3177930886859
 21
333.6052274591443
 31
0.0
  0
LINE
  5
371
330
1A
100
AcDbEntity
  8
NOKITOI
  6
PHANTOM
 62
     8
 48
5.0
100
AcDbLine
 10
643.8808930886862
 20
327.7302274591443
 30
0.0
 11
637.7397930886863
 21
327.7302274591443
 31
0.0
  0
LINE
  5
372
330
1A
100
AcDbEntity
  8
NOKITOI
  6
PHANTOM
 62
     8
 48
5.0
100
AcDbLine
 10
637.8091930886862
 20
334.2302274591443
 30
0.0
 11
640.0582930886858
 21
334.2302274591443
 31
0.0
  0
LINE
  5
373
330
1A
100
AcDbEntity
  8
NOKITOI
  6
PHANTOM
 62
     8
 48
5.0
100
AcDbLine
 10
638.4732930886862
 20
335.4302274591444
 30
0.0
 11
639.2511930886858
 21
335.4302274591444
 31
0.0
  0
ARC
  5
374
330
1A
100
AcDbEntity
  8
NOKITOI
  6
PHANTOM
 62
     8
 48
5.0
100
AcDbCircle
 10
640.0583032751224
 20
334.7302392038685
 30
0.0
 40
0.5000117448278309
100
AcDbArc
 50
269.9988327478018
 51
8.127314608715803
  0
ARC
  5
375
330
1A
100
AcDbEntity
  8
NOKITOI
  6
PHANTOM
 62
     8
 48
5.0
100
AcDbCircle
 10
643.8809103018643
 20
329.2302441422922
 30
0.0
 40
1.500016683246579
100
AcDbArc
 50
269.9993425123348
 51
358.207642324411
  0
ARC
  5
376
330
1A
100
AcDbEntity
  8
NOKITOI
  6
PHANTOM
 62
     8
 48
5.0
100
AcDbCircle
 10
642.2332310765105
 20
330.9301642797166
 30
0.0
 40
2.000036820932882
100
AcDbArc
 50
269.9989117490339
 51
358.2110591274196
  0
LINE
  5
377
330
1A
100
AcDbEntity
  8
SEIHIN
  6
CONTINUOUS
 62
     3
100
AcDbLine
 10
644.0382741905231
 20
326.7303282245323
 30
0.0
 11
637.9014741905232
 21
326.7303282245323
 31
0.0
  0
ARC
  5
378
330
1A
100
AcDbEntity
  8
SEIHIN
  6
CONTINUOUS
 62
     3
100
AcDbCircle
 10
638.946474190523
 20
347.4303282245323
 30
0.0
 40
5.0
100
AcDbArc
 50
90.0
 51
270.0
  0
LINE
  5
379
330
1A
100
AcDbEntity
  8
NOKITOI
  6
PHANTOM
 62
     8
 48
5.0
100
AcDbLine
 10
637.4933930886863
 20
341.2302274591443
 30
0.0
 11
639.7248930886862
 21
341.2302274591443
 31
0.0
  0
ARC
  5
37A
330
1A
100
AcDbEntity
  8
NOKITOI
  6
PHANTOM
 62
     8
 48
5.0
100
AcDbCircle
 10
637.4933967981815
 20
340.7302313691751
 30
0.0
 40
0.4999960899831856
100
AcDbArc
 50
90.00042508015132
 51
183.0156217414654
  0
ARC
  5
37B
330
1A
100
AcDbEntity
  8
NOKITOI
  6
PHANTOM
 62
     8
 48
5.0
100
AcDbCircle
 10
640.4446858341307
 20
343.2302186093009
 30
0.0
 40
0.500008849895925
100
AcDbArc
 50
89.99916870385492
 51
191.3135956695117
  0
LINE
  5
37C
330
1A
100
AcDbEntity
  8
SEIHIN
  6
CONTINUOUS
 62
     3
100
AcDbLine
 10
638.946574190523
 20
344.4303282245324
 30
0.0
 11
638.946574190523
 21
342.4303282245324
 31
0.0
  0
LINE
  5
37D
330
1A
100
AcDbEntity
  8
NOKITOI
  6
PHANTOM
 62
     8
 48
5.0
100
AcDbLine
 10
643.7712930886864
 20
343.7301274591443
 30
0.0
 11
640.4446930886861
 21
343.7302274591443
 31
0.0
  0
LINE
  5
37E
330
1A
100
AcDbEntity
  8
NOKITOI
  6
PHANTOM
 62
     8
 48
5.0
100
AcDbLine
 10
641.7985930886861
 20
340.0302274591445
 30
0.0
 11
638.8619930886862
 21
340.0302274591445
 31
0.0
  0
LINE
  5
37F
330
1A
100
AcDbEntity
  8
NOKITOI
  6
PHANTOM
 62
     8
 48
5.0
100
AcDbLine
 10
639.8577930886863
 20
338.9302274591444
 30
0.0
 11
638.8619930886862
 21
340.0302274591445
 31
0.0
  0
LINE
  5
380
330
1A
100
AcDbEntity
  8
NOKITOI
  6
PHANTOM
 62
     8
 48
5.0
100
AcDbLine
 10
638.8471930886862
 20
338.2586274591442
 30
0.0
 11
638.2921930886859
 21
338.8716274591443
 31
0.0
  0
ARC
  5
381
330
1A
100
AcDbEntity
  8
NOKITOI
  6
PHANTOM
 62
     8
 48
5.0
100
AcDbCircle
 10
639.7248923056777
 20
341.7302265041426
 30
0.0
 40
0.4999990449987399
100
AcDbArc
 50
270.0000897263054
 51
11.30328019845509
  0
LINE
  5
382
330
1A
100
AcDbEntity
  8
NOKITOI
  6
PHANTOM
 62
     8
 48
5.0
100
AcDbLine
 10
639.8577930886863
 20
338.9302274591444
 30
0.0
 11
640.3197930886863
 21
338.9302274591444
 31
0.0
  0
LINE
  5
383
330
1A
100
AcDbEntity
  8
NOKITOI
  6
PHANTOM
 62
     8
 48
5.0
100
AcDbLine
 10
641.2985930886861
 20
342.5302274591445
 30
0.0
 11
641.7985930886861
 21
340.0302274591445
 31
0.0
  0
ARC
  5
384
330
1A
100
AcDbEntity
  8
NOKITOI
  6
PHANTOM
 62
     8
 48
5.0
100
AcDbCircle
 10
640.7145224611858
 20
337.2078576916393
 30
0.0
 40
0.4999578477751074
100
AcDbArc
 50
83.52609071220776
 51
188.1330561712924
  0
LINE
  5
385
330
1A
100
AcDbEntity
  8
NOKITOI
  6
PHANTOM
 62
     8
 48
5.0
100
AcDbLine
 10
643.7712930886864
 20
342.5301274591443
 30
0.0
 11
641.2985930886861
 21
342.5302274591445
 31
0.0
  0
LINE
  5
386
330
1A
100
AcDbEntity
  8
NOKITOI
  6
PHANTOM
 62
     8
 48
5.0
100
AcDbLine
 10
640.2151930886861
 20
341.8282274591445
 30
0.0
 11
639.9543930886862
 21
343.1322274591444
 31
0.0
  0
LINE
  5
387
330
1A
100
AcDbEntity
  8
SEIHIN
  6
CONTINUOUS
 62
     3
100
AcDbLine
 10
643.939274190523
 20
344.4303282245324
 30
0.0
 11
638.946574190523
 21
344.4303282245324
 31
0.0
  0
ARC
  5
388
330
1A
100
AcDbEntity
  8
NOKITOI
  6
PHANTOM
 62
     8
 48
5.0
100
AcDbCircle
 10
643.771337055039
 20
341.7301820966713
 30
0.0
 40
0.7999453636812564
100
AcDbArc
 50
358.212343644788
 51
90.00314907315372
  0
LINE
  5
389
330
1A
100
AcDbEntity
  8
SEIHIN
  6
CONTINUOUS
 62
     3
100
AcDbLine
 10
651.9794741905229
 20
352.4303282245323
 30
0.0
 11
649.7160741905231
 21
323.8908282245324
 31
0.0
  0
ARC
  5
38A
330
1A
100
AcDbEntity
  8
SEIHIN
  6
CONTINUOUS
 62
     3
100
AcDbCircle
 10
649.217654062746
 20
323.9303096288407
 30
0.0
 40
0.4999814047133863
100
AcDbArc
 50
270.0023065591313
 51
355.4708807655128
  0
ARC
  5
38B
330
1A
100
AcDbEntity
  8
SEIHIN
  6
CONTINUOUS
 62
     3
100
AcDbCircle
 10
648.1475794200532
 20
322.9303331195804
 30
0.0
 40
0.4999951049793547
100
AcDbArc
 50
90.00059926589715
 51
176.2162528318007
  0
DIMENSION
  5
3B3
330
1A
100
AcDbEntity
  8
ZUWAKU
100
AcDbDimension
  2
*D2
 10
585.5968741905233
 20
406.6621254161766
 30
0.0
 11
618.7881741905231
 21
411.6621254161766
 31
0.0
 12
28.11459774264312
 22
-23.59671686302135
 32
0.0
 70
    32
  3
STANDARD
100
AcDbAlignedDimension
 13
651.9794741905229
 23
352.4303282245323
 33
0.0
 14
585.5968741905233
 24
296.9302096293001
 34
0.0
100
AcDbRotatedDimension
1001
ACAD
1000
DSTYLE
1002
{
1070
   140
1040
6.0
1070
    74
1070
     0
1070
   172
1070
     1
1070
    73
1070
     0
1070
   272
1070
     2
1070
    77
1070
     3
1070
   173
1070
     1
1070
   147
1040
2.0
1070
    42
1040
6.0
1070
    44
1040
3.0
1070
    43
1040
14.0
1070
   271
1070
     0
1070
   178
1070
     4
1070
   177
1070
     4
1070
   176
1070
     4
1070
   141
1040
150.0
1070
     7
1000
_OPEN
1070
     6
1000
_OPEN
1070
    41
1040
7.0
1002
}
  0
DIMENSION
  5
3C0
330
1A
100
AcDbEntity
  8
ZUWAKU
100
AcDbDimension
  2
*D3
 10
474.396774190523
 20
424.6604168334177
 30
0.0
 11
563.1881241905229
 21
429.6604168334177
 31
0.0
 12
28.11459774264312
 22
-23.59671686302135
 32
0.0
 70
    32
  3
STANDARD
100
AcDbAlignedDimension
 13
651.9794741905229
 23
352.4303282245323
 33
0.0
 14
474.396774190523
 24
381.4301282245324
 34
0.0
100
AcDbRotatedDimension
1001
ACAD
1000
DSTYLE
1002
{
1070
   140
1040
6.0
1070
    74
1070
     0
1070
   172
1070
     1
1070
    73
1070
     0
1070
   272
1070
     2
1070
    77
1070
     3
1070
   173
1070
     1
1070
   147
1040
2.0
1070
    42
1040
6.0
1070
    44
1040
3.0
1070
    43
1040
14.0
1070
   271
1070
     0
1070
   178
1070
     4
1070
   177
1070
     4
1070
   176
1070
     4
1070
   141
1040
150.0
1070
     7
1000
_OPEN
1070
     6
1000
_OPEN
1070
    41
1040
7.0
1002
}
  0
DIMENSION
  5
3CD
330
1A
100
AcDbEntity
  8
SUNPOU
100
AcDbDimension
  2
*D4
 10
444.9180324187541
 20
288.7302282245324
 30
0.0
 11
439.9180324187541
 21
335.0801782245324
 31
0.0
 12
28.11459774264312
 22
-23.59671686302135
 32
0.0
 70
    32
  3
STANDARD
100
AcDbAlignedDimension
 13
474.396774190523
 23
381.4301282245324
 33
0.0
 14
577.305274190523
 24
288.7302282245324
 34
0.0
 50
90.0
100
AcDbRotatedDimension
1001
ACAD
1000
DSTYLE
1002
{
1070
   140
1040
6.0
1070
    74
1070
     0
1070
   172
1070
     1
1070
    73
1070
     0
1070
   272
1070
     2
1070
    77
1070
     3
1070
   173
1070
     1
1070
   147
1040
2.0
1070
    42
1040
6.0
1070
    44
1040
3.0
1070
    43
1040
14.0
1070
   271
1070
     0
1070
   178
1070
     4
1070
   177
1070
     4
1070
   176
1070
     4
1070
   141
1040
150.0
1070
     7
1000
_OPEN
1070
     6
1000
_OPEN
1070
    41
1040
7.0
1002
}
  0
DIMENSION
  5
3DA
330
1A
100
AcDbEntity
  8
SUNPOU
100
AcDbDimension
  2
*D5
 10
428.6322197486733
 20
211.9747552920947
 30
0.0
 11
423.6322197486733
 21
296.7024417583136
 31
0.0
 12
28.11459774264312
 22
-23.59671686302135
 32
0.0
 70
    32
  3
STANDARD
100
AcDbAlignedDimension
 13
474.396774190523
 23
381.4301282245324
 33
0.0
 14
544.8442334767234
 24
211.9747552920947
 34
0.0
 50
90.0
100
AcDbRotatedDimension
1001
ACAD
1000
DSTYLE
1002
{
1070
   140
1040
6.0
1070
    74
1070
     0
1070
   172
1070
     1
1070
    73
1070
     0
1070
   272
1070
     2
1070
    77
1070
     3
1070
   173
1070
     1
1070
   147
1040
2.0
1070
    42
1040
6.0
1070
    44
1040
3.0
1070
    43
1040
14.0
1070
   271
1070
     0
1070
   178
1070
     4
1070
   177
1070
     4
1070
   176
1070
     4
1070
   141
1040
150.0
1070
     7
1000
_OPEN
1070
     6
1000
_OPEN
1070
    41
1040
7.0
1002
}
  0
DIMENSION
  5
3E7
330
1A
100
AcDbEntity
  8
SUNPOU
100
AcDbDimension
  2
*D6
 10
411.4052636989381
 20
168.0302782245324
 30
0.0
 11
406.4052636989381
 21
274.7302032245324
 31
0.0
 12
28.11459774264312
 22
-23.59671686302135
 32
0.0
 70
    32
  3
STANDARD
100
AcDbAlignedDimension
 13
474.396774190523
 23
381.4301282245324
 33
0.0
 14
564.2468741905231
 24
168.0302782245324
 34
0.0
 50
90.0
100
AcDbRotatedDimension
1001
ACAD
1000
DSTYLE
1002
{
1070
   140
1040
6.0
1070
    74
1070
     0
1070
   172
1070
     1
1070
    73
1070
     0
1070
   272
1070
     2
1070
    77
1070
     3
1070
   173
1070
     1
1070
   147
1040
2.0
1070
    42
1040
6.0
1070
    44
1040
3.0
1070
    43
1040
14.0
1070
   271
1070
     0
1070
   178
1070
     4
1070
   177
1070
     4
1070
   176
1070
     4
1070
   141
1040
150.0
1070
     7
1000
_OPEN
1070
     6
1000
_OPEN
1070
    41
1040
7.0
1002
}
  0
DIMENSION
  5
3F6
330
1A
100
AcDbEntity
  8
SUNPOU
100
AcDbDimension
  2
*D7
 10
593.4468741905231
 20
252.1567458972597
 30
0.0
 11
611.4468741905231
 21
257.1567458972597
 31
0.0
 12
28.11459774264312
 22
-23.59671686302135
 32
0.0
 70
    32
  3
STANDARD
100
AcDbAlignedDimension
 13
585.5968741905232
 23
281.7302097286173
 33
0.0
 14
593.4468741905231
 24
218.4304282268613
 34
0.0
100
AcDbRotatedDimension
1001
ACAD
1000
DSTYLE
1002
{
1070
   140
1040
6.0
1070
    74
1070
     0
1070
   172
1070
     1
1070
    73
1070
     0
1070
   272
1070
     2
1070
    77
1070
     3
1070
   173
1070
     1
1070
   147
1040
2.0
1070
    42
1040
6.0
1070
    44
1040
3.0
1070
    43
1040
14.0
1070
   271
1070
     0
1070
   178
1070
     4
1070
   177
1070
     4
1070
   176
1070
     4
1070
   141
1040
150.0
1070
     7
1000
_OPEN
1070
     6
1000
_OPEN
1070
    41
1040
7.0
1002
}
  0
DIMENSION
  5
406
330
1A
100
AcDbEntity
  8
SUNPOU
100
AcDbDimension
  2
*D8
 10
677.4671482187208
 20
174.0302482245324
 30
0.0
 11
672.4671482187209
 21
147.9302482245324
 31
0.0
 12
28.11459774264312
 22
-23.59671686302135
 32
0.0
 70
    32
  1
※b<>
  3
STANDARD
100
AcDbAlignedDimension
 13
629.9403601639859
 23
184.0302409695006
 33
0.0
 14
628.4466741905232
 24
174.0302482245324
 34
0.0
 50
90.0
100
AcDbRotatedDimension
1001
ACAD
1000
DSTYLE
1002
{
1070
   140
1040
6.0
1070
    74
1070
     0
1070
   172
1070
     1
1070
    73
1070
     0
1070
   272
1070
     2
1070
    77
1070
     3
1070
   173
1070
     1
1070
   147
1040
2.0
1070
    42
1040
6.0
1070
    44
1040
3.0
1070
    43
1040
14.0
1070
   271
1070
     0
1070
   178
1070
     4
1070
   177
1070
     4
1070
   176
1070
     4
1070
   141
1040
150.0
1070
     7
1000
_OPEN
1070
     6
1000
_OPEN
1070
    41
1040
7.0
1002
}
  0
DIMENSION
  5
420
330
1A
100
AcDbEntity
  8
SUNPOU
100
AcDbDimension
  2
*D9
 10
558.4471741905231
 20
134.3405275495959
 30
0.0
 11
593.4468741905231
 21
139.3405275495959
 31
0.0
 70
    32
  1
φ<>
  3
STANDARD
100
AcDbAlignedDimension
 13
628.446574190523
 23
174.0300382245323
 33
0.0
 14
558.4471741905231
 24
174.0302482245324
 34
0.0
100
AcDbRotatedDimension
1001
ACAD
1000
DSTYLE
1002
{
1070
   140
1040
6.0
1070
    74
1070
     0
1070
   172
1070
     1
1070
    73
1070
     0
1070
   272
1070
     2
1070
    77
1070
     3
1070
   173
1070
     1
1070
   147
1040
2.0
1070
    42
1040
6.0
1070
    44
1040
3.0
1070
    43
1040
14.0
1070
   271
1070
     0
1070
   178
1070
     4
1070
   177
1070
     4
1070
   176
1070
     4
1070
   141
1040
150.0
1070
     7
1000
_OPEN
1070
     6
1000
_OPEN
1070
    41
1040
7.0
1002
}
  0
DIMENSION
  5
471
330
1A
100
AcDbEntity
  8
SUNPOU
100
AcDbDimension
  2
*D10
 10
252.3563248705698
 20
406.1150965239189
 30
0.0
 11
222.3563248705733
 21
411.1150965239189
 31
0.0
 12
28.11459774264312
 22
-23.59671686302135
 32
0.0
 70
    32
  1
※a<>
  3
STANDARD
100
AcDbAlignedDimension
 13
192.3563248705768
 23
381.1781282245322
 33
0.0
 14
252.3563248705698
 24
381.1780988129086
 34
0.0
100
AcDbRotatedDimension
1001
ACAD
1000
DSTYLE
1002
{
1070
   140
1040
6.0
1070
    74
1070
     0
1070
   172
1070
     1
1070
    73
1070
     0
1070
   272
1070
     2
1070
    77
1070
     3
1070
   173
1070
     1
1070
   147
1040
2.0
1070
    42
1040
6.0
1070
    44
1040
3.0
1070
    43
1040
14.0
1070
   271
1070
     0
1070
   178
1070
     4
1070
   177
1070
     4
1070
   176
1070
     4
1070
   141
1040
150.0
1070
     7
1000
_OPEN
1070
     6
1000
_OPEN
1070
    41
1040
7.0
1002
}
  0
DIMENSION
  5
47E
330
1A
100
AcDbEntity
  8
SUNPOU
100
AcDbDimension
  2
*D11
 10
120.3563274998758
 20
424.3305200631864
 30
0.0
 11
222.3563274998758
 21
429.3305200631864
 31
0.0
 12
28.11459774264312
 22
-23.59671686302135
 32
0.0
 70
    32
  3
STANDARD
100
AcDbAlignedDimension
 13
324.3563274998758
 23
381.1780282245324
 33
0.0
 14
120.3563274998758
 24
381.1781282245322
 34
0.0
100
AcDbRotatedDimension
1001
ACAD
1000
DSTYLE
1002
{
1070
   140
1040
6.0
1070
    74
1070
     0
1070
   172
1070
     1
1070
    73
1070
     0
1070
   272
1070
     2
1070
    77
1070
     3
1070
   173
1070
     1
1070
   147
1040
2.0
1070
    42
1040
6.0
1070
    44
1040
3.0
1070
    43
1040
14.0
1070
   271
1070
     0
1070
   178
1070
     4
1070
   177
1070
     4
1070
   176
1070
     4
1070
   141
1040
150.0
1070
     7
1000
_OPEN
1070
     6
1000
_OPEN
1070
    41
1040
7.0
1002
}
  0
DIMENSION
  5
48B
330
1A
100
AcDbEntity
  8
SUNPOU
100
AcDbDimension
  2
*D12
 10
175.3563347497996
 20
134.8264467744739
 30
0.0
 11
222.3563318612987
 21
139.8264467744739
 31
0.0
 70
    32
  3
STANDARD
100
AcDbAlignedDimension
 13
269.3563289727977
 23
211.430423383085
 33
0.0
 14
175.3563347497996
 24
211.4305282245323
 34
0.0
100
AcDbRotatedDimension
1001
ACAD
1000
DSTYLE
1002
{
1070
   140
1040
6.0
1070
    74
1070
     0
1070
   172
1070
     1
1070
    73
1070
     0
1070
   272
1070
     2
1070
    77
1070
     3
1070
   173
1070
     1
1070
   147
1040
2.0
1070
    42
1040
6.0
1070
    44
1040
3.0
1070
    43
1040
14.0
1070
   271
1070
     0
1070
   178
1070
     4
1070
   177
1070
     4
1070
   176
1070
     4
1070
   141
1040
150.0
1070
     7
1000
_OPEN
1070
     6
1000
_OPEN
1070
    41
1040
7.0
1002
}
  0
LEADER
  5
566
330
1A
100
AcDbEntity
  8
SUNPOU
  6
CONTINUOUS
 62
     4
100
AcDbLeader
  3
STANDARD
 73
     0
 74
     0
 40
6.0
 41
30.19999999999999
 76
     3
 10
523.47149946394
 20
377.2400591497619
 30
0.0
 10
535.9203941929053
 20
406.4129453816717
 30
0.0
 10
537.1855493319203
 20
406.4129453816717
 30
0.0
1001
ACAD
1000
DSTYLE
1002
{
1070
     6
1000
OPEN
1070
    41
1040
7.0
1070
    42
1040
6.0
1070
    43
1040
14.0
1070
    44
1040
3.0
1070
    73
1070
     0
1070
    74
1070
     0
1070
    77
1070
     3
1070
   140
1040
6.0
1070
   141
1040
150.0
1070
   147
1040
2.0
1070
   172
1070
     1
1070
   173
1070
     1
1070
   176
1070
     4
1070
   177
1070
     4
1070
   178
1070
     4
1070
   271
1070
     0
1070
   272
1070
     2
1070
   341
1005
6D
1070
   343
1005
6D
1070
   344
1005
6D
1002
}
  0
MTEXT
  5
567
330
1A
100
AcDbEntity
  8
SUNPOU
  6
CONTINUOUS
 62
     4
100
AcDbMText
 10
539.1855493319203
 20
408.4129453816717
 30
0.0
 40
6.0
 41
0.0
 71
     7
 72
     5
  1
2-φ2.0
1001
ACAD
1000
MTEXTBEGIN
1070
    73
1070
     1
1070
    44
1040
1.0
1070
    74
1070
     0
1000
MTEXTEND
1000
MTEXTBEGIN
1070
    73
1070
     1
1070
    44
1040
1.0
1070
    74
1070
     0
1000
MTEXTEND
  0
LINE
  5
693
330
1A
100
AcDbEntity
  8
ZUWAKU
100
AcDbLine
 10
208.6466009793416
 20
15.19999945063829
 30
0.0
 11
447.424363660265
 21
15.19999945063828
 31
0.0
  0
LINE
  5
694
330
1A
100
AcDbEntity
  8
ZUWAKU
100
AcDbLine
 10
208.6466009793416
 20
15.59999945063829
 30
0.0
 11
447.424363660265
 21
15.59999945063829
 31
0.0
  0
LINE
  5
695
330
1A
100
AcDbEntity
  8
ZUWAKU
100
AcDbLine
 10
208.6466009793416
 20
15.39999945063829
 30
0.0
 11
447.424363660265
 21
15.39999945063829
 31
0.0
  0
LINE
  5
696
330
1A
100
AcDbEntity
  8
ZUWAKU
100
AcDbLine
 10
-0.0000003107263638
 20
30.79999945063827
 30
0.0
 11
797.3999996892735
 21
30.79999945063827
 31
0.0
  0
LINE
  5
697
330
1A
100
AcDbEntity
  8
ZUWAKU
100
AcDbLine
 10
-0.0000003107263638
 20
30.59999945063826
 30
0.0
 11
797.3999996892735
 21
30.59999945063826
 31
0.0
  0
LINE
  5
698
330
1A
100
AcDbEntity
  8
ZUWAKU
100
AcDbLine
 10
-0.0000003107263638
 20
30.39999945063826
 30
0.0
 11
797.3999996892735
 21
30.39999945063826
 31
0.0
  0
LINE
  5
699
330
1A
100
AcDbEntity
  8
ZUWAKU
100
AcDbLine
 10
-0.0000003107263638
 20
30.19999945063826
 30
0.0
 11
797.3999996892735
 21
30.19999945063826
 31
0.0
  0
LINE
  5
69A
330
1A
100
AcDbEntity
  8
ZUWAKU
100
AcDbLine
 10
-0.0000003107263638
 20
29.99999945063825
 30
0.0
 11
797.3999996892735
 21
29.99999945063825
 31
0.0
  0
LWPOLYLINE
  5
69B
330
1A
100
AcDbEntity
  8
ZUWAKU
100
AcDbPolyline
 90
        4
 70
     1
 43
0.0
 10
0.199999689273568
 20
551.3999994506384
 10
0.199999689273568
 20
0.1999994506383018
 10
797.3999996892735
 20
0.1999994506383249
 10
797.3999996892737
 20
551.3999994506384
  0
LWPOLYLINE
  5
69C
330
1A
100
AcDbEntity
  8
ZUWAKU
100
AcDbPolyline
 90
        4
 70
     1
 43
0.0
 10
0.5999996892735453
 20
550.9999994506383
 10
0.5999996892735453
 20
0.5999994506382791
 10
796.9999996892738
 20
0.5999994506383253
 10
796.9999996892736
 20
550.9999994506383
  0
LWPOLYLINE
  5
69D
330
1A
100
AcDbEntity
  8
ZUWAKU
100
AcDbPolyline
 90
        4
 70
     1
 43
0.0
 10
-0.0000003107263638
 20
551.5999994506382
 10
-0.0000003107263638
 20
-0.0000005493617437
 10
797.5999996892737
 20
-0.0000005493616761
 10
797.5999996892737
 20
551.5999994506383
  0
LWPOLYLINE
  5
69E
330
1A
100
AcDbEntity
  8
ZUWAKU
100
AcDbPolyline
 90
        4
 70
     1
 43
0.0
 10
0.3999996892736135
 20
551.1999994506383
 10
0.3999996892736135
 20
0.3999994506383473
 10
797.1999996892736
 20
0.3999994506383242
 10
797.1999996892736
 20
551.1999994506383
  0
LWPOLYLINE
  5
69F
330
1A
100
AcDbEntity
  8
ZUWAKU
100
AcDbPolyline
 90
        4
 70
     1
 43
0.0
 10
0.7999996892735908
 20
550.7999994506383
 10
0.7999996892735908
 20
0.7999994506383246
 10
796.7999996892736
 20
0.7999994506383246
 10
796.7999996892736
 20
550.7999994506383
  0
TEXT
  5
6A0
330
1A
100
AcDbEntity
  8
MOJI
100
AcDbText
 10
92.95778927744278
 20
12.74117758091301
 30
0.0
 40
6.0
  1
新・丸トップＲＶ１０５
 41
0.9
  7
ｽﾀｲﾙ1
100
AcDbText
  0
HATCH
  5
6A1
330
1A
100
AcDbEntity
  8
ZUWAKU
100
AcDbHatch
 10
0.0
 20
0.0
 30
0.0
210
0.0
220
0.0
230
1.0
  2
ANSI37
 70
     0
 71
     0
 91
        8
 92
        7
 72
     1
 73
     1
 93
       24
 10
14.50226235039349
 20
17.64484793162184
 42
-0.1989123673796348
 10
14.09221184405476
 20
18.63479742528289
 42
0.0
 10
14.09221184405476
 20
19.92499945063826
 42
-0.4142135623730912
 10
14.61721184405473
 20
20.44999945063826
 42
0.0
 10
17.59221184405464
 20
20.44999945063826
 42
0.4142135623731546
 10
18.11721184405473
 20
20.97499945063824
 42
0.0
 10
18.11721184405473
 20
22.72499945063826
 42
0.4142135623731586
 10
17.59221184405464
 20
23.24999945063826
 42
0.0
 10
14.09221184405476
 20
23.24999945063826
 42
0.4142135623730928
 10
11.2922118440548
 20
20.44999945063828
 42
0.0
 10
11.2922118440548
 20
18.63479742528301
 42
0.1989123673796619
 10
12.52236336307123
 20
15.66494894429941
 42
0.0
 10
15.43216133771591
 20
12.75515096965475
 42
-0.1989123673796613
 10
15.84221184405476
 20
11.76520147599356
 42
0.0
 10
15.84221184405476
 20
10.47499945063825
 42
-0.4142135623730911
 10
15.31721184405478
 20
9.949999450638259
 42
0.0
 10
12.34221184405487
 20
9.949999450638259
 42
0.4142135623731526
 10
11.81721184405478
 20
9.424999450638271
 42
0.0
 10
11.81721184405478
 20
7.674999450638249
 42
0.4142135623731526
 10
12.34221184405487
 20
7.149999450638262
 42
0.0
 10
15.84221184405476
 20
7.149999450638262
 42
0.4142135623731044
 10
18.64221184405482
 20
9.949999450638237
 42
0.0
 10
18.64221184405482
 20
11.76520147599351
 42
0.1989123673796604
 10
17.41206032503828
 20
14.73504995697705
 42
0.0
 97
        0
 92
        7
 72
     1
 73
     1
 93
       16
 10
23.5422118440548
 20
19.04999945063826
 42
-0.4142135623730935
 10
24.94221184405478
 20
20.44999945063826
 42
0.0
 10
26.86721184405473
 20
20.44999945063826
 42
0.4142135623731546
 10
27.39221184405483
 20
20.97499945063824
 42
0.0
 10
27.39221184405483
 20
22.72499945063826
 42
0.4142135623730951
 10
26.86721184405485
 20
23.24999945063826
 42
0.0
 10
24.94221184405466
 20
23.24999945063822
 42
0.4142135623730892
 10
20.74221184405473
 20
19.04999945063819
 42
0.0
 10
20.74221184405473
 20
11.34999945063828
 42
0.4142135623730969
 10
24.94221184405478
 20
7.149999450638262
 42
0.0
 10
26.86721184405473
 20
7.149999450638262
 42
0.4142135623731526
 10
27.39221184405483
 20
7.674999450638249
 42
0.0
 10
27.39221184405483
 20
9.424999450638271
 42
0.4142135623730891
 10
26.86721184405485
 20
9.949999450638259
 42
0.0
 10
24.94221184405478
 20
9.949999450638259
 42
-0.4142135623730928
 10
23.5422118440548
 20
11.34999945063824
 42
0.0
 97
        0
 92
        7
 72
     1
 73
     1
 93
        2
 10
24.24221184405473
 20
15.19999945063825
 42
1.0
 10
27.74221184405473
 20
15.19999945063825
 42
1.0
 97
        0
 92
        7
 72
     1
 73
     1
 93
       26
 10
37.31485832623275
 20
19.20504664420168
 42
0.0
 10
38.37649795937057
 20
22.56690548247128
 42
0.5069206636600134
 10
37.87586706017521
 20
23.24999945063826
 42
0.0
 10
36.17697768056598
 20
23.24999945063826
 42
0.3272098845218764
 10
35.67634678137062
 20
22.88309341880523
 42
0.0
 10
33.80807690673885
 20
16.96690548247134
 42
-0.3272098845219541
 10
33.30744600754337
 20
16.59999945063825
 42
0.0
 10
33.16721184405492
 20
16.59999945063825
 42
-0.4142135623731526
 10
32.64221184405482
 20
17.12499945063824
 42
0.0
 10
32.64221184405482
 20
22.72499945063826
 42
0.4142135623730951
 10
32.11721184405485
 20
23.24999945063826
 42
0.0
 10
30.36721184405474
 20
23.24999945063826
 42
0.4142135623730871
 10
29.84221184405475
 20
22.72499945063827
 42
0.0
 10
29.84221184405475
 20
7.674999450638249
 42
0.4142135623730891
 10
30.36721184405474
 20
7.149999450638262
 42
0.0
 10
32.11721184405473
 20
7.149999450638262
 42
0.4142135623731526
 10
32.64221184405482
 20
7.674999450638249
 42
0.0
 10
32.64221184405482
 20
13.27499945063827
 42
-0.4142135623731526
 10
33.16721184405492
 20
13.79999945063826
 42
0.0
 10
33.30744600754349
 20
13.79999945063826
 42
-0.3272098845218915
 10
33.80807690673885
 20
13.43309341880518
 42
0.0
 10
35.67634678137062
 20
7.516905482471333
 42
0.3272098845218902
 10
36.17697768056598
 20
7.149999450638262
 42
0.0
 10
37.87586706017521
 20
7.149999450638262
 42
0.5069206636600335
 10
38.37649795937057
 20
7.833093418805269
 42
0.0
 10
36.05010658089691
 20
15.19999945063839
 42
0.0
 97
        0
 92
        7
 72
     1
 73
     1
 93
        8
 10
43.49221184405474
 20
22.72499945063827
 42
0.4142135623731546
 10
42.96721184405464
 20
23.24999945063826
 42
0.0
 10
41.21721184405487
 20
23.24999945063826
 42
0.4142135623731507
 10
40.69221184405478
 20
22.72499945063827
 42
0.0
 10
40.69221184405478
 20
7.674999450638249
 42
0.4142135623731526
 10
41.21721184405487
 20
7.149999450638262
 42
0.0
 10
42.96721184405464
 20
7.149999450638262
 42
0.4142135623731526
 10
43.49221184405474
 20
7.674999450638249
 42
0.0
 97
        0
 92
        7
 72
     1
 73
     1
 93
       24
 10
48.39221184405483
 20
19.92499945063826
 42
-0.4142135623731546
 10
48.91721184405492
 20
20.44999945063826
 42
0.0
 10
51.89221184405482
 20
20.44999945063826
 42
0.4142135623730911
 10
52.41721184405481
 20
20.97499945063824
 42
0.0
 10
52.41721184405481
 20
22.72499945063826
 42
0.4142135623730952
 10
51.89221184405482
 20
23.24999945063826
 42
0.0
 10
48.39221184405483
 20
23.24999945063826
 42
0.4142135623731048
 10
45.59221184405475
 20
20.44999945063828
 42
0.0
 10
45.59221184405475
 20
18.63479742528301
 42
0.1989123673796613
 10
46.8223633630713
 20
15.66494894429946
 42
0.0
 10
49.73216133771598
 20
12.7551509696548
 42
-0.1989123673796402
 10
50.14221184405482
 20
11.76520147599372
 42
0.0
 10
50.14221184405482
 20
10.47499945063825
 42
-0.4142135623730911
 10
49.61721184405485
 20
9.949999450638259
 42
0.0
 10
46.64221184405483
 20
9.949999450638259
 42
0.4142135623731526
 10
46.11721184405474
 20
9.424999450638271
 42
0.0
 10
46.11721184405474
 20
7.674999450638249
 42
0.4142135623730891
 10
46.64221184405471
 20
7.149999450638262
 42
0.0
 10
50.14221184405482
 20
7.149999450638262
 42
0.4142135623730925
 10
52.94221184405478
 20
9.949999450638237
 42
0.0
 10
52.94221184405478
 20
11.76520147599351
 42
0.1989123673796675
 10
51.71206032503824
 20
14.73504995697716
 42
0.0
 10
48.80226235039367
 20
17.64484793162168
 42
-0.1989123673796652
 10
48.39221184405483
 20
18.63479742528284
 42
0.0
 97
        0
 92
        7
 72
     1
 73
     1
 93
       16
 10
57.84221184405476
 20
22.72499945063825
 42
0.414213562373103
 10
57.31721184405478
 20
23.24999945063826
 42
0.0
 10
55.56721184405478
 20
23.24999945063826
 42
0.4142135623730871
 10
55.0422118440548
 20
22.72499945063827
 42
0.0
 10
55.0422118440548
 20
9.949999450638237
 42
0.4142135623730926
 10
57.84221184405476
 20
7.149999450638262
 42
0.0
 10
61.34221184405475
 20
7.149999450638262
 42
0.4142135623731044
 10
64.14221184405483
 20
9.949999450638237
 42
0.0
 10
64.14221184405483
 20
22.72499945063826
 42
0.4142135623730951
 10
63.61721184405485
 20
23.24999945063826
 42
0.0
 10
61.86721184405474
 20
23.24999945063826
 42
0.4142135623730871
 10
61.34221184405475
 20
22.72499945063827
 42
0.0
 10
61.34221184405475
 20
10.99999945063823
 42
-0.414213562373088
 10
60.2922118440548
 20
9.949999450638259
 42
0.0
 10
58.89221184405482
 20
9.949999450638259
 42
-0.4142135623731197
 10
57.84221184405476
 20
10.99999945063823
 42
0.0
 97
        0
 92
        7
 72
     1
 73
     1
 93
        8
 10
69.0422118440548
 20
22.72499945063827
 42
0.4142135623730871
 10
68.51721184405483
 20
23.24999945063826
 42
0.0
 10
66.76721184405483
 20
23.24999945063826
 42
0.4142135623731507
 10
66.24221184405474
 20
22.72499945063827
 42
0.0
 10
66.24221184405474
 20
7.674999450638249
 42
0.4142135623730891
 10
66.76721184405471
 20
7.149999450638262
 42
0.0
 10
68.51721184405483
 20
7.149999450638262
 42
0.4142135623730891
 10
69.0422118440548
 20
7.674999450638249
 42
0.0
 97
        0
 75
     0
 76
     1
 52
0.0
 41
0.2
 77
     0
 78
     2
 53
45.0
 43
-900.9423046454053
 44
-13.20000054936167
 45
-0.4490128060534576
 46
0.4490128060534577
 79
     0
 53
135.0
 43
-900.9423046454053
 44
-13.20000054936167
 45
-0.4490128060534577
 46
-0.4490128060534576
 79
     0
 47
0.057451373970553
 98
        8
 10
16.07985465229694
 20
15.16717309652381
 10
22.4045146957128
 20
18.84406163308926
 10
25.16436757493329
 20
15.51188109670897
 10
30.91405967091077
 20
16.20129709707976
 10
41.83847170823037
 20
16.66090936462137
 10
46.89820058440318
 20
19.41857576704546
 10
56.55768566167399
 20
18.72915736573327
 10
67.82707930889637
 20
19.18876963327488
  0
LINE
  5
6A2
330
1A
100
AcDbEntity
  8
ZUWAKU
100
AcDbLine
 10
24.94221184405478
 20
23.24999945063822
 30
0.0
 11
26.86721184405473
 21
23.24999945063826
 31
0.0
  0
LINE
  5
6A3
330
1A
100
AcDbEntity
  8
ZUWAKU
100
AcDbLine
 10
26.86721184405473
 20
20.44999945063826
 30
0.0
 11
24.94221184405478
 21
20.44999945063826
 31
0.0
  0
LINE
  5
6A4
330
1A
100
AcDbEntity
  8
ZUWAKU
100
AcDbLine
 10
24.94221184405478
 20
9.949999450638259
 30
0.0
 11
26.86721184405473
 21
9.949999450638259
 31
0.0
  0
LINE
  5
6A5
330
1A
100
AcDbEntity
  8
ZUWAKU
100
AcDbLine
 10
26.86721184405473
 20
7.149999450638262
 30
0.0
 11
24.94221184405478
 21
7.149999450638262
 31
0.0
  0
CIRCLE
  5
6A6
330
1A
100
AcDbEntity
  8
ZUWAKU
100
AcDbCircle
 10
25.99221184405474
 20
15.19999945063825
 30
0.0
 40
1.75
  0
ARC
  5
6A7
330
1A
100
AcDbEntity
  8
ZUWAKU
100
AcDbCircle
 10
15.49221184405473
 20
18.63479742528296
 30
0.0
 40
1.399999999999999
100
AcDbArc
 50
180.0000000000016
 51
224.9999999999988
  0
LINE
  5
6A8
330
1A
100
AcDbEntity
  8
ZUWAKU
100
AcDbLine
 10
23.5422118440548
 20
19.04999945063826
 30
0.0
 11
23.5422118440548
 21
11.34999945063826
 31
0.0
  0
LINE
  5
6A9
330
1A
100
AcDbEntity
  8
ZUWAKU
100
AcDbLine
 10
20.74221184405473
 20
11.34999945063826
 30
0.0
 11
20.74221184405473
 21
19.04999945063821
 31
0.0
  0
ARC
  5
6AA
330
1A
100
AcDbEntity
  8
ZUWAKU
100
AcDbCircle
 10
15.49221184405473
 20
18.63479742528296
 30
0.0
 40
4.199999999999999
100
AcDbArc
 50
180.0
 51
225.0
  0
ARC
  5
6AB
330
1A
100
AcDbEntity
  8
ZUWAKU
100
AcDbCircle
 10
15.84221184405476
 20
9.949999450638259
 30
0.0
 40
2.799999999999999
100
AcDbArc
 50
270.0
 51
0.0
  0
ARC
  5
6AC
330
1A
100
AcDbEntity
  8
ZUWAKU
100
AcDbCircle
 10
24.94221184405478
 20
11.34999945063826
 30
0.0
 40
4.199999999999999
100
AcDbArc
 50
180.0
 51
270.0
  0
ARC
  5
6AD
330
1A
100
AcDbEntity
  8
ZUWAKU
100
AcDbCircle
 10
14.44221184405478
 20
11.76520147599356
 30
0.0
 40
4.199999999999999
100
AcDbArc
 50
0.0
 51
45.0
  0
LINE
  5
6AE
330
1A
100
AcDbEntity
  8
ZUWAKU
100
AcDbLine
 10
17.41206032503828
 20
14.73504995697708
 30
0.0
 11
14.5022623503936
 21
17.64484793162176
 31
0.0
  0
LINE
  5
6AF
330
1A
100
AcDbEntity
  8
ZUWAKU
100
AcDbLine
 10
15.84221184405476
 20
10.47499945063826
 30
0.0
 11
15.84221184405476
 21
11.7652014759936
 31
0.0
  0
ARC
  5
6B0
330
1A
100
AcDbEntity
  8
ZUWAKU
100
AcDbCircle
 10
15.31721184405478
 20
10.47499945063826
 30
0.0
 40
0.525
100
AcDbArc
 50
270.0
 51
0.0
  0
ARC
  5
6B1
330
1A
100
AcDbEntity
  8
ZUWAKU
100
AcDbCircle
 10
14.44221184405478
 20
11.7652014759936
 30
0.0
 40
1.399999999999999
100
AcDbArc
 50
0.0
 51
45.0
  0
LINE
  5
6B2
330
1A
100
AcDbEntity
  8
ZUWAKU
100
AcDbLine
 10
11.81721184405478
 20
7.67499945063826
 30
0.0
 11
11.81721184405478
 21
9.42499945063826
 31
0.0
  0
ARC
  5
6B3
330
1A
100
AcDbEntity
  8
ZUWAKU
100
AcDbCircle
 10
12.34221184405476
 20
7.67499945063826
 30
0.0
 40
0.525
100
AcDbArc
 50
180.0
 51
270.0
  0
ARC
  5
6B4
330
1A
100
AcDbEntity
  8
ZUWAKU
100
AcDbCircle
 10
12.34221184405476
 20
9.42499945063826
 30
0.0
 40
0.525
100
AcDbArc
 50
90.0
 51
180.0
  0
LINE
  5
6B5
330
1A
100
AcDbEntity
  8
ZUWAKU
100
AcDbLine
 10
12.34221184405476
 20
7.149999450638262
 30
0.0
 11
15.84221184405476
 21
7.149999450638262
 31
0.0
  0
LINE
  5
6B6
330
1A
100
AcDbEntity
  8
ZUWAKU
100
AcDbLine
 10
12.34221184405476
 20
9.949999450638259
 30
0.0
 11
15.31721184405478
 21
9.949999450638259
 31
0.0
  0
LINE
  5
6B7
330
1A
100
AcDbEntity
  8
ZUWAKU
100
AcDbLine
 10
12.52236336307123
 20
15.66494894429943
 30
0.0
 11
15.43216133771591
 21
12.75515096965477
 31
0.0
  0
LINE
  5
6B8
330
1A
100
AcDbEntity
  8
ZUWAKU
100
AcDbLine
 10
18.64221184405482
 20
9.949999450638259
 30
0.0
 11
18.64221184405482
 21
11.7652014759936
 31
0.0
  0
ARC
  5
6B9
330
1A
100
AcDbEntity
  8
ZUWAKU
100
AcDbCircle
 10
24.94221184405478
 20
11.34999945063826
 30
0.0
 40
1.399999999999999
100
AcDbArc
 50
180.0
 51
270.0
  0
ARC
  5
6BA
330
1A
100
AcDbEntity
  8
ZUWAKU
100
AcDbCircle
 10
17.59221184405475
 20
22.72499945063825
 30
0.0
 40
0.525
100
AcDbArc
 50
0.0
 51
90.0
  0
ARC
  5
6BB
330
1A
100
AcDbEntity
  8
ZUWAKU
100
AcDbCircle
 10
17.59221184405475
 20
20.97499945063825
 30
0.0
 40
0.525
100
AcDbArc
 50
270.0
 51
0.0
  0
LINE
  5
6BC
330
1A
100
AcDbEntity
  8
ZUWAKU
100
AcDbLine
 10
14.09221184405476
 20
23.24999945063826
 30
0.0
 11
17.59221184405475
 21
23.24999945063826
 31
0.0
  0
ARC
  5
6BD
330
1A
100
AcDbEntity
  8
ZUWAKU
100
AcDbCircle
 10
14.61721184405473
 20
19.92499945063826
 30
0.0
 40
0.525
100
AcDbArc
 50
90.0
 51
180.0
  0
LINE
  5
6BE
330
1A
100
AcDbEntity
  8
ZUWAKU
100
AcDbLine
 10
14.09221184405476
 20
19.92499945063826
 30
0.0
 11
14.09221184405476
 21
18.63479742528292
 31
0.0
  0
LINE
  5
6BF
330
1A
100
AcDbEntity
  8
ZUWAKU
100
AcDbLine
 10
17.59221184405475
 20
20.44999945063826
 30
0.0
 11
14.61721184405473
 21
20.44999945063826
 31
0.0
  0
LINE
  5
6C0
330
1A
100
AcDbEntity
  8
ZUWAKU
100
AcDbLine
 10
11.2922118440548
 20
20.44999945063826
 30
0.0
 11
11.2922118440548
 21
18.63479742528292
 31
0.0
  0
ARC
  5
6C1
330
1A
100
AcDbEntity
  8
ZUWAKU
100
AcDbCircle
 10
14.09221184405476
 20
20.44999945063826
 30
0.0
 40
2.799999999999999
100
AcDbArc
 50
90.0
 51
180.0
  0
LINE
  5
6C2
330
1A
100
AcDbEntity
  8
ZUWAKU
100
AcDbLine
 10
18.11721184405473
 20
22.72499945063825
 30
0.0
 11
18.11721184405473
 21
20.97499945063825
 31
0.0
  0
ARC
  5
6C3
330
1A
100
AcDbEntity
  8
ZUWAKU
100
AcDbCircle
 10
24.94221184405478
 20
19.04999945063826
 30
0.0
 40
1.399999999999999
100
AcDbArc
 50
90.0
 51
180.0
  0
ARC
  5
6C4
330
1A
100
AcDbEntity
  8
ZUWAKU
100
AcDbCircle
 10
24.94221184405478
 20
19.04999945063821
 30
0.0
 40
4.199999999999999
100
AcDbArc
 50
90.0
 51
180.0
  0
LINE
  5
6C5
330
1A
100
AcDbEntity
  8
ZUWAKU
100
AcDbLine
 10
79.32662923726184
 20
29.99999945063825
 30
0.0
 11
79.32662923726207
 21
0.7999994506383246
 31
0.0
  0
LINE
  5
6C6
330
1A
100
AcDbEntity
  8
ZUWAKU
100
AcDbLine
 10
79.52662923726188
 20
29.99999945063825
 30
0.0
 11
79.52662923726212
 21
0.7999994506383246
 31
0.0
  0
LINE
  5
6C7
330
1A
100
AcDbEntity
  8
ZUWAKU
100
AcDbLine
 10
79.12662923726202
 20
29.99999945063825
 30
0.0
 11
79.12662923726202
 21
0.7999994506383246
 31
0.0
  0
LINE
  5
6C8
330
1A
100
AcDbEntity
  8
ZUWAKU
100
AcDbLine
 10
64.14221184405483
 20
9.949999450638259
 30
0.0
 11
64.14221184405483
 21
22.72499945063825
 31
0.0
  0
LINE
  5
6C9
330
1A
100
AcDbEntity
  8
ZUWAKU
100
AcDbLine
 10
61.34221184405475
 20
22.72499945063825
 30
0.0
 11
61.34221184405475
 21
10.99999945063825
 31
0.0
  0
LINE
  5
6CA
330
1A
100
AcDbEntity
  8
ZUWAKU
100
AcDbLine
 10
69.0422118440548
 20
7.67499945063826
 30
0.0
 11
69.0422118440548
 21
22.72499945063825
 31
0.0
  0
LINE
  5
6CB
330
1A
100
AcDbEntity
  8
ZUWAKU
100
AcDbLine
 10
66.24221184405474
 20
22.72499945063825
 30
0.0
 11
66.24221184405474
 21
7.67499945063826
 31
0.0
  0
ARC
  5
6CC
330
1A
100
AcDbEntity
  8
ZUWAKU
100
AcDbCircle
 10
49.79221184405481
 20
18.63479742528296
 30
0.0
 40
1.399999999999999
100
AcDbArc
 50
180.0000000000016
 51
224.9999999999988
  0
ARC
  5
6CD
330
1A
100
AcDbEntity
  8
ZUWAKU
100
AcDbCircle
 10
49.79221184405481
 20
18.63479742528296
 30
0.0
 40
4.199999999999999
100
AcDbArc
 50
180.0
 51
225.0
  0
LINE
  5
6CE
330
1A
100
AcDbEntity
  8
ZUWAKU
100
AcDbLine
 10
37.31485832623275
 20
19.20504664420168
 30
0.0
 11
36.05010658089691
 21
15.19999945063828
 31
0.0
  0
LINE
  5
6CF
330
1A
100
AcDbEntity
  8
ZUWAKU
100
AcDbLine
 10
40.69221184405478
 20
22.72499945063825
 30
0.0
 11
40.69221184405478
 21
7.67499945063826
 31
0.0
  0
LINE
  5
6D0
330
1A
100
AcDbEntity
  8
ZUWAKU
100
AcDbLine
 10
43.49221184405474
 20
7.67499945063826
 30
0.0
 11
43.49221184405474
 21
22.72499945063825
 31
0.0
  0
LINE
  5
6D1
330
1A
100
AcDbEntity
  8
ZUWAKU
100
AcDbLine
 10
55.0422118440548
 20
22.72499945063825
 30
0.0
 11
55.0422118440548
 21
9.949999450638259
 31
0.0
  0
LINE
  5
6D2
330
1A
100
AcDbEntity
  8
ZUWAKU
100
AcDbLine
 10
57.84221184405476
 20
10.99999945063825
 30
0.0
 11
57.84221184405476
 21
22.72499945063825
 31
0.0
  0
LINE
  5
6D3
330
1A
100
AcDbEntity
  8
ZUWAKU
100
AcDbLine
 10
32.64221184405482
 20
17.12499945063826
 30
0.0
 11
32.64221184405482
 21
22.72499945063825
 31
0.0
  0
LINE
  5
6D4
330
1A
100
AcDbEntity
  8
ZUWAKU
100
AcDbLine
 10
29.84221184405475
 20
22.72499945063825
 30
0.0
 11
29.84221184405475
 21
7.67499945063826
 31
0.0
  0
LINE
  5
6D5
330
1A
100
AcDbEntity
  8
ZUWAKU
100
AcDbLine
 10
35.67634678137062
 20
22.88309341880523
 30
0.0
 11
33.80807690673885
 21
16.96690548247129
 31
0.0
  0
LINE
  5
6D6
330
1A
100
AcDbEntity
  8
ZUWAKU
100
AcDbLine
 10
60.2922118440548
 20
9.949999450638259
 30
0.0
 11
58.89221184405482
 21
9.949999450638259
 31
0.0
  0
LINE
  5
6D7
330
1A
100
AcDbEntity
  8
ZUWAKU
100
AcDbLine
 10
57.84221184405476
 20
7.149999450638262
 30
0.0
 11
61.34221184405475
 21
7.149999450638262
 31
0.0
  0
LINE
  5
6D8
330
1A
100
AcDbEntity
  8
ZUWAKU
100
AcDbLine
 10
41.21721184405475
 20
7.149999450638262
 30
0.0
 11
42.96721184405476
 21
7.149999450638262
 31
0.0
  0
LINE
  5
6D9
330
1A
100
AcDbEntity
  8
ZUWAKU
100
AcDbLine
 10
35.67634678137062
 20
7.516905482471287
 30
0.0
 11
33.80807690673885
 21
13.43309341880522
 31
0.0
  0
ARC
  5
6DA
330
1A
100
AcDbEntity
  8
ZUWAKU
100
AcDbCircle
 10
33.30744600754349
 20
17.12499945063826
 30
0.0
 40
0.525
100
AcDbArc
 50
270.0
 51
342.4744316262769
  0
LINE
  5
6DB
330
1A
100
AcDbEntity
  8
ZUWAKU
100
AcDbLine
 10
33.30744600754349
 20
16.59999945063825
 30
0.0
 11
33.1672118440548
 21
16.59999945063825
 31
0.0
  0
LINE
  5
6DC
330
1A
100
AcDbEntity
  8
ZUWAKU
100
AcDbLine
 10
33.1672118440548
 20
13.79999945063826
 30
0.0
 11
33.30744600754349
 21
13.79999945063826
 31
0.0
  0
ARC
  5
6DD
330
1A
100
AcDbEntity
  8
ZUWAKU
100
AcDbCircle
 10
33.1672118440548
 20
17.12499945063826
 30
0.0
 40
0.525
100
AcDbArc
 50
180.0
 51
270.0
  0
LINE
  5
6DE
330
1A
100
AcDbEntity
  8
ZUWAKU
100
AcDbLine
 10
30.36721184405474
 20
7.149999450638262
 30
0.0
 11
32.11721184405473
 21
7.149999450638262
 31
0.0
  0
ARC
  5
6DF
330
1A
100
AcDbEntity
  8
ZUWAKU
100
AcDbCircle
 10
32.11721184405473
 20
7.67499945063826
 30
0.0
 40
0.525
100
AcDbArc
 50
270.0
 51
0.0
  0
LINE
  5
6E0
330
1A
100
AcDbEntity
  8
ZUWAKU
100
AcDbLine
 10
32.64221184405482
 20
7.67499945063826
 30
0.0
 11
32.64221184405482
 21
13.27499945063826
 31
0.0
  0
LINE
  5
6E1
330
1A
100
AcDbEntity
  8
ZUWAKU
100
AcDbLine
 10
27.39221184405483
 20
9.42499945063826
 30
0.0
 11
27.39221184405483
 21
7.67499945063826
 31
0.0
  0
ARC
  5
6E2
330
1A
100
AcDbEntity
  8
ZUWAKU
100
AcDbCircle
 10
26.86721184405473
 20
7.67499945063826
 30
0.0
 40
0.525
100
AcDbArc
 50
270.0
 51
0.0
  0
ARC
  5
6E3
330
1A
100
AcDbEntity
  8
ZUWAKU
100
AcDbCircle
 10
26.86721184405473
 20
9.42499945063826
 30
0.0
 40
0.525
100
AcDbArc
 50
0.0
 51
90.0
  0
ARC
  5
6E4
330
1A
100
AcDbEntity
  8
ZUWAKU
100
AcDbCircle
 10
30.36721184405474
 20
7.67499945063826
 30
0.0
 40
0.525
100
AcDbArc
 50
180.0
 51
270.0
  0
ARC
  5
6E5
330
1A
100
AcDbEntity
  8
ZUWAKU
100
AcDbCircle
 10
33.30744600754349
 20
13.27499945063826
 30
0.0
 40
0.525
100
AcDbArc
 50
17.52556837372303
 51
90.0
  0
ARC
  5
6E6
330
1A
100
AcDbEntity
  8
ZUWAKU
100
AcDbCircle
 10
33.1672118440548
 20
13.27499945063826
 30
0.0
 40
0.525
100
AcDbArc
 50
90.0
 51
180.0
  0
ARC
  5
6E7
330
1A
100
AcDbEntity
  8
ZUWAKU
100
AcDbCircle
 10
41.21721184405475
 20
7.67499945063826
 30
0.0
 40
0.525
100
AcDbArc
 50
180.0
 51
270.0
  0
LINE
  5
6E8
330
1A
100
AcDbEntity
  8
ZUWAKU
100
AcDbLine
 10
36.1769776805661
 20
7.149999450638262
 30
0.0
 11
37.87586706017509
 21
7.149999450638262
 31
0.0
  0
ARC
  5
6E9
330
1A
100
AcDbEntity
  8
ZUWAKU
100
AcDbCircle
 10
37.87586706017509
 20
7.67499945063826
 30
0.0
 40
0.525
100
AcDbArc
 50
270.0
 51
17.52556837372303
  0
LINE
  5
6EA
330
1A
100
AcDbEntity
  8
ZUWAKU
100
AcDbLine
 10
38.37649795937057
 20
7.833093418805233
 30
0.0
 11
36.05010658089691
 21
15.19999945063828
 31
0.0
  0
ARC
  5
6EB
330
1A
100
AcDbEntity
  8
ZUWAKU
100
AcDbCircle
 10
36.1769776805661
 20
7.67499945063826
 30
0.0
 40
0.525
100
AcDbArc
 50
197.525568373723
 51
270.0
  0
ARC
  5
6EC
330
1A
100
AcDbEntity
  8
ZUWAKU
100
AcDbCircle
 10
57.84221184405476
 20
9.949999450638259
 30
0.0
 40
2.799999999999999
100
AcDbArc
 50
180.0
 51
270.0
  0
ARC
  5
6ED
330
1A
100
AcDbEntity
  8
ZUWAKU
100
AcDbCircle
 10
50.14221184405482
 20
9.949999450638259
 30
0.0
 40
2.799999999999999
100
AcDbArc
 50
270.0
 51
0.0
  0
LINE
  5
6EE
330
1A
100
AcDbEntity
  8
ZUWAKU
100
AcDbLine
 10
51.71206032503835
 20
14.73504995697708
 30
0.0
 11
48.80226235039356
 21
17.64484793162176
 31
0.0
  0
LINE
  5
6EF
330
1A
100
AcDbEntity
  8
ZUWAKU
100
AcDbLine
 10
50.14221184405482
 20
10.47499945063826
 30
0.0
 11
50.14221184405482
 21
11.7652014759936
 31
0.0
  0
ARC
  5
6F0
330
1A
100
AcDbEntity
  8
ZUWAKU
100
AcDbCircle
 10
48.74221184405474
 20
11.7652014759936
 30
0.0
 40
1.399999999999999
100
AcDbArc
 50
0.0
 51
45.0
  0
ARC
  5
6F1
330
1A
100
AcDbEntity
  8
ZUWAKU
100
AcDbCircle
 10
49.61721184405473
 20
10.47499945063826
 30
0.0
 40
0.525
100
AcDbArc
 50
270.0
 51
0.0
  0
LINE
  5
6F2
330
1A
100
AcDbEntity
  8
ZUWAKU
100
AcDbLine
 10
46.11721184405474
 20
7.67499945063826
 30
0.0
 11
46.11721184405474
 21
9.42499945063826
 31
0.0
  0
ARC
  5
6F3
330
1A
100
AcDbEntity
  8
ZUWAKU
100
AcDbCircle
 10
46.64221184405483
 20
7.67499945063826
 30
0.0
 40
0.525
100
AcDbArc
 50
180.0
 51
270.0
  0
ARC
  5
6F4
330
1A
100
AcDbEntity
  8
ZUWAKU
100
AcDbCircle
 10
42.96721184405476
 20
7.67499945063826
 30
0.0
 40
0.525
100
AcDbArc
 50
270.0
 51
0.0
  0
ARC
  5
6F5
330
1A
100
AcDbEntity
  8
ZUWAKU
100
AcDbCircle
 10
46.64221184405483
 20
9.42499945063826
 30
0.0
 40
0.525
100
AcDbArc
 50
90.0
 51
180.0
  0
LINE
  5
6F6
330
1A
100
AcDbEntity
  8
ZUWAKU
100
AcDbLine
 10
46.64221184405483
 20
9.949999450638259
 30
0.0
 11
49.61721184405473
 21
9.949999450638259
 31
0.0
  0
LINE
  5
6F7
330
1A
100
AcDbEntity
  8
ZUWAKU
100
AcDbLine
 10
46.64221184405483
 20
7.149999450638262
 30
0.0
 11
50.14221184405482
 21
7.149999450638262
 31
0.0
  0
LINE
  5
6F8
330
1A
100
AcDbEntity
  8
ZUWAKU
100
AcDbLine
 10
46.8223633630713
 20
15.66494894429943
 30
0.0
 11
49.73216133771598
 21
12.75515096965477
 31
0.0
  0
LINE
  5
6F9
330
1A
100
AcDbEntity
  8
ZUWAKU
100
AcDbLine
 10
52.94221184405478
 20
9.949999450638259
 30
0.0
 11
52.94221184405478
 21
11.7652014759936
 31
0.0
  0
ARC
  5
6FA
330
1A
100
AcDbEntity
  8
ZUWAKU
100
AcDbCircle
 10
48.74221184405474
 20
11.76520147599356
 30
0.0
 40
4.199999999999999
100
AcDbArc
 50
0.0
 51
45.0
  0
ARC
  5
6FB
330
1A
100
AcDbEntity
  8
ZUWAKU
100
AcDbCircle
 10
58.89221184405482
 20
10.99999945063825
 30
0.0
 40
1.049999999999999
100
AcDbArc
 50
180.0
 51
270.0
  0
ARC
  5
6FC
330
1A
100
AcDbEntity
  8
ZUWAKU
100
AcDbCircle
 10
61.34221184405475
 20
9.949999450638259
 30
0.0
 40
2.799999999999999
100
AcDbArc
 50
270.0
 51
0.0
  0
LINE
  5
6FD
330
1A
100
AcDbEntity
  8
ZUWAKU
100
AcDbLine
 10
66.76721184405483
 20
7.149999450638262
 30
0.0
 11
68.51721184405483
 21
7.149999450638262
 31
0.0
  0
ARC
  5
6FE
330
1A
100
AcDbEntity
  8
ZUWAKU
100
AcDbCircle
 10
66.76721184405483
 20
7.67499945063826
 30
0.0
 40
0.525
100
AcDbArc
 50
180.0
 51
270.0
  0
ARC
  5
6FF
330
1A
100
AcDbEntity
  8
ZUWAKU
100
AcDbCircle
 10
60.2922118440548
 20
10.99999945063825
 30
0.0
 40
1.049999999999999
100
AcDbArc
 50
270.0
 51
0.0
  0
ARC
  5
700
330
1A
100
AcDbEntity
  8
ZUWAKU
100
AcDbCircle
 10
68.51721184405483
 20
7.67499945063826
 30
0.0
 40
0.525
100
AcDbArc
 50
270.0
 51
0.0
  0
LINE
  5
701
330
1A
100
AcDbEntity
  8
ZUWAKU
100
AcDbLine
 10
42.96721184405476
 20
23.24999945063826
 30
0.0
 11
41.21721184405475
 21
23.24999945063826
 31
0.0
  0
ARC
  5
702
330
1A
100
AcDbEntity
  8
ZUWAKU
100
AcDbCircle
 10
32.11721184405473
 20
22.72499945063825
 30
0.0
 40
0.525
100
AcDbArc
 50
0.0
 51
90.0
  0
LINE
  5
703
330
1A
100
AcDbEntity
  8
ZUWAKU
100
AcDbLine
 10
32.11721184405473
 20
23.24999945063826
 30
0.0
 11
30.36721184405474
 21
23.24999945063826
 31
0.0
  0
ARC
  5
704
330
1A
100
AcDbEntity
  8
ZUWAKU
100
AcDbCircle
 10
26.86721184405473
 20
22.72499945063825
 30
0.0
 40
0.525
100
AcDbArc
 50
0.0
 51
90.0
  0
ARC
  5
705
330
1A
100
AcDbEntity
  8
ZUWAKU
100
AcDbCircle
 10
30.36721184405474
 20
22.72499945063825
 30
0.0
 40
0.525
100
AcDbArc
 50
90.0
 51
180.0
  0
ARC
  5
706
330
1A
100
AcDbEntity
  8
ZUWAKU
100
AcDbCircle
 10
26.86721184405473
 20
20.97499945063825
 30
0.0
 40
0.525
100
AcDbArc
 50
270.0
 51
0.0
  0
LINE
  5
707
330
1A
100
AcDbEntity
  8
ZUWAKU
100
AcDbLine
 10
27.39221184405483
 20
22.72499945063825
 30
0.0
 11
27.39221184405483
 21
20.97499945063825
 31
0.0
  0
ARC
  5
708
330
1A
100
AcDbEntity
  8
ZUWAKU
100
AcDbCircle
 10
41.21721184405475
 20
22.72499945063825
 30
0.0
 40
0.525
100
AcDbArc
 50
90.0
 51
180.0
  0
LINE
  5
709
330
1A
100
AcDbEntity
  8
ZUWAKU
100
AcDbLine
 10
36.1769776805661
 20
23.24999945063826
 30
0.0
 11
37.87586706017509
 21
23.24999945063826
 31
0.0
  0
ARC
  5
70A
330
1A
100
AcDbEntity
  8
ZUWAKU
100
AcDbCircle
 10
37.87586706017509
 20
22.72499945063825
 30
0.0
 40
0.525
100
AcDbArc
 50
342.4744316262769
 51
90.0
  0
LINE
  5
70B
330
1A
100
AcDbEntity
  8
ZUWAKU
100
AcDbLine
 10
38.37649795937057
 20
22.56690548247129
 30
0.0
 11
37.31485832623275
 21
19.20504664420168
 31
0.0
  0
ARC
  5
70C
330
1A
100
AcDbEntity
  8
ZUWAKU
100
AcDbCircle
 10
36.1769776805661
 20
22.72499945063825
 30
0.0
 40
0.525
100
AcDbArc
 50
90.0
 51
162.4744316262769
  0
LINE
  5
70D
330
1A
100
AcDbEntity
  8
ZUWAKU
100
AcDbLine
 10
48.39221184405483
 20
23.24999945063826
 30
0.0
 11
51.89221184405482
 21
23.24999945063826
 31
0.0
  0
LINE
  5
70E
330
1A
100
AcDbEntity
  8
ZUWAKU
100
AcDbLine
 10
51.89221184405482
 20
20.44999945063826
 30
0.0
 11
48.9172118440548
 21
20.44999945063826
 31
0.0
  0
ARC
  5
70F
330
1A
100
AcDbEntity
  8
ZUWAKU
100
AcDbCircle
 10
48.9172118440548
 20
19.92499945063826
 30
0.0
 40
0.525
100
AcDbArc
 50
90.0
 51
180.0
  0
LINE
  5
710
330
1A
100
AcDbEntity
  8
ZUWAKU
100
AcDbLine
 10
48.39221184405483
 20
19.92499945063826
 30
0.0
 11
48.39221184405483
 21
18.63479742528292
 31
0.0
  0
ARC
  5
711
330
1A
100
AcDbEntity
  8
ZUWAKU
100
AcDbCircle
 10
42.96721184405476
 20
22.72499945063825
 30
0.0
 40
0.525
100
AcDbArc
 50
0.0
 51
90.0
  0
LINE
  5
712
330
1A
100
AcDbEntity
  8
ZUWAKU
100
AcDbLine
 10
45.59221184405475
 20
20.44999945063826
 30
0.0
 11
45.59221184405475
 21
18.63479742528292
 31
0.0
  0
ARC
  5
713
330
1A
100
AcDbEntity
  8
ZUWAKU
100
AcDbCircle
 10
48.39221184405483
 20
20.44999945063826
 30
0.0
 40
2.799999999999999
100
AcDbArc
 50
90.0
 51
180.0
  0
ARC
  5
714
330
1A
100
AcDbEntity
  8
ZUWAKU
100
AcDbCircle
 10
57.31721184405478
 20
22.72499945063825
 30
0.0
 40
0.525
100
AcDbArc
 50
0.0
 51
90.0
  0
ARC
  5
715
330
1A
100
AcDbEntity
  8
ZUWAKU
100
AcDbCircle
 10
55.56721184405478
 20
22.72499945063825
 30
0.0
 40
0.525
100
AcDbArc
 50
90.0
 51
180.0
  0
LINE
  5
716
330
1A
100
AcDbEntity
  8
ZUWAKU
100
AcDbLine
 10
57.31721184405478
 20
23.24999945063826
 30
0.0
 11
55.56721184405478
 21
23.24999945063826
 31
0.0
  0
ARC
  5
717
330
1A
100
AcDbEntity
  8
ZUWAKU
100
AcDbCircle
 10
51.89221184405482
 20
22.72499945063825
 30
0.0
 40
0.525
100
AcDbArc
 50
0.0
 51
90.0
  0
ARC
  5
718
330
1A
100
AcDbEntity
  8
ZUWAKU
100
AcDbCircle
 10
51.89221184405482
 20
20.97499945063825
 30
0.0
 40
0.525
100
AcDbArc
 50
270.0
 51
0.0
  0
LINE
  5
719
330
1A
100
AcDbEntity
  8
ZUWAKU
100
AcDbLine
 10
52.41721184405481
 20
22.72499945063825
 30
0.0
 11
52.41721184405481
 21
20.97499945063825
 31
0.0
  0
LINE
  5
71A
330
1A
100
AcDbEntity
  8
ZUWAKU
100
AcDbLine
 10
68.51721184405483
 20
23.24999945063826
 30
0.0
 11
66.76721184405483
 21
23.24999945063826
 31
0.0
  0
ARC
  5
71B
330
1A
100
AcDbEntity
  8
ZUWAKU
100
AcDbCircle
 10
66.76721184405483
 20
22.72499945063825
 30
0.0
 40
0.525
100
AcDbArc
 50
90.0
 51
180.0
  0
ARC
  5
71C
330
1A
100
AcDbEntity
  8
ZUWAKU
100
AcDbCircle
 10
63.61721184405474
 20
22.72499945063825
 30
0.0
 40
0.525
100
AcDbArc
 50
0.0
 51
90.0
  0
LINE
  5
71D
330
1A
100
AcDbEntity
  8
ZUWAKU
100
AcDbLine
 10
63.61721184405474
 20
23.24999945063826
 30
0.0
 11
61.86721184405474
 21
23.24999945063826
 31
0.0
  0
ARC
  5
71E
330
1A
100
AcDbEntity
  8
ZUWAKU
100
AcDbCircle
 10
61.86721184405474
 20
22.72499945063825
 30
0.0
 40
0.525
100
AcDbArc
 50
90.0
 51
180.0
  0
ARC
  5
71F
330
1A
100
AcDbEntity
  8
ZUWAKU
100
AcDbCircle
 10
68.51721184405483
 20
22.72499945063825
 30
0.0
 40
0.525
100
AcDbArc
 50
0.0
 51
90.0
  0
TEXT
  5
720
330
1A
100
AcDbEntity
  8
MOJI
100
AcDbText
 10
239.8272023701247
 20
18.00492050804564
 30
0.0
 40
5.599999999999999
  1
飾りじょうご
 41
0.9
  7
ｽﾀｲﾙ1
100
AcDbText
  0
TEXT
  5
721
330
1A
100
AcDbEntity
  8
MOJI
100
AcDbText
 10
239.8272023701247
 20
3.204920508045677
 30
0.0
 40
5.599999999999999
  1
ＲＶ１０５－ＵＴ６０
 41
0.9
  7
ｽﾀｲﾙ1
100
AcDbText
  0
LINE
  5
722
330
1A
100
AcDbEntity
  8
ZUWAKU
100
AcDbLine
 10
208.2466009793415
 20
29.99999945063825
 30
0.0
 11
208.2466009793415
 21
0.7999994506383246
 31
0.0
  0
LINE
  5
723
330
1A
100
AcDbEntity
  8
ZUWAKU
100
AcDbLine
 10
208.6466009793414
 20
29.99999945063825
 30
0.0
 11
208.6466009793416
 21
0.7999994506383246
 31
0.0
  0
LINE
  5
724
330
1A
100
AcDbEntity
  8
ZUWAKU
100
AcDbLine
 10
208.4466009793414
 20
29.99999945063825
 30
0.0
 11
208.4466009793416
 21
0.7999994506383246
 31
0.0
  0
TEXT
  5
725
330
1A
100
AcDbEntity
  8
ZUWAKU
100
AcDbText
 10
209.7240460015512
 20
9.655355989023874
 30
0.0
 40
4.0
  1
サイズ
 41
0.9
  7
ｽﾀｲﾙ1
100
AcDbText
  0
TEXT
  5
726
330
1A
100
AcDbEntity
  8
ZUWAKU
100
AcDbText
 10
209.7240460015509
 20
24.05535598902384
 30
0.0
 40
4.0
  1
品名
 41
0.9
  7
ｽﾀｲﾙ1
100
AcDbText
  0
LINE
  5
727
330
1A
100
AcDbEntity
  8
ZUWAKU
100
AcDbLine
 10
648.8172021994778
 20
15.19999945063828
 30
0.0
 11
697.2490102378149
 21
15.19999945063829
 31
0.0
  0
LINE
  5
728
330
1A
100
AcDbEntity
  8
ZUWAKU
100
AcDbLine
 10
648.817202199478
 20
15.39999945063829
 30
0.0
 11
697.2490102378149
 21
15.39999945063829
 31
0.0
  0
LINE
  5
729
330
1A
100
AcDbEntity
  8
ZUWAKU
100
AcDbLine
 10
648.8172021994778
 20
15.59999945063829
 30
0.0
 11
697.2490102378149
 21
15.59999945063829
 31
0.0
  0
TEXT
  5
72A
330
1A
100
AcDbEntity
  8
ZUWAKU
100
AcDbText
 10
658.203937376576
 20
18.00492050804564
 30
0.0
 40
5.599999999999999
  1
　　．　　．　　
 41
0.9
  7
ｽﾀｲﾙ1
100
AcDbText
  0
TEXT
  5
72B
330
1A
100
AcDbEntity
  8
SUNPOU
100
AcDbText
 10
661.9071641742184
 20
36.65388898337175
 30
0.0
 40
6.0
  1
※b　エルボの差込み寸法を示す
100
AcDbText
  0
TEXT
  5
72C
330
1A
100
AcDbEntity
  8
SUNPOU
100
AcDbText
 10
661.9071641742184
 20
46.25388898337178
 30
0.0
 40
6.0
  1
※a　のきといの縁切り間隔寸法を示す
100
AcDbText
  0
LINE
  5
72D
330
1A
100
AcDbEntity
  8
ZUWAKU
100
AcDbLine
 10
505.1991791874145
 20
15.19999945063829
 30
0.0
 11
552.5269554553861
 21
15.19999945063829
 31
0.0
  0
LINE
  5
72E
330
1A
100
AcDbEntity
  8
ZUWAKU
100
AcDbLine
 10
505.1991791874145
 20
15.39999945063829
 30
0.0
 11
552.5269554553861
 21
15.39999945063829
 31
0.0
  0
LINE
  5
72F
330
1A
100
AcDbEntity
  8
ZUWAKU
100
AcDbLine
 10
505.1991791874145
 20
15.59999945063829
 30
0.0
 11
552.5269554553861
 21
15.59999945063829
 31
0.0
  0
TEXT
  5
730
330
1A
100
AcDbEntity
  8
MOJI
100
AcDbText
 10
464.5946256925126
 20
11.94261717229824
 30
0.0
 40
5.599999999999999
  1
ＧＱ７２□
 41
0.9
  7
ｽﾀｲﾙ1
100
AcDbText
  0
LINE
  5
731
330
1A
100
AcDbEntity
  8
ZUWAKU
100
AcDbLine
 10
447.6243636602649
 20
29.99999945063825
 30
0.0
 11
447.624363660265
 21
0.7999994506383246
 31
0.0
  0
LINE
  5
732
330
1A
100
AcDbEntity
  8
ZUWAKU
100
AcDbLine
 10
447.8243636602648
 20
29.99999945063825
 30
0.0
 11
447.8243636602651
 21
0.7999994506383246
 31
0.0
  0
LINE
  5
733
330
1A
100
AcDbEntity
  8
ZUWAKU
100
AcDbLine
 10
447.424363660265
 20
29.99999945063825
 30
0.0
 11
447.424363660265
 21
0.7999994506383246
 31
0.0
  0
TEXT
  5
734
330
1A
100
AcDbEntity
  8
MOJI
100
AcDbText
 10
528.0409076615865
 20
18.00492050804564
 30
0.0
 40
5.599999999999999
  1
Ａ３
 41
0.9
  7
ｽﾀｲﾙ1
100
AcDbText
  0
LINE
  5
735
330
1A
100
AcDbEntity
  8
ZUWAKU
100
AcDbLine
 10
504.9991791874145
 20
29.99999945063825
 30
0.0
 11
504.9991791874147
 21
0.7999994506383246
 31
0.0
  0
LINE
  5
736
330
1A
100
AcDbEntity
  8
ZUWAKU
100
AcDbLine
 10
505.1991791874145
 20
29.99999945063825
 30
0.0
 11
505.1991791874147
 21
0.7999994506383246
 31
0.0
  0
LINE
  5
737
330
1A
100
AcDbEntity
  8
ZUWAKU
100
AcDbLine
 10
504.7991791874146
 20
29.99999945063825
 30
0.0
 11
504.7991791874146
 21
0.7999994506383246
 31
0.0
  0
TEXT
  5
738
330
1A
100
AcDbEntity
  8
ZUWAKU
100
AcDbText
 10
462.6937613447807
 20
2.614070361777748
 30
0.0
 40
3.0
  1
□には色品番が入ります
 41
0.9
  7
ｽﾀｲﾙ1
100
AcDbText
  0
TEXT
  5
739
330
1A
100
AcDbEntity
  8
ZUWAKU
100
AcDbText
 10
506.6766242096243
 20
9.655355989023874
 30
0.0
 40
4.0
  1
縮尺
 41
0.9
  7
ｽﾀｲﾙ1
100
AcDbText
  0
TEXT
  5
73A
330
1A
100
AcDbEntity
  8
MOJI
100
AcDbText
 10
528.0409076615865
 20
3.204920508045677
 30
0.0
 40
5.599999999999999
  1
１/２
 41
0.9
  7
ｽﾀｲﾙ1
100
AcDbText
  0
TEXT
  5
73B
330
1A
100
AcDbEntity
  8
ZUWAKU
100
AcDbText
 10
449.3018086824745
 20
24.05535598902384
 30
0.0
 40
4.0
  1
品番
 41
0.9
  7
ｽﾀｲﾙ1
100
AcDbText
  0
TEXT
  5
73C
330
1A
100
AcDbEntity
  8
ZUWAKU
100
AcDbText
 10
506.6766242096242
 20
24.05535598902384
 30
0.0
 40
4.0
  1
用紙
 41
0.9
  7
ｽﾀｲﾙ1
100
AcDbText
  0
LINE
  5
73D
330
1A
100
AcDbEntity
  8
ZUWAKU
100
AcDbLine
 10
648.617202199478
 20
29.99999945063825
 30
0.0
 11
648.6172021994782
 21
0.7999994506383246
 31
0.0
  0
LINE
  5
73E
330
1A
100
AcDbEntity
  8
ZUWAKU
100
AcDbLine
 10
648.817202199478
 20
29.99999945063825
 30
0.0
 11
648.8172021994783
 21
0.7999994506383246
 31
0.0
  0
LINE
  5
73F
330
1A
100
AcDbEntity
  8
ZUWAKU
100
AcDbLine
 10
648.4172021994782
 20
29.99999945063825
 30
0.0
 11
648.4172021994782
 21
0.7999994506383246
 31
0.0
  0
LINE
  5
740
330
1A
100
AcDbEntity
  8
ZUWAKU
100
AcDbLine
 10
552.7269554553859
 20
29.99999945063825
 30
0.0
 11
552.7269554553861
 21
0.7999994506383246
 31
0.0
  0
LINE
  5
741
330
1A
100
AcDbEntity
  8
ZUWAKU
100
AcDbLine
 10
552.9269554553859
 20
29.99999945063825
 30
0.0
 11
552.9269554553861
 21
0.7999994506383246
 31
0.0
  0
LINE
  5
742
330
1A
100
AcDbEntity
  8
ZUWAKU
100
AcDbLine
 10
552.5269554553861
 20
29.99999945063825
 30
0.0
 11
552.5269554553861
 21
0.7999994506383246
 31
0.0
  0
TEXT
  5
743
330
1A
100
AcDbEntity
  8
ZUWAKU
100
AcDbText
 10
650.2946472216876
 20
24.05535598902384
 30
0.0
 40
4.0
  1
DATE
 41
0.9
  7
ｽﾀｲﾙ1
100
AcDbText
  0
LINE
  5
744
330
1A
100
AcDbEntity
  8
ZUWAKU
100
AcDbLine
 10
697.2490102378149
 20
29.99999945063825
 30
0.0
 11
697.2490102378149
 21
0.7999994506383246
 31
0.0
  0
LINE
  5
745
330
1A
100
AcDbEntity
  8
ZUWAKU
100
AcDbLine
 10
697.4490102378149
 20
29.99999945063825
 30
0.0
 11
697.4490102378149
 21
0.7999994506383246
 31
0.0
  0
LINE
  5
746
330
1A
100
AcDbEntity
  8
ZUWAKU
100
AcDbLine
 10
697.6490102378147
 20
29.99999945063825
 30
0.0
 11
697.649010237815
 21
0.7999994506383246
 31
0.0
  0
LINE
  5
747
330
1A
100
AcDbEntity
  8
ZUWAKU
100
AcDbLine
 10
697.8490102378148
 20
29.99999945063825
 30
0.0
 11
697.849010237815
 21
0.7999994506383246
 31
0.0
  0
TEXT
  5
748
330
1A
100
AcDbEntity
  8
ZUWAKU
100
AcDbText
 10
708.5280838815174
 20
17.55383878632506
 30
0.0
 40
6.0
  1
積水化学工業株式会社
 41
0.9
  7
ｽﾀｲﾙ1
100
AcDbText
  0
TEXT
  5
749
330
1A
100
AcDbEntity
  8
ZUWAKU
100
AcDbText
 10
708.5280838815174
 20
6.648839764492322
 30
0.0
 40
6.0
  1
建材事業部
 41
0.9
  7
ｽﾀｲﾙ1
100
AcDbText
  0
VIEWPORT
  5
22
330
17
100
AcDbEntity
 67
     1
  8
0
100
AcDbViewport
 10
313.6808219178082
 20
148.5
 30
0.0
 40
627.3616438356165
 41
297.0
 68
     2
 69
     1
1001
ACAD
1000
MVIEW
1002
{
1070
    16
1010
0.0
1020
0.0
1030
0.0
1010
0.0
1020
0.0
1030
1.0
1040
0.0
1040
297.0
1040
313.6808219178082
1040
148.5
1040
50.0
1040
0.0
1040
0.0
1070
     0
1070
   100
1070
     1
1070
     0
1070
     0
1070
     0
1070
     0
1070
     0
1040
0.0
1040
0.0
1040
0.0
1040
1.0
1040
1.0
1040
10.0
1040
10.0
1070
     0
1002
{
1002
}
1002
}
  0
VIEWPORT
  5
64
330
17
100
AcDbEntity
 67
     1
  8
VIEWPORT
100
AcDbViewport
 10
210.0
 20
148.5
 30
0.0
 40
420.0
 41
297.0
 68
     1
 69
     2
1001
ACAD
1000
MVIEW
1002
{
1070
    16
1010
0.0
1020
0.0
1030
0.0
1010
0.0
1020
0.0
1030
1.0
1040
0.0
1040
605.8799999999998
1040
420.0
1040
297.0
1040
50.0
1040
0.0
1040
0.0
1070
     0
1070
   100
1070
     1
1070
     0
1070
     0
1070
     0
1070
     0
1070
     0
1040
0.0
1040
0.0
1040
0.0
1040
10.0
1040
10.0
1040
0.0
1040
0.0
1070
     0
1002
{
1002
}
1002
}
  0
ENDSEC
  0
SECTION
  2
OBJECTS
  0
DICTIONARY
  5
C
330
0
100
AcDbDictionary
  3
ACAD_GROUP
350
D
  3
ACAD_LAYOUT
350
598
  3
ACAD_MLINESTYLE
350
E
  3
ACAD_PLOTSETTINGS
350
599
  3
ACAD_PLOTSTYLENAME
350
596
  3
ACDBHEADERROUNDTRIPXREC
350
751
  0
DICTIONARY
  5
5C7
330
1A
100
AcDbDictionary
280
     1
  3
ACAD_LAYOUTSELFREF
360
773
  0
DICTIONARY
  5
5C5
330
17
100
AcDbDictionary
280
     1
  3
ACAD_LAYOUTSELFREF
360
772
  0
DICTIONARY
  5
D
102
{ACAD_REACTORS
330
C
102
}
330
C
100
AcDbDictionary
  0
DICTIONARY
  5
598
102
{ACAD_REACTORS
330
C
102
}
330
C
100
AcDbDictionary
  0
DICTIONARY
  5
E
102
{ACAD_REACTORS
330
C
102
}
330
C
100
AcDbDictionary
  3
STANDARD
350
13
  0
DICTIONARY
  5
599
102
{ACAD_REACTORS
330
C
102
}
330
C
100
AcDbDictionary
  0
ACDBDICTIONARYWDFLT
  5
596
102
{ACAD_REACTORS
330
C
102
}
330
C
100
AcDbDictionary
281
     1
  3
Normal
350
597
100
AcDbDictionaryWithDefault
340
597
1001
ACAD
1000
TREAT_AS_HARD
1070
     0
  0
DICTIONARY
  5
751
102
{ACAD_REACTORS
330
C
102
}
330
C
100
AcDbDictionary
  3
TSTACKALIGN
350
752
  3
TSTACKSIZE
350
753
  3
HYPERLINKBASE
350
754
  3
STYLESHEET
350
755
  3
LAYOUTDICT
350
756
  3
PLOTSETDICT
350
757
  3
PLOTSTYLNAMDICT
350
758
  3
LWETCUNION
350
759
  3
INSUNITS
350
75A
  3
CEPSNTYPE
350
75B
  3
FINGERPRINTGUID
350
75C
  3
VERSIONGUID
350
75D
  3
PSVPSCALE
350
75E
  3
DIMSTYLEDATA
350
75F
  3
PUCSORTHOREF
350
760
  3
PUCSORTHOVIEW
350
761
  3
PUCSBASE
350
762
  3
PUCSORGTOP
350
763
  3
PUCSORGBOTTOM
350
764
  3
PUCSORGLEFT
350
765
  3
PUCSORGRIGHT
350
766
  3
PUCSORGFRONT
350
767
  3
PUCSORGBACK
350
768
  3
UCSORTHOREF
350
769
  3
UCSORTHOVIEW
350
76A
  3
UCSBASE
350
76B
  3
UCSORGTOP
350
76C
  3
UCSORGBOTTOM
350
76D
  3
UCSORGLEFT
350
76E
  3
UCSORGRIGHT
350
76F
  3
UCSORGFRONT
350
770
  3
UCSORGBACK
350
771
  0
XRECORD
  5
773
102
{ACAD_REACTORS
330
5C7
102
}
330
5C7
100
AcDbXrecord
340
1A
  0
XRECORD
  5
772
102
{ACAD_REACTORS
330
5C5
102
}
330
5C5
100
AcDbXrecord
340
17
  0
MLINESTYLE
  5
13
102
{ACAD_REACTORS
330
E
102
}
330
E
100
AcDbMlineStyle
  2
STANDARD
 70
     0
  3

 62
     0
 51
90.0
 52
90.0
 71
     2
 49
0.5
 62
   256
  6
BYLAYER
 49
-0.5
 62
   256
  6
BYLAYER
  0
ACDBPLACEHOLDER
  5
597
102
{ACAD_REACTORS
330
596
102
}
330
596
100
AcDbPlaceHolder
280
     0
  0
XRECORD
  5
752
102
{ACAD_REACTORS
330
751
102
}
330
751
100
AcDbXrecord
 90
        1
  0
XRECORD
  5
753
102
{ACAD_REACTORS
330
751
102
}
330
751
100
AcDbXrecord
 90
       70
  0
XRECORD
  5
754
102
{ACAD_REACTORS
330
751
102
}
330
751
100
AcDbXrecord
  1

  0
XRECORD
  5
755
102
{ACAD_REACTORS
330
751
102
}
330
751
100
AcDbXrecord
  1
systemprinter.ctb
  0
XRECORD
  5
756
102
{ACAD_REACTORS
330
751
102
}
330
751
100
AcDbXrecord
340
598
  0
XRECORD
  5
757
102
{ACAD_REACTORS
330
751
102
}
330
751
100
AcDbXrecord
340
599
  0
XRECORD
  5
758
102
{ACAD_REACTORS
330
751
102
}
330
751
100
AcDbXrecord
340
596
  0
XRECORD
  5
759
102
{ACAD_REACTORS
330
751
102
}
330
751
100
AcDbXrecord
 90
    10781
  0
XRECORD
  5
75A
102
{ACAD_REACTORS
330
751
102
}
330
751
100
AcDbXrecord
 90
        0
  0
XRECORD
  5
75B
102
{ACAD_REACTORS
330
751
102
}
330
751
100
AcDbXrecord
 90
        0
  0
XRECORD
  5
75C
102
{ACAD_REACTORS
330
751
102
}
330
751
100
AcDbXrecord
  1
{E6AB77F2-0FE8-48B4-912C-A29CF8A564B6}
  0
XRECORD
  5
75D
102
{ACAD_REACTORS
330
751
102
}
330
751
100
AcDbXrecord
  1
{313C926B-082E-4C68-BC95-9FCD03AAD029}
  0
XRECORD
  5
75E
102
{ACAD_REACTORS
330
751
102
}
330
751
100
AcDbXrecord
 40
0.0
  0
XRECORD
  5
75F
102
{ACAD_REACTORS
330
751
102
}
330
751
100
AcDbXrecord
1000
DSTYLE
1002
{
1070
   341
340
6D
1070
   343
340
6D
1070
   344
340
6D
1002
}
  0
XRECORD
  5
760
102
{ACAD_REACTORS
330
751
102
}
330
751
100
AcDbXrecord
340
0
  0
XRECORD
  5
761
102
{ACAD_REACTORS
330
751
102
}
330
751
100
AcDbXrecord
 70
     0
  0
XRECORD
  5
762
102
{ACAD_REACTORS
330
751
102
}
330
751
100
AcDbXrecord
340
0
  0
XRECORD
  5
763
102
{ACAD_REACTORS
330
751
102
}
330
751
100
AcDbXrecord
 10
0.0
 20
0.0
 30
0.0
  0
XRECORD
  5
764
102
{ACAD_REACTORS
330
751
102
}
330
751
100
AcDbXrecord
 10
0.0
 20
0.0
 30
0.0
  0
XRECORD
  5
765
102
{ACAD_REACTORS
330
751
102
}
330
751
100
AcDbXrecord
 10
0.0
 20
0.0
 30
0.0
  0
XRECORD
  5
766
102
{ACAD_REACTORS
330
751
102
}
330
751
100
AcDbXrecord
 10
0.0
 20
0.0
 30
0.0
  0
XRECORD
  5
767
102
{ACAD_REACTORS
330
751
102
}
330
751
100
AcDbXrecord
 10
0.0
 20
0.0
 30
0.0
  0
XRECORD
  5
768
102
{ACAD_REACTORS
330
751
102
}
330
751
100
AcDbXrecord
 10
0.0
 20
0.0
 30
0.0
  0
XRECORD
  5
769
102
{ACAD_REACTORS
330
751
102
}
330
751
100
AcDbXrecord
340
0
  0
XRECORD
  5
76A
102
{ACAD_REACTORS
330
751
102
}
330
751
100
AcDbXrecord
 70
     0
  0
XRECORD
  5
76B
102
{ACAD_REACTORS
330
751
102
}
330
751
100
AcDbXrecord
340
0
  0
XRECORD
  5
76C
102
{ACAD_REACTORS
330
751
102
}
330
751
100
AcDbXrecord
 10
0.0
 20
0.0
 30
0.0
  0
XRECORD
  5
76D
102
{ACAD_REACTORS
330
751
102
}
330
751
100
AcDbXrecord
 10
0.0
 20
0.0
 30
0.0
  0
XRECORD
  5
76E
102
{ACAD_REACTORS
330
751
102
}
330
751
100
AcDbXrecord
 10
0.0
 20
0.0
 30
0.0
  0
XRECORD
  5
76F
102
{ACAD_REACTORS
330
751
102
}
330
751
100
AcDbXrecord
 10
0.0
 20
0.0
 30
0.0
  0
XRECORD
  5
770
102
{ACAD_REACTORS
330
751
102
}
330
751
100
AcDbXrecord
 10
0.0
 20
0.0
 30
0.0
  0
XRECORD
  5
771
102
{ACAD_REACTORS
330
751
102
}
330
751
100
AcDbXrecord
 10
0.0
 20
0.0
 30
0.0
  0
ENDSEC
  0
EOF
