  0
SECTION
  2
HEADER
  9
$ACADVER
  1
AC1014
  9
$ACADMAINTVER
 70
     9
  9
$DWGCODEPAGE
  3
ANSI_932
  9
$INSBASE
 10
0.0
 20
0.0
 30
0.0
  9
$EXTMIN
 10
-0.0256338319411498
 20
-0.0181260584133725
 30
-0.0000000100021362
  9
$EXTMAX
 10
797.6000995110796
 20
551.6452344880035
 30
0.0000000100021363
  9
$LIMMIN
 10
0.0
 20
0.0
  9
$LIMMAX
 10
840.0
 20
594.0
  9
$ORTHOMODE
 70
     0
  9
$REGENMODE
 70
     1
  9
$FILLMODE
 70
     1
  9
$QTEXTMODE
 70
     0
  9
$MIRRTEXT
 70
     1
  9
$DRAGMODE
 70
     2
  9
$LTSCALE
 40
2.0
  9
$OSMODE
 70
    35
  9
$ATTMODE
 70
     1
  9
$TEXTSIZE
 40
6.0
  9
$TRACEWID
 40
1.0
  9
$TEXTSTYLE
  7
STANDARD
  9
$CLAYER
  8
SUNPOU
  9
$CELTYPE
  6
BYLAYER
  9
$CECOLOR
 62
   256
  9
$CELTSCALE
 40
1.0
  9
$DELOBJ
 70
     1
  9
$DISPSILH
 70
     0
  9
$DIMSCALE
 40
1.0
  9
$DIMASZ
 40
7.0
  9
$DIMEXO
 40
6.0
  9
$DIMDLI
 40
14.0
  9
$DIMRND
 40
0.0
  9
$DIMDLE
 40
0.0
  9
$DIMEXE
 40
3.0
  9
$DIMTP
 40
0.0
  9
$DIMTM
 40
0.0
  9
$DIMTXT
 40
6.0
  9
$DIMCEN
 40
150.0
  9
$DIMTSZ
 40
0.0
  9
$DIMTOL
 70
     0
  9
$DIMLIM
 70
     0
  9
$DIMTIH
 70
     0
  9
$DIMTOH
 70
     0
  9
$DIMSE1
 70
     0
  9
$DIMSE2
 70
     0
  9
$DIMTAD
 70
     3
  9
$DIMZIN
 70
     0
  9
$DIMBLK
  1

  9
$DIMASO
 70
     1
  9
$DIMSHO
 70
     1
  9
$DIMPOST
  1

  9
$DIMAPOST
  1

  9
$DIMALT
 70
     0
  9
$DIMALTD
 70
     2
  9
$DIMALTF
 40
25.4
  9
$DIMLFAC
 40
1.0
  9
$DIMTOFL
 70
     1
  9
$DIMTVP
 40
0.0
  9
$DIMTIX
 70
     0
  9
$DIMSOXD
 70
     0
  9
$DIMSAH
 70
     1
  9
$DIMBLK1
  1
OPEN
  9
$DIMBLK2
  1
OPEN
  9
$DIMSTYLE
  2
STANDARD
  9
$DIMCLRD
 70
   256
  9
$DIMCLRE
 70
   256
  9
$DIMCLRT
 70
   256
  9
$DIMTFAC
 40
1.0
  9
$DIMGAP
 40
2.0
  9
$DIMJUST
 70
     0
  9
$DIMSD1
 70
     0
  9
$DIMSD2
 70
     0
  9
$DIMTOLJ
 70
     1
  9
$DIMTZIN
 70
     0
  9
$DIMALTZ
 70
     0
  9
$DIMALTTZ
 70
     0
  9
$DIMFIT
 70
     3
  9
$DIMUPT
 70
     0
  9
$DIMUNIT
 70
     2
  9
$DIMDEC
 70
     0
  9
$DIMTDEC
 70
     0
  9
$DIMALTU
 70
     2
  9
$DIMALTTD
 70
     2
  9
$DIMTXSTY
  7
STANDARD
  9
$DIMAUNIT
 70
     0
  9
$LUNITS
 70
     2
  9
$LUPREC
 70
     4
  9
$SKETCHINC
 40
1.0
  9
$FILLETRAD
 40
20.0
  9
$AUNITS
 70
     0
  9
$AUPREC
 70
     0
  9
$MENU
  1
.
  9
$ELEVATION
 40
0.0
  9
$PELEVATION
 40
0.0
  9
$THICKNESS
 40
0.0
  9
$LIMCHECK
 70
     0
  9
$BLIPMODE
 70
     0
  9
$CHAMFERA
 40
20.0
  9
$CHAMFERB
 40
20.0
  9
$CHAMFERC
 40
40.0
  9
$CHAMFERD
 40
0.0
  9
$SKPOLY
 70
     0
  9
$TDCREATE
 40
2451201.400086805
  9
$TDUPDATE
 40
2453802.485362407
  9
$TDINDWG
 40
0.0246897222
  9
$TDUSRTIMER
 40
0.0246897222
  9
$USRTIMER
 70
     1
  9
$ANGBASE
 50
0.0
  9
$ANGDIR
 70
     0
  9
$PDMODE
 70
     0
  9
$PDSIZE
 40
0.0
  9
$PLINEWID
 40
0.0
  9
$COORDS
 70
     1
  9
$SPLFRAME
 70
     0
  9
$SPLINETYPE
 70
     6
  9
$SPLINESEGS
 70
     8
  9
$ATTDIA
 70
     0
  9
$ATTREQ
 70
     1
  9
$HANDLING
 70
 10241
  9
$HANDSEED
  5
954
  9
$SURFTAB1
 70
     6
  9
$SURFTAB2
 70
     6
  9
$SURFTYPE
 70
     6
  9
$SURFU
 70
     6
  9
$SURFV
 70
     6
  9
$UCSNAME
  2

  9
$UCSORG
 10
0.0
 20
0.0
 30
0.0
  9
$UCSXDIR
 10
1.0
 20
0.0
 30
0.0
  9
$UCSYDIR
 10
0.0
 20
1.0
 30
0.0
  9
$PUCSNAME
  2

  9
$PUCSORG
 10
0.0
 20
0.0
 30
0.0
  9
$PUCSXDIR
 10
1.0
 20
0.0
 30
0.0
  9
$PUCSYDIR
 10
0.0
 20
1.0
 30
0.0
  9
$USERI1
 70
     0
  9
$USERI2
 70
     0
  9
$USERI3
 70
     0
  9
$USERI4
 70
     0
  9
$USERI5
 70
     0
  9
$USERR1
 40
0.0
  9
$USERR2
 40
0.0
  9
$USERR3
 40
0.0
  9
$USERR4
 40
0.0
  9
$USERR5
 40
0.0
  9
$WORLDVIEW
 70
     1
  9
$SHADEDGE
 70
     3
  9
$SHADEDIF
 70
    70
  9
$TILEMODE
 70
     1
  9
$MAXACTVP
 70
    16
  9
$PINSBASE
 10
0.0
 20
0.0
 30
0.0
  9
$PLIMCHECK
 70
     0
  9
$PEXTMIN
 10
0.0
 20
0.0
 30
0.0
  9
$PEXTMAX
 10
420.0
 20
297.0
 30
0.0
  9
$PLIMMIN
 10
0.0
 20
0.0
  9
$PLIMMAX
 10
420.0
 20
297.0
  9
$UNITMODE
 70
     0
  9
$VISRETAIN
 70
     0
  9
$PLINEGEN
 70
     0
  9
$PSLTSCALE
 70
     1
  9
$TREEDEPTH
 70
  3020
  9
$PICKSTYLE
 70
     1
  9
$CMLSTYLE
  2
STANDARD
  9
$CMLJUST
 70
     0
  9
$CMLSCALE
 40
1.0
  9
$PROXYGRAPHICS
 70
     1
  9
$MEASUREMENT
 70
     1
  0
ENDSEC
  0
SECTION
  2
CLASSES
  0
CLASS
  1
ACDBDICTIONARYWDFLT
  2
AcDbDictionaryWithDefault
  3
AutoCAD 2000
 90
        0
280
     0
281
     0
  0
CLASS
  1
ACDBPLACEHOLDER
  2
AcDbPlaceHolder
  3
AutoCAD 2000
 90
        0
280
     0
281
     0
  0
CLASS
  1
LAYOUT
  2
AcDbLayout
  3
AutoCAD 2000
 90
        0
280
     0
281
     0
  0
CLASS
  1
LONG_TRANSACTION
  2
AcDbLongTransaction
  3
AutoCAD 2000
 90
        0
280
     0
281
     0
  0
CLASS
  1
LWPOLYLINE
  2
AcDbPolyline
  3
AutoCAD 2000
 90
        0
280
     0
281
     1
  0
CLASS
  1
HATCH
  2
AcDbHatch
  3
AutoCAD 2000
 90
        0
280
     0
281
     1
  0
CLASS
  1
XRECORD
  2
AcDbXrecord
  3
AutoCAD 2000
 90
        0
280
     0
281
     0
  0
CLASS
  1
LONG_TRANSACTION
  2
AcDbLongTransaction
  3
AutoCAD 2000
 90
        0
280
     0
281
     0
  0
CLASS
  1
LWPOLYLINE
  2
AcDbPolyline
  3
AutoCAD 2000
 90
        0
280
     0
281
     1
  0
CLASS
  1
HATCH
  2
AcDbHatch
  3
AutoCAD 2000
 90
        0
280
     0
281
     1
  0
CLASS
  1
XRECORD
  2
AcDbXrecord
  3
AutoCAD 2000
 90
        0
280
     0
281
     0
  0
ENDSEC
  0
SECTION
  2
TABLES
  0
TABLE
  2
VPORT
  5
8
330
0
100
AcDbSymbolTable
 70
     2
  0
VPORT
  5
923
330
8
100
AcDbSymbolTableRecord
100
AcDbViewportTableRecord
  2
*ACTIVE
 70
     0
 10
0.0
 20
0.0
 11
1.0
 21
1.0
 12
416.2363712393396
 22
275.853275869662
 13
0.0
 23
0.0
 14
5.0
 24
5.0
 15
0.0
 25
0.0
 16
0.0
 26
0.0
 36
1.0
 17
0.0
 27
0.0
 37
0.0
 40
656.379983938197
 41
1.795454545454545
 42
50.0
 43
0.0
 44
0.0
 50
0.0
 51
0.0
 71
     0
 72
   100
 73
     1
 74
     0
 75
     0
 76
     0
 77
     0
 78
     0
  0
ENDTAB
  0
TABLE
  2
LTYPE
  5
5
330
0
100
AcDbSymbolTable
 70
     3
  0
LTYPE
  5
14
330
5
100
AcDbSymbolTableRecord
100
AcDbLinetypeTableRecord
  2
BYBLOCK
 70
     0
  3

 72
    65
 73
     0
 40
0.0
  0
LTYPE
  5
15
330
5
100
AcDbSymbolTableRecord
100
AcDbLinetypeTableRecord
  2
BYLAYER
 70
     0
  3

 72
    65
 73
     0
 40
0.0
  0
LTYPE
  5
16
330
5
100
AcDbSymbolTableRecord
100
AcDbLinetypeTableRecord
  2
CONTINUOUS
 70
     0
  3
Solid line
 72
    65
 73
     0
 40
0.0
  0
LTYPE
  5
115
330
5
100
AcDbSymbolTableRecord
100
AcDbLinetypeTableRecord
  2
PHANTOM
 70
     0
  3
______  __  __  ______  __  __  ______  __  __ 
 72
    65
 73
     6
 40
2.5
 49
1.25
 74
     0
 49
-0.25
 74
     0
 49
0.25
 74
     0
 49
-0.25
 74
     0
 49
0.25
 74
     0
 49
-0.25
 74
     0
  0
LTYPE
  5
135
330
5
100
AcDbSymbolTableRecord
100
AcDbLinetypeTableRecord
  2
CENTER
 70
     0
  3
____ _ ____ _ ____ _ ____ _ ____ _ ____ _ ____ 
 72
    65
 73
     4
 40
2.0
 49
1.25
 74
     0
 49
-0.25
 74
     0
 49
0.25
 74
     0
 49
-0.25
 74
     0
  0
ENDTAB
  0
TABLE
  2
LAYER
  5
2
330
0
100
AcDbSymbolTable
 70
     9
  0
LAYER
  5
F
330
2
100
AcDbSymbolTableRecord
100
AcDbLayerTableRecord
  2
0
 70
     0
 62
     7
  6
CONTINUOUS
  0
LAYER
  5
62
330
2
100
AcDbSymbolTableRecord
100
AcDbLayerTableRecord
  2
VIEWPORT
 70
     0
 62
     7
  6
CONTINUOUS
  0
LAYER
  5
65
330
2
100
AcDbSymbolTableRecord
100
AcDbLayerTableRecord
  2
ZUWAKU
 70
     0
 62
     7
  6
CONTINUOUS
  0
LAYER
  5
143
330
2
100
AcDbSymbolTableRecord
100
AcDbLayerTableRecord
  2
SEIHIN
 70
     0
 62
     3
  6
CONTINUOUS
  0
LAYER
  5
144
330
2
100
AcDbSymbolTableRecord
100
AcDbLayerTableRecord
  2
SUNPOU
 70
     0
 62
     4
  6
CONTINUOUS
  0
LAYER
  5
145
330
2
100
AcDbSymbolTableRecord
100
AcDbLayerTableRecord
  2
NOKITOI
 70
     0
 62
     8
  6
PHANTOM
  0
LAYER
  5
4F9
330
2
100
AcDbSymbolTableRecord
100
AcDbLayerTableRecord
  2
CENTER_L
 70
     0
 62
     1
  6
CENTER
  0
LAYER
  5
511
330
2
100
AcDbSymbolTableRecord
100
AcDbLayerTableRecord
  2
DEFPOINTS
 70
     0
 62
     7
  6
CONTINUOUS
  0
LAYER
  5
7A8
330
2
100
AcDbSymbolTableRecord
100
AcDbLayerTableRecord
  2
MOJI
 70
     0
 62
     2
  6
CONTINUOUS
  0
ENDTAB
  0
TABLE
  2
STYLE
  5
3
330
0
100
AcDbSymbolTable
 70
     2
  0
STYLE
  5
10
330
3
100
AcDbSymbolTableRecord
100
AcDbTextStyleTableRecord
  2
STANDARD
 70
     0
 40
0.0
 41
1.0
 50
0.0
 71
     0
 42
6.0
  3
TXT
  4
bigfont.shx
  0
STYLE
  5
7A9
330
3
100
AcDbSymbolTableRecord
100
AcDbTextStyleTableRecord
  2
ｽﾀｲﾙ1
 70
     0
 40
0.0
 41
1.0
 50
0.0
 71
     0
 42
2.5
  3
MS PGothic.ttf
  4

1001
ACAD
1000
MS PGothic
1071
    32818
  0
ENDTAB
  0
TABLE
  2
VIEW
  5
6
330
0
100
AcDbSymbolTable
 70
     0
  0
ENDTAB
  0
TABLE
  2
UCS
  5
7
330
0
100
AcDbSymbolTable
 70
     0
  0
ENDTAB
  0
TABLE
  2
APPID
  5
9
330
0
100
AcDbSymbolTable
 70
     1
  0
APPID
  5
11
330
9
100
AcDbSymbolTableRecord
100
AcDbRegAppTableRecord
  2
ACAD
 70
     0
  0
ENDTAB
  0
TABLE
  2
DIMSTYLE
  5
A
330
0
100
AcDbSymbolTable
 70
     1
  0
DIMSTYLE
105
1D
102
{ACAD_REACTORS
330
543
330
55E
330
56B
330
578
330
588
102
}
330
A
100
AcDbSymbolTableRecord
100
AcDbDimStyleTableRecord
  2
STANDARD
 70
     0
  3

  4

  5

  6

  7

 40
1.0
 41
0.18
 42
0.0625
 43
0.38
 44
0.18
 45
0.0
 46
0.0
 47
0.0
 48
0.0
140
0.18
141
0.09
142
0.0
143
25.4
144
1.0
145
0.0
146
1.0
147
0.09
 71
     0
 72
     0
 73
     1
 74
     1
 75
     0
 76
     0
 77
     0
 78
     0
170
     0
171
     2
172
     0
173
     0
174
     0
175
     0
176
     0
177
     0
178
     0
270
     2
271
     4
272
     4
273
     2
274
     2
340
10
275
     0
280
     0
281
     0
282
     0
283
     1
284
     0
285
     0
286
     0
287
     3
288
     0
  0
ENDTAB
  0
TABLE
  2
BLOCK_RECORD
  5
1
330
0
100
AcDbSymbolTable
 70
     6
  0
BLOCK_RECORD
  5
1A
102
{ACAD_XDICTIONARY
360
618
102
}
330
1
100
AcDbSymbolTableRecord
100
AcDbBlockTableRecord
  2
*MODEL_SPACE
  0
BLOCK_RECORD
  5
17
102
{ACAD_XDICTIONARY
360
616
102
}
330
1
100
AcDbSymbolTableRecord
100
AcDbBlockTableRecord
  2
*PAPER_SPACE
  0
BLOCK_RECORD
  5
6D
330
1
100
AcDbSymbolTableRecord
100
AcDbBlockTableRecord
  2
_OPEN
  0
BLOCK_RECORD
  5
535
330
1
100
AcDbSymbolTableRecord
100
AcDbBlockTableRecord
  2
*D1
  0
BLOCK_RECORD
  5
552
330
1
100
AcDbSymbolTableRecord
100
AcDbBlockTableRecord
  2
*D2
  0
BLOCK_RECORD
  5
55F
330
1
100
AcDbSymbolTableRecord
100
AcDbBlockTableRecord
  2
*D3
  0
BLOCK_RECORD
  5
56C
330
1
100
AcDbSymbolTableRecord
100
AcDbBlockTableRecord
  2
*D4
  0
BLOCK_RECORD
  5
57A
330
1
100
AcDbSymbolTableRecord
100
AcDbBlockTableRecord
  2
*D5
  0
ENDTAB
  0
ENDSEC
  0
SECTION
  2
BLOCKS
  0
BLOCK
  5
1B
330
1A
100
AcDbEntity
  8
0
100
AcDbBlockBegin
  2
*MODEL_SPACE
 70
     0
 10
0.0
 20
0.0
 30
0.0
  3
*MODEL_SPACE
  1

  0
ENDBLK
  5
1C
330
1A
100
AcDbEntity
  8
0
100
AcDbBlockEnd
  0
BLOCK
  5
18
330
17
100
AcDbEntity
 67
     1
  8
0
100
AcDbBlockBegin
  2
*PAPER_SPACE
 70
     0
 10
0.0
 20
0.0
 30
0.0
  3
*PAPER_SPACE
  1

  0
ENDBLK
  5
19
330
17
100
AcDbEntity
 67
     1
  8
0
100
AcDbBlockEnd
  0
BLOCK
  5
6E
330
6D
100
AcDbEntity
  8
0
100
AcDbBlockBegin
  2
_OPEN
 70
     0
 10
0.0
 20
0.0
 30
0.0
  3
_OPEN
  1

  0
LINE
  5
6F
330
6D
100
AcDbEntity
  8
0
  6
BYBLOCK
 62
     0
100
AcDbLine
 10
-1.0
 20
0.1666666666666666
 30
0.0
 11
0.0
 21
0.0
 31
0.0
  0
LINE
  5
70
330
6D
100
AcDbEntity
  8
0
  6
BYBLOCK
 62
     0
100
AcDbLine
 10
0.0
 20
0.0
 30
0.0
 11
-1.0
 21
-0.1666666666666666
 31
0.0
  0
LINE
  5
71
330
6D
100
AcDbEntity
  8
0
  6
BYBLOCK
 62
     0
100
AcDbLine
 10
0.0
 20
0.0
 30
0.0
 11
-1.0
 21
0.0
 31
0.0
  0
ENDBLK
  5
72
330
6D
100
AcDbEntity
  8
0
100
AcDbBlockEnd
  0
BLOCK
  5
545
330
535
100
AcDbEntity
  8
0
100
AcDbBlockBegin
  2
*D1
 70
     1
 10
0.0
 20
0.0
 30
0.0
  3
*D1
  1

  0
LINE
  5
947
330
535
100
AcDbEntity
  8
SUNPOU
 62
     4
100
AcDbLine
 10
423.3287639171072
 20
194.3386553512477
 30
0.0
 11
410.755290701274
 21
193.6794798245315
 31
0.0
  0
LINE
  5
948
330
535
100
AcDbEntity
  8
SUNPOU
 62
     4
100
AcDbLine
 10
447.7458012156876
 20
172.1689017925512
 30
0.0
 11
417.38094160383
 21
161.1163756394517
 31
0.0
  0
ARC
  5
949
330
535
100
AcDbEntity
  8
SUNPOU
 62
     4
100
AcDbCircle
 10
523.0105250060402
 20
199.5645604167669
 30
0.0
 40
109.4093937462303
100
AcDbArc
 50
175.6682294781201
 51
179.3346321580625
  0
ARC
  5
94A
330
535
100
AcDbEntity
  8
SUNPOU
 62
     4
100
AcDbCircle
 10
523.0105250060402
 20
199.5645604167669
 30
0.0
 40
109.4093937462303
100
AcDbArc
 50
203.6674375179472
 51
207.3338401978896
  0
ARC
  5
94B
330
535
100
AcDbEntity
  8
SUNPOU
 62
     4
100
AcDbCircle
 10
523.0105250060402
 20
199.5645604167669
 30
0.0
 40
109.4093937462303
100
AcDbArc
 50
183.0010348380049
 51
200.0010348380048
  0
INSERT
  5
94C
330
535
100
AcDbEntity
  8
SUNPOU
 62
     4
100
AcDbBlockReference
  2
_OPEN
 10
413.7511764692781
 20
193.8365418029687
 30
0.0
 41
7.0
 42
7.0
 43
7.0
 50
271.1678334980337
  0
INSERT
  5
94D
330
535
100
AcDbEntity
  8
SUNPOU
 62
     4
100
AcDbBlockReference
  2
_OPEN
 10
420.2000009337115
 20
162.1424869855581
 30
0.0
 41
7.0
 42
7.0
 43
7.0
 50
111.834236177976
  0
MTEXT
  5
94E
330
535
100
AcDbEntity
  8
SUNPOU
 62
     4
100
AcDbMText
 10
420.697556658893
 20
178.7468273401072
 30
0.0
 40
6.0
 41
0.0
 71
     5
 72
     1
  1
\A1;17°
 11
0.1993856331285451
 21
-0.9799211036108616
 31
0.0
  0
POINT
  5
94F
330
535
100
AcDbEntity
  8
DEFPOINTS
 62
     0
100
AcDbPoint
 10
414.8506961918
 20
183.0761744802375
 30
0.0
  0
POINT
  5
950
330
535
100
AcDbEntity
  8
DEFPOINTS
 62
     0
100
AcDbPoint
 10
429.3205354531153
 20
194.652779308122
 30
0.0
  0
POINT
  5
951
330
535
100
AcDbEntity
  8
DEFPOINTS
 62
     0
100
AcDbPoint
 10
453.3839198754505
 20
174.221124484764
 30
0.0
  0
POINT
  5
952
330
535
100
AcDbEntity
  8
DEFPOINTS
 62
     0
100
AcDbPoint
 10
516.7079249795131
 20
197.2704726944408
 30
0.0
  0
POINT
  5
953
330
535
100
AcDbEntity
  8
DEFPOINTS
 62
     0
100
AcDbPoint
 10
496.616559929569
 20
198.180833300738
 30
0.0
  0
ENDBLK
  5
551
330
535
100
AcDbEntity
  8
0
100
AcDbBlockEnd
  0
BLOCK
  5
5C0
330
552
100
AcDbEntity
  8
0
100
AcDbBlockBegin
  2
*D2
 70
     1
 10
0.0
 20
0.0
 30
0.0
  3
*D2
  1

  0
LINE
  5
5C1
330
552
100
AcDbEntity
  8
0
  6
BYBLOCK
 62
     4
100
AcDbLine
 10
567.2106249795129
 20
287.6429782927116
 30
0.0
 11
604.8265303333565
 21
287.6429782927116
 31
0.0
  0
LINE
  5
5C2
330
552
100
AcDbEntity
  8
0
  6
BYBLOCK
 62
     4
100
AcDbLine
 10
515.7079249795129
 20
194.7225378756846
 30
0.0
 11
604.8265303333565
 21
194.7225378756846
 31
0.0
  0
LINE
  5
5C3
330
552
100
AcDbEntity
  8
0
  6
BYBLOCK
 62
     4
100
AcDbLine
 10
601.8265303333564
 20
280.6429782927116
 30
0.0
 11
601.8265303333564
 21
201.7225378756846
 31
0.0
  0
INSERT
  5
5C4
330
552
100
AcDbEntity
  8
0
  6
BYBLOCK
 62
     4
100
AcDbBlockReference
  2
_OPEN
 10
601.8265303333564
 20
287.6429782927116
 30
0.0
 41
7.0
 42
7.0
 43
7.0
 50
90.0
  0
INSERT
  5
5C5
330
552
100
AcDbEntity
  8
0
  6
BYBLOCK
 62
     4
100
AcDbBlockReference
  2
_OPEN
 10
601.8265303333564
 20
194.7225378756846
 30
0.0
 41
7.0
 42
7.0
 43
7.0
 50
270.0
  0
MTEXT
  5
5C6
330
552
100
AcDbEntity
  8
0
  6
BYBLOCK
 62
     4
100
AcDbMText
 10
596.8265303333565
 20
241.1827580841981
 30
0.0
 40
6.0
 41
0.0
 71
     5
 72
     5
  1
\A1;93
 11
0.0
 21
1.0
 31
0.0
1001
ACAD
1000
MTEXTBEGIN
1070
    73
1070
     1
1070
    44
1040
1.0
1070
    74
1070
     0
1000
MTEXTEND
1000
MTEXTBEGIN
1070
    73
1070
     1
1070
    44
1040
1.0
1070
    74
1070
     0
1000
MTEXTEND
  0
POINT
  5
5C7
330
552
100
AcDbEntity
  8
DEFPOINTS
  6
BYBLOCK
 62
     0
100
AcDbPoint
 10
561.210624979513
 20
287.6429782927116
 30
0.0
  0
POINT
  5
5C8
330
552
100
AcDbEntity
  8
DEFPOINTS
  6
BYBLOCK
 62
     0
100
AcDbPoint
 10
509.707924979513
 20
194.7225378756846
 30
0.0
  0
POINT
  5
5C9
330
552
100
AcDbEntity
  8
DEFPOINTS
  6
BYBLOCK
 62
     0
100
AcDbPoint
 10
601.8265303333564
 20
194.7225378756846
 30
0.0
  0
ENDBLK
  5
5CA
330
552
100
AcDbEntity
  8
0
100
AcDbBlockEnd
  0
BLOCK
  5
5D6
330
55F
100
AcDbEntity
  8
0
100
AcDbBlockBegin
  2
*D3
 70
     1
 10
0.0
 20
0.0
 30
0.0
  3
*D3
  1

  0
LINE
  5
5D7
330
55F
100
AcDbEntity
  8
0
  6
BYBLOCK
 62
     4
100
AcDbLine
 10
563.310224979513
 20
292.0975842927115
 30
0.0
 11
563.310224979513
 21
322.2154939488302
 31
0.0
  0
LINE
  5
5D8
330
55F
100
AcDbEntity
  8
0
  6
BYBLOCK
 62
     4
100
AcDbLine
 10
440.105324979513
 20
292.0975842927115
 30
0.0
 11
440.105324979513
 21
322.2154939488302
 31
0.0
  0
LINE
  5
5D9
330
55F
100
AcDbEntity
  8
0
  6
BYBLOCK
 62
     4
100
AcDbLine
 10
556.310224979513
 20
319.2154939488302
 30
0.0
 11
447.105324979513
 21
319.2154939488302
 31
0.0
  0
INSERT
  5
5DA
330
55F
100
AcDbEntity
  8
0
  6
BYBLOCK
 62
     4
100
AcDbBlockReference
  2
_OPEN
 10
563.310224979513
 20
319.2154939488302
 30
0.0
 41
7.0
 42
7.0
 43
7.0
  0
INSERT
  5
5DB
330
55F
100
AcDbEntity
  8
0
  6
BYBLOCK
 62
     4
100
AcDbBlockReference
  2
_OPEN
 10
440.105324979513
 20
319.2154939488302
 30
0.0
 41
7.0
 42
7.0
 43
7.0
 50
180.0
  0
MTEXT
  5
5DC
330
55F
100
AcDbEntity
  8
0
  6
BYBLOCK
 62
     4
100
AcDbMText
 10
501.707774979513
 20
324.2154939488302
 30
0.0
 40
6.0
 41
0.0
 71
     5
 72
     5
  1
\A1;123
1001
ACAD
1000
MTEXTBEGIN
1070
    73
1070
     1
1070
    44
1040
1.0
1070
    74
1070
     0
1000
MTEXTEND
1000
MTEXTBEGIN
1070
    73
1070
     1
1070
    44
1040
1.0
1070
    74
1070
     0
1000
MTEXTEND
  0
POINT
  5
5DD
330
55F
100
AcDbEntity
  8
DEFPOINTS
  6
BYBLOCK
 62
     0
100
AcDbPoint
 10
563.310224979513
 20
286.0975842927115
 30
0.0
  0
POINT
  5
5DE
330
55F
100
AcDbEntity
  8
DEFPOINTS
  6
BYBLOCK
 62
     0
100
AcDbPoint
 10
440.105324979513
 20
286.0975842927115
 30
0.0
  0
POINT
  5
5DF
330
55F
100
AcDbEntity
  8
DEFPOINTS
  6
BYBLOCK
 62
     0
100
AcDbPoint
 10
440.105324979513
 20
319.2154939488302
 30
0.0
  0
ENDBLK
  5
5E0
330
55F
100
AcDbEntity
  8
0
100
AcDbBlockEnd
  0
BLOCK
  5
5CB
330
56C
100
AcDbEntity
  8
0
100
AcDbBlockBegin
  2
*D4
 70
     1
 10
0.0
 20
0.0
 30
0.0
  3
*D4
  1

  0
LINE
  5
5CC
330
56C
100
AcDbEntity
  8
0
  6
BYBLOCK
 62
     4
100
AcDbLine
 10
319.707824979513
 20
295.1428842927115
 30
0.0
 11
319.707824979513
 21
322.2154939488302
 31
0.0
  0
LINE
  5
5CD
330
56C
100
AcDbEntity
  8
0
  6
BYBLOCK
 62
     4
100
AcDbLine
 10
199.707724979513
 20
295.1428842927115
 30
0.0
 11
199.707724979513
 21
322.2154939488302
 31
0.0
  0
LINE
  5
5CE
330
56C
100
AcDbEntity
  8
0
  6
BYBLOCK
 62
     4
100
AcDbLine
 10
312.707824979513
 20
319.2154939488302
 30
0.0
 11
206.707724979513
 21
319.2154939488302
 31
0.0
  0
INSERT
  5
5CF
330
56C
100
AcDbEntity
  8
0
  6
BYBLOCK
 62
     4
100
AcDbBlockReference
  2
_OPEN
 10
319.707824979513
 20
319.2154939488302
 30
0.0
 41
7.0
 42
7.0
 43
7.0
  0
INSERT
  5
5D0
330
56C
100
AcDbEntity
  8
0
  6
BYBLOCK
 62
     4
100
AcDbBlockReference
  2
_OPEN
 10
199.707724979513
 20
319.2154939488302
 30
0.0
 41
7.0
 42
7.0
 43
7.0
 50
180.0
  0
MTEXT
  5
5D1
330
56C
100
AcDbEntity
  8
0
  6
BYBLOCK
 62
     4
100
AcDbMText
 10
259.707774979513
 20
324.2154939488302
 30
0.0
 40
6.0
 41
0.0
 71
     5
 72
     5
  1
\A1;120
1001
ACAD
1000
MTEXTBEGIN
1070
    73
1070
     1
1070
    44
1040
1.0
1070
    74
1070
     0
1000
MTEXTEND
1000
MTEXTBEGIN
1070
    73
1070
     1
1070
    44
1040
1.0
1070
    74
1070
     0
1000
MTEXTEND
  0
POINT
  5
5D2
330
56C
100
AcDbEntity
  8
DEFPOINTS
  6
BYBLOCK
 62
     0
100
AcDbPoint
 10
319.707824979513
 20
289.1428842927115
 30
0.0
  0
POINT
  5
5D3
330
56C
100
AcDbEntity
  8
DEFPOINTS
  6
BYBLOCK
 62
     0
100
AcDbPoint
 10
199.707724979513
 20
289.1428842927115
 30
0.0
  0
POINT
  5
5D4
330
56C
100
AcDbEntity
  8
DEFPOINTS
  6
BYBLOCK
 62
     0
100
AcDbPoint
 10
199.707724979513
 20
319.2154939488302
 30
0.0
  0
ENDBLK
  5
5D5
330
56C
100
AcDbEntity
  8
0
100
AcDbBlockEnd
  0
BLOCK
  5
5A3
330
57A
100
AcDbEntity
  8
0
100
AcDbBlockBegin
  2
*D5
 70
     1
 10
0.0
 20
0.0
 30
0.0
  3
*D5
  1

  0
LINE
  5
5A4
330
57A
100
AcDbEntity
  8
0
  6
BYBLOCK
 62
     4
100
AcDbLine
 10
491.7523558496358
 20
147.7475322114097
 30
0.0
 11
507.4348660157444
 21
104.6604276702701
 31
0.0
  0
LINE
  5
5A5
330
57A
100
AcDbEntity
  8
0
  6
BYBLOCK
 62
     4
100
AcDbLine
 10
501.149275985139
 20
151.1677503282811
 30
0.0
 11
516.8317861512475
 21
108.0806457871416
 31
0.0
  0
LINE
  5
5A6
330
57A
100
AcDbEntity
  8
0
  6
BYBLOCK
 62
     4
100
AcDbLine
 10
499.8309564858308
 20
105.0853510291111
 30
0.0
 11
493.2531123909787
 21
102.6911983473011
 31
0.0
  0
LINE
  5
5A7
330
57A
100
AcDbEntity
  8
0
  6
BYBLOCK
 62
     4
100
AcDbLine
 10
522.3835648110383
 20
113.2938745096025
 30
0.0
 11
546.0638035525063
 21
121.9128241641186
 31
0.0
  0
LINE
  5
5A8
330
57A
100
AcDbEntity
  8
0
  6
BYBLOCK
 62
     4
100
AcDbLine
 10
506.408800580683
 20
107.4795037109211
 30
0.0
 11
515.8057207161862
 21
110.8997218277925
 31
0.0
  0
INSERT
  5
5A9
330
57A
100
AcDbEntity
  8
0
  6
BYBLOCK
 62
     4
100
AcDbBlockReference
  2
_OPEN
 10
506.408800580683
 20
107.4795037109211
 30
0.0
 41
7.0
 42
7.0
 43
7.0
 50
20.0001017248619
  0
INSERT
  5
5AA
330
57A
100
AcDbEntity
  8
0
  6
BYBLOCK
 62
     4
100
AcDbBlockReference
  2
_OPEN
 10
515.8057207161862
 20
110.8997218277925
 30
0.0
 41
7.0
 42
7.0
 43
7.0
 50
200.0001017248618
  0
MTEXT
  5
5AB
330
57A
100
AcDbEntity
  8
0
  6
BYBLOCK
 62
     4
100
AcDbMText
 10
535.8024971707627
 20
123.4988857455171
 30
0.0
 40
6.0
 41
0.0
 71
     5
 72
     5
  1
\A1;※10
 11
0.9396920135503144
 21
0.3420218116871435
 31
0.0
1001
ACAD
1000
MTEXTBEGIN
1070
    73
1070
     1
1070
    44
1040
1.0
1070
    74
1070
     0
1000
MTEXTEND
1000
MTEXTBEGIN
1070
    73
1070
     1
1070
    44
1040
1.0
1070
    74
1070
     0
1000
MTEXTEND
  0
POINT
  5
5AC
330
57A
100
AcDbEntity
  8
DEFPOINTS
  6
BYBLOCK
 62
     0
100
AcDbPoint
 10
489.7002249795129
 20
153.3856842927115
 30
0.0
  0
POINT
  5
5AD
330
57A
100
AcDbEntity
  8
DEFPOINTS
  6
BYBLOCK
 62
     0
100
AcDbPoint
 10
499.0971451150161
 20
156.805902409583
 30
0.0
  0
POINT
  5
5AE
330
57A
100
AcDbEntity
  8
DEFPOINTS
  6
BYBLOCK
 62
     0
100
AcDbPoint
 10
515.8057207161862
 20
110.8997218277925
 30
0.0
  0
ENDBLK
  5
5AF
330
57A
100
AcDbEntity
  8
0
100
AcDbBlockEnd
  0
ENDSEC
  0
SECTION
  2
ENTITIES
  0
LINE
  5
332
330
1A
100
AcDbEntity
  8
SEIHIN
  6
CONTINUOUS
 62
     3
100
AcDbLine
 10
199.707824979513
 20
287.6429842927116
 30
0.0
 11
259.707824979513
 21
287.6428842927115
 31
0.0
  0
LINE
  5
333
330
1A
100
AcDbEntity
  8
SEIHIN
  6
CONTINUOUS
 62
     3
100
AcDbLine
 10
259.707824979513
 20
238.3342842927115
 30
0.0
 11
226.707724979513
 21
238.3343785784421
 31
0.0
  0
LINE
  5
334
330
1A
100
AcDbEntity
  8
SEIHIN
  6
CONTINUOUS
 62
     3
100
AcDbLine
 10
238.852924979513
 20
211.9760842927115
 30
0.0
 11
259.707724979513
 21
211.9760842927115
 31
0.0
  0
LINE
  5
335
330
1A
100
AcDbEntity
  8
SEIHIN
  6
CONTINUOUS
 62
     3
100
AcDbLine
 10
224.707724979513
 20
216.9462842927115
 30
0.0
 11
259.707724979513
 21
216.9462842927115
 31
0.0
  0
LINE
  5
336
330
1A
100
AcDbEntity
  8
SEIHIN
  6
CONTINUOUS
 62
     3
100
AcDbLine
 10
237.604624979513
 20
213.5260842927116
 30
0.0
 11
259.707724979513
 21
213.5260842927116
 31
0.0
  0
LINE
  5
337
330
1A
100
AcDbEntity
  8
SEIHIN
  6
CONTINUOUS
 62
     3
100
AcDbLine
 10
224.707724979513
 20
226.9462842927115
 30
0.0
 11
259.707724979513
 21
226.9462842927115
 31
0.0
  0
LINE
  5
338
330
1A
100
AcDbEntity
  8
SEIHIN
  6
CONTINUOUS
 62
     3
100
AcDbLine
 10
259.707824979513
 20
267.9428842927115
 30
0.0
 11
204.707624979513
 21
267.9429842927115
 31
0.0
  0
ELLIPSE
  5
339
330
1A
100
AcDbEntity
  8
SEIHIN
  6
CONTINUOUS
 62
     3
100
AcDbEllipse
 10
259.707584979513
 20
186.1234372927116
 30
0.0
 11
26.55019793234304
 21
0.0
 31
0.0
210
0.0
220
0.0
230
1.0
 40
0.939736
 41
-2.949199592240726
 42
-1.570798578748294
  0
ELLIPSE
  5
33A
330
1A
100
AcDbEntity
  8
SEIHIN
  6
CONTINUOUS
 62
     3
100
AcDbEllipse
 10
259.707636979513
 20
176.6154182927116
 30
0.0
 11
-27.84984810743857
 21
0.0000365048692966
 31
0.0
210
0.0
220
0.0
230
1.0
 40
0.939677
 41
-1.57079465634836
 42
1.570786347734947
  0
ELLIPSE
  5
33B
330
1A
100
AcDbEntity
  8
SEIHIN
  6
CONTINUOUS
 62
     3
100
AcDbEllipse
 10
259.707582979513
 20
177.9835912927115
 30
0.0
 11
-28.34974540610323
 21
0.0000371601452253
 31
0.0
210
0.0
220
0.0
230
1.0
 40
0.9396830000000001
 41
-1.570796566680775
 42
0.5549332553778702
  0
ELLIPSE
  5
33C
330
1A
100
AcDbEntity
  8
SEIHIN
  6
CONTINUOUS
 62
     3
100
AcDbEllipse
 10
259.707584979513
 20
176.6154552927116
 30
0.0
 11
26.54972232261916
 21
0.0
 31
0.0
210
0.0
220
0.0
230
1.0
 40
0.939736
 41
1.570794812267129
 42
4.712390494916236
  0
LINE
  5
33D
330
1A
100
AcDbEntity
  8
SEIHIN
  6
CONTINUOUS
 62
     3
100
AcDbLine
 10
236.707724979513
 20
213.5260842927116
 30
0.0
 11
236.707724979513
 21
216.9462842927115
 31
0.0
  0
ARC
  5
33E
330
1A
100
AcDbEntity
  8
SEIHIN
  6
CONTINUOUS
 62
     3
100
AcDbCircle
 10
227.723924979513
 20
217.4863842927115
 30
0.0
 40
9.000017999999998
100
AcDbArc
 50
275.645727
 51
351.1405299999999
  0
LINE
  5
33F
330
1A
100
AcDbEntity
  8
SEIHIN
  6
CONTINUOUS
 62
     3
100
AcDbLine
 10
224.707724979513
 20
238.3342842927115
 30
0.0
 11
224.707724979513
 21
203.9462842927115
 31
0.0
  0
LINE
  5
340
330
1A
100
AcDbEntity
  8
SEIHIN
  6
CONTINUOUS
 62
     3
100
AcDbLine
 10
229.357724979513
 20
202.8203842927116
 30
0.0
 11
229.357724979513
 21
164.0914842927115
 31
0.0
  0
LINE
  5
341
330
1A
100
AcDbEntity
  8
SEIHIN
  6
CONTINUOUS
 62
     3
100
AcDbLine
 10
224.707724979513
 20
203.9462842927115
 30
0.0
 11
227.644524979513
 21
162.7324842927116
 31
0.0
  0
LINE
  5
342
330
1A
100
AcDbEntity
  8
SEIHIN
  6
CONTINUOUS
 62
     3
100
AcDbLine
 10
227.707624979513
 20
161.8457842927115
 30
0.0
 11
227.707724979513
 21
207.5348842927116
 31
0.0
  0
ARC
  5
343
330
1A
100
AcDbEntity
  8
SEIHIN
  6
CONTINUOUS
 62
     3
100
AcDbCircle
 10
227.723824979513
 20
152.8457842927115
 30
0.0
 40
9.000036999999998
100
AcDbArc
 50
8.858742999999998
 51
84.732199
  0
ARC
  5
344
330
1A
100
AcDbEntity
  8
SEIHIN
  6
CONTINUOUS
 62
     3
100
AcDbCircle
 10
227.723824979513
 20
152.8457842927115
 30
0.0
 40
10.55000399999999
100
AcDbArc
 50
15.517047
 51
76.81837800000001
  0
ARC
  5
345
330
1A
100
AcDbEntity
  8
SEIHIN
  6
CONTINUOUS
 62
     3
100
AcDbCircle
 10
228.641923979513
 20
162.8034852927116
 30
0.0
 40
0.999923
100
AcDbArc
 50
184.0717709999999
 51
264.732459
  0
ARC
  5
346
330
1A
100
AcDbEntity
  8
SEIHIN
  6
CONTINUOUS
 62
     3
100
AcDbCircle
 10
230.357724979513
 20
164.0914842927115
 30
0.0
 40
1.000029999999999
100
AcDbArc
 50
180.0
 51
256.815577
  0
LINE
  5
347
330
1A
100
AcDbEntity
  8
SEIHIN
  6
CONTINUOUS
 62
     3
100
AcDbLine
 10
238.852924979513
 20
154.9357842927116
 30
0.0
 11
244.108524979513
 21
154.9357842927116
 31
0.0
  0
LINE
  5
348
330
1A
100
AcDbEntity
  8
SEIHIN
  6
CONTINUOUS
 62
     3
100
AcDbLine
 10
237.604624979513
 20
153.3857842927116
 30
0.0
 11
246.8819249795129
 21
153.3857842927116
 31
0.0
  0
ARC
  5
349
330
1A
100
AcDbEntity
  8
SEIHIN
  6
CONTINUOUS
 62
     3
100
AcDbCircle
 10
237.604624979513
 20
154.3857842927116
 30
0.0
 40
1.000013999999999
100
AcDbArc
 50
188.8585469999999
 51
270.0
  0
ARC
  5
34A
330
1A
100
AcDbEntity
  8
SEIHIN
  6
CONTINUOUS
 62
     3
100
AcDbCircle
 10
238.852924979513
 20
155.9357842927115
 30
0.0
 40
1.000034
100
AcDbArc
 50
195.520431
 51
270.0
  0
ELLIPSE
  5
34B
330
1A
100
AcDbEntity
  8
SEIHIN
  6
CONTINUOUS
 62
     3
100
AcDbEllipse
 10
259.7076519795129
 20
188.9035912927116
 30
0.0
 11
-28.35013986778376
 21
0.0000371606622759
 31
0.0
210
0.0
220
0.0
230
0.9999999999999998
 40
0.9396830000000001
 41
-1.047318564206524
 42
-0.0000020993618432
  0
LINE
  5
34C
330
1A
100
AcDbEntity
  8
SEIHIN
  6
CONTINUOUS
 62
     3
100
AcDbLine
 10
231.357724979513
 20
188.9035842927116
 30
0.0
 11
231.357724979513
 21
177.9835842927116
 31
0.0
  0
LINE
  5
34D
330
1A
100
AcDbEntity
  8
SEIHIN
  6
CONTINUOUS
 62
     3
100
AcDbLine
 10
237.810524979513
 20
172.0142842927116
 30
0.0
 11
236.606324979513
 21
188.9125842927115
 31
0.0
  0
ARC
  5
34E
330
1A
100
AcDbEntity
  8
SEIHIN
  6
CONTINUOUS
 62
     3
100
AcDbCircle
 10
227.723924979513
 20
214.0660842927116
 30
0.0
 40
8.999959999999999
100
AcDbArc
 50
275.64579
 51
351.1411589999999
  0
ARC
  5
34F
330
1A
100
AcDbEntity
  8
SEIHIN
  6
CONTINUOUS
 62
     3
100
AcDbCircle
 10
227.723924979513
 20
214.0660842927116
 30
0.0
 40
10.549958
100
AcDbArc
 50
283.181093
 51
344.4822849999999
  0
ARC
  5
350
330
1A
100
AcDbEntity
  8
SEIHIN
  6
CONTINUOUS
 62
     3
100
AcDbCircle
 10
230.357724979513
 20
202.8203842927116
 30
0.0
 40
1.000029999999999
100
AcDbArc
 50
103.1844229999999
 51
180.0
  0
ARC
  5
351
330
1A
100
AcDbEntity
  8
SEIHIN
  6
CONTINUOUS
 62
     3
100
AcDbCircle
 10
228.707724979513
 20
204.1145842927116
 30
0.0
 40
1.000026
100
AcDbArc
 50
95.64674399999999
 51
180.0
  0
ARC
  5
352
330
1A
100
AcDbEntity
  8
SEIHIN
  6
CONTINUOUS
 62
     3
100
AcDbCircle
 10
228.707724979513
 20
207.5348842927116
 30
0.0
 40
0.9999769999999999
100
AcDbArc
 50
95.647307
 51
180.0
  0
ARC
  5
353
330
1A
100
AcDbEntity
  8
SEIHIN
  6
CONTINUOUS
 62
     3
100
AcDbCircle
 10
237.604624979513
 20
212.5260842927116
 30
0.0
 40
1.000013999999999
100
AcDbArc
 50
90.0
 51
171.141453
  0
ARC
  5
354
330
1A
100
AcDbEntity
  8
SEIHIN
  6
CONTINUOUS
 62
     3
100
AcDbCircle
 10
238.852924979513
 20
210.9760842927115
 30
0.0
 40
0.9999719999999999
100
AcDbArc
 50
90.0
 51
164.483557
  0
LINE
  5
355
330
1A
100
AcDbEntity
  8
SEIHIN
  6
CONTINUOUS
 62
     3
100
AcDbLine
 10
204.707724979513
 20
287.6428842927115
 30
0.0
 11
204.707724979513
 21
229.9429842927116
 31
0.0
  0
LINE
  5
356
330
1A
100
AcDbEntity
  8
SEIHIN
  6
CONTINUOUS
 62
     3
100
AcDbLine
 10
199.707724979513
 20
230.5429842927115
 30
0.0
 11
199.707724979513
 21
289.1428842927115
 31
0.0
  0
LINE
  5
357
330
1A
100
AcDbEntity
  8
SEIHIN
  6
CONTINUOUS
 62
     3
100
AcDbLine
 10
223.207724979513
 20
229.9429842927116
 30
0.0
 11
204.707624979513
 21
229.9429842927116
 31
0.0
  0
LINE
  5
358
330
1A
100
AcDbEntity
  8
SEIHIN
  6
CONTINUOUS
 62
     3
100
AcDbLine
 10
199.707724979513
 20
230.5429842927115
 30
0.0
 11
204.707624979513
 21
229.9429842927116
 31
0.0
  0
ARC
  5
359
330
1A
100
AcDbEntity
  8
SEIHIN
  6
CONTINUOUS
 62
     3
100
AcDbCircle
 10
223.207724979513
 20
228.4429842927115
 30
0.0
 40
1.5
100
AcDbArc
 50
0.0
 51
90.0
  0
ARC
  5
35A
330
1A
100
AcDbEntity
  8
SEIHIN
  6
CONTINUOUS
 62
     3
100
AcDbCircle
 10
237.604624979513
 20
215.9462842927116
 30
0.0
 40
1.000013999999999
100
AcDbArc
 50
90.0
 51
171.141453
  0
LINE
  5
35B
330
1A
100
AcDbEntity
  8
SEIHIN
  6
CONTINUOUS
 62
     3
100
AcDbLine
 10
219.707724979513
 20
289.1429842927116
 30
0.0
 11
199.707824979513
 21
289.1429842927116
 31
0.0
  0
LINE
  5
35C
330
1A
100
AcDbEntity
  8
SEIHIN
  6
CONTINUOUS
 62
     3
100
AcDbLine
 10
199.707824979513
 20
268.5429842927116
 30
0.0
 11
204.707624979513
 21
267.9429842927115
 31
0.0
  0
LINE
  5
35D
330
1A
100
AcDbEntity
  8
SEIHIN
  6
CONTINUOUS
 62
     3
100
AcDbLine
 10
219.707724979513
 20
289.1428842927115
 30
0.0
 11
219.707724979513
 21
287.6429842927116
 31
0.0
  0
LINE
  5
35F
330
1A
100
AcDbEntity
  8
SEIHIN
  6
CONTINUOUS
 62
     3
100
AcDbLine
 10
282.7075249795131
 20
213.5260842927116
 30
0.0
 11
282.7075249795131
 21
216.9462842927115
 31
0.0
  0
ARC
  5
360
330
1A
100
AcDbEntity
  8
SEIHIN
  6
CONTINUOUS
 62
     3
100
AcDbCircle
 10
291.691324979513
 20
217.4862842927115
 30
0.0
 40
8.999959999999999
100
AcDbArc
 50
188.858841
 51
264.35421
  0
LINE
  5
361
330
1A
100
AcDbEntity
  8
SEIHIN
  6
CONTINUOUS
 62
     3
100
AcDbLine
 10
294.7075249795131
 20
238.3342842927115
 30
0.0
 11
294.7075249795131
 21
203.9462842927115
 31
0.0
  0
LINE
  5
364
330
1A
100
AcDbEntity
  8
SEIHIN
  6
CONTINUOUS
 62
     3
100
AcDbLine
 10
290.057624979513
 20
202.8203842927116
 30
0.0
 11
290.057624979513
 21
164.0914842927115
 31
0.0
  0
LINE
  5
365
330
1A
100
AcDbEntity
  8
SEIHIN
  6
CONTINUOUS
 62
     3
100
AcDbLine
 10
294.7075249795131
 20
203.9462842927115
 30
0.0
 11
291.770724979513
 21
162.7324842927116
 31
0.0
  0
LINE
  5
366
330
1A
100
AcDbEntity
  8
SEIHIN
  6
CONTINUOUS
 62
     3
100
AcDbLine
 10
291.707624979513
 20
161.8457842927115
 30
0.0
 11
291.707624979513
 21
207.5348842927116
 31
0.0
  0
ELLIPSE
  5
367
330
1A
100
AcDbEntity
  8
SEIHIN
  6
CONTINUOUS
 62
     3
100
AcDbEllipse
 10
259.707635979513
 20
186.1234682927116
 30
0.0
 11
-26.54938504753145
 21
0.0000348002608697
 31
0.0
210
0.0
220
0.0
230
1.0
 40
0.939736
 41
1.570797155246315
 42
2.949199942011242
  0
ELLIPSE
  5
368
330
1A
100
AcDbEntity
  8
SEIHIN
  6
CONTINUOUS
 62
     3
100
AcDbEllipse
 10
259.707636979513
 20
176.6154162927116
 30
0.0
 11
-26.54992529073569
 21
0.0000348009690067
 31
0.0
210
0.0
220
0.0
230
1.0
 40
0.939736
 41
1.570797093109679
 42
4.712386911164607
  0
ELLIPSE
  5
369
330
1A
100
AcDbEntity
  8
SEIHIN
  6
CONTINUOUS
 62
     3
100
AcDbEllipse
 10
259.707591979513
 20
176.6154572927115
 30
0.0
 11
27.84969567632824
 21
0.0
 31
0.0
210
0.0
220
0.0
230
1.0
 40
0.939677
 41
-1.570791551008531
 42
1.570791551018325
  0
ELLIPSE
  5
36A
330
1A
100
AcDbEntity
  8
SEIHIN
  6
CONTINUOUS
 62
     3
100
AcDbEllipse
 10
259.7076109795129
 20
177.9835672927116
 30
0.0
 11
28.34984532678571
 21
0.0
 31
0.0
210
0.0
220
0.0
230
1.0
 40
0.9396830000000001
 41
-0.5549351890245865
 42
1.570792316113359
  0
ARC
  5
36B
330
1A
100
AcDbEntity
  8
SEIHIN
  6
CONTINUOUS
 62
     3
100
AcDbCircle
 10
291.691424979513
 20
152.8457842927115
 30
0.0
 40
8.999986999999999
100
AcDbArc
 50
95.26780099999999
 51
171.141159
  0
ARC
  5
36C
330
1A
100
AcDbEntity
  8
SEIHIN
  6
CONTINUOUS
 62
     3
100
AcDbCircle
 10
291.691424979513
 20
152.8457842927115
 30
0.0
 40
10.54996999999999
100
AcDbArc
 50
103.1816219999999
 51
164.482285
  0
LINE
  5
36D
330
1A
100
AcDbEntity
  8
SEIHIN
  6
CONTINUOUS
 62
     3
100
AcDbLine
 10
280.562324979513
 20
154.9357842927116
 30
0.0
 11
275.306724979513
 21
154.9357842927116
 31
0.0
  0
LINE
  5
36E
330
1A
100
AcDbEntity
  8
SEIHIN
  6
CONTINUOUS
 62
     3
100
AcDbLine
 10
281.810624979513
 20
153.3857842927116
 30
0.0
 11
272.533424979513
 21
153.3857842927116
 31
0.0
  0
ARC
  5
36F
330
1A
100
AcDbEntity
  8
SEIHIN
  6
CONTINUOUS
 62
     3
100
AcDbCircle
 10
280.562324979513
 20
155.9357842927115
 30
0.0
 40
1.000034
100
AcDbArc
 50
270.0
 51
344.4795689999999
  0
ARC
  5
370
330
1A
100
AcDbEntity
  8
SEIHIN
  6
CONTINUOUS
 62
     3
100
AcDbCircle
 10
281.810624979513
 20
154.3857842927116
 30
0.0
 40
1.000013999999999
100
AcDbArc
 50
270.0
 51
351.1414529999999
  0
ARC
  5
371
330
1A
100
AcDbEntity
  8
SEIHIN
  6
CONTINUOUS
 62
     3
100
AcDbCircle
 10
290.773324979513
 20
162.8034842927116
 30
0.0
 40
0.9999729999999999
100
AcDbArc
 50
275.2675759999999
 51
355.92867
  0
ARC
  5
372
330
1A
100
AcDbEntity
  8
SEIHIN
  6
CONTINUOUS
 62
     3
100
AcDbCircle
 10
289.0576249795131
 20
164.0914842927115
 30
0.0
 40
1.000018999999999
100
AcDbArc
 50
283.178844
 51
0.0
  0
ELLIPSE
  5
373
330
1A
100
AcDbEntity
  8
SEIHIN
  6
CONTINUOUS
 62
     3
100
AcDbEllipse
 10
259.7076109795129
 20
188.9035062927115
 30
0.0
 11
28.34966426762657
 21
0.0
 31
0.0
210
0.0
220
0.0
230
1.0
 40
0.9396830000000001
 41
-0.000004566189734
 42
1.047311975098651
  0
ARC
  5
374
330
1A
100
AcDbEntity
  8
SEIHIN
  6
CONTINUOUS
 62
     3
100
AcDbCircle
 10
291.691324979513
 20
214.0660842927116
 30
0.0
 40
10.549945
100
AcDbArc
 50
195.5171919999999
 51
256.8189069999999
  0
ARC
  5
375
330
1A
100
AcDbEntity
  8
SEIHIN
  6
CONTINUOUS
 62
     3
100
AcDbCircle
 10
291.691324979513
 20
214.0660842927116
 30
0.0
 40
8.999959999999999
100
AcDbArc
 50
188.858841
 51
264.35421
  0
LINE
  5
376
330
1A
100
AcDbEntity
  8
SEIHIN
  6
CONTINUOUS
 62
     3
100
AcDbLine
 10
281.604924979513
 20
172.0141842927116
 30
0.0
 11
282.809124979513
 21
188.9125842927115
 31
0.0
  0
LINE
  5
377
330
1A
100
AcDbEntity
  8
SEIHIN
  6
CONTINUOUS
 62
     3
100
AcDbLine
 10
280.562324979513
 20
211.9760842927115
 30
0.0
 11
259.7075249795129
 21
211.9760842927115
 31
0.0
  0
LINE
  5
378
330
1A
100
AcDbEntity
  8
SEIHIN
  6
CONTINUOUS
 62
     3
100
AcDbLine
 10
281.810624979513
 20
213.5260842927116
 30
0.0
 11
259.7075249795129
 21
213.5260842927116
 31
0.0
  0
ARC
  5
379
330
1A
100
AcDbEntity
  8
SEIHIN
  6
CONTINUOUS
 62
     3
100
AcDbCircle
 10
280.562324979513
 20
210.9760842927115
 30
0.0
 40
1.00002
100
AcDbArc
 50
15.51491
 51
90.0
  0
ARC
  5
37A
330
1A
100
AcDbEntity
  8
SEIHIN
  6
CONTINUOUS
 62
     3
100
AcDbCircle
 10
281.810624979513
 20
212.5260842927116
 30
0.0
 40
1.000013999999999
100
AcDbArc
 50
8.858546999999999
 51
90.0
  0
LINE
  5
37B
330
1A
100
AcDbEntity
  8
SEIHIN
  6
CONTINUOUS
 62
     3
100
AcDbLine
 10
288.057624979513
 20
188.9035842927116
 30
0.0
 11
288.057624979513
 21
177.9835842927116
 31
0.0
  0
ARC
  5
37C
330
1A
100
AcDbEntity
  8
SEIHIN
  6
CONTINUOUS
 62
     3
100
AcDbCircle
 10
289.0576249795131
 20
202.8203842927116
 30
0.0
 40
1.000018999999999
100
AcDbArc
 50
0.0
 51
76.821156
  0
ARC
  5
37D
330
1A
100
AcDbEntity
  8
SEIHIN
  6
CONTINUOUS
 62
     3
100
AcDbCircle
 10
290.707624979513
 20
204.1145842927116
 30
0.0
 40
1.000026
100
AcDbArc
 50
0.0
 51
84.353256
  0
ARC
  5
37E
330
1A
100
AcDbEntity
  8
SEIHIN
  6
CONTINUOUS
 62
     3
100
AcDbCircle
 10
290.707624979513
 20
207.5348842927116
 30
0.0
 40
0.9999769999999999
100
AcDbArc
 50
0.0
 51
84.35269299999999
  0
LINE
  5
381
330
1A
100
AcDbEntity
  8
SEIHIN
  6
CONTINUOUS
 62
     3
100
AcDbLine
 10
299.707824979513
 20
289.1429842927116
 30
0.0
 11
319.707724979513
 21
289.1429842927116
 31
0.0
  0
LINE
  5
382
330
1A
100
AcDbEntity
  8
SEIHIN
  6
CONTINUOUS
 62
     3
100
AcDbLine
 10
319.707724979513
 20
287.6428842927115
 30
0.0
 11
259.707724979513
 21
287.6428842927115
 31
0.0
  0
LINE
  5
383
330
1A
100
AcDbEntity
  8
SEIHIN
  6
CONTINUOUS
 62
     3
100
AcDbLine
 10
319.707724979513
 20
268.5429842927116
 30
0.0
 11
314.707824979513
 21
267.9429842927115
 31
0.0
  0
LINE
  5
384
330
1A
100
AcDbEntity
  8
SEIHIN
  6
CONTINUOUS
 62
     3
100
AcDbLine
 10
319.707724979513
 20
230.5429842927115
 30
0.0
 11
314.707924979513
 21
229.9429842927116
 31
0.0
  0
LINE
  5
385
330
1A
100
AcDbEntity
  8
SEIHIN
  6
CONTINUOUS
 62
     3
100
AcDbLine
 10
314.707824979513
 20
287.6428842927115
 30
0.0
 11
314.707824979513
 21
229.9428842927115
 31
0.0
  0
LINE
  5
386
330
1A
100
AcDbEntity
  8
SEIHIN
  6
CONTINUOUS
 62
     3
100
AcDbLine
 10
294.7075249795131
 20
216.9462842927115
 30
0.0
 11
259.7075249795129
 21
216.9462842927115
 31
0.0
  0
LINE
  5
387
330
1A
100
AcDbEntity
  8
SEIHIN
  6
CONTINUOUS
 62
     3
100
AcDbLine
 10
294.7075249795131
 20
226.9462842927115
 30
0.0
 11
259.7075249795129
 21
226.9462842927115
 31
0.0
  0
LINE
  5
388
330
1A
100
AcDbEntity
  8
SEIHIN
  6
CONTINUOUS
 62
     3
100
AcDbLine
 10
259.707724979513
 20
238.3342842927115
 30
0.0
 11
292.7075249795131
 21
238.3342842927115
 31
0.0
  0
ARC
  5
389
330
1A
100
AcDbEntity
  8
SEIHIN
  6
CONTINUOUS
 62
     3
100
AcDbCircle
 10
281.810624979513
 20
215.9462842927116
 30
0.0
 40
1.000013999999999
100
AcDbArc
 50
8.858546999999999
 51
90.0
  0
LINE
  5
38A
330
1A
100
AcDbEntity
  8
SEIHIN
  6
CONTINUOUS
 62
     3
100
AcDbLine
 10
296.207724979513
 20
229.9429842927116
 30
0.0
 11
314.707924979513
 21
229.9429842927116
 31
0.0
  0
ARC
  5
38B
330
1A
100
AcDbEntity
  8
SEIHIN
  6
CONTINUOUS
 62
     3
100
AcDbCircle
 10
296.207724979513
 20
228.4429842927115
 30
0.0
 40
1.5
100
AcDbArc
 50
90.0
 51
180.0
  0
LINE
  5
38C
330
1A
100
AcDbEntity
  8
SEIHIN
  6
CONTINUOUS
 62
     3
100
AcDbLine
 10
259.707724979513
 20
267.9428842927115
 30
0.0
 11
314.707824979513
 21
267.9429842927115
 31
0.0
  0
LINE
  5
38D
330
1A
100
AcDbEntity
  8
SEIHIN
  6
CONTINUOUS
 62
     3
100
AcDbLine
 10
299.707824979513
 20
289.1428842927115
 30
0.0
 11
299.707824979513
 21
287.6429842927116
 31
0.0
  0
LINE
  5
38E
330
1A
100
AcDbEntity
  8
SEIHIN
  6
CONTINUOUS
 62
     3
100
AcDbLine
 10
319.707824979513
 20
230.5429842927115
 30
0.0
 11
319.707824979513
 21
289.1428842927115
 31
0.0
  0
LINE
  5
392
330
1A
100
AcDbEntity
  8
SEIHIN
  6
CONTINUOUS
 62
     3
100
AcDbLine
 10
532.9016249795131
 20
456.6945407862531
 30
0.0
 11
532.9016249795131
 21
436.7946407862531
 31
0.0
  0
LINE
  5
393
330
1A
100
AcDbEntity
  8
SEIHIN
  6
CONTINUOUS
 62
     3
100
AcDbLine
 10
537.5609249795131
 20
456.6945407862531
 30
0.0
 11
537.5609249795131
 21
436.7946407862531
 31
0.0
  0
LINE
  5
394
330
1A
100
AcDbEntity
  8
SEIHIN
  6
CONTINUOUS
 62
     3
100
AcDbLine
 10
552.7078249795131
 20
476.7946407862531
 30
0.0
 11
552.7078249795131
 21
436.7946407862531
 31
0.0
  0
LINE
  5
395
330
1A
100
AcDbEntity
  8
SEIHIN
  6
CONTINUOUS
 62
     3
100
AcDbLine
 10
549.361224979513
 20
470.194640786253
 30
0.0
 11
549.361224979513
 21
436.7946407862531
 31
0.0
  0
LINE
  5
396
330
1A
100
AcDbEntity
  8
SEIHIN
  6
CONTINUOUS
 62
     3
100
AcDbLine
 10
561.7079249795131
 20
474.7945407862531
 30
0.0
 11
561.7079249795131
 21
436.7946407862531
 31
0.0
  0
LINE
  5
397
330
1A
100
AcDbEntity
  8
SEIHIN
  6
CONTINUOUS
 62
     3
100
AcDbLine
 10
549.7079249795131
 20
496.7946407862531
 30
0.0
 11
549.7079249795131
 21
436.7946407862531
 31
0.0
  0
LINE
  5
398
330
1A
100
AcDbEntity
  8
SEIHIN
  6
CONTINUOUS
 62
     3
100
AcDbLine
 10
563.3079249795129
 20
491.7945407862531
 30
0.0
 11
563.3079249795129
 21
436.7945407862531
 31
0.0
  0
LINE
  5
399
330
1A
100
AcDbEntity
  8
SEIHIN
  6
CONTINUOUS
 62
     3
100
AcDbLine
 10
481.854924979513
 20
456.6945407862531
 30
0.0
 11
481.854924979513
 21
436.7946407862531
 31
0.0
  0
LINE
  5
39A
330
1A
100
AcDbEntity
  8
SEIHIN
  6
CONTINUOUS
 62
     3
100
AcDbLine
 10
486.514224979513
 20
456.6945407862531
 30
0.0
 11
486.514224979513
 21
436.7946407862531
 31
0.0
  0
LINE
  5
39B
330
1A
100
AcDbEntity
  8
SEIHIN
  6
CONTINUOUS
 62
     3
100
AcDbLine
 10
468.5650249795131
 20
470.194640786253
 30
0.0
 11
468.5650249795131
 21
436.7946407862531
 31
0.0
  0
LINE
  5
39C
330
1A
100
AcDbEntity
  8
SEIHIN
  6
CONTINUOUS
 62
     3
100
AcDbLine
 10
450.7080249795131
 20
476.7946407862531
 30
0.0
 11
450.7080249795131
 21
436.7946407862531
 31
0.0
  0
LINE
  5
39D
330
1A
100
AcDbEntity
  8
SEIHIN
  6
CONTINUOUS
 62
     3
100
AcDbLine
 10
441.707924979513
 20
474.7946407862531
 30
0.0
 11
441.707924979513
 21
436.7946407862531
 31
0.0
  0
LINE
  5
39E
330
1A
100
AcDbEntity
  8
SEIHIN
  6
CONTINUOUS
 62
     3
100
AcDbLine
 10
440.107824979513
 20
491.7946407862531
 30
0.0
 11
440.107824979513
 21
436.7946407862531
 31
0.0
  0
LINE
  5
3A1
330
1A
100
AcDbEntity
  8
SEIHIN
  6
CONTINUOUS
 62
     3
100
AcDbLine
 10
468.5650249795131
 20
470.194640786253
 30
0.0
 11
549.361124979513
 21
470.1945407862531
 31
0.0
  0
LINE
  5
3A2
330
1A
100
AcDbEntity
  8
SEIHIN
  6
CONTINUOUS
 62
     3
100
AcDbLine
 10
440.707824979513
 20
496.7946407862531
 30
0.0
 11
562.7079249795131
 21
496.7945407862531
 31
0.0
  0
LINE
  5
3A5
330
1A
100
AcDbEntity
  8
SEIHIN
  6
CONTINUOUS
 62
     3
100
AcDbLine
 10
451.5079249795131
 20
496.7946407862531
 30
0.0
 11
451.5079249795131
 21
476.7946407862531
 31
0.0
  0
LINE
  5
3A6
330
1A
100
AcDbEntity
  8
SEIHIN
  6
CONTINUOUS
 62
     3
100
AcDbLine
 10
450.0079249795131
 20
496.7946407862531
 30
0.0
 11
450.0079249795131
 21
476.7946407862531
 31
0.0
  0
LINE
  5
3A7
330
1A
100
AcDbEntity
  8
SEIHIN
  6
CONTINUOUS
 62
     3
100
AcDbLine
 10
440.707824979513
 20
496.7946407862531
 30
0.0
 11
440.107824979513
 21
491.7946407862531
 31
0.0
  0
LINE
  5
3A8
330
1A
100
AcDbEntity
  8
SEIHIN
  6
CONTINUOUS
 62
     3
100
AcDbLine
 10
443.7079249795131
 20
476.7946407862531
 30
0.0
 11
451.5079249795131
 21
476.7946407862531
 31
0.0
  0
ARC
  5
3A9
330
1A
100
AcDbEntity
  8
SEIHIN
  6
CONTINUOUS
 62
     3
100
AcDbCircle
 10
443.7079249795131
 20
474.7946407862531
 30
0.0
 40
2.0
100
AcDbArc
 50
90.0
 51
180.0
  0
LINE
  5
3AA
330
1A
100
AcDbEntity
  8
SEIHIN
  6
CONTINUOUS
 62
     3
100
AcDbLine
 10
531.1482249795131
 20
458.4481407862531
 30
0.0
 11
486.514224979513
 21
456.1089407862531
 31
0.0
  0
LINE
  5
3AB
330
1A
100
AcDbEntity
  8
SEIHIN
  6
CONTINUOUS
 62
     3
100
AcDbLine
 10
525.9016249795131
 20
466.6945407862531
 30
0.0
 11
509.7079249795131
 21
466.6945407862531
 31
0.0
  0
LINE
  5
3AC
330
1A
100
AcDbEntity
  8
SEIHIN
  6
CONTINUOUS
 62
     3
100
AcDbLine
 10
493.5142249795131
 20
466.6945407862531
 30
0.0
 11
509.7079249795131
 21
466.6945407862531
 31
0.0
  0
LINE
  5
3AD
330
1A
100
AcDbEntity
  8
SEIHIN
  6
CONTINUOUS
 62
     3
100
AcDbLine
 10
486.514124979513
 20
456.6945407862531
 30
0.0
 11
496.514224979513
 21
466.6946407862531
 31
0.0
  0
ARC
  5
3AE
330
1A
100
AcDbEntity
  8
SEIHIN
  6
CONTINUOUS
 62
     3
100
AcDbCircle
 10
468.8045249795131
 20
483.7073407862531
 30
0.0
 40
30.000023
100
AcDbArc
 50
295.786331
 51
325.4524759999999
  0
LINE
  5
3AF
330
1A
100
AcDbEntity
  8
SEIHIN
  6
CONTINUOUS
 62
     3
100
AcDbLine
 10
481.854924979513
 20
456.6945407862531
 30
0.0
 11
486.514124979513
 21
456.6945407862531
 31
0.0
  0
LINE
  5
3B0
330
1A
100
AcDbEntity
  8
SEIHIN
  6
CONTINUOUS
 62
     3
100
AcDbLine
 10
538.7080249795131
 20
496.7946407862531
 30
0.0
 11
538.7080249795131
 21
470.194640786253
 31
0.0
  0
LINE
  5
3B1
330
1A
100
AcDbEntity
  8
SEIHIN
  6
CONTINUOUS
 62
     3
100
AcDbLine
 10
553.4078249795132
 20
496.7946407862531
 30
0.0
 11
553.4079249795131
 21
476.7946407862531
 31
0.0
  0
LINE
  5
3B2
330
1A
100
AcDbEntity
  8
SEIHIN
  6
CONTINUOUS
 62
     3
100
AcDbLine
 10
551.9079249795131
 20
496.7946407862531
 30
0.0
 11
551.9079249795131
 21
476.7945407862531
 31
0.0
  0
LINE
  5
3B3
330
1A
100
AcDbEntity
  8
SEIHIN
  6
CONTINUOUS
 62
     3
100
AcDbLine
 10
562.7079249795131
 20
496.7945407862531
 30
0.0
 11
563.3079249795129
 21
491.7945407862531
 31
0.0
  0
ARC
  5
3B4
330
1A
100
AcDbEntity
  8
SEIHIN
  6
CONTINUOUS
 62
     3
100
AcDbCircle
 10
550.611324979513
 20
483.7072407862531
 30
0.0
 40
29.999995
100
AcDbArc
 50
214.5473659999999
 51
244.213669
  0
LINE
  5
3B5
330
1A
100
AcDbEntity
  8
SEIHIN
  6
CONTINUOUS
 62
     3
100
AcDbLine
 10
532.9017249795131
 20
456.6945407862531
 30
0.0
 11
522.9016249795131
 21
466.6946407862531
 31
0.0
  0
LINE
  5
3B6
330
1A
100
AcDbEntity
  8
SEIHIN
  6
CONTINUOUS
 62
     3
100
AcDbLine
 10
537.5609249795131
 20
456.6945407862531
 30
0.0
 11
532.9017249795131
 21
456.6945407862531
 31
0.0
  0
LINE
  5
3B7
330
1A
100
AcDbEntity
  8
SEIHIN
  6
CONTINUOUS
 62
     3
100
AcDbLine
 10
551.9078249795131
 20
476.7945407862531
 30
0.0
 11
559.7079249795131
 21
476.7945407862531
 31
0.0
  0
ARC
  5
3B8
330
1A
100
AcDbEntity
  8
SEIHIN
  6
CONTINUOUS
 62
     3
100
AcDbCircle
 10
559.7079249795131
 20
474.7945407862531
 30
0.0
 40
2.0
100
AcDbArc
 50
0.0
 51
90.0
  0
LINE
  5
3B9
330
1A
100
AcDbEntity
  8
SEIHIN
  6
CONTINUOUS
 62
     3
100
AcDbLine
 10
468.5649249795131
 20
403.3946407862531
 30
0.0
 11
549.3610249795131
 21
403.3945407862531
 31
0.0
  0
LINE
  5
3BA
330
1A
100
AcDbEntity
  8
SEIHIN
  6
CONTINUOUS
 62
     3
100
AcDbLine
 10
440.707824979513
 20
376.7946407862531
 30
0.0
 11
562.7078249795131
 21
376.7945407862531
 31
0.0
  0
LINE
  5
3BB
330
1A
100
AcDbEntity
  8
SEIHIN
  6
CONTINUOUS
 62
     3
100
AcDbLine
 10
440.707824979513
 20
376.7946407862531
 30
0.0
 11
440.107824979513
 21
381.7946407862531
 31
0.0
  0
LINE
  5
3BC
330
1A
100
AcDbEntity
  8
SEIHIN
  6
CONTINUOUS
 62
     3
100
AcDbLine
 10
450.007824979513
 20
376.7946407862531
 30
0.0
 11
450.007824979513
 21
396.7946407862531
 31
0.0
  0
LINE
  5
3BD
330
1A
100
AcDbEntity
  8
SEIHIN
  6
CONTINUOUS
 62
     3
100
AcDbLine
 10
451.507824979513
 20
376.7946407862531
 30
0.0
 11
451.507824979513
 21
396.7946407862531
 31
0.0
  0
LINE
  5
3C7
330
1A
100
AcDbEntity
  8
SEIHIN
  6
CONTINUOUS
 62
     3
100
AcDbLine
 10
468.5650249795131
 20
403.3946407862531
 30
0.0
 11
468.5650249795131
 21
436.7946407862531
 31
0.0
  0
LINE
  5
3C8
330
1A
100
AcDbEntity
  8
SEIHIN
  6
CONTINUOUS
 62
     3
100
AcDbLine
 10
450.707924979513
 20
396.7946407862531
 30
0.0
 11
450.7080249795131
 21
436.7946407862531
 31
0.0
  0
LINE
  5
3C9
330
1A
100
AcDbEntity
  8
SEIHIN
  6
CONTINUOUS
 62
     3
100
AcDbLine
 10
440.107824979513
 20
381.7946407862531
 30
0.0
 11
440.107824979513
 21
436.7946407862531
 31
0.0
  0
LINE
  5
3CA
330
1A
100
AcDbEntity
  8
SEIHIN
  6
CONTINUOUS
 62
     3
100
AcDbLine
 10
441.7078249795131
 20
398.7946407862531
 30
0.0
 11
441.707924979513
 21
436.7946407862531
 31
0.0
  0
LINE
  5
3CB
330
1A
100
AcDbEntity
  8
SEIHIN
  6
CONTINUOUS
 62
     3
100
AcDbLine
 10
443.707824979513
 20
396.7946407862531
 30
0.0
 11
451.507824979513
 21
396.7946407862531
 31
0.0
  0
ARC
  5
3CC
330
1A
100
AcDbEntity
  8
SEIHIN
  6
CONTINUOUS
 62
     3
100
AcDbCircle
 10
443.707824979513
 20
398.7946407862531
 30
0.0
 40
2.0
100
AcDbArc
 50
180.0
 51
270.0
  0
LINE
  5
3CE
330
1A
100
AcDbEntity
  8
SEIHIN
  6
CONTINUOUS
 62
     3
100
AcDbLine
 10
562.7078249795131
 20
376.7945407862531
 30
0.0
 11
563.307824979513
 21
381.7945407862531
 31
0.0
  0
LINE
  5
3CF
330
1A
100
AcDbEntity
  8
SEIHIN
  6
CONTINUOUS
 62
     3
100
AcDbLine
 10
538.7079249795131
 20
376.7945407862531
 30
0.0
 11
538.7079249795131
 21
403.3945407862531
 31
0.0
  0
LINE
  5
3D0
330
1A
100
AcDbEntity
  8
SEIHIN
  6
CONTINUOUS
 62
     3
100
AcDbLine
 10
553.4078249795132
 20
376.7945407862531
 30
0.0
 11
553.4078249795132
 21
396.7944407862531
 31
0.0
  0
LINE
  5
3D1
330
1A
100
AcDbEntity
  8
SEIHIN
  6
CONTINUOUS
 62
     3
100
AcDbLine
 10
551.9078249795131
 20
376.7945407862531
 30
0.0
 11
551.9078249795131
 21
396.7945407862531
 31
0.0
  0
LINE
  5
3D2
330
1A
100
AcDbEntity
  8
SEIHIN
  6
CONTINUOUS
 62
     3
100
AcDbLine
 10
549.7079249795131
 20
376.7945407862531
 30
0.0
 11
549.7079249795131
 21
436.7944407862531
 31
0.0
  0
LINE
  5
3D3
330
1A
100
AcDbEntity
  8
SEIHIN
  6
CONTINUOUS
 62
     3
100
AcDbLine
 10
531.1482249795131
 20
415.1410407862531
 30
0.0
 11
486.514224979513
 21
417.4802407862531
 31
0.0
  0
LINE
  5
3D4
330
1A
100
AcDbEntity
  8
SEIHIN
  6
CONTINUOUS
 62
     3
100
AcDbLine
 10
525.9015249795131
 20
406.8945407862531
 30
0.0
 11
509.7078249795131
 21
406.8946407862531
 31
0.0
  0
ARC
  5
3D5
330
1A
100
AcDbEntity
  8
SEIHIN
  6
CONTINUOUS
 62
     3
100
AcDbCircle
 10
468.8045249795131
 20
389.8819407862531
 30
0.0
 40
30.000001
100
AcDbArc
 50
34.54752399999999
 51
64.213841
  0
LINE
  5
3D6
330
1A
100
AcDbEntity
  8
SEIHIN
  6
CONTINUOUS
 62
     3
100
AcDbLine
 10
486.514124979513
 20
416.8945407862532
 30
0.0
 11
496.5141249795131
 21
406.8945407862531
 31
0.0
  0
LINE
  5
3D7
330
1A
100
AcDbEntity
  8
SEIHIN
  6
CONTINUOUS
 62
     3
100
AcDbLine
 10
486.514224979513
 20
416.8945407862532
 30
0.0
 11
486.514224979513
 21
436.7945407862531
 31
0.0
  0
LINE
  5
3D8
330
1A
100
AcDbEntity
  8
SEIHIN
  6
CONTINUOUS
 62
     3
100
AcDbLine
 10
481.854924979513
 20
416.8946407862531
 30
0.0
 11
481.854924979513
 21
436.7945407862531
 31
0.0
  0
LINE
  5
3D9
330
1A
100
AcDbEntity
  8
SEIHIN
  6
CONTINUOUS
 62
     3
100
AcDbLine
 10
481.854924979513
 20
416.8946407862531
 30
0.0
 11
486.514124979513
 21
416.8945407862532
 31
0.0
  0
LINE
  5
3DA
330
1A
100
AcDbEntity
  8
SEIHIN
  6
CONTINUOUS
 62
     3
100
AcDbLine
 10
493.5142249795131
 20
406.8945407862531
 30
0.0
 11
509.7079249795131
 21
406.8945407862531
 31
0.0
  0
ARC
  5
3DB
330
1A
100
AcDbEntity
  8
SEIHIN
  6
CONTINUOUS
 62
     3
100
AcDbCircle
 10
550.611224979513
 20
389.8818407862531
 30
0.0
 40
30.000001
100
AcDbArc
 50
115.7861589999999
 51
145.4524759999999
  0
LINE
  5
3DC
330
1A
100
AcDbEntity
  8
SEIHIN
  6
CONTINUOUS
 62
     3
100
AcDbLine
 10
549.361124979513
 20
403.3945407862531
 30
0.0
 11
549.361224979513
 21
436.7944407862531
 31
0.0
  0
LINE
  5
3DD
330
1A
100
AcDbEntity
  8
SEIHIN
  6
CONTINUOUS
 62
     3
100
AcDbLine
 10
552.7077249795131
 20
396.7944407862531
 30
0.0
 11
552.7078249795131
 21
436.7944407862531
 31
0.0
  0
LINE
  5
3DE
330
1A
100
AcDbEntity
  8
SEIHIN
  6
CONTINUOUS
 62
     3
100
AcDbLine
 10
563.307824979513
 20
381.7945407862531
 30
0.0
 11
563.3079249795129
 21
436.7945407862531
 31
0.0
  0
LINE
  5
3DF
330
1A
100
AcDbEntity
  8
SEIHIN
  6
CONTINUOUS
 62
     3
100
AcDbLine
 10
561.7078249795131
 20
398.7945407862531
 30
0.0
 11
561.7079249795131
 21
436.7944407862531
 31
0.0
  0
LINE
  5
3E0
330
1A
100
AcDbEntity
  8
SEIHIN
  6
CONTINUOUS
 62
     3
100
AcDbLine
 10
532.9017249795131
 20
416.8945407862532
 30
0.0
 11
522.9015249795131
 21
406.8945407862531
 31
0.0
  0
LINE
  5
3E1
330
1A
100
AcDbEntity
  8
SEIHIN
  6
CONTINUOUS
 62
     3
100
AcDbLine
 10
537.5609249795131
 20
416.8945407862532
 30
0.0
 11
537.5609249795131
 21
436.7944407862531
 31
0.0
  0
LINE
  5
3E2
330
1A
100
AcDbEntity
  8
SEIHIN
  6
CONTINUOUS
 62
     3
100
AcDbLine
 10
532.9016249795131
 20
416.8945407862532
 30
0.0
 11
532.9016249795131
 21
436.7945407862531
 31
0.0
  0
LINE
  5
3E3
330
1A
100
AcDbEntity
  8
SEIHIN
  6
CONTINUOUS
 62
     3
100
AcDbLine
 10
537.5609249795131
 20
416.8945407862532
 30
0.0
 11
532.9017249795131
 21
416.8945407862532
 31
0.0
  0
LINE
  5
3E4
330
1A
100
AcDbEntity
  8
SEIHIN
  6
CONTINUOUS
 62
     3
100
AcDbLine
 10
551.9077249795132
 20
396.7945407862531
 30
0.0
 11
559.7078249795131
 21
396.7945407862531
 31
0.0
  0
ARC
  5
3E5
330
1A
100
AcDbEntity
  8
SEIHIN
  6
CONTINUOUS
 62
     3
100
AcDbCircle
 10
559.7078249795131
 20
398.7945407862531
 30
0.0
 40
2.0
100
AcDbArc
 50
270.0
 51
0.0
  0
LINE
  5
3FB
330
1A
100
AcDbEntity
  8
NOKITOI
  6
PHANTOM
 62
     8
 48
5.0
100
AcDbLine
 10
538.5886438776761
 20
231.5428835273235
 30
0.0
 11
493.7592438776761
 21
231.5429835273234
 31
0.0
  0
LINE
  5
3FC
330
1A
100
AcDbEntity
  8
NOKITOI
  6
PHANTOM
 62
     8
 48
5.0
100
AcDbLine
 10
493.7592438776761
 20
232.7429835273235
 30
0.0
 11
538.3388438776761
 21
232.7428835273235
 31
0.0
  0
ARC
  5
401
330
1A
100
AcDbEntity
  8
SEIHIN
  6
CONTINUOUS
 62
     3
100
AcDbCircle
 10
509.707924979513
 20
264.9428842927116
 30
0.0
 40
49.999995
100
AcDbArc
 50
212.152431
 51
325.491772
  0
LINE
  5
402
330
1A
100
AcDbEntity
  8
SEIHIN
  6
CONTINUOUS
 62
     3
100
AcDbLine
 10
486.622124979513
 20
161.8428842927116
 30
0.0
 11
520.8105249795131
 21
174.2865842927116
 31
0.0
  0
LINE
  5
403
330
1A
100
AcDbEntity
  8
SEIHIN
  6
CONTINUOUS
 62
     3
100
AcDbLine
 10
489.7003249795131
 20
153.3856842927115
 30
0.0
 11
523.8887249795129
 21
165.8293842927115
 31
0.0
  0
LINE
  5
404
330
1A
100
AcDbEntity
  8
SEIHIN
  6
CONTINUOUS
 62
     3
100
AcDbLine
 10
493.416124979513
 20
230.5428842927116
 30
0.0
 11
538.707824979513
 21
230.5428842927116
 31
0.0
  0
LINE
  5
405
330
1A
100
AcDbEntity
  8
SEIHIN
  6
CONTINUOUS
 62
     3
100
AcDbLine
 10
493.416124979513
 20
231.5429842927116
 30
0.0
 11
538.350824979513
 21
231.5428842927115
 31
0.0
  0
LINE
  5
406
330
1A
100
AcDbEntity
  8
SEIHIN
  6
CONTINUOUS
 62
     3
100
AcDbLine
 10
538.922024979513
 20
229.9428842927115
 30
0.0
 11
493.416124979513
 21
229.9429842927116
 31
0.0
  0
LINE
  5
408
330
1A
100
AcDbEntity
  8
SEIHIN
  6
CONTINUOUS
 62
     3
100
AcDbLine
 10
476.8788249795131
 20
216.8264842927115
 30
0.0
 11
467.8108249795131
 21
213.5259842927116
 31
0.0
  0
LINE
  5
409
330
1A
100
AcDbEntity
  8
SEIHIN
  6
CONTINUOUS
 62
     3
100
AcDbLine
 10
477.2078249795129
 20
216.9461842927116
 30
0.0
 11
480.2860144622063
 21
208.488923693757
 31
0.0
  0
LINE
  5
41A
330
1A
100
AcDbEntity
  8
SEIHIN
  6
CONTINUOUS
 62
     3
100
AcDbLine
 10
453.996824979513
 20
204.6990842927116
 30
0.0
 11
473.444124979513
 21
151.2679842927115
 31
0.0
  0
LINE
  5
41B
330
1A
100
AcDbEntity
  8
SEIHIN
  6
CONTINUOUS
 62
     3
100
AcDbLine
 10
450.436424979513
 20
202.7858842927115
 30
0.0
 11
469.4870249795131
 21
150.4448842927116
 31
0.0
  0
LINE
  5
41C
330
1A
100
AcDbEntity
  8
SEIHIN
  6
CONTINUOUS
 62
     3
100
AcDbLine
 10
467.8108249795131
 20
213.5259842927116
 30
0.0
 11
489.7002249795129
 21
153.3856842927115
 31
0.0
  0
LINE
  5
41D
330
1A
100
AcDbEntity
  8
SEIHIN
  6
CONTINUOUS
 62
     3
100
AcDbLine
 10
473.444124979513
 20
151.2679842927115
 30
0.0
 11
488.588624979513
 21
156.4396842927116
 31
0.0
  0
LINE
  5
41F
330
1A
100
AcDbEntity
  8
SEIHIN
  6
CONTINUOUS
 62
     3
100
AcDbLine
 10
469.487124979513
 20
150.4449842927115
 30
0.0
 11
473.444124979513
 21
151.2679842927115
 31
0.0
  0
LINE
  5
428
330
1A
100
AcDbEntity
  8
SEIHIN
  6
CONTINUOUS
 62
     3
100
AcDbLine
 10
453.996624979513
 20
204.6988842927115
 30
0.0
 11
468.9222249795131
 21
210.4718842927115
 31
0.0
  0
LINE
  5
429
330
1A
100
AcDbEntity
  8
SEIHIN
  6
CONTINUOUS
 62
     3
100
AcDbLine
 10
450.436324979513
 20
202.7858842927115
 30
0.0
 11
453.996524979513
 21
204.6988842927115
 31
0.0
  0
LINE
  5
42A
330
1A
100
AcDbEntity
  8
SEIHIN
  6
CONTINUOUS
 62
     3
100
AcDbLine
 10
470.889024979513
 20
205.0687842927116
 30
0.0
 11
479.957024979513
 21
208.3691842927116
 31
0.0
  0
LINE
  5
42B
330
1A
100
AcDbEntity
  8
NOKITOI
  6
PHANTOM
 62
     8
 48
5.0
100
AcDbLine
 10
445.9819438776763
 20
282.8429835273236
 30
0.0
 11
448.9184438776761
 21
282.8429835273236
 31
0.0
  0
LINE
  5
42C
330
1A
100
AcDbEntity
  8
NOKITOI
  6
PHANTOM
 62
     8
 48
5.0
100
AcDbLine
 10
450.2870438776759
 20
284.0429835273234
 30
0.0
 11
448.055543877676
 21
284.0429835273234
 31
0.0
  0
LINE
  5
42D
330
1A
100
AcDbEntity
  8
NOKITOI
  6
PHANTOM
 62
     8
 48
5.0
100
AcDbLine
 10
449.9712438776761
 20
277.0429835273235
 30
0.0
 11
447.722143877676
 21
277.0429835273235
 31
0.0
  0
LINE
  5
42E
330
1A
100
AcDbEntity
  8
NOKITOI
  6
PHANTOM
 62
     8
 48
5.0
100
AcDbLine
 10
447.9226438776764
 20
281.7429835273235
 30
0.0
 11
448.9184438776761
 21
282.8429835273236
 31
0.0
  0
LINE
  5
42F
330
1A
100
AcDbEntity
  8
NOKITOI
  6
PHANTOM
 62
     8
 48
5.0
100
AcDbLine
 10
443.8995438776761
 20
270.5429835273235
 30
0.0
 11
450.0442438776759
 21
270.5429835273235
 31
0.0
  0
LINE
  5
430
330
1A
100
AcDbEntity
  8
NOKITOI
  6
PHANTOM
 62
     8
 48
5.0
100
AcDbLine
 10
451.5881438776765
 20
271.7429835273235
 30
0.0
 11
445.5472438776761
 21
271.7429835273235
 31
0.0
  0
ARC
  5
431
330
1A
100
AcDbEntity
  8
NOKITOI
  6
PHANTOM
 62
     8
 48
5.0
100
AcDbCircle
 10
493.7592276512187
 20
274.5429980036935
 30
0.0
 40
43.00001447645168
100
AcDbArc
 50
186.524910707118
 51
269.999888375144
  0
ARC
  5
432
330
1A
100
AcDbEntity
  8
NOKITOI
  6
PHANTOM
 62
     8
 48
5.0
100
AcDbCircle
 10
493.7592499596441
 20
274.5429779026671
 30
0.0
 40
41.79999437547816
100
AcDbArc
 50
184.474295212525
 51
269.9998545921086
  0
LINE
  5
435
330
1A
100
AcDbEntity
  8
SEIHIN
  6
CONTINUOUS
 62
     3
100
AcDbLine
 10
443.769324979513
 20
286.0429842927116
 30
0.0
 11
448.5077249795129
 21
286.0429842927116
 31
0.0
  0
ARC
  5
436
330
1A
100
AcDbEntity
  8
SEIHIN
  6
CONTINUOUS
 62
     3
100
AcDbCircle
 10
448.099824979513
 20
289.6429842927116
 30
0.0
 40
2.00001
100
AcDbArc
 50
270.0
 51
342.542582
  0
LINE
  5
437
330
1A
100
AcDbEntity
  8
SEIHIN
  6
CONTINUOUS
 62
     3
100
AcDbLine
 10
442.110724979513
 20
267.9429842927115
 30
0.0
 11
448.878524979513
 21
267.9429842927115
 31
0.0
  0
LINE
  5
438
330
1A
100
AcDbEntity
  8
SEIHIN
  6
CONTINUOUS
 62
     3
100
AcDbLine
 10
443.663024979513
 20
269.5429842927115
 30
0.0
 11
448.878524979513
 21
269.5429842927115
 31
0.0
  0
LINE
  5
439
330
1A
100
AcDbEntity
  8
SEIHIN
  6
CONTINUOUS
 62
     3
100
AcDbLine
 10
442.692824979513
 20
268.5429842927116
 30
0.0
 11
449.393424979513
 21
268.5429842927116
 31
0.0
  0
ARC
  5
43C
330
1A
100
AcDbEntity
  8
SEIHIN
  6
CONTINUOUS
 62
     3
100
AcDbCircle
 10
493.416224979513
 20
274.5429842927115
 30
0.0
 40
44.000003
100
AcDbArc
 50
188.399007
 51
269.99987
  0
ARC
  5
43D
330
1A
100
AcDbEntity
  8
SEIHIN
  6
CONTINUOUS
 62
     3
100
AcDbCircle
 10
493.416224979513
 20
274.5429842927115
 30
0.0
 40
44.600013
100
AcDbArc
 50
189.057519
 51
269.999872
  0
ARC
  5
43E
330
1A
100
AcDbEntity
  8
SEIHIN
  6
CONTINUOUS
 62
     3
100
AcDbCircle
 10
493.416224979513
 20
274.5429842927115
 30
0.0
 40
43.000036
100
AcDbArc
 50
189.057484
 51
269.9998669999999
  0
LINE
  5
44B
330
1A
100
AcDbEntity
  8
NOKITOI
  6
PHANTOM
 62
     8
 48
5.0
100
AcDbLine
 10
446.4819438776763
 20
285.3429835273236
 30
0.0
 11
445.9819438776763
 21
282.8429835273236
 31
0.0
  0
LINE
  5
44C
330
1A
100
AcDbEntity
  8
NOKITOI
  6
PHANTOM
 62
     8
 48
5.0
100
AcDbLine
 10
443.2095438776765
 20
284.5179835273233
 30
0.0
 11
443.3589438776758
 21
279.7390835273235
 31
0.0
  0
LINE
  5
44D
330
1A
100
AcDbEntity
  8
NOKITOI
  6
PHANTOM
 62
     8
 48
5.0
100
AcDbLine
 10
442.0101438776761
 20
284.4804835273234
 30
0.0
 11
442.4003438776759
 21
271.9961835273234
 31
0.0
  0
LINE
  5
451
330
1A
100
AcDbEntity
  8
SEIHIN
  6
CONTINUOUS
 62
     3
100
AcDbLine
 10
440.611424979513
 20
269.3974842927116
 30
0.0
 11
440.105324979513
 21
286.0975842927115
 31
0.0
  0
LINE
  5
452
330
1A
100
AcDbEntity
  8
SEIHIN
  6
CONTINUOUS
 62
     3
100
AcDbLine
 10
441.193524979513
 20
269.9974842927115
 30
0.0
 11
440.705624979513
 21
286.0975842927115
 31
0.0
  0
LINE
  5
453
330
1A
100
AcDbEntity
  8
SEIHIN
  6
CONTINUOUS
 62
     3
100
AcDbLine
 10
441.770224979513
 20
283.9823842927115
 30
0.0
 11
442.163624979513
 21
270.9974842927115
 31
0.0
  0
ARC
  5
45A
330
1A
100
AcDbEntity
  8
NOKITOI
  6
PHANTOM
 62
     8
 48
5.0
100
AcDbCircle
 10
445.5472574498145
 20
273.7429703722371
 30
0.0
 40
1.999986844959662
100
AcDbArc
 50
181.7875531852363
 51
269.9996111843223
  0
ARC
  5
45B
330
1A
100
AcDbEntity
  8
NOKITOI
  6
PHANTOM
 62
     8
 48
5.0
100
AcDbCircle
 10
443.899579836827
 20
272.0429486731802
 30
0.0
 40
1.499965146287778
100
AcDbArc
 50
181.7866280217767
 51
269.9986264296976
  0
ARC
  5
45C
330
1A
100
AcDbEntity
  8
SEIHIN
  6
CONTINUOUS
 62
     3
100
AcDbCircle
 10
443.663024979513
 20
271.0429842927116
 30
0.0
 40
1.499994
100
AcDbArc
 50
181.734432
 51
270.0
  0
ARC
  5
45D
330
1A
100
AcDbEntity
  8
SEIHIN
  6
CONTINUOUS
 62
     3
100
AcDbCircle
 10
442.692824979513
 20
270.0429842927115
 30
0.0
 40
1.499994
100
AcDbArc
 50
181.734432
 51
270.0
  0
ARC
  5
45E
330
1A
100
AcDbEntity
  8
SEIHIN
  6
CONTINUOUS
 62
     3
100
AcDbCircle
 10
442.110724979513
 20
269.4429842927115
 30
0.0
 40
1.499994
100
AcDbArc
 50
181.734432
 51
270.0
  0
LINE
  5
45F
330
1A
100
AcDbEntity
  8
NOKITOI
  6
PHANTOM
 62
     8
 48
5.0
100
AcDbLine
 10
447.9226438776764
 20
281.7429835273235
 30
0.0
 11
447.4607438776762
 21
281.7429835273235
 31
0.0
  0
ARC
  5
460
330
1A
100
AcDbEntity
  8
NOKITOI
  6
PHANTOM
 62
     8
 48
5.0
100
AcDbCircle
 10
447.4607817591228
 20
276.5430273098488
 30
0.0
 40
3.999989731271038
100
AcDbArc
 50
96.47731142013144
 51
181.7899836067308
  0
ARC
  5
461
330
1A
100
AcDbEntity
  8
NOKITOI
  6
PHANTOM
 62
     8
 48
5.0
100
AcDbCircle
 10
447.7221704782738
 20
277.5429528504414
 30
0.0
 40
0.4999693238254178
100
AcDbArc
 50
171.8555038770532
 51
269.9969516090348
  0
LINE
  5
462
330
1A
100
AcDbEntity
  8
NOKITOI
  6
PHANTOM
 62
     8
 48
5.0
100
AcDbLine
 10
447.227243877676
 20
277.6137835273236
 30
0.0
 11
447.5609438776761
 21
279.9499835273236
 31
0.0
  0
ARC
  5
463
330
1A
100
AcDbEntity
  8
NOKITOI
  6
PHANTOM
 62
     8
 48
5.0
100
AcDbCircle
 10
447.0659580960915
 20
280.0206688930225
 30
0.0
 40
0.5000073448410256
100
AcDbArc
 50
351.8729478641243
 51
96.47829282996843
  0
ARC
  5
464
330
1A
100
AcDbEntity
  8
NOKITOI
  6
PHANTOM
 62
     8
 48
5.0
100
AcDbCircle
 10
447.4608640903453
 20
276.5430422557035
 30
0.0
 40
5.2000412730095
100
AcDbArc
 50
90.00132454306161
 51
142.0757990790561
  0
LINE
  5
465
330
1A
100
AcDbEntity
  8
NOKITOI
  6
PHANTOM
 62
     8
 48
5.0
100
AcDbLine
 10
443.5482438776758
 20
273.6805835273234
 30
0.0
 11
443.4627438776762
 21
276.4180835273234
 31
0.0
  0
ARC
  5
467
330
1A
100
AcDbEntity
  8
SEIHIN
  6
CONTINUOUS
 62
     3
100
AcDbCircle
 10
441.604624979513
 20
286.1429842927116
 30
0.0
 40
1.499994
100
AcDbArc
 50
90.0
 51
181.734432
  0
ARC
  5
468
330
1A
100
AcDbEntity
  8
NOKITOI
  6
PHANTOM
 62
     8
 48
5.0
100
AcDbCircle
 10
447.3357430946676
 20
286.0429844823252
 30
0.0
 40
0.4999990449987349
100
AcDbArc
 50
348.6967198015448
 51
89.99991027369452
  0
LINE
  5
469
330
1A
100
AcDbEntity
  8
NOKITOI
  6
PHANTOM
 62
     8
 48
5.0
100
AcDbLine
 10
444.0091438776759
 20
286.5429835273234
 30
0.0
 11
447.3357438776762
 21
286.5429835273234
 31
0.0
  0
ARC
  5
46A
330
1A
100
AcDbEntity
  8
NOKITOI
  6
PHANTOM
 62
     8
 48
5.0
100
AcDbCircle
 10
448.0555366231206
 20
284.5429923771669
 30
0.0
 40
0.5000088498959383
100
AcDbArc
 50
168.6864043304884
 51
270.0008312961434
  0
LINE
  5
46B
330
1A
100
AcDbEntity
  8
NOKITOI
  6
PHANTOM
 62
     8
 48
5.0
100
AcDbLine
 10
444.0091438776759
 20
285.3429835273236
 30
0.0
 11
446.4819438776763
 21
285.3429835273236
 31
0.0
  0
ARC
  5
46C
330
1A
100
AcDbEntity
  8
NOKITOI
  6
PHANTOM
 62
     8
 48
5.0
100
AcDbCircle
 10
444.0091483724741
 20
284.5429881648503
 30
0.0
 40
0.7999953624857498
100
AcDbArc
 50
90.00032191805336
 51
181.7911273464199
  0
LINE
  5
46D
330
1A
100
AcDbEntity
  8
NOKITOI
  6
PHANTOM
 62
     8
 48
5.0
100
AcDbLine
 10
447.5652438776761
 20
284.6410835273234
 30
0.0
 11
447.8260438776762
 21
285.9449835273235
 31
0.0
  0
ARC
  5
46E
330
1A
100
AcDbEntity
  8
NOKITOI
  6
PHANTOM
 62
     8
 48
5.0
100
AcDbCircle
 10
444.009156628526
 20
284.5429966824099
 30
0.0
 40
1.999986844954076
100
AcDbArc
 50
90.00036528735526
 51
181.7883072882699
  0
LINE
  5
46F
330
1A
100
AcDbEntity
  8
SEIHIN
  6
CONTINUOUS
 62
     3
100
AcDbLine
 10
448.099824979513
 20
287.6429842927116
 30
0.0
 11
441.604624979513
 21
287.6429842927116
 31
0.0
  0
ARC
  5
470
330
1A
100
AcDbEntity
  8
SEIHIN
  6
CONTINUOUS
 62
     3
100
AcDbCircle
 10
443.769324979513
 20
284.0429842927115
 30
0.0
 40
2.000008999999999
100
AcDbArc
 50
90.0
 51
181.7363119999999
  0
ARC
  5
471
330
1A
100
AcDbEntity
  8
SEIHIN
  6
CONTINUOUS
 62
     3
100
AcDbCircle
 10
442.204924979513
 20
286.1429842927116
 30
0.0
 40
1.499994
100
AcDbArc
 50
90.0
 51
181.734432
  0
LINE
  5
473
330
1A
100
AcDbEntity
  8
SEIHIN
  6
CONTINUOUS
 62
     3
100
AcDbLine
 10
477.2078249795129
 20
217.2962842927116
 30
0.0
 11
477.2078249795129
 21
226.9461842927115
 31
0.0
  0
ARC
  5
474
330
1A
100
AcDbEntity
  8
SEIHIN
  6
CONTINUOUS
 62
     3
100
AcDbCircle
 10
476.707824979513
 20
217.2962842927116
 30
0.0
 40
0.4999770000000001
100
AcDbArc
 50
290.000731
 51
0.0
  0
ARC
  5
475
330
1A
100
AcDbEntity
  8
NOKITOI
  6
PHANTOM
 62
     8
 48
5.0
100
AcDbCircle
 10
450.2870376765182
 20
283.5429900624087
 30
0.0
 40
0.4999934649531607
100
AcDbArc
 50
356.9955363203384
 51
89.99928939038005
  0
ARC
  5
476
330
1A
100
AcDbEntity
  8
NOKITOI
  6
PHANTOM
 62
     8
 48
5.0
100
AcDbCircle
 10
451.5881564473844
 20
271.2429719025938
 30
0.0
 40
0.5000116248877111
100
AcDbArc
 50
4.474846808342897
 51
90.00144034898337
  0
ARC
  5
477
330
1A
100
AcDbEntity
  8
NOKITOI
  6
PHANTOM
 62
     8
 48
5.0
100
AcDbCircle
 10
450.0442354535135
 20
269.5429910423799
 30
0.0
 40
0.9999924849789756
100
AcDbArc
 50
6.528264606674428
 51
89.99951732740891
  0
ARC
  5
478
330
1A
100
AcDbEntity
  8
SEIHIN
  6
CONTINUOUS
 62
     3
100
AcDbCircle
 10
449.393424979513
 20
268.0429842927115
 30
0.0
 40
0.500029
100
AcDbArc
 50
8.394225999999999
 51
90.0
  0
ARC
  5
479
330
1A
100
AcDbEntity
  8
SEIHIN
  6
CONTINUOUS
 62
     3
100
AcDbCircle
 10
448.878524979513
 20
267.4429842927115
 30
0.0
 40
2.100042999999999
100
AcDbArc
 50
9.057301999999999
 51
90.0
  0
ARC
  5
47A
330
1A
100
AcDbEntity
  8
SEIHIN
  6
CONTINUOUS
 62
     3
100
AcDbCircle
 10
448.878524979513
 20
267.4429842927115
 30
0.0
 40
0.5000160000000001
100
AcDbArc
 50
9.055427999999999
 51
90.0
  0
ARC
  5
47B
330
1A
100
AcDbEntity
  8
NOKITOI
  6
PHANTOM
 62
     8
 48
5.0
100
AcDbCircle
 10
449.9712369906811
 20
277.5429769922379
 30
0.0
 40
0.499993464961963
100
AcDbArc
 50
270.0007892017873
 51
356.9970361317427
  0
LINE
  5
47C
330
1A
100
AcDbEntity
  8
NOKITOI
  6
PHANTOM
 62
     8
 48
5.0
100
AcDbLine
 10
449.3071438776761
 20
278.2429835273235
 30
0.0
 11
449.4883438776761
 21
281.6844835273236
 31
0.0
  0
LINE
  5
47D
330
1A
100
AcDbEntity
  8
NOKITOI
  6
PHANTOM
 62
     8
 48
5.0
100
AcDbLine
 10
448.9333438776762
 20
281.0713835273233
 30
0.0
 11
449.4883438776761
 21
281.6844835273236
 31
0.0
  0
LINE
  5
47E
330
1A
100
AcDbEntity
  8
NOKITOI
  6
PHANTOM
 62
     8
 48
5.0
100
AcDbLine
 10
448.5292438776765
 20
278.2429835273235
 30
0.0
 11
448.9333438776762
 21
281.0713835273233
 31
0.0
  0
LINE
  5
47F
330
1A
100
AcDbEntity
  8
NOKITOI
  6
PHANTOM
 62
     8
 48
5.0
100
AcDbLine
 10
449.3071438776761
 20
278.2429835273235
 30
0.0
 11
448.5292438776765
 21
278.2429835273235
 31
0.0
  0
LINE
  5
480
330
1A
100
AcDbEntity
  8
NOKITOI
  6
PHANTOM
 62
     8
 48
5.0
100
AcDbLine
 10
450.4706438776763
 20
277.5167835273234
 30
0.0
 11
450.7864438776761
 21
283.5166835273235
 31
0.0
  0
ARC
  5
481
330
1A
100
AcDbEntity
  8
SEIHIN
  6
CONTINUOUS
 62
     3
100
AcDbCircle
 10
450.007724979513
 20
287.5429842927116
 30
0.0
 40
1.5
100
AcDbArc
 50
0.0
 51
90.0
  0
ARC
  5
482
330
1A
100
AcDbEntity
  8
SEIHIN
  6
CONTINUOUS
 62
     3
100
AcDbCircle
 10
446.806224979513
 20
289.2445842927116
 30
0.0
 40
4.999983999999999
100
AcDbArc
 50
289.895093
 51
340.1034399999999
  0
LINE
  5
483
330
1A
100
AcDbEntity
  8
SEIHIN
  6
CONTINUOUS
 62
     3
100
AcDbLine
 10
448.5077249795129
 20
286.0429842927116
 30
0.0
 11
448.5077249795129
 21
284.5429842927115
 31
0.0
  0
ARC
  5
484
330
1A
100
AcDbEntity
  8
SEIHIN
  6
CONTINUOUS
 62
     3
100
AcDbCircle
 10
571.207824979513
 20
213.7789842927115
 30
0.0
 40
30.00002
100
AcDbArc
 50
140.209737
 51
180.0
  0
LINE
  5
485
330
1A
100
AcDbEntity
  8
SEIHIN
  6
CONTINUOUS
 62
     3
100
AcDbLine
 10
550.207824979513
 20
203.4170842927116
 30
0.0
 11
550.207824979513
 21
235.6214842927115
 31
0.0
  0
ARC
  5
488
330
1A
100
AcDbEntity
  8
SEIHIN
  6
CONTINUOUS
 62
     3
100
AcDbCircle
 10
510.207824979513
 20
203.4170842927116
 30
0.0
 40
39.999997
100
AcDbArc
 50
289.999995
 51
359.9998569999999
  0
ARC
  5
48A
330
1A
100
AcDbEntity
  8
SEIHIN
  6
CONTINUOUS
 62
     3
100
AcDbCircle
 10
510.207824979513
 20
203.4170842927116
 30
0.0
 40
31.000009
100
AcDbArc
 50
289.999939
 51
359.999815
  0
LINE
  5
48F
330
1A
100
AcDbEntity
  8
SEIHIN
  6
CONTINUOUS
 62
     3
100
AcDbLine
 10
541.207824979513
 20
203.4170842927116
 30
0.0
 11
541.207824979513
 21
213.7789842927115
 31
0.0
  0
LINE
  5
495
330
1A
100
AcDbEntity
  8
NOKITOI
  6
PHANTOM
 62
     8
 48
5.0
100
AcDbLine
 10
552.8556438776765
 20
269.6424835273235
 30
0.0
 11
549.9868438776762
 21
240.9550835273234
 31
0.0
  0
LINE
  5
496
330
1A
100
AcDbEntity
  8
NOKITOI
  6
PHANTOM
 62
     8
 48
5.0
100
AcDbLine
 10
551.8146438776763
 20
271.2927835273235
 30
0.0
 11
548.8216438776759
 21
241.3629835273234
 31
0.0
  0
LINE
  5
497
330
1A
100
AcDbEntity
  8
SEIHIN
  6
CONTINUOUS
 62
     3
100
AcDbLine
 10
553.563224979513
 20
268.0944842927116
 30
0.0
 11
550.7025249795129
 21
240.4400842927115
 31
0.0
  0
LINE
  5
498
330
1A
100
AcDbEntity
  8
SEIHIN
  6
CONTINUOUS
 62
     3
100
AcDbLine
 10
554.1043249795129
 20
267.4944842927116
 30
0.0
 11
550.910224979513
 21
236.6167842927116
 31
0.0
  0
LINE
  5
499
330
1A
100
AcDbEntity
  8
SEIHIN
  6
CONTINUOUS
 62
     3
100
AcDbLine
 10
552.5128249795129
 20
267.6590842927115
 30
0.0
 11
549.7502249795131
 21
240.9529842927116
 31
0.0
  0
LINE
  5
49A
330
1A
100
AcDbEntity
  8
NOKITOI
  6
PHANTOM
 62
     8
 48
5.0
100
AcDbLine
 10
549.6250438776761
 20
240.2805835273236
 30
0.0
 11
539.2219438776761
 21
231.7688835273236
 31
0.0
  0
LINE
  5
49B
330
1A
100
AcDbEntity
  8
NOKITOI
  6
PHANTOM
 62
     8
 48
5.0
100
AcDbLine
 10
548.6407438776764
 20
241.0256835273234
 30
0.0
 11
538.6554438776762
 21
232.8558835273233
 31
0.0
  0
LINE
  5
49C
330
1A
100
AcDbEntity
  8
SEIHIN
  6
CONTINUOUS
 62
     3
100
AcDbLine
 10
550.341124979513
 20
239.7689842927115
 30
0.0
 11
539.341024979513
 21
230.7688842927115
 31
0.0
  0
LINE
  5
49D
330
1A
100
AcDbEntity
  8
SEIHIN
  6
CONTINUOUS
 62
     3
100
AcDbLine
 10
549.3887249795129
 20
240.2818842927116
 30
0.0
 11
538.984124979513
 21
231.7688842927116
 31
0.0
  0
LINE
  5
49E
330
1A
100
AcDbEntity
  8
SEIHIN
  6
CONTINUOUS
 62
     3
100
AcDbLine
 10
550.912424979513
 20
239.4611842927115
 30
0.0
 11
539.5552249795129
 21
230.1688842927116
 31
0.0
  0
LINE
  5
49F
330
1A
100
AcDbEntity
  8
NOKITOI
  6
PHANTOM
 62
     8
 48
5.0
100
AcDbLine
 10
534.3388438776761
 20
232.7428835273235
 30
0.0
 11
514.4307438776764
 21
232.7428835273235
 31
0.0
  0
LINE
  5
4A0
330
1A
100
AcDbEntity
  8
NOKITOI
  6
PHANTOM
 62
     8
 48
5.0
100
AcDbLine
 10
534.5886438776761
 20
231.5428835273235
 30
0.0
 11
514.4307438776764
 21
231.5428835273235
 31
0.0
  0
ARC
  5
4A1
330
1A
100
AcDbEntity
  8
NOKITOI
  6
PHANTOM
 62
     8
 48
5.0
100
AcDbCircle
 10
538.3388502654248
 20
233.242885807313
 30
0.0
 40
0.5000022800304047
100
AcDbArc
 50
269.9992680212786
 51
309.2854498596058
  0
ARC
  5
4A2
330
1A
100
AcDbEntity
  8
SEIHIN
  6
CONTINUOUS
 62
     3
100
AcDbCircle
 10
538.350824979513
 20
232.5428842927116
 30
0.0
 40
1.000036
100
AcDbArc
 50
270.0
 51
309.290616
  0
ARC
  5
4A3
330
1A
100
AcDbEntity
  8
NOKITOI
  6
PHANTOM
 62
     8
 48
5.0
100
AcDbCircle
 10
538.5886369450987
 20
232.5428810523173
 30
0.0
 40
0.9999975250179316
100
AcDbArc
 50
270.0003972084043
 51
309.2946416752298
  0
ARC
  5
4A4
330
1A
100
AcDbEntity
  8
SEIHIN
  6
CONTINUOUS
 62
     3
100
AcDbCircle
 10
538.707824979513
 20
231.5428842927115
 30
0.0
 40
1.000005
100
AcDbArc
 50
270.0
 51
309.2861819999999
  0
ARC
  5
4A5
330
1A
100
AcDbEntity
  8
SEIHIN
  6
CONTINUOUS
 62
     3
100
AcDbCircle
 10
538.922024979513
 20
230.9428842927116
 30
0.0
 40
1.000005
100
AcDbArc
 50
270.0
 51
309.2861819999999
  0
ARC
  5
4A6
330
1A
100
AcDbEntity
  8
NOKITOI
  6
PHANTOM
 62
     8
 48
5.0
100
AcDbCircle
 10
548.9918213048073
 20
241.0545414556509
 30
0.0
 40
0.9999908507640039
100
AcDbArc
 50
309.2887092230696
 51
354.2862329477531
  0
ARC
  5
4A7
330
1A
100
AcDbEntity
  8
NOKITOI
  6
PHANTOM
 62
     8
 48
5.0
100
AcDbCircle
 10
548.3241264517979
 20
241.4126510409355
 30
0.0
 40
0.4999904508696396
100
AcDbArc
 50
309.2900846377958
 51
354.2990110749245
  0
ARC
  5
4A8
330
1A
100
AcDbEntity
  8
SEIHIN
  6
CONTINUOUS
 62
     3
100
AcDbCircle
 10
550.279224979513
 20
240.2351842927116
 30
0.0
 40
1.000008999999999
100
AcDbArc
 50
309.2861819999999
 51
354.093859
  0
ARC
  5
4A9
330
1A
100
AcDbEntity
  8
SEIHIN
  6
CONTINUOUS
 62
     3
100
AcDbCircle
 10
548.7555249795129
 20
241.0558842927116
 30
0.0
 40
1.000008999999999
100
AcDbArc
 50
309.2861819999999
 51
354.093859
  0
ARC
  5
4AA
330
1A
100
AcDbEntity
  8
SEIHIN
  6
CONTINUOUS
 62
     3
100
AcDbCircle
 10
549.707824979513
 20
240.5429842927115
 30
0.0
 40
1.00004
100
AcDbArc
 50
309.290616
 51
354.093859
  0
ARC
  5
4AB
330
1A
100
AcDbEntity
  8
NOKITOI
  6
PHANTOM
 62
     8
 48
5.0
100
AcDbCircle
 10
553.6042475871714
 20
283.5429874373541
 30
0.0
 40
0.4999960899831856
100
AcDbArc
 50
90.00042508015132
 51
183.0156217414654
  0
LINE
  5
4AC
330
1A
100
AcDbEntity
  8
NOKITOI
  6
PHANTOM
 62
     8
 48
5.0
100
AcDbLine
 10
560.6817438776757
 20
284.5179835273233
 30
0.0
 11
560.5324438776762
 21
279.7389835273236
 31
0.0
  0
LINE
  5
4AD
330
1A
100
AcDbEntity
  8
NOKITOI
  6
PHANTOM
 62
     8
 48
5.0
100
AcDbLine
 10
557.4094438776761
 20
285.3429835273236
 30
0.0
 11
557.9094438776762
 21
282.8429835273236
 31
0.0
  0
LINE
  5
4AE
330
1A
100
AcDbEntity
  8
NOKITOI
  6
PHANTOM
 62
     8
 48
5.0
100
AcDbLine
 10
561.8811438776762
 20
284.4804835273234
 30
0.0
 11
561.4910438776761
 21
271.9960835273234
 31
0.0
  0
LINE
  5
4AF
330
1A
100
AcDbEntity
  8
SEIHIN
  6
CONTINUOUS
 62
     3
100
AcDbLine
 10
562.2220249795129
 20
269.9975842927116
 30
0.0
 11
562.709924979513
 21
286.0975842927115
 31
0.0
  0
LINE
  5
4B0
330
1A
100
AcDbEntity
  8
SEIHIN
  6
CONTINUOUS
 62
     3
100
AcDbLine
 10
561.645324979513
 20
283.9823842927115
 30
0.0
 11
561.251924979513
 21
270.9975842927116
 31
0.0
  0
LINE
  5
4B1
330
1A
100
AcDbEntity
  8
SEIHIN
  6
CONTINUOUS
 62
     3
100
AcDbLine
 10
562.8041249795129
 20
269.3975842927116
 30
0.0
 11
563.310224979513
 21
286.0975842927115
 31
0.0
  0
ARC
  5
4B2
330
1A
100
AcDbEntity
  8
SEIHIN
  6
CONTINUOUS
 62
     3
100
AcDbCircle
 10
561.304824979513
 20
269.4429842927115
 30
0.0
 40
1.499994
100
AcDbArc
 50
270.0
 51
358.265568
  0
ARC
  5
4B3
330
1A
100
AcDbEntity
  8
NOKITOI
  6
PHANTOM
 62
     8
 48
5.0
100
AcDbCircle
 10
558.3440818655004
 20
273.7429203478957
 30
0.0
 40
2.000036820932882
100
AcDbArc
 50
269.9989117490339
 51
358.2110591274196
  0
LINE
  5
4B4
330
1A
100
AcDbEntity
  8
NOKITOI
  6
PHANTOM
 62
     8
 48
5.0
100
AcDbLine
 10
552.3121438776757
 20
271.7429835273235
 30
0.0
 11
558.3440438776761
 21
271.7429835273235
 31
0.0
  0
LINE
  5
4B5
330
1A
100
AcDbEntity
  8
NOKITOI
  6
PHANTOM
 62
     8
 48
5.0
100
AcDbLine
 10
559.9917438776762
 20
270.5429835273235
 30
0.0
 11
553.8506438776763
 21
270.5429835273235
 31
0.0
  0
LINE
  5
4B6
330
1A
100
AcDbEntity
  8
SEIHIN
  6
CONTINUOUS
 62
     3
100
AcDbLine
 10
560.722724979513
 20
268.5429842927116
 30
0.0
 11
554.060524979513
 21
268.5429842927116
 31
0.0
  0
LINE
  5
4B7
330
1A
100
AcDbEntity
  8
SEIHIN
  6
CONTINUOUS
 62
     3
100
AcDbLine
 10
559.752624979513
 20
269.5429842927115
 30
0.0
 11
554.6016249795129
 21
269.5429842927115
 31
0.0
  0
LINE
  5
4B8
330
1A
100
AcDbEntity
  8
SEIHIN
  6
CONTINUOUS
 62
     3
100
AcDbLine
 10
561.304824979513
 20
267.9429842927115
 30
0.0
 11
554.6016249795129
 21
267.9429842927115
 31
0.0
  0
ARC
  5
4B9
330
1A
100
AcDbEntity
  8
NOKITOI
  6
PHANTOM
 62
     8
 48
5.0
100
AcDbCircle
 10
553.8506645275171
 20
269.5430022151727
 30
0.0
 40
0.9999813123640345
100
AcDbArc
 50
90.00118317084957
 51
174.290590033351
  0
ARC
  5
4BA
330
1A
100
AcDbEntity
  8
NOKITOI
  6
PHANTOM
 62
     8
 48
5.0
100
AcDbCircle
 10
552.3121569486808
 20
271.2429953576033
 30
0.0
 40
0.499988169890889
100
AcDbArc
 50
90.00149786226627
 51
174.2966061377156
  0
ARC
  5
4BB
330
1A
100
AcDbEntity
  8
SEIHIN
  6
CONTINUOUS
 62
     3
100
AcDbCircle
 10
554.060524979513
 20
268.0429842927115
 30
0.0
 40
0.4999800000000001
100
AcDbArc
 50
90.0
 51
174.08757
  0
ARC
  5
4BC
330
1A
100
AcDbEntity
  8
SEIHIN
  6
CONTINUOUS
 62
     3
100
AcDbCircle
 10
554.6016249795129
 20
267.4429842927115
 30
0.0
 40
0.50003
100
AcDbArc
 50
90.0
 51
174.08875
  0
ARC
  5
4BD
330
1A
100
AcDbEntity
  8
SEIHIN
  6
CONTINUOUS
 62
     3
100
AcDbCircle
 10
554.6016249795129
 20
267.4429842927115
 30
0.0
 40
2.099974
100
AcDbArc
 50
90.0
 51
174.093391
  0
ARC
  5
4BE
330
1A
100
AcDbEntity
  8
NOKITOI
  6
PHANTOM
 62
     8
 48
5.0
100
AcDbCircle
 10
559.9917610908542
 20
272.0430002104712
 30
0.0
 40
1.500016683246579
100
AcDbArc
 50
269.9993425123348
 51
358.207642324411
  0
ARC
  5
4BF
330
1A
100
AcDbEntity
  8
SEIHIN
  6
CONTINUOUS
 62
     3
100
AcDbCircle
 10
560.722724979513
 20
270.0429842927115
 30
0.0
 40
1.499995
100
AcDbArc
 50
270.0
 51
358.26175
  0
ARC
  5
4C0
330
1A
100
AcDbEntity
  8
SEIHIN
  6
CONTINUOUS
 62
     3
100
AcDbCircle
 10
559.752624979513
 20
271.0429842927116
 30
0.0
 40
1.499994
100
AcDbArc
 50
270.0
 51
358.265568
  0
LINE
  5
4C1
330
1A
100
AcDbEntity
  8
NOKITOI
  6
PHANTOM
 62
     8
 48
5.0
100
AcDbLine
 10
553.9200438776762
 20
277.0429835273235
 30
0.0
 11
556.1691438776757
 21
277.0429835273235
 31
0.0
  0
LINE
  5
4C2
330
1A
100
AcDbEntity
  8
NOKITOI
  6
PHANTOM
 62
     8
 48
5.0
100
AcDbLine
 10
554.5841438776761
 20
278.2429835273235
 30
0.0
 11
555.3620438776757
 21
278.2429835273235
 31
0.0
  0
LINE
  5
4C3
330
1A
100
AcDbEntity
  8
NOKITOI
  6
PHANTOM
 62
     8
 48
5.0
100
AcDbLine
 10
554.9580438776762
 20
281.0713835273233
 30
0.0
 11
554.4030438776759
 21
281.6843835273234
 31
0.0
  0
ARC
  5
4C4
330
1A
100
AcDbEntity
  8
NOKITOI
  6
PHANTOM
 62
     8
 48
5.0
100
AcDbCircle
 10
553.9200479990828
 20
277.5429796172929
 30
0.0
 40
0.4999960899864752
100
AcDbArc
 50
183.0147243791737
 51
269.9995277178594
  0
LINE
  5
4C5
330
1A
100
AcDbEntity
  8
NOKITOI
  6
PHANTOM
 62
     8
 48
5.0
100
AcDbLine
 10
554.5841438776761
 20
278.2429835273235
 30
0.0
 11
554.4030438776759
 21
281.6843835273234
 31
0.0
  0
LINE
  5
4C6
330
1A
100
AcDbEntity
  8
NOKITOI
  6
PHANTOM
 62
     8
 48
5.0
100
AcDbLine
 10
553.4207438776762
 20
277.5166835273235
 30
0.0
 11
553.104943877676
 21
283.5166835273235
 31
0.0
  0
LINE
  5
4C7
330
1A
100
AcDbEntity
  8
NOKITOI
  6
PHANTOM
 62
     8
 48
5.0
100
AcDbLine
 10
557.9094438776762
 20
282.8429835273236
 30
0.0
 11
554.9728438776761
 21
282.8429835273236
 31
0.0
  0
LINE
  5
4C8
330
1A
100
AcDbEntity
  8
NOKITOI
  6
PHANTOM
 62
     8
 48
5.0
100
AcDbLine
 10
555.9686438776763
 20
281.7429835273235
 30
0.0
 11
554.9728438776761
 21
282.8429835273236
 31
0.0
  0
LINE
  5
4C9
330
1A
100
AcDbEntity
  8
NOKITOI
  6
PHANTOM
 62
     8
 48
5.0
100
AcDbLine
 10
555.3620438776757
 20
278.2429835273235
 30
0.0
 11
554.9580438776762
 21
281.0713835273233
 31
0.0
  0
LINE
  5
4CA
330
1A
100
AcDbEntity
  8
NOKITOI
  6
PHANTOM
 62
     8
 48
5.0
100
AcDbLine
 10
555.9686438776763
 20
281.7429835273235
 30
0.0
 11
556.4306438776762
 21
281.7429835273235
 31
0.0
  0
ARC
  5
4CB
330
1A
100
AcDbEntity
  8
NOKITOI
  6
PHANTOM
 62
     8
 48
5.0
100
AcDbCircle
 10
556.1691540641123
 20
277.5429952720476
 30
0.0
 40
0.5000117448278309
100
AcDbArc
 50
269.9988327478018
 51
8.127314608715803
  0
LINE
  5
4CC
330
1A
100
AcDbEntity
  8
NOKITOI
  6
PHANTOM
 62
     8
 48
5.0
100
AcDbLine
 10
556.6641438776761
 20
277.6136835273234
 30
0.0
 11
556.3303438776762
 21
279.9498835273236
 31
0.0
  0
ARC
  5
4CD
330
1A
100
AcDbEntity
  8
NOKITOI
  6
PHANTOM
 62
     8
 48
5.0
100
AcDbCircle
 10
556.8253732501758
 20
280.0206137598184
 30
0.0
 40
0.4999578477751074
100
AcDbArc
 50
83.52609071220776
 51
188.1330561712924
  0
ARC
  5
4CE
330
1A
100
AcDbEntity
  8
NOKITOI
  6
PHANTOM
 62
     8
 48
5.0
100
AcDbCircle
 10
556.43061295074
 20
276.5430192719873
 30
0.0
 40
3.99998565374706
100
AcDbArc
 50
358.2086966591014
 51
83.52422380468325
  0
ARC
  5
4CF
330
1A
100
AcDbEntity
  8
NOKITOI
  6
PHANTOM
 62
     8
 48
5.0
100
AcDbCircle
 10
556.430626011325
 20
276.5429922557034
 30
0.0
 40
5.199991271650611
100
AcDbArc
 50
37.92532860473096
 51
89.99980314072548
  0
LINE
  5
4D0
330
1A
100
AcDbEntity
  8
NOKITOI
  6
PHANTOM
 62
     8
 48
5.0
100
AcDbLine
 10
560.3431438776762
 20
273.6803835273235
 30
0.0
 11
560.4286438776759
 21
276.4179835273234
 31
0.0
  0
ARC
  5
4D3
330
1A
100
AcDbEntity
  8
SEIHIN
  6
CONTINUOUS
 62
     3
100
AcDbCircle
 10
561.210624979513
 20
286.1429842927116
 30
0.0
 40
1.499994
100
AcDbArc
 50
358.265568
 51
90.0
  0
ARC
  5
4D4
330
1A
100
AcDbEntity
  8
SEIHIN
  6
CONTINUOUS
 62
     3
100
AcDbCircle
 10
561.8108249795129
 20
286.1429842927116
 30
0.0
 40
1.500044
100
AcDbArc
 50
358.2656839999999
 51
90.0
  0
LINE
  5
4D5
330
1A
100
AcDbEntity
  8
NOKITOI
  6
PHANTOM
 62
     8
 48
5.0
100
AcDbLine
 10
553.6042438776763
 20
284.0429835273234
 30
0.0
 11
555.8357438776762
 21
284.0429835273234
 31
0.0
  0
ARC
  5
4D6
330
1A
100
AcDbEntity
  8
SEIHIN
  6
CONTINUOUS
 62
     3
100
AcDbCircle
 10
555.315724979513
 20
289.6429842927116
 30
0.0
 40
2.00001
100
AcDbArc
 50
197.4574179999999
 51
270.0
  0
ARC
  5
4D7
330
1A
100
AcDbEntity
  8
SEIHIN
  6
CONTINUOUS
 62
     3
100
AcDbCircle
 10
556.6093249795129
 20
289.2445842927116
 30
0.0
 40
5.000001
100
AcDbArc
 50
199.89656
 51
250.1038299999999
  0
ARC
  5
4D8
330
1A
100
AcDbEntity
  8
SEIHIN
  6
CONTINUOUS
 62
     3
100
AcDbCircle
 10
553.407824979513
 20
287.5429842927116
 30
0.0
 40
1.5
100
AcDbArc
 50
90.0
 51
180.0
  0
ARC
  5
4D9
330
1A
100
AcDbEntity
  8
NOKITOI
  6
PHANTOM
 62
     8
 48
5.0
100
AcDbCircle
 10
556.5555366231206
 20
286.04297467748
 30
0.0
 40
0.500008849895925
100
AcDbArc
 50
89.99916870385492
 51
191.3135956695117
  0
LINE
  5
4DA
330
1A
100
AcDbEntity
  8
NOKITOI
  6
PHANTOM
 62
     8
 48
5.0
100
AcDbLine
 10
559.8821438776764
 20
286.5428835273235
 30
0.0
 11
556.5555438776761
 21
286.5429835273234
 31
0.0
  0
ARC
  5
4DB
330
1A
100
AcDbEntity
  8
NOKITOI
  6
PHANTOM
 62
     8
 48
5.0
100
AcDbCircle
 10
559.8821878440291
 20
284.5429381648505
 30
0.0
 40
0.7999453636812564
100
AcDbArc
 50
358.212343644788
 51
90.00314907315372
  0
ARC
  5
4DC
330
1A
100
AcDbEntity
  8
NOKITOI
  6
PHANTOM
 62
     8
 48
5.0
100
AcDbCircle
 10
555.8357430946677
 20
284.5429825723217
 30
0.0
 40
0.4999990449987399
100
AcDbArc
 50
270.0000897263054
 51
11.30328019845509
  0
LINE
  5
4DD
330
1A
100
AcDbEntity
  8
NOKITOI
  6
PHANTOM
 62
     8
 48
5.0
100
AcDbLine
 10
559.8821438776764
 20
285.3428835273234
 30
0.0
 11
557.4094438776761
 21
285.3429835273236
 31
0.0
  0
ARC
  5
4DE
330
1A
100
AcDbEntity
  8
NOKITOI
  6
PHANTOM
 62
     8
 48
5.0
100
AcDbCircle
 10
559.8821326406819
 20
284.5429951211406
 30
0.0
 40
1.999988406214315
100
AcDbArc
 50
358.2088726535929
 51
89.99967808195611
  0
LINE
  5
4DF
330
1A
100
AcDbEntity
  8
NOKITOI
  6
PHANTOM
 62
     8
 48
5.0
100
AcDbLine
 10
556.3260438776762
 20
284.6409835273236
 30
0.0
 11
556.0652438776761
 21
285.9449835273235
 31
0.0
  0
LINE
  5
4E0
330
1A
100
AcDbEntity
  8
SEIHIN
  6
CONTINUOUS
 62
     3
100
AcDbLine
 10
555.315724979513
 20
287.6429842927116
 30
0.0
 11
561.8108249795129
 21
287.6429842927116
 31
0.0
  0
LINE
  5
4E1
330
1A
100
AcDbEntity
  8
SEIHIN
  6
CONTINUOUS
 62
     3
100
AcDbLine
 10
559.646224979513
 20
286.0429842927116
 30
0.0
 11
554.907824979513
 21
286.0429842927116
 31
0.0
  0
ARC
  5
4E2
330
1A
100
AcDbEntity
  8
SEIHIN
  6
CONTINUOUS
 62
     3
100
AcDbCircle
 10
559.646224979513
 20
284.0429842927115
 30
0.0
 40
2.000008999999999
100
AcDbArc
 50
358.263688
 51
90.0
  0
LINE
  5
4E3
330
1A
100
AcDbEntity
  8
SEIHIN
  6
CONTINUOUS
 62
     3
100
AcDbLine
 10
554.907824979513
 20
286.0429842927116
 30
0.0
 11
554.907824979513
 21
284.5429842927115
 31
0.0
  0
LINE
  5
4FA
330
1A
100
AcDbEntity
  8
CENTER_L
 48
5.0
100
AcDbLine
 10
570.3079249795144
 20
436.7945351044395
 30
0.0
 11
433.1078249795131
 21
436.7946464680666
 31
0.0
  0
LINE
  5
4FB
330
1A
100
AcDbEntity
  8
CENTER_L
 48
5.0
100
AcDbLine
 10
509.707924979513
 20
399.8946407855022
 30
0.0
 11
509.7079249795131
 21
473.6945407862531
 31
0.0
  0
LINE
  5
4FC
330
1A
100
AcDbEntity
  8
CENTER_L
 48
5.0
100
AcDbLine
 10
259.7078422180881
 20
296.1429842927116
 30
0.0
 11
259.7075310315557
 21
142.7012618728435
 31
0.0
  0
LINE
  5
4FE
330
1A
100
AcDbEntity
  8
CENTER_L
 48
5.0
100
AcDbLine
 10
429.3205354531152
 20
194.652779308122
 30
0.0
 11
496.616559929569
 21
198.180833300738
 31
0.0
  0
LINE
  5
4FF
330
1A
100
AcDbEntity
  8
CENTER_L
 48
5.0
100
AcDbLine
 10
509.707924979513
 20
187.2732444970727
 30
0.0
 11
509.707924979513
 21
239.7429477516026
 31
0.0
  0
LINE
  5
52A
330
1A
100
AcDbEntity
  8
CENTER_L
 48
5.0
100
AcDbLine
 10
453.3839198754505
 20
174.2211244847639
 30
0.0
 11
516.7079249795129
 21
197.2704726944408
 31
0.0
  0
LINE
  5
52B
330
1A
100
AcDbEntity
  8
SEIHIN
  6
PHANTOM
 62
     6
 48
5.0
100
AcDbLine
 10
454.6086822838956
 20
228.0221848357747
 30
0.0
 11
457.958297575536
 21
164.1098887273731
 31
0.0
  0
LINE
  5
52C
330
1A
100
AcDbEntity
  8
SEIHIN
  6
PHANTOM
 62
     6
 48
5.0
100
AcDbLine
 10
464.2454266224058
 20
228.5272420644049
 30
0.0
 11
454.6086822838956
 21
228.0221848357747
 31
0.0
  0
LINE
  5
52D
330
1A
100
AcDbEntity
  8
SEIHIN
  6
PHANTOM
 62
     6
 48
5.0
100
AcDbLine
 10
438.817302849313
 20
223.6196683277942
 30
0.0
 11
454.7785869662792
 21
224.7765925679591
 31
0.0
  0
LINE
  5
52E
330
1A
100
AcDbEntity
  8
SEIHIN
  6
PHANTOM
 62
     6
 48
5.0
100
AcDbLine
 10
457.9583932060116
 20
164.1098594902026
 30
0.0
 11
494.2911085068366
 21
166.014108192237
 31
0.0
  0
LINE
  5
52F
330
1A
100
AcDbEntity
  8
SEIHIN
  6
PHANTOM
 62
     6
 48
5.0
100
AcDbLine
 10
441.7933562730339
 20
166.8375458148135
 30
0.0
 11
457.7881723950307
 21
167.355443839054
 31
0.0
  0
LINE
  5
530
330
1A
100
AcDbEntity
  8
SEIHIN
  6
PHANTOM
 62
     6
 48
5.0
100
AcDbLine
 10
434.8533595859987
 20
222.8311590727908
 30
0.0
 11
437.7685115730554
 21
167.2073554429386
 31
0.0
  0
LINE
  5
531
330
1A
100
AcDbEntity
  8
SEIHIN
  6
PHANTOM
 62
     6
 48
5.0
100
AcDbLine
 10
437.7686364407014
 20
167.2074218362438
 30
0.0
 11
441.7933562730339
 21
166.8375458148135
 31
0.0
  0
LINE
  5
532
330
1A
100
AcDbEntity
  8
SEIHIN
  6
PHANTOM
 62
     6
 48
5.0
100
AcDbLine
 10
434.8532639555231
 20
222.8311883099613
 30
0.0
 11
438.8172072188374
 21
223.6196975649647
 31
0.0
  0
DIMENSION
  5
543
330
1A
100
AcDbEntity
  8
SUNPOU
 62
     4
100
AcDbDimension
  2
*D1
 10
496.616559929569
 20
198.180833300738
 30
0.0
 11
420.697556658893
 21
178.7468273401072
 31
0.0
 70
    34
  3
STANDARD
100
AcDb2LineAngularDimension
 13
453.3839198754505
 23
174.2211244847639
 33
0.0
 14
516.7079249795129
 24
197.2704726944408
 34
0.0
 15
429.3205354531153
 25
194.652779308122
 35
0.0
 16
414.8506961918
 26
183.0761744802375
 36
0.0
1001
ACAD
1000
DSTYLE
1002
{
1070
   271
1070
     0
1070
   271
1070
     0
1070
   140
1040
6.0
1070
    74
1070
     0
1070
   172
1070
     1
1070
    73
1070
     0
1070
   272
1070
     2
1070
    77
1070
     3
1070
   173
1070
     1
1070
   147
1040
2.0
1070
    42
1040
6.0
1070
    44
1040
3.0
1070
    43
1040
14.0
1070
   271
1070
     0
1070
   178
1070
     4
1070
   177
1070
     4
1070
   176
1070
     4
1070
   141
1040
150.0
1070
     7
1000
_OPEN
1070
     6
1000
_OPEN
1070
    41
1040
7.0
1002
}
  0
DIMENSION
  5
55E
330
1A
100
AcDbEntity
  8
SUNPOU
100
AcDbDimension
  2
*D2
 10
601.8265303333564
 20
194.7225378756846
 30
0.0
 11
596.8265303333565
 21
241.1827580841981
 31
0.0
 70
    32
  3
STANDARD
100
AcDbAlignedDimension
 13
561.210624979513
 23
287.6429782927116
 33
0.0
 14
509.707924979513
 24
194.7225378756846
 34
0.0
 50
90.0
100
AcDbRotatedDimension
1001
ACAD
1000
DSTYLE
1002
{
1070
   140
1040
6.0
1070
    74
1070
     0
1070
   172
1070
     1
1070
    73
1070
     0
1070
   272
1070
     2
1070
    77
1070
     3
1070
   173
1070
     1
1070
   147
1040
2.0
1070
    42
1040
6.0
1070
    44
1040
3.0
1070
    43
1040
14.0
1070
   271
1070
     0
1070
   178
1070
     4
1070
   177
1070
     4
1070
   176
1070
     4
1070
   141
1040
150.0
1070
     7
1000
_OPEN
1070
     6
1000
_OPEN
1070
    41
1040
7.0
1002
}
  0
DIMENSION
  5
56B
330
1A
100
AcDbEntity
  8
SUNPOU
100
AcDbDimension
  2
*D3
 10
440.105324979513
 20
319.2154939488302
 30
0.0
 11
501.707774979513
 21
324.2154939488302
 31
0.0
 70
    32
  3
STANDARD
100
AcDbAlignedDimension
 13
563.310224979513
 23
286.0975842927115
 33
0.0
 14
440.105324979513
 24
286.0975842927115
 34
0.0
100
AcDbRotatedDimension
1001
ACAD
1000
DSTYLE
1002
{
1070
   140
1040
6.0
1070
    74
1070
     0
1070
   172
1070
     1
1070
    73
1070
     0
1070
   272
1070
     2
1070
    77
1070
     3
1070
   173
1070
     1
1070
   147
1040
2.0
1070
    42
1040
6.0
1070
    44
1040
3.0
1070
    43
1040
14.0
1070
   271
1070
     0
1070
   178
1070
     4
1070
   177
1070
     4
1070
   176
1070
     4
1070
   141
1040
150.0
1070
     7
1000
_OPEN
1070
     6
1000
_OPEN
1070
    41
1040
7.0
1002
}
  0
DIMENSION
  5
578
330
1A
100
AcDbEntity
  8
SUNPOU
100
AcDbDimension
  2
*D4
 10
199.707724979513
 20
319.2154939488302
 30
0.0
 11
259.707774979513
 21
324.2154939488302
 31
0.0
 70
    32
  3
STANDARD
100
AcDbAlignedDimension
 13
319.707824979513
 23
289.1428842927115
 33
0.0
 14
199.707724979513
 24
289.1428842927115
 34
0.0
100
AcDbRotatedDimension
1001
ACAD
1000
DSTYLE
1002
{
1070
   140
1040
6.0
1070
    74
1070
     0
1070
   172
1070
     1
1070
    73
1070
     0
1070
   272
1070
     2
1070
    77
1070
     3
1070
   173
1070
     1
1070
   147
1040
2.0
1070
    42
1040
6.0
1070
    44
1040
3.0
1070
    43
1040
14.0
1070
   271
1070
     0
1070
   178
1070
     4
1070
   177
1070
     4
1070
   176
1070
     4
1070
   141
1040
150.0
1070
     7
1000
_OPEN
1070
     6
1000
_OPEN
1070
    41
1040
7.0
1002
}
  0
LINE
  5
579
330
1A
100
AcDbEntity
  8
SEIHIN
  6
CONTINUOUS
 62
     3
100
AcDbLine
 10
477.2077451150162
 20
216.9462024095829
 30
0.0
 11
499.0971451150161
 21
156.805902409583
 31
0.0
  0
DIMENSION
  5
588
330
1A
100
AcDbEntity
  8
SUNPOU
100
AcDbDimension
  2
*D5
 10
515.8057207161862
 20
110.8997218277925
 30
0.0
 11
535.8024971707627
 21
123.4988857455171
 31
0.0
 70
    33
  1
※<>
  3
STANDARD
100
AcDbAlignedDimension
 13
489.700224979513
 23
153.3856842927115
 33
0.0
 14
499.0971451150161
 24
156.805902409583
 34
0.0
1001
ACAD
1000
DSTYLE
1002
{
1070
   140
1040
6.0
1070
    74
1070
     0
1070
   172
1070
     1
1070
    73
1070
     0
1070
   272
1070
     2
1070
    77
1070
     3
1070
   173
1070
     1
1070
   147
1040
2.0
1070
    42
1040
6.0
1070
    44
1040
3.0
1070
    43
1040
14.0
1070
   271
1070
     0
1070
   178
1070
     4
1070
   177
1070
     4
1070
   176
1070
     4
1070
   141
1040
150.0
1070
     7
1000
_OPEN
1070
     6
1000
_OPEN
1070
    41
1040
7.0
1002
}
  0
TEXT
  5
5B3
330
1A
100
AcDbEntity
  8
SUNPOU
100
AcDbText
 10
420.6103763004553
 20
159.3484447434394
 30
0.0
 40
6.0
  1
スライド巾
 50
287.0
100
AcDbText
  0
LINE
  5
866
330
1A
100
AcDbEntity
  8
ZUWAKU
100
AcDbLine
 10
208.6466002680353
 20
15.2000001738828
 30
0.0
 11
447.4243629489587
 21
15.20000017388279
 31
0.0
  0
LINE
  5
867
330
1A
100
AcDbEntity
  8
ZUWAKU
100
AcDbLine
 10
208.6466002680353
 20
15.6000001738828
 30
0.0
 11
447.4243629489587
 21
15.6000001738828
 31
0.0
  0
LINE
  5
868
330
1A
100
AcDbEntity
  8
ZUWAKU
100
AcDbLine
 10
208.6466002680353
 20
15.4000001738828
 30
0.0
 11
447.4243629489587
 21
15.4000001738828
 31
0.0
  0
LINE
  5
869
330
1A
100
AcDbEntity
  8
ZUWAKU
100
AcDbLine
 10
-0.0000010220326203
 20
30.80000017388277
 30
0.0
 11
797.3999989779672
 21
30.80000017388277
 31
0.0
  0
LINE
  5
86A
330
1A
100
AcDbEntity
  8
ZUWAKU
100
AcDbLine
 10
-0.0000010220326203
 20
30.60000017388277
 30
0.0
 11
797.3999989779672
 21
30.60000017388277
 31
0.0
  0
LINE
  5
86B
330
1A
100
AcDbEntity
  8
ZUWAKU
100
AcDbLine
 10
-0.0000010220326203
 20
30.40000017388277
 30
0.0
 11
797.3999989779672
 21
30.40000017388277
 31
0.0
  0
LINE
  5
86C
330
1A
100
AcDbEntity
  8
ZUWAKU
100
AcDbLine
 10
-0.0000010220326203
 20
30.20000017388277
 30
0.0
 11
797.3999989779672
 21
30.20000017388277
 31
0.0
  0
LINE
  5
86D
330
1A
100
AcDbEntity
  8
ZUWAKU
100
AcDbLine
 10
-0.0000010220326203
 20
30.00000017388277
 30
0.0
 11
797.3999989779672
 21
30.00000017388277
 31
0.0
  0
LWPOLYLINE
  5
86E
330
1A
100
AcDbEntity
  8
ZUWAKU
100
AcDbPolyline
 90
        4
 70
     1
 43
0.0
 10
0.1999989779673115
 20
551.4000001738828
 10
0.1999989779673115
 20
0.2000001738828132
 10
797.3999989779672
 20
0.2000001738828363
 10
797.3999989779675
 20
551.4000001738828
  0
LWPOLYLINE
  5
86F
330
1A
100
AcDbEntity
  8
ZUWAKU
100
AcDbPolyline
 90
        4
 70
     1
 43
0.0
 10
0.5999989779672888
 20
551.0000001738829
 10
0.5999989779672888
 20
0.6000001738827905
 10
796.9999989779676
 20
0.6000001738828367
 10
796.9999989779673
 20
551.0000001738829
  0
LWPOLYLINE
  5
870
330
1A
100
AcDbEntity
  8
ZUWAKU
100
AcDbPolyline
 90
        4
 70
     1
 43
0.0
 10
-0.0000010220326203
 20
551.6000001738827
 10
-0.0000010220326203
 20
0.0000001738827677
 10
797.5999989779674
 20
0.0000001738828352
 10
797.5999989779674
 20
551.6000001738829
  0
LWPOLYLINE
  5
871
330
1A
100
AcDbEntity
  8
ZUWAKU
100
AcDbPolyline
 90
        4
 70
     1
 43
0.0
 10
0.3999989779673569
 20
551.2000001738828
 10
0.3999989779673569
 20
0.4000001738828587
 10
797.1999989779674
 20
0.4000001738828356
 10
797.1999989779674
 20
551.2000001738828
  0
LWPOLYLINE
  5
872
330
1A
100
AcDbEntity
  8
ZUWAKU
100
AcDbPolyline
 90
        4
 70
     1
 43
0.0
 10
0.7999989779673343
 20
550.8000001738828
 10
0.7999989779673343
 20
0.8000001738828359
 10
796.7999989779673
 20
0.8000001738828359
 10
796.7999989779673
 20
550.8000001738828
  0
TEXT
  5
873
330
1A
100
AcDbEntity
  8
MOJI
100
AcDbText
 10
92.95778856613651
 20
12.74117830415752
 30
0.0
 40
6.0
  1
新・丸トップＲＶ１０５
 41
0.9
  7
ｽﾀｲﾙ1
100
AcDbText
  0
HATCH
  5
874
330
1A
100
AcDbEntity
  8
ZUWAKU
100
AcDbHatch
 10
0.0
 20
0.0
 30
0.0
210
0.0
220
0.0
230
1.0
  2
ANSI37
 70
     0
 71
     0
 91
        8
 92
        7
 72
     1
 73
     1
 93
       24
 10
14.50226163908723
 20
17.64484865486635
 42
-0.1989123673796348
 10
14.0922111327485
 20
18.6347981485274
 42
0.0
 10
14.0922111327485
 20
19.92500017388278
 42
-0.4142135623730912
 10
14.61721113274847
 20
20.45000017388276
 42
0.0
 10
17.59221113274838
 20
20.45000017388276
 42
0.4142135623731546
 10
18.11721113274847
 20
20.97500017388276
 42
0.0
 10
18.11721113274847
 20
22.72500017388277
 42
0.4142135623731586
 10
17.59221113274838
 20
23.25000017388277
 42
0.0
 10
14.0922111327485
 20
23.25000017388277
 42
0.4142135623730928
 10
11.29221113274854
 20
20.4500001738828
 42
0.0
 10
11.29221113274854
 20
18.63479814852753
 42
0.1989123673796619
 10
12.52236265176497
 20
15.66494966754392
 42
0.0
 10
15.43216062640965
 20
12.75515169289926
 42
-0.1989123673796613
 10
15.8422111327485
 20
11.76520219923807
 42
0.0
 10
15.8422111327485
 20
10.47500017388276
 42
-0.4142135623730911
 10
15.31721113274852
 20
9.95000017388277
 42
0.0
 10
12.34221113274861
 20
9.95000017388277
 42
0.4142135623731526
 10
11.81721113274852
 20
9.425000173882782
 42
0.0
 10
11.81721113274852
 20
7.675000173882761
 42
0.4142135623731526
 10
12.34221113274861
 20
7.150000173882773
 42
0.0
 10
15.8422111327485
 20
7.150000173882773
 42
0.4142135623731044
 10
18.64221113274857
 20
9.950000173882749
 42
0.0
 10
18.64221113274857
 20
11.76520219923802
 42
0.1989123673796604
 10
17.41205961373202
 20
14.73505068022156
 42
0.0
 97
        0
 92
        7
 72
     1
 73
     1
 93
       16
 10
23.54221113274854
 20
19.05000017388277
 42
-0.4142135623730935
 10
24.94221113274852
 20
20.45000017388276
 42
0.0
 10
26.86721113274848
 20
20.45000017388276
 42
0.4142135623731546
 10
27.39221113274857
 20
20.97500017388276
 42
0.0
 10
27.39221113274857
 20
22.72500017388277
 42
0.4142135623730951
 10
26.86721113274859
 20
23.25000017388277
 42
0.0
 10
24.94221113274841
 20
23.25000017388273
 42
0.4142135623730892
 10
20.74221113274848
 20
19.0500001738827
 42
0.0
 10
20.74221113274848
 20
11.35000017388279
 42
0.4142135623730969
 10
24.94221113274852
 20
7.150000173882773
 42
0.0
 10
26.86721113274848
 20
7.150000173882773
 42
0.4142135623731526
 10
27.39221113274857
 20
7.675000173882761
 42
0.0
 10
27.39221113274857
 20
9.425000173882782
 42
0.4142135623730891
 10
26.86721113274859
 20
9.95000017388277
 42
0.0
 10
24.94221113274852
 20
9.95000017388277
 42
-0.4142135623730928
 10
23.54221113274854
 20
11.35000017388275
 42
0.0
 97
        0
 92
        7
 72
     1
 73
     1
 93
        2
 10
24.24221113274848
 20
15.20000017388277
 42
1.0
 10
27.74221113274847
 20
15.20000017388277
 42
1.0
 97
        0
 92
        7
 72
     1
 73
     1
 93
       26
 10
37.31485761492649
 20
19.2050473674462
 42
0.0
 10
38.37649724806431
 20
22.56690620571578
 42
0.5069206636600134
 10
37.87586634886895
 20
23.25000017388277
 42
0.0
 10
36.17697696925972
 20
23.25000017388277
 42
0.3272098845218764
 10
35.67634607006437
 20
22.88309414204974
 42
0.0
 10
33.80807619543259
 20
16.96690620571585
 42
-0.3272098845219541
 10
33.30744529623712
 20
16.60000017388276
 42
0.0
 10
33.16721113274866
 20
16.60000017388276
 42
-0.4142135623731526
 10
32.64221113274857
 20
17.12500017388275
 42
0.0
 10
32.64221113274857
 20
22.72500017388277
 42
0.4142135623730951
 10
32.11721113274859
 20
23.25000017388277
 42
0.0
 10
30.36721113274848
 20
23.25000017388277
 42
0.4142135623730871
 10
29.8422111327485
 20
22.72500017388279
 42
0.0
 10
29.8422111327485
 20
7.675000173882761
 42
0.4142135623730891
 10
30.36721113274848
 20
7.150000173882773
 42
0.0
 10
32.11721113274847
 20
7.150000173882773
 42
0.4142135623731526
 10
32.64221113274857
 20
7.675000173882761
 42
0.0
 10
32.64221113274857
 20
13.27500017388278
 42
-0.4142135623731526
 10
33.16721113274866
 20
13.80000017388277
 42
0.0
 10
33.30744529623723
 20
13.80000017388277
 42
-0.3272098845218915
 10
33.80807619543259
 20
13.43309414204969
 42
0.0
 10
35.67634607006437
 20
7.516906205715844
 42
0.3272098845218902
 10
36.17697696925972
 20
7.150000173882773
 42
0.0
 10
37.87586634886895
 20
7.150000173882773
 42
0.5069206636600335
 10
38.37649724806431
 20
7.83309414204978
 42
0.0
 10
36.05010586959065
 20
15.20000017388291
 42
0.0
 97
        0
 92
        7
 72
     1
 73
     1
 93
        8
 10
43.49221113274848
 20
22.72500017388278
 42
0.4142135623731546
 10
42.96721113274839
 20
23.25000017388277
 42
0.0
 10
41.21721113274861
 20
23.25000017388277
 42
0.4142135623731507
 10
40.69221113274852
 20
22.72500017388279
 42
0.0
 10
40.69221113274852
 20
7.675000173882761
 42
0.4142135623731526
 10
41.21721113274861
 20
7.150000173882773
 42
0.0
 10
42.96721113274839
 20
7.150000173882773
 42
0.4142135623731526
 10
43.49221113274848
 20
7.675000173882761
 42
0.0
 97
        0
 92
        7
 72
     1
 73
     1
 93
       24
 10
48.39221113274857
 20
19.92500017388278
 42
-0.4142135623731546
 10
48.91721113274866
 20
20.45000017388276
 42
0.0
 10
51.89221113274857
 20
20.45000017388276
 42
0.4142135623730911
 10
52.41721113274855
 20
20.97500017388276
 42
0.0
 10
52.41721113274855
 20
22.72500017388277
 42
0.4142135623730952
 10
51.89221113274857
 20
23.25000017388277
 42
0.0
 10
48.39221113274857
 20
23.25000017388277
 42
0.4142135623731048
 10
45.5922111327485
 20
20.4500001738828
 42
0.0
 10
45.5922111327485
 20
18.63479814852753
 42
0.1989123673796613
 10
46.82236265176505
 20
15.66494966754397
 42
0.0
 10
49.73216062640972
 20
12.75515169289931
 42
-0.1989123673796402
 10
50.14221113274857
 20
11.76520219923823
 42
0.0
 10
50.14221113274857
 20
10.47500017388276
 42
-0.4142135623730911
 10
49.61721113274859
 20
9.95000017388277
 42
0.0
 10
46.64221113274857
 20
9.95000017388277
 42
0.4142135623731526
 10
46.11721113274848
 20
9.425000173882782
 42
0.0
 10
46.11721113274848
 20
7.675000173882761
 42
0.4142135623730891
 10
46.64221113274845
 20
7.150000173882773
 42
0.0
 10
50.14221113274857
 20
7.150000173882773
 42
0.4142135623730925
 10
52.94221113274852
 20
9.950000173882749
 42
0.0
 10
52.94221113274852
 20
11.76520219923802
 42
0.1989123673796675
 10
51.71205961373198
 20
14.73505068022167
 42
0.0
 10
48.80226163908742
 20
17.64484865486619
 42
-0.1989123673796652
 10
48.39221113274857
 20
18.63479814852736
 42
0.0
 97
        0
 92
        7
 72
     1
 73
     1
 93
       16
 10
57.8422111327485
 20
22.72500017388276
 42
0.414213562373103
 10
57.31721113274852
 20
23.25000017388277
 42
0.0
 10
55.56721113274853
 20
23.25000017388277
 42
0.4142135623730871
 10
55.04221113274855
 20
22.72500017388279
 42
0.0
 10
55.04221113274855
 20
9.950000173882749
 42
0.4142135623730926
 10
57.8422111327485
 20
7.150000173882773
 42
0.0
 10
61.3422111327485
 20
7.150000173882773
 42
0.4142135623731044
 10
64.14221113274857
 20
9.950000173882749
 42
0.0
 10
64.14221113274857
 20
22.72500017388277
 42
0.4142135623730951
 10
63.61721113274859
 20
23.25000017388277
 42
0.0
 10
61.86721113274848
 20
23.25000017388277
 42
0.4142135623730871
 10
61.3422111327485
 20
22.72500017388279
 42
0.0
 10
61.3422111327485
 20
11.00000017388274
 42
-0.414213562373088
 10
60.29221113274854
 20
9.95000017388277
 42
0.0
 10
58.89221113274857
 20
9.95000017388277
 42
-0.4142135623731197
 10
57.8422111327485
 20
11.00000017388274
 42
0.0
 97
        0
 92
        7
 72
     1
 73
     1
 93
        8
 10
69.04221113274854
 20
22.72500017388279
 42
0.4142135623730871
 10
68.51721113274857
 20
23.25000017388277
 42
0.0
 10
66.76721113274857
 20
23.25000017388277
 42
0.4142135623731507
 10
66.24221113274848
 20
22.72500017388279
 42
0.0
 10
66.24221113274848
 20
7.675000173882761
 42
0.4142135623730891
 10
66.76721113274846
 20
7.150000173882773
 42
0.0
 10
68.51721113274857
 20
7.150000173882773
 42
0.4142135623730891
 10
69.04221113274854
 20
7.675000173882761
 42
0.0
 97
        0
 75
     0
 76
     1
 52
0.0
 41
0.2
 77
     0
 78
     2
 53
45.0
 43
-900.9423053567116
 44
-13.19999982611716
 45
-0.4490128060534576
 46
0.4490128060534577
 79
     0
 53
135.0
 43
-900.9423053567116
 44
-13.19999982611716
 45
-0.4490128060534577
 46
-0.4490128060534576
 79
     0
 47
0.057451373970553
 98
        8
 10
16.07985394099068
 20
15.16717381976832
 10
22.40451398440654
 20
18.84406235633377
 10
25.16436686362704
 20
15.51188181995348
 10
30.91405895960452
 20
16.20129782032427
 10
41.83847099692411
 20
16.66091008786588
 10
46.89819987309692
 20
19.41857649028998
 10
56.55768495036773
 20
18.72915808897778
 10
67.82707859759011
 20
19.1887703565194
  0
LINE
  5
875
330
1A
100
AcDbEntity
  8
ZUWAKU
100
AcDbLine
 10
24.94221113274852
 20
23.25000017388273
 30
0.0
 11
26.86721113274848
 21
23.25000017388277
 31
0.0
  0
LINE
  5
876
330
1A
100
AcDbEntity
  8
ZUWAKU
100
AcDbLine
 10
26.86721113274848
 20
20.45000017388276
 30
0.0
 11
24.94221113274852
 21
20.45000017388276
 31
0.0
  0
LINE
  5
877
330
1A
100
AcDbEntity
  8
ZUWAKU
100
AcDbLine
 10
24.94221113274852
 20
9.95000017388277
 30
0.0
 11
26.86721113274848
 21
9.95000017388277
 31
0.0
  0
LINE
  5
878
330
1A
100
AcDbEntity
  8
ZUWAKU
100
AcDbLine
 10
26.86721113274848
 20
7.150000173882773
 30
0.0
 11
24.94221113274852
 21
7.150000173882773
 31
0.0
  0
CIRCLE
  5
879
330
1A
100
AcDbEntity
  8
ZUWAKU
100
AcDbCircle
 10
25.99221113274848
 20
15.20000017388277
 30
0.0
 40
1.75
  0
ARC
  5
87A
330
1A
100
AcDbEntity
  8
ZUWAKU
100
AcDbCircle
 10
15.49221113274848
 20
18.63479814852747
 30
0.0
 40
1.399999999999999
100
AcDbArc
 50
180.0000000000016
 51
224.9999999999988
  0
LINE
  5
87B
330
1A
100
AcDbEntity
  8
ZUWAKU
100
AcDbLine
 10
23.54221113274854
 20
19.05000017388277
 30
0.0
 11
23.54221113274854
 21
11.35000017388277
 31
0.0
  0
LINE
  5
87C
330
1A
100
AcDbEntity
  8
ZUWAKU
100
AcDbLine
 10
20.74221113274848
 20
11.35000017388277
 30
0.0
 11
20.74221113274848
 21
19.05000017388273
 31
0.0
  0
ARC
  5
87D
330
1A
100
AcDbEntity
  8
ZUWAKU
100
AcDbCircle
 10
15.49221113274848
 20
18.63479814852747
 30
0.0
 40
4.199999999999999
100
AcDbArc
 50
180.0
 51
225.0
  0
ARC
  5
87E
330
1A
100
AcDbEntity
  8
ZUWAKU
100
AcDbCircle
 10
15.8422111327485
 20
9.95000017388277
 30
0.0
 40
2.799999999999999
100
AcDbArc
 50
270.0
 51
0.0
  0
ARC
  5
87F
330
1A
100
AcDbEntity
  8
ZUWAKU
100
AcDbCircle
 10
24.94221113274852
 20
11.35000017388277
 30
0.0
 40
4.199999999999999
100
AcDbArc
 50
180.0
 51
270.0
  0
ARC
  5
880
330
1A
100
AcDbEntity
  8
ZUWAKU
100
AcDbCircle
 10
14.44221113274852
 20
11.76520219923807
 30
0.0
 40
4.199999999999999
100
AcDbArc
 50
0.0
 51
45.0
  0
LINE
  5
881
330
1A
100
AcDbEntity
  8
ZUWAKU
100
AcDbLine
 10
17.41205961373202
 20
14.73505068022159
 30
0.0
 11
14.50226163908735
 21
17.64484865486627
 31
0.0
  0
LINE
  5
882
330
1A
100
AcDbEntity
  8
ZUWAKU
100
AcDbLine
 10
15.8422111327485
 20
10.47500017388277
 30
0.0
 11
15.8422111327485
 21
11.76520219923811
 31
0.0
  0
ARC
  5
883
330
1A
100
AcDbEntity
  8
ZUWAKU
100
AcDbCircle
 10
15.31721113274852
 20
10.47500017388277
 30
0.0
 40
0.525
100
AcDbArc
 50
270.0
 51
0.0
  0
ARC
  5
884
330
1A
100
AcDbEntity
  8
ZUWAKU
100
AcDbCircle
 10
14.44221113274852
 20
11.76520219923811
 30
0.0
 40
1.399999999999999
100
AcDbArc
 50
0.0
 51
45.0
  0
LINE
  5
885
330
1A
100
AcDbEntity
  8
ZUWAKU
100
AcDbLine
 10
11.81721113274852
 20
7.675000173882772
 30
0.0
 11
11.81721113274852
 21
9.425000173882772
 31
0.0
  0
ARC
  5
886
330
1A
100
AcDbEntity
  8
ZUWAKU
100
AcDbCircle
 10
12.3422111327485
 20
7.675000173882772
 30
0.0
 40
0.525
100
AcDbArc
 50
180.0
 51
270.0
  0
ARC
  5
887
330
1A
100
AcDbEntity
  8
ZUWAKU
100
AcDbCircle
 10
12.3422111327485
 20
9.425000173882772
 30
0.0
 40
0.525
100
AcDbArc
 50
90.0
 51
180.0
  0
LINE
  5
888
330
1A
100
AcDbEntity
  8
ZUWAKU
100
AcDbLine
 10
12.3422111327485
 20
7.150000173882773
 30
0.0
 11
15.8422111327485
 21
7.150000173882773
 31
0.0
  0
LINE
  5
889
330
1A
100
AcDbEntity
  8
ZUWAKU
100
AcDbLine
 10
12.3422111327485
 20
9.95000017388277
 30
0.0
 11
15.31721113274852
 21
9.95000017388277
 31
0.0
  0
LINE
  5
88A
330
1A
100
AcDbEntity
  8
ZUWAKU
100
AcDbLine
 10
12.52236265176497
 20
15.66494966754395
 30
0.0
 11
15.43216062640965
 21
12.75515169289929
 31
0.0
  0
LINE
  5
88B
330
1A
100
AcDbEntity
  8
ZUWAKU
100
AcDbLine
 10
18.64221113274857
 20
9.95000017388277
 30
0.0
 11
18.64221113274857
 21
11.76520219923811
 31
0.0
  0
ARC
  5
88C
330
1A
100
AcDbEntity
  8
ZUWAKU
100
AcDbCircle
 10
24.94221113274852
 20
11.35000017388277
 30
0.0
 40
1.399999999999999
100
AcDbArc
 50
180.0
 51
270.0
  0
ARC
  5
88D
330
1A
100
AcDbEntity
  8
ZUWAKU
100
AcDbCircle
 10
17.5922111327485
 20
22.72500017388277
 30
0.0
 40
0.525
100
AcDbArc
 50
0.0
 51
90.0
  0
ARC
  5
88E
330
1A
100
AcDbEntity
  8
ZUWAKU
100
AcDbCircle
 10
17.5922111327485
 20
20.97500017388277
 30
0.0
 40
0.525
100
AcDbArc
 50
270.0
 51
0.0
  0
LINE
  5
88F
330
1A
100
AcDbEntity
  8
ZUWAKU
100
AcDbLine
 10
14.0922111327485
 20
23.25000017388277
 30
0.0
 11
17.5922111327485
 21
23.25000017388277
 31
0.0
  0
ARC
  5
890
330
1A
100
AcDbEntity
  8
ZUWAKU
100
AcDbCircle
 10
14.61721113274847
 20
19.92500017388277
 30
0.0
 40
0.525
100
AcDbArc
 50
90.0
 51
180.0
  0
LINE
  5
891
330
1A
100
AcDbEntity
  8
ZUWAKU
100
AcDbLine
 10
14.0922111327485
 20
19.92500017388277
 30
0.0
 11
14.0922111327485
 21
18.63479814852743
 31
0.0
  0
LINE
  5
892
330
1A
100
AcDbEntity
  8
ZUWAKU
100
AcDbLine
 10
17.5922111327485
 20
20.45000017388276
 30
0.0
 11
14.61721113274847
 21
20.45000017388276
 31
0.0
  0
LINE
  5
893
330
1A
100
AcDbEntity
  8
ZUWAKU
100
AcDbLine
 10
11.29221113274854
 20
20.45000017388276
 30
0.0
 11
11.29221113274854
 21
18.63479814852743
 31
0.0
  0
ARC
  5
894
330
1A
100
AcDbEntity
  8
ZUWAKU
100
AcDbCircle
 10
14.0922111327485
 20
20.45000017388276
 30
0.0
 40
2.799999999999999
100
AcDbArc
 50
90.0
 51
180.0
  0
LINE
  5
895
330
1A
100
AcDbEntity
  8
ZUWAKU
100
AcDbLine
 10
18.11721113274847
 20
22.72500017388277
 30
0.0
 11
18.11721113274847
 21
20.97500017388277
 31
0.0
  0
ARC
  5
896
330
1A
100
AcDbEntity
  8
ZUWAKU
100
AcDbCircle
 10
24.94221113274852
 20
19.05000017388277
 30
0.0
 40
1.399999999999999
100
AcDbArc
 50
90.0
 51
180.0
  0
ARC
  5
897
330
1A
100
AcDbEntity
  8
ZUWAKU
100
AcDbCircle
 10
24.94221113274852
 20
19.05000017388273
 30
0.0
 40
4.199999999999999
100
AcDbArc
 50
90.0
 51
180.0
  0
LINE
  5
898
330
1A
100
AcDbEntity
  8
ZUWAKU
100
AcDbLine
 10
79.32662852595559
 20
30.00000017388277
 30
0.0
 11
79.32662852595581
 21
0.8000001738828359
 31
0.0
  0
LINE
  5
899
330
1A
100
AcDbEntity
  8
ZUWAKU
100
AcDbLine
 10
79.52662852595563
 20
30.00000017388277
 30
0.0
 11
79.52662852595586
 21
0.8000001738828359
 31
0.0
  0
LINE
  5
89A
330
1A
100
AcDbEntity
  8
ZUWAKU
100
AcDbLine
 10
79.12662852595577
 20
30.00000017388277
 30
0.0
 11
79.12662852595577
 21
0.8000001738828359
 31
0.0
  0
LINE
  5
89B
330
1A
100
AcDbEntity
  8
ZUWAKU
100
AcDbLine
 10
64.14221113274857
 20
9.95000017388277
 30
0.0
 11
64.14221113274857
 21
22.72500017388277
 31
0.0
  0
LINE
  5
89C
330
1A
100
AcDbEntity
  8
ZUWAKU
100
AcDbLine
 10
61.3422111327485
 20
22.72500017388277
 30
0.0
 11
61.3422111327485
 21
11.00000017388276
 31
0.0
  0
LINE
  5
89D
330
1A
100
AcDbEntity
  8
ZUWAKU
100
AcDbLine
 10
69.04221113274854
 20
7.675000173882772
 30
0.0
 11
69.04221113274854
 21
22.72500017388277
 31
0.0
  0
LINE
  5
89E
330
1A
100
AcDbEntity
  8
ZUWAKU
100
AcDbLine
 10
66.24221113274848
 20
22.72500017388277
 30
0.0
 11
66.24221113274848
 21
7.675000173882772
 31
0.0
  0
ARC
  5
89F
330
1A
100
AcDbEntity
  8
ZUWAKU
100
AcDbCircle
 10
49.79221113274855
 20
18.63479814852747
 30
0.0
 40
1.399999999999999
100
AcDbArc
 50
180.0000000000016
 51
224.9999999999988
  0
ARC
  5
8A0
330
1A
100
AcDbEntity
  8
ZUWAKU
100
AcDbCircle
 10
49.79221113274855
 20
18.63479814852747
 30
0.0
 40
4.199999999999999
100
AcDbArc
 50
180.0
 51
225.0
  0
LINE
  5
8A1
330
1A
100
AcDbEntity
  8
ZUWAKU
100
AcDbLine
 10
37.31485761492649
 20
19.2050473674462
 30
0.0
 11
36.05010586959065
 21
15.20000017388279
 31
0.0
  0
LINE
  5
8A2
330
1A
100
AcDbEntity
  8
ZUWAKU
100
AcDbLine
 10
40.69221113274852
 20
22.72500017388277
 30
0.0
 11
40.69221113274852
 21
7.675000173882772
 31
0.0
  0
LINE
  5
8A3
330
1A
100
AcDbEntity
  8
ZUWAKU
100
AcDbLine
 10
43.49221113274848
 20
7.675000173882772
 30
0.0
 11
43.49221113274848
 21
22.72500017388277
 31
0.0
  0
LINE
  5
8A4
330
1A
100
AcDbEntity
  8
ZUWAKU
100
AcDbLine
 10
55.04221113274855
 20
22.72500017388277
 30
0.0
 11
55.04221113274855
 21
9.95000017388277
 31
0.0
  0
LINE
  5
8A5
330
1A
100
AcDbEntity
  8
ZUWAKU
100
AcDbLine
 10
57.8422111327485
 20
11.00000017388276
 30
0.0
 11
57.8422111327485
 21
22.72500017388277
 31
0.0
  0
LINE
  5
8A6
330
1A
100
AcDbEntity
  8
ZUWAKU
100
AcDbLine
 10
32.64221113274857
 20
17.12500017388277
 30
0.0
 11
32.64221113274857
 21
22.72500017388277
 31
0.0
  0
LINE
  5
8A7
330
1A
100
AcDbEntity
  8
ZUWAKU
100
AcDbLine
 10
29.8422111327485
 20
22.72500017388277
 30
0.0
 11
29.8422111327485
 21
7.675000173882772
 31
0.0
  0
LINE
  5
8A8
330
1A
100
AcDbEntity
  8
ZUWAKU
100
AcDbLine
 10
35.67634607006437
 20
22.88309414204974
 30
0.0
 11
33.80807619543259
 21
16.9669062057158
 31
0.0
  0
LINE
  5
8A9
330
1A
100
AcDbEntity
  8
ZUWAKU
100
AcDbLine
 10
60.29221113274854
 20
9.95000017388277
 30
0.0
 11
58.89221113274857
 21
9.95000017388277
 31
0.0
  0
LINE
  5
8AA
330
1A
100
AcDbEntity
  8
ZUWAKU
100
AcDbLine
 10
57.8422111327485
 20
7.150000173882773
 30
0.0
 11
61.3422111327485
 21
7.150000173882773
 31
0.0
  0
LINE
  5
8AB
330
1A
100
AcDbEntity
  8
ZUWAKU
100
AcDbLine
 10
41.2172111327485
 20
7.150000173882773
 30
0.0
 11
42.9672111327485
 21
7.150000173882773
 31
0.0
  0
LINE
  5
8AC
330
1A
100
AcDbEntity
  8
ZUWAKU
100
AcDbLine
 10
35.67634607006437
 20
7.516906205715798
 30
0.0
 11
33.80807619543259
 21
13.43309414204973
 31
0.0
  0
ARC
  5
8AD
330
1A
100
AcDbEntity
  8
ZUWAKU
100
AcDbCircle
 10
33.30744529623723
 20
17.12500017388277
 30
0.0
 40
0.525
100
AcDbArc
 50
270.0
 51
342.4744316262769
  0
LINE
  5
8AE
330
1A
100
AcDbEntity
  8
ZUWAKU
100
AcDbLine
 10
33.30744529623723
 20
16.60000017388276
 30
0.0
 11
33.16721113274855
 21
16.60000017388276
 31
0.0
  0
LINE
  5
8AF
330
1A
100
AcDbEntity
  8
ZUWAKU
100
AcDbLine
 10
33.16721113274855
 20
13.80000017388277
 30
0.0
 11
33.30744529623723
 21
13.80000017388277
 31
0.0
  0
ARC
  5
8B0
330
1A
100
AcDbEntity
  8
ZUWAKU
100
AcDbCircle
 10
33.16721113274855
 20
17.12500017388277
 30
0.0
 40
0.525
100
AcDbArc
 50
180.0
 51
270.0
  0
LINE
  5
8B1
330
1A
100
AcDbEntity
  8
ZUWAKU
100
AcDbLine
 10
30.36721113274848
 20
7.150000173882773
 30
0.0
 11
32.11721113274847
 21
7.150000173882773
 31
0.0
  0
ARC
  5
8B2
330
1A
100
AcDbEntity
  8
ZUWAKU
100
AcDbCircle
 10
32.11721113274847
 20
7.675000173882772
 30
0.0
 40
0.525
100
AcDbArc
 50
270.0
 51
0.0
  0
LINE
  5
8B3
330
1A
100
AcDbEntity
  8
ZUWAKU
100
AcDbLine
 10
32.64221113274857
 20
7.675000173882772
 30
0.0
 11
32.64221113274857
 21
13.27500017388277
 31
0.0
  0
LINE
  5
8B4
330
1A
100
AcDbEntity
  8
ZUWAKU
100
AcDbLine
 10
27.39221113274857
 20
9.425000173882772
 30
0.0
 11
27.39221113274857
 21
7.675000173882772
 31
0.0
  0
ARC
  5
8B5
330
1A
100
AcDbEntity
  8
ZUWAKU
100
AcDbCircle
 10
26.86721113274848
 20
7.675000173882772
 30
0.0
 40
0.525
100
AcDbArc
 50
270.0
 51
0.0
  0
ARC
  5
8B6
330
1A
100
AcDbEntity
  8
ZUWAKU
100
AcDbCircle
 10
26.86721113274848
 20
9.425000173882772
 30
0.0
 40
0.525
100
AcDbArc
 50
0.0
 51
90.0
  0
ARC
  5
8B7
330
1A
100
AcDbEntity
  8
ZUWAKU
100
AcDbCircle
 10
30.36721113274848
 20
7.675000173882772
 30
0.0
 40
0.525
100
AcDbArc
 50
180.0
 51
270.0
  0
ARC
  5
8B8
330
1A
100
AcDbEntity
  8
ZUWAKU
100
AcDbCircle
 10
33.30744529623723
 20
13.27500017388277
 30
0.0
 40
0.525
100
AcDbArc
 50
17.52556837372303
 51
90.0
  0
ARC
  5
8B9
330
1A
100
AcDbEntity
  8
ZUWAKU
100
AcDbCircle
 10
33.16721113274855
 20
13.27500017388277
 30
0.0
 40
0.525
100
AcDbArc
 50
90.0
 51
180.0
  0
ARC
  5
8BA
330
1A
100
AcDbEntity
  8
ZUWAKU
100
AcDbCircle
 10
41.2172111327485
 20
7.675000173882772
 30
0.0
 40
0.525
100
AcDbArc
 50
180.0
 51
270.0
  0
LINE
  5
8BB
330
1A
100
AcDbEntity
  8
ZUWAKU
100
AcDbLine
 10
36.17697696925984
 20
7.150000173882773
 30
0.0
 11
37.87586634886884
 21
7.150000173882773
 31
0.0
  0
ARC
  5
8BC
330
1A
100
AcDbEntity
  8
ZUWAKU
100
AcDbCircle
 10
37.87586634886884
 20
7.675000173882772
 30
0.0
 40
0.525
100
AcDbArc
 50
270.0
 51
17.52556837372303
  0
LINE
  5
8BD
330
1A
100
AcDbEntity
  8
ZUWAKU
100
AcDbLine
 10
38.37649724806431
 20
7.833094142049745
 30
0.0
 11
36.05010586959065
 21
15.20000017388279
 31
0.0
  0
ARC
  5
8BE
330
1A
100
AcDbEntity
  8
ZUWAKU
100
AcDbCircle
 10
36.17697696925984
 20
7.675000173882772
 30
0.0
 40
0.525
100
AcDbArc
 50
197.525568373723
 51
270.0
  0
ARC
  5
8BF
330
1A
100
AcDbEntity
  8
ZUWAKU
100
AcDbCircle
 10
57.8422111327485
 20
9.95000017388277
 30
0.0
 40
2.799999999999999
100
AcDbArc
 50
180.0
 51
270.0
  0
ARC
  5
8C0
330
1A
100
AcDbEntity
  8
ZUWAKU
100
AcDbCircle
 10
50.14221113274857
 20
9.95000017388277
 30
0.0
 40
2.799999999999999
100
AcDbArc
 50
270.0
 51
0.0
  0
LINE
  5
8C1
330
1A
100
AcDbEntity
  8
ZUWAKU
100
AcDbLine
 10
51.71205961373209
 20
14.73505068022159
 30
0.0
 11
48.8022616390873
 21
17.64484865486627
 31
0.0
  0
LINE
  5
8C2
330
1A
100
AcDbEntity
  8
ZUWAKU
100
AcDbLine
 10
50.14221113274857
 20
10.47500017388277
 30
0.0
 11
50.14221113274857
 21
11.76520219923811
 31
0.0
  0
ARC
  5
8C3
330
1A
100
AcDbEntity
  8
ZUWAKU
100
AcDbCircle
 10
48.74221113274848
 20
11.76520219923811
 30
0.0
 40
1.399999999999999
100
AcDbArc
 50
0.0
 51
45.0
  0
ARC
  5
8C4
330
1A
100
AcDbEntity
  8
ZUWAKU
100
AcDbCircle
 10
49.61721113274847
 20
10.47500017388277
 30
0.0
 40
0.525
100
AcDbArc
 50
270.0
 51
0.0
  0
LINE
  5
8C5
330
1A
100
AcDbEntity
  8
ZUWAKU
100
AcDbLine
 10
46.11721113274848
 20
7.675000173882772
 30
0.0
 11
46.11721113274848
 21
9.425000173882772
 31
0.0
  0
ARC
  5
8C6
330
1A
100
AcDbEntity
  8
ZUWAKU
100
AcDbCircle
 10
46.64221113274857
 20
7.675000173882772
 30
0.0
 40
0.525
100
AcDbArc
 50
180.0
 51
270.0
  0
ARC
  5
8C7
330
1A
100
AcDbEntity
  8
ZUWAKU
100
AcDbCircle
 10
42.9672111327485
 20
7.675000173882772
 30
0.0
 40
0.525
100
AcDbArc
 50
270.0
 51
0.0
  0
ARC
  5
8C8
330
1A
100
AcDbEntity
  8
ZUWAKU
100
AcDbCircle
 10
46.64221113274857
 20
9.425000173882772
 30
0.0
 40
0.525
100
AcDbArc
 50
90.0
 51
180.0
  0
LINE
  5
8C9
330
1A
100
AcDbEntity
  8
ZUWAKU
100
AcDbLine
 10
46.64221113274857
 20
9.95000017388277
 30
0.0
 11
49.61721113274847
 21
9.95000017388277
 31
0.0
  0
LINE
  5
8CA
330
1A
100
AcDbEntity
  8
ZUWAKU
100
AcDbLine
 10
46.64221113274857
 20
7.150000173882773
 30
0.0
 11
50.14221113274857
 21
7.150000173882773
 31
0.0
  0
LINE
  5
8CB
330
1A
100
AcDbEntity
  8
ZUWAKU
100
AcDbLine
 10
46.82236265176505
 20
15.66494966754395
 30
0.0
 11
49.73216062640972
 21
12.75515169289929
 31
0.0
  0
LINE
  5
8CC
330
1A
100
AcDbEntity
  8
ZUWAKU
100
AcDbLine
 10
52.94221113274852
 20
9.95000017388277
 30
0.0
 11
52.94221113274852
 21
11.76520219923811
 31
0.0
  0
ARC
  5
8CD
330
1A
100
AcDbEntity
  8
ZUWAKU
100
AcDbCircle
 10
48.74221113274848
 20
11.76520219923807
 30
0.0
 40
4.199999999999999
100
AcDbArc
 50
0.0
 51
45.0
  0
ARC
  5
8CE
330
1A
100
AcDbEntity
  8
ZUWAKU
100
AcDbCircle
 10
58.89221113274857
 20
11.00000017388276
 30
0.0
 40
1.049999999999999
100
AcDbArc
 50
180.0
 51
270.0
  0
ARC
  5
8CF
330
1A
100
AcDbEntity
  8
ZUWAKU
100
AcDbCircle
 10
61.3422111327485
 20
9.95000017388277
 30
0.0
 40
2.799999999999999
100
AcDbArc
 50
270.0
 51
0.0
  0
LINE
  5
8D0
330
1A
100
AcDbEntity
  8
ZUWAKU
100
AcDbLine
 10
66.76721113274857
 20
7.150000173882773
 30
0.0
 11
68.51721113274857
 21
7.150000173882773
 31
0.0
  0
ARC
  5
8D1
330
1A
100
AcDbEntity
  8
ZUWAKU
100
AcDbCircle
 10
66.76721113274857
 20
7.675000173882772
 30
0.0
 40
0.525
100
AcDbArc
 50
180.0
 51
270.0
  0
ARC
  5
8D2
330
1A
100
AcDbEntity
  8
ZUWAKU
100
AcDbCircle
 10
60.29221113274854
 20
11.00000017388276
 30
0.0
 40
1.049999999999999
100
AcDbArc
 50
270.0
 51
0.0
  0
ARC
  5
8D3
330
1A
100
AcDbEntity
  8
ZUWAKU
100
AcDbCircle
 10
68.51721113274857
 20
7.675000173882772
 30
0.0
 40
0.525
100
AcDbArc
 50
270.0
 51
0.0
  0
LINE
  5
8D4
330
1A
100
AcDbEntity
  8
ZUWAKU
100
AcDbLine
 10
42.9672111327485
 20
23.25000017388277
 30
0.0
 11
41.2172111327485
 21
23.25000017388277
 31
0.0
  0
ARC
  5
8D5
330
1A
100
AcDbEntity
  8
ZUWAKU
100
AcDbCircle
 10
32.11721113274847
 20
22.72500017388277
 30
0.0
 40
0.525
100
AcDbArc
 50
0.0
 51
90.0
  0
LINE
  5
8D6
330
1A
100
AcDbEntity
  8
ZUWAKU
100
AcDbLine
 10
32.11721113274847
 20
23.25000017388277
 30
0.0
 11
30.36721113274848
 21
23.25000017388277
 31
0.0
  0
ARC
  5
8D7
330
1A
100
AcDbEntity
  8
ZUWAKU
100
AcDbCircle
 10
26.86721113274848
 20
22.72500017388277
 30
0.0
 40
0.525
100
AcDbArc
 50
0.0
 51
90.0
  0
ARC
  5
8D8
330
1A
100
AcDbEntity
  8
ZUWAKU
100
AcDbCircle
 10
30.36721113274848
 20
22.72500017388277
 30
0.0
 40
0.525
100
AcDbArc
 50
90.0
 51
180.0
  0
ARC
  5
8D9
330
1A
100
AcDbEntity
  8
ZUWAKU
100
AcDbCircle
 10
26.86721113274848
 20
20.97500017388277
 30
0.0
 40
0.525
100
AcDbArc
 50
270.0
 51
0.0
  0
LINE
  5
8DA
330
1A
100
AcDbEntity
  8
ZUWAKU
100
AcDbLine
 10
27.39221113274857
 20
22.72500017388277
 30
0.0
 11
27.39221113274857
 21
20.97500017388277
 31
0.0
  0
ARC
  5
8DB
330
1A
100
AcDbEntity
  8
ZUWAKU
100
AcDbCircle
 10
41.2172111327485
 20
22.72500017388277
 30
0.0
 40
0.525
100
AcDbArc
 50
90.0
 51
180.0
  0
LINE
  5
8DC
330
1A
100
AcDbEntity
  8
ZUWAKU
100
AcDbLine
 10
36.17697696925984
 20
23.25000017388277
 30
0.0
 11
37.87586634886884
 21
23.25000017388277
 31
0.0
  0
ARC
  5
8DD
330
1A
100
AcDbEntity
  8
ZUWAKU
100
AcDbCircle
 10
37.87586634886884
 20
22.72500017388277
 30
0.0
 40
0.525
100
AcDbArc
 50
342.4744316262769
 51
90.0
  0
LINE
  5
8DE
330
1A
100
AcDbEntity
  8
ZUWAKU
100
AcDbLine
 10
38.37649724806431
 20
22.5669062057158
 30
0.0
 11
37.31485761492649
 21
19.2050473674462
 31
0.0
  0
ARC
  5
8DF
330
1A
100
AcDbEntity
  8
ZUWAKU
100
AcDbCircle
 10
36.17697696925984
 20
22.72500017388277
 30
0.0
 40
0.525
100
AcDbArc
 50
90.0
 51
162.4744316262769
  0
LINE
  5
8E0
330
1A
100
AcDbEntity
  8
ZUWAKU
100
AcDbLine
 10
48.39221113274857
 20
23.25000017388277
 30
0.0
 11
51.89221113274857
 21
23.25000017388277
 31
0.0
  0
LINE
  5
8E1
330
1A
100
AcDbEntity
  8
ZUWAKU
100
AcDbLine
 10
51.89221113274857
 20
20.45000017388276
 30
0.0
 11
48.91721113274854
 21
20.45000017388276
 31
0.0
  0
ARC
  5
8E2
330
1A
100
AcDbEntity
  8
ZUWAKU
100
AcDbCircle
 10
48.91721113274854
 20
19.92500017388277
 30
0.0
 40
0.525
100
AcDbArc
 50
90.0
 51
180.0
  0
LINE
  5
8E3
330
1A
100
AcDbEntity
  8
ZUWAKU
100
AcDbLine
 10
48.39221113274857
 20
19.92500017388277
 30
0.0
 11
48.39221113274857
 21
18.63479814852743
 31
0.0
  0
ARC
  5
8E4
330
1A
100
AcDbEntity
  8
ZUWAKU
100
AcDbCircle
 10
42.9672111327485
 20
22.72500017388277
 30
0.0
 40
0.525
100
AcDbArc
 50
0.0
 51
90.0
  0
LINE
  5
8E5
330
1A
100
AcDbEntity
  8
ZUWAKU
100
AcDbLine
 10
45.5922111327485
 20
20.45000017388276
 30
0.0
 11
45.5922111327485
 21
18.63479814852743
 31
0.0
  0
ARC
  5
8E6
330
1A
100
AcDbEntity
  8
ZUWAKU
100
AcDbCircle
 10
48.39221113274857
 20
20.45000017388276
 30
0.0
 40
2.799999999999999
100
AcDbArc
 50
90.0
 51
180.0
  0
ARC
  5
8E7
330
1A
100
AcDbEntity
  8
ZUWAKU
100
AcDbCircle
 10
57.31721113274852
 20
22.72500017388277
 30
0.0
 40
0.525
100
AcDbArc
 50
0.0
 51
90.0
  0
ARC
  5
8E8
330
1A
100
AcDbEntity
  8
ZUWAKU
100
AcDbCircle
 10
55.56721113274853
 20
22.72500017388277
 30
0.0
 40
0.525
100
AcDbArc
 50
90.0
 51
180.0
  0
LINE
  5
8E9
330
1A
100
AcDbEntity
  8
ZUWAKU
100
AcDbLine
 10
57.31721113274852
 20
23.25000017388277
 30
0.0
 11
55.56721113274853
 21
23.25000017388277
 31
0.0
  0
ARC
  5
8EA
330
1A
100
AcDbEntity
  8
ZUWAKU
100
AcDbCircle
 10
51.89221113274857
 20
22.72500017388277
 30
0.0
 40
0.525
100
AcDbArc
 50
0.0
 51
90.0
  0
ARC
  5
8EB
330
1A
100
AcDbEntity
  8
ZUWAKU
100
AcDbCircle
 10
51.89221113274857
 20
20.97500017388277
 30
0.0
 40
0.525
100
AcDbArc
 50
270.0
 51
0.0
  0
LINE
  5
8EC
330
1A
100
AcDbEntity
  8
ZUWAKU
100
AcDbLine
 10
52.41721113274855
 20
22.72500017388277
 30
0.0
 11
52.41721113274855
 21
20.97500017388277
 31
0.0
  0
LINE
  5
8ED
330
1A
100
AcDbEntity
  8
ZUWAKU
100
AcDbLine
 10
68.51721113274857
 20
23.25000017388277
 30
0.0
 11
66.76721113274857
 21
23.25000017388277
 31
0.0
  0
ARC
  5
8EE
330
1A
100
AcDbEntity
  8
ZUWAKU
100
AcDbCircle
 10
66.76721113274857
 20
22.72500017388277
 30
0.0
 40
0.525
100
AcDbArc
 50
90.0
 51
180.0
  0
ARC
  5
8EF
330
1A
100
AcDbEntity
  8
ZUWAKU
100
AcDbCircle
 10
63.61721113274848
 20
22.72500017388277
 30
0.0
 40
0.525
100
AcDbArc
 50
0.0
 51
90.0
  0
LINE
  5
8F0
330
1A
100
AcDbEntity
  8
ZUWAKU
100
AcDbLine
 10
63.61721113274848
 20
23.25000017388277
 30
0.0
 11
61.86721113274848
 21
23.25000017388277
 31
0.0
  0
ARC
  5
8F1
330
1A
100
AcDbEntity
  8
ZUWAKU
100
AcDbCircle
 10
61.86721113274848
 20
22.72500017388277
 30
0.0
 40
0.525
100
AcDbArc
 50
90.0
 51
180.0
  0
ARC
  5
8F2
330
1A
100
AcDbEntity
  8
ZUWAKU
100
AcDbCircle
 10
68.51721113274857
 20
22.72500017388277
 30
0.0
 40
0.525
100
AcDbArc
 50
0.0
 51
90.0
  0
TEXT
  5
8F3
330
1A
100
AcDbEntity
  8
MOJI
100
AcDbText
 10
239.8272016588184
 20
3.204921231290189
 30
0.0
 40
5.599999999999999
  1
ＲＶ１０５－Ｙ６０・ＵＴ６０
 41
0.9
  7
ｽﾀｲﾙ1
100
AcDbText
  0
LINE
  5
8F4
330
1A
100
AcDbEntity
  8
ZUWAKU
100
AcDbLine
 10
208.2466002680352
 20
30.00000017388277
 30
0.0
 11
208.2466002680352
 21
0.8000001738828359
 31
0.0
  0
LINE
  5
8F5
330
1A
100
AcDbEntity
  8
ZUWAKU
100
AcDbLine
 10
208.6466002680351
 20
30.00000017388277
 30
0.0
 11
208.6466002680353
 21
0.8000001738828359
 31
0.0
  0
LINE
  5
8F6
330
1A
100
AcDbEntity
  8
ZUWAKU
100
AcDbLine
 10
208.4466002680351
 20
30.00000017388277
 30
0.0
 11
208.4466002680353
 21
0.8000001738828359
 31
0.0
  0
TEXT
  5
8F7
330
1A
100
AcDbEntity
  8
MOJI
100
AcDbText
 10
239.8272016588184
 20
18.00492123129015
 30
0.0
 40
5.599999999999999
  1
よびといジョイント
 41
0.9
  7
ｽﾀｲﾙ1
100
AcDbText
  0
TEXT
  5
8F8
330
1A
100
AcDbEntity
  8
ZUWAKU
100
AcDbText
 10
209.7240452902449
 20
9.655356712268385
 30
0.0
 40
4.0
  1
サイズ
 41
0.9
  7
ｽﾀｲﾙ1
100
AcDbText
  0
TEXT
  5
8F9
330
1A
100
AcDbEntity
  8
ZUWAKU
100
AcDbText
 10
209.7240452902446
 20
24.05535671226834
 30
0.0
 40
4.0
  1
品名
 41
0.9
  7
ｽﾀｲﾙ1
100
AcDbText
  0
LINE
  5
8FA
330
1A
100
AcDbEntity
  8
ZUWAKU
100
AcDbLine
 10
648.8172014881715
 20
15.20000017388279
 30
0.0
 11
697.2490095265087
 21
15.2000001738828
 31
0.0
  0
LINE
  5
8FB
330
1A
100
AcDbEntity
  8
ZUWAKU
100
AcDbLine
 10
648.8172014881718
 20
15.4000001738828
 30
0.0
 11
697.2490095265087
 21
15.4000001738828
 31
0.0
  0
LINE
  5
8FC
330
1A
100
AcDbEntity
  8
ZUWAKU
100
AcDbLine
 10
648.8172014881715
 20
15.6000001738828
 30
0.0
 11
697.2490095265087
 21
15.6000001738828
 31
0.0
  0
TEXT
  5
8FD
330
1A
100
AcDbEntity
  8
ZUWAKU
100
AcDbText
 10
658.2039366652698
 20
18.00492123129015
 30
0.0
 40
5.599999999999999
  1
　　．　　．　　
 41
0.9
  7
ｽﾀｲﾙ1
100
AcDbText
  0
TEXT
  5
8FF
330
1A
100
AcDbEntity
  8
SUNPOU
100
AcDbText
 10
661.9071634629122
 20
46.25388970661629
 30
0.0
 40
6.0
  1
※　たてといＹ６０の差込み寸法を示す
100
AcDbText
  0
LINE
  5
900
330
1A
100
AcDbEntity
  8
ZUWAKU
100
AcDbLine
 10
505.1991784761082
 20
15.2000001738828
 30
0.0
 11
552.5269547440798
 21
15.2000001738828
 31
0.0
  0
LINE
  5
901
330
1A
100
AcDbEntity
  8
ZUWAKU
100
AcDbLine
 10
505.1991784761082
 20
15.4000001738828
 30
0.0
 11
552.5269547440798
 21
15.4000001738828
 31
0.0
  0
LINE
  5
902
330
1A
100
AcDbEntity
  8
ZUWAKU
100
AcDbLine
 10
505.1991784761082
 20
15.6000001738828
 30
0.0
 11
552.5269547440798
 21
15.6000001738828
 31
0.0
  0
TEXT
  5
903
330
1A
100
AcDbEntity
  8
MOJI
100
AcDbText
 10
464.5946249812063
 20
11.94261789554275
 30
0.0
 40
5.599999999999999
  1
ＧＱ７４□
 41
0.9
  7
ｽﾀｲﾙ1
100
AcDbText
  0
LINE
  5
904
330
1A
100
AcDbEntity
  8
ZUWAKU
100
AcDbLine
 10
447.6243629489585
 20
30.00000017388277
 30
0.0
 11
447.6243629489588
 21
0.8000001738828359
 31
0.0
  0
LINE
  5
905
330
1A
100
AcDbEntity
  8
ZUWAKU
100
AcDbLine
 10
447.8243629489586
 20
30.00000017388277
 30
0.0
 11
447.8243629489589
 21
0.8000001738828359
 31
0.0
  0
LINE
  5
906
330
1A
100
AcDbEntity
  8
ZUWAKU
100
AcDbLine
 10
447.4243629489587
 20
30.00000017388277
 30
0.0
 11
447.4243629489587
 21
0.8000001738828359
 31
0.0
  0
TEXT
  5
907
330
1A
100
AcDbEntity
  8
MOJI
100
AcDbText
 10
528.0409069502802
 20
18.00492123129015
 30
0.0
 40
5.599999999999999
  1
Ａ３
 41
0.9
  7
ｽﾀｲﾙ1
100
AcDbText
  0
LINE
  5
908
330
1A
100
AcDbEntity
  8
ZUWAKU
100
AcDbLine
 10
504.9991784761082
 20
30.00000017388277
 30
0.0
 11
504.9991784761084
 21
0.8000001738828359
 31
0.0
  0
LINE
  5
909
330
1A
100
AcDbEntity
  8
ZUWAKU
100
AcDbLine
 10
505.1991784761082
 20
30.00000017388277
 30
0.0
 11
505.1991784761084
 21
0.8000001738828359
 31
0.0
  0
LINE
  5
90A
330
1A
100
AcDbEntity
  8
ZUWAKU
100
AcDbLine
 10
504.7991784761084
 20
30.00000017388277
 30
0.0
 11
504.7991784761084
 21
0.8000001738828359
 31
0.0
  0
TEXT
  5
90B
330
1A
100
AcDbEntity
  8
ZUWAKU
100
AcDbText
 10
462.6937606334745
 20
2.61407108502226
 30
0.0
 40
3.0
  1
□には色品番が入ります
 41
0.9
  7
ｽﾀｲﾙ1
100
AcDbText
  0
TEXT
  5
90C
330
1A
100
AcDbEntity
  8
ZUWAKU
100
AcDbText
 10
506.6766234983181
 20
9.655356712268385
 30
0.0
 40
4.0
  1
縮尺
 41
0.9
  7
ｽﾀｲﾙ1
100
AcDbText
  0
TEXT
  5
90D
330
1A
100
AcDbEntity
  8
MOJI
100
AcDbText
 10
528.0409069502802
 20
3.204921231290189
 30
0.0
 40
5.599999999999999
  1
１/２
 41
0.9
  7
ｽﾀｲﾙ1
100
AcDbText
  0
TEXT
  5
90E
330
1A
100
AcDbEntity
  8
ZUWAKU
100
AcDbText
 10
449.3018079711682
 20
24.05535671226834
 30
0.0
 40
4.0
  1
品番
 41
0.9
  7
ｽﾀｲﾙ1
100
AcDbText
  0
TEXT
  5
90F
330
1A
100
AcDbEntity
  8
ZUWAKU
100
AcDbText
 10
506.6766234983179
 20
24.05535671226834
 30
0.0
 40
4.0
  1
用紙
 41
0.9
  7
ｽﾀｲﾙ1
100
AcDbText
  0
LINE
  5
910
330
1A
100
AcDbEntity
  8
ZUWAKU
100
AcDbLine
 10
648.6172014881717
 20
30.00000017388277
 30
0.0
 11
648.6172014881719
 21
0.8000001738828359
 31
0.0
  0
LINE
  5
911
330
1A
100
AcDbEntity
  8
ZUWAKU
100
AcDbLine
 10
648.8172014881718
 20
30.00000017388277
 30
0.0
 11
648.817201488172
 21
0.8000001738828359
 31
0.0
  0
LINE
  5
912
330
1A
100
AcDbEntity
  8
ZUWAKU
100
AcDbLine
 10
648.4172014881719
 20
30.00000017388277
 30
0.0
 11
648.4172014881719
 21
0.8000001738828359
 31
0.0
  0
LINE
  5
913
330
1A
100
AcDbEntity
  8
ZUWAKU
100
AcDbLine
 10
552.7269547440796
 20
30.00000017388277
 30
0.0
 11
552.7269547440798
 21
0.8000001738828359
 31
0.0
  0
LINE
  5
914
330
1A
100
AcDbEntity
  8
ZUWAKU
100
AcDbLine
 10
552.9269547440796
 20
30.00000017388277
 30
0.0
 11
552.9269547440799
 21
0.8000001738828359
 31
0.0
  0
LINE
  5
915
330
1A
100
AcDbEntity
  8
ZUWAKU
100
AcDbLine
 10
552.5269547440798
 20
30.00000017388277
 30
0.0
 11
552.5269547440798
 21
0.8000001738828359
 31
0.0
  0
TEXT
  5
916
330
1A
100
AcDbEntity
  8
ZUWAKU
100
AcDbText
 10
650.2946465103814
 20
24.05535671226834
 30
0.0
 40
4.0
  1
DATE
 41
0.9
  7
ｽﾀｲﾙ1
100
AcDbText
  0
LINE
  5
917
330
1A
100
AcDbEntity
  8
ZUWAKU
100
AcDbLine
 10
697.2490095265087
 20
30.00000017388277
 30
0.0
 11
697.2490095265087
 21
0.8000001738828359
 31
0.0
  0
LINE
  5
918
330
1A
100
AcDbEntity
  8
ZUWAKU
100
AcDbLine
 10
697.4490095265086
 20
30.00000017388277
 30
0.0
 11
697.4490095265086
 21
0.8000001738828359
 31
0.0
  0
LINE
  5
919
330
1A
100
AcDbEntity
  8
ZUWAKU
100
AcDbLine
 10
697.6490095265084
 20
30.00000017388277
 30
0.0
 11
697.6490095265087
 21
0.8000001738828359
 31
0.0
  0
LINE
  5
91A
330
1A
100
AcDbEntity
  8
ZUWAKU
100
AcDbLine
 10
697.8490095265085
 20
30.00000017388277
 30
0.0
 11
697.8490095265088
 21
0.8000001738828359
 31
0.0
  0
TEXT
  5
91B
330
1A
100
AcDbEntity
  8
ZUWAKU
100
AcDbText
 10
708.5280831702111
 20
17.55383950956957
 30
0.0
 40
6.0
  1
積水化学工業株式会社
 41
0.9
  7
ｽﾀｲﾙ1
100
AcDbText
  0
TEXT
  5
91C
330
1A
100
AcDbEntity
  8
ZUWAKU
100
AcDbText
 10
708.5280831702111
 20
6.648840487736833
 30
0.0
 40
6.0
  1
建材事業部
 41
0.9
  7
ｽﾀｲﾙ1
100
AcDbText
  0
VIEWPORT
  5
22
330
17
100
AcDbEntity
 67
     1
  8
0
100
AcDbViewport
 10
313.6808219178082
 20
148.5
 30
0.0
 40
627.3616438356165
 41
297.0
 68
     2
 69
     1
1001
ACAD
1000
MVIEW
1002
{
1070
    16
1010
0.0
1020
0.0
1030
0.0
1010
0.0
1020
0.0
1030
1.0
1040
0.0
1040
297.0
1040
313.6808219178082
1040
148.5
1040
50.0
1040
0.0
1040
0.0
1070
     0
1070
   100
1070
     1
1070
     0
1070
     0
1070
     0
1070
     0
1070
     0
1040
0.0
1040
0.0
1040
0.0
1040
1.0
1040
1.0
1040
10.0
1040
10.0
1070
     0
1002
{
1002
}
1002
}
  0
VIEWPORT
  5
64
330
17
100
AcDbEntity
 67
     1
  8
VIEWPORT
100
AcDbViewport
 10
210.0
 20
148.5
 30
0.0
 40
420.0
 41
297.0
 68
     1
 69
     2
1001
ACAD
1000
MVIEW
1002
{
1070
    16
1010
0.0
1020
0.0
1030
0.0
1010
0.0
1020
0.0
1030
1.0
1040
0.0
1040
605.8799999999998
1040
420.0
1040
297.0
1040
50.0
1040
0.0
1040
0.0
1070
     0
1070
   100
1070
     1
1070
     0
1070
     0
1070
     0
1070
     0
1070
     0
1040
0.0
1040
0.0
1040
0.0
1040
10.0
1040
10.0
1040
0.0
1040
0.0
1070
     0
1002
{
1002
}
1002
}
  0
ENDSEC
  0
SECTION
  2
OBJECTS
  0
DICTIONARY
  5
C
330
0
100
AcDbDictionary
  3
ACAD_GROUP
350
D
  3
ACAD_LAYOUT
350
5E9
  3
ACAD_MLINESTYLE
350
E
  3
ACAD_PLOTSETTINGS
350
5EA
  3
ACAD_PLOTSTYLENAME
350
5E7
  3
ACDBHEADERROUNDTRIPXREC
350
924
  0
DICTIONARY
  5
618
330
1A
100
AcDbDictionary
280
     1
  3
ACAD_LAYOUTSELFREF
360
946
  0
DICTIONARY
  5
616
330
17
100
AcDbDictionary
280
     1
  3
ACAD_LAYOUTSELFREF
360
945
  0
DICTIONARY
  5
D
102
{ACAD_REACTORS
330
C
102
}
330
C
100
AcDbDictionary
  0
DICTIONARY
  5
5E9
102
{ACAD_REACTORS
330
C
102
}
330
C
100
AcDbDictionary
  0
DICTIONARY
  5
E
102
{ACAD_REACTORS
330
C
102
}
330
C
100
AcDbDictionary
  3
STANDARD
350
13
  0
DICTIONARY
  5
5EA
102
{ACAD_REACTORS
330
C
102
}
330
C
100
AcDbDictionary
  0
ACDBDICTIONARYWDFLT
  5
5E7
102
{ACAD_REACTORS
330
C
102
}
330
C
100
AcDbDictionary
281
     1
  3
Normal
350
5E8
100
AcDbDictionaryWithDefault
340
5E8
1001
ACAD
1000
TREAT_AS_HARD
1070
     0
  0
DICTIONARY
  5
924
102
{ACAD_REACTORS
330
C
102
}
330
C
100
AcDbDictionary
  3
TSTACKALIGN
350
925
  3
TSTACKSIZE
350
926
  3
HYPERLINKBASE
350
927
  3
STYLESHEET
350
928
  3
LAYOUTDICT
350
929
  3
PLOTSETDICT
350
92A
  3
PLOTSTYLNAMDICT
350
92B
  3
LWETCUNION
350
92C
  3
INSUNITS
350
92D
  3
CEPSNTYPE
350
92E
  3
FINGERPRINTGUID
350
92F
  3
VERSIONGUID
350
930
  3
PSVPSCALE
350
931
  3
DIMSTYLEDATA
350
932
  3
PUCSORTHOREF
350
933
  3
PUCSORTHOVIEW
350
934
  3
PUCSBASE
350
935
  3
PUCSORGTOP
350
936
  3
PUCSORGBOTTOM
350
937
  3
PUCSORGLEFT
350
938
  3
PUCSORGRIGHT
350
939
  3
PUCSORGFRONT
350
93A
  3
PUCSORGBACK
350
93B
  3
UCSORTHOREF
350
93C
  3
UCSORTHOVIEW
350
93D
  3
UCSBASE
350
93E
  3
UCSORGTOP
350
93F
  3
UCSORGBOTTOM
350
940
  3
UCSORGLEFT
350
941
  3
UCSORGRIGHT
350
942
  3
UCSORGFRONT
350
943
  3
UCSORGBACK
350
944
  0
XRECORD
  5
946
102
{ACAD_REACTORS
330
618
102
}
330
618
100
AcDbXrecord
340
1A
  0
XRECORD
  5
945
102
{ACAD_REACTORS
330
616
102
}
330
616
100
AcDbXrecord
340
17
  0
MLINESTYLE
  5
13
102
{ACAD_REACTORS
330
E
102
}
330
E
100
AcDbMlineStyle
  2
STANDARD
 70
     0
  3

 62
     0
 51
90.0
 52
90.0
 71
     2
 49
0.5
 62
   256
  6
BYLAYER
 49
-0.5
 62
   256
  6
BYLAYER
  0
ACDBPLACEHOLDER
  5
5E8
102
{ACAD_REACTORS
330
5E7
102
}
330
5E7
100
AcDbPlaceHolder
280
     0
  0
XRECORD
  5
925
102
{ACAD_REACTORS
330
924
102
}
330
924
100
AcDbXrecord
 90
        1
  0
XRECORD
  5
926
102
{ACAD_REACTORS
330
924
102
}
330
924
100
AcDbXrecord
 90
       70
  0
XRECORD
  5
927
102
{ACAD_REACTORS
330
924
102
}
330
924
100
AcDbXrecord
  1

  0
XRECORD
  5
928
102
{ACAD_REACTORS
330
924
102
}
330
924
100
AcDbXrecord
  1
systemprinter.ctb
  0
XRECORD
  5
929
102
{ACAD_REACTORS
330
924
102
}
330
924
100
AcDbXrecord
340
5E9
  0
XRECORD
  5
92A
102
{ACAD_REACTORS
330
924
102
}
330
924
100
AcDbXrecord
340
5EA
  0
XRECORD
  5
92B
102
{ACAD_REACTORS
330
924
102
}
330
924
100
AcDbXrecord
340
5E7
  0
XRECORD
  5
92C
102
{ACAD_REACTORS
330
924
102
}
330
924
100
AcDbXrecord
 90
    10781
  0
XRECORD
  5
92D
102
{ACAD_REACTORS
330
924
102
}
330
924
100
AcDbXrecord
 90
        0
  0
XRECORD
  5
92E
102
{ACAD_REACTORS
330
924
102
}
330
924
100
AcDbXrecord
 90
        0
  0
XRECORD
  5
92F
102
{ACAD_REACTORS
330
924
102
}
330
924
100
AcDbXrecord
  1
{92812C93-BEB0-4481-9242-942941982157}
  0
XRECORD
  5
930
102
{ACAD_REACTORS
330
924
102
}
330
924
100
AcDbXrecord
  1
{502D9A05-39FE-4A0C-BEDD-FA5593E39E0E}
  0
XRECORD
  5
931
102
{ACAD_REACTORS
330
924
102
}
330
924
100
AcDbXrecord
 40
0.0
  0
XRECORD
  5
932
102
{ACAD_REACTORS
330
924
102
}
330
924
100
AcDbXrecord
1000
DSTYLE
1002
{
1070
   341
340
6D
1070
   343
340
6D
1070
   344
340
6D
1070
   371
 70
    -1
1070
   372
 70
    -1
1002
}
  0
XRECORD
  5
933
102
{ACAD_REACTORS
330
924
102
}
330
924
100
AcDbXrecord
340
0
  0
XRECORD
  5
934
102
{ACAD_REACTORS
330
924
102
}
330
924
100
AcDbXrecord
 70
     0
  0
XRECORD
  5
935
102
{ACAD_REACTORS
330
924
102
}
330
924
100
AcDbXrecord
340
0
  0
XRECORD
  5
936
102
{ACAD_REACTORS
330
924
102
}
330
924
100
AcDbXrecord
 10
0.0
 20
0.0
 30
0.0
  0
XRECORD
  5
937
102
{ACAD_REACTORS
330
924
102
}
330
924
100
AcDbXrecord
 10
0.0
 20
0.0
 30
0.0
  0
XRECORD
  5
938
102
{ACAD_REACTORS
330
924
102
}
330
924
100
AcDbXrecord
 10
0.0
 20
0.0
 30
0.0
  0
XRECORD
  5
939
102
{ACAD_REACTORS
330
924
102
}
330
924
100
AcDbXrecord
 10
0.0
 20
0.0
 30
0.0
  0
XRECORD
  5
93A
102
{ACAD_REACTORS
330
924
102
}
330
924
100
AcDbXrecord
 10
0.0
 20
0.0
 30
0.0
  0
XRECORD
  5
93B
102
{ACAD_REACTORS
330
924
102
}
330
924
100
AcDbXrecord
 10
0.0
 20
0.0
 30
0.0
  0
XRECORD
  5
93C
102
{ACAD_REACTORS
330
924
102
}
330
924
100
AcDbXrecord
340
0
  0
XRECORD
  5
93D
102
{ACAD_REACTORS
330
924
102
}
330
924
100
AcDbXrecord
 70
     0
  0
XRECORD
  5
93E
102
{ACAD_REACTORS
330
924
102
}
330
924
100
AcDbXrecord
340
0
  0
XRECORD
  5
93F
102
{ACAD_REACTORS
330
924
102
}
330
924
100
AcDbXrecord
 10
0.0
 20
0.0
 30
0.0
  0
XRECORD
  5
940
102
{ACAD_REACTORS
330
924
102
}
330
924
100
AcDbXrecord
 10
0.0
 20
0.0
 30
0.0
  0
XRECORD
  5
941
102
{ACAD_REACTORS
330
924
102
}
330
924
100
AcDbXrecord
 10
0.0
 20
0.0
 30
0.0
  0
XRECORD
  5
942
102
{ACAD_REACTORS
330
924
102
}
330
924
100
AcDbXrecord
 10
0.0
 20
0.0
 30
0.0
  0
XRECORD
  5
943
102
{ACAD_REACTORS
330
924
102
}
330
924
100
AcDbXrecord
 10
0.0
 20
0.0
 30
0.0
  0
XRECORD
  5
944
102
{ACAD_REACTORS
330
924
102
}
330
924
100
AcDbXrecord
 10
0.0
 20
0.0
 30
0.0
  0
ENDSEC
  0
EOF
