  0
SECTION
  2
HEADER
  9
$ACADVER
  1
AC1014
  9
$ACADMAINTVER
 70
     9
  9
$DWGCODEPAGE
  3
ANSI_932
  9
$INSBASE
 10
0.0
 20
0.0
 30
0.0
  9
$EXTMIN
 10
-0.0256331206132927
 20
-0.0181266077920555
 30
-0.0015258207003583
  9
$EXTMAX
 10
797.6000995469832
 20
551.6452344488313
 30
0.0000000349246037
  9
$LIMMIN
 10
0.0
 20
0.0
  9
$LIMMAX
 10
840.0
 20
594.0
  9
$ORTHOMODE
 70
     0
  9
$REGENMODE
 70
     1
  9
$FILLMODE
 70
     1
  9
$QTEXTMODE
 70
     0
  9
$MIRRTEXT
 70
     1
  9
$DRAGMODE
 70
     2
  9
$LTSCALE
 40
2.0
  9
$OSMODE
 70
    35
  9
$ATTMODE
 70
     1
  9
$TEXTSIZE
 40
5.0
  9
$TRACEWID
 40
1.0
  9
$TEXTSTYLE
  7
STANDARD
  9
$CLAYER
  8
SUNPOU
  9
$CELTYPE
  6
BYLAYER
  9
$CECOLOR
 62
   256
  9
$CELTSCALE
 40
1.0
  9
$DELOBJ
 70
     1
  9
$DISPSILH
 70
     0
  9
$DIMSCALE
 40
1.0
  9
$DIMASZ
 40
7.0
  9
$DIMEXO
 40
6.0
  9
$DIMDLI
 40
14.0
  9
$DIMRND
 40
0.0
  9
$DIMDLE
 40
0.0
  9
$DIMEXE
 40
3.0
  9
$DIMTP
 40
0.0
  9
$DIMTM
 40
0.0
  9
$DIMTXT
 40
6.0
  9
$DIMCEN
 40
150.0
  9
$DIMTSZ
 40
0.0
  9
$DIMTOL
 70
     0
  9
$DIMLIM
 70
     0
  9
$DIMTIH
 70
     0
  9
$DIMTOH
 70
     0
  9
$DIMSE1
 70
     0
  9
$DIMSE2
 70
     0
  9
$DIMTAD
 70
     3
  9
$DIMZIN
 70
     0
  9
$DIMBLK
  1

  9
$DIMASO
 70
     1
  9
$DIMSHO
 70
     1
  9
$DIMPOST
  1

  9
$DIMAPOST
  1

  9
$DIMALT
 70
     0
  9
$DIMALTD
 70
     2
  9
$DIMALTF
 40
25.4
  9
$DIMLFAC
 40
1.0
  9
$DIMTOFL
 70
     1
  9
$DIMTVP
 40
0.0
  9
$DIMTIX
 70
     0
  9
$DIMSOXD
 70
     0
  9
$DIMSAH
 70
     1
  9
$DIMBLK1
  1
OPEN
  9
$DIMBLK2
  1
OPEN
  9
$DIMSTYLE
  2
STANDARD
  9
$DIMCLRD
 70
   256
  9
$DIMCLRE
 70
   256
  9
$DIMCLRT
 70
   256
  9
$DIMTFAC
 40
1.0
  9
$DIMGAP
 40
2.0
  9
$DIMJUST
 70
     0
  9
$DIMSD1
 70
     0
  9
$DIMSD2
 70
     0
  9
$DIMTOLJ
 70
     1
  9
$DIMTZIN
 70
     0
  9
$DIMALTZ
 70
     0
  9
$DIMALTTZ
 70
     0
  9
$DIMFIT
 70
     3
  9
$DIMUPT
 70
     0
  9
$DIMUNIT
 70
     2
  9
$DIMDEC
 70
     0
  9
$DIMTDEC
 70
     0
  9
$DIMALTU
 70
     2
  9
$DIMALTTD
 70
     2
  9
$DIMTXSTY
  7
STANDARD
  9
$DIMAUNIT
 70
     0
  9
$LUNITS
 70
     2
  9
$LUPREC
 70
     4
  9
$SKETCHINC
 40
1.0
  9
$FILLETRAD
 40
20.0
  9
$AUNITS
 70
     0
  9
$AUPREC
 70
     0
  9
$MENU
  1
.
  9
$ELEVATION
 40
0.0
  9
$PELEVATION
 40
0.0
  9
$THICKNESS
 40
0.0
  9
$LIMCHECK
 70
     0
  9
$BLIPMODE
 70
     0
  9
$CHAMFERA
 40
20.0
  9
$CHAMFERB
 40
20.0
  9
$CHAMFERC
 40
40.0
  9
$CHAMFERD
 40
0.0
  9
$SKPOLY
 70
     0
  9
$TDCREATE
 40
2451201.443336921
  9
$TDUPDATE
 40
2453802.426849676
  9
$TDINDWG
 40
0.0324994097
  9
$TDUSRTIMER
 40
0.0324994097
  9
$USRTIMER
 70
     1
  9
$ANGBASE
 50
0.0
  9
$ANGDIR
 70
     0
  9
$PDMODE
 70
     0
  9
$PDSIZE
 40
0.0
  9
$PLINEWID
 40
0.0
  9
$COORDS
 70
     1
  9
$SPLFRAME
 70
     0
  9
$SPLINETYPE
 70
     6
  9
$SPLINESEGS
 70
     8
  9
$ATTDIA
 70
     0
  9
$ATTREQ
 70
     1
  9
$HANDLING
 70
 10241
  9
$HANDSEED
  5
8A7
  9
$SURFTAB1
 70
     6
  9
$SURFTAB2
 70
     6
  9
$SURFTYPE
 70
     6
  9
$SURFU
 70
     6
  9
$SURFV
 70
     6
  9
$UCSNAME
  2

  9
$UCSORG
 10
0.0
 20
0.0
 30
0.0
  9
$UCSXDIR
 10
1.0
 20
0.0
 30
0.0
  9
$UCSYDIR
 10
0.0
 20
1.0
 30
0.0
  9
$PUCSNAME
  2

  9
$PUCSORG
 10
0.0
 20
0.0
 30
0.0
  9
$PUCSXDIR
 10
1.0
 20
0.0
 30
0.0
  9
$PUCSYDIR
 10
0.0
 20
1.0
 30
0.0
  9
$USERI1
 70
     0
  9
$USERI2
 70
     0
  9
$USERI3
 70
     0
  9
$USERI4
 70
     0
  9
$USERI5
 70
     0
  9
$USERR1
 40
0.0
  9
$USERR2
 40
0.0
  9
$USERR3
 40
0.0
  9
$USERR4
 40
0.0
  9
$USERR5
 40
0.0
  9
$WORLDVIEW
 70
     1
  9
$SHADEDGE
 70
     3
  9
$SHADEDIF
 70
    70
  9
$TILEMODE
 70
     1
  9
$MAXACTVP
 70
    16
  9
$PINSBASE
 10
0.0
 20
0.0
 30
0.0
  9
$PLIMCHECK
 70
     0
  9
$PEXTMIN
 10
0.0
 20
0.0
 30
0.0
  9
$PEXTMAX
 10
420.0
 20
297.0
 30
0.0
  9
$PLIMMIN
 10
0.0
 20
0.0
  9
$PLIMMAX
 10
420.0
 20
297.0
  9
$UNITMODE
 70
     0
  9
$VISRETAIN
 70
     0
  9
$PLINEGEN
 70
     0
  9
$PSLTSCALE
 70
     1
  9
$TREEDEPTH
 70
  3020
  9
$PICKSTYLE
 70
     1
  9
$CMLSTYLE
  2
STANDARD
  9
$CMLJUST
 70
     0
  9
$CMLSCALE
 40
1.0
  9
$PROXYGRAPHICS
 70
     1
  9
$MEASUREMENT
 70
     1
  0
ENDSEC
  0
SECTION
  2
CLASSES
  0
CLASS
  1
ACDBDICTIONARYWDFLT
  2
AcDbDictionaryWithDefault
  3
AutoCAD 2000
 90
        0
280
     0
281
     0
  0
CLASS
  1
ACDBPLACEHOLDER
  2
AcDbPlaceHolder
  3
AutoCAD 2000
 90
        0
280
     0
281
     0
  0
CLASS
  1
LAYOUT
  2
AcDbLayout
  3
AutoCAD 2000
 90
        0
280
     0
281
     0
  0
CLASS
  1
LONG_TRANSACTION
  2
AcDbLongTransaction
  3
AutoCAD 2000
 90
        0
280
     0
281
     0
  0
CLASS
  1
LWPOLYLINE
  2
AcDbPolyline
  3
AutoCAD 2000
 90
        0
280
     0
281
     1
  0
CLASS
  1
HATCH
  2
AcDbHatch
  3
AutoCAD 2000
 90
        0
280
     0
281
     1
  0
CLASS
  1
XRECORD
  2
AcDbXrecord
  3
AutoCAD 2000
 90
        0
280
     0
281
     0
  0
CLASS
  1
LONG_TRANSACTION
  2
AcDbLongTransaction
  3
AutoCAD 2000
 90
        0
280
     0
281
     0
  0
CLASS
  1
LWPOLYLINE
  2
AcDbPolyline
  3
AutoCAD 2000
 90
        0
280
     0
281
     1
  0
CLASS
  1
HATCH
  2
AcDbHatch
  3
AutoCAD 2000
 90
        0
280
     0
281
     1
  0
CLASS
  1
XRECORD
  2
AcDbXrecord
  3
AutoCAD 2000
 90
        0
280
     0
281
     0
  0
ENDSEC
  0
SECTION
  2
TABLES
  0
TABLE
  2
VPORT
  5
8
330
0
100
AcDbSymbolTable
 70
     2
  0
VPORT
  5
883
330
8
100
AcDbSymbolTableRecord
100
AcDbViewportTableRecord
  2
*ACTIVE
 70
     0
 10
0.0
 20
0.0
 11
1.0
 21
1.0
 12
439.5200025046335
 22
285.502670306421
 13
0.0
 23
0.0
 14
5.0
 24
5.0
 15
0.0
 25
0.0
 16
0.0
 26
0.0
 36
1.0
 17
0.0
 27
0.0
 37
0.0
 40
628.1637617169638
 41
1.795454545454545
 42
50.0
 43
0.0
 44
0.0
 50
0.0
 51
0.0
 71
     0
 72
   100
 73
     1
 74
     0
 75
     0
 76
     0
 77
     0
 78
     0
  0
ENDTAB
  0
TABLE
  2
LTYPE
  5
5
330
0
100
AcDbSymbolTable
 70
     3
  0
LTYPE
  5
14
330
5
100
AcDbSymbolTableRecord
100
AcDbLinetypeTableRecord
  2
BYBLOCK
 70
     0
  3

 72
    65
 73
     0
 40
0.0
  0
LTYPE
  5
15
330
5
100
AcDbSymbolTableRecord
100
AcDbLinetypeTableRecord
  2
BYLAYER
 70
     0
  3

 72
    65
 73
     0
 40
0.0
  0
LTYPE
  5
16
330
5
100
AcDbSymbolTableRecord
100
AcDbLinetypeTableRecord
  2
CONTINUOUS
 70
     0
  3
Solid line
 72
    65
 73
     0
 40
0.0
  0
LTYPE
  5
115
330
5
100
AcDbSymbolTableRecord
100
AcDbLinetypeTableRecord
  2
PHANTOM
 70
     0
  3
______  __  __  ______  __  __  ______  __  __ 
 72
    65
 73
     6
 40
2.5
 49
1.25
 74
     0
 49
-0.25
 74
     0
 49
0.25
 74
     0
 49
-0.25
 74
     0
 49
0.25
 74
     0
 49
-0.25
 74
     0
  0
LTYPE
  5
135
330
5
100
AcDbSymbolTableRecord
100
AcDbLinetypeTableRecord
  2
CENTER
 70
     0
  3
____ _ ____ _ ____ _ ____ _ ____ _ ____ _ ____ 
 72
    65
 73
     4
 40
2.0
 49
1.25
 74
     0
 49
-0.25
 74
     0
 49
0.25
 74
     0
 49
-0.25
 74
     0
  0
ENDTAB
  0
TABLE
  2
LAYER
  5
2
330
0
100
AcDbSymbolTable
 70
     9
  0
LAYER
  5
F
330
2
100
AcDbSymbolTableRecord
100
AcDbLayerTableRecord
  2
0
 70
     0
 62
     7
  6
CONTINUOUS
  0
LAYER
  5
62
330
2
100
AcDbSymbolTableRecord
100
AcDbLayerTableRecord
  2
VIEWPORT
 70
     0
 62
     7
  6
CONTINUOUS
  0
LAYER
  5
65
330
2
100
AcDbSymbolTableRecord
100
AcDbLayerTableRecord
  2
ZUWAKU
 70
     0
 62
     7
  6
CONTINUOUS
  0
LAYER
  5
143
330
2
100
AcDbSymbolTableRecord
100
AcDbLayerTableRecord
  2
SEIHIN
 70
     0
 62
     3
  6
CONTINUOUS
  0
LAYER
  5
144
330
2
100
AcDbSymbolTableRecord
100
AcDbLayerTableRecord
  2
SUNPOU
 70
     0
 62
     4
  6
CONTINUOUS
  0
LAYER
  5
145
330
2
100
AcDbSymbolTableRecord
100
AcDbLayerTableRecord
  2
CENTER_L
 70
     0
 62
     1
  6
CENTER
  0
LAYER
  5
146
330
2
100
AcDbSymbolTableRecord
100
AcDbLayerTableRecord
  2
NOKITOI
 70
     0
 62
     8
  6
PHANTOM
  0
LAYER
  5
4DF
330
2
100
AcDbSymbolTableRecord
100
AcDbLayerTableRecord
  2
DEFPOINTS
 70
     0
 62
     7
  6
CONTINUOUS
  0
LAYER
  5
702
330
2
100
AcDbSymbolTableRecord
100
AcDbLayerTableRecord
  2
MOJI
 70
     0
 62
     2
  6
CONTINUOUS
  0
ENDTAB
  0
TABLE
  2
STYLE
  5
3
330
0
100
AcDbSymbolTable
 70
     2
  0
STYLE
  5
10
330
3
100
AcDbSymbolTableRecord
100
AcDbTextStyleTableRecord
  2
STANDARD
 70
     0
 40
0.0
 41
1.0
 50
0.0
 71
     0
 42
5.0
  3
TXT
  4
bigfont.shx
  0
STYLE
  5
703
330
3
100
AcDbSymbolTableRecord
100
AcDbTextStyleTableRecord
  2
ｽﾀｲﾙ1
 70
     0
 40
0.0
 41
1.0
 50
0.0
 71
     0
 42
2.5
  3
MS PGothic.ttf
  4

1001
ACAD
1000
MS PGothic
1071
    32818
  0
ENDTAB
  0
TABLE
  2
VIEW
  5
6
330
0
100
AcDbSymbolTable
 70
     0
  0
ENDTAB
  0
TABLE
  2
UCS
  5
7
330
0
100
AcDbSymbolTable
 70
     0
  0
ENDTAB
  0
TABLE
  2
APPID
  5
9
330
0
100
AcDbSymbolTable
 70
     1
  0
APPID
  5
11
330
9
100
AcDbSymbolTableRecord
100
AcDbRegAppTableRecord
  2
ACAD
 70
     0
  0
ENDTAB
  0
TABLE
  2
DIMSTYLE
  5
A
330
0
100
AcDbSymbolTable
 70
     1
  0
DIMSTYLE
105
1D
102
{ACAD_REACTORS
330
4E4
330
4F1
330
4FE
330
50B
330
518
330
525
330
535
330
542
330
551
330
592
330
602
330
63D
102
}
330
A
100
AcDbSymbolTableRecord
100
AcDbDimStyleTableRecord
  2
STANDARD
 70
     0
  3

  4

  5

  6

  7

 40
1.0
 41
0.18
 42
0.0625
 43
0.38
 44
0.18
 45
0.0
 46
0.0
 47
0.0
 48
0.0
140
0.18
141
0.09
142
0.0
143
25.4
144
1.0
145
0.0
146
1.0
147
0.09
 71
     0
 72
     0
 73
     1
 74
     1
 75
     0
 76
     0
 77
     0
 78
     0
170
     0
171
     2
172
     0
173
     0
174
     0
175
     0
176
     0
177
     0
178
     0
270
     2
271
     4
272
     4
273
     2
274
     2
340
10
275
     0
280
     0
281
     0
282
     0
283
     1
284
     0
285
     0
286
     0
287
     3
288
     0
  0
ENDTAB
  0
TABLE
  2
BLOCK_RECORD
  5
1
330
0
100
AcDbSymbolTable
 70
    13
  0
BLOCK_RECORD
  5
1A
102
{ACAD_XDICTIONARY
360
6F4
102
}
330
1
100
AcDbSymbolTableRecord
100
AcDbBlockTableRecord
  2
*MODEL_SPACE
  0
BLOCK_RECORD
  5
17
102
{ACAD_XDICTIONARY
360
6F2
102
}
330
1
100
AcDbSymbolTableRecord
100
AcDbBlockTableRecord
  2
*PAPER_SPACE
  0
BLOCK_RECORD
  5
6D
330
1
100
AcDbSymbolTableRecord
100
AcDbBlockTableRecord
  2
_OPEN
  0
BLOCK_RECORD
  5
4D7
330
1
100
AcDbSymbolTableRecord
100
AcDbBlockTableRecord
  2
*D1
  0
BLOCK_RECORD
  5
4E5
330
1
100
AcDbSymbolTableRecord
100
AcDbBlockTableRecord
  2
*D2
  0
BLOCK_RECORD
  5
4F2
330
1
100
AcDbSymbolTableRecord
100
AcDbBlockTableRecord
  2
*D3
  0
BLOCK_RECORD
  5
4FF
330
1
100
AcDbSymbolTableRecord
100
AcDbBlockTableRecord
  2
*D4
  0
BLOCK_RECORD
  5
50C
330
1
100
AcDbSymbolTableRecord
100
AcDbBlockTableRecord
  2
*D5
  0
BLOCK_RECORD
  5
519
330
1
100
AcDbSymbolTableRecord
100
AcDbBlockTableRecord
  2
*D6
  0
BLOCK_RECORD
  5
527
330
1
100
AcDbSymbolTableRecord
100
AcDbBlockTableRecord
  2
*D7
  0
BLOCK_RECORD
  5
536
330
1
100
AcDbSymbolTableRecord
100
AcDbBlockTableRecord
  2
*D8
  0
BLOCK_RECORD
  5
545
330
1
100
AcDbSymbolTableRecord
100
AcDbBlockTableRecord
  2
*D9
  0
BLOCK_RECORD
  5
586
330
1
100
AcDbSymbolTableRecord
100
AcDbBlockTableRecord
  2
*D10
  0
BLOCK_RECORD
  5
5F6
330
1
100
AcDbSymbolTableRecord
100
AcDbBlockTableRecord
  2
*D11
  0
BLOCK_RECORD
  5
62F
330
1
100
AcDbSymbolTableRecord
100
AcDbBlockTableRecord
  2
*D12
  0
ENDTAB
  0
ENDSEC
  0
SECTION
  2
BLOCKS
  0
BLOCK
  5
1B
330
1A
100
AcDbEntity
  8
0
100
AcDbBlockBegin
  2
*MODEL_SPACE
 70
     0
 10
0.0
 20
0.0
 30
0.0
  3
*MODEL_SPACE
  1

  0
ENDBLK
  5
1C
330
1A
100
AcDbEntity
  8
0
100
AcDbBlockEnd
  0
BLOCK
  5
18
330
17
100
AcDbEntity
 67
     1
  8
0
100
AcDbBlockBegin
  2
*PAPER_SPACE
 70
     0
 10
0.0
 20
0.0
 30
0.0
  3
*PAPER_SPACE
  1

  0
ENDBLK
  5
19
330
17
100
AcDbEntity
 67
     1
  8
0
100
AcDbBlockEnd
  0
BLOCK
  5
6E
330
6D
100
AcDbEntity
  8
0
100
AcDbBlockBegin
  2
_OPEN
 70
     0
 10
0.0
 20
0.0
 30
0.0
  3
_OPEN
  1

  0
LINE
  5
6F
330
6D
100
AcDbEntity
  8
0
  6
BYBLOCK
 62
     0
100
AcDbLine
 10
-1.0
 20
0.1666666666666666
 30
0.0
 11
0.0
 21
0.0
 31
0.0
  0
LINE
  5
70
330
6D
100
AcDbEntity
  8
0
  6
BYBLOCK
 62
     0
100
AcDbLine
 10
0.0
 20
0.0
 30
0.0
 11
-1.0
 21
-0.1666666666666666
 31
0.0
  0
LINE
  5
71
330
6D
100
AcDbEntity
  8
0
  6
BYBLOCK
 62
     0
100
AcDbLine
 10
0.0
 20
0.0
 30
0.0
 11
-1.0
 21
0.0
 31
0.0
  0
ENDBLK
  5
72
330
6D
100
AcDbEntity
  8
0
100
AcDbBlockEnd
  0
BLOCK
  5
6AB
330
4D7
100
AcDbEntity
  8
0
100
AcDbBlockBegin
  2
*D1
 70
     1
 10
0.0
 20
0.0
 30
0.0
  3
*D1
  1

  0
LINE
  5
6AC
330
4D7
100
AcDbEntity
  8
0
  6
BYBLOCK
 62
     4
100
AcDbLine
 10
618.212335031599
 20
366.066320931442
 30
0.0
 11
644.6896791325057
 21
366.066320931442
 31
0.0
  0
LINE
  5
6AD
330
4D7
100
AcDbEntity
  8
0
  6
BYBLOCK
 62
     4
100
AcDbLine
 10
588.8553350315987
 20
302.3662209314421
 30
0.0
 11
644.6896791325057
 21
302.3662209314421
 31
0.0
  0
LINE
  5
6AE
330
4D7
100
AcDbEntity
  8
0
  6
BYBLOCK
 62
     4
100
AcDbLine
 10
641.6896791325057
 20
359.0663209314421
 30
0.0
 11
641.6896791325057
 21
309.3662209314421
 31
0.0
  0
INSERT
  5
6AF
330
4D7
100
AcDbEntity
  8
0
  6
BYBLOCK
 62
     4
100
AcDbBlockReference
  2
_OPEN
 10
641.6896791325057
 20
366.066320931442
 30
0.0
 41
7.0
 42
7.0
 43
7.0
 50
90.0
  0
INSERT
  5
6B0
330
4D7
100
AcDbEntity
  8
0
  6
BYBLOCK
 62
     4
100
AcDbBlockReference
  2
_OPEN
 10
641.6896791325057
 20
302.3662209314421
 30
0.0
 41
7.0
 42
7.0
 43
7.0
 50
270.0
  0
MTEXT
  5
6B1
330
4D7
100
AcDbEntity
  8
0
  6
BYBLOCK
 62
     4
100
AcDbMText
 10
636.6896791325057
 20
334.216270931442
 30
0.0
 40
6.0
 41
0.0
 71
     5
 72
     5
  1
\A1;64
 11
0.0
 21
1.0
 31
0.0
1001
ACAD
1000
MTEXTBEGIN
1070
    73
1070
     1
1070
    44
1040
1.0
1070
    74
1070
     0
1000
MTEXTEND
1000
MTEXTBEGIN
1070
    73
1070
     1
1070
    44
1040
1.0
1070
    74
1070
     0
1000
MTEXTEND
  0
POINT
  5
6B2
330
4D7
100
AcDbEntity
  8
DEFPOINTS
  6
BYBLOCK
 62
     0
100
AcDbPoint
 10
612.2123350315989
 20
366.066320931442
 30
0.0
  0
POINT
  5
6B3
330
4D7
100
AcDbEntity
  8
DEFPOINTS
  6
BYBLOCK
 62
     0
100
AcDbPoint
 10
582.8553350315988
 20
302.3662209314421
 30
0.0
  0
POINT
  5
6B4
330
4D7
100
AcDbEntity
  8
DEFPOINTS
  6
BYBLOCK
 62
     0
100
AcDbPoint
 10
641.6896791325057
 20
302.3662209314421
 30
0.0
  0
ENDBLK
  5
6B5
330
4D7
100
AcDbEntity
  8
0
100
AcDbBlockEnd
  0
BLOCK
  5
4E6
330
4E5
100
AcDbEntity
  8
0
100
AcDbBlockBegin
  2
*D2
 70
     1
 10
0.0
 20
0.0
 30
0.0
  3
*D2
  1

  0
LINE
  5
4E7
330
4E5
100
AcDbEntity
  8
0
  6
BYBLOCK
 62
     4
100
AcDbLine
 10
612.2123350315989
 20
401.5267986199148
 30
0.0
 11
612.2123350315989
 21
435.0213686963904
 31
0.0
  0
LINE
  5
4E8
330
4E5
100
AcDbEntity
  8
0
  6
BYBLOCK
 62
     4
100
AcDbLine
 10
545.7123350315989
 20
366.1712986199148
 30
0.0
 11
545.7123350315989
 21
435.0213686963904
 31
0.0
  0
LINE
  5
4E9
330
4E5
100
AcDbEntity
  8
0
  6
BYBLOCK
 62
     4
100
AcDbLine
 10
605.2123350315989
 20
432.0213686963905
 30
0.0
 11
552.712335031599
 21
432.0213686963905
 31
0.0
  0
INSERT
  5
4EA
330
4E5
100
AcDbEntity
  8
0
  6
BYBLOCK
 62
     4
100
AcDbBlockReference
  2
_OPEN
 10
612.2123350315989
 20
432.0213686963905
 30
0.0
 41
7.0
 42
7.0
 43
7.0
  0
INSERT
  5
4EB
330
4E5
100
AcDbEntity
  8
0
  6
BYBLOCK
 62
     4
100
AcDbBlockReference
  2
_OPEN
 10
545.7123350315989
 20
432.0213686963905
 30
0.0
 41
7.0
 42
7.0
 43
7.0
 50
180.0
  0
MTEXT
  5
4EC
330
4E5
100
AcDbEntity
  8
0
  6
BYBLOCK
 62
     4
100
AcDbMText
 10
578.962335031599
 20
437.0213686963904
 30
0.0
 40
6.0
 41
0.0
 71
     5
 72
     5
  1
\A1;67
1001
ACAD
1000
MTEXTBEGIN
1070
    73
1070
     1
1070
    44
1040
1.0
1070
    74
1070
     0
1000
MTEXTEND
1000
MTEXTBEGIN
1070
    73
1070
     1
1070
    44
1040
1.0
1070
    74
1070
     0
1000
MTEXTEND
  0
POINT
  5
4ED
330
4E5
100
AcDbEntity
  8
DEFPOINTS
  6
BYBLOCK
 62
     0
100
AcDbPoint
 10
612.2123350315989
 20
395.5267986199148
 30
0.0
  0
POINT
  5
4EE
330
4E5
100
AcDbEntity
  8
DEFPOINTS
  6
BYBLOCK
 62
     0
100
AcDbPoint
 10
545.7123350315989
 20
360.1712986199148
 30
0.0
  0
POINT
  5
4EF
330
4E5
100
AcDbEntity
  8
DEFPOINTS
  6
BYBLOCK
 62
     0
100
AcDbPoint
 10
545.7123350315989
 20
432.0213686963905
 30
0.0
  0
ENDBLK
  5
4F0
330
4E5
100
AcDbEntity
  8
0
100
AcDbBlockEnd
  0
BLOCK
  5
4F3
330
4F2
100
AcDbEntity
  8
0
100
AcDbBlockBegin
  2
*D3
 70
     1
 10
0.0
 20
0.0
 30
0.0
  3
*D3
  1

  0
LINE
  5
4F4
330
4F2
100
AcDbEntity
  8
0
  6
BYBLOCK
 62
     4
100
AcDbLine
 10
612.2123350315989
 20
401.5267986199148
 30
0.0
 11
612.2123350315989
 21
452.6716179015075
 31
0.0
  0
LINE
  5
4F5
330
4F2
100
AcDbEntity
  8
0
  6
BYBLOCK
 62
     4
100
AcDbLine
 10
456.0124350315988
 20
411.5267986199148
 30
0.0
 11
456.0124350315988
 21
452.6716179015075
 31
0.0
  0
LINE
  5
4F6
330
4F2
100
AcDbEntity
  8
0
  6
BYBLOCK
 62
     4
100
AcDbLine
 10
605.2123350315989
 20
449.6716179015074
 30
0.0
 11
463.0124350315989
 21
449.6716179015074
 31
0.0
  0
INSERT
  5
4F7
330
4F2
100
AcDbEntity
  8
0
  6
BYBLOCK
 62
     4
100
AcDbBlockReference
  2
_OPEN
 10
612.2123350315989
 20
449.6716179015074
 30
0.0
 41
7.0
 42
7.0
 43
7.0
  0
INSERT
  5
4F8
330
4F2
100
AcDbEntity
  8
0
  6
BYBLOCK
 62
     4
100
AcDbBlockReference
  2
_OPEN
 10
456.0124350315988
 20
449.6716179015074
 30
0.0
 41
7.0
 42
7.0
 43
7.0
 50
180.0
  0
MTEXT
  5
4F9
330
4F2
100
AcDbEntity
  8
0
  6
BYBLOCK
 62
     4
100
AcDbMText
 10
534.1123850315989
 20
454.6716179015074
 30
0.0
 40
6.0
 41
0.0
 71
     5
 72
     5
  1
\A1;156
1001
ACAD
1000
MTEXTBEGIN
1070
    73
1070
     1
1070
    44
1040
1.0
1070
    74
1070
     0
1000
MTEXTEND
1000
MTEXTBEGIN
1070
    73
1070
     1
1070
    44
1040
1.0
1070
    74
1070
     0
1000
MTEXTEND
  0
POINT
  5
4FA
330
4F2
100
AcDbEntity
  8
DEFPOINTS
  6
BYBLOCK
 62
     0
100
AcDbPoint
 10
612.2123350315989
 20
395.5267986199148
 30
0.0
  0
POINT
  5
4FB
330
4F2
100
AcDbEntity
  8
DEFPOINTS
  6
BYBLOCK
 62
     0
100
AcDbPoint
 10
456.0124350315988
 20
405.5267986199148
 30
0.0
  0
POINT
  5
4FC
330
4F2
100
AcDbEntity
  8
DEFPOINTS
  6
BYBLOCK
 62
     0
100
AcDbPoint
 10
456.0124350315988
 20
449.6716179015074
 30
0.0
  0
ENDBLK
  5
4FD
330
4F2
100
AcDbEntity
  8
0
100
AcDbBlockEnd
  0
BLOCK
  5
66F
330
4FF
100
AcDbEntity
  8
0
100
AcDbBlockBegin
  2
*D4
 70
     1
 10
0.0
 20
0.0
 30
0.0
  3
*D4
  1

  0
LINE
  5
670
330
4FF
100
AcDbEntity
  8
0
  6
BYBLOCK
 62
     4
100
AcDbLine
 10
450.0124350315989
 20
376.066320931442
 30
0.0
 11
423.3571909135148
 21
376.066320931442
 31
0.0
  0
LINE
  5
671
330
4FF
100
AcDbEntity
  8
0
  6
BYBLOCK
 62
     4
100
AcDbLine
 10
531.4205350315989
 20
302.3662209314421
 30
0.0
 11
423.3571909135148
 21
302.3662209314421
 31
0.0
  0
LINE
  5
672
330
4FF
100
AcDbEntity
  8
0
  6
BYBLOCK
 62
     4
100
AcDbLine
 10
426.3571909135148
 20
369.066320931442
 30
0.0
 11
426.3571909135148
 21
309.3662209314421
 31
0.0
  0
INSERT
  5
673
330
4FF
100
AcDbEntity
  8
0
  6
BYBLOCK
 62
     4
100
AcDbBlockReference
  2
_OPEN
 10
426.3571909135148
 20
376.066320931442
 30
0.0
 41
7.0
 42
7.0
 43
7.0
 50
90.0
  0
INSERT
  5
674
330
4FF
100
AcDbEntity
  8
0
  6
BYBLOCK
 62
     4
100
AcDbBlockReference
  2
_OPEN
 10
426.3571909135148
 20
302.3662209314421
 30
0.0
 41
7.0
 42
7.0
 43
7.0
 50
270.0
  0
MTEXT
  5
675
330
4FF
100
AcDbEntity
  8
0
  6
BYBLOCK
 62
     4
100
AcDbMText
 10
421.3571909135148
 20
339.216270931442
 30
0.0
 40
6.0
 41
0.0
 71
     5
 72
     5
  1
\A1;74
 11
0.0
 21
1.0
 31
0.0
1001
ACAD
1000
MTEXTBEGIN
1070
    73
1070
     1
1070
    44
1040
1.0
1070
    74
1070
     0
1000
MTEXTEND
1000
MTEXTBEGIN
1070
    73
1070
     1
1070
    44
1040
1.0
1070
    74
1070
     0
1000
MTEXTEND
  0
POINT
  5
676
330
4FF
100
AcDbEntity
  8
DEFPOINTS
  6
BYBLOCK
 62
     0
100
AcDbPoint
 10
456.0124350315988
 20
376.066320931442
 30
0.0
  0
POINT
  5
677
330
4FF
100
AcDbEntity
  8
DEFPOINTS
  6
BYBLOCK
 62
     0
100
AcDbPoint
 10
537.420535031599
 20
302.3662209314421
 30
0.0
  0
POINT
  5
678
330
4FF
100
AcDbEntity
  8
DEFPOINTS
  6
BYBLOCK
 62
     0
100
AcDbPoint
 10
426.3571909135148
 20
302.3662209314421
 30
0.0
  0
ENDBLK
  5
679
330
4FF
100
AcDbEntity
  8
0
100
AcDbBlockEnd
  0
BLOCK
  5
67A
330
50C
100
AcDbEntity
  8
0
100
AcDbBlockBegin
  2
*D5
 70
     1
 10
0.0
 20
0.0
 30
0.0
  3
*D5
  1

  0
LINE
  5
67B
330
50C
100
AcDbEntity
  8
0
  6
BYBLOCK
 62
     4
100
AcDbLine
 10
450.0124350315989
 20
376.066320931442
 30
0.0
 11
408.2680541367095
 21
376.066320931442
 31
0.0
  0
LINE
  5
67C
330
50C
100
AcDbEntity
  8
0
  6
BYBLOCK
 62
     4
100
AcDbLine
 10
503.088135031599
 20
225.066220931442
 30
0.0
 11
408.2680541367095
 21
225.066220931442
 31
0.0
  0
LINE
  5
67D
330
50C
100
AcDbEntity
  8
0
  6
BYBLOCK
 62
     4
100
AcDbLine
 10
411.2680541367094
 20
369.066320931442
 30
0.0
 11
411.2680541367094
 21
232.066220931442
 31
0.0
  0
INSERT
  5
67E
330
50C
100
AcDbEntity
  8
0
  6
BYBLOCK
 62
     4
100
AcDbBlockReference
  2
_OPEN
 10
411.2680541367094
 20
376.066320931442
 30
0.0
 41
7.0
 42
7.0
 43
7.0
 50
90.0
  0
INSERT
  5
67F
330
50C
100
AcDbEntity
  8
0
  6
BYBLOCK
 62
     4
100
AcDbBlockReference
  2
_OPEN
 10
411.2680541367094
 20
225.066220931442
 30
0.0
 41
7.0
 42
7.0
 43
7.0
 50
270.0
  0
MTEXT
  5
680
330
50C
100
AcDbEntity
  8
0
  6
BYBLOCK
 62
     4
100
AcDbMText
 10
406.2680541367094
 20
300.5662709314421
 30
0.0
 40
6.0
 41
0.0
 71
     5
 72
     5
  1
\A1;151
 11
0.0
 21
1.0
 31
0.0
1001
ACAD
1000
MTEXTBEGIN
1070
    73
1070
     1
1070
    44
1040
1.0
1070
    74
1070
     0
1000
MTEXTEND
1000
MTEXTBEGIN
1070
    73
1070
     1
1070
    44
1040
1.0
1070
    74
1070
     0
1000
MTEXTEND
  0
POINT
  5
681
330
50C
100
AcDbEntity
  8
DEFPOINTS
  6
BYBLOCK
 62
     0
100
AcDbPoint
 10
456.0124350315988
 20
376.066320931442
 30
0.0
  0
POINT
  5
682
330
50C
100
AcDbEntity
  8
DEFPOINTS
  6
BYBLOCK
 62
     0
100
AcDbPoint
 10
509.0881350315989
 20
225.066220931442
 30
0.0
  0
POINT
  5
683
330
50C
100
AcDbEntity
  8
DEFPOINTS
  6
BYBLOCK
 62
     0
100
AcDbPoint
 10
411.2680541367094
 20
225.066220931442
 30
0.0
  0
ENDBLK
  5
684
330
50C
100
AcDbEntity
  8
0
100
AcDbBlockEnd
  0
BLOCK
  5
685
330
519
100
AcDbEntity
  8
0
100
AcDbBlockBegin
  2
*D6
 70
     1
 10
0.0
 20
0.0
 30
0.0
  3
*D6
  1

  0
LINE
  5
686
330
519
100
AcDbEntity
  8
0
  6
BYBLOCK
 62
     4
100
AcDbLine
 10
450.0124350315989
 20
376.066320931442
 30
0.0
 11
392.2644248342858
 21
376.066320931442
 31
0.0
  0
LINE
  5
687
330
519
100
AcDbEntity
  8
0
  6
BYBLOCK
 62
     4
100
AcDbLine
 10
518.512135031599
 20
181.6663709314421
 30
0.0
 11
392.2644248342858
 21
181.6663709314421
 31
0.0
  0
LINE
  5
688
330
519
100
AcDbEntity
  8
0
  6
BYBLOCK
 62
     4
100
AcDbLine
 10
395.2644248342858
 20
369.066320931442
 30
0.0
 11
395.2644248342858
 21
188.6663709314421
 31
0.0
  0
INSERT
  5
689
330
519
100
AcDbEntity
  8
0
  6
BYBLOCK
 62
     4
100
AcDbBlockReference
  2
_OPEN
 10
395.2644248342858
 20
376.066320931442
 30
0.0
 41
7.0
 42
7.0
 43
7.0
 50
90.0
  0
INSERT
  5
68A
330
519
100
AcDbEntity
  8
0
  6
BYBLOCK
 62
     4
100
AcDbBlockReference
  2
_OPEN
 10
395.2644248342858
 20
181.6663709314421
 30
0.0
 41
7.0
 42
7.0
 43
7.0
 50
270.0
  0
MTEXT
  5
68B
330
519
100
AcDbEntity
  8
0
  6
BYBLOCK
 62
     4
100
AcDbMText
 10
390.2644248342858
 20
278.866345931442
 30
0.0
 40
6.0
 41
0.0
 71
     5
 72
     5
  1
\A1;194
 11
0.0
 21
1.0
 31
0.0
1001
ACAD
1000
MTEXTBEGIN
1070
    73
1070
     1
1070
    44
1040
1.0
1070
    74
1070
     0
1000
MTEXTEND
1000
MTEXTBEGIN
1070
    73
1070
     1
1070
    44
1040
1.0
1070
    74
1070
     0
1000
MTEXTEND
  0
POINT
  5
68C
330
519
100
AcDbEntity
  8
DEFPOINTS
  6
BYBLOCK
 62
     0
100
AcDbPoint
 10
456.0124350315988
 20
376.066320931442
 30
0.0
  0
POINT
  5
68D
330
519
100
AcDbEntity
  8
DEFPOINTS
  6
BYBLOCK
 62
     0
100
AcDbPoint
 10
524.5121350315989
 20
181.6663709314421
 30
0.0
  0
POINT
  5
68E
330
519
100
AcDbEntity
  8
DEFPOINTS
  6
BYBLOCK
 62
     0
100
AcDbPoint
 10
395.2644248342858
 20
181.6663709314421
 30
0.0
  0
ENDBLK
  5
68F
330
519
100
AcDbEntity
  8
0
100
AcDbBlockEnd
  0
BLOCK
  5
61D
330
527
100
AcDbEntity
  8
0
100
AcDbBlockBegin
  2
*D7
 70
     1
 10
0.0
 20
0.0
 30
0.0
  3
*D7
  1

  0
LINE
  5
61E
330
527
100
AcDbEntity
  8
0
  6
BYBLOCK
 62
     4
100
AcDbLine
 10
596.2061361126813
 20
227.1267792311342
 30
0.0
 11
630.716293372458
 21
227.1267792311342
 31
0.0
  0
LINE
  5
61F
330
527
100
AcDbEntity
  8
0
  6
BYBLOCK
 62
     4
100
AcDbLine
 10
594.7124350315989
 20
217.1267886199149
 30
0.0
 11
630.716293372458
 21
217.1267886199149
 31
0.0
  0
LINE
  5
620
330
527
100
AcDbEntity
  8
0
  6
BYBLOCK
 62
     4
100
AcDbLine
 10
627.716293372458
 20
234.1267792311342
 30
0.0
 11
627.716293372458
 21
241.1267792311342
 31
0.0
  0
LINE
  5
621
330
527
100
AcDbEntity
  8
0
  6
BYBLOCK
 62
     4
100
AcDbLine
 10
627.716293372458
 20
210.1267886199149
 30
0.0
 11
627.716293372458
 21
178.9267886199149
 31
0.0
  0
LINE
  5
622
330
527
100
AcDbEntity
  8
0
  6
BYBLOCK
 62
     4
100
AcDbLine
 10
627.716293372458
 20
227.1267792311342
 30
0.0
 11
627.716293372458
 21
217.1267886199149
 31
0.0
  0
INSERT
  5
623
330
527
100
AcDbEntity
  8
0
  6
BYBLOCK
 62
     4
100
AcDbBlockReference
  2
_OPEN
 10
627.716293372458
 20
227.1267792311342
 30
0.0
 41
7.0
 42
7.0
 43
7.0
 50
270.0
  0
INSERT
  5
624
330
527
100
AcDbEntity
  8
0
  6
BYBLOCK
 62
     4
100
AcDbBlockReference
  2
_OPEN
 10
627.716293372458
 20
217.1267886199149
 30
0.0
 41
7.0
 42
7.0
 43
7.0
 50
90.0
  0
MTEXT
  5
625
330
527
100
AcDbEntity
  8
0
  6
BYBLOCK
 62
     4
100
AcDbMText
 10
622.716293372458
 20
191.0267886199149
 30
0.0
 40
6.0
 41
0.0
 71
     5
 72
     5
  1
\A1;※b10
 11
0.0
 21
1.0
 31
0.0
1001
ACAD
1000
MTEXTBEGIN
1070
    73
1070
     1
1070
    44
1040
1.0
1070
    74
1070
     0
1000
MTEXTEND
1000
MTEXTBEGIN
1070
    73
1070
     1
1070
    44
1040
1.0
1070
    74
1070
     0
1000
MTEXTEND
  0
POINT
  5
626
330
527
100
AcDbEntity
  8
DEFPOINTS
  6
BYBLOCK
 62
     0
100
AcDbPoint
 10
590.2061361126812
 20
227.1267792311342
 30
0.0
  0
POINT
  5
627
330
527
100
AcDbEntity
  8
DEFPOINTS
  6
BYBLOCK
 62
     0
100
AcDbPoint
 10
588.7124350315989
 20
217.1267886199149
 30
0.0
  0
POINT
  5
628
330
527
100
AcDbEntity
  8
DEFPOINTS
  6
BYBLOCK
 62
     0
100
AcDbPoint
 10
627.716293372458
 20
217.1267886199149
 30
0.0
  0
ENDBLK
  5
629
330
527
100
AcDbEntity
  8
0
100
AcDbBlockEnd
  0
BLOCK
  5
659
330
536
100
AcDbEntity
  8
0
100
AcDbBlockBegin
  2
*D8
 70
     1
 10
0.0
 20
0.0
 30
0.0
  3
*D8
  1

  0
LINE
  5
65A
330
536
100
AcDbEntity
  8
0
  6
BYBLOCK
 62
     4
100
AcDbLine
 10
341.7124350315989
 20
382.066420931442
 30
0.0
 11
341.7124350315989
 21
421.04973630108
 31
0.0
  0
LINE
  5
65B
330
536
100
AcDbEntity
  8
0
  6
BYBLOCK
 62
     4
100
AcDbLine
 10
165.712335031599
 20
382.066420931442
 30
0.0
 11
165.712335031599
 21
421.04973630108
 31
0.0
  0
LINE
  5
65C
330
536
100
AcDbEntity
  8
0
  6
BYBLOCK
 62
     4
100
AcDbLine
 10
334.7124350315989
 20
418.0497363010799
 30
0.0
 11
172.712335031599
 21
418.0497363010799
 31
0.0
  0
INSERT
  5
65D
330
536
100
AcDbEntity
  8
0
  6
BYBLOCK
 62
     4
100
AcDbBlockReference
  2
_OPEN
 10
341.7124350315989
 20
418.0497363010799
 30
0.0
 41
7.0
 42
7.0
 43
7.0
  0
INSERT
  5
65E
330
536
100
AcDbEntity
  8
0
  6
BYBLOCK
 62
     4
100
AcDbBlockReference
  2
_OPEN
 10
165.712335031599
 20
418.0497363010799
 30
0.0
 41
7.0
 42
7.0
 43
7.0
 50
180.0
  0
MTEXT
  5
65F
330
536
100
AcDbEntity
  8
0
  6
BYBLOCK
 62
     4
100
AcDbMText
 10
253.7123850315989
 20
423.0497363010799
 30
0.0
 40
6.0
 41
0.0
 71
     5
 72
     5
  1
\A1;176
1001
ACAD
1000
MTEXTBEGIN
1070
    73
1070
     1
1070
    44
1040
1.0
1070
    74
1070
     0
1000
MTEXTEND
1000
MTEXTBEGIN
1070
    73
1070
     1
1070
    44
1040
1.0
1070
    74
1070
     0
1000
MTEXTEND
  0
POINT
  5
660
330
536
100
AcDbEntity
  8
DEFPOINTS
  6
BYBLOCK
 62
     0
100
AcDbPoint
 10
341.7124350315989
 20
376.066420931442
 30
0.0
  0
POINT
  5
661
330
536
100
AcDbEntity
  8
DEFPOINTS
  6
BYBLOCK
 62
     0
100
AcDbPoint
 10
165.712335031599
 20
376.066420931442
 30
0.0
  0
POINT
  5
662
330
536
100
AcDbEntity
  8
DEFPOINTS
  6
BYBLOCK
 62
     0
100
AcDbPoint
 10
165.712335031599
 20
418.0497363010799
 30
0.0
  0
ENDBLK
  5
663
330
536
100
AcDbEntity
  8
0
100
AcDbBlockEnd
  0
BLOCK
  5
664
330
545
100
AcDbEntity
  8
0
100
AcDbBlockBegin
  2
*D9
 70
     1
 10
0.0
 20
0.0
 30
0.0
  3
*D9
  1

  0
LINE
  5
665
330
545
100
AcDbEntity
  8
0
  6
BYBLOCK
 62
     4
100
AcDbLine
 10
223.7123313397112
 20
382.0664868404538
 30
0.0
 11
223.7123313397112
 21
405.0029702922047
 31
0.0
  0
LINE
  5
666
330
545
100
AcDbEntity
  8
0
  6
BYBLOCK
 62
     4
100
AcDbLine
 10
283.7123313397181
 20
382.0664868405759
 30
0.0
 11
283.7123313397181
 21
405.0029702922047
 31
0.0
  0
LINE
  5
667
330
545
100
AcDbEntity
  8
0
  6
BYBLOCK
 62
     4
100
AcDbLine
 10
230.7123313397112
 20
402.0029702922047
 30
0.0
 11
276.7123313397181
 21
402.0029702922047
 31
0.0
  0
INSERT
  5
668
330
545
100
AcDbEntity
  8
0
  6
BYBLOCK
 62
     4
100
AcDbBlockReference
  2
_OPEN
 10
223.7123313397112
 20
402.0029702922047
 30
0.0
 41
7.0
 42
7.0
 43
7.0
 50
180.0
  0
INSERT
  5
669
330
545
100
AcDbEntity
  8
0
  6
BYBLOCK
 62
     4
100
AcDbBlockReference
  2
_OPEN
 10
283.7123313397181
 20
402.0029702922047
 30
0.0
 41
7.0
 42
7.0
 43
7.0
  0
MTEXT
  5
66A
330
545
100
AcDbEntity
  8
0
  6
BYBLOCK
 62
     4
100
AcDbMText
 10
253.7123313397146
 20
407.0029702922047
 30
0.0
 40
6.0
 41
0.0
 71
     5
 72
     5
  1
\A1;※a60
1001
ACAD
1000
MTEXTBEGIN
1070
    73
1070
     1
1070
    44
1040
1.0
1070
    74
1070
     0
1000
MTEXTEND
1000
MTEXTBEGIN
1070
    73
1070
     1
1070
    44
1040
1.0
1070
    74
1070
     0
1000
MTEXTEND
  0
POINT
  5
66B
330
545
100
AcDbEntity
  8
DEFPOINTS
  6
BYBLOCK
 62
     0
100
AcDbPoint
 10
223.7123313397112
 20
376.0664868404538
 30
0.0
  0
POINT
  5
66C
330
545
100
AcDbEntity
  8
DEFPOINTS
  6
BYBLOCK
 62
     0
100
AcDbPoint
 10
283.7123313397181
 20
376.0664868405759
 30
0.0
  0
POINT
  5
66D
330
545
100
AcDbEntity
  8
DEFPOINTS
  6
BYBLOCK
 62
     0
100
AcDbPoint
 10
283.7123313397181
 20
402.0029702922047
 30
0.0
  0
ENDBLK
  5
66E
330
545
100
AcDbEntity
  8
0
100
AcDbBlockEnd
  0
BLOCK
  5
648
330
586
100
AcDbEntity
  8
0
100
AcDbBlockBegin
  2
*D10
 70
     1
 10
0.0
 20
0.0
 30
0.0
  3
*D10
  1

  0
LINE
  5
649
330
586
100
AcDbEntity
  8
0
  6
BYBLOCK
 62
     4
100
AcDbLine
 10
518.7121806213602
 20
211.127228621514
 30
0.0
 11
518.7121806213602
 21
178.7074256453927
 31
0.0
  0
LINE
  5
64A
330
586
100
AcDbEntity
  8
0
  6
BYBLOCK
 62
     4
100
AcDbLine
 10
588.7124350315989
 20
211.1267886199149
 30
0.0
 11
588.7124350315989
 21
178.7074256453927
 31
0.0
  0
LINE
  5
64B
330
586
100
AcDbEntity
  8
0
  6
BYBLOCK
 62
     4
100
AcDbLine
 10
525.7121806213603
 20
181.7074256453927
 30
0.0
 11
581.7124350315989
 21
181.7074256453927
 31
0.0
  0
INSERT
  5
64C
330
586
100
AcDbEntity
  8
0
  6
BYBLOCK
 62
     4
100
AcDbBlockReference
  2
_OPEN
 10
518.7121806213602
 20
181.7074256453927
 30
0.0
 41
7.0
 42
7.0
 43
7.0
 50
180.0
  0
INSERT
  5
64D
330
586
100
AcDbEntity
  8
0
  6
BYBLOCK
 62
     4
100
AcDbBlockReference
  2
_OPEN
 10
588.7124350315989
 20
181.7074256453927
 30
0.0
 41
7.0
 42
7.0
 43
7.0
  0
MTEXT
  5
64E
330
586
100
AcDbEntity
  8
0
  6
BYBLOCK
 62
     4
100
AcDbMText
 10
553.7123078264796
 20
186.7074256453927
 30
0.0
 40
6.0
 41
0.0
 71
     5
 72
     5
  1
\A1;φ70
1001
ACAD
1000
MTEXTBEGIN
1070
    73
1070
     1
1070
    44
1040
1.0
1070
    74
1070
     0
1000
MTEXTEND
1000
MTEXTBEGIN
1070
    73
1070
     1
1070
    44
1040
1.0
1070
    74
1070
     0
1000
MTEXTEND
  0
POINT
  5
64F
330
586
100
AcDbEntity
  8
DEFPOINTS
  6
BYBLOCK
 62
     0
100
AcDbPoint
 10
518.7121806213602
 20
217.127228621514
 30
0.0
  0
POINT
  5
650
330
586
100
AcDbEntity
  8
DEFPOINTS
  6
BYBLOCK
 62
     0
100
AcDbPoint
 10
588.7124350315989
 20
217.1267886199149
 30
0.0
  0
POINT
  5
651
330
586
100
AcDbEntity
  8
DEFPOINTS
  6
BYBLOCK
 62
     0
100
AcDbPoint
 10
588.7124350315989
 20
181.7074256453927
 30
0.0
  0
ENDBLK
  5
652
330
586
100
AcDbEntity
  8
0
100
AcDbBlockEnd
  0
BLOCK
  5
6B6
330
5F6
100
AcDbEntity
  8
0
100
AcDbBlockBegin
  2
*D11
 70
     1
 10
0.0
 20
0.0
 30
0.0
  3
*D11
  1

  0
LINE
  5
6B7
330
5F6
100
AcDbEntity
  8
0
  6
BYBLOCK
 62
     4
100
AcDbLine
 10
299.7122132940595
 20
219.066220931442
 30
0.0
 11
299.7122132940595
 21
149.6565424856997
 31
0.0
  0
LINE
  5
6B8
330
5F6
100
AcDbEntity
  8
0
  6
BYBLOCK
 62
     4
100
AcDbLine
 10
207.712311646485
 20
219.0662209314421
 30
0.0
 11
207.712311646485
 21
149.6565424856997
 31
0.0
  0
LINE
  5
6B9
330
5F6
100
AcDbEntity
  8
0
  6
BYBLOCK
 62
     4
100
AcDbLine
 10
292.7122132940595
 20
152.6565424856997
 30
0.0
 11
214.712311646485
 21
152.6565424856997
 31
0.0
  0
INSERT
  5
6BA
330
5F6
100
AcDbEntity
  8
0
  6
BYBLOCK
 62
     4
100
AcDbBlockReference
  2
_OPEN
 10
299.7122132940595
 20
152.6565424856997
 30
0.0
 41
7.0
 42
7.0
 43
7.0
  0
INSERT
  5
6BB
330
5F6
100
AcDbEntity
  8
0
  6
BYBLOCK
 62
     4
100
AcDbBlockReference
  2
_OPEN
 10
207.712311646485
 20
152.6565424856997
 30
0.0
 41
7.0
 42
7.0
 43
7.0
 50
180.0
  0
MTEXT
  5
6BC
330
5F6
100
AcDbEntity
  8
0
  6
BYBLOCK
 62
     4
100
AcDbMText
 10
253.7122624702722
 20
157.6565424856997
 30
0.0
 40
6.0
 41
0.0
 71
     5
 72
     5
  1
\A1;92
1001
ACAD
1000
MTEXTBEGIN
1070
    73
1070
     1
1070
    44
1040
1.0
1070
    74
1070
     0
1000
MTEXTEND
1000
MTEXTBEGIN
1070
    73
1070
     1
1070
    44
1040
1.0
1070
    74
1070
     0
1000
MTEXTEND
  0
POINT
  5
6BD
330
5F6
100
AcDbEntity
  8
DEFPOINTS
  6
BYBLOCK
 62
     0
100
AcDbPoint
 10
299.7122132940595
 20
225.066220931442
 30
0.0
  0
POINT
  5
6BE
330
5F6
100
AcDbEntity
  8
DEFPOINTS
  6
BYBLOCK
 62
     0
100
AcDbPoint
 10
207.712311646485
 20
225.066220931442
 30
0.0
  0
POINT
  5
6BF
330
5F6
100
AcDbEntity
  8
DEFPOINTS
  6
BYBLOCK
 62
     0
100
AcDbPoint
 10
207.712311646485
 20
152.6565424856997
 30
0.0
  0
ENDBLK
  5
6C0
330
5F6
100
AcDbEntity
  8
0
100
AcDbBlockEnd
  0
BLOCK
  5
630
330
62F
100
AcDbEntity
  8
0
100
AcDbBlockBegin
  2
*D12
 70
     1
 10
0.0
 20
0.0
 30
0.0
  3
*D12
  1

  0
LINE
  5
631
330
62F
100
AcDbEntity
  8
0
  6
BYBLOCK
 62
     4
100
AcDbLine
 10
545.7123350315989
 20
318.8266986199149
 30
0.0
 11
545.7123350315989
 21
300.4207096777408
 31
0.0
  0
LINE
  5
632
330
62F
100
AcDbEntity
  8
0
  6
BYBLOCK
 62
     4
100
AcDbLine
 10
553.7123256821907
 20
287.5266986199148
 30
0.0
 11
553.7123256821907
 21
306.4207096777408
 31
0.0
  0
LINE
  5
633
330
62F
100
AcDbEntity
  8
0
  6
BYBLOCK
 62
     4
100
AcDbLine
 10
538.7123350315989
 20
303.4207096777409
 30
0.0
 11
531.712335031599
 21
303.4207096777409
 31
0.0
  0
LINE
  5
634
330
62F
100
AcDbEntity
  8
0
  6
BYBLOCK
 62
     4
100
AcDbLine
 10
560.7123256821908
 20
303.4207096777409
 30
0.0
 11
575.7123256821907
 21
303.4207096777409
 31
0.0
  0
LINE
  5
635
330
62F
100
AcDbEntity
  8
0
  6
BYBLOCK
 62
     4
100
AcDbLine
 10
545.7123350315989
 20
303.4207096777409
 30
0.0
 11
553.7123256821907
 21
303.4207096777409
 31
0.0
  0
INSERT
  5
636
330
62F
100
AcDbEntity
  8
0
  6
BYBLOCK
 62
     4
100
AcDbBlockReference
  2
_OPEN
 10
545.7123350315989
 20
303.4207096777409
 30
0.0
 41
7.0
 42
7.0
 43
7.0
  0
INSERT
  5
637
330
62F
100
AcDbEntity
  8
0
  6
BYBLOCK
 62
     4
100
AcDbBlockReference
  2
_OPEN
 10
553.7123256821907
 20
303.4207096777409
 30
0.0
 41
7.0
 42
7.0
 43
7.0
 50
180.0
  0
MTEXT
  5
638
330
62F
100
AcDbEntity
  8
0
  6
BYBLOCK
 62
     4
100
AcDbMText
 10
571.7123256821907
 20
308.4207096777408
 30
0.0
 40
6.0
 41
0.0
 71
     5
 72
     5
  1
\A1;8
1001
ACAD
1000
MTEXTBEGIN
1070
    73
1070
     1
1070
    44
1040
1.0
1070
    74
1070
     0
1000
MTEXTEND
1000
MTEXTBEGIN
1070
    73
1070
     1
1070
    44
1040
1.0
1070
    74
1070
     0
1000
MTEXTEND
  0
POINT
  5
639
330
62F
100
AcDbEntity
  8
DEFPOINTS
  6
BYBLOCK
 62
     0
100
AcDbPoint
 10
545.7123350315989
 20
324.8266986199149
 30
0.0
  0
POINT
  5
63A
330
62F
100
AcDbEntity
  8
DEFPOINTS
  6
BYBLOCK
 62
     0
100
AcDbPoint
 10
553.7123256821907
 20
281.5266986199148
 30
0.0
  0
POINT
  5
63B
330
62F
100
AcDbEntity
  8
DEFPOINTS
  6
BYBLOCK
 62
     0
100
AcDbPoint
 10
553.7123256821907
 20
303.4207096777409
 30
0.0
  0
ENDBLK
  5
63C
330
62F
100
AcDbEntity
  8
0
100
AcDbBlockEnd
  0
ENDSEC
  0
SECTION
  2
ENTITIES
  0
ARC
  5
31A
330
1A
100
AcDbEntity
  8
SEIHIN
  6
CONTINUOUS
 62
     3
100
AcDbCircle
 10
334.0290783293348
 20
218.1849050608297
 30
0.0
 40
34.99999619943469
100
AcDbArc
 50
142.9214687548567
 51
164.9277053370655
  0
ARC
  5
31B
330
1A
100
AcDbEntity
  8
SEIHIN
  6
CONTINUOUS
 62
     3
100
AcDbCircle
 10
325.0290783293348
 20
218.1849050608295
 30
0.0
 40
34.99999619943473
100
AcDbArc
 50
142.9214687548564
 51
164.9277053370653
  0
ARC
  5
31C
330
1A
100
AcDbEntity
  8
SEIHIN
  6
CONTINUOUS
 62
     3
100
AcDbCircle
 10
173.3954094062873
 20
218.1851732971867
 30
0.0
 40
34.99997994153963
100
AcDbArc
 50
15.07167754326854
 51
37.07800096655149
  0
ARC
  5
31D
330
1A
100
AcDbEntity
  8
SEIHIN
  6
CONTINUOUS
 62
     3
100
AcDbCircle
 10
182.3954094062873
 20
218.185173297187
 30
0.0
 40
34.9999799415395
100
AcDbArc
 50
15.07167754326807
 51
37.07800096655103
  0
LINE
  5
31E
330
1A
100
AcDbEntity
  8
CENTER_L
  6
CENTER
 62
     1
 48
5.0
100
AcDbLine
 10
253.7123350315989
 20
383.7750209314421
 30
0.0
 11
253.712235031599
 21
174.978280931442
 31
0.0
  0
LINE
  5
323
330
1A
100
AcDbEntity
  8
SEIHIN
  6
CONTINUOUS
 62
     3
100
AcDbLine
 10
297.336335031599
 20
225.066220931442
 30
0.0
 11
253.7123350315989
 21
225.066220931442
 31
0.0
  0
LINE
  5
324
330
1A
100
AcDbEntity
  8
SEIHIN
  6
CONTINUOUS
 62
     3
100
AcDbLine
 10
253.7124350315989
 20
187.666530931442
 30
0.0
 11
288.7124350315989
 21
187.666300931442
 31
0.0
  0
LINE
  5
32C
330
1A
100
AcDbEntity
  8
SEIHIN
  6
CONTINUOUS
 62
     3
100
AcDbLine
 10
253.712135031599
 20
187.666530931442
 30
0.0
 11
218.712235031599
 21
187.6663409314421
 31
0.0
  0
LINE
  5
32D
330
1A
100
AcDbEntity
  8
SEIHIN
  6
CONTINUOUS
 62
     3
100
AcDbLine
 10
210.0882350315989
 20
225.066220931442
 30
0.0
 11
253.712235031599
 21
225.066220931442
 31
0.0
  0
ARC
  5
32E
330
1A
100
AcDbEntity
  8
SEIHIN
  6
CONTINUOUS
 62
     3
100
AcDbCircle
 10
316.7416379902458
 20
207.4205979684131
 30
0.0
 40
99.99994689709371
100
AcDbArc
 50
183.2902880010854
 51
191.3932220468444
  0
LINE
  5
32F
330
1A
100
AcDbEntity
  8
SEIHIN
  6
CONTINUOUS
 62
     3
100
AcDbLine
 10
216.9065350315988
 20
201.6809209314421
 30
0.0
 11
215.5620350315989
 21
225.066320931442
 31
0.0
  0
ARC
  5
330
330
1A
100
AcDbEntity
  8
SEIHIN
  6
CONTINUOUS
 62
     3
100
AcDbCircle
 10
219.0882343519515
 20
228.0662214522752
 30
0.0
 40
3.000000520833283
100
AcDbArc
 50
195.0720476582855
 51
270.0000129803053
  0
ARC
  5
331
330
1A
100
AcDbEntity
  8
SEIHIN
  6
CONTINUOUS
 62
     3
100
AcDbCircle
 10
210.0882343519517
 20
228.0662214522752
 30
0.0
 40
3.000000520833352
100
AcDbArc
 50
195.0720476582862
 51
270.0000129803053
  0
LINE
  5
332
330
1A
100
AcDbEntity
  8
SEIHIN
  6
CONTINUOUS
 62
     3
100
AcDbLine
 10
282.9125350315989
 20
181.6663609314421
 30
0.0
 11
253.7124350315989
 21
181.6665109314421
 31
0.0
  0
LINE
  5
338
330
1A
100
AcDbEntity
  8
SEIHIN
  6
CONTINUOUS
 62
     3
100
AcDbLine
 10
224.5121350315989
 20
181.6663609314421
 30
0.0
 11
253.712135031599
 21
181.6664809314421
 31
0.0
  0
LINE
  5
339
330
1A
100
AcDbEntity
  8
SEIHIN
  6
CONTINUOUS
 62
     3
100
AcDbLine
 10
224.5123350315989
 20
181.6663609314421
 30
0.0
 11
224.5124350315989
 21
187.6666009314421
 31
0.0
  0
LINE
  5
33D
330
1A
100
AcDbEntity
  8
SEIHIN
  6
CONTINUOUS
 62
     3
100
AcDbLine
 10
282.912335031599
 20
181.6663609314421
 30
0.0
 11
282.912335031599
 21
187.6666009314421
 31
0.0
  0
ARC
  5
344
330
1A
100
AcDbEntity
  8
SEIHIN
  6
CONTINUOUS
 62
     3
100
AcDbCircle
 10
190.6830805956301
 20
207.4210745584072
 30
0.0
 40
100.0000428647689
100
AcDbArc
 50
348.606364359481
 51
356.7092694721137
  0
LINE
  5
349
330
1A
100
AcDbEntity
  8
SEIHIN
  6
CONTINUOUS
 62
     3
100
AcDbLine
 10
290.518235031599
 20
201.6809209314421
 30
0.0
 11
291.8627350315989
 21
225.066320931442
 31
0.0
  0
ARC
  5
34A
330
1A
100
AcDbEntity
  8
SEIHIN
  6
CONTINUOUS
 62
     3
100
AcDbCircle
 10
297.3363357112464
 20
228.0662214522752
 30
0.0
 40
3.000000520833274
100
AcDbArc
 50
269.9999870196946
 51
344.9279523417144
  0
ARC
  5
34B
330
1A
100
AcDbEntity
  8
SEIHIN
  6
CONTINUOUS
 62
     3
100
AcDbCircle
 10
288.3363357112461
 20
228.0662214522752
 30
0.0
 40
3.000000520833274
100
AcDbArc
 50
269.9999870196946
 51
344.9279523417144
  0
LINE
  5
357
330
1A
100
AcDbEntity
  8
SEIHIN
  6
CONTINUOUS
 62
     3
100
AcDbLine
 10
340.759935031599
 20
371.066420931442
 30
0.0
 11
253.7123350315989
 21
371.066420931442
 31
0.0
  0
LINE
  5
358
330
1A
100
AcDbEntity
  8
SEIHIN
  6
CONTINUOUS
 62
     3
100
AcDbLine
 10
341.7124350315989
 20
376.066420931442
 30
0.0
 11
253.7123350315989
 21
376.066520931442
 31
0.0
  0
LINE
  5
359
330
1A
100
AcDbEntity
  8
SEIHIN
  6
CONTINUOUS
 62
     3
100
AcDbLine
 10
328.7126350315991
 20
351.066420931442
 30
0.0
 11
253.7123350315989
 21
351.066620931442
 31
0.0
  0
LINE
  5
35A
330
1A
100
AcDbEntity
  8
SEIHIN
  6
CONTINUOUS
 62
     3
100
AcDbLine
 10
337.7123350315989
 20
354.066420931442
 30
0.0
 11
253.7123350315989
 21
354.0666209314422
 31
0.0
  0
LINE
  5
35C
330
1A
100
AcDbEntity
  8
SEIHIN
  6
CONTINUOUS
 62
     3
100
AcDbLine
 10
306.7122350315989
 20
240.066220931442
 30
0.0
 11
253.7123350315989
 21
240.066220931442
 31
0.0
  0
LINE
  5
35D
330
1A
100
AcDbEntity
  8
SEIHIN
  6
CONTINUOUS
 62
     3
100
AcDbLine
 10
306.7122350315989
 20
245.066220931442
 30
0.0
 11
253.7123350315989
 21
245.066220931442
 31
0.0
  0
LINE
  5
35E
330
1A
100
AcDbEntity
  8
SEIHIN
  6
CONTINUOUS
 62
     3
100
AcDbLine
 10
290.263635031599
 20
314.5714209314421
 30
0.0
 11
285.692035031599
 21
250.5664209314419
 31
0.0
  0
LINE
  5
35F
330
1A
100
AcDbEntity
  8
SEIHIN
  6
CONTINUOUS
 62
     3
100
AcDbLine
 10
287.869635031599
 20
252.981720931442
 30
0.0
 11
285.8645350315989
 21
252.981720931442
 31
0.0
  0
ARC
  5
360
330
1A
100
AcDbEntity
  8
SEIHIN
  6
CONTINUOUS
 62
     3
100
AcDbCircle
 10
302.1712292416959
 20
340.2651256063484
 30
0.0
 40
19.99998972374787
100
AcDbArc
 50
203.3854886667054
 51
258.7780692851903
  0
ARC
  5
361
330
1A
100
AcDbEntity
  8
SEIHIN
  6
CONTINUOUS
 62
     3
100
AcDbCircle
 10
302.1711426187816
 20
340.2652017095622
 30
0.0
 40
25.9999821059961
100
AcDbArc
 50
210.5877452200594
 51
247.0993018348356
  0
ARC
  5
362
330
1A
100
AcDbEntity
  8
SEIHIN
  6
CONTINUOUS
 62
     3
100
AcDbCircle
 10
302.171179504184
 20
340.2651703537078
 30
0.0
 40
27.99997726025324
100
AcDbArc
 50
212.4637896811001
 51
244.1950369542002
  0
LINE
  5
363
330
1A
100
AcDbEntity
  8
SEIHIN
  6
CONTINUOUS
 62
     3
100
AcDbLine
 10
279.673935031599
 20
327.231620931442
 30
0.0
 11
283.7123350315989
 21
332.566520931442
 31
0.0
  0
LINE
  5
364
330
1A
100
AcDbEntity
  8
SEIHIN
  6
CONTINUOUS
 62
     3
100
AcDbLine
 10
193.7285350315989
 20
293.092120931442
 30
0.0
 11
189.5950350315988
 21
332.9236209314421
 31
0.0
  0
LINE
  5
365
330
1A
100
AcDbEntity
  8
SEIHIN
  6
CONTINUOUS
 62
     3
100
AcDbLine
 10
227.7507350315989
 20
327.231620931442
 30
0.0
 11
223.7123350315989
 21
332.5666209314421
 31
0.0
  0
ARC
  5
366
330
1A
100
AcDbEntity
  8
SEIHIN
  6
CONTINUOUS
 62
     3
100
AcDbCircle
 10
205.2533245325387
 20
340.2651124542054
 30
0.0
 40
19.99999945437729
100
AcDbArc
 50
281.2222648212348
 51
336.6145644381862
  0
LINE
  5
367
330
1A
100
AcDbEntity
  8
SEIHIN
  6
CONTINUOUS
 62
     3
100
AcDbLine
 10
184.728535031599
 20
293.092120931442
 30
0.0
 11
178.7123350315989
 21
351.066420931442
 31
0.0
  0
ARC
  5
368
330
1A
100
AcDbEntity
  8
SEIHIN
  6
CONTINUOUS
 62
     3
100
AcDbCircle
 10
205.2534274444162
 20
340.2652017095622
 30
0.0
 40
25.99998210599597
100
AcDbArc
 50
292.9006981651646
 51
329.4122547799408
  0
ARC
  5
369
330
1A
100
AcDbEntity
  8
SEIHIN
  6
CONTINUOUS
 62
     3
100
AcDbCircle
 10
205.2533905590139
 20
340.2651703537076
 30
0.0
 40
27.9999772602531
100
AcDbArc
 50
295.8049630458001
 51
327.5362103189002
  0
LINE
  5
36A
330
1A
100
AcDbEntity
  8
SEIHIN
  6
CONTINUOUS
 62
     3
100
AcDbLine
 10
200.7123350315989
 20
245.066320931442
 30
0.0
 11
253.712235031599
 21
245.066220931442
 31
0.0
  0
LINE
  5
36B
330
1A
100
AcDbEntity
  8
SEIHIN
  6
CONTINUOUS
 62
     3
100
AcDbLine
 10
200.7123350315989
 20
240.0663209314421
 30
0.0
 11
253.712235031599
 21
240.066220931442
 31
0.0
  0
LINE
  5
36C
330
1A
100
AcDbEntity
  8
SEIHIN
  6
CONTINUOUS
 62
     3
100
AcDbLine
 10
217.1610350315991
 20
314.571520931442
 30
0.0
 11
221.7326350315989
 21
250.566520931442
 31
0.0
  0
ARC
  5
36D
330
1A
100
AcDbEntity
  8
SEIHIN
  6
CONTINUOUS
 62
     3
100
AcDbCircle
 10
492.1260835487506
 20
324.0581517623678
 30
0.0
 40
299.9999763887848
100
AcDbArc
 50
185.9246100008466
 51
191.7659985105223
  0
ARC
  5
36E
330
1A
100
AcDbEntity
  8
SEIHIN
  6
CONTINUOUS
 62
     3
100
AcDbCircle
 10
483.1260835487505
 20
324.0581517623683
 30
0.0
 40
299.9999763887848
100
AcDbArc
 50
185.9246100008467
 51
191.7659985105224
  0
LINE
  5
36F
330
1A
100
AcDbEntity
  8
SEIHIN
  6
CONTINUOUS
 62
     3
100
AcDbLine
 10
208.7442350315989
 20
320.1214209314421
 30
0.0
 11
212.617935031599
 21
265.8866209314421
 31
0.0
  0
LINE
  5
370
330
1A
100
AcDbEntity
  8
SEIHIN
  6
CONTINUOUS
 62
     3
100
AcDbLine
 10
219.5549350315989
 20
252.981720931442
 30
0.0
 11
215.0668350315991
 21
315.818220931442
 31
0.0
  0
ARC
  5
371
330
1A
100
AcDbEntity
  8
SEIHIN
  6
CONTINUOUS
 62
     3
100
AcDbCircle
 10
218.7991186970478
 20
269.0009469611485
 30
0.0
 40
29.99992243174507
100
AcDbArc
 50
191.7659756513572
 51
232.4535529067453
  0
ARC
  5
372
330
1A
100
AcDbEntity
  8
SEIHIN
  6
CONTINUOUS
 62
     3
100
AcDbCircle
 10
241.7107858457177
 20
273.2084264019992
 30
0.0
 40
30.0000223248276
100
AcDbArc
 50
194.1260925674815
 51
222.3938418066155
  0
ARC
  5
373
330
1A
100
AcDbEntity
  8
SEIHIN
  6
CONTINUOUS
 62
     3
100
AcDbCircle
 10
227.7991186970475
 20
269.0009469611485
 30
0.0
 40
29.99992243174507
100
AcDbArc
 50
191.7659756513572
 51
232.4535529067453
  0
LINE
  5
374
330
1A
100
AcDbEntity
  8
SEIHIN
  6
CONTINUOUS
 62
     3
100
AcDbLine
 10
200.7123350315989
 20
244.8187209314419
 30
0.0
 11
200.7123350315989
 21
241.095520931442
 31
0.0
  0
ARC
  5
375
330
1A
100
AcDbEntity
  8
SEIHIN
  6
CONTINUOUS
 62
     3
100
AcDbCircle
 10
203.7123548569971
 20
241.095361808877
 30
0.0
 40
3.000019829618083
100
AcDbArc
 50
179.9969610029519
 51
217.0761769412483
  0
ARC
  5
376
330
1A
100
AcDbEntity
  8
SEIHIN
  6
CONTINUOUS
 62
     3
100
AcDbCircle
 10
200.2123475069101
 20
244.8186956070937
 30
0.0
 40
0.4999875253301155
100
AcDbArc
 50
0.0029020289530987
 51
52.4545726466064
  0
LINE
  5
377
330
1A
100
AcDbEntity
  8
SEIHIN
  6
CONTINUOUS
 62
     3
100
AcDbLine
 10
219.5549350315989
 20
252.981720931442
 30
0.0
 11
221.560035031599
 21
252.981720931442
 31
0.0
  0
LINE
  5
378
330
1A
100
AcDbEntity
  8
SEIHIN
  6
CONTINUOUS
 62
     3
100
AcDbLine
 10
209.7123350315989
 20
244.8187209314419
 30
0.0
 11
209.7123350315989
 21
241.095520931442
 31
0.0
  0
ARC
  5
379
330
1A
100
AcDbEntity
  8
SEIHIN
  6
CONTINUOUS
 62
     3
100
AcDbCircle
 10
212.712354856997
 20
241.0953618088768
 30
0.0
 40
3.000019829618026
100
AcDbArc
 50
179.9969610029487
 51
217.0761769412451
  0
ARC
  5
37A
330
1A
100
AcDbEntity
  8
SEIHIN
  6
CONTINUOUS
 62
     3
100
AcDbCircle
 10
209.2123475069101
 20
244.8186956070935
 30
0.0
 40
0.4999875253302292
100
AcDbArc
 50
0.0029020289791538
 51
52.45457264662745
  0
ARC
  5
37B
330
1A
100
AcDbEntity
  8
SEIHIN
  6
CONTINUOUS
 62
     3
100
AcDbCircle
 10
209.2429755937093
 20
320.1570740836354
 30
0.0
 40
0.5000132953786586
100
AcDbArc
 50
101.2257939820762
 51
184.0889115517088
  0
ARC
  5
37C
330
1A
100
AcDbEntity
  8
SEIHIN
  6
CONTINUOUS
 62
     3
100
AcDbCircle
 10
215.5655692659497
 20
315.8538136076019
 30
0.0
 40
0.5000026751024264
100
AcDbArc
 50
112.8964197492007
 51
184.0820508885547
  0
ARC
  5
37D
330
1A
100
AcDbEntity
  8
SEIHIN
  6
CONTINUOUS
 62
     3
100
AcDbCircle
 10
217.6597219648688
 20
314.6070983517795
 30
0.0
 40
0.4999544081733045
100
AcDbArc
 50
115.7988832304394
 51
184.0806928553962
  0
LINE
  5
37E
330
1A
100
AcDbEntity
  8
SEIHIN
  6
CONTINUOUS
 62
     3
100
AcDbLine
 10
215.0411350315989
 20
316.1778209314421
 30
0.0
 11
208.7124350315989
 21
320.5665209314421
 31
0.0
  0
LINE
  5
37F
330
1A
100
AcDbEntity
  8
SEIHIN
  6
CONTINUOUS
 62
     3
100
AcDbLine
 10
253.712135031599
 20
250.566520931442
 30
0.0
 11
285.692035031599
 21
250.5664209314419
 31
0.0
  0
LINE
  5
380
330
1A
100
AcDbEntity
  8
SEIHIN
  6
CONTINUOUS
 62
     3
100
AcDbLine
 10
253.7124350315989
 20
250.566520931442
 30
0.0
 11
221.7326350315989
 21
250.566520931442
 31
0.0
  0
ARC
  5
381
330
1A
100
AcDbEntity
  8
SEIHIN
  6
CONTINUOUS
 62
     3
100
AcDbCircle
 10
253.7122083361853
 20
184.0665133110665
 30
0.0
 40
145.5000076205521
100
AcDbArc
 50
79.81232486388943
 51
89.9999107306546
  0
ARC
  5
382
330
1A
100
AcDbEntity
  8
SEIHIN
  6
CONTINUOUS
 62
     3
100
AcDbCircle
 10
253.7122436421016
 20
184.0665101910157
 30
0.0
 40
143.5000107405538
100
AcDbArc
 50
80.1704093757792
 51
89.99992358320819
  0
ARC
  5
383
330
1A
100
AcDbEntity
  8
SEIHIN
  6
CONTINUOUS
 62
     3
100
AcDbCircle
 10
253.7124609386919
 20
184.0665221546903
 30
0.0
 40
145.4999987769271
100
AcDbArc
 50
90.00008895892166
 51
100.1876754465343
  0
ARC
  5
384
330
1A
100
AcDbEntity
  8
SEIHIN
  6
CONTINUOUS
 62
     3
100
AcDbCircle
 10
253.7123886738665
 20
184.0665155448315
 30
0.0
 40
143.5000053866927
100
AcDbArc
 50
90.00006134531819
 51
99.83099398005784
  0
ARC
  5
385
330
1A
100
AcDbEntity
  8
SEIHIN
  6
CONTINUOUS
 62
     3
100
AcDbCircle
 10
228.0659808670645
 20
326.780483275871
 30
0.0
 40
0.5000221373520732
100
AcDbArc
 50
100.1883046007796
 51
149.412555709644
  0
ARC
  5
386
330
1A
100
AcDbEntity
  8
SEIHIN
  6
CONTINUOUS
 62
     3
100
AcDbCircle
 10
229.2998127958817
 20
324.9673727473978
 30
0.0
 40
0.4999915958053098
100
AcDbArc
 50
99.83191687797232
 51
147.5403592096671
  0
ARC
  5
387
330
1A
100
AcDbEntity
  8
SEIHIN
  6
CONTINUOUS
 62
     3
100
AcDbCircle
 10
279.3586043295815
 20
326.7805422733868
 30
0.0
 40
0.4999790904758956
100
AcDbArc
 50
30.58250661730204
 51
79.80092746065711
  0
ARC
  5
388
330
1A
100
AcDbEntity
  8
SEIHIN
  6
CONTINUOUS
 62
     3
100
AcDbCircle
 10
278.1248572673161
 20
324.9673727473978
 30
0.0
 40
0.49999159580531
100
AcDbArc
 50
32.45964079033286
 51
80.16808312202767
  0
LINE
  5
389
330
1A
100
AcDbEntity
  8
SEIHIN
  6
CONTINUOUS
 62
     3
100
AcDbLine
 10
169.712435031599
 20
354.066520931442
 30
0.0
 11
253.7124350315989
 21
354.0666209314422
 31
0.0
  0
LINE
  5
38A
330
1A
100
AcDbEntity
  8
SEIHIN
  6
CONTINUOUS
 62
     3
100
AcDbLine
 10
178.712035031599
 20
351.066520931442
 30
0.0
 11
253.7124350315989
 21
351.066620931442
 31
0.0
  0
LINE
  5
38B
330
1A
100
AcDbEntity
  8
SEIHIN
  6
CONTINUOUS
 62
     3
100
AcDbLine
 10
165.712335031599
 20
376.066420931442
 30
0.0
 11
253.7124350315989
 21
376.066520931442
 31
0.0
  0
LINE
  5
38C
330
1A
100
AcDbEntity
  8
SEIHIN
  6
CONTINUOUS
 62
     3
100
AcDbLine
 10
166.6648350315989
 20
371.066420931442
 30
0.0
 11
253.7123350315989
 21
371.066420931442
 31
0.0
  0
ARC
  5
38D
330
1A
100
AcDbEntity
  8
SEIHIN
  6
CONTINUOUS
 62
     3
100
AcDbCircle
 10
164.7286687538187
 20
330.3430647125658
 30
0.0
 40
25.00000831085384
100
AcDbArc
 50
5.924750373607395
 51
55.98938650425907
  0
LINE
  5
38E
330
1A
100
AcDbEntity
  8
SEIHIN
  6
CONTINUOUS
 62
     3
100
AcDbLine
 10
167.7643350315989
 20
370.6249209314421
 30
0.0
 11
169.6752350315989
 21
354.381920931442
 31
0.0
  0
LINE
  5
38F
330
1A
100
AcDbEntity
  8
SEIHIN
  6
CONTINUOUS
 62
     3
100
AcDbLine
 10
170.0137350315989
 20
353.9660209314422
 30
0.0
 11
178.7123350315989
 21
351.066420931442
 31
0.0
  0
ARC
  5
390
330
1A
100
AcDbEntity
  8
SEIHIN
  6
CONTINUOUS
 62
     3
100
AcDbCircle
 10
170.1717961783153
 20
354.4404686788898
 30
0.0
 40
0.4999891114914243
100
AcDbArc
 50
186.7131132606945
 51
251.5710053157059
  0
LINE
  5
391
330
1A
100
AcDbEntity
  8
SEIHIN
  6
CONTINUOUS
 62
     3
100
AcDbLine
 10
176.806635031599
 20
340.3666209314421
 30
0.0
 11
179.822635031599
 21
340.3666209314421
 31
0.0
  0
LINE
  5
392
330
1A
100
AcDbEntity
  8
SEIHIN
  6
CONTINUOUS
 62
     3
100
AcDbLine
 10
177.1490350315988
 20
337.066720931442
 30
0.0
 11
180.1651350315989
 21
337.066720931442
 31
0.0
  0
LINE
  5
393
330
1A
100
AcDbEntity
  8
SEIHIN
  6
CONTINUOUS
 62
     3
100
AcDbLine
 10
177.1490350315988
 20
337.066720931442
 30
0.0
 11
175.5881350315989
 21
352.1079209314421
 31
0.0
  0
LINE
  5
394
330
1A
100
AcDbEntity
  8
SEIHIN
  6
CONTINUOUS
 62
     3
100
AcDbLine
 10
165.712335031599
 20
376.066420931442
 30
0.0
 11
166.1672350315989
 21
371.5167209314422
 31
0.0
  0
ARC
  5
395
330
1A
100
AcDbEntity
  8
SEIHIN
  6
CONTINUOUS
 62
     3
100
AcDbCircle
 10
167.2677540442746
 20
370.5664040270135
 30
0.0
 40
0.5000169047900466
100
AcDbArc
 50
6.720717701335432
 51
90.00217861850435
  0
ARC
  5
396
330
1A
100
AcDbEntity
  8
SEIHIN
  6
CONTINUOUS
 62
     3
100
AcDbCircle
 10
166.6648481026039
 20
371.5664091011622
 30
0.0
 40
0.4999881698909031
100
AcDbArc
 50
185.7033938622654
 51
269.9985021377174
  0
ARC
  5
39A
330
1A
100
AcDbEntity
  8
SEIHIN
  6
CONTINUOUS
 62
     3
100
AcDbCircle
 10
253.7119956705576
 20
184.0665346571071
 30
0.0
 40
151.4999862749719
100
AcDbArc
 50
78.67855569108579
 51
89.99983383804863
  0
ARC
  5
39B
330
1A
100
AcDbEntity
  8
SEIHIN
  6
CONTINUOUS
 62
     3
100
AcDbCircle
 10
253.7125743913516
 20
184.0665346568996
 30
0.0
 40
151.4999862749224
100
AcDbArc
 50
90.00012834246419
 51
101.3214443084209
  0
ARC
  5
39C
330
1A
100
AcDbEntity
  8
SEIHIN
  6
CONTINUOUS
 62
     3
100
AcDbCircle
 10
224.0694734667865
 20
332.1284520192687
 30
0.0
 40
0.5000143961844462
100
AcDbArc
 50
101.3306806178821
 51
156.6138272811556
  0
ARC
  5
39D
330
1A
100
AcDbEntity
  8
SEIHIN
  6
CONTINUOUS
 62
     3
100
AcDbCircle
 10
283.3552454962211
 20
332.1284124653324
 30
0.0
 40
0.4999455221353572
100
AcDbArc
 50
23.38203885679866
 51
78.67345324416085
  0
LINE
  5
39F
330
1A
100
AcDbEntity
  8
SEIHIN
  6
CONTINUOUS
 62
     3
100
AcDbLine
 10
313.6961350315989
 20
293.092020931442
 30
0.0
 11
317.8295350315991
 21
332.923520931442
 31
0.0
  0
LINE
  5
3A0
330
1A
100
AcDbEntity
  8
SEIHIN
  6
CONTINUOUS
 62
     3
100
AcDbLine
 10
322.6961350315989
 20
293.092020931442
 30
0.0
 11
328.7123350315989
 21
351.066320931442
 31
0.0
  0
ARC
  5
3A1
330
1A
100
AcDbEntity
  8
SEIHIN
  6
CONTINUOUS
 62
     3
100
AcDbCircle
 10
24.29851272720776
 20
324.0576526991931
 30
0.0
 40
299.9999917009165
100
AcDbArc
 50
348.2339628988527
 51
354.0753133181228
  0
ARC
  5
3A2
330
1A
100
AcDbEntity
  8
SEIHIN
  6
CONTINUOUS
 62
     3
100
AcDbCircle
 10
15.29850784543458
 20
324.0576534588885
 30
0.0
 40
299.99999663503
100
AcDbArc
 50
348.233962946931
 51
354.0753132700448
  0
LINE
  5
3A3
330
1A
100
AcDbEntity
  8
SEIHIN
  6
CONTINUOUS
 62
     3
100
AcDbLine
 10
287.869635031599
 20
252.981720931442
 30
0.0
 11
292.357835031599
 21
315.818220931442
 31
0.0
  0
LINE
  5
3A4
330
1A
100
AcDbEntity
  8
SEIHIN
  6
CONTINUOUS
 62
     3
100
AcDbLine
 10
298.6805350315989
 20
320.1214209314421
 30
0.0
 11
294.8067350315989
 21
265.886520931442
 31
0.0
  0
ARC
  5
3A5
330
1A
100
AcDbEntity
  8
SEIHIN
  6
CONTINUOUS
 62
     3
100
AcDbCircle
 10
265.7139141123759
 20
273.2084820158078
 30
0.0
 40
30.00003131292916
100
AcDbArc
 50
317.6057714410626
 51
345.8736052849787
  0
ARC
  5
3A6
330
1A
100
AcDbEntity
  8
SEIHIN
  6
CONTINUOUS
 62
     3
100
AcDbCircle
 10
279.6254205718157
 20
269.0008978894175
 30
0.0
 40
30.00006086294766
100
AcDbArc
 50
307.5463180619645
 51
348.2339800642396
  0
ARC
  5
3A7
330
1A
100
AcDbEntity
  8
SEIHIN
  6
CONTINUOUS
 62
     3
100
AcDbCircle
 10
288.6254205718157
 20
269.0008978894174
 30
0.0
 40
30.00006086294757
100
AcDbArc
 50
307.5463180619647
 51
348.2339800642397
  0
LINE
  5
3A8
330
1A
100
AcDbEntity
  8
SEIHIN
  6
CONTINUOUS
 62
     3
100
AcDbLine
 10
297.712235031599
 20
244.8186209314421
 30
0.0
 11
297.712235031599
 21
241.0954209314419
 31
0.0
  0
ARC
  5
3A9
330
1A
100
AcDbEntity
  8
SEIHIN
  6
CONTINUOUS
 62
     3
100
AcDbCircle
 10
294.7122550942333
 20
241.0954807561814
 30
0.0
 40
2.999979937962131
100
AcDbArc
 50
322.9203998906566
 51
359.9988574239993
  0
ARC
  5
3AA
330
1A
100
AcDbEntity
  8
SEIHIN
  6
CONTINUOUS
 62
     3
100
AcDbCircle
 10
298.2122225562877
 20
244.8185956070937
 30
0.0
 40
0.4999875253300607
100
AcDbArc
 50
127.5454273533884
 51
179.9970979710338
  0
LINE
  5
3AB
330
1A
100
AcDbEntity
  8
SEIHIN
  6
CONTINUOUS
 62
     3
100
AcDbLine
 10
306.7122350315989
 20
244.8186209314421
 30
0.0
 11
306.7122350315989
 21
241.0954209314419
 31
0.0
  0
ARC
  5
3AC
330
1A
100
AcDbEntity
  8
SEIHIN
  6
CONTINUOUS
 62
     3
100
AcDbCircle
 10
303.7122550942333
 20
241.0954807561815
 30
0.0
 40
2.9999799379622
100
AcDbArc
 50
322.9203998906549
 51
359.9988574239971
  0
ARC
  5
3AD
330
1A
100
AcDbEntity
  8
SEIHIN
  6
CONTINUOUS
 62
     3
100
AcDbCircle
 10
307.2122225562877
 20
244.8185956070937
 30
0.0
 40
0.4999875253300607
100
AcDbArc
 50
127.5454273533884
 51
179.9970979710338
  0
ARC
  5
3AE
330
1A
100
AcDbEntity
  8
SEIHIN
  6
CONTINUOUS
 62
     3
100
AcDbCircle
 10
298.1817394324705
 20
320.1570151643504
 30
0.0
 40
0.4999642487283626
100
AcDbArc
 50
355.9174559834019
 51
78.77834367702384
  0
ARC
  5
3AF
330
1A
100
AcDbEntity
  8
SEIHIN
  6
CONTINUOUS
 62
     3
100
AcDbCircle
 10
291.8591289429582
 20
315.8538308625896
 30
0.0
 40
0.4999758294595354
100
AcDbArc
 50
355.915747155042
 51
67.10578220720986
  0
ARC
  5
3B0
330
1A
100
AcDbEntity
  8
SEIHIN
  6
CONTINUOUS
 62
     3
100
AcDbCircle
 10
289.7649318554186
 20
314.6071264223712
 30
0.0
 40
0.4999797396043804
100
AcDbArc
 50
355.9048004063079
 51
64.18772352591964
  0
LINE
  5
3B1
330
1A
100
AcDbEntity
  8
SEIHIN
  6
CONTINUOUS
 62
     3
100
AcDbLine
 10
292.3835350315989
 20
316.1777209314421
 30
0.0
 11
298.7122350315989
 21
320.5665209314421
 31
0.0
  0
ARC
  5
3B6
330
1A
100
AcDbEntity
  8
SEIHIN
  6
CONTINUOUS
 62
     3
100
AcDbCircle
 10
342.6960277695409
 20
330.3430088247949
 30
0.0
 40
24.99993061050628
100
AcDbArc
 50
124.0105303349239
 51
174.0753327872092
  0
LINE
  5
3B7
330
1A
100
AcDbEntity
  8
SEIHIN
  6
CONTINUOUS
 62
     3
100
AcDbLine
 10
339.6604350315988
 20
370.6248209314421
 30
0.0
 11
337.7494350315989
 21
354.381920931442
 31
0.0
  0
LINE
  5
3B8
330
1A
100
AcDbEntity
  8
SEIHIN
  6
CONTINUOUS
 62
     3
100
AcDbLine
 10
337.4110350315991
 20
353.9660209314422
 30
0.0
 11
328.7123350315989
 21
351.066320931442
 31
0.0
  0
LINE
  5
3B9
330
1A
100
AcDbEntity
  8
SEIHIN
  6
CONTINUOUS
 62
     3
100
AcDbLine
 10
330.6181350315989
 20
340.3666209314421
 30
0.0
 11
327.6020350315989
 21
340.3666209314421
 31
0.0
  0
LINE
  5
3BA
330
1A
100
AcDbEntity
  8
SEIHIN
  6
CONTINUOUS
 62
     3
100
AcDbLine
 10
330.275635031599
 20
337.0666209314421
 30
0.0
 11
327.2595350315989
 21
337.0666209314421
 31
0.0
  0
LINE
  5
3BB
330
1A
100
AcDbEntity
  8
SEIHIN
  6
CONTINUOUS
 62
     3
100
AcDbLine
 10
330.275635031599
 20
337.0666209314421
 30
0.0
 11
331.8365350315989
 21
352.1078209314421
 31
0.0
  0
ARC
  5
3BC
330
1A
100
AcDbEntity
  8
SEIHIN
  6
CONTINUOUS
 62
     3
100
AcDbCircle
 10
337.2528738848825
 20
354.4403686788898
 30
0.0
 40
0.4999891114913892
100
AcDbArc
 50
288.4289946842879
 51
353.2868867392917
  0
LINE
  5
3BD
330
1A
100
AcDbEntity
  8
SEIHIN
  6
CONTINUOUS
 62
     3
100
AcDbLine
 10
341.7124350315989
 20
376.066320931442
 30
0.0
 11
341.257435031599
 21
371.516620931442
 31
0.0
  0
ARC
  5
3BE
330
1A
100
AcDbEntity
  8
SEIHIN
  6
CONTINUOUS
 62
     3
100
AcDbCircle
 10
340.156978435692
 20
370.5664595294217
 30
0.0
 40
0.4999614039045211
100
AcDbArc
 50
90.00497412665401
 51
173.2964764277169
  0
ARC
  5
3BF
330
1A
100
AcDbEntity
  8
SEIHIN
  6
CONTINUOUS
 62
     3
100
AcDbCircle
 10
340.7599274560479
 20
371.5664140763481
 30
0.0
 40
0.4999931449633898
100
AcDbArc
 50
270.0008681061106
 51
354.2845736691241
  0
LINE
  5
3CD
330
1A
100
AcDbEntity
  8
CENTER_L
  6
CENTER
 62
     1
 48
5.0
100
AcDbLine
 10
553.7123256821907
 20
252.0662209314419
 30
0.0
 11
553.7122350315989
 21
174.978280931442
 31
0.0
  0
LINE
  5
3CE
330
1A
100
AcDbEntity
  8
SEIHIN
  6
CONTINUOUS
 62
     3
100
AcDbLine
 10
609.2584350315992
 20
335.3383209314421
 30
0.0
 11
600.9268350315988
 21
227.834420931442
 31
0.0
  0
ARC
  5
3CF
330
1A
100
AcDbEntity
  8
SEIHIN
  6
CONTINUOUS
 62
     3
100
AcDbCircle
 10
481.3952699250001
 20
218.1851539769982
 30
0.0
 40
35.00002308849739
100
AcDbArc
 50
15.07169127687672
 51
37.077987232942
  0
ARC
  5
3D0
330
1A
100
AcDbEntity
  8
SEIHIN
  6
CONTINUOUS
 62
     3
100
AcDbCircle
 10
472.395269925
 20
218.1851539769982
 30
0.0
 40
35.00002308849739
100
AcDbArc
 50
15.07169127687672
 51
37.077987232942
  0
LINE
  5
3D3
330
1A
100
AcDbEntity
  8
SEIHIN
  6
CONTINUOUS
 62
     3
100
AcDbLine
 10
597.935835031599
 20
225.066220931442
 30
0.0
 11
509.0881350315989
 21
225.066220931442
 31
0.0
  0
ARC
  5
3E4
330
1A
100
AcDbEntity
  8
SEIHIN
  6
CONTINUOUS
 62
     3
100
AcDbCircle
 10
616.7415459190131
 20
207.4213125635981
 30
0.0
 40
99.99999582938052
100
AcDbArc
 50
183.2906964983225
 51
191.3936282158963
  0
LINE
  5
3E8
330
1A
100
AcDbEntity
  8
SEIHIN
  6
CONTINUOUS
 62
     3
100
AcDbLine
 10
524.5122350315989
 20
181.6663709314421
 30
0.0
 11
524.5123350315989
 21
187.666610931442
 31
0.0
  0
ARC
  5
3E9
330
1A
100
AcDbEntity
  8
SEIHIN
  6
CONTINUOUS
 62
     3
100
AcDbCircle
 10
518.0881973540997
 20
228.0661731723483
 30
0.0
 40
2.999952241553691
100
AcDbArc
 50
195.0713410296684
 51
269.9988097089637
  0
LINE
  5
3EA
330
1A
100
AcDbEntity
  8
SEIHIN
  6
CONTINUOUS
 62
     3
100
AcDbLine
 10
516.906435031599
 20
201.6809209314421
 30
0.0
 11
515.561935031599
 21
225.066320931442
 31
0.0
  0
ARC
  5
3EB
330
1A
100
AcDbEntity
  8
SEIHIN
  6
CONTINUOUS
 62
     3
100
AcDbCircle
 10
509.0881973540997
 20
228.0661731723483
 30
0.0
 40
2.999952241553691
100
AcDbArc
 50
195.0713410296684
 51
269.9988097089637
  0
ARC
  5
3F3
330
1A
100
AcDbEntity
  8
SEIHIN
  6
CONTINUOUS
 62
     3
100
AcDbCircle
 10
490.6829920944235
 20
207.4203876916983
 30
0.0
 40
99.99999195940823
100
AcDbArc
 50
348.6067657834387
 51
356.7096619906831
  0
LINE
  5
3F4
330
1A
100
AcDbEntity
  8
SEIHIN
  6
CONTINUOUS
 62
     3
100
AcDbLine
 10
518.7121806213602
 20
187.6667509330412
 30
0.0
 11
588.7124350315989
 21
187.6663109314421
 31
0.0
  0
LINE
  5
3F8
330
1A
100
AcDbEntity
  8
SEIHIN
  6
CONTINUOUS
 62
     3
100
AcDbLine
 10
582.9124350315989
 20
181.6663709314421
 30
0.0
 11
524.5122350365987
 21
181.6666709324694
 31
0.0
  0
LINE
  5
3F9
330
1A
100
AcDbEntity
  8
SEIHIN
  6
CONTINUOUS
 62
     3
100
AcDbLine
 10
582.9122350315988
 20
181.6663709314421
 30
0.0
 11
582.9122350315988
 21
187.666610931442
 31
0.0
  0
LINE
  5
3FA
330
1A
100
AcDbEntity
  8
SEIHIN
  6
CONTINUOUS
 62
     3
100
AcDbLine
 10
590.5181350315991
 20
201.6809209314421
 30
0.0
 11
591.862635031599
 21
225.066320931442
 31
0.0
  0
ARC
  5
3FB
330
1A
100
AcDbEntity
  8
SEIHIN
  6
CONTINUOUS
 62
     3
100
AcDbCircle
 10
597.935818125323
 20
228.0662052846937
 30
0.0
 40
2.999984353299313
100
AcDbArc
 50
270.0003228877706
 51
355.5688057755694
  0
LINE
  5
3FE
330
1A
100
AcDbEntity
  8
NOKITOI
  6
PHANTOM
 62
     8
 48
5.0
100
AcDbLine
 10
582.5931539297621
 20
302.366120166054
 30
0.0
 11
537.763753929762
 21
302.366220166054
 31
0.0
  0
LINE
  5
3FF
330
1A
100
AcDbEntity
  8
NOKITOI
  6
PHANTOM
 62
     8
 48
5.0
100
AcDbLine
 10
537.763753929762
 20
303.566220166054
 30
0.0
 11
582.3433539297621
 21
303.566120166054
 31
0.0
  0
LINE
  5
403
330
1A
100
AcDbEntity
  8
SEIHIN
  6
CONTINUOUS
 62
     3
100
AcDbLine
 10
537.4206350315989
 20
302.3662209314421
 30
0.0
 11
582.8553350315988
 21
302.3662209314421
 31
0.0
  0
LINE
  5
404
330
1A
100
AcDbEntity
  8
SEIHIN
  6
CONTINUOUS
 62
     3
100
AcDbLine
 10
602.2623350315988
 20
245.066220931442
 30
0.0
 11
499.7122350315987
 21
245.066220931442
 31
0.0
  0
LINE
  5
405
330
1A
100
AcDbEntity
  8
SEIHIN
  6
CONTINUOUS
 62
     3
100
AcDbLine
 10
601.874835031599
 20
240.066220931442
 30
0.0
 11
499.7122350315987
 21
240.066220931442
 31
0.0
  0
ARC
  5
407
330
1A
100
AcDbEntity
  8
NOKITOI
  6
PHANTOM
 62
     8
 48
5.0
100
AcDbCircle
 10
537.7637377033047
 20
345.3662346424241
 30
0.0
 40
43.00001447645168
100
AcDbArc
 50
186.524910707118
 51
269.999888375144
  0
ARC
  5
408
330
1A
100
AcDbEntity
  8
NOKITOI
  6
PHANTOM
 62
     8
 48
5.0
100
AcDbCircle
 10
537.76376001173
 20
345.3662145413977
 30
0.0
 40
41.79999437547816
100
AcDbArc
 50
184.474295212525
 51
269.9998545921086
  0
LINE
  5
409
330
1A
100
AcDbEntity
  8
SEIHIN
  6
CONTINUOUS
 62
     3
100
AcDbLine
 10
486.1694350315988
 20
292.6442209314421
 30
0.0
 11
480.486535031599
 21
333.3456209314421
 31
0.0
  0
LINE
  5
40A
330
1A
100
AcDbEntity
  8
SEIHIN
  6
CONTINUOUS
 62
     3
100
AcDbLine
 10
477.1694350315988
 20
292.6443209314421
 30
0.0
 11
469.055235031599
 21
350.7591209314421
 31
0.0
  0
ARC
  5
40B
330
1A
100
AcDbEntity
  8
SEIHIN
  6
CONTINUOUS
 62
     3
100
AcDbCircle
 10
537.4206630740766
 20
345.3661964844443
 30
0.0
 40
42.99997555319285
100
AcDbArc
 50
187.8372679526927
 51
269.9998293884247
  0
ARC
  5
40C
330
1A
100
AcDbEntity
  8
SEIHIN
  6
CONTINUOUS
 62
     3
100
AcDbCircle
 10
511.3656569847733
 20
272.7103946130758
 30
0.0
 40
29.99998685575869
100
AcDbArc
 50
193.1483160622001
 51
246.5171695725425
  0
ARC
  5
40D
330
1A
100
AcDbEntity
  8
SEIHIN
  6
CONTINUOUS
 62
     3
100
AcDbCircle
 10
774.2872837045129
 20
334.1284596150873
 30
0.0
 40
299.9999738258837
100
AcDbArc
 50
187.9482990557974
 51
193.1536660719892
  0
LINE
  5
40E
330
1A
100
AcDbEntity
  8
CENTER_L
  6
CENTER
 62
     1
 48
5.0
100
AcDbLine
 10
545.7123350315989
 20
295.3662209314421
 30
0.0
 11
545.7123350315989
 21
330.710820931442
 31
0.0
  0
ARC
  5
40F
330
1A
100
AcDbEntity
  8
SEIHIN
  6
CONTINUOUS
 62
     3
100
AcDbCircle
 10
783.2871752996066
 20
334.1290417049829
 30
0.0
 40
299.9999469540642
100
AcDbArc
 50
187.9484120217187
 51
193.148446707533
  0
ARC
  5
410
330
1A
100
AcDbEntity
  8
SEIHIN
  6
CONTINUOUS
 62
     3
100
AcDbCircle
 10
520.3656569847733
 20
272.7103946130758
 30
0.0
 40
29.99998685575869
100
AcDbArc
 50
193.1483160622001
 51
246.5171695725425
  0
LINE
  5
411
330
1A
100
AcDbEntity
  8
SEIHIN
  6
CONTINUOUS
 62
     3
100
AcDbLine
 10
499.7122350315987
 20
244.7363209314421
 30
0.0
 11
499.7122350315987
 21
241.0954209314419
 31
0.0
  0
ARC
  5
412
330
1A
100
AcDbEntity
  8
SEIHIN
  6
CONTINUOUS
 62
     3
100
AcDbCircle
 10
502.7122149689646
 20
241.0954807561817
 30
0.0
 40
2.999979937962269
100
AcDbArc
 50
180.0011425760061
 51
217.0796001093483
  0
ARC
  5
413
330
1A
100
AcDbEntity
  8
SEIHIN
  6
CONTINUOUS
 62
     3
100
AcDbCircle
 10
499.2122178071922
 20
244.7363471975148
 30
0.0
 40
0.5000172250965163
100
AcDbArc
 50
359.9969902334628
 51
66.50801893234706
  0
LINE
  5
414
330
1A
100
AcDbEntity
  8
SEIHIN
  6
CONTINUOUS
 62
     3
100
AcDbLine
 10
508.7122350315987
 20
244.7363209314421
 30
0.0
 11
508.7122350315987
 21
241.0954209314419
 31
0.0
  0
ARC
  5
415
330
1A
100
AcDbEntity
  8
SEIHIN
  6
CONTINUOUS
 62
     3
100
AcDbCircle
 10
511.7122149689646
 20
241.0954807561817
 30
0.0
 40
2.999979937962269
100
AcDbArc
 50
180.0011425760061
 51
217.0796001093483
  0
ARC
  5
416
330
1A
100
AcDbEntity
  8
SEIHIN
  6
CONTINUOUS
 62
     3
100
AcDbCircle
 10
508.2122178071922
 20
244.7363471975148
 30
0.0
 40
0.5000172250965163
100
AcDbArc
 50
359.9969902334563
 51
66.50801893233252
  0
LINE
  5
41C
330
1A
100
AcDbEntity
  8
SEIHIN
  6
CONTINUOUS
 62
     3
100
AcDbLine
 10
501.4929350315989
 20
371.066320931442
 30
0.0
 11
456.964835031599
 21
371.066320931442
 31
0.0
  0
LINE
  5
41D
330
1A
100
AcDbEntity
  8
SEIHIN
  6
CONTINUOUS
 62
     3
100
AcDbLine
 10
495.911435031599
 20
376.066320931442
 30
0.0
 11
456.0124350315988
 21
376.066320931442
 31
0.0
  0
LINE
  5
41E
330
1A
100
AcDbEntity
  8
SEIHIN
  6
CONTINUOUS
 62
     3
100
AcDbLine
 10
485.8252350315988
 20
354.066320931442
 30
0.0
 11
460.0123350315989
 21
354.066320931442
 31
0.0
  0
LINE
  5
41F
330
1A
100
AcDbEntity
  8
SEIHIN
  6
CONTINUOUS
 62
     3
100
AcDbLine
 10
485.9100350315991
 20
351.066320931442
 30
0.0
 11
469.0123350315989
 21
351.066320931442
 31
0.0
  0
LINE
  5
42C
330
1A
100
AcDbEntity
  8
SEIHIN
  6
CONTINUOUS
 62
     3
100
AcDbLine
 10
458.0642350315988
 20
370.6247209314422
 30
0.0
 11
459.9752350315989
 21
354.381720931442
 31
0.0
  0
LINE
  5
42D
330
1A
100
AcDbEntity
  8
SEIHIN
  6
CONTINUOUS
 62
     3
100
AcDbLine
 10
460.3137350315989
 20
353.965820931442
 30
0.0
 11
468.7181350315991
 21
351.164320931442
 31
0.0
  0
ARC
  5
42E
330
1A
100
AcDbEntity
  8
SEIHIN
  6
CONTINUOUS
 62
     3
100
AcDbCircle
 10
460.4718451320173
 20
354.4402085221888
 30
0.0
 40
0.50004238831202
100
AcDbArc
 50
186.7169915741136
 51
251.5671270022853
  0
ARC
  5
42F
330
1A
100
AcDbEntity
  8
SEIHIN
  6
CONTINUOUS
 62
     3
100
AcDbCircle
 10
460.4717961783153
 20
354.4401686788896
 30
0.0
 40
0.4999891114913745
100
AcDbArc
 50
186.7131132607017
 51
251.5710053157038
  0
ARC
  5
430
330
1A
100
AcDbEntity
  8
SEIHIN
  6
CONTINUOUS
 62
     3
100
AcDbCircle
 10
468.56006035845
 20
350.6899904839631
 30
0.0
 40
0.4999769751667233
100
AcDbArc
 50
7.947592560386119
 51
71.56890799076269
  0
ARC
  5
431
330
1A
100
AcDbEntity
  8
SEIHIN
  6
CONTINUOUS
 62
     3
100
AcDbCircle
 10
455.7266886947672
 20
329.8886924933399
 30
0.0
 40
25.00000689699253
100
AcDbArc
 50
7.948161660307331
 51
57.89816520150701
  0
LINE
  5
432
330
1A
100
AcDbEntity
  8
SEIHIN
  6
CONTINUOUS
 62
     3
100
AcDbLine
 10
456.0124350315988
 20
376.066320931442
 30
0.0
 11
456.4673350315991
 21
371.516520931442
 31
0.0
  0
ARC
  5
433
330
1A
100
AcDbEntity
  8
SEIHIN
  6
CONTINUOUS
 62
     3
100
AcDbCircle
 10
456.9648426071501
 20
371.5663140763481
 30
0.0
 40
0.4999931449632931
100
AcDbArc
 50
185.7154263308635
 51
269.9991318938893
  0
ARC
  5
434
330
1A
100
AcDbEntity
  8
SEIHIN
  6
CONTINUOUS
 62
     3
100
AcDbCircle
 10
457.5677474681917
 20
370.566309871687
 30
0.0
 40
0.5000110599099522
100
AcDbArc
 50
6.708584219099004
 51
90.00142509702023
  0
LINE
  5
43F
330
1A
100
AcDbEntity
  8
NOKITOI
  6
PHANTOM
 62
     8
 48
5.0
100
AcDbLine
 10
490.4864539297623
 20
356.1662201660542
 30
0.0
 11
489.9864539297623
 21
353.6662201660542
 31
0.0
  0
ARC
  5
440
330
1A
100
AcDbEntity
  8
NOKITOI
  6
PHANTOM
 62
     8
 48
5.0
100
AcDbCircle
 10
492.0600466752066
 20
355.3662290158975
 30
0.0
 40
0.5000088498959383
100
AcDbArc
 50
168.6864043304884
 51
270.0008312961434
  0
LINE
  5
441
330
1A
100
AcDbEntity
  8
NOKITOI
  6
PHANTOM
 62
     8
 48
5.0
100
AcDbLine
 10
487.2140539297625
 20
355.3412201660539
 30
0.0
 11
487.3634539297618
 21
350.5623201660541
 31
0.0
  0
LINE
  5
442
330
1A
100
AcDbEntity
  8
NOKITOI
  6
PHANTOM
 62
     8
 48
5.0
100
AcDbLine
 10
486.0146539297621
 20
355.303720166054
 30
0.0
 11
486.4048539297619
 21
342.8194201660539
 31
0.0
  0
LINE
  5
443
330
1A
100
AcDbEntity
  8
SEIHIN
  6
CONTINUOUS
 62
     3
100
AcDbLine
 10
486.1573350315989
 20
342.309820931442
 30
0.0
 11
485.7704350315989
 21
356.0098209314421
 31
0.0
  0
ARC
  5
444
330
1A
100
AcDbEntity
  8
SEIHIN
  6
CONTINUOUS
 62
     3
100
AcDbCircle
 10
494.0123622251729
 20
365.9878449136599
 30
0.0
 40
9.999972806454787
100
AcDbArc
 50
262.8184900593826
 51
359.99986259164
  0
LINE
  5
445
330
1A
100
AcDbEntity
  8
NOKITOI
  6
PHANTOM
 62
     8
 48
5.0
100
AcDbLine
 10
489.9864539297623
 20
353.6662201660542
 30
0.0
 11
492.9229539297621
 21
353.6662201660542
 31
0.0
  0
ARC
  5
446
330
1A
100
AcDbEntity
  8
NOKITOI
  6
PHANTOM
 62
     8
 48
5.0
100
AcDbCircle
 10
494.2915477286041
 20
354.3662267011393
 30
0.0
 40
0.4999934649531607
100
AcDbArc
 50
356.9955363203384
 51
89.99928939038005
  0
LINE
  5
447
330
1A
100
AcDbEntity
  8
NOKITOI
  6
PHANTOM
 62
     8
 48
5.0
100
AcDbLine
 10
494.2915539297619
 20
354.866220166054
 30
0.0
 11
492.060053929762
 21
354.866220166054
 31
0.0
  0
LINE
  5
448
330
1A
100
AcDbEntity
  8
NOKITOI
  6
PHANTOM
 62
     8
 48
5.0
100
AcDbLine
 10
491.9271539297624
 20
352.5662201660541
 30
0.0
 11
491.4652539297621
 21
352.5662201660541
 31
0.0
  0
LINE
  5
449
330
1A
100
AcDbEntity
  8
NOKITOI
  6
PHANTOM
 62
     8
 48
5.0
100
AcDbLine
 10
493.975753929762
 20
347.866220166054
 30
0.0
 11
491.726653929762
 21
347.866220166054
 31
0.0
  0
ARC
  5
44A
330
1A
100
AcDbEntity
  8
NOKITOI
  6
PHANTOM
 62
     8
 48
5.0
100
AcDbCircle
 10
491.4652918112087
 20
347.3662639485794
 30
0.0
 40
3.999989731271038
100
AcDbArc
 50
96.47731142013144
 51
181.7899836067308
  0
ARC
  5
44B
330
1A
100
AcDbEntity
  8
NOKITOI
  6
PHANTOM
 62
     8
 48
5.0
100
AcDbCircle
 10
491.7266805303597
 20
348.366189489172
 30
0.0
 40
0.4999693238254178
100
AcDbArc
 50
171.8555038770532
 51
269.9969516090348
  0
LINE
  5
44C
330
1A
100
AcDbEntity
  8
NOKITOI
  6
PHANTOM
 62
     8
 48
5.0
100
AcDbLine
 10
491.2317539297618
 20
348.4370201660542
 30
0.0
 11
491.565453929762
 21
350.7732201660542
 31
0.0
  0
ARC
  5
44D
330
1A
100
AcDbEntity
  8
NOKITOI
  6
PHANTOM
 62
     8
 48
5.0
100
AcDbCircle
 10
491.0704681481774
 20
350.8439055317531
 30
0.0
 40
0.5000073448410256
100
AcDbArc
 50
351.8729478641243
 51
96.47829282996843
  0
ARC
  5
44E
330
1A
100
AcDbEntity
  8
NOKITOI
  6
PHANTOM
 62
     8
 48
5.0
100
AcDbCircle
 10
493.9757470427671
 20
348.3662136309685
 30
0.0
 40
0.499993464961963
100
AcDbArc
 50
270.0007892017873
 51
356.9970361317427
  0
LINE
  5
44F
330
1A
100
AcDbEntity
  8
NOKITOI
  6
PHANTOM
 62
     8
 48
5.0
100
AcDbLine
 10
493.311653929762
 20
349.0662201660541
 30
0.0
 11
493.492853929762
 21
352.5077201660542
 31
0.0
  0
LINE
  5
450
330
1A
100
AcDbEntity
  8
NOKITOI
  6
PHANTOM
 62
     8
 48
5.0
100
AcDbLine
 10
492.9378539297622
 20
351.8946201660539
 30
0.0
 11
493.492853929762
 21
352.5077201660542
 31
0.0
  0
LINE
  5
451
330
1A
100
AcDbEntity
  8
NOKITOI
  6
PHANTOM
 62
     8
 48
5.0
100
AcDbLine
 10
492.5337539297625
 20
349.0662201660541
 30
0.0
 11
492.9378539297622
 21
351.8946201660539
 31
0.0
  0
LINE
  5
452
330
1A
100
AcDbEntity
  8
NOKITOI
  6
PHANTOM
 62
     8
 48
5.0
100
AcDbLine
 10
493.311653929762
 20
349.0662201660541
 30
0.0
 11
492.5337539297625
 21
349.0662201660541
 31
0.0
  0
LINE
  5
453
330
1A
100
AcDbEntity
  8
NOKITOI
  6
PHANTOM
 62
     8
 48
5.0
100
AcDbLine
 10
494.4751539297621
 20
348.340020166054
 30
0.0
 11
494.790953929762
 21
354.339920166054
 31
0.0
  0
ARC
  5
454
330
1A
100
AcDbEntity
  8
NOKITOI
  6
PHANTOM
 62
     8
 48
5.0
100
AcDbCircle
 10
491.4653741424313
 20
347.3662788944341
 30
0.0
 40
5.2000412730095
100
AcDbArc
 50
90.00132454306161
 51
142.0757990790561
  0
LINE
  5
455
330
1A
100
AcDbEntity
  8
NOKITOI
  6
PHANTOM
 62
     8
 48
5.0
100
AcDbLine
 10
491.9271539297624
 20
352.5662201660541
 30
0.0
 11
492.9229539297621
 21
353.6662201660542
 31
0.0
  0
LINE
  5
456
330
1A
100
AcDbEntity
  8
NOKITOI
  6
PHANTOM
 62
     8
 48
5.0
100
AcDbLine
 10
487.904053929762
 20
341.366220166054
 30
0.0
 11
494.0487539297619
 21
341.366220166054
 31
0.0
  0
LINE
  5
457
330
1A
100
AcDbEntity
  8
NOKITOI
  6
PHANTOM
 62
     8
 48
5.0
100
AcDbLine
 10
495.5926539297625
 20
342.566220166054
 30
0.0
 11
489.551753929762
 21
342.566220166054
 31
0.0
  0
ARC
  5
458
330
1A
100
AcDbEntity
  8
NOKITOI
  6
PHANTOM
 62
     8
 48
5.0
100
AcDbCircle
 10
495.5926664994704
 20
342.0662085413243
 30
0.0
 40
0.5000116248877111
100
AcDbArc
 50
4.474846808342897
 51
90.00144034898337
  0
ARC
  5
459
330
1A
100
AcDbEntity
  8
NOKITOI
  6
PHANTOM
 62
     8
 48
5.0
100
AcDbCircle
 10
494.0487455055995
 20
340.3662276811104
 30
0.0
 40
0.9999924849789756
100
AcDbArc
 50
6.528264606674428
 51
89.99951732740891
  0
ARC
  5
45A
330
1A
100
AcDbEntity
  8
NOKITOI
  6
PHANTOM
 62
     8
 48
5.0
100
AcDbCircle
 10
489.5517675019005
 20
344.5662070109676
 30
0.0
 40
1.999986844959662
100
AcDbArc
 50
181.7875531852363
 51
269.9996111843223
  0
ARC
  5
45B
330
1A
100
AcDbEntity
  8
NOKITOI
  6
PHANTOM
 62
     8
 48
5.0
100
AcDbCircle
 10
487.9040898889129
 20
342.8661853119108
 30
0.0
 40
1.499965146287778
100
AcDbArc
 50
181.7866280217767
 51
269.9986264296976
  0
LINE
  5
45C
330
1A
100
AcDbEntity
  8
NOKITOI
  6
PHANTOM
 62
     8
 48
5.0
100
AcDbLine
 10
487.5527539297618
 20
344.503820166054
 30
0.0
 11
487.4672539297621
 21
347.241320166054
 31
0.0
  0
ARC
  5
45D
330
1A
100
AcDbEntity
  8
SEIHIN
  6
CONTINUOUS
 62
     3
100
AcDbCircle
 10
493.8316044368345
 20
339.3662476021533
 30
0.0
 40
0.9999733297567555
100
AcDbArc
 50
7.838250725771781
 51
89.99824700236928
  0
ARC
  5
45E
330
1A
100
AcDbEntity
  8
SEIHIN
  6
CONTINUOUS
 62
     3
100
AcDbCircle
 10
488.1565373974026
 20
342.3662186314393
 30
0.0
 40
1.999997699998626
100
AcDbArc
 50
181.6158911515804
 51
269.9999322246365
  0
LINE
  5
45F
330
1A
100
AcDbEntity
  8
SEIHIN
  6
CONTINUOUS
 62
     3
100
AcDbLine
 10
493.831635031599
 20
340.3662209314421
 30
0.0
 11
488.1565350315988
 21
340.3662209314421
 31
0.0
  0
LINE
  5
460
330
1A
100
AcDbEntity
  8
SEIHIN
  6
CONTINUOUS
 62
     3
100
AcDbLine
 10
504.0123350315989
 20
365.9878209314422
 30
0.0
 11
500.390535031599
 21
373.288420931442
 31
0.0
  0
ARC
  5
461
330
1A
100
AcDbEntity
  8
NOKITOI
  6
PHANTOM
 62
     8
 48
5.0
100
AcDbCircle
 10
491.3402531467536
 20
356.8662211210558
 30
0.0
 40
0.4999990449987349
100
AcDbArc
 50
348.6967198015448
 51
89.99991027369452
  0
LINE
  5
462
330
1A
100
AcDbEntity
  8
NOKITOI
  6
PHANTOM
 62
     8
 48
5.0
100
AcDbLine
 10
488.0136539297618
 20
357.366220166054
 30
0.0
 11
491.3402539297622
 21
357.366220166054
 31
0.0
  0
LINE
  5
463
330
1A
100
AcDbEntity
  8
NOKITOI
  6
PHANTOM
 62
     8
 48
5.0
100
AcDbLine
 10
488.0136539297618
 20
356.1662201660542
 30
0.0
 11
490.4864539297623
 21
356.1662201660542
 31
0.0
  0
ARC
  5
464
330
1A
100
AcDbEntity
  8
NOKITOI
  6
PHANTOM
 62
     8
 48
5.0
100
AcDbCircle
 10
488.0136584245601
 20
355.3662248035809
 30
0.0
 40
0.7999953624857498
100
AcDbArc
 50
90.00032191805336
 51
181.7911273464199
  0
LINE
  5
465
330
1A
100
AcDbEntity
  8
NOKITOI
  6
PHANTOM
 62
     8
 48
5.0
100
AcDbLine
 10
491.5697539297621
 20
355.4643201660539
 30
0.0
 11
491.830553929762
 21
356.7682201660541
 31
0.0
  0
ARC
  5
466
330
1A
100
AcDbEntity
  8
NOKITOI
  6
PHANTOM
 62
     8
 48
5.0
100
AcDbCircle
 10
488.0136666806119
 20
355.3662333211405
 30
0.0
 40
1.999986844954076
100
AcDbArc
 50
90.00036528735526
 51
181.7883072882699
  0
LINE
  5
467
330
1A
100
AcDbEntity
  8
CENTER_L
  6
CENTER
 62
     1
 48
5.0
100
AcDbLine
 10
497.020335031599
 20
364.566320931442
 30
0.0
 11
490.5765350315989
 21
364.566320931442
 31
0.0
  0
LINE
  5
468
330
1A
100
AcDbEntity
  8
CENTER_L
  6
CENTER
 62
     1
 48
5.0
100
AcDbLine
 10
494.0123350315989
 20
361.7283209314421
 30
0.0
 11
494.0123350315989
 21
367.9769209314422
 31
0.0
  0
ARC
  5
469
330
1A
100
AcDbEntity
  8
SEIHIN
  6
CONTINUOUS
 62
     3
100
AcDbCircle
 10
495.9114402896363
 20
371.0663176704449
 30
0.0
 40
5.000003260999967
100
AcDbArc
 50
26.38625968061573
 51
90.00006025263221
  0
ARC
  5
46A
330
1A
100
AcDbEntity
  8
SEIHIN
  6
CONTINUOUS
 62
     3
100
AcDbCircle
 10
494.0123350315989
 20
364.566320931442
 30
0.0
 40
1.000000000000113
100
AcDbArc
 50
0.0
 51
180.0
  0
ARC
  5
46B
330
1A
100
AcDbEntity
  8
SEIHIN
  6
CONTINUOUS
 62
     3
100
AcDbCircle
 10
494.0123350315989
 20
364.566320931442
 30
0.0
 40
1.0
100
AcDbArc
 50
180.0
 51
0.0
  0
LINE
  5
46E
330
1A
100
AcDbEntity
  8
SEIHIN
  6
CONTINUOUS
 62
     3
100
AcDbLine
 10
492.7622350315989
 20
358.066320931442
 30
0.0
 11
492.7622350315989
 21
356.066320931442
 31
0.0
  0
ARC
  5
46F
330
1A
100
AcDbEntity
  8
SEIHIN
  6
CONTINUOUS
 62
     3
100
AcDbCircle
 10
487.769535895587
 20
356.0663218201925
 30
0.0
 40
1.999999111249751
100
AcDbArc
 50
90.00002475144782
 51
181.6188473305864
  0
LINE
  5
470
330
1A
100
AcDbEntity
  8
SEIHIN
  6
CONTINUOUS
 62
     3
100
AcDbLine
 10
492.7622350315989
 20
358.066320931442
 30
0.0
 11
487.7695350315989
 21
358.066320931442
 31
0.0
  0
LINE
  5
478
330
1A
100
AcDbEntity
  8
NOKITOI
  6
PHANTOM
 62
     8
 48
5.0
100
AcDbLine
 10
596.8601539297623
 20
340.465720166054
 30
0.0
 11
593.9913539297622
 21
311.778320166054
 31
0.0
  0
LINE
  5
479
330
1A
100
AcDbEntity
  8
NOKITOI
  6
PHANTOM
 62
     8
 48
5.0
100
AcDbLine
 10
595.8191539297622
 20
342.116020166054
 30
0.0
 11
592.8261539297619
 21
312.1862201660539
 31
0.0
  0
LINE
  5
47A
330
1A
100
AcDbEntity
  8
SEIHIN
  6
CONTINUOUS
 62
     3
100
AcDbLine
 10
594.253535031599
 20
311.778420931442
 30
0.0
 11
597.0220350315989
 21
339.4657209314421
 31
0.0
  0
ARC
  5
47E
330
1A
100
AcDbEntity
  8
NOKITOI
  6
PHANTOM
 62
     8
 48
5.0
100
AcDbCircle
 10
582.5931469971846
 20
303.3661176910479
 30
0.0
 40
0.9999975250179316
100
AcDbArc
 50
270.0003972084043
 51
309.2946416752298
  0
LINE
  5
47F
330
1A
100
AcDbEntity
  8
NOKITOI
  6
PHANTOM
 62
     8
 48
5.0
100
AcDbLine
 10
592.6452539297624
 20
311.848920166054
 30
0.0
 11
582.6599539297622
 21
303.6791201660538
 31
0.0
  0
ARC
  5
480
330
1A
100
AcDbEntity
  8
SEIHIN
  6
CONTINUOUS
 62
     3
100
AcDbCircle
 10
582.8552393963373
 20
303.3661867927767
 30
0.0
 40
0.999965865907866
100
AcDbArc
 50
270.0054796839131
 51
309.295289705643
  0
LINE
  5
481
330
1A
100
AcDbEntity
  8
NOKITOI
  6
PHANTOM
 62
     8
 48
5.0
100
AcDbLine
 10
578.3433539297621
 20
303.566120166054
 30
0.0
 11
558.4352539297624
 21
303.566120166054
 31
0.0
  0
LINE
  5
482
330
1A
100
AcDbEntity
  8
NOKITOI
  6
PHANTOM
 62
     8
 48
5.0
100
AcDbLine
 10
578.5931539297621
 20
302.366120166054
 30
0.0
 11
558.4352539297624
 21
302.366120166054
 31
0.0
  0
ARC
  5
483
330
1A
100
AcDbEntity
  8
NOKITOI
  6
PHANTOM
 62
     8
 48
5.0
100
AcDbCircle
 10
582.3433603175108
 20
304.0661224460436
 30
0.0
 40
0.5000022800304047
100
AcDbArc
 50
269.9992680212786
 51
309.2854498596058
  0
LINE
  5
484
330
1A
100
AcDbEntity
  8
NOKITOI
  6
PHANTOM
 62
     8
 48
5.0
100
AcDbLine
 10
593.6295539297621
 20
311.1038201660541
 30
0.0
 11
583.2264539297621
 21
302.5921201660541
 31
0.0
  0
LINE
  5
485
330
1A
100
AcDbEntity
  8
SEIHIN
  6
CONTINUOUS
 62
     3
100
AcDbLine
 10
583.488535031599
 20
302.592320931442
 30
0.0
 11
593.8917350315989
 21
311.1039209314421
 31
0.0
  0
ARC
  5
486
330
1A
100
AcDbEntity
  8
NOKITOI
  6
PHANTOM
 62
     8
 48
5.0
100
AcDbCircle
 10
592.9963313568932
 20
311.8777780943814
 30
0.0
 40
0.9999908507640039
100
AcDbArc
 50
309.2887092230696
 51
354.2862329477531
  0
ARC
  5
487
330
1A
100
AcDbEntity
  8
NOKITOI
  6
PHANTOM
 62
     8
 48
5.0
100
AcDbCircle
 10
592.3286365038839
 20
312.235887679666
 30
0.0
 40
0.4999904508696396
100
AcDbArc
 50
309.2900846377958
 51
354.2990110749245
  0
ARC
  5
488
330
1A
100
AcDbEntity
  8
SEIHIN
  6
CONTINUOUS
 62
     3
100
AcDbCircle
 10
593.2584286612707
 20
311.8779090556596
 30
0.0
 40
1.000067285300415
100
AcDbArc
 50
309.2913294925557
 51
354.2906902639651
  0
LINE
  5
48E
330
1A
100
AcDbEntity
  8
NOKITOI
  6
PHANTOM
 62
     8
 48
5.0
100
AcDbLine
 10
604.6862539297617
 20
355.3412201660539
 30
0.0
 11
604.5369539297621
 21
350.5622201660542
 31
0.0
  0
ARC
  5
48F
330
1A
100
AcDbEntity
  8
NOKITOI
  6
PHANTOM
 62
     8
 48
5.0
100
AcDbCircle
 10
599.8402531467536
 20
355.3662192110523
 30
0.0
 40
0.4999990449987399
100
AcDbArc
 50
270.0000897263054
 51
11.30328019845509
  0
LINE
  5
490
330
1A
100
AcDbEntity
  8
NOKITOI
  6
PHANTOM
 62
     8
 48
5.0
100
AcDbLine
 10
601.413953929762
 20
356.1662201660542
 30
0.0
 11
601.913953929762
 21
353.6662201660542
 31
0.0
  0
LINE
  5
491
330
1A
100
AcDbEntity
  8
NOKITOI
  6
PHANTOM
 62
     8
 48
5.0
100
AcDbLine
 10
605.8856539297622
 20
355.303720166054
 30
0.0
 11
605.4955539297621
 21
342.819320166054
 31
0.0
  0
LINE
  5
492
330
1A
100
AcDbEntity
  8
SEIHIN
  6
CONTINUOUS
 62
     3
100
AcDbLine
 10
606.0539350315989
 20
356.0098209314421
 30
0.0
 11
605.6669350315988
 21
342.309820931442
 31
0.0
  0
LINE
  5
493
330
1A
100
AcDbEntity
  8
SEIHIN
  6
CONTINUOUS
 62
     3
100
AcDbLine
 10
612.2123350315989
 20
366.066320931442
 30
0.0
 11
611.4206350315989
 21
338.038020931442
 31
0.0
  0
LINE
  5
494
330
1A
100
AcDbEntity
  8
NOKITOI
  6
PHANTOM
 62
     8
 48
5.0
100
AcDbLine
 10
601.913953929762
 20
353.6662201660542
 30
0.0
 11
598.9773539297621
 21
353.6662201660542
 31
0.0
  0
LINE
  5
495
330
1A
100
AcDbEntity
  8
NOKITOI
  6
PHANTOM
 62
     8
 48
5.0
100
AcDbLine
 10
597.9245539297622
 20
347.866220166054
 30
0.0
 11
600.1736539297617
 21
347.866220166054
 31
0.0
  0
LINE
  5
496
330
1A
100
AcDbEntity
  8
NOKITOI
  6
PHANTOM
 62
     8
 48
5.0
100
AcDbLine
 10
597.6087539297623
 20
354.866220166054
 30
0.0
 11
599.8402539297622
 21
354.866220166054
 31
0.0
  0
LINE
  5
497
330
1A
100
AcDbEntity
  8
NOKITOI
  6
PHANTOM
 62
     8
 48
5.0
100
AcDbLine
 10
599.9731539297622
 20
352.5662201660541
 30
0.0
 11
598.9773539297621
 21
353.6662201660542
 31
0.0
  0
LINE
  5
498
330
1A
100
AcDbEntity
  8
NOKITOI
  6
PHANTOM
 62
     8
 48
5.0
100
AcDbLine
 10
596.3166539297617
 20
342.566220166054
 30
0.0
 11
602.3485539297621
 21
342.566220166054
 31
0.0
  0
LINE
  5
499
330
1A
100
AcDbEntity
  8
NOKITOI
  6
PHANTOM
 62
     8
 48
5.0
100
AcDbLine
 10
603.9962539297621
 20
341.366220166054
 30
0.0
 11
597.8551539297622
 21
341.366220166054
 31
0.0
  0
LINE
  5
49A
330
1A
100
AcDbEntity
  8
SEIHIN
  6
CONTINUOUS
 62
     3
100
AcDbLine
 10
603.667735031599
 20
340.3662209314421
 30
0.0
 11
598.0170350315991
 21
340.3662209314421
 31
0.0
  0
LINE
  5
49B
330
1A
100
AcDbEntity
  8
SEIHIN
  6
CONTINUOUS
 62
     3
100
AcDbLine
 10
610.4210350315991
 20
337.066320931442
 30
0.0
 11
596.7821350315989
 21
337.066320931442
 31
0.0
  0
ARC
  5
49C
330
1A
100
AcDbEntity
  8
NOKITOI
  6
PHANTOM
 62
     8
 48
5.0
100
AcDbCircle
 10
597.6087576392574
 20
354.3662240760848
 30
0.0
 40
0.4999960899831856
100
AcDbArc
 50
90.00042508015132
 51
183.0156217414654
  0
ARC
  5
49D
330
1A
100
AcDbEntity
  8
NOKITOI
  6
PHANTOM
 62
     8
 48
5.0
100
AcDbCircle
 10
597.9245580511688
 20
348.3662162560235
 30
0.0
 40
0.4999960899864752
100
AcDbArc
 50
183.0147243791737
 51
269.9995277178594
  0
LINE
  5
49E
330
1A
100
AcDbEntity
  8
NOKITOI
  6
PHANTOM
 62
     8
 48
5.0
100
AcDbLine
 10
599.3665539297617
 20
349.0662201660541
 30
0.0
 11
598.9625539297621
 21
351.8946201660539
 31
0.0
  0
LINE
  5
49F
330
1A
100
AcDbEntity
  8
NOKITOI
  6
PHANTOM
 62
     8
 48
5.0
100
AcDbLine
 10
598.5886539297621
 20
349.0662201660541
 30
0.0
 11
598.4075539297618
 21
352.507620166054
 31
0.0
  0
LINE
  5
4A0
330
1A
100
AcDbEntity
  8
NOKITOI
  6
PHANTOM
 62
     8
 48
5.0
100
AcDbLine
 10
598.5886539297621
 20
349.0662201660541
 30
0.0
 11
599.3665539297617
 21
349.0662201660541
 31
0.0
  0
LINE
  5
4A1
330
1A
100
AcDbEntity
  8
NOKITOI
  6
PHANTOM
 62
     8
 48
5.0
100
AcDbLine
 10
598.9625539297621
 20
351.8946201660539
 30
0.0
 11
598.4075539297618
 21
352.507620166054
 31
0.0
  0
LINE
  5
4A2
330
1A
100
AcDbEntity
  8
NOKITOI
  6
PHANTOM
 62
     8
 48
5.0
100
AcDbLine
 10
597.4252539297622
 20
348.339920166054
 30
0.0
 11
597.1094539297618
 21
354.339920166054
 31
0.0
  0
ARC
  5
4A3
330
1A
100
AcDbEntity
  8
NOKITOI
  6
PHANTOM
 62
     8
 48
5.0
100
AcDbCircle
 10
597.855174579603
 20
340.3662388539032
 30
0.0
 40
0.9999813123640345
100
AcDbArc
 50
90.00118317084957
 51
174.290590033351
  0
ARC
  5
4A4
330
1A
100
AcDbEntity
  8
NOKITOI
  6
PHANTOM
 62
     8
 48
5.0
100
AcDbCircle
 10
596.3166670007667
 20
342.0662319963339
 30
0.0
 40
0.499988169890889
100
AcDbArc
 50
90.00149786226627
 51
174.2966061377156
  0
ARC
  5
4A5
330
1A
100
AcDbEntity
  8
SEIHIN
  6
CONTINUOUS
 62
     3
100
AcDbCircle
 10
598.0170556814401
 20
339.3662396192913
 30
0.0
 40
0.9999813123640061
100
AcDbArc
 50
90.00118317084551
 51
174.2905900333425
  0
LINE
  5
4A6
330
1A
100
AcDbEntity
  8
NOKITOI
  6
PHANTOM
 62
     8
 48
5.0
100
AcDbLine
 10
599.9731539297622
 20
352.5662201660541
 30
0.0
 11
600.4351539297622
 21
352.5662201660541
 31
0.0
  0
ARC
  5
4A7
330
1A
100
AcDbEntity
  8
NOKITOI
  6
PHANTOM
 62
     8
 48
5.0
100
AcDbCircle
 10
600.1736641161983
 20
348.3662319107782
 30
0.0
 40
0.5000117448278309
100
AcDbArc
 50
269.9988327478018
 51
8.127314608715803
  0
LINE
  5
4A8
330
1A
100
AcDbEntity
  8
NOKITOI
  6
PHANTOM
 62
     8
 48
5.0
100
AcDbLine
 10
600.668653929762
 20
348.436920166054
 30
0.0
 11
600.3348539297621
 21
350.7731201660542
 31
0.0
  0
ARC
  5
4A9
330
1A
100
AcDbEntity
  8
NOKITOI
  6
PHANTOM
 62
     8
 48
5.0
100
AcDbCircle
 10
600.8298833022617
 20
350.8438503985489
 30
0.0
 40
0.4999578477751074
100
AcDbArc
 50
83.52609071220776
 51
188.1330561712924
  0
ARC
  5
4AA
330
1A
100
AcDbEntity
  8
NOKITOI
  6
PHANTOM
 62
     8
 48
5.0
100
AcDbCircle
 10
600.435123002826
 20
347.3662559107178
 30
0.0
 40
3.99998565374706
100
AcDbArc
 50
358.2086966591014
 51
83.52422380468325
  0
ARC
  5
4AB
330
1A
100
AcDbEntity
  8
NOKITOI
  6
PHANTOM
 62
     8
 48
5.0
100
AcDbCircle
 10
600.4351360634109
 20
347.366228894434
 30
0.0
 40
5.199991271650611
100
AcDbArc
 50
37.92532860473096
 51
89.99980314072548
  0
ARC
  5
4AC
330
1A
100
AcDbEntity
  8
NOKITOI
  6
PHANTOM
 62
     8
 48
5.0
100
AcDbCircle
 10
603.9962711429402
 20
342.8662368492018
 30
0.0
 40
1.500016683246579
100
AcDbArc
 50
269.9993425123348
 51
358.207642324411
  0
ARC
  5
4AD
330
1A
100
AcDbEntity
  8
NOKITOI
  6
PHANTOM
 62
     8
 48
5.0
100
AcDbCircle
 10
602.3485919175864
 20
344.5661569866263
 30
0.0
 40
2.000036820932882
100
AcDbArc
 50
269.9989117490339
 51
358.2110591274196
  0
LINE
  5
4AE
330
1A
100
AcDbEntity
  8
NOKITOI
  6
PHANTOM
 62
     8
 48
5.0
100
AcDbLine
 10
604.3476539297621
 20
344.5036201660541
 30
0.0
 11
604.4331539297618
 21
347.241220166054
 31
0.0
  0
ARC
  5
4AF
330
1A
100
AcDbEntity
  8
SEIHIN
  6
CONTINUOUS
 62
     3
100
AcDbCircle
 10
603.667732665795
 20
342.3662186314395
 30
0.0
 40
1.999997699998778
100
AcDbArc
 50
270.0000677753634
 51
358.3841088484163
  0
ARC
  5
4B0
330
1A
100
AcDbEntity
  8
SEIHIN
  6
CONTINUOUS
 62
     3
100
AcDbCircle
 10
610.4209838864938
 20
338.0662712139701
 30
0.0
 40
0.9999502838360372
100
AcDbArc
 50
270.0029305443741
 51
358.3810821580383
  0
ARC
  5
4B1
330
1A
100
AcDbEntity
  8
SEIHIN
  6
CONTINUOUS
 62
     3
100
AcDbCircle
 10
611.2524797308656
 20
335.1837530498657
 30
0.0
 40
2.000026372997846
100
AcDbArc
 50
106.091295995786
 51
175.5675950682204
  0
LINE
  5
4B2
330
1A
100
AcDbEntity
  8
SEIHIN
  6
CONTINUOUS
 62
     3
100
AcDbLine
 10
612.2123350315989
 20
366.066320931442
 30
0.0
 11
599.0620350315989
 21
366.066320931442
 31
0.0
  0
LINE
  5
4B3
330
1A
100
AcDbEntity
  8
SEIHIN
  6
CONTINUOUS
 62
     3
100
AcDbLine
 10
604.0547350315992
 20
358.066320931442
 30
0.0
 11
599.0620350315989
 21
358.066320931442
 31
0.0
  0
LINE
  5
4B4
330
1A
100
AcDbEntity
  8
SEIHIN
  6
CONTINUOUS
 62
     3
100
AcDbLine
 10
599.0620350315989
 20
358.066320931442
 30
0.0
 11
599.0620350315989
 21
356.066320931442
 31
0.0
  0
ARC
  5
4B5
330
1A
100
AcDbEntity
  8
SEIHIN
  6
CONTINUOUS
 62
     3
100
AcDbCircle
 10
599.0620350315989
 20
361.066320931442
 30
0.0
 40
5.0
100
AcDbArc
 50
90.0
 51
270.0
  0
ARC
  5
4B6
330
1A
100
AcDbEntity
  8
NOKITOI
  6
PHANTOM
 62
     8
 48
5.0
100
AcDbCircle
 10
600.5600466752066
 20
356.8662113162106
 30
0.0
 40
0.500008849895925
100
AcDbArc
 50
89.99916870385492
 51
191.3135956695117
  0
LINE
  5
4B7
330
1A
100
AcDbEntity
  8
NOKITOI
  6
PHANTOM
 62
     8
 48
5.0
100
AcDbLine
 10
603.8866539297623
 20
357.3661201660541
 30
0.0
 11
600.560053929762
 21
357.366220166054
 31
0.0
  0
ARC
  5
4B8
330
1A
100
AcDbEntity
  8
NOKITOI
  6
PHANTOM
 62
     8
 48
5.0
100
AcDbCircle
 10
603.886697896115
 20
355.3661748035811
 30
0.0
 40
0.7999453636812564
100
AcDbArc
 50
358.212343644788
 51
90.00314907315372
  0
LINE
  5
4B9
330
1A
100
AcDbEntity
  8
NOKITOI
  6
PHANTOM
 62
     8
 48
5.0
100
AcDbLine
 10
603.8866539297623
 20
356.166120166054
 30
0.0
 11
601.413953929762
 21
356.1662201660542
 31
0.0
  0
ARC
  5
4BA
330
1A
100
AcDbEntity
  8
NOKITOI
  6
PHANTOM
 62
     8
 48
5.0
100
AcDbCircle
 10
603.8866426927679
 20
355.3662317598711
 30
0.0
 40
1.999988406214315
100
AcDbArc
 50
358.2088726535929
 51
89.99967808195611
  0
LINE
  5
4BB
330
1A
100
AcDbEntity
  8
NOKITOI
  6
PHANTOM
 62
     8
 48
5.0
100
AcDbLine
 10
600.330553929762
 20
355.4642201660542
 30
0.0
 11
600.0697539297621
 21
356.7682201660541
 31
0.0
  0
ARC
  5
4BC
330
1A
100
AcDbEntity
  8
SEIHIN
  6
CONTINUOUS
 62
     3
100
AcDbCircle
 10
604.054734167611
 20
356.0663218201925
 30
0.0
 40
1.999999111249786
100
AcDbArc
 50
358.3811526694152
 51
89.99997524855542
  0
DIMENSION
  5
4E4
330
1A
100
AcDbEntity
  8
SUNPOU
100
AcDbDimension
  2
*D1
 10
641.6896791325057
 20
302.3662209314421
 30
0.0
 11
636.6896791325057
 21
334.216270931442
 31
0.0
 70
    32
  3
STANDARD
100
AcDbAlignedDimension
 13
612.2123350315989
 23
366.066320931442
 33
0.0
 14
582.8553350315988
 24
302.3662209314421
 34
0.0
 50
90.0
100
AcDbRotatedDimension
1001
ACAD
1000
DSTYLE
1002
{
1070
   140
1040
6.0
1070
    74
1070
     0
1070
   172
1070
     1
1070
    73
1070
     0
1070
   272
1070
     2
1070
    77
1070
     3
1070
   173
1070
     1
1070
   147
1040
2.0
1070
    42
1040
6.0
1070
    44
1040
3.0
1070
    43
1040
14.0
1070
   271
1070
     0
1070
   178
1070
     4
1070
   177
1070
     4
1070
   176
1070
     4
1070
   141
1040
150.0
1070
     7
1000
_OPEN
1070
     6
1000
_OPEN
1070
    41
1040
7.0
1002
}
  0
DIMENSION
  5
4F1
330
1A
100
AcDbEntity
  8
SUNPOU
100
AcDbDimension
  2
*D2
 10
545.7123350315989
 20
402.5608910079176
 30
0.0
 11
578.962335031599
 21
407.5608910079177
 31
0.0
 12
0.0
 22
-29.46047768847279
 32
0.0
 70
    32
  3
STANDARD
100
AcDbAlignedDimension
 13
612.2123350315989
 23
366.066320931442
 33
0.0
 14
545.7123350315989
 24
330.710820931442
 34
0.0
100
AcDbRotatedDimension
1001
ACAD
1000
DSTYLE
1002
{
1070
   140
1040
6.0
1070
    74
1070
     0
1070
   172
1070
     1
1070
    73
1070
     0
1070
   272
1070
     2
1070
    77
1070
     3
1070
   173
1070
     1
1070
   147
1040
2.0
1070
    42
1040
6.0
1070
    44
1040
3.0
1070
    43
1040
14.0
1070
   271
1070
     0
1070
   178
1070
     4
1070
   177
1070
     4
1070
   176
1070
     4
1070
   141
1040
150.0
1070
     7
1000
_OPEN
1070
     6
1000
_OPEN
1070
    41
1040
7.0
1002
}
  0
DIMENSION
  5
4FE
330
1A
100
AcDbEntity
  8
SUNPOU
100
AcDbDimension
  2
*D3
 10
456.0124350315988
 20
420.2111402130347
 30
0.0
 11
534.1123850315989
 21
425.2111402130346
 31
0.0
 12
0.0
 22
-29.46047768847279
 32
0.0
 70
    32
  3
STANDARD
100
AcDbAlignedDimension
 13
612.2123350315989
 23
366.066320931442
 33
0.0
 14
456.0124350315988
 24
376.066320931442
 34
0.0
100
AcDbRotatedDimension
1001
ACAD
1000
DSTYLE
1002
{
1070
   140
1040
6.0
1070
    74
1070
     0
1070
   172
1070
     1
1070
    73
1070
     0
1070
   272
1070
     2
1070
    77
1070
     3
1070
   173
1070
     1
1070
   147
1040
2.0
1070
    42
1040
6.0
1070
    44
1040
3.0
1070
    43
1040
14.0
1070
   271
1070
     0
1070
   178
1070
     4
1070
   177
1070
     4
1070
   176
1070
     4
1070
   141
1040
150.0
1070
     7
1000
_OPEN
1070
     6
1000
_OPEN
1070
    41
1040
7.0
1002
}
  0
DIMENSION
  5
50B
330
1A
100
AcDbEntity
  8
SUNPOU
100
AcDbDimension
  2
*D4
 10
426.3571909135148
 20
302.3662209314421
 30
0.0
 11
421.3571909135148
 21
339.216270931442
 31
0.0
 70
    32
  3
STANDARD
100
AcDbAlignedDimension
 13
456.0124350315988
 23
376.066320931442
 33
0.0
 14
537.420535031599
 24
302.3662209314421
 34
0.0
 50
90.0
100
AcDbRotatedDimension
1001
ACAD
1000
DSTYLE
1002
{
1070
   140
1040
6.0
1070
    74
1070
     0
1070
   172
1070
     1
1070
    73
1070
     0
1070
   272
1070
     2
1070
    77
1070
     3
1070
   173
1070
     1
1070
   147
1040
2.0
1070
    42
1040
6.0
1070
    44
1040
3.0
1070
    43
1040
14.0
1070
   271
1070
     0
1070
   178
1070
     4
1070
   177
1070
     4
1070
   176
1070
     4
1070
   141
1040
150.0
1070
     7
1000
_OPEN
1070
     6
1000
_OPEN
1070
    41
1040
7.0
1002
}
  0
DIMENSION
  5
518
330
1A
100
AcDbEntity
  8
SUNPOU
100
AcDbDimension
  2
*D5
 10
411.2680541367094
 20
225.066220931442
 30
0.0
 11
406.2680541367094
 21
300.5662709314421
 31
0.0
 70
    32
  3
STANDARD
100
AcDbAlignedDimension
 13
456.0124350315988
 23
376.066320931442
 33
0.0
 14
509.0881350315989
 24
225.066220931442
 34
0.0
 50
90.0
100
AcDbRotatedDimension
1001
ACAD
1000
DSTYLE
1002
{
1070
   140
1040
6.0
1070
    74
1070
     0
1070
   172
1070
     1
1070
    73
1070
     0
1070
   272
1070
     2
1070
    77
1070
     3
1070
   173
1070
     1
1070
   147
1040
2.0
1070
    42
1040
6.0
1070
    44
1040
3.0
1070
    43
1040
14.0
1070
   271
1070
     0
1070
   178
1070
     4
1070
   177
1070
     4
1070
   176
1070
     4
1070
   141
1040
150.0
1070
     7
1000
_OPEN
1070
     6
1000
_OPEN
1070
    41
1040
7.0
1002
}
  0
DIMENSION
  5
525
330
1A
100
AcDbEntity
  8
SUNPOU
100
AcDbDimension
  2
*D6
 10
395.2644248342858
 20
181.6663709314421
 30
0.0
 11
390.2644248342858
 21
278.866345931442
 31
0.0
 70
    32
  3
STANDARD
100
AcDbAlignedDimension
 13
456.0124350315988
 23
376.066320931442
 33
0.0
 14
524.5121350315989
 24
181.6663709314421
 34
0.0
 50
90.0
100
AcDbRotatedDimension
1001
ACAD
1000
DSTYLE
1002
{
1070
   140
1040
6.0
1070
    74
1070
     0
1070
   172
1070
     1
1070
    73
1070
     0
1070
   272
1070
     2
1070
    77
1070
     3
1070
   173
1070
     1
1070
   147
1040
2.0
1070
    42
1040
6.0
1070
    44
1040
3.0
1070
    43
1040
14.0
1070
   271
1070
     0
1070
   178
1070
     4
1070
   177
1070
     4
1070
   176
1070
     4
1070
   141
1040
150.0
1070
     7
1000
_OPEN
1070
     6
1000
_OPEN
1070
    41
1040
7.0
1002
}
  0
DIMENSION
  5
535
330
1A
100
AcDbEntity
  8
SUNPOU
100
AcDbDimension
  2
*D7
 10
627.716293372458
 20
187.6663109314421
 30
0.0
 11
622.716293372458
 21
161.5663109314421
 31
0.0
 12
0.0
 22
-29.46047768847279
 32
0.0
 70
    32
  1
※b<>
  3
STANDARD
100
AcDbAlignedDimension
 13
590.2061361126812
 23
197.6663015426614
 33
0.0
 14
588.7124350315989
 24
187.6663109314421
 34
0.0
 50
90.0
100
AcDbRotatedDimension
1001
ACAD
1000
DSTYLE
1002
{
1070
   140
1040
6.0
1070
    74
1070
     0
1070
   172
1070
     1
1070
    73
1070
     0
1070
   272
1070
     2
1070
    77
1070
     3
1070
   173
1070
     1
1070
   147
1040
2.0
1070
    42
1040
6.0
1070
    44
1040
3.0
1070
    43
1040
14.0
1070
   271
1070
     0
1070
   178
1070
     4
1070
   177
1070
     4
1070
   176
1070
     4
1070
   141
1040
150.0
1070
     7
1000
_OPEN
1070
     6
1000
_OPEN
1070
    41
1040
7.0
1002
}
  0
DIMENSION
  5
542
330
1A
100
AcDbEntity
  8
SUNPOU
100
AcDbDimension
  2
*D8
 10
165.712335031599
 20
418.0497363010799
 30
0.0
 11
253.7123850315989
 21
423.0497363010799
 31
0.0
 70
    32
  3
STANDARD
100
AcDbAlignedDimension
 13
341.7124350315989
 23
376.066420931442
 33
0.0
 14
165.712335031599
 24
376.066420931442
 34
0.0
100
AcDbRotatedDimension
1001
ACAD
1000
DSTYLE
1002
{
1070
   140
1040
6.0
1070
    74
1070
     0
1070
   172
1070
     1
1070
    73
1070
     0
1070
   272
1070
     2
1070
    77
1070
     3
1070
   173
1070
     1
1070
   147
1040
2.0
1070
    42
1040
6.0
1070
    44
1040
3.0
1070
    43
1040
14.0
1070
   271
1070
     0
1070
   178
1070
     4
1070
   177
1070
     4
1070
   176
1070
     4
1070
   141
1040
150.0
1070
     7
1000
_OPEN
1070
     6
1000
_OPEN
1070
    41
1040
7.0
1002
}
  0
DIMENSION
  5
551
330
1A
100
AcDbEntity
  8
SUNPOU
100
AcDbDimension
  2
*D9
 10
283.7123313397181
 20
402.0029702922047
 30
0.0
 11
253.7123313397146
 21
407.0029702922047
 31
0.0
 70
    32
  1
※a<>
  3
STANDARD
100
AcDbAlignedDimension
 13
223.7123313397112
 23
376.0664868404538
 33
0.0
 14
283.7123313397181
 24
376.0664868405759
 34
0.0
100
AcDbRotatedDimension
1001
ACAD
1000
DSTYLE
1002
{
1070
   140
1040
6.0
1070
    74
1070
     0
1070
   172
1070
     1
1070
    73
1070
     0
1070
   272
1070
     2
1070
    77
1070
     3
1070
   173
1070
     1
1070
   147
1040
2.0
1070
    42
1040
6.0
1070
    44
1040
3.0
1070
    43
1040
14.0
1070
   271
1070
     0
1070
   178
1070
     4
1070
   177
1070
     4
1070
   176
1070
     4
1070
   141
1040
150.0
1070
     7
1000
_OPEN
1070
     6
1000
_OPEN
1070
    41
1040
7.0
1002
}
  0
DIMENSION
  5
592
330
1A
100
AcDbEntity
  8
SUNPOU
100
AcDbDimension
  2
*D10
 10
588.7124350315989
 20
152.2469479569199
 30
0.0
 11
553.7123078264796
 21
157.2469479569199
 31
0.0
 12
0.0
 22
-29.46047768847279
 32
0.0
 70
    32
  1
φ<>
  3
STANDARD
100
AcDbAlignedDimension
 13
518.7121806213602
 23
187.6667509330412
 33
0.0
 14
588.7124350315989
 24
187.6663109314421
 34
0.0
100
AcDbRotatedDimension
1001
ACAD
1000
DSTYLE
1002
{
1070
   140
1040
6.0
1070
    74
1070
     0
1070
   172
1070
     1
1070
    73
1070
     0
1070
   272
1070
     2
1070
    77
1070
     3
1070
   173
1070
     1
1070
   147
1040
2.0
1070
    42
1040
6.0
1070
    44
1040
3.0
1070
    43
1040
14.0
1070
   271
1070
     0
1070
   178
1070
     4
1070
   177
1070
     4
1070
   176
1070
     4
1070
   141
1040
150.0
1070
     7
1000
_OPEN
1070
     6
1000
_OPEN
1070
    41
1040
7.0
1002
}
  0
DIMENSION
  5
602
330
1A
100
AcDbEntity
  8
SUNPOU
100
AcDbDimension
  2
*D11
 10
207.712311646485
 20
152.6565424856997
 30
0.0
 11
253.7122624702722
 21
157.6565424856997
 31
0.0
 70
    32
  3
STANDARD
100
AcDbAlignedDimension
 13
299.7122132940595
 23
225.066220931442
 33
0.0
 14
207.712311646485
 24
225.066220931442
 34
0.0
100
AcDbRotatedDimension
1001
ACAD
1000
DSTYLE
1002
{
1070
   140
1040
6.0
1070
    74
1070
     0
1070
   172
1070
     1
1070
    73
1070
     0
1070
   272
1070
     2
1070
    77
1070
     3
1070
   173
1070
     1
1070
   147
1040
2.0
1070
    42
1040
6.0
1070
    44
1040
3.0
1070
    43
1040
14.0
1070
   271
1070
     0
1070
   178
1070
     4
1070
   177
1070
     4
1070
   176
1070
     4
1070
   141
1040
150.0
1070
     7
1000
_OPEN
1070
     6
1000
_OPEN
1070
    41
1040
7.0
1002
}
  0
DIMENSION
  5
63D
330
1A
100
AcDbEntity
  8
SUNPOU
100
AcDbDimension
  2
*D12
 10
553.7123256821907
 20
273.960231989268
 30
0.0
 11
571.7123256821907
 21
278.9602319892681
 31
0.0
 12
0.0
 22
-29.46047768847279
 32
0.0
 70
    32
  3
STANDARD
100
AcDbAlignedDimension
 13
545.7123350315989
 23
295.3662209314421
 33
0.0
 14
553.7123256821907
 24
252.0662209314419
 34
0.0
100
AcDbRotatedDimension
1001
ACAD
1000
DSTYLE
1002
{
1070
   140
1040
6.0
1070
    74
1070
     0
1070
   172
1070
     1
1070
    73
1070
     0
1070
   272
1070
     2
1070
    77
1070
     3
1070
   173
1070
     1
1070
   147
1040
2.0
1070
    42
1040
6.0
1070
    44
1040
3.0
1070
    43
1040
14.0
1070
   271
1070
     0
1070
   178
1070
     4
1070
   177
1070
     4
1070
   176
1070
     4
1070
   141
1040
150.0
1070
     7
1000
_OPEN
1070
     6
1000
_OPEN
1070
    41
1040
7.0
1002
}
  0
LEADER
  5
657
330
1A
100
AcDbEntity
  8
SUNPOU
  6
CONTINUOUS
 62
     4
100
AcDbLeader
  3
STANDARD
 73
     0
 74
     0
 40
6.0
 41
30.19999999999999
 76
     3
 10
495.012335031599
 20
364.566320931442
 30
0.0
 10
504.4677621357528
 20
391.5816351083242
 30
0.0
 10
505.9914825855208
 20
391.5816351083242
 30
0.0
1001
ACAD
1000
DSTYLE
1002
{
1070
     6
1000
OPEN
1070
    41
1040
7.0
1070
    42
1040
6.0
1070
    43
1040
14.0
1070
    44
1040
3.0
1070
    73
1070
     0
1070
    74
1070
     0
1070
    77
1070
     3
1070
   140
1040
6.0
1070
   141
1040
150.0
1070
   147
1040
2.0
1070
   172
1070
     1
1070
   173
1070
     1
1070
   176
1070
     4
1070
   177
1070
     4
1070
   178
1070
     4
1070
   271
1070
     0
1070
   272
1070
     2
1070
   341
1005
6D
1070
   343
1005
6D
1070
   344
1005
6D
1002
}
  0
MTEXT
  5
658
330
1A
100
AcDbEntity
  8
SUNPOU
  6
CONTINUOUS
 62
     4
100
AcDbMText
 10
507.9914825855207
 20
393.5816351083242
 30
0.0
 40
6.0
 41
0.0
 71
     7
 72
     5
  1
2-φ2.0
1001
ACAD
1000
MTEXTBEGIN
1070
    73
1070
     1
1070
    44
1040
1.0
1070
    74
1070
     0
1000
MTEXTEND
1000
MTEXTBEGIN
1070
    73
1070
     1
1070
    44
1040
1.0
1070
    74
1070
     0
1000
MTEXTEND
  0
LINE
  5
7C0
330
1A
100
AcDbEntity
  8
ZUWAKU
100
AcDbLine
 10
208.6466009793416
 20
15.19999945063829
 30
0.0
 11
447.424363660265
 21
15.19999945063828
 31
0.0
  0
LINE
  5
7C1
330
1A
100
AcDbEntity
  8
ZUWAKU
100
AcDbLine
 10
208.6466009793416
 20
15.59999945063829
 30
0.0
 11
447.424363660265
 21
15.59999945063829
 31
0.0
  0
LINE
  5
7C2
330
1A
100
AcDbEntity
  8
ZUWAKU
100
AcDbLine
 10
208.6466009793416
 20
15.39999945063829
 30
0.0
 11
447.424363660265
 21
15.39999945063829
 31
0.0
  0
LINE
  5
7C3
330
1A
100
AcDbEntity
  8
ZUWAKU
100
AcDbLine
 10
-0.0000003107263638
 20
30.79999945063827
 30
0.0
 11
797.3999996892735
 21
30.79999945063827
 31
0.0
  0
LINE
  5
7C4
330
1A
100
AcDbEntity
  8
ZUWAKU
100
AcDbLine
 10
-0.0000003107263638
 20
30.59999945063826
 30
0.0
 11
797.3999996892735
 21
30.59999945063826
 31
0.0
  0
LINE
  5
7C5
330
1A
100
AcDbEntity
  8
ZUWAKU
100
AcDbLine
 10
-0.0000003107263638
 20
30.39999945063826
 30
0.0
 11
797.3999996892735
 21
30.39999945063826
 31
0.0
  0
LINE
  5
7C6
330
1A
100
AcDbEntity
  8
ZUWAKU
100
AcDbLine
 10
-0.0000003107263638
 20
30.19999945063826
 30
0.0
 11
797.3999996892735
 21
30.19999945063826
 31
0.0
  0
LINE
  5
7C7
330
1A
100
AcDbEntity
  8
ZUWAKU
100
AcDbLine
 10
-0.0000003107263638
 20
29.99999945063825
 30
0.0
 11
797.3999996892735
 21
29.99999945063825
 31
0.0
  0
LWPOLYLINE
  5
7C8
330
1A
100
AcDbEntity
  8
ZUWAKU
100
AcDbPolyline
 90
        4
 70
     1
 43
0.0
 10
0.199999689273568
 20
551.3999994506384
 10
0.199999689273568
 20
0.1999994506383018
 10
797.3999996892735
 20
0.1999994506383249
 10
797.3999996892737
 20
551.3999994506384
  0
LWPOLYLINE
  5
7C9
330
1A
100
AcDbEntity
  8
ZUWAKU
100
AcDbPolyline
 90
        4
 70
     1
 43
0.0
 10
0.5999996892735453
 20
550.9999994506383
 10
0.5999996892735453
 20
0.5999994506382791
 10
796.9999996892738
 20
0.5999994506383253
 10
796.9999996892736
 20
550.9999994506383
  0
LWPOLYLINE
  5
7CA
330
1A
100
AcDbEntity
  8
ZUWAKU
100
AcDbPolyline
 90
        4
 70
     1
 43
0.0
 10
-0.0000003107263638
 20
551.5999994506382
 10
-0.0000003107263638
 20
-0.0000005493617437
 10
797.5999996892737
 20
-0.0000005493616761
 10
797.5999996892737
 20
551.5999994506383
  0
LWPOLYLINE
  5
7CB
330
1A
100
AcDbEntity
  8
ZUWAKU
100
AcDbPolyline
 90
        4
 70
     1
 43
0.0
 10
0.3999996892736135
 20
551.1999994506383
 10
0.3999996892736135
 20
0.3999994506383473
 10
797.1999996892736
 20
0.3999994506383242
 10
797.1999996892736
 20
551.1999994506383
  0
LWPOLYLINE
  5
7CC
330
1A
100
AcDbEntity
  8
ZUWAKU
100
AcDbPolyline
 90
        4
 70
     1
 43
0.0
 10
0.7999996892735908
 20
550.7999994506383
 10
0.7999996892735908
 20
0.7999994506383246
 10
796.7999996892736
 20
0.7999994506383246
 10
796.7999996892736
 20
550.7999994506383
  0
TEXT
  5
7CD
330
1A
100
AcDbEntity
  8
MOJI
100
AcDbText
 10
92.95778927744278
 20
12.74117758091301
 30
0.0
 40
6.0
  1
新・丸トップＲＶ１０５
 41
0.9
  7
ｽﾀｲﾙ1
100
AcDbText
  0
HATCH
  5
7CE
330
1A
100
AcDbEntity
  8
ZUWAKU
100
AcDbHatch
 10
0.0
 20
0.0
 30
0.0
210
0.0
220
0.0
230
1.0
  2
ANSI37
 70
     0
 71
     0
 91
        8
 92
        7
 72
     1
 73
     1
 93
       24
 10
14.50226235039349
 20
17.64484793162184
 42
-0.1989123673796348
 10
14.09221184405476
 20
18.63479742528289
 42
0.0
 10
14.09221184405476
 20
19.92499945063826
 42
-0.4142135623730912
 10
14.61721184405473
 20
20.44999945063826
 42
0.0
 10
17.59221184405464
 20
20.44999945063826
 42
0.4142135623731546
 10
18.11721184405473
 20
20.97499945063824
 42
0.0
 10
18.11721184405473
 20
22.72499945063826
 42
0.4142135623731586
 10
17.59221184405464
 20
23.24999945063826
 42
0.0
 10
14.09221184405476
 20
23.24999945063826
 42
0.4142135623730928
 10
11.2922118440548
 20
20.44999945063828
 42
0.0
 10
11.2922118440548
 20
18.63479742528301
 42
0.1989123673796619
 10
12.52236336307123
 20
15.66494894429941
 42
0.0
 10
15.43216133771591
 20
12.75515096965475
 42
-0.1989123673796613
 10
15.84221184405476
 20
11.76520147599356
 42
0.0
 10
15.84221184405476
 20
10.47499945063825
 42
-0.4142135623730911
 10
15.31721184405478
 20
9.949999450638259
 42
0.0
 10
12.34221184405487
 20
9.949999450638259
 42
0.4142135623731526
 10
11.81721184405478
 20
9.424999450638271
 42
0.0
 10
11.81721184405478
 20
7.674999450638249
 42
0.4142135623731526
 10
12.34221184405487
 20
7.149999450638262
 42
0.0
 10
15.84221184405476
 20
7.149999450638262
 42
0.4142135623731044
 10
18.64221184405482
 20
9.949999450638237
 42
0.0
 10
18.64221184405482
 20
11.76520147599351
 42
0.1989123673796604
 10
17.41206032503828
 20
14.73504995697705
 42
0.0
 97
        0
 92
        7
 72
     1
 73
     1
 93
       16
 10
23.5422118440548
 20
19.04999945063826
 42
-0.4142135623730935
 10
24.94221184405478
 20
20.44999945063826
 42
0.0
 10
26.86721184405473
 20
20.44999945063826
 42
0.4142135623731546
 10
27.39221184405483
 20
20.97499945063824
 42
0.0
 10
27.39221184405483
 20
22.72499945063826
 42
0.4142135623730951
 10
26.86721184405485
 20
23.24999945063826
 42
0.0
 10
24.94221184405466
 20
23.24999945063822
 42
0.4142135623730892
 10
20.74221184405473
 20
19.04999945063819
 42
0.0
 10
20.74221184405473
 20
11.34999945063828
 42
0.4142135623730969
 10
24.94221184405478
 20
7.149999450638262
 42
0.0
 10
26.86721184405473
 20
7.149999450638262
 42
0.4142135623731526
 10
27.39221184405483
 20
7.674999450638249
 42
0.0
 10
27.39221184405483
 20
9.424999450638271
 42
0.4142135623730891
 10
26.86721184405485
 20
9.949999450638259
 42
0.0
 10
24.94221184405478
 20
9.949999450638259
 42
-0.4142135623730928
 10
23.5422118440548
 20
11.34999945063824
 42
0.0
 97
        0
 92
        7
 72
     1
 73
     1
 93
        2
 10
24.24221184405473
 20
15.19999945063825
 42
1.0
 10
27.74221184405473
 20
15.19999945063825
 42
1.0
 97
        0
 92
        7
 72
     1
 73
     1
 93
       26
 10
37.31485832623275
 20
19.20504664420168
 42
0.0
 10
38.37649795937057
 20
22.56690548247128
 42
0.5069206636600134
 10
37.87586706017521
 20
23.24999945063826
 42
0.0
 10
36.17697768056598
 20
23.24999945063826
 42
0.3272098845218764
 10
35.67634678137062
 20
22.88309341880523
 42
0.0
 10
33.80807690673885
 20
16.96690548247134
 42
-0.3272098845219541
 10
33.30744600754337
 20
16.59999945063825
 42
0.0
 10
33.16721184405492
 20
16.59999945063825
 42
-0.4142135623731526
 10
32.64221184405482
 20
17.12499945063824
 42
0.0
 10
32.64221184405482
 20
22.72499945063826
 42
0.4142135623730951
 10
32.11721184405485
 20
23.24999945063826
 42
0.0
 10
30.36721184405474
 20
23.24999945063826
 42
0.4142135623730871
 10
29.84221184405475
 20
22.72499945063827
 42
0.0
 10
29.84221184405475
 20
7.674999450638249
 42
0.4142135623730891
 10
30.36721184405474
 20
7.149999450638262
 42
0.0
 10
32.11721184405473
 20
7.149999450638262
 42
0.4142135623731526
 10
32.64221184405482
 20
7.674999450638249
 42
0.0
 10
32.64221184405482
 20
13.27499945063827
 42
-0.4142135623731526
 10
33.16721184405492
 20
13.79999945063826
 42
0.0
 10
33.30744600754349
 20
13.79999945063826
 42
-0.3272098845218915
 10
33.80807690673885
 20
13.43309341880518
 42
0.0
 10
35.67634678137062
 20
7.516905482471333
 42
0.3272098845218902
 10
36.17697768056598
 20
7.149999450638262
 42
0.0
 10
37.87586706017521
 20
7.149999450638262
 42
0.5069206636600335
 10
38.37649795937057
 20
7.833093418805269
 42
0.0
 10
36.05010658089691
 20
15.19999945063839
 42
0.0
 97
        0
 92
        7
 72
     1
 73
     1
 93
        8
 10
43.49221184405474
 20
22.72499945063827
 42
0.4142135623731546
 10
42.96721184405464
 20
23.24999945063826
 42
0.0
 10
41.21721184405487
 20
23.24999945063826
 42
0.4142135623731507
 10
40.69221184405478
 20
22.72499945063827
 42
0.0
 10
40.69221184405478
 20
7.674999450638249
 42
0.4142135623731526
 10
41.21721184405487
 20
7.149999450638262
 42
0.0
 10
42.96721184405464
 20
7.149999450638262
 42
0.4142135623731526
 10
43.49221184405474
 20
7.674999450638249
 42
0.0
 97
        0
 92
        7
 72
     1
 73
     1
 93
       24
 10
48.39221184405483
 20
19.92499945063826
 42
-0.4142135623731546
 10
48.91721184405492
 20
20.44999945063826
 42
0.0
 10
51.89221184405482
 20
20.44999945063826
 42
0.4142135623730911
 10
52.41721184405481
 20
20.97499945063824
 42
0.0
 10
52.41721184405481
 20
22.72499945063826
 42
0.4142135623730952
 10
51.89221184405482
 20
23.24999945063826
 42
0.0
 10
48.39221184405483
 20
23.24999945063826
 42
0.4142135623731048
 10
45.59221184405475
 20
20.44999945063828
 42
0.0
 10
45.59221184405475
 20
18.63479742528301
 42
0.1989123673796613
 10
46.8223633630713
 20
15.66494894429946
 42
0.0
 10
49.73216133771598
 20
12.7551509696548
 42
-0.1989123673796402
 10
50.14221184405482
 20
11.76520147599372
 42
0.0
 10
50.14221184405482
 20
10.47499945063825
 42
-0.4142135623730911
 10
49.61721184405485
 20
9.949999450638259
 42
0.0
 10
46.64221184405483
 20
9.949999450638259
 42
0.4142135623731526
 10
46.11721184405474
 20
9.424999450638271
 42
0.0
 10
46.11721184405474
 20
7.674999450638249
 42
0.4142135623730891
 10
46.64221184405471
 20
7.149999450638262
 42
0.0
 10
50.14221184405482
 20
7.149999450638262
 42
0.4142135623730925
 10
52.94221184405478
 20
9.949999450638237
 42
0.0
 10
52.94221184405478
 20
11.76520147599351
 42
0.1989123673796675
 10
51.71206032503824
 20
14.73504995697716
 42
0.0
 10
48.80226235039367
 20
17.64484793162168
 42
-0.1989123673796652
 10
48.39221184405483
 20
18.63479742528284
 42
0.0
 97
        0
 92
        7
 72
     1
 73
     1
 93
       16
 10
57.84221184405476
 20
22.72499945063825
 42
0.414213562373103
 10
57.31721184405478
 20
23.24999945063826
 42
0.0
 10
55.56721184405478
 20
23.24999945063826
 42
0.4142135623730871
 10
55.0422118440548
 20
22.72499945063827
 42
0.0
 10
55.0422118440548
 20
9.949999450638237
 42
0.4142135623730926
 10
57.84221184405476
 20
7.149999450638262
 42
0.0
 10
61.34221184405475
 20
7.149999450638262
 42
0.4142135623731044
 10
64.14221184405483
 20
9.949999450638237
 42
0.0
 10
64.14221184405483
 20
22.72499945063826
 42
0.4142135623730951
 10
63.61721184405485
 20
23.24999945063826
 42
0.0
 10
61.86721184405474
 20
23.24999945063826
 42
0.4142135623730871
 10
61.34221184405475
 20
22.72499945063827
 42
0.0
 10
61.34221184405475
 20
10.99999945063823
 42
-0.414213562373088
 10
60.2922118440548
 20
9.949999450638259
 42
0.0
 10
58.89221184405482
 20
9.949999450638259
 42
-0.4142135623731197
 10
57.84221184405476
 20
10.99999945063823
 42
0.0
 97
        0
 92
        7
 72
     1
 73
     1
 93
        8
 10
69.0422118440548
 20
22.72499945063827
 42
0.4142135623730871
 10
68.51721184405483
 20
23.24999945063826
 42
0.0
 10
66.76721184405483
 20
23.24999945063826
 42
0.4142135623731507
 10
66.24221184405474
 20
22.72499945063827
 42
0.0
 10
66.24221184405474
 20
7.674999450638249
 42
0.4142135623730891
 10
66.76721184405471
 20
7.149999450638262
 42
0.0
 10
68.51721184405483
 20
7.149999450638262
 42
0.4142135623730891
 10
69.0422118440548
 20
7.674999450638249
 42
0.0
 97
        0
 75
     0
 76
     1
 52
0.0
 41
0.2
 77
     0
 78
     2
 53
45.0
 43
-900.9423046454053
 44
-13.20000054936167
 45
-0.4490128060534576
 46
0.4490128060534577
 79
     0
 53
135.0
 43
-900.9423046454053
 44
-13.20000054936167
 45
-0.4490128060534577
 46
-0.4490128060534576
 79
     0
 47
0.057451373970553
 98
        8
 10
16.07985465229694
 20
15.16717309652381
 10
22.4045146957128
 20
18.84406163308926
 10
25.16436757493329
 20
15.51188109670897
 10
30.91405967091077
 20
16.20129709707976
 10
41.83847170823037
 20
16.66090936462137
 10
46.89820058440318
 20
19.41857576704546
 10
56.55768566167399
 20
18.72915736573327
 10
67.82707930889637
 20
19.18876963327488
  0
LINE
  5
7CF
330
1A
100
AcDbEntity
  8
ZUWAKU
100
AcDbLine
 10
24.94221184405478
 20
23.24999945063822
 30
0.0
 11
26.86721184405473
 21
23.24999945063826
 31
0.0
  0
LINE
  5
7D0
330
1A
100
AcDbEntity
  8
ZUWAKU
100
AcDbLine
 10
26.86721184405473
 20
20.44999945063826
 30
0.0
 11
24.94221184405478
 21
20.44999945063826
 31
0.0
  0
LINE
  5
7D1
330
1A
100
AcDbEntity
  8
ZUWAKU
100
AcDbLine
 10
24.94221184405478
 20
9.949999450638259
 30
0.0
 11
26.86721184405473
 21
9.949999450638259
 31
0.0
  0
LINE
  5
7D2
330
1A
100
AcDbEntity
  8
ZUWAKU
100
AcDbLine
 10
26.86721184405473
 20
7.149999450638262
 30
0.0
 11
24.94221184405478
 21
7.149999450638262
 31
0.0
  0
CIRCLE
  5
7D3
330
1A
100
AcDbEntity
  8
ZUWAKU
100
AcDbCircle
 10
25.99221184405474
 20
15.19999945063825
 30
0.0
 40
1.75
  0
ARC
  5
7D4
330
1A
100
AcDbEntity
  8
ZUWAKU
100
AcDbCircle
 10
15.49221184405473
 20
18.63479742528296
 30
0.0
 40
1.399999999999999
100
AcDbArc
 50
180.0000000000016
 51
224.9999999999988
  0
LINE
  5
7D5
330
1A
100
AcDbEntity
  8
ZUWAKU
100
AcDbLine
 10
23.5422118440548
 20
19.04999945063826
 30
0.0
 11
23.5422118440548
 21
11.34999945063826
 31
0.0
  0
LINE
  5
7D6
330
1A
100
AcDbEntity
  8
ZUWAKU
100
AcDbLine
 10
20.74221184405473
 20
11.34999945063826
 30
0.0
 11
20.74221184405473
 21
19.04999945063821
 31
0.0
  0
ARC
  5
7D7
330
1A
100
AcDbEntity
  8
ZUWAKU
100
AcDbCircle
 10
15.49221184405473
 20
18.63479742528296
 30
0.0
 40
4.199999999999999
100
AcDbArc
 50
180.0
 51
225.0
  0
ARC
  5
7D8
330
1A
100
AcDbEntity
  8
ZUWAKU
100
AcDbCircle
 10
15.84221184405476
 20
9.949999450638259
 30
0.0
 40
2.799999999999999
100
AcDbArc
 50
270.0
 51
0.0
  0
ARC
  5
7D9
330
1A
100
AcDbEntity
  8
ZUWAKU
100
AcDbCircle
 10
24.94221184405478
 20
11.34999945063826
 30
0.0
 40
4.199999999999999
100
AcDbArc
 50
180.0
 51
270.0
  0
ARC
  5
7DA
330
1A
100
AcDbEntity
  8
ZUWAKU
100
AcDbCircle
 10
14.44221184405478
 20
11.76520147599356
 30
0.0
 40
4.199999999999999
100
AcDbArc
 50
0.0
 51
45.0
  0
LINE
  5
7DB
330
1A
100
AcDbEntity
  8
ZUWAKU
100
AcDbLine
 10
17.41206032503828
 20
14.73504995697708
 30
0.0
 11
14.5022623503936
 21
17.64484793162176
 31
0.0
  0
LINE
  5
7DC
330
1A
100
AcDbEntity
  8
ZUWAKU
100
AcDbLine
 10
15.84221184405476
 20
10.47499945063826
 30
0.0
 11
15.84221184405476
 21
11.7652014759936
 31
0.0
  0
ARC
  5
7DD
330
1A
100
AcDbEntity
  8
ZUWAKU
100
AcDbCircle
 10
15.31721184405478
 20
10.47499945063826
 30
0.0
 40
0.525
100
AcDbArc
 50
270.0
 51
0.0
  0
ARC
  5
7DE
330
1A
100
AcDbEntity
  8
ZUWAKU
100
AcDbCircle
 10
14.44221184405478
 20
11.7652014759936
 30
0.0
 40
1.399999999999999
100
AcDbArc
 50
0.0
 51
45.0
  0
LINE
  5
7DF
330
1A
100
AcDbEntity
  8
ZUWAKU
100
AcDbLine
 10
11.81721184405478
 20
7.67499945063826
 30
0.0
 11
11.81721184405478
 21
9.42499945063826
 31
0.0
  0
ARC
  5
7E0
330
1A
100
AcDbEntity
  8
ZUWAKU
100
AcDbCircle
 10
12.34221184405476
 20
7.67499945063826
 30
0.0
 40
0.525
100
AcDbArc
 50
180.0
 51
270.0
  0
ARC
  5
7E1
330
1A
100
AcDbEntity
  8
ZUWAKU
100
AcDbCircle
 10
12.34221184405476
 20
9.42499945063826
 30
0.0
 40
0.525
100
AcDbArc
 50
90.0
 51
180.0
  0
LINE
  5
7E2
330
1A
100
AcDbEntity
  8
ZUWAKU
100
AcDbLine
 10
12.34221184405476
 20
7.149999450638262
 30
0.0
 11
15.84221184405476
 21
7.149999450638262
 31
0.0
  0
LINE
  5
7E3
330
1A
100
AcDbEntity
  8
ZUWAKU
100
AcDbLine
 10
12.34221184405476
 20
9.949999450638259
 30
0.0
 11
15.31721184405478
 21
9.949999450638259
 31
0.0
  0
LINE
  5
7E4
330
1A
100
AcDbEntity
  8
ZUWAKU
100
AcDbLine
 10
12.52236336307123
 20
15.66494894429943
 30
0.0
 11
15.43216133771591
 21
12.75515096965477
 31
0.0
  0
LINE
  5
7E5
330
1A
100
AcDbEntity
  8
ZUWAKU
100
AcDbLine
 10
18.64221184405482
 20
9.949999450638259
 30
0.0
 11
18.64221184405482
 21
11.7652014759936
 31
0.0
  0
ARC
  5
7E6
330
1A
100
AcDbEntity
  8
ZUWAKU
100
AcDbCircle
 10
24.94221184405478
 20
11.34999945063826
 30
0.0
 40
1.399999999999999
100
AcDbArc
 50
180.0
 51
270.0
  0
ARC
  5
7E7
330
1A
100
AcDbEntity
  8
ZUWAKU
100
AcDbCircle
 10
17.59221184405475
 20
22.72499945063825
 30
0.0
 40
0.525
100
AcDbArc
 50
0.0
 51
90.0
  0
ARC
  5
7E8
330
1A
100
AcDbEntity
  8
ZUWAKU
100
AcDbCircle
 10
17.59221184405475
 20
20.97499945063825
 30
0.0
 40
0.525
100
AcDbArc
 50
270.0
 51
0.0
  0
LINE
  5
7E9
330
1A
100
AcDbEntity
  8
ZUWAKU
100
AcDbLine
 10
14.09221184405476
 20
23.24999945063826
 30
0.0
 11
17.59221184405475
 21
23.24999945063826
 31
0.0
  0
ARC
  5
7EA
330
1A
100
AcDbEntity
  8
ZUWAKU
100
AcDbCircle
 10
14.61721184405473
 20
19.92499945063826
 30
0.0
 40
0.525
100
AcDbArc
 50
90.0
 51
180.0
  0
LINE
  5
7EB
330
1A
100
AcDbEntity
  8
ZUWAKU
100
AcDbLine
 10
14.09221184405476
 20
19.92499945063826
 30
0.0
 11
14.09221184405476
 21
18.63479742528292
 31
0.0
  0
LINE
  5
7EC
330
1A
100
AcDbEntity
  8
ZUWAKU
100
AcDbLine
 10
17.59221184405475
 20
20.44999945063826
 30
0.0
 11
14.61721184405473
 21
20.44999945063826
 31
0.0
  0
LINE
  5
7ED
330
1A
100
AcDbEntity
  8
ZUWAKU
100
AcDbLine
 10
11.2922118440548
 20
20.44999945063826
 30
0.0
 11
11.2922118440548
 21
18.63479742528292
 31
0.0
  0
ARC
  5
7EE
330
1A
100
AcDbEntity
  8
ZUWAKU
100
AcDbCircle
 10
14.09221184405476
 20
20.44999945063826
 30
0.0
 40
2.799999999999999
100
AcDbArc
 50
90.0
 51
180.0
  0
LINE
  5
7EF
330
1A
100
AcDbEntity
  8
ZUWAKU
100
AcDbLine
 10
18.11721184405473
 20
22.72499945063825
 30
0.0
 11
18.11721184405473
 21
20.97499945063825
 31
0.0
  0
ARC
  5
7F0
330
1A
100
AcDbEntity
  8
ZUWAKU
100
AcDbCircle
 10
24.94221184405478
 20
19.04999945063826
 30
0.0
 40
1.399999999999999
100
AcDbArc
 50
90.0
 51
180.0
  0
ARC
  5
7F1
330
1A
100
AcDbEntity
  8
ZUWAKU
100
AcDbCircle
 10
24.94221184405478
 20
19.04999945063821
 30
0.0
 40
4.199999999999999
100
AcDbArc
 50
90.0
 51
180.0
  0
LINE
  5
7F2
330
1A
100
AcDbEntity
  8
ZUWAKU
100
AcDbLine
 10
79.32662923726184
 20
29.99999945063825
 30
0.0
 11
79.32662923726207
 21
0.7999994506383246
 31
0.0
  0
LINE
  5
7F3
330
1A
100
AcDbEntity
  8
ZUWAKU
100
AcDbLine
 10
79.52662923726188
 20
29.99999945063825
 30
0.0
 11
79.52662923726212
 21
0.7999994506383246
 31
0.0
  0
LINE
  5
7F4
330
1A
100
AcDbEntity
  8
ZUWAKU
100
AcDbLine
 10
79.12662923726202
 20
29.99999945063825
 30
0.0
 11
79.12662923726202
 21
0.7999994506383246
 31
0.0
  0
LINE
  5
7F5
330
1A
100
AcDbEntity
  8
ZUWAKU
100
AcDbLine
 10
64.14221184405483
 20
9.949999450638259
 30
0.0
 11
64.14221184405483
 21
22.72499945063825
 31
0.0
  0
LINE
  5
7F6
330
1A
100
AcDbEntity
  8
ZUWAKU
100
AcDbLine
 10
61.34221184405475
 20
22.72499945063825
 30
0.0
 11
61.34221184405475
 21
10.99999945063825
 31
0.0
  0
LINE
  5
7F7
330
1A
100
AcDbEntity
  8
ZUWAKU
100
AcDbLine
 10
69.0422118440548
 20
7.67499945063826
 30
0.0
 11
69.0422118440548
 21
22.72499945063825
 31
0.0
  0
LINE
  5
7F8
330
1A
100
AcDbEntity
  8
ZUWAKU
100
AcDbLine
 10
66.24221184405474
 20
22.72499945063825
 30
0.0
 11
66.24221184405474
 21
7.67499945063826
 31
0.0
  0
ARC
  5
7F9
330
1A
100
AcDbEntity
  8
ZUWAKU
100
AcDbCircle
 10
49.79221184405481
 20
18.63479742528296
 30
0.0
 40
1.399999999999999
100
AcDbArc
 50
180.0000000000016
 51
224.9999999999988
  0
ARC
  5
7FA
330
1A
100
AcDbEntity
  8
ZUWAKU
100
AcDbCircle
 10
49.79221184405481
 20
18.63479742528296
 30
0.0
 40
4.199999999999999
100
AcDbArc
 50
180.0
 51
225.0
  0
LINE
  5
7FB
330
1A
100
AcDbEntity
  8
ZUWAKU
100
AcDbLine
 10
37.31485832623275
 20
19.20504664420168
 30
0.0
 11
36.05010658089691
 21
15.19999945063828
 31
0.0
  0
LINE
  5
7FC
330
1A
100
AcDbEntity
  8
ZUWAKU
100
AcDbLine
 10
40.69221184405478
 20
22.72499945063825
 30
0.0
 11
40.69221184405478
 21
7.67499945063826
 31
0.0
  0
LINE
  5
7FD
330
1A
100
AcDbEntity
  8
ZUWAKU
100
AcDbLine
 10
43.49221184405474
 20
7.67499945063826
 30
0.0
 11
43.49221184405474
 21
22.72499945063825
 31
0.0
  0
LINE
  5
7FE
330
1A
100
AcDbEntity
  8
ZUWAKU
100
AcDbLine
 10
55.0422118440548
 20
22.72499945063825
 30
0.0
 11
55.0422118440548
 21
9.949999450638259
 31
0.0
  0
LINE
  5
7FF
330
1A
100
AcDbEntity
  8
ZUWAKU
100
AcDbLine
 10
57.84221184405476
 20
10.99999945063825
 30
0.0
 11
57.84221184405476
 21
22.72499945063825
 31
0.0
  0
LINE
  5
800
330
1A
100
AcDbEntity
  8
ZUWAKU
100
AcDbLine
 10
32.64221184405482
 20
17.12499945063826
 30
0.0
 11
32.64221184405482
 21
22.72499945063825
 31
0.0
  0
LINE
  5
801
330
1A
100
AcDbEntity
  8
ZUWAKU
100
AcDbLine
 10
29.84221184405475
 20
22.72499945063825
 30
0.0
 11
29.84221184405475
 21
7.67499945063826
 31
0.0
  0
LINE
  5
802
330
1A
100
AcDbEntity
  8
ZUWAKU
100
AcDbLine
 10
35.67634678137062
 20
22.88309341880523
 30
0.0
 11
33.80807690673885
 21
16.96690548247129
 31
0.0
  0
LINE
  5
803
330
1A
100
AcDbEntity
  8
ZUWAKU
100
AcDbLine
 10
60.2922118440548
 20
9.949999450638259
 30
0.0
 11
58.89221184405482
 21
9.949999450638259
 31
0.0
  0
LINE
  5
804
330
1A
100
AcDbEntity
  8
ZUWAKU
100
AcDbLine
 10
57.84221184405476
 20
7.149999450638262
 30
0.0
 11
61.34221184405475
 21
7.149999450638262
 31
0.0
  0
LINE
  5
805
330
1A
100
AcDbEntity
  8
ZUWAKU
100
AcDbLine
 10
41.21721184405475
 20
7.149999450638262
 30
0.0
 11
42.96721184405476
 21
7.149999450638262
 31
0.0
  0
LINE
  5
806
330
1A
100
AcDbEntity
  8
ZUWAKU
100
AcDbLine
 10
35.67634678137062
 20
7.516905482471287
 30
0.0
 11
33.80807690673885
 21
13.43309341880522
 31
0.0
  0
ARC
  5
807
330
1A
100
AcDbEntity
  8
ZUWAKU
100
AcDbCircle
 10
33.30744600754349
 20
17.12499945063826
 30
0.0
 40
0.525
100
AcDbArc
 50
270.0
 51
342.4744316262769
  0
LINE
  5
808
330
1A
100
AcDbEntity
  8
ZUWAKU
100
AcDbLine
 10
33.30744600754349
 20
16.59999945063825
 30
0.0
 11
33.1672118440548
 21
16.59999945063825
 31
0.0
  0
LINE
  5
809
330
1A
100
AcDbEntity
  8
ZUWAKU
100
AcDbLine
 10
33.1672118440548
 20
13.79999945063826
 30
0.0
 11
33.30744600754349
 21
13.79999945063826
 31
0.0
  0
ARC
  5
80A
330
1A
100
AcDbEntity
  8
ZUWAKU
100
AcDbCircle
 10
33.1672118440548
 20
17.12499945063826
 30
0.0
 40
0.525
100
AcDbArc
 50
180.0
 51
270.0
  0
LINE
  5
80B
330
1A
100
AcDbEntity
  8
ZUWAKU
100
AcDbLine
 10
30.36721184405474
 20
7.149999450638262
 30
0.0
 11
32.11721184405473
 21
7.149999450638262
 31
0.0
  0
ARC
  5
80C
330
1A
100
AcDbEntity
  8
ZUWAKU
100
AcDbCircle
 10
32.11721184405473
 20
7.67499945063826
 30
0.0
 40
0.525
100
AcDbArc
 50
270.0
 51
0.0
  0
LINE
  5
80D
330
1A
100
AcDbEntity
  8
ZUWAKU
100
AcDbLine
 10
32.64221184405482
 20
7.67499945063826
 30
0.0
 11
32.64221184405482
 21
13.27499945063826
 31
0.0
  0
LINE
  5
80E
330
1A
100
AcDbEntity
  8
ZUWAKU
100
AcDbLine
 10
27.39221184405483
 20
9.42499945063826
 30
0.0
 11
27.39221184405483
 21
7.67499945063826
 31
0.0
  0
ARC
  5
80F
330
1A
100
AcDbEntity
  8
ZUWAKU
100
AcDbCircle
 10
26.86721184405473
 20
7.67499945063826
 30
0.0
 40
0.525
100
AcDbArc
 50
270.0
 51
0.0
  0
ARC
  5
810
330
1A
100
AcDbEntity
  8
ZUWAKU
100
AcDbCircle
 10
26.86721184405473
 20
9.42499945063826
 30
0.0
 40
0.525
100
AcDbArc
 50
0.0
 51
90.0
  0
ARC
  5
811
330
1A
100
AcDbEntity
  8
ZUWAKU
100
AcDbCircle
 10
30.36721184405474
 20
7.67499945063826
 30
0.0
 40
0.525
100
AcDbArc
 50
180.0
 51
270.0
  0
ARC
  5
812
330
1A
100
AcDbEntity
  8
ZUWAKU
100
AcDbCircle
 10
33.30744600754349
 20
13.27499945063826
 30
0.0
 40
0.525
100
AcDbArc
 50
17.52556837372303
 51
90.0
  0
ARC
  5
813
330
1A
100
AcDbEntity
  8
ZUWAKU
100
AcDbCircle
 10
33.1672118440548
 20
13.27499945063826
 30
0.0
 40
0.525
100
AcDbArc
 50
90.0
 51
180.0
  0
ARC
  5
814
330
1A
100
AcDbEntity
  8
ZUWAKU
100
AcDbCircle
 10
41.21721184405475
 20
7.67499945063826
 30
0.0
 40
0.525
100
AcDbArc
 50
180.0
 51
270.0
  0
LINE
  5
815
330
1A
100
AcDbEntity
  8
ZUWAKU
100
AcDbLine
 10
36.1769776805661
 20
7.149999450638262
 30
0.0
 11
37.87586706017509
 21
7.149999450638262
 31
0.0
  0
ARC
  5
816
330
1A
100
AcDbEntity
  8
ZUWAKU
100
AcDbCircle
 10
37.87586706017509
 20
7.67499945063826
 30
0.0
 40
0.525
100
AcDbArc
 50
270.0
 51
17.52556837372303
  0
LINE
  5
817
330
1A
100
AcDbEntity
  8
ZUWAKU
100
AcDbLine
 10
38.37649795937057
 20
7.833093418805233
 30
0.0
 11
36.05010658089691
 21
15.19999945063828
 31
0.0
  0
ARC
  5
818
330
1A
100
AcDbEntity
  8
ZUWAKU
100
AcDbCircle
 10
36.1769776805661
 20
7.67499945063826
 30
0.0
 40
0.525
100
AcDbArc
 50
197.525568373723
 51
270.0
  0
ARC
  5
819
330
1A
100
AcDbEntity
  8
ZUWAKU
100
AcDbCircle
 10
57.84221184405476
 20
9.949999450638259
 30
0.0
 40
2.799999999999999
100
AcDbArc
 50
180.0
 51
270.0
  0
ARC
  5
81A
330
1A
100
AcDbEntity
  8
ZUWAKU
100
AcDbCircle
 10
50.14221184405482
 20
9.949999450638259
 30
0.0
 40
2.799999999999999
100
AcDbArc
 50
270.0
 51
0.0
  0
LINE
  5
81B
330
1A
100
AcDbEntity
  8
ZUWAKU
100
AcDbLine
 10
51.71206032503835
 20
14.73504995697708
 30
0.0
 11
48.80226235039356
 21
17.64484793162176
 31
0.0
  0
LINE
  5
81C
330
1A
100
AcDbEntity
  8
ZUWAKU
100
AcDbLine
 10
50.14221184405482
 20
10.47499945063826
 30
0.0
 11
50.14221184405482
 21
11.7652014759936
 31
0.0
  0
ARC
  5
81D
330
1A
100
AcDbEntity
  8
ZUWAKU
100
AcDbCircle
 10
48.74221184405474
 20
11.7652014759936
 30
0.0
 40
1.399999999999999
100
AcDbArc
 50
0.0
 51
45.0
  0
ARC
  5
81E
330
1A
100
AcDbEntity
  8
ZUWAKU
100
AcDbCircle
 10
49.61721184405473
 20
10.47499945063826
 30
0.0
 40
0.525
100
AcDbArc
 50
270.0
 51
0.0
  0
LINE
  5
81F
330
1A
100
AcDbEntity
  8
ZUWAKU
100
AcDbLine
 10
46.11721184405474
 20
7.67499945063826
 30
0.0
 11
46.11721184405474
 21
9.42499945063826
 31
0.0
  0
ARC
  5
820
330
1A
100
AcDbEntity
  8
ZUWAKU
100
AcDbCircle
 10
46.64221184405483
 20
7.67499945063826
 30
0.0
 40
0.525
100
AcDbArc
 50
180.0
 51
270.0
  0
ARC
  5
821
330
1A
100
AcDbEntity
  8
ZUWAKU
100
AcDbCircle
 10
42.96721184405476
 20
7.67499945063826
 30
0.0
 40
0.525
100
AcDbArc
 50
270.0
 51
0.0
  0
ARC
  5
822
330
1A
100
AcDbEntity
  8
ZUWAKU
100
AcDbCircle
 10
46.64221184405483
 20
9.42499945063826
 30
0.0
 40
0.525
100
AcDbArc
 50
90.0
 51
180.0
  0
LINE
  5
823
330
1A
100
AcDbEntity
  8
ZUWAKU
100
AcDbLine
 10
46.64221184405483
 20
9.949999450638259
 30
0.0
 11
49.61721184405473
 21
9.949999450638259
 31
0.0
  0
LINE
  5
824
330
1A
100
AcDbEntity
  8
ZUWAKU
100
AcDbLine
 10
46.64221184405483
 20
7.149999450638262
 30
0.0
 11
50.14221184405482
 21
7.149999450638262
 31
0.0
  0
LINE
  5
825
330
1A
100
AcDbEntity
  8
ZUWAKU
100
AcDbLine
 10
46.8223633630713
 20
15.66494894429943
 30
0.0
 11
49.73216133771598
 21
12.75515096965477
 31
0.0
  0
LINE
  5
826
330
1A
100
AcDbEntity
  8
ZUWAKU
100
AcDbLine
 10
52.94221184405478
 20
9.949999450638259
 30
0.0
 11
52.94221184405478
 21
11.7652014759936
 31
0.0
  0
ARC
  5
827
330
1A
100
AcDbEntity
  8
ZUWAKU
100
AcDbCircle
 10
48.74221184405474
 20
11.76520147599356
 30
0.0
 40
4.199999999999999
100
AcDbArc
 50
0.0
 51
45.0
  0
ARC
  5
828
330
1A
100
AcDbEntity
  8
ZUWAKU
100
AcDbCircle
 10
58.89221184405482
 20
10.99999945063825
 30
0.0
 40
1.049999999999999
100
AcDbArc
 50
180.0
 51
270.0
  0
ARC
  5
829
330
1A
100
AcDbEntity
  8
ZUWAKU
100
AcDbCircle
 10
61.34221184405475
 20
9.949999450638259
 30
0.0
 40
2.799999999999999
100
AcDbArc
 50
270.0
 51
0.0
  0
LINE
  5
82A
330
1A
100
AcDbEntity
  8
ZUWAKU
100
AcDbLine
 10
66.76721184405483
 20
7.149999450638262
 30
0.0
 11
68.51721184405483
 21
7.149999450638262
 31
0.0
  0
ARC
  5
82B
330
1A
100
AcDbEntity
  8
ZUWAKU
100
AcDbCircle
 10
66.76721184405483
 20
7.67499945063826
 30
0.0
 40
0.525
100
AcDbArc
 50
180.0
 51
270.0
  0
ARC
  5
82C
330
1A
100
AcDbEntity
  8
ZUWAKU
100
AcDbCircle
 10
60.2922118440548
 20
10.99999945063825
 30
0.0
 40
1.049999999999999
100
AcDbArc
 50
270.0
 51
0.0
  0
ARC
  5
82D
330
1A
100
AcDbEntity
  8
ZUWAKU
100
AcDbCircle
 10
68.51721184405483
 20
7.67499945063826
 30
0.0
 40
0.525
100
AcDbArc
 50
270.0
 51
0.0
  0
LINE
  5
82E
330
1A
100
AcDbEntity
  8
ZUWAKU
100
AcDbLine
 10
42.96721184405476
 20
23.24999945063826
 30
0.0
 11
41.21721184405475
 21
23.24999945063826
 31
0.0
  0
ARC
  5
82F
330
1A
100
AcDbEntity
  8
ZUWAKU
100
AcDbCircle
 10
32.11721184405473
 20
22.72499945063825
 30
0.0
 40
0.525
100
AcDbArc
 50
0.0
 51
90.0
  0
LINE
  5
830
330
1A
100
AcDbEntity
  8
ZUWAKU
100
AcDbLine
 10
32.11721184405473
 20
23.24999945063826
 30
0.0
 11
30.36721184405474
 21
23.24999945063826
 31
0.0
  0
ARC
  5
831
330
1A
100
AcDbEntity
  8
ZUWAKU
100
AcDbCircle
 10
26.86721184405473
 20
22.72499945063825
 30
0.0
 40
0.525
100
AcDbArc
 50
0.0
 51
90.0
  0
ARC
  5
832
330
1A
100
AcDbEntity
  8
ZUWAKU
100
AcDbCircle
 10
30.36721184405474
 20
22.72499945063825
 30
0.0
 40
0.525
100
AcDbArc
 50
90.0
 51
180.0
  0
ARC
  5
833
330
1A
100
AcDbEntity
  8
ZUWAKU
100
AcDbCircle
 10
26.86721184405473
 20
20.97499945063825
 30
0.0
 40
0.525
100
AcDbArc
 50
270.0
 51
0.0
  0
LINE
  5
834
330
1A
100
AcDbEntity
  8
ZUWAKU
100
AcDbLine
 10
27.39221184405483
 20
22.72499945063825
 30
0.0
 11
27.39221184405483
 21
20.97499945063825
 31
0.0
  0
ARC
  5
835
330
1A
100
AcDbEntity
  8
ZUWAKU
100
AcDbCircle
 10
41.21721184405475
 20
22.72499945063825
 30
0.0
 40
0.525
100
AcDbArc
 50
90.0
 51
180.0
  0
LINE
  5
836
330
1A
100
AcDbEntity
  8
ZUWAKU
100
AcDbLine
 10
36.1769776805661
 20
23.24999945063826
 30
0.0
 11
37.87586706017509
 21
23.24999945063826
 31
0.0
  0
ARC
  5
837
330
1A
100
AcDbEntity
  8
ZUWAKU
100
AcDbCircle
 10
37.87586706017509
 20
22.72499945063825
 30
0.0
 40
0.525
100
AcDbArc
 50
342.4744316262769
 51
90.0
  0
LINE
  5
838
330
1A
100
AcDbEntity
  8
ZUWAKU
100
AcDbLine
 10
38.37649795937057
 20
22.56690548247129
 30
0.0
 11
37.31485832623275
 21
19.20504664420168
 31
0.0
  0
ARC
  5
839
330
1A
100
AcDbEntity
  8
ZUWAKU
100
AcDbCircle
 10
36.1769776805661
 20
22.72499945063825
 30
0.0
 40
0.525
100
AcDbArc
 50
90.0
 51
162.4744316262769
  0
LINE
  5
83A
330
1A
100
AcDbEntity
  8
ZUWAKU
100
AcDbLine
 10
48.39221184405483
 20
23.24999945063826
 30
0.0
 11
51.89221184405482
 21
23.24999945063826
 31
0.0
  0
LINE
  5
83B
330
1A
100
AcDbEntity
  8
ZUWAKU
100
AcDbLine
 10
51.89221184405482
 20
20.44999945063826
 30
0.0
 11
48.9172118440548
 21
20.44999945063826
 31
0.0
  0
ARC
  5
83C
330
1A
100
AcDbEntity
  8
ZUWAKU
100
AcDbCircle
 10
48.9172118440548
 20
19.92499945063826
 30
0.0
 40
0.525
100
AcDbArc
 50
90.0
 51
180.0
  0
LINE
  5
83D
330
1A
100
AcDbEntity
  8
ZUWAKU
100
AcDbLine
 10
48.39221184405483
 20
19.92499945063826
 30
0.0
 11
48.39221184405483
 21
18.63479742528292
 31
0.0
  0
ARC
  5
83E
330
1A
100
AcDbEntity
  8
ZUWAKU
100
AcDbCircle
 10
42.96721184405476
 20
22.72499945063825
 30
0.0
 40
0.525
100
AcDbArc
 50
0.0
 51
90.0
  0
LINE
  5
83F
330
1A
100
AcDbEntity
  8
ZUWAKU
100
AcDbLine
 10
45.59221184405475
 20
20.44999945063826
 30
0.0
 11
45.59221184405475
 21
18.63479742528292
 31
0.0
  0
ARC
  5
840
330
1A
100
AcDbEntity
  8
ZUWAKU
100
AcDbCircle
 10
48.39221184405483
 20
20.44999945063826
 30
0.0
 40
2.799999999999999
100
AcDbArc
 50
90.0
 51
180.0
  0
ARC
  5
841
330
1A
100
AcDbEntity
  8
ZUWAKU
100
AcDbCircle
 10
57.31721184405478
 20
22.72499945063825
 30
0.0
 40
0.525
100
AcDbArc
 50
0.0
 51
90.0
  0
ARC
  5
842
330
1A
100
AcDbEntity
  8
ZUWAKU
100
AcDbCircle
 10
55.56721184405478
 20
22.72499945063825
 30
0.0
 40
0.525
100
AcDbArc
 50
90.0
 51
180.0
  0
LINE
  5
843
330
1A
100
AcDbEntity
  8
ZUWAKU
100
AcDbLine
 10
57.31721184405478
 20
23.24999945063826
 30
0.0
 11
55.56721184405478
 21
23.24999945063826
 31
0.0
  0
ARC
  5
844
330
1A
100
AcDbEntity
  8
ZUWAKU
100
AcDbCircle
 10
51.89221184405482
 20
22.72499945063825
 30
0.0
 40
0.525
100
AcDbArc
 50
0.0
 51
90.0
  0
ARC
  5
845
330
1A
100
AcDbEntity
  8
ZUWAKU
100
AcDbCircle
 10
51.89221184405482
 20
20.97499945063825
 30
0.0
 40
0.525
100
AcDbArc
 50
270.0
 51
0.0
  0
LINE
  5
846
330
1A
100
AcDbEntity
  8
ZUWAKU
100
AcDbLine
 10
52.41721184405481
 20
22.72499945063825
 30
0.0
 11
52.41721184405481
 21
20.97499945063825
 31
0.0
  0
LINE
  5
847
330
1A
100
AcDbEntity
  8
ZUWAKU
100
AcDbLine
 10
68.51721184405483
 20
23.24999945063826
 30
0.0
 11
66.76721184405483
 21
23.24999945063826
 31
0.0
  0
ARC
  5
848
330
1A
100
AcDbEntity
  8
ZUWAKU
100
AcDbCircle
 10
66.76721184405483
 20
22.72499945063825
 30
0.0
 40
0.525
100
AcDbArc
 50
90.0
 51
180.0
  0
ARC
  5
849
330
1A
100
AcDbEntity
  8
ZUWAKU
100
AcDbCircle
 10
63.61721184405474
 20
22.72499945063825
 30
0.0
 40
0.525
100
AcDbArc
 50
0.0
 51
90.0
  0
LINE
  5
84A
330
1A
100
AcDbEntity
  8
ZUWAKU
100
AcDbLine
 10
63.61721184405474
 20
23.24999945063826
 30
0.0
 11
61.86721184405474
 21
23.24999945063826
 31
0.0
  0
ARC
  5
84B
330
1A
100
AcDbEntity
  8
ZUWAKU
100
AcDbCircle
 10
61.86721184405474
 20
22.72499945063825
 30
0.0
 40
0.525
100
AcDbArc
 50
90.0
 51
180.0
  0
ARC
  5
84C
330
1A
100
AcDbEntity
  8
ZUWAKU
100
AcDbCircle
 10
68.51721184405483
 20
22.72499945063825
 30
0.0
 40
0.525
100
AcDbArc
 50
0.0
 51
90.0
  0
TEXT
  5
84D
330
1A
100
AcDbEntity
  8
MOJI
100
AcDbText
 10
239.8272023701247
 20
18.00492050804564
 30
0.0
 40
5.599999999999999
  1
じょうご
 41
0.9
  7
ｽﾀｲﾙ1
100
AcDbText
  0
TEXT
  5
84E
330
1A
100
AcDbEntity
  8
MOJI
100
AcDbText
 10
239.8272023701247
 20
3.204920508045677
 30
0.0
 40
5.599999999999999
  1
ＲＶ１０５－ＵＴ６０
 41
0.9
  7
ｽﾀｲﾙ1
100
AcDbText
  0
LINE
  5
84F
330
1A
100
AcDbEntity
  8
ZUWAKU
100
AcDbLine
 10
208.2466009793415
 20
29.99999945063825
 30
0.0
 11
208.2466009793415
 21
0.7999994506383246
 31
0.0
  0
LINE
  5
850
330
1A
100
AcDbEntity
  8
ZUWAKU
100
AcDbLine
 10
208.6466009793414
 20
29.99999945063825
 30
0.0
 11
208.6466009793416
 21
0.7999994506383246
 31
0.0
  0
LINE
  5
851
330
1A
100
AcDbEntity
  8
ZUWAKU
100
AcDbLine
 10
208.4466009793414
 20
29.99999945063825
 30
0.0
 11
208.4466009793416
 21
0.7999994506383246
 31
0.0
  0
TEXT
  5
852
330
1A
100
AcDbEntity
  8
ZUWAKU
100
AcDbText
 10
209.7240460015512
 20
9.655355989023874
 30
0.0
 40
4.0
  1
サイズ
 41
0.9
  7
ｽﾀｲﾙ1
100
AcDbText
  0
TEXT
  5
853
330
1A
100
AcDbEntity
  8
ZUWAKU
100
AcDbText
 10
209.7240460015509
 20
24.05535598902384
 30
0.0
 40
4.0
  1
品名
 41
0.9
  7
ｽﾀｲﾙ1
100
AcDbText
  0
LINE
  5
854
330
1A
100
AcDbEntity
  8
ZUWAKU
100
AcDbLine
 10
648.8172021994778
 20
15.19999945063828
 30
0.0
 11
697.2490102378149
 21
15.19999945063829
 31
0.0
  0
LINE
  5
855
330
1A
100
AcDbEntity
  8
ZUWAKU
100
AcDbLine
 10
648.817202199478
 20
15.39999945063829
 30
0.0
 11
697.2490102378149
 21
15.39999945063829
 31
0.0
  0
LINE
  5
856
330
1A
100
AcDbEntity
  8
ZUWAKU
100
AcDbLine
 10
648.8172021994778
 20
15.59999945063829
 30
0.0
 11
697.2490102378149
 21
15.59999945063829
 31
0.0
  0
TEXT
  5
857
330
1A
100
AcDbEntity
  8
ZUWAKU
100
AcDbText
 10
658.203937376576
 20
18.00492050804564
 30
0.0
 40
5.599999999999999
  1
　　．　　．　　
 41
0.9
  7
ｽﾀｲﾙ1
100
AcDbText
  0
TEXT
  5
858
330
1A
100
AcDbEntity
  8
SUNPOU
100
AcDbText
 10
661.9071641742184
 20
36.65388898337175
 30
0.0
 40
6.0
  1
※b　エルボの差込み寸法を示す
100
AcDbText
  0
TEXT
  5
859
330
1A
100
AcDbEntity
  8
SUNPOU
100
AcDbText
 10
661.9071641742184
 20
46.25388898337178
 30
0.0
 40
6.0
  1
※a　のきといの縁切り間隔寸法を示す
100
AcDbText
  0
LINE
  5
85A
330
1A
100
AcDbEntity
  8
ZUWAKU
100
AcDbLine
 10
505.1991791874145
 20
15.19999945063829
 30
0.0
 11
552.5269554553861
 21
15.19999945063829
 31
0.0
  0
LINE
  5
85B
330
1A
100
AcDbEntity
  8
ZUWAKU
100
AcDbLine
 10
505.1991791874145
 20
15.39999945063829
 30
0.0
 11
552.5269554553861
 21
15.39999945063829
 31
0.0
  0
LINE
  5
85C
330
1A
100
AcDbEntity
  8
ZUWAKU
100
AcDbLine
 10
505.1991791874145
 20
15.59999945063829
 30
0.0
 11
552.5269554553861
 21
15.59999945063829
 31
0.0
  0
TEXT
  5
85D
330
1A
100
AcDbEntity
  8
MOJI
100
AcDbText
 10
464.5946256925126
 20
11.94261717229824
 30
0.0
 40
5.599999999999999
  1
ＧＱ７６□
 41
0.9
  7
ｽﾀｲﾙ1
100
AcDbText
  0
LINE
  5
85E
330
1A
100
AcDbEntity
  8
ZUWAKU
100
AcDbLine
 10
447.6243636602649
 20
29.99999945063825
 30
0.0
 11
447.624363660265
 21
0.7999994506383246
 31
0.0
  0
LINE
  5
85F
330
1A
100
AcDbEntity
  8
ZUWAKU
100
AcDbLine
 10
447.8243636602648
 20
29.99999945063825
 30
0.0
 11
447.8243636602651
 21
0.7999994506383246
 31
0.0
  0
LINE
  5
860
330
1A
100
AcDbEntity
  8
ZUWAKU
100
AcDbLine
 10
447.424363660265
 20
29.99999945063825
 30
0.0
 11
447.424363660265
 21
0.7999994506383246
 31
0.0
  0
TEXT
  5
861
330
1A
100
AcDbEntity
  8
MOJI
100
AcDbText
 10
528.0409076615865
 20
18.00492050804564
 30
0.0
 40
5.599999999999999
  1
Ａ３
 41
0.9
  7
ｽﾀｲﾙ1
100
AcDbText
  0
LINE
  5
862
330
1A
100
AcDbEntity
  8
ZUWAKU
100
AcDbLine
 10
504.9991791874145
 20
29.99999945063825
 30
0.0
 11
504.9991791874147
 21
0.7999994506383246
 31
0.0
  0
LINE
  5
863
330
1A
100
AcDbEntity
  8
ZUWAKU
100
AcDbLine
 10
505.1991791874145
 20
29.99999945063825
 30
0.0
 11
505.1991791874147
 21
0.7999994506383246
 31
0.0
  0
LINE
  5
864
330
1A
100
AcDbEntity
  8
ZUWAKU
100
AcDbLine
 10
504.7991791874146
 20
29.99999945063825
 30
0.0
 11
504.7991791874146
 21
0.7999994506383246
 31
0.0
  0
TEXT
  5
865
330
1A
100
AcDbEntity
  8
ZUWAKU
100
AcDbText
 10
462.6937613447807
 20
2.614070361777748
 30
0.0
 40
3.0
  1
□には色品番が入ります
 41
0.9
  7
ｽﾀｲﾙ1
100
AcDbText
  0
TEXT
  5
866
330
1A
100
AcDbEntity
  8
ZUWAKU
100
AcDbText
 10
506.6766242096243
 20
9.655355989023874
 30
0.0
 40
4.0
  1
縮尺
 41
0.9
  7
ｽﾀｲﾙ1
100
AcDbText
  0
TEXT
  5
867
330
1A
100
AcDbEntity
  8
MOJI
100
AcDbText
 10
528.0409076615865
 20
3.204920508045677
 30
0.0
 40
5.599999999999999
  1
１/２
 41
0.9
  7
ｽﾀｲﾙ1
100
AcDbText
  0
TEXT
  5
868
330
1A
100
AcDbEntity
  8
ZUWAKU
100
AcDbText
 10
449.3018086824745
 20
24.05535598902384
 30
0.0
 40
4.0
  1
品番
 41
0.9
  7
ｽﾀｲﾙ1
100
AcDbText
  0
TEXT
  5
869
330
1A
100
AcDbEntity
  8
ZUWAKU
100
AcDbText
 10
506.6766242096242
 20
24.05535598902384
 30
0.0
 40
4.0
  1
用紙
 41
0.9
  7
ｽﾀｲﾙ1
100
AcDbText
  0
LINE
  5
86A
330
1A
100
AcDbEntity
  8
ZUWAKU
100
AcDbLine
 10
648.617202199478
 20
29.99999945063825
 30
0.0
 11
648.6172021994782
 21
0.7999994506383246
 31
0.0
  0
LINE
  5
86B
330
1A
100
AcDbEntity
  8
ZUWAKU
100
AcDbLine
 10
648.817202199478
 20
29.99999945063825
 30
0.0
 11
648.8172021994783
 21
0.7999994506383246
 31
0.0
  0
LINE
  5
86C
330
1A
100
AcDbEntity
  8
ZUWAKU
100
AcDbLine
 10
648.4172021994782
 20
29.99999945063825
 30
0.0
 11
648.4172021994782
 21
0.7999994506383246
 31
0.0
  0
LINE
  5
86D
330
1A
100
AcDbEntity
  8
ZUWAKU
100
AcDbLine
 10
552.7269554553859
 20
29.99999945063825
 30
0.0
 11
552.7269554553861
 21
0.7999994506383246
 31
0.0
  0
LINE
  5
86E
330
1A
100
AcDbEntity
  8
ZUWAKU
100
AcDbLine
 10
552.9269554553859
 20
29.99999945063825
 30
0.0
 11
552.9269554553861
 21
0.7999994506383246
 31
0.0
  0
LINE
  5
86F
330
1A
100
AcDbEntity
  8
ZUWAKU
100
AcDbLine
 10
552.5269554553861
 20
29.99999945063825
 30
0.0
 11
552.5269554553861
 21
0.7999994506383246
 31
0.0
  0
TEXT
  5
870
330
1A
100
AcDbEntity
  8
ZUWAKU
100
AcDbText
 10
650.2946472216876
 20
24.05535598902384
 30
0.0
 40
4.0
  1
DATE
 41
0.9
  7
ｽﾀｲﾙ1
100
AcDbText
  0
LINE
  5
871
330
1A
100
AcDbEntity
  8
ZUWAKU
100
AcDbLine
 10
697.2490102378149
 20
29.99999945063825
 30
0.0
 11
697.2490102378149
 21
0.7999994506383246
 31
0.0
  0
LINE
  5
872
330
1A
100
AcDbEntity
  8
ZUWAKU
100
AcDbLine
 10
697.4490102378149
 20
29.99999945063825
 30
0.0
 11
697.4490102378149
 21
0.7999994506383246
 31
0.0
  0
LINE
  5
873
330
1A
100
AcDbEntity
  8
ZUWAKU
100
AcDbLine
 10
697.6490102378147
 20
29.99999945063825
 30
0.0
 11
697.649010237815
 21
0.7999994506383246
 31
0.0
  0
LINE
  5
874
330
1A
100
AcDbEntity
  8
ZUWAKU
100
AcDbLine
 10
697.8490102378148
 20
29.99999945063825
 30
0.0
 11
697.849010237815
 21
0.7999994506383246
 31
0.0
  0
TEXT
  5
875
330
1A
100
AcDbEntity
  8
ZUWAKU
100
AcDbText
 10
708.5280838815174
 20
17.55383878632506
 30
0.0
 40
6.0
  1
積水化学工業株式会社
 41
0.9
  7
ｽﾀｲﾙ1
100
AcDbText
  0
TEXT
  5
876
330
1A
100
AcDbEntity
  8
ZUWAKU
100
AcDbText
 10
708.5280838815174
 20
6.648839764492322
 30
0.0
 40
6.0
  1
建材事業部
 41
0.9
  7
ｽﾀｲﾙ1
100
AcDbText
  0
VIEWPORT
  5
22
330
17
100
AcDbEntity
 67
     1
  8
0
100
AcDbViewport
 10
313.6808219178082
 20
148.5
 30
0.0
 40
627.3616438356165
 41
297.0
 68
     2
 69
     1
1001
ACAD
1000
MVIEW
1002
{
1070
    16
1010
0.0
1020
0.0
1030
0.0
1010
0.0
1020
0.0
1030
1.0
1040
0.0
1040
297.0
1040
313.6808219178082
1040
148.5
1040
50.0
1040
0.0
1040
0.0
1070
     0
1070
   100
1070
     1
1070
     0
1070
     0
1070
     0
1070
     0
1070
     0
1040
0.0
1040
0.0
1040
0.0
1040
1.0
1040
1.0
1040
10.0
1040
10.0
1070
     0
1002
{
1002
}
1002
}
  0
VIEWPORT
  5
64
330
17
100
AcDbEntity
 67
     1
  8
VIEWPORT
100
AcDbViewport
 10
210.0
 20
148.5
 30
0.0
 40
420.0
 41
297.0
 68
     1
 69
     2
1001
ACAD
1000
MVIEW
1002
{
1070
    16
1010
0.0
1020
0.0
1030
0.0
1010
0.0
1020
0.0
1030
1.0
1040
0.0
1040
605.8799999999998
1040
420.0
1040
297.0
1040
50.0
1040
0.0
1040
0.0
1070
     0
1070
   100
1070
     1
1070
     0
1070
     0
1070
     0
1070
     0
1070
     0
1040
0.0
1040
0.0
1040
0.0
1040
10.0
1040
10.0
1040
0.0
1040
0.0
1070
     0
1002
{
1002
}
1002
}
  0
ENDSEC
  0
SECTION
  2
OBJECTS
  0
DICTIONARY
  5
C
330
0
100
AcDbDictionary
  3
ACAD_GROUP
350
D
  3
ACAD_LAYOUT
350
6C5
  3
ACAD_MLINESTYLE
350
E
  3
ACAD_PLOTSETTINGS
350
6C6
  3
ACAD_PLOTSTYLENAME
350
6C3
  3
ACDBHEADERROUNDTRIPXREC
350
884
  0
DICTIONARY
  5
6F4
330
1A
100
AcDbDictionary
280
     1
  3
ACAD_LAYOUTSELFREF
360
8A6
  0
DICTIONARY
  5
6F2
330
17
100
AcDbDictionary
280
     1
  3
ACAD_LAYOUTSELFREF
360
8A5
  0
DICTIONARY
  5
D
102
{ACAD_REACTORS
330
C
102
}
330
C
100
AcDbDictionary
  0
DICTIONARY
  5
6C5
102
{ACAD_REACTORS
330
C
102
}
330
C
100
AcDbDictionary
  0
DICTIONARY
  5
E
102
{ACAD_REACTORS
330
C
102
}
330
C
100
AcDbDictionary
  3
STANDARD
350
13
  0
DICTIONARY
  5
6C6
102
{ACAD_REACTORS
330
C
102
}
330
C
100
AcDbDictionary
  0
ACDBDICTIONARYWDFLT
  5
6C3
102
{ACAD_REACTORS
330
C
102
}
330
C
100
AcDbDictionary
281
     1
  3
Normal
350
6C4
100
AcDbDictionaryWithDefault
340
6C4
1001
ACAD
1000
TREAT_AS_HARD
1070
     0
  0
DICTIONARY
  5
884
102
{ACAD_REACTORS
330
C
102
}
330
C
100
AcDbDictionary
  3
TSTACKALIGN
350
885
  3
TSTACKSIZE
350
886
  3
HYPERLINKBASE
350
887
  3
STYLESHEET
350
888
  3
LAYOUTDICT
350
889
  3
PLOTSETDICT
350
88A
  3
PLOTSTYLNAMDICT
350
88B
  3
LWETCUNION
350
88C
  3
INSUNITS
350
88D
  3
CEPSNTYPE
350
88E
  3
FINGERPRINTGUID
350
88F
  3
VERSIONGUID
350
890
  3
PSVPSCALE
350
891
  3
DIMSTYLEDATA
350
892
  3
PUCSORTHOREF
350
893
  3
PUCSORTHOVIEW
350
894
  3
PUCSBASE
350
895
  3
PUCSORGTOP
350
896
  3
PUCSORGBOTTOM
350
897
  3
PUCSORGLEFT
350
898
  3
PUCSORGRIGHT
350
899
  3
PUCSORGFRONT
350
89A
  3
PUCSORGBACK
350
89B
  3
UCSORTHOREF
350
89C
  3
UCSORTHOVIEW
350
89D
  3
UCSBASE
350
89E
  3
UCSORGTOP
350
89F
  3
UCSORGBOTTOM
350
8A0
  3
UCSORGLEFT
350
8A1
  3
UCSORGRIGHT
350
8A2
  3
UCSORGFRONT
350
8A3
  3
UCSORGBACK
350
8A4
  0
XRECORD
  5
8A6
102
{ACAD_REACTORS
330
6F4
102
}
330
6F4
100
AcDbXrecord
340
1A
  0
XRECORD
  5
8A5
102
{ACAD_REACTORS
330
6F2
102
}
330
6F2
100
AcDbXrecord
340
17
  0
MLINESTYLE
  5
13
102
{ACAD_REACTORS
330
E
102
}
330
E
100
AcDbMlineStyle
  2
STANDARD
 70
     0
  3

 62
     0
 51
90.0
 52
90.0
 71
     2
 49
0.5
 62
   256
  6
BYLAYER
 49
-0.5
 62
   256
  6
BYLAYER
  0
ACDBPLACEHOLDER
  5
6C4
102
{ACAD_REACTORS
330
6C3
102
}
330
6C3
100
AcDbPlaceHolder
280
     0
  0
XRECORD
  5
885
102
{ACAD_REACTORS
330
884
102
}
330
884
100
AcDbXrecord
 90
        1
  0
XRECORD
  5
886
102
{ACAD_REACTORS
330
884
102
}
330
884
100
AcDbXrecord
 90
       70
  0
XRECORD
  5
887
102
{ACAD_REACTORS
330
884
102
}
330
884
100
AcDbXrecord
  1

  0
XRECORD
  5
888
102
{ACAD_REACTORS
330
884
102
}
330
884
100
AcDbXrecord
  1
systemprinter.ctb
  0
XRECORD
  5
889
102
{ACAD_REACTORS
330
884
102
}
330
884
100
AcDbXrecord
340
6C5
  0
XRECORD
  5
88A
102
{ACAD_REACTORS
330
884
102
}
330
884
100
AcDbXrecord
340
6C6
  0
XRECORD
  5
88B
102
{ACAD_REACTORS
330
884
102
}
330
884
100
AcDbXrecord
340
6C3
  0
XRECORD
  5
88C
102
{ACAD_REACTORS
330
884
102
}
330
884
100
AcDbXrecord
 90
    10781
  0
XRECORD
  5
88D
102
{ACAD_REACTORS
330
884
102
}
330
884
100
AcDbXrecord
 90
        0
  0
XRECORD
  5
88E
102
{ACAD_REACTORS
330
884
102
}
330
884
100
AcDbXrecord
 90
        0
  0
XRECORD
  5
88F
102
{ACAD_REACTORS
330
884
102
}
330
884
100
AcDbXrecord
  1
{8C751A32-E51A-4CD3-A81D-873A8C4DA3A1}
  0
XRECORD
  5
890
102
{ACAD_REACTORS
330
884
102
}
330
884
100
AcDbXrecord
  1
{ADF86918-F901-44C4-B0DF-943BA746BAA0}
  0
XRECORD
  5
891
102
{ACAD_REACTORS
330
884
102
}
330
884
100
AcDbXrecord
 40
0.0
  0
XRECORD
  5
892
102
{ACAD_REACTORS
330
884
102
}
330
884
100
AcDbXrecord
1000
DSTYLE
1002
{
1070
   341
340
6D
1070
   343
340
6D
1070
   344
340
6D
1070
   371
 70
    -1
1070
   372
 70
    -1
1002
}
  0
XRECORD
  5
893
102
{ACAD_REACTORS
330
884
102
}
330
884
100
AcDbXrecord
340
0
  0
XRECORD
  5
894
102
{ACAD_REACTORS
330
884
102
}
330
884
100
AcDbXrecord
 70
     0
  0
XRECORD
  5
895
102
{ACAD_REACTORS
330
884
102
}
330
884
100
AcDbXrecord
340
0
  0
XRECORD
  5
896
102
{ACAD_REACTORS
330
884
102
}
330
884
100
AcDbXrecord
 10
0.0
 20
0.0
 30
0.0
  0
XRECORD
  5
897
102
{ACAD_REACTORS
330
884
102
}
330
884
100
AcDbXrecord
 10
0.0
 20
0.0
 30
0.0
  0
XRECORD
  5
898
102
{ACAD_REACTORS
330
884
102
}
330
884
100
AcDbXrecord
 10
0.0
 20
0.0
 30
0.0
  0
XRECORD
  5
899
102
{ACAD_REACTORS
330
884
102
}
330
884
100
AcDbXrecord
 10
0.0
 20
0.0
 30
0.0
  0
XRECORD
  5
89A
102
{ACAD_REACTORS
330
884
102
}
330
884
100
AcDbXrecord
 10
0.0
 20
0.0
 30
0.0
  0
XRECORD
  5
89B
102
{ACAD_REACTORS
330
884
102
}
330
884
100
AcDbXrecord
 10
0.0
 20
0.0
 30
0.0
  0
XRECORD
  5
89C
102
{ACAD_REACTORS
330
884
102
}
330
884
100
AcDbXrecord
340
0
  0
XRECORD
  5
89D
102
{ACAD_REACTORS
330
884
102
}
330
884
100
AcDbXrecord
 70
     0
  0
XRECORD
  5
89E
102
{ACAD_REACTORS
330
884
102
}
330
884
100
AcDbXrecord
340
0
  0
XRECORD
  5
89F
102
{ACAD_REACTORS
330
884
102
}
330
884
100
AcDbXrecord
 10
0.0
 20
0.0
 30
0.0
  0
XRECORD
  5
8A0
102
{ACAD_REACTORS
330
884
102
}
330
884
100
AcDbXrecord
 10
0.0
 20
0.0
 30
0.0
  0
XRECORD
  5
8A1
102
{ACAD_REACTORS
330
884
102
}
330
884
100
AcDbXrecord
 10
0.0
 20
0.0
 30
0.0
  0
XRECORD
  5
8A2
102
{ACAD_REACTORS
330
884
102
}
330
884
100
AcDbXrecord
 10
0.0
 20
0.0
 30
0.0
  0
XRECORD
  5
8A3
102
{ACAD_REACTORS
330
884
102
}
330
884
100
AcDbXrecord
 10
0.0
 20
0.0
 30
0.0
  0
XRECORD
  5
8A4
102
{ACAD_REACTORS
330
884
102
}
330
884
100
AcDbXrecord
 10
0.0
 20
0.0
 30
0.0
  0
ENDSEC
  0
EOF
