  0
SECTION
  2
HEADER
  9
$ACADVER
  1
AC1014
  9
$ACADMAINTVER
 70
     9
  9
$DWGCODEPAGE
  3
ANSI_932
  9
$INSBASE
 10
0.0
 20
0.0
 30
0.0
  9
$EXTMIN
 10
-0.0256331206132927
 20
-0.0181266077920555
 30
-0.0015258207003583
  9
$EXTMAX
 10
797.6000995469832
 20
551.6452344488313
 30
0.0000000349246037
  9
$LIMMIN
 10
0.0
 20
0.0
  9
$LIMMAX
 10
840.0
 20
594.0
  9
$ORTHOMODE
 70
     0
  9
$REGENMODE
 70
     1
  9
$FILLMODE
 70
     1
  9
$QTEXTMODE
 70
     0
  9
$MIRRTEXT
 70
     1
  9
$DRAGMODE
 70
     2
  9
$LTSCALE
 40
2.0
  9
$OSMODE
 70
    35
  9
$ATTMODE
 70
     1
  9
$TEXTSIZE
 40
5.0
  9
$TRACEWID
 40
1.0
  9
$TEXTSTYLE
  7
STANDARD
  9
$CLAYER
  8
CENTER_L
  9
$CELTYPE
  6
BYLAYER
  9
$CECOLOR
 62
   256
  9
$CELTSCALE
 40
1.0
  9
$DELOBJ
 70
     1
  9
$DISPSILH
 70
     0
  9
$DIMSCALE
 40
1.0
  9
$DIMASZ
 40
7.0
  9
$DIMEXO
 40
6.0
  9
$DIMDLI
 40
14.0
  9
$DIMRND
 40
0.0
  9
$DIMDLE
 40
0.0
  9
$DIMEXE
 40
3.0
  9
$DIMTP
 40
0.0
  9
$DIMTM
 40
0.0
  9
$DIMTXT
 40
6.0
  9
$DIMCEN
 40
150.0
  9
$DIMTSZ
 40
0.0
  9
$DIMTOL
 70
     0
  9
$DIMLIM
 70
     0
  9
$DIMTIH
 70
     0
  9
$DIMTOH
 70
     0
  9
$DIMSE1
 70
     0
  9
$DIMSE2
 70
     0
  9
$DIMTAD
 70
     3
  9
$DIMZIN
 70
     0
  9
$DIMBLK
  1

  9
$DIMASO
 70
     1
  9
$DIMSHO
 70
     1
  9
$DIMPOST
  1

  9
$DIMAPOST
  1

  9
$DIMALT
 70
     0
  9
$DIMALTD
 70
     2
  9
$DIMALTF
 40
25.4
  9
$DIMLFAC
 40
1.0
  9
$DIMTOFL
 70
     1
  9
$DIMTVP
 40
0.0
  9
$DIMTIX
 70
     0
  9
$DIMSOXD
 70
     0
  9
$DIMSAH
 70
     1
  9
$DIMBLK1
  1
OPEN
  9
$DIMBLK2
  1
OPEN
  9
$DIMSTYLE
  2
STANDARD
  9
$DIMCLRD
 70
   256
  9
$DIMCLRE
 70
   256
  9
$DIMCLRT
 70
   256
  9
$DIMTFAC
 40
1.0
  9
$DIMGAP
 40
2.0
  9
$DIMJUST
 70
     0
  9
$DIMSD1
 70
     0
  9
$DIMSD2
 70
     0
  9
$DIMTOLJ
 70
     1
  9
$DIMTZIN
 70
     0
  9
$DIMALTZ
 70
     0
  9
$DIMALTTZ
 70
     0
  9
$DIMFIT
 70
     3
  9
$DIMUPT
 70
     0
  9
$DIMUNIT
 70
     2
  9
$DIMDEC
 70
     0
  9
$DIMTDEC
 70
     0
  9
$DIMALTU
 70
     2
  9
$DIMALTTD
 70
     2
  9
$DIMTXSTY
  7
STANDARD
  9
$DIMAUNIT
 70
     0
  9
$LUNITS
 70
     2
  9
$LUPREC
 70
     4
  9
$SKETCHINC
 40
1.0
  9
$FILLETRAD
 40
20.0
  9
$AUNITS
 70
     0
  9
$AUPREC
 70
     0
  9
$MENU
  1
.
  9
$ELEVATION
 40
0.0
  9
$PELEVATION
 40
0.0
  9
$THICKNESS
 40
0.0
  9
$LIMCHECK
 70
     0
  9
$BLIPMODE
 70
     0
  9
$CHAMFERA
 40
20.0
  9
$CHAMFERB
 40
20.0
  9
$CHAMFERC
 40
40.0
  9
$CHAMFERD
 40
0.0
  9
$SKPOLY
 70
     0
  9
$TDCREATE
 40
2451201.478455208
  9
$TDUPDATE
 40
2453802.427497465
  9
$TDINDWG
 40
0.0189907986
  9
$TDUSRTIMER
 40
0.0189907986
  9
$USRTIMER
 70
     1
  9
$ANGBASE
 50
0.0
  9
$ANGDIR
 70
     0
  9
$PDMODE
 70
     0
  9
$PDSIZE
 40
0.0
  9
$PLINEWID
 40
0.0
  9
$COORDS
 70
     1
  9
$SPLFRAME
 70
     0
  9
$SPLINETYPE
 70
     6
  9
$SPLINESEGS
 70
     8
  9
$ATTDIA
 70
     0
  9
$ATTREQ
 70
     1
  9
$HANDLING
 70
 10241
  9
$HANDSEED
  5
9B3
  9
$SURFTAB1
 70
     6
  9
$SURFTAB2
 70
     6
  9
$SURFTYPE
 70
     6
  9
$SURFU
 70
     6
  9
$SURFV
 70
     6
  9
$UCSNAME
  2

  9
$UCSORG
 10
0.0
 20
0.0
 30
0.0
  9
$UCSXDIR
 10
1.0
 20
0.0
 30
0.0
  9
$UCSYDIR
 10
0.0
 20
1.0
 30
0.0
  9
$PUCSNAME
  2

  9
$PUCSORG
 10
0.0
 20
0.0
 30
0.0
  9
$PUCSXDIR
 10
1.0
 20
0.0
 30
0.0
  9
$PUCSYDIR
 10
0.0
 20
1.0
 30
0.0
  9
$USERI1
 70
     0
  9
$USERI2
 70
     0
  9
$USERI3
 70
     0
  9
$USERI4
 70
     0
  9
$USERI5
 70
     0
  9
$USERR1
 40
0.0
  9
$USERR2
 40
0.0
  9
$USERR3
 40
0.0
  9
$USERR4
 40
0.0
  9
$USERR5
 40
0.0
  9
$WORLDVIEW
 70
     1
  9
$SHADEDGE
 70
     3
  9
$SHADEDIF
 70
    70
  9
$TILEMODE
 70
     1
  9
$MAXACTVP
 70
    16
  9
$PINSBASE
 10
0.0
 20
0.0
 30
0.0
  9
$PLIMCHECK
 70
     0
  9
$PEXTMIN
 10
0.0
 20
0.0
 30
0.0
  9
$PEXTMAX
 10
420.0
 20
297.0
 30
0.0
  9
$PLIMMIN
 10
0.0
 20
0.0
  9
$PLIMMAX
 10
420.0
 20
297.0
  9
$UNITMODE
 70
     0
  9
$VISRETAIN
 70
     0
  9
$PLINEGEN
 70
     0
  9
$PSLTSCALE
 70
     1
  9
$TREEDEPTH
 70
  3020
  9
$PICKSTYLE
 70
     1
  9
$CMLSTYLE
  2
STANDARD
  9
$CMLJUST
 70
     0
  9
$CMLSCALE
 40
1.0
  9
$PROXYGRAPHICS
 70
     1
  9
$MEASUREMENT
 70
     1
  0
ENDSEC
  0
SECTION
  2
CLASSES
  0
CLASS
  1
ACDBDICTIONARYWDFLT
  2
AcDbDictionaryWithDefault
  3
AutoCAD 2000
 90
        0
280
     0
281
     0
  0
CLASS
  1
ACDBPLACEHOLDER
  2
AcDbPlaceHolder
  3
AutoCAD 2000
 90
        0
280
     0
281
     0
  0
CLASS
  1
LAYOUT
  2
AcDbLayout
  3
AutoCAD 2000
 90
        0
280
     0
281
     0
  0
CLASS
  1
LONG_TRANSACTION
  2
AcDbLongTransaction
  3
AutoCAD 2000
 90
        0
280
     0
281
     0
  0
CLASS
  1
LWPOLYLINE
  2
AcDbPolyline
  3
AutoCAD 2000
 90
        0
280
     0
281
     1
  0
CLASS
  1
HATCH
  2
AcDbHatch
  3
AutoCAD 2000
 90
        0
280
     0
281
     1
  0
CLASS
  1
XRECORD
  2
AcDbXrecord
  3
AutoCAD 2000
 90
        0
280
     0
281
     0
  0
CLASS
  1
LONG_TRANSACTION
  2
AcDbLongTransaction
  3
AutoCAD 2000
 90
        0
280
     0
281
     0
  0
CLASS
  1
LWPOLYLINE
  2
AcDbPolyline
  3
AutoCAD 2000
 90
        0
280
     0
281
     1
  0
CLASS
  1
HATCH
  2
AcDbHatch
  3
AutoCAD 2000
 90
        0
280
     0
281
     1
  0
CLASS
  1
XRECORD
  2
AcDbXrecord
  3
AutoCAD 2000
 90
        0
280
     0
281
     0
  0
ENDSEC
  0
SECTION
  2
TABLES
  0
TABLE
  2
VPORT
  5
8
330
0
100
AcDbSymbolTable
 70
     2
  0
VPORT
  5
98F
330
8
100
AcDbSymbolTableRecord
100
AcDbViewportTableRecord
  2
*ACTIVE
 70
     0
 10
0.0
 20
0.0
 11
1.0
 21
1.0
 12
405.1290607856708
 22
278.3365096007938
 13
0.0
 23
0.0
 14
5.0
 24
5.0
 15
0.0
 25
0.0
 16
0.0
 26
0.0
 36
1.0
 17
0.0
 27
0.0
 37
0.0
 40
643.3141906618049
 41
1.795454545454545
 42
50.0
 43
0.0
 44
0.0
 50
0.0
 51
0.0
 71
     0
 72
   100
 73
     1
 74
     0
 75
     0
 76
     0
 77
     0
 78
     0
  0
ENDTAB
  0
TABLE
  2
LTYPE
  5
5
330
0
100
AcDbSymbolTable
 70
     3
  0
LTYPE
  5
14
330
5
100
AcDbSymbolTableRecord
100
AcDbLinetypeTableRecord
  2
BYBLOCK
 70
     0
  3

 72
    65
 73
     0
 40
0.0
  0
LTYPE
  5
15
330
5
100
AcDbSymbolTableRecord
100
AcDbLinetypeTableRecord
  2
BYLAYER
 70
     0
  3

 72
    65
 73
     0
 40
0.0
  0
LTYPE
  5
16
330
5
100
AcDbSymbolTableRecord
100
AcDbLinetypeTableRecord
  2
CONTINUOUS
 70
     0
  3
Solid line
 72
    65
 73
     0
 40
0.0
  0
LTYPE
  5
115
330
5
100
AcDbSymbolTableRecord
100
AcDbLinetypeTableRecord
  2
PHANTOM
 70
     0
  3
______  __  __  ______  __  __  ______  __  __ 
 72
    65
 73
     6
 40
2.5
 49
1.25
 74
     0
 49
-0.25
 74
     0
 49
0.25
 74
     0
 49
-0.25
 74
     0
 49
0.25
 74
     0
 49
-0.25
 74
     0
  0
LTYPE
  5
135
330
5
100
AcDbSymbolTableRecord
100
AcDbLinetypeTableRecord
  2
CENTER
 70
     0
  3
____ _ ____ _ ____ _ ____ _ ____ _ ____ _ ____ 
 72
    65
 73
     4
 40
2.0
 49
1.25
 74
     0
 49
-0.25
 74
     0
 49
0.25
 74
     0
 49
-0.25
 74
     0
  0
ENDTAB
  0
TABLE
  2
LAYER
  5
2
330
0
100
AcDbSymbolTable
 70
     9
  0
LAYER
  5
F
330
2
100
AcDbSymbolTableRecord
100
AcDbLayerTableRecord
  2
0
 70
     0
 62
     7
  6
CONTINUOUS
  0
LAYER
  5
62
330
2
100
AcDbSymbolTableRecord
100
AcDbLayerTableRecord
  2
VIEWPORT
 70
     0
 62
     7
  6
CONTINUOUS
  0
LAYER
  5
65
330
2
100
AcDbSymbolTableRecord
100
AcDbLayerTableRecord
  2
ZUWAKU
 70
     0
 62
     7
  6
CONTINUOUS
  0
LAYER
  5
1C3
330
2
100
AcDbSymbolTableRecord
100
AcDbLayerTableRecord
  2
DEFPOINTS
 70
     0
 62
     7
  6
CONTINUOUS
  0
LAYER
  5
1C4
330
2
100
AcDbSymbolTableRecord
100
AcDbLayerTableRecord
  2
SEIHIN
 70
     0
 62
     3
  6
CONTINUOUS
  0
LAYER
  5
1C5
330
2
100
AcDbSymbolTableRecord
100
AcDbLayerTableRecord
  2
SUNPOU
 70
     0
 62
     4
  6
CONTINUOUS
  0
LAYER
  5
1C6
330
2
100
AcDbSymbolTableRecord
100
AcDbLayerTableRecord
  2
CENTER_L
 70
     0
 62
     1
  6
CENTER
  0
LAYER
  5
1C7
330
2
100
AcDbSymbolTableRecord
100
AcDbLayerTableRecord
  2
NOKITOI
 70
     0
 62
     8
  6
PHANTOM
  0
LAYER
  5
814
330
2
100
AcDbSymbolTableRecord
100
AcDbLayerTableRecord
  2
MOJI
 70
     0
 62
     2
  6
CONTINUOUS
  0
ENDTAB
  0
TABLE
  2
STYLE
  5
3
330
0
100
AcDbSymbolTable
 70
     2
  0
STYLE
  5
10
330
3
100
AcDbSymbolTableRecord
100
AcDbTextStyleTableRecord
  2
STANDARD
 70
     0
 40
0.0
 41
1.0
 50
0.0
 71
     0
 42
5.0
  3
TXT
  4
bigfont.shx
  0
STYLE
  5
815
330
3
100
AcDbSymbolTableRecord
100
AcDbTextStyleTableRecord
  2
ｽﾀｲﾙ1
 70
     0
 40
0.0
 41
1.0
 50
0.0
 71
     0
 42
2.5
  3
MS PGothic.ttf
  4

1001
ACAD
1000
MS PGothic
1071
    32818
  0
ENDTAB
  0
TABLE
  2
VIEW
  5
6
330
0
100
AcDbSymbolTable
 70
     0
  0
ENDTAB
  0
TABLE
  2
UCS
  5
7
330
0
100
AcDbSymbolTable
 70
     0
  0
ENDTAB
  0
TABLE
  2
APPID
  5
9
330
0
100
AcDbSymbolTable
 70
     1
  0
APPID
  5
11
330
9
100
AcDbSymbolTableRecord
100
AcDbRegAppTableRecord
  2
ACAD
 70
     0
  0
ENDTAB
  0
TABLE
  2
DIMSTYLE
  5
A
330
0
100
AcDbSymbolTable
 70
     1
  0
DIMSTYLE
105
1D
102
{ACAD_REACTORS
330
52A
330
539
330
546
330
553
330
562
330
56F
330
57C
330
593
330
5A0
330
5AD
330
5C7
330
5D7
102
}
330
A
100
AcDbSymbolTableRecord
100
AcDbDimStyleTableRecord
  2
STANDARD
 70
     0
  3

  4

  5

  6

  7

 40
1.0
 41
0.18
 42
0.0625
 43
0.38
 44
0.18
 45
0.0
 46
0.0
 47
0.0
 48
0.0
140
0.18
141
0.09
142
0.0
143
25.4
144
1.0
145
0.0
146
1.0
147
0.09
 71
     0
 72
     0
 73
     1
 74
     1
 75
     0
 76
     0
 77
     0
 78
     0
170
     0
171
     2
172
     0
173
     0
174
     0
175
     0
176
     0
177
     0
178
     0
270
     2
271
     4
272
     4
273
     2
274
     2
340
10
275
     0
280
     0
281
     0
282
     0
283
     1
284
     0
285
     0
286
     0
287
     3
288
     0
  0
ENDTAB
  0
TABLE
  2
BLOCK_RECORD
  5
1
330
0
100
AcDbSymbolTable
 70
    13
  0
BLOCK_RECORD
  5
1A
102
{ACAD_XDICTIONARY
360
806
102
}
330
1
100
AcDbSymbolTableRecord
100
AcDbBlockTableRecord
  2
*MODEL_SPACE
  0
BLOCK_RECORD
  5
17
102
{ACAD_XDICTIONARY
360
804
102
}
330
1
100
AcDbSymbolTableRecord
100
AcDbBlockTableRecord
  2
*PAPER_SPACE
  0
BLOCK_RECORD
  5
6D
330
1
100
AcDbSymbolTableRecord
100
AcDbBlockTableRecord
  2
_OPEN
  0
BLOCK_RECORD
  5
51E
330
1
100
AcDbSymbolTableRecord
100
AcDbBlockTableRecord
  2
*D1
  0
BLOCK_RECORD
  5
52D
330
1
100
AcDbSymbolTableRecord
100
AcDbBlockTableRecord
  2
*D2
  0
BLOCK_RECORD
  5
53A
330
1
100
AcDbSymbolTableRecord
100
AcDbBlockTableRecord
  2
*D3
  0
BLOCK_RECORD
  5
547
330
1
100
AcDbSymbolTableRecord
100
AcDbBlockTableRecord
  2
*D4
  0
BLOCK_RECORD
  5
554
330
1
100
AcDbSymbolTableRecord
100
AcDbBlockTableRecord
  2
*D5
  0
BLOCK_RECORD
  5
563
330
1
100
AcDbSymbolTableRecord
100
AcDbBlockTableRecord
  2
*D6
  0
BLOCK_RECORD
  5
570
330
1
100
AcDbSymbolTableRecord
100
AcDbBlockTableRecord
  2
*D7
  0
BLOCK_RECORD
  5
587
330
1
100
AcDbSymbolTableRecord
100
AcDbBlockTableRecord
  2
*D8
  0
BLOCK_RECORD
  5
594
330
1
100
AcDbSymbolTableRecord
100
AcDbBlockTableRecord
  2
*D9
  0
BLOCK_RECORD
  5
5A1
330
1
100
AcDbSymbolTableRecord
100
AcDbBlockTableRecord
  2
*D10
  0
BLOCK_RECORD
  5
5BB
330
1
100
AcDbSymbolTableRecord
100
AcDbBlockTableRecord
  2
*D11
  0
BLOCK_RECORD
  5
5C9
330
1
100
AcDbSymbolTableRecord
100
AcDbBlockTableRecord
  2
*D12
  0
ENDTAB
  0
ENDSEC
  0
SECTION
  2
BLOCKS
  0
BLOCK
  5
1B
330
1A
100
AcDbEntity
  8
0
100
AcDbBlockBegin
  2
*MODEL_SPACE
 70
     0
 10
0.0
 20
0.0
 30
0.0
  3
*MODEL_SPACE
  1

  0
ENDBLK
  5
1C
330
1A
100
AcDbEntity
  8
0
100
AcDbBlockEnd
  0
BLOCK
  5
18
330
17
100
AcDbEntity
 67
     1
  8
0
100
AcDbBlockBegin
  2
*PAPER_SPACE
 70
     0
 10
0.0
 20
0.0
 30
0.0
  3
*PAPER_SPACE
  1

  0
ENDBLK
  5
19
330
17
100
AcDbEntity
 67
     1
  8
0
100
AcDbBlockEnd
  0
BLOCK
  5
6E
330
6D
100
AcDbEntity
  8
0
100
AcDbBlockBegin
  2
_OPEN
 70
     0
 10
0.0
 20
0.0
 30
0.0
  3
_OPEN
  1

  0
LINE
  5
6F
330
6D
100
AcDbEntity
  8
0
  6
BYBLOCK
 62
     0
100
AcDbLine
 10
-1.0
 20
0.1666666666666666
 30
0.0
 11
0.0
 21
0.0
 31
0.0
  0
LINE
  5
70
330
6D
100
AcDbEntity
  8
0
  6
BYBLOCK
 62
     0
100
AcDbLine
 10
0.0
 20
0.0
 30
0.0
 11
-1.0
 21
-0.1666666666666666
 31
0.0
  0
LINE
  5
71
330
6D
100
AcDbEntity
  8
0
  6
BYBLOCK
 62
     0
100
AcDbLine
 10
0.0
 20
0.0
 30
0.0
 11
-1.0
 21
0.0
 31
0.0
  0
ENDBLK
  5
72
330
6D
100
AcDbEntity
  8
0
100
AcDbBlockEnd
  0
BLOCK
  5
681
330
51E
100
AcDbEntity
  8
0
100
AcDbBlockBegin
  2
*D1
 70
     1
 10
0.0
 20
0.0
 30
0.0
  3
*D1
  1

  0
LINE
  5
682
330
51E
100
AcDbEntity
  8
0
  6
BYBLOCK
 62
     4
100
AcDbLine
 10
630.9938458107843
 20
375.9037652752429
 30
0.0
 11
663.7079272929313
 21
375.9037652752429
 31
0.0
  0
LINE
  5
683
330
51E
100
AcDbEntity
  8
0
  6
BYBLOCK
 62
     4
100
AcDbLine
 10
601.6368458107844
 20
312.2036652752428
 30
0.0
 11
663.7079272929313
 21
312.2036652752428
 31
0.0
  0
LINE
  5
684
330
51E
100
AcDbEntity
  8
0
  6
BYBLOCK
 62
     4
100
AcDbLine
 10
660.7079272929313
 20
368.9037652752429
 30
0.0
 11
660.7079272929313
 21
319.2036652752428
 31
0.0
  0
INSERT
  5
685
330
51E
100
AcDbEntity
  8
0
  6
BYBLOCK
 62
     4
100
AcDbBlockReference
  2
_OPEN
 10
660.7079272929313
 20
375.9037652752429
 30
0.0
 41
7.0
 42
7.0
 43
7.0
 50
90.0
  0
INSERT
  5
686
330
51E
100
AcDbEntity
  8
0
  6
BYBLOCK
 62
     4
100
AcDbBlockReference
  2
_OPEN
 10
660.7079272929313
 20
312.2036652752428
 30
0.0
 41
7.0
 42
7.0
 43
7.0
 50
270.0
  0
MTEXT
  5
687
330
51E
100
AcDbEntity
  8
0
  6
BYBLOCK
 62
     4
100
AcDbMText
 10
655.7079272929313
 20
344.0537152752428
 30
0.0
 40
6.0
 41
0.0
 71
     5
 72
     5
  1
\A1;64
 11
0.0
 21
1.0
 31
0.0
1001
ACAD
1000
MTEXTBEGIN
1070
    73
1070
     1
1070
    44
1040
1.0
1070
    74
1070
     0
1000
MTEXTEND
1000
MTEXTBEGIN
1070
    73
1070
     1
1070
    44
1040
1.0
1070
    74
1070
     0
1000
MTEXTEND
  0
POINT
  5
688
330
51E
100
AcDbEntity
  8
DEFPOINTS
  6
BYBLOCK
 62
     0
100
AcDbPoint
 10
624.9938458107843
 20
375.9037652752429
 30
0.0
  0
POINT
  5
689
330
51E
100
AcDbEntity
  8
DEFPOINTS
  6
BYBLOCK
 62
     0
100
AcDbPoint
 10
595.6368458107845
 20
312.2036652752428
 30
0.0
  0
POINT
  5
68A
330
51E
100
AcDbEntity
  8
DEFPOINTS
  6
BYBLOCK
 62
     0
100
AcDbPoint
 10
660.7079272929313
 20
312.2036652752428
 30
0.0
  0
ENDBLK
  5
68B
330
51E
100
AcDbEntity
  8
0
100
AcDbBlockEnd
  0
BLOCK
  5
7C8
330
52D
100
AcDbEntity
  8
0
100
AcDbBlockBegin
  2
*D2
 70
     1
 10
0.0
 20
0.0
 30
0.0
  3
*D2
  1

  0
LINE
  5
7C9
330
52D
100
AcDbEntity
  8
0
  6
BYBLOCK
 62
     4
100
AcDbLine
 10
558.4938458107845
 20
325.2036652752428
 30
0.0
 11
558.4938458107845
 21
430.3617570963786
 31
0.0
  0
LINE
  5
7CA
330
52D
100
AcDbEntity
  8
0
  6
BYBLOCK
 62
     4
100
AcDbLine
 10
624.9938458107843
 20
381.9037652752429
 30
0.0
 11
624.9938458107843
 21
430.3617570963786
 31
0.0
  0
LINE
  5
7CB
330
52D
100
AcDbEntity
  8
0
  6
BYBLOCK
 62
     4
100
AcDbLine
 10
565.4938458107844
 20
427.3617570963786
 30
0.0
 11
617.9938458107844
 21
427.3617570963786
 31
0.0
  0
INSERT
  5
7CC
330
52D
100
AcDbEntity
  8
0
  6
BYBLOCK
 62
     4
100
AcDbBlockReference
  2
_OPEN
 10
558.4938458107845
 20
427.3617570963786
 30
0.0
 41
7.0
 42
7.0
 43
7.0
 50
180.0
  0
INSERT
  5
7CD
330
52D
100
AcDbEntity
  8
0
  6
BYBLOCK
 62
     4
100
AcDbBlockReference
  2
_OPEN
 10
624.9938458107843
 20
427.3617570963786
 30
0.0
 41
7.0
 42
7.0
 43
7.0
  0
MTEXT
  5
7CE
330
52D
100
AcDbEntity
  8
0
  6
BYBLOCK
 62
     4
100
AcDbMText
 10
590.6357108158454
 20
432.3617570963786
 30
0.0
 40
6.0
 41
0.0
 71
     5
 72
     5
  1
\A1;66
1001
ACAD
1000
MTEXTBEGIN
1070
    73
1070
     1
1070
    44
1040
1.0
1070
    74
1070
     0
1000
MTEXTEND
1000
MTEXTBEGIN
1070
    73
1070
     1
1070
    44
1040
1.0
1070
    74
1070
     0
1000
MTEXTEND
  0
POINT
  5
7CF
330
52D
100
AcDbEntity
  8
DEFPOINTS
  6
BYBLOCK
 62
     0
100
AcDbPoint
 10
558.4938458107845
 20
319.2036652752428
 30
0.0
  0
POINT
  5
7D0
330
52D
100
AcDbEntity
  8
DEFPOINTS
  6
BYBLOCK
 62
     0
100
AcDbPoint
 10
624.9938458107843
 20
375.9037652752429
 30
0.0
  0
POINT
  5
7D1
330
52D
100
AcDbEntity
  8
DEFPOINTS
  6
BYBLOCK
 62
     0
100
AcDbPoint
 10
624.9938458107843
 20
427.3617570963786
 30
0.0
  0
ENDBLK
  5
7D2
330
52D
100
AcDbEntity
  8
0
100
AcDbBlockEnd
  0
BLOCK
  5
7BD
330
53A
100
AcDbEntity
  8
0
100
AcDbBlockBegin
  2
*D3
 70
     1
 10
0.0
 20
0.0
 30
0.0
  3
*D3
  1

  0
LINE
  5
7BE
330
53A
100
AcDbEntity
  8
0
  6
BYBLOCK
 62
     4
100
AcDbLine
 10
468.7939458107844
 20
391.9037652752429
 30
0.0
 11
468.7939458107844
 21
447.1501249821655
 31
0.0
  0
LINE
  5
7BF
330
53A
100
AcDbEntity
  8
0
  6
BYBLOCK
 62
     4
100
AcDbLine
 10
624.9938458107843
 20
381.9037652752429
 30
0.0
 11
624.9938458107843
 21
447.1501249821655
 31
0.0
  0
LINE
  5
7C0
330
53A
100
AcDbEntity
  8
0
  6
BYBLOCK
 62
     4
100
AcDbLine
 10
475.7939458107844
 20
444.1501249821656
 30
0.0
 11
617.9938458107844
 21
444.1501249821656
 31
0.0
  0
INSERT
  5
7C1
330
53A
100
AcDbEntity
  8
0
  6
BYBLOCK
 62
     4
100
AcDbBlockReference
  2
_OPEN
 10
468.7939458107844
 20
444.1501249821656
 30
0.0
 41
7.0
 42
7.0
 43
7.0
 50
180.0
  0
INSERT
  5
7C2
330
53A
100
AcDbEntity
  8
0
  6
BYBLOCK
 62
     4
100
AcDbBlockReference
  2
_OPEN
 10
624.9938458107843
 20
444.1501249821656
 30
0.0
 41
7.0
 42
7.0
 43
7.0
  0
MTEXT
  5
7C3
330
53A
100
AcDbEntity
  8
0
  6
BYBLOCK
 62
     4
100
AcDbMText
 10
546.8938958107844
 20
449.1501249821656
 30
0.0
 40
6.0
 41
0.0
 71
     5
 72
     5
  1
\A1;156
1001
ACAD
1000
MTEXTBEGIN
1070
    73
1070
     1
1070
    44
1040
1.0
1070
    74
1070
     0
1000
MTEXTEND
1000
MTEXTBEGIN
1070
    73
1070
     1
1070
    44
1040
1.0
1070
    74
1070
     0
1000
MTEXTEND
  0
POINT
  5
7C4
330
53A
100
AcDbEntity
  8
DEFPOINTS
  6
BYBLOCK
 62
     0
100
AcDbPoint
 10
468.7939458107844
 20
385.9037652752429
 30
0.0
  0
POINT
  5
7C5
330
53A
100
AcDbEntity
  8
DEFPOINTS
  6
BYBLOCK
 62
     0
100
AcDbPoint
 10
624.9938458107843
 20
375.9037652752429
 30
0.0
  0
POINT
  5
7C6
330
53A
100
AcDbEntity
  8
DEFPOINTS
  6
BYBLOCK
 62
     0
100
AcDbPoint
 10
624.9938458107843
 20
444.1501249821656
 30
0.0
  0
ENDBLK
  5
7C7
330
53A
100
AcDbEntity
  8
0
100
AcDbBlockEnd
  0
BLOCK
  5
68C
330
547
100
AcDbEntity
  8
0
100
AcDbBlockBegin
  2
*D4
 70
     1
 10
0.0
 20
0.0
 30
0.0
  3
*D4
  1

  0
LINE
  5
68D
330
547
100
AcDbEntity
  8
0
  6
BYBLOCK
 62
     4
100
AcDbLine
 10
462.7939458107844
 20
385.9037652752429
 30
0.0
 11
437.917603306139
 21
385.9037652752429
 31
0.0
  0
LINE
  5
68E
330
547
100
AcDbEntity
  8
0
  6
BYBLOCK
 62
     4
100
AcDbLine
 10
544.2021458107847
 20
312.2036652752428
 30
0.0
 11
437.917603306139
 21
312.2036652752428
 31
0.0
  0
LINE
  5
68F
330
547
100
AcDbEntity
  8
0
  6
BYBLOCK
 62
     4
100
AcDbLine
 10
440.9176033061389
 20
378.9037652752429
 30
0.0
 11
440.9176033061389
 21
319.2036652752428
 31
0.0
  0
INSERT
  5
690
330
547
100
AcDbEntity
  8
0
  6
BYBLOCK
 62
     4
100
AcDbBlockReference
  2
_OPEN
 10
440.9176033061389
 20
385.9037652752429
 30
0.0
 41
7.0
 42
7.0
 43
7.0
 50
90.0
  0
INSERT
  5
691
330
547
100
AcDbEntity
  8
0
  6
BYBLOCK
 62
     4
100
AcDbBlockReference
  2
_OPEN
 10
440.9176033061389
 20
312.2036652752428
 30
0.0
 41
7.0
 42
7.0
 43
7.0
 50
270.0
  0
MTEXT
  5
692
330
547
100
AcDbEntity
  8
0
  6
BYBLOCK
 62
     4
100
AcDbMText
 10
435.9176033061389
 20
349.0537152752429
 30
0.0
 40
6.0
 41
0.0
 71
     5
 72
     5
  1
\A1;74
 11
0.0
 21
1.0
 31
0.0
1001
ACAD
1000
MTEXTBEGIN
1070
    73
1070
     1
1070
    44
1040
1.0
1070
    74
1070
     0
1000
MTEXTEND
1000
MTEXTBEGIN
1070
    73
1070
     1
1070
    44
1040
1.0
1070
    74
1070
     0
1000
MTEXTEND
  0
POINT
  5
693
330
547
100
AcDbEntity
  8
DEFPOINTS
  6
BYBLOCK
 62
     0
100
AcDbPoint
 10
468.7939458107844
 20
385.9037652752429
 30
0.0
  0
POINT
  5
694
330
547
100
AcDbEntity
  8
DEFPOINTS
  6
BYBLOCK
 62
     0
100
AcDbPoint
 10
550.2021458107846
 20
312.2036652752428
 30
0.0
  0
POINT
  5
695
330
547
100
AcDbEntity
  8
DEFPOINTS
  6
BYBLOCK
 62
     0
100
AcDbPoint
 10
440.9176033061389
 20
312.2036652752428
 30
0.0
  0
ENDBLK
  5
696
330
547
100
AcDbEntity
  8
0
100
AcDbBlockEnd
  0
BLOCK
  5
555
330
554
100
AcDbEntity
  8
0
100
AcDbBlockBegin
  2
*D5
 70
     1
 10
0.0
 20
0.0
 30
0.0
  3
*D5
  1

  0
LINE
  5
556
330
554
100
AcDbEntity
  8
0
  6
BYBLOCK
 62
     4
100
AcDbLine
 10
528.256359936935
 20
320.1199813467812
 30
0.0
 11
528.256359936935
 21
298.8493377605152
 31
0.0
  0
LINE
  5
557
330
554
100
AcDbEntity
  8
0
  6
BYBLOCK
 62
     4
100
AcDbLine
 10
536.2563805644349
 20
291.6352437477812
 30
0.0
 11
536.2563805644349
 21
304.8493377605152
 31
0.0
  0
LINE
  5
558
330
554
100
AcDbEntity
  8
0
  6
BYBLOCK
 62
     4
100
AcDbLine
 10
521.256359936935
 20
301.8493377605152
 30
0.0
 11
514.256359936935
 21
301.8493377605152
 31
0.0
  0
LINE
  5
559
330
554
100
AcDbEntity
  8
0
  6
BYBLOCK
 62
     4
100
AcDbLine
 10
543.2563805644349
 20
301.8493377605152
 30
0.0
 11
550.2563805644349
 21
301.8493377605152
 31
0.0
  0
LINE
  5
55A
330
554
100
AcDbEntity
  8
0
  6
BYBLOCK
 62
     4
100
AcDbLine
 10
528.256359936935
 20
301.8493377605152
 30
0.0
 11
536.2563805644349
 21
301.8493377605152
 31
0.0
  0
INSERT
  5
55B
330
554
100
AcDbEntity
  8
0
  6
BYBLOCK
 62
     4
100
AcDbBlockReference
  2
_OPEN
 10
528.256359936935
 20
301.8493377605152
 30
0.0
 41
7.0
 42
7.0
 43
7.0
  0
INSERT
  5
55C
330
554
100
AcDbEntity
  8
0
  6
BYBLOCK
 62
     4
100
AcDbBlockReference
  2
_OPEN
 10
536.2563805644349
 20
301.8493377605152
 30
0.0
 41
7.0
 42
7.0
 43
7.0
 50
180.0
  0
MTEXT
  5
55D
330
554
100
AcDbEntity
  8
0
  6
BYBLOCK
 62
     4
100
AcDbMText
 10
532.2563702506849
 20
306.8493377605152
 30
0.0
 40
6.0
 41
0.0
 71
     5
 72
     5
  1
\A1;8
1001
ACAD
1000
MTEXTBEGIN
1070
    73
1070
     1
1070
    44
1040
1.0
1070
    74
1070
     0
1000
MTEXTEND
1000
MTEXTBEGIN
1070
    73
1070
     1
1070
    44
1040
1.0
1070
    74
1070
     0
1000
MTEXTEND
  0
POINT
  5
55E
330
554
100
AcDbEntity
  8
DEFPOINTS
  6
BYBLOCK
 62
     0
100
AcDbPoint
 10
528.256359936935
 20
326.1199813467812
 30
0.0
  0
POINT
  5
55F
330
554
100
AcDbEntity
  8
DEFPOINTS
  6
BYBLOCK
 62
     0
100
AcDbPoint
 10
536.2563805644349
 20
285.6352437477811
 30
0.0
  0
POINT
  5
560
330
554
100
AcDbEntity
  8
DEFPOINTS
  6
BYBLOCK
 62
     0
100
AcDbPoint
 10
536.2563805644349
 20
301.8493377605152
 30
0.0
  0
ENDBLK
  5
561
330
554
100
AcDbEntity
  8
0
100
AcDbBlockEnd
  0
BLOCK
  5
697
330
563
100
AcDbEntity
  8
0
100
AcDbBlockBegin
  2
*D6
 70
     1
 10
0.0
 20
0.0
 30
0.0
  3
*D6
  1

  0
LINE
  5
698
330
563
100
AcDbEntity
  8
0
  6
BYBLOCK
 62
     4
100
AcDbLine
 10
462.7939458107844
 20
385.9037652752429
 30
0.0
 11
421.3062270484838
 21
385.9037652752429
 31
0.0
  0
LINE
  5
699
330
563
100
AcDbEntity
  8
0
  6
BYBLOCK
 62
     4
100
AcDbLine
 10
514.1251458107844
 20
234.9036652752428
 30
0.0
 11
421.3062270484838
 21
234.9036652752428
 31
0.0
  0
LINE
  5
69A
330
563
100
AcDbEntity
  8
0
  6
BYBLOCK
 62
     4
100
AcDbLine
 10
424.3062270484838
 20
378.9037652752429
 30
0.0
 11
424.3062270484838
 21
241.9036652752428
 31
0.0
  0
INSERT
  5
69B
330
563
100
AcDbEntity
  8
0
  6
BYBLOCK
 62
     4
100
AcDbBlockReference
  2
_OPEN
 10
424.3062270484838
 20
385.9037652752429
 30
0.0
 41
7.0
 42
7.0
 43
7.0
 50
90.0
  0
INSERT
  5
69C
330
563
100
AcDbEntity
  8
0
  6
BYBLOCK
 62
     4
100
AcDbBlockReference
  2
_OPEN
 10
424.3062270484838
 20
234.9036652752428
 30
0.0
 41
7.0
 42
7.0
 43
7.0
 50
270.0
  0
MTEXT
  5
69D
330
563
100
AcDbEntity
  8
0
  6
BYBLOCK
 62
     4
100
AcDbMText
 10
419.3062270484838
 20
310.4037152752429
 30
0.0
 40
6.0
 41
0.0
 71
     5
 72
     5
  1
\A1;151
 11
0.0
 21
1.0
 31
0.0
1001
ACAD
1000
MTEXTBEGIN
1070
    73
1070
     1
1070
    44
1040
1.0
1070
    74
1070
     0
1000
MTEXTEND
1000
MTEXTBEGIN
1070
    73
1070
     1
1070
    44
1040
1.0
1070
    74
1070
     0
1000
MTEXTEND
  0
POINT
  5
69E
330
563
100
AcDbEntity
  8
DEFPOINTS
  6
BYBLOCK
 62
     0
100
AcDbPoint
 10
468.7939458107844
 20
385.9037652752429
 30
0.0
  0
POINT
  5
69F
330
563
100
AcDbEntity
  8
DEFPOINTS
  6
BYBLOCK
 62
     0
100
AcDbPoint
 10
520.1251458107845
 20
234.9036652752428
 30
0.0
  0
POINT
  5
6A0
330
563
100
AcDbEntity
  8
DEFPOINTS
  6
BYBLOCK
 62
     0
100
AcDbPoint
 10
424.3062270484838
 20
234.9036652752428
 30
0.0
  0
ENDBLK
  5
6A1
330
563
100
AcDbEntity
  8
0
100
AcDbBlockEnd
  0
BLOCK
  5
6A2
330
570
100
AcDbEntity
  8
0
100
AcDbBlockBegin
  2
*D7
 70
     1
 10
0.0
 20
0.0
 30
0.0
  3
*D7
  1

  0
LINE
  5
6A3
330
570
100
AcDbEntity
  8
0
  6
BYBLOCK
 62
     4
100
AcDbLine
 10
462.7939458107844
 20
385.9037652752429
 30
0.0
 11
405.8427785294066
 21
385.9037652752429
 31
0.0
  0
LINE
  5
6A4
330
570
100
AcDbEntity
  8
0
  6
BYBLOCK
 62
     4
100
AcDbLine
 10
524.1713458107847
 20
186.9039652752428
 30
0.0
 11
405.8427785294066
 21
186.9039652752428
 31
0.0
  0
LINE
  5
6A5
330
570
100
AcDbEntity
  8
0
  6
BYBLOCK
 62
     4
100
AcDbLine
 10
408.8427785294065
 20
378.9037652752429
 30
0.0
 11
408.8427785294065
 21
193.9039652752428
 31
0.0
  0
INSERT
  5
6A6
330
570
100
AcDbEntity
  8
0
  6
BYBLOCK
 62
     4
100
AcDbBlockReference
  2
_OPEN
 10
408.8427785294065
 20
385.9037652752429
 30
0.0
 41
7.0
 42
7.0
 43
7.0
 50
90.0
  0
INSERT
  5
6A7
330
570
100
AcDbEntity
  8
0
  6
BYBLOCK
 62
     4
100
AcDbBlockReference
  2
_OPEN
 10
408.8427785294065
 20
186.9039652752428
 30
0.0
 41
7.0
 42
7.0
 43
7.0
 50
270.0
  0
MTEXT
  5
6A8
330
570
100
AcDbEntity
  8
0
  6
BYBLOCK
 62
     4
100
AcDbMText
 10
403.8427785294065
 20
286.4038652752428
 30
0.0
 40
6.0
 41
0.0
 71
     5
 72
     5
  1
\A1;199
 11
0.0
 21
1.0
 31
0.0
1001
ACAD
1000
MTEXTBEGIN
1070
    73
1070
     1
1070
    44
1040
1.0
1070
    74
1070
     0
1000
MTEXTEND
1000
MTEXTBEGIN
1070
    73
1070
     1
1070
    44
1040
1.0
1070
    74
1070
     0
1000
MTEXTEND
  0
POINT
  5
6A9
330
570
100
AcDbEntity
  8
DEFPOINTS
  6
BYBLOCK
 62
     0
100
AcDbPoint
 10
468.7939458107844
 20
385.9037652752429
 30
0.0
  0
POINT
  5
6AA
330
570
100
AcDbEntity
  8
DEFPOINTS
  6
BYBLOCK
 62
     0
100
AcDbPoint
 10
530.1713458107847
 20
186.9039652752428
 30
0.0
  0
POINT
  5
6AB
330
570
100
AcDbEntity
  8
DEFPOINTS
  6
BYBLOCK
 62
     0
100
AcDbPoint
 10
408.8427785294065
 20
186.9039652752428
 30
0.0
  0
ENDBLK
  5
6AC
330
570
100
AcDbEntity
  8
0
100
AcDbBlockEnd
  0
BLOCK
  5
616
330
587
100
AcDbEntity
  8
0
100
AcDbBlockBegin
  2
*D8
 70
     1
 10
0.0
 20
0.0
 30
0.0
  3
*D8
  1

  0
LINE
  5
617
330
587
100
AcDbEntity
  8
0
  6
BYBLOCK
 62
     4
100
AcDbLine
 10
222.9495775993821
 20
421.9998866187973
 30
0.0
 11
222.9495775993821
 21
453.6719213219221
 31
0.0
  0
LINE
  5
618
330
587
100
AcDbEntity
  8
0
  6
BYBLOCK
 62
     4
100
AcDbLine
 10
162.9495775993821
 20
421.9998866189032
 30
0.0
 11
162.9495775993821
 21
453.6719213219221
 31
0.0
  0
LINE
  5
619
330
587
100
AcDbEntity
  8
0
  6
BYBLOCK
 62
     4
100
AcDbLine
 10
215.9495775993821
 20
450.6719213219221
 30
0.0
 11
169.9495775993821
 21
450.6719213219221
 31
0.0
  0
INSERT
  5
61A
330
587
100
AcDbEntity
  8
0
  6
BYBLOCK
 62
     4
100
AcDbBlockReference
  2
_OPEN
 10
222.9495775993821
 20
450.6719213219221
 30
0.0
 41
7.0
 42
7.0
 43
7.0
  0
INSERT
  5
61B
330
587
100
AcDbEntity
  8
0
  6
BYBLOCK
 62
     4
100
AcDbBlockReference
  2
_OPEN
 10
162.9495775993821
 20
450.6719213219221
 30
0.0
 41
7.0
 42
7.0
 43
7.0
 50
180.0
  0
MTEXT
  5
61C
330
587
100
AcDbEntity
  8
0
  6
BYBLOCK
 62
     4
100
AcDbMText
 10
192.9495775993821
 20
455.6719213219221
 30
0.0
 40
6.0
 41
0.0
 71
     5
 72
     5
  1
\A1;※a60
1001
ACAD
1000
MTEXTBEGIN
1070
    73
1070
     1
1070
    44
1040
1.0
1070
    74
1070
     0
1000
MTEXTEND
1000
MTEXTBEGIN
1070
    73
1070
     1
1070
    44
1040
1.0
1070
    74
1070
     0
1000
MTEXTEND
  0
POINT
  5
61D
330
587
100
AcDbEntity
  8
DEFPOINTS
  6
BYBLOCK
 62
     0
100
AcDbPoint
 10
222.9495775993821
 20
415.9998866187973
 30
0.0
  0
POINT
  5
61E
330
587
100
AcDbEntity
  8
DEFPOINTS
  6
BYBLOCK
 62
     0
100
AcDbPoint
 10
162.9495775993821
 20
415.9998866189032
 30
0.0
  0
POINT
  5
61F
330
587
100
AcDbEntity
  8
DEFPOINTS
  6
BYBLOCK
 62
     0
100
AcDbPoint
 10
162.9495775993821
 20
450.6719213219221
 30
0.0
  0
ENDBLK
  5
620
330
587
100
AcDbEntity
  8
0
100
AcDbBlockEnd
  0
BLOCK
  5
595
330
594
100
AcDbEntity
  8
0
100
AcDbBlockBegin
  2
*D9
 70
     1
 10
0.0
 20
0.0
 30
0.0
  3
*D9
  1

  0
LINE
  5
596
330
594
100
AcDbEntity
  8
0
  6
BYBLOCK
 62
     4
100
AcDbLine
 10
280.9495775993818
 20
421.9998207097813
 30
0.0
 11
280.9495775993818
 21
468.00887669293
 31
0.0
  0
LINE
  5
597
330
594
100
AcDbEntity
  8
0
  6
BYBLOCK
 62
     4
100
AcDbLine
 10
104.949497599382
 20
421.9998207097813
 30
0.0
 11
104.949497599382
 21
468.00887669293
 31
0.0
  0
LINE
  5
598
330
594
100
AcDbEntity
  8
0
  6
BYBLOCK
 62
     4
100
AcDbLine
 10
273.9495775993818
 20
465.0088766929299
 30
0.0
 11
111.949497599382
 21
465.0088766929299
 31
0.0
  0
INSERT
  5
599
330
594
100
AcDbEntity
  8
0
  6
BYBLOCK
 62
     4
100
AcDbBlockReference
  2
_OPEN
 10
280.9495775993818
 20
465.0088766929299
 30
0.0
 41
7.0
 42
7.0
 43
7.0
  0
INSERT
  5
59A
330
594
100
AcDbEntity
  8
0
  6
BYBLOCK
 62
     4
100
AcDbBlockReference
  2
_OPEN
 10
104.949497599382
 20
465.0088766929299
 30
0.0
 41
7.0
 42
7.0
 43
7.0
 50
180.0
  0
MTEXT
  5
59B
330
594
100
AcDbEntity
  8
0
  6
BYBLOCK
 62
     4
100
AcDbMText
 10
192.9495375993819
 20
470.00887669293
 30
0.0
 40
6.0
 41
0.0
 71
     5
 72
     5
  1
\A1;176
1001
ACAD
1000
MTEXTBEGIN
1070
    73
1070
     1
1070
    44
1040
1.0
1070
    74
1070
     0
1000
MTEXTEND
1000
MTEXTBEGIN
1070
    73
1070
     1
1070
    44
1040
1.0
1070
    74
1070
     0
1000
MTEXTEND
  0
POINT
  5
59C
330
594
100
AcDbEntity
  8
DEFPOINTS
  6
BYBLOCK
 62
     0
100
AcDbPoint
 10
280.9495775993818
 20
415.9998207097813
 30
0.0
  0
POINT
  5
59D
330
594
100
AcDbEntity
  8
DEFPOINTS
  6
BYBLOCK
 62
     0
100
AcDbPoint
 10
104.949497599382
 20
415.9998207097813
 30
0.0
  0
POINT
  5
59E
330
594
100
AcDbEntity
  8
DEFPOINTS
  6
BYBLOCK
 62
     0
100
AcDbPoint
 10
104.949497599382
 20
465.0088766929299
 30
0.0
  0
ENDBLK
  5
59F
330
594
100
AcDbEntity
  8
0
100
AcDbBlockEnd
  0
BLOCK
  5
5A2
330
5A1
100
AcDbEntity
  8
0
100
AcDbBlockBegin
  2
*D10
 70
     1
 10
0.0
 20
0.0
 30
0.0
  3
*D10
  1

  0
LINE
  5
5A3
330
5A1
100
AcDbEntity
  8
0
  6
BYBLOCK
 62
     4
100
AcDbLine
 10
240.9494007037284
 20
258.9995903817233
 30
0.0
 11
240.9494007037284
 21
170.4713629412353
 31
0.0
  0
LINE
  5
5A4
330
5A1
100
AcDbEntity
  8
0
  6
BYBLOCK
 62
     4
100
AcDbLine
 10
144.9495364861066
 20
258.9996363593893
 30
0.0
 11
144.9495364861066
 21
170.4713629412353
 31
0.0
  0
LINE
  5
5A5
330
5A1
100
AcDbEntity
  8
0
  6
BYBLOCK
 62
     4
100
AcDbLine
 10
233.9494007037284
 20
173.4713629412353
 30
0.0
 11
151.9495364861066
 21
173.4713629412353
 31
0.0
  0
INSERT
  5
5A6
330
5A1
100
AcDbEntity
  8
0
  6
BYBLOCK
 62
     4
100
AcDbBlockReference
  2
_OPEN
 10
240.9494007037284
 20
173.4713629412353
 30
0.0
 41
7.0
 42
7.0
 43
7.0
  0
INSERT
  5
5A7
330
5A1
100
AcDbEntity
  8
0
  6
BYBLOCK
 62
     4
100
AcDbBlockReference
  2
_OPEN
 10
144.9495364861066
 20
173.4713629412353
 30
0.0
 41
7.0
 42
7.0
 43
7.0
 50
180.0
  0
MTEXT
  5
5A8
330
5A1
100
AcDbEntity
  8
0
  6
BYBLOCK
 62
     4
100
AcDbMText
 10
192.9494685949175
 20
178.4713629412353
 30
0.0
 40
6.0
 41
0.0
 71
     5
 72
     5
  1
\A1;96
1001
ACAD
1000
MTEXTBEGIN
1070
    73
1070
     1
1070
    44
1040
1.0
1070
    74
1070
     0
1000
MTEXTEND
1000
MTEXTBEGIN
1070
    73
1070
     1
1070
    44
1040
1.0
1070
    74
1070
     0
1000
MTEXTEND
  0
POINT
  5
5A9
330
5A1
100
AcDbEntity
  8
DEFPOINTS
  6
BYBLOCK
 62
     0
100
AcDbPoint
 10
240.9494007037284
 20
264.9995903817234
 30
0.0
  0
POINT
  5
5AA
330
5A1
100
AcDbEntity
  8
DEFPOINTS
  6
BYBLOCK
 62
     0
100
AcDbPoint
 10
144.9495364861066
 20
264.9996363593893
 30
0.0
  0
POINT
  5
5AB
330
5A1
100
AcDbEntity
  8
DEFPOINTS
  6
BYBLOCK
 62
     0
100
AcDbPoint
 10
144.9495364861066
 20
173.4713629412353
 30
0.0
  0
ENDBLK
  5
5AC
330
5A1
100
AcDbEntity
  8
0
100
AcDbBlockEnd
  0
BLOCK
  5
670
330
5BB
100
AcDbEntity
  8
0
100
AcDbBlockBegin
  2
*D11
 70
     1
 10
0.0
 20
0.0
 30
0.0
  3
*D11
  1

  0
LINE
  5
671
330
5BB
100
AcDbEntity
  8
0
  6
BYBLOCK
 62
     4
100
AcDbLine
 10
493.6837599368915
 20
206.1266066075638
 30
0.0
 11
493.6837599368915
 21
170.1069679114868
 31
0.0
  0
LINE
  5
672
330
5BB
100
AcDbEntity
  8
0
  6
BYBLOCK
 62
     4
100
AcDbLine
 10
576.6837599369785
 20
206.1266066075637
 30
0.0
 11
576.6837599369785
 21
170.1069679114868
 31
0.0
  0
LINE
  5
673
330
5BB
100
AcDbEntity
  8
0
  6
BYBLOCK
 62
     4
100
AcDbLine
 10
500.6837599368915
 20
173.1069679114868
 30
0.0
 11
569.6837599369785
 21
173.1069679114868
 31
0.0
  0
INSERT
  5
674
330
5BB
100
AcDbEntity
  8
0
  6
BYBLOCK
 62
     4
100
AcDbBlockReference
  2
_OPEN
 10
493.6837599368915
 20
173.1069679114868
 30
0.0
 41
7.0
 42
7.0
 43
7.0
 50
180.0
  0
INSERT
  5
675
330
5BB
100
AcDbEntity
  8
0
  6
BYBLOCK
 62
     4
100
AcDbBlockReference
  2
_OPEN
 10
576.6837599369785
 20
173.1069679114868
 30
0.0
 41
7.0
 42
7.0
 43
7.0
  0
MTEXT
  5
676
330
5BB
100
AcDbEntity
  8
0
  6
BYBLOCK
 62
     4
100
AcDbMText
 10
535.1837599369351
 20
178.1069679114868
 30
0.0
 40
6.0
 41
0.0
 71
     5
 72
     5
  1
\A1;φ83
1001
ACAD
1000
MTEXTBEGIN
1070
    73
1070
     1
1070
    44
1040
1.0
1070
    74
1070
     0
1000
MTEXTEND
1000
MTEXTBEGIN
1070
    73
1070
     1
1070
    44
1040
1.0
1070
    74
1070
     0
1000
MTEXTEND
  0
POINT
  5
677
330
5BB
100
AcDbEntity
  8
DEFPOINTS
  6
BYBLOCK
 62
     0
100
AcDbPoint
 10
493.6837599368915
 20
212.1266066075637
 30
0.0
  0
POINT
  5
678
330
5BB
100
AcDbEntity
  8
DEFPOINTS
  6
BYBLOCK
 62
     0
100
AcDbPoint
 10
576.6837599369785
 20
212.1266066075637
 30
0.0
  0
POINT
  5
679
330
5BB
100
AcDbEntity
  8
DEFPOINTS
  6
BYBLOCK
 62
     0
100
AcDbPoint
 10
576.6837599369785
 20
173.1069679114868
 30
0.0
  0
ENDBLK
  5
67A
330
5BB
100
AcDbEntity
  8
0
100
AcDbBlockEnd
  0
BLOCK
  5
5F2
330
5C9
100
AcDbEntity
  8
0
100
AcDbBlockBegin
  2
*D12
 70
     1
 10
0.0
 20
0.0
 30
0.0
  3
*D12
  1

  0
LINE
  5
5F3
330
5C9
100
AcDbEntity
  8
0
  6
BYBLOCK
 62
     4
100
AcDbLine
 10
583.8583105862424
 20
222.1266066074812
 30
0.0
 11
622.177781550703
 21
222.1266066074812
 31
0.0
  0
LINE
  5
5F4
330
5C9
100
AcDbEntity
  8
0
  6
BYBLOCK
 62
     4
100
AcDbLine
 10
582.6837599369785
 20
212.1266066075637
 30
0.0
 11
622.177781550703
 21
212.1266066075637
 31
0.0
  0
LINE
  5
5F5
330
5C9
100
AcDbEntity
  8
0
  6
BYBLOCK
 62
     4
100
AcDbLine
 10
619.1777815507029
 20
229.1266066074812
 30
0.0
 11
619.1777815507029
 21
236.1266066074812
 31
0.0
  0
LINE
  5
5F6
330
5C9
100
AcDbEntity
  8
0
  6
BYBLOCK
 62
     4
100
AcDbLine
 10
619.1777815507029
 20
205.1266066075637
 30
0.0
 11
619.1777815507029
 21
173.9266066075637
 31
0.0
  0
LINE
  5
5F7
330
5C9
100
AcDbEntity
  8
0
  6
BYBLOCK
 62
     4
100
AcDbLine
 10
619.1777815507029
 20
222.1266066074812
 30
0.0
 11
619.1777815507029
 21
212.1266066075637
 31
0.0
  0
INSERT
  5
5F8
330
5C9
100
AcDbEntity
  8
0
  6
BYBLOCK
 62
     4
100
AcDbBlockReference
  2
_OPEN
 10
619.1777815507029
 20
222.1266066074812
 30
0.0
 41
7.0
 42
7.0
 43
7.0
 50
270.0
  0
INSERT
  5
5F9
330
5C9
100
AcDbEntity
  8
0
  6
BYBLOCK
 62
     4
100
AcDbBlockReference
  2
_OPEN
 10
619.1777815507029
 20
212.1266066075637
 30
0.0
 41
7.0
 42
7.0
 43
7.0
 50
90.0
  0
MTEXT
  5
5FA
330
5C9
100
AcDbEntity
  8
0
  6
BYBLOCK
 62
     4
100
AcDbMText
 10
614.177781550703
 20
186.0266066075637
 30
0.0
 40
6.0
 41
0.0
 71
     5
 72
     5
  1
\A1;※b10
 11
0.0
 21
1.0
 31
0.0
1001
ACAD
1000
MTEXTBEGIN
1070
    73
1070
     1
1070
    44
1040
1.0
1070
    74
1070
     0
1000
MTEXTEND
1000
MTEXTBEGIN
1070
    73
1070
     1
1070
    44
1040
1.0
1070
    74
1070
     0
1000
MTEXTEND
  0
POINT
  5
5FB
330
5C9
100
AcDbEntity
  8
DEFPOINTS
  6
BYBLOCK
 62
     0
100
AcDbPoint
 10
577.8583105862423
 20
222.1266066074812
 30
0.0
  0
POINT
  5
5FC
330
5C9
100
AcDbEntity
  8
DEFPOINTS
  6
BYBLOCK
 62
     0
100
AcDbPoint
 10
576.6837599369785
 20
212.1266066075637
 30
0.0
  0
POINT
  5
5FD
330
5C9
100
AcDbEntity
  8
DEFPOINTS
  6
BYBLOCK
 62
     0
100
AcDbPoint
 10
619.1777815507029
 20
212.1266066075637
 30
0.0
  0
ENDBLK
  5
5FE
330
5C9
100
AcDbEntity
  8
0
100
AcDbBlockEnd
  0
ENDSEC
  0
SECTION
  2
ENTITIES
  0
LINE
  5
306
330
1A
100
AcDbEntity
  8
CENTER_L
  6
CENTER
 62
     1
 48
5.0
100
AcDbLine
 10
223.1870634732313
 20
181.0837046381824
 30
0.0
 11
223.1870634732315
 21
410.083604638139
 31
0.0
  0
LINE
  5
307
330
1A
100
AcDbEntity
  8
SEIHIN
  6
CONTINUOUS
 62
     3
100
AcDbLine
 10
257.3442634732314
 20
271.9988046382427
 30
0.0
 11
261.8324634732314
 21
334.8353046382428
 31
0.0
  0
LINE
  5
308
330
1A
100
AcDbEntity
  8
SEIHIN
  6
CONTINUOUS
 62
     3
100
AcDbLine
 10
189.0295634732315
 20
271.9988046382427
 30
0.0
 11
184.5414634732314
 21
334.8353046382428
 31
0.0
  0
LINE
  5
309
330
1A
100
AcDbEntity
  8
SEIHIN
  6
CONTINUOUS
 62
     3
100
AcDbLine
 10
186.6356634732314
 20
333.5885046382427
 30
0.0
 11
191.2072634732312
 21
269.5836046382428
 31
0.0
  0
LINE
  5
30A
330
1A
100
AcDbEntity
  8
SEIHIN
  6
CONTINUOUS
 62
     3
100
AcDbLine
 10
259.7382634732314
 20
333.5885046382427
 30
0.0
 11
255.1666634732314
 21
269.5835046382427
 31
0.0
  0
LINE
  5
30B
330
1A
100
AcDbEntity
  8
SEIHIN
  6
CONTINUOUS
 62
     3
100
AcDbLine
 10
178.2188634732315
 20
339.1385046382428
 30
0.0
 11
182.0925634732313
 21
284.9037046382428
 31
0.0
  0
ARC
  5
30C
330
1A
100
AcDbEntity
  8
SEIHIN
  6
CONTINUOUS
 62
     3
100
AcDbCircle
 10
461.6007634732313
 20
343.0748046382428
 30
0.0
 40
299.9999661928999
100
AcDbArc
 50
185.9245461394
 51
191.7659159516999
  0
ARC
  5
30D
330
1A
100
AcDbEntity
  8
SEIHIN
  6
CONTINUOUS
 62
     3
100
AcDbCircle
 10
452.6007634732313
 20
343.0749046382428
 30
0.0
 40
299.9999763886
100
AcDbArc
 50
185.9245461394
 51
191.7659346490999
  0
LINE
  5
30E
330
1A
100
AcDbEntity
  8
SEIHIN
  6
CONTINUOUS
 62
     3
100
AcDbLine
 10
268.1550025013314
 20
339.1384615647428
 30
0.0
 11
264.2812505515314
 21
284.9036652752428
 31
0.0
  0
ARC
  5
30F
330
1A
100
AcDbEntity
  8
SEIHIN
  6
CONTINUOUS
 62
     3
100
AcDbCircle
 10
-6.226806526768541
 20
343.0751046382428
 30
0.0
 40
300.0000068307
100
AcDbArc
 50
348.2338733151
 51
354.0752423355
  0
ARC
  5
310
330
1A
100
AcDbEntity
  8
SEIHIN
  6
CONTINUOUS
 62
     3
100
AcDbCircle
 10
-15.22680652676854
 20
343.0751046382428
 30
0.0
 40
300.0000068307
100
AcDbArc
 50
348.2338733151
 51
354.0752423355
  0
LINE
  5
311
330
1A
100
AcDbEntity
  8
SEIHIN
  6
CONTINUOUS
 62
     3
100
AcDbLine
 10
264.9802634732314
 20
294.6894046382427
 30
0.0
 11
264.2812634732313
 21
284.9037046382428
 31
0.0
  0
ARC
  5
312
330
1A
100
AcDbEntity
  8
SEIHIN
  6
CONTINUOUS
 62
     3
100
AcDbCircle
 10
235.1884634732314
 20
292.2256046382427
 30
0.0
 40
30.0000682391
100
AcDbArc
 50
317.6058183821
 51
345.8735234583
  0
ARC
  5
313
330
1A
100
AcDbEntity
  8
SEIHIN
  6
CONTINUOUS
 62
     3
100
AcDbCircle
 10
259.5555634732313
 20
247.0833046382427
 30
0.0
 40
2.9999852083
100
AcDbArc
 50
270.0
 51
350.485242785
  0
LINE
  5
314
330
1A
100
AcDbEntity
  8
SEIHIN
  6
CONTINUOUS
 62
     3
100
AcDbLine
 10
268.5554114509313
 20
244.0832759728428
 30
0.0
 11
223.1869114509313
 21
244.0833046382428
 31
0.0
  0
LINE
  5
315
330
1A
100
AcDbEntity
  8
SEIHIN
  6
CONTINUOUS
 62
     3
100
AcDbLine
 10
274.8645634732315
 20
259.0833046382428
 30
0.0
 11
223.1869634732315
 21
259.0833046382428
 31
0.0
  0
LINE
  5
316
330
1A
100
AcDbEntity
  8
SEIHIN
  6
CONTINUOUS
 62
     3
100
AcDbLine
 10
276.1868634732313
 20
264.0833046382427
 30
0.0
 11
223.1869634732315
 21
264.0833046382427
 31
0.0
  0
LINE
  5
317
330
1A
100
AcDbEntity
  8
SEIHIN
  6
CONTINUOUS
 62
     3
100
AcDbLine
 10
264.6868634732313
 20
200.3899298989427
 30
0.0
 11
223.1868634732313
 21
200.3899298989427
 31
0.0
  0
LINE
  5
318
330
1A
100
AcDbEntity
  8
SEIHIN
  6
CONTINUOUS
 62
     3
100
AcDbLine
 10
223.1870634732313
 20
269.5836046382428
 30
0.0
 11
191.2072634732312
 21
269.5836046382428
 31
0.0
  0
LINE
  5
319
330
1A
100
AcDbEntity
  8
SEIHIN
  6
CONTINUOUS
 62
     3
100
AcDbLine
 10
170.7582634732314
 20
259.0834046382427
 30
0.0
 11
223.1868634732313
 21
259.0833046382428
 31
0.0
  0
LINE
  5
31A
330
1A
100
AcDbEntity
  8
SEIHIN
  6
CONTINUOUS
 62
     3
100
AcDbLine
 10
177.8183634732313
 20
244.0833194299427
 30
0.0
 11
223.1868634732313
 21
244.0833046382428
 31
0.0
  0
LINE
  5
31B
330
1A
100
AcDbEntity
  8
SEIHIN
  6
CONTINUOUS
 62
     3
100
AcDbLine
 10
170.1869634732315
 20
264.0834046382427
 30
0.0
 11
223.1868634732313
 21
264.0833046382427
 31
0.0
  0
LINE
  5
31C
330
1A
100
AcDbEntity
  8
SEIHIN
  6
CONTINUOUS
 62
     3
100
AcDbLine
 10
181.6868634732313
 20
200.3899298989427
 30
0.0
 11
223.1868634732313
 21
200.3899298989427
 31
0.0
  0
LINE
  5
31D
330
1A
100
AcDbEntity
  8
SEIHIN
  6
CONTINUOUS
 62
     3
100
AcDbLine
 10
223.1867634732314
 20
196.0837046382428
 30
0.0
 11
187.9369634732315
 21
196.0836046382428
 31
0.0
  0
LINE
  5
31E
330
1A
100
AcDbEntity
  8
SEIHIN
  6
CONTINUOUS
 62
     3
100
AcDbLine
 10
180.4695904632312
 20
212.8374923039427
 30
0.0
 11
179.9241927802313
 21
244.0833046382428
 31
0.0
  0
ARC
  5
31F
330
1A
100
AcDbEntity
  8
SEIHIN
  6
CONTINUOUS
 62
     3
100
AcDbCircle
 10
280.4086731651313
 20
216.3274419742427
 30
0.0
 40
100.0
100
AcDbArc
 50
182.0
 51
189.1706278673
  0
LINE
  5
320
330
1A
100
AcDbEntity
  8
SEIHIN
  6
CONTINUOUS
 62
     3
100
AcDbLine
 10
187.0757384211315
 20
200.3899298989427
 30
0.0
 11
187.9369634732315
 21
196.0838046382427
 31
0.0
  0
ARC
  5
321
330
1A
100
AcDbEntity
  8
SEIHIN
  6
CONTINUOUS
 62
     3
100
AcDbCircle
 10
188.2737634732316
 20
288.0180046382428
 30
0.0
 40
29.99996207469999
100
AcDbArc
 50
191.7659206212
 51
232.4536142644999
  0
LINE
  5
322
330
1A
100
AcDbEntity
  8
SEIHIN
  6
CONTINUOUS
 62
     3
100
AcDbLine
 10
179.1869634732315
 20
263.8358046382427
 30
0.0
 11
179.1869634732315
 21
259.9106046382428
 31
0.0
  0
LINE
  5
323
330
1A
100
AcDbEntity
  8
SEIHIN
  6
CONTINUOUS
 62
     3
100
AcDbLine
 10
170.1869634732315
 20
263.8358046382427
 30
0.0
 11
170.1869634732315
 21
259.9106046382428
 31
0.0
  0
ARC
  5
324
330
1A
100
AcDbEntity
  8
SEIHIN
  6
CONTINUOUS
 62
     3
100
AcDbCircle
 10
197.2737634732316
 20
288.0180046382428
 30
0.0
 40
29.99996207469999
100
AcDbArc
 50
191.7659206212
 51
232.4536142644999
  0
ARC
  5
325
330
1A
100
AcDbEntity
  8
SEIHIN
  6
CONTINUOUS
 62
     3
100
AcDbCircle
 10
177.8183634732313
 20
247.0833046382427
 30
0.0
 40
2.9999852083
100
AcDbArc
 50
189.5147572149999
 51
270.0
  0
ARC
  5
326
330
1A
100
AcDbEntity
  8
SEIHIN
  6
CONTINUOUS
 62
     3
100
AcDbCircle
 10
140.3411934732314
 20
240.8015046382428
 30
0.0
 40
35.000030068
100
AcDbArc
 50
9.5154823824
 51
30.1901323686
  0
ARC
  5
327
330
1A
100
AcDbEntity
  8
SEIHIN
  6
CONTINUOUS
 62
     3
100
AcDbCircle
 10
173.1869634732315
 20
259.9106046382428
 30
0.0
 40
3.0000034642
100
AcDbArc
 50
180.0
 51
210.1897620818
  0
ARC
  5
328
330
1A
100
AcDbEntity
  8
SEIHIN
  6
CONTINUOUS
 62
     3
100
AcDbCircle
 10
182.1869634732315
 20
259.9106046382428
 30
0.0
 40
3.0000286081
100
AcDbArc
 50
180.0
 51
210.1914128652
  0
ARC
  5
329
330
1A
100
AcDbEntity
  8
SEIHIN
  6
CONTINUOUS
 62
     3
100
AcDbCircle
 10
149.3411634732315
 20
240.8015046382428
 30
0.0
 40
35.0000244179
100
AcDbArc
 50
9.515312814099999
 51
30.1899661743
  0
ARC
  5
32A
330
1A
100
AcDbEntity
  8
SEIHIN
  6
CONTINUOUS
 62
     3
100
AcDbCircle
 10
186.8183634732313
 20
247.0833046382427
 30
0.0
 40
2.9999852083
100
AcDbArc
 50
189.5147572149999
 51
270.0
  0
ARC
  5
32B
330
1A
100
AcDbEntity
  8
SEIHIN
  6
CONTINUOUS
 62
     3
100
AcDbCircle
 10
169.6869634732315
 20
263.8358046382427
 30
0.0
 40
0.4999875247
100
AcDbArc
 50
0.0
 51
52.45167061770001
  0
LINE
  5
32C
330
1A
100
AcDbEntity
  8
SEIHIN
  6
CONTINUOUS
 62
     3
100
AcDbLine
 10
189.0295634732315
 20
271.9988046382427
 30
0.0
 11
191.0346634732313
 21
271.9988046382427
 31
0.0
  0
ARC
  5
32D
330
1A
100
AcDbEntity
  8
SEIHIN
  6
CONTINUOUS
 62
     3
100
AcDbCircle
 10
178.6869634732315
 20
263.8358046382427
 30
0.0
 40
0.4999875247
100
AcDbArc
 50
0.0
 51
52.45167061770001
  0
ARC
  5
32E
330
1A
100
AcDbEntity
  8
SEIHIN
  6
CONTINUOUS
 62
     3
100
AcDbCircle
 10
211.1853634732315
 20
292.2256046382427
 30
0.0
 40
30.0000345277
100
AcDbArc
 50
194.1264765417
 51
222.3940405705
  0
LINE
  5
32F
330
1A
100
AcDbEntity
  8
SEIHIN
  6
CONTINUOUS
 62
     3
100
AcDbLine
 10
223.1870634732313
 20
196.0837046382428
 30
0.0
 11
258.4369634732315
 21
196.0836046382428
 31
0.0
  0
LINE
  5
330
330
1A
100
AcDbEntity
  8
SEIHIN
  6
CONTINUOUS
 62
     3
100
AcDbLine
 10
259.2982085253315
 20
200.3899298989427
 30
0.0
 11
258.4369634732315
 21
196.0837046382428
 31
0.0
  0
LINE
  5
331
330
1A
100
AcDbEntity
  8
SEIHIN
  6
CONTINUOUS
 62
     3
100
AcDbLine
 10
223.1867634732314
 20
269.5836046382428
 30
0.0
 11
255.1666634732314
 21
269.5835046382427
 31
0.0
  0
LINE
  5
332
330
1A
100
AcDbEntity
  8
SEIHIN
  6
CONTINUOUS
 62
     3
100
AcDbLine
 10
257.3442634732314
 20
271.9988046382427
 30
0.0
 11
255.3391634732315
 21
271.9988046382427
 31
0.0
  0
LINE
  5
333
330
1A
100
AcDbEntity
  8
SEIHIN
  6
CONTINUOUS
 62
     3
100
AcDbLine
 10
265.9041364832314
 20
212.8374923039427
 30
0.0
 11
266.4495341662314
 21
244.0833046382428
 31
0.0
  0
ARC
  5
334
330
1A
100
AcDbEntity
  8
SEIHIN
  6
CONTINUOUS
 62
     3
100
AcDbCircle
 10
165.9650537813313
 20
216.3274419742427
 30
0.0
 40
100.0
100
AcDbArc
 50
350.8293721327
 51
358.0
  0
LINE
  5
335
330
1A
100
AcDbEntity
  8
SEIHIN
  6
CONTINUOUS
 62
     3
100
AcDbLine
 10
267.1868634732313
 20
263.8357046382428
 30
0.0
 11
267.1868634732313
 21
259.9104046382427
 31
0.0
  0
LINE
  5
336
330
1A
100
AcDbEntity
  8
SEIHIN
  6
CONTINUOUS
 62
     3
100
AcDbLine
 10
276.1868634732313
 20
263.8357046382428
 30
0.0
 11
276.1868634732313
 21
259.9104046382427
 31
0.0
  0
ARC
  5
337
330
1A
100
AcDbEntity
  8
SEIHIN
  6
CONTINUOUS
 62
     3
100
AcDbCircle
 10
249.1000634732313
 20
288.0180046382428
 30
0.0
 40
30.00006086289999
100
AcDbArc
 50
307.5462693483
 51
348.2339313505999
  0
ARC
  5
338
330
1A
100
AcDbEntity
  8
SEIHIN
  6
CONTINUOUS
 62
     3
100
AcDbCircle
 10
258.1000634732313
 20
288.0180046382428
 30
0.0
 40
30.00006086289999
100
AcDbArc
 50
307.5462693483
 51
348.2339313505999
  0
ARC
  5
339
330
1A
100
AcDbEntity
  8
SEIHIN
  6
CONTINUOUS
 62
     3
100
AcDbCircle
 10
306.0326634732314
 20
240.8014046382428
 30
0.0
 40
34.9999833715
100
AcDbArc
 50
149.8100338257
 51
170.484498674
  0
ARC
  5
33A
330
1A
100
AcDbEntity
  8
SEIHIN
  6
CONTINUOUS
 62
     3
100
AcDbCircle
 10
273.1868634732313
 20
259.9104046382427
 30
0.0
 40
3.0000034642
100
AcDbArc
 50
329.8102379182
 51
0.0
  0
ARC
  5
33B
330
1A
100
AcDbEntity
  8
SEIHIN
  6
CONTINUOUS
 62
     3
100
AcDbCircle
 10
264.1868634732313
 20
259.9104046382427
 30
0.0
 40
3.0000034642
100
AcDbArc
 50
329.8102379182
 51
0.0
  0
ARC
  5
33C
330
1A
100
AcDbEntity
  8
SEIHIN
  6
CONTINUOUS
 62
     3
100
AcDbCircle
 10
297.0326634732314
 20
240.8014046382428
 30
0.0
 40
34.9999833715
100
AcDbArc
 50
149.8100338257
 51
170.484498674
  0
ARC
  5
33D
330
1A
100
AcDbEntity
  8
SEIHIN
  6
CONTINUOUS
 62
     3
100
AcDbCircle
 10
268.5555634732313
 20
247.0833046382427
 30
0.0
 40
2.9999852083
100
AcDbArc
 50
270.0
 51
350.485242785
  0
ARC
  5
33E
330
1A
100
AcDbEntity
  8
SEIHIN
  6
CONTINUOUS
 62
     3
100
AcDbCircle
 10
276.6868634732313
 20
263.8357046382428
 30
0.0
 40
0.4999875247
100
AcDbArc
 50
127.5483293824
 51
180.0
  0
ARC
  5
33F
330
1A
100
AcDbEntity
  8
SEIHIN
  6
CONTINUOUS
 62
     3
100
AcDbCircle
 10
267.6868634732313
 20
263.8357046382428
 30
0.0
 40
0.4999875247
100
AcDbArc
 50
127.5483293824
 51
180.0
  0
ARC
  5
340
330
1A
100
AcDbEntity
  8
SEIHIN
  6
CONTINUOUS
 62
     3
100
AcDbCircle
 10
271.6458634732314
 20
359.2821046382428
 30
0.0
 40
19.99992083409999
100
AcDbArc
 50
203.3852068438
 51
258.7779946571
  0
ARC
  5
341
330
1A
100
AcDbEntity
  8
SEIHIN
  6
CONTINUOUS
 62
     3
100
AcDbCircle
 10
271.6458634732314
 20
359.2821046382428
 30
0.0
 40
25.9999566631
100
AcDbArc
 50
210.5872986475
 51
247.0990449673999
  0
LINE
  5
343
330
1A
100
AcDbEntity
  8
SEIHIN
  6
CONTINUOUS
 62
     3
100
AcDbLine
 10
310.2345634732314
 20
390.0835046382429
 30
0.0
 11
223.1869634732315
 21
390.0835046382429
 31
0.0
  0
LINE
  5
344
330
1A
100
AcDbEntity
  8
SEIHIN
  6
CONTINUOUS
 62
     3
100
AcDbLine
 10
311.1870634732313
 20
395.0835046382429
 30
0.0
 11
223.1869634732315
 21
395.0836046382429
 31
0.0
  0
LINE
  5
345
330
1A
100
AcDbEntity
  8
SEIHIN
  6
CONTINUOUS
 62
     3
100
AcDbLine
 10
298.1872634732312
 20
370.0835046382429
 30
0.0
 11
223.1869634732315
 21
370.0836046382428
 31
0.0
  0
LINE
  5
346
330
1A
100
AcDbEntity
  8
SEIHIN
  6
CONTINUOUS
 62
     3
100
AcDbLine
 10
307.1869634732316
 20
373.0835046382429
 30
0.0
 11
223.1869634732315
 21
373.0836046382429
 31
0.0
  0
LINE
  5
347
330
1A
100
AcDbEntity
  8
SEIHIN
  6
CONTINUOUS
 62
     3
100
AcDbLine
 10
137.2389234732313
 20
389.6420046382428
 30
0.0
 11
139.1499034732314
 21
373.3990046382428
 31
0.0
  0
LINE
  5
348
330
1A
100
AcDbEntity
  8
SEIHIN
  6
CONTINUOUS
 62
     3
100
AcDbLine
 10
197.2253634732314
 20
346.2487046382427
 30
0.0
 11
193.1869634732315
 21
351.5837046382427
 31
0.0
  0
ARC
  5
349
330
1A
100
AcDbEntity
  8
SEIHIN
  6
CONTINUOUS
 62
     3
100
AcDbCircle
 10
223.1869634732315
 20
203.0836046382428
 30
0.0
 40
151.499976372
100
AcDbArc
 50
90.00003781899998
 51
101.3213545274
  0
ARC
  5
34A
330
1A
100
AcDbEntity
  8
SEIHIN
  6
CONTINUOUS
 62
     3
100
AcDbCircle
 10
174.7279634732312
 20
359.2822046382428
 30
0.0
 40
25.9999821057
100
AcDbArc
 50
292.9009550326
 51
329.4125116474
  0
ARC
  5
34B
330
1A
100
AcDbEntity
  8
SEIHIN
  6
CONTINUOUS
 62
     3
100
AcDbCircle
 10
174.7279634732312
 20
359.2822046382428
 30
0.0
 40
28.0000222742
100
AcDbArc
 50
295.8050202868999
 51
327.5363566366999
  0
ARC
  5
34C
330
1A
100
AcDbEntity
  8
SEIHIN
  6
CONTINUOUS
 62
     3
100
AcDbCircle
 10
174.7279634732312
 20
359.2822046382428
 30
0.0
 40
19.9999994544
100
AcDbArc
 50
281.2222305924
 51
336.6145302093999
  0
LINE
  5
34D
330
1A
100
AcDbEntity
  8
SEIHIN
  6
CONTINUOUS
 62
     3
100
AcDbLine
 10
148.1866634732314
 20
370.0836046382428
 30
0.0
 11
223.1870634732313
 21
370.0836046382428
 31
0.0
  0
LINE
  5
34E
330
1A
100
AcDbEntity
  8
SEIHIN
  6
CONTINUOUS
 62
     3
100
AcDbLine
 10
139.1870134732314
 20
373.0836046382429
 30
0.0
 11
223.1870634732313
 21
373.0836046382429
 31
0.0
  0
LINE
  5
34F
330
1A
100
AcDbEntity
  8
SEIHIN
  6
CONTINUOUS
 62
     3
100
AcDbLine
 10
154.2031634732316
 20
312.1092046382427
 30
0.0
 11
148.1869634732315
 21
370.0835046382429
 31
0.0
  0
LINE
  5
350
330
1A
100
AcDbEntity
  8
SEIHIN
  6
CONTINUOUS
 62
     3
100
AcDbLine
 10
163.2031634732316
 20
312.1092046382427
 30
0.0
 11
159.0696634732314
 21
351.9407046382427
 31
0.0
  0
LINE
  5
351
330
1A
100
AcDbEntity
  8
SEIHIN
  6
CONTINUOUS
 62
     3
100
AcDbLine
 10
146.6236634732313
 20
356.0837046382427
 30
0.0
 11
145.0627634732313
 21
371.1249046382427
 31
0.0
  0
ARC
  5
352
330
1A
100
AcDbEntity
  8
SEIHIN
  6
CONTINUOUS
 62
     3
100
AcDbCircle
 10
134.2032534732316
 20
349.3602046382427
 30
0.0
 40
25.00001608079999
100
AcDbArc
 50
5.9246118747
 51
55.98923137319999
  0
LINE
  5
353
330
1A
100
AcDbEntity
  8
SEIHIN
  6
CONTINUOUS
 62
     3
100
AcDbLine
 10
146.6236634732313
 20
356.0837046382427
 30
0.0
 11
149.6397634732316
 21
356.0837046382427
 31
0.0
  0
LINE
  5
354
330
1A
100
AcDbEntity
  8
SEIHIN
  6
CONTINUOUS
 62
     3
100
AcDbLine
 10
139.4883534732314
 20
372.9831046382428
 30
0.0
 11
148.1869634732315
 21
370.0835046382429
 31
0.0
  0
ARC
  5
355
330
1A
100
AcDbEntity
  8
SEIHIN
  6
CONTINUOUS
 62
     3
100
AcDbCircle
 10
139.6464734732312
 20
373.4575046382429
 30
0.0
 40
0.500030653
100
AcDbArc
 50
186.7189412688
 51
251.5665004923
  0
LINE
  5
356
330
1A
100
AcDbEntity
  8
SEIHIN
  6
CONTINUOUS
 62
     3
100
AcDbLine
 10
146.2812634732313
 20
359.3837046382428
 30
0.0
 11
149.2972634732313
 21
359.3837046382428
 31
0.0
  0
ARC
  5
357
330
1A
100
AcDbEntity
  8
SEIHIN
  6
CONTINUOUS
 62
     3
100
AcDbCircle
 10
193.5440634732312
 20
351.1455046382427
 30
0.0
 40
0.4999945481000001
100
AcDbArc
 50
101.3256625774999
 51
156.6193276483
  0
ARC
  5
358
330
1A
100
AcDbEntity
  8
SEIHIN
  6
CONTINUOUS
 62
     3
100
AcDbCircle
 10
187.1343634732316
 20
333.6242046382428
 30
0.0
 40
0.4999579729
100
AcDbArc
 50
115.8013577103
 51
184.0945979495
  0
ARC
  5
359
330
1A
100
AcDbEntity
  8
SEIHIN
  6
CONTINUOUS
 62
     3
100
AcDbCircle
 10
185.0402634732313
 20
334.8709046382428
 30
0.0
 40
0.5000451574
100
AcDbArc
 50
112.9036883703
 51
184.0823515050999
  0
ARC
  5
35A
330
1A
100
AcDbEntity
  8
SEIHIN
  6
CONTINUOUS
 62
     3
100
AcDbCircle
 10
178.7175634732314
 20
339.1741046382428
 30
0.0
 40
0.5000132929
100
AcDbArc
 50
101.2200497655999
 51
184.0831673352
  0
LINE
  5
35B
330
1A
100
AcDbEntity
  8
SEIHIN
  6
CONTINUOUS
 62
     3
100
AcDbLine
 10
184.5157634732313
 20
335.1948046382428
 30
0.0
 11
178.1870634732313
 21
339.5836046382427
 31
0.0
  0
ARC
  5
35C
330
1A
100
AcDbEntity
  8
SEIHIN
  6
CONTINUOUS
 62
     3
100
AcDbCircle
 10
223.1868634732313
 20
203.0836046382428
 30
0.0
 40
145.4999976994
100
AcDbArc
 50
79.8123346797
 51
89.99992124290001
  0
ARC
  5
35D
330
1A
100
AcDbEntity
  8
SEIHIN
  6
CONTINUOUS
 62
     3
100
AcDbCircle
 10
223.1868634732313
 20
203.0836046382428
 30
0.0
 40
143.500000814
100
AcDbArc
 50
80.1704052562
 51
89.9999201453
  0
ARC
  5
35E
330
1A
100
AcDbEntity
  8
SEIHIN
  6
CONTINUOUS
 62
     3
100
AcDbCircle
 10
223.1868634732313
 20
203.0836046382428
 30
0.0
 40
151.4999763720999
100
AcDbArc
 50
78.67864547259999
 51
89.99992436200001
  0
ARC
  5
35F
330
1A
100
AcDbEntity
  8
SEIHIN
  6
CONTINUOUS
 62
     3
100
AcDbCircle
 10
223.1869634732315
 20
203.0836046382428
 30
0.0
 40
143.4999954600999
100
AcDbArc
 50
90.00003992739999
 51
99.8309732438
  0
ARC
  5
360
330
1A
100
AcDbEntity
  8
SEIHIN
  6
CONTINUOUS
 62
     3
100
AcDbCircle
 10
223.1869634732315
 20
203.0836046382428
 30
0.0
 40
145.4999888556999
100
AcDbArc
 50
90.00003937850001
 51
100.1876265625999
  0
ARC
  5
361
330
1A
100
AcDbEntity
  8
SEIHIN
  6
CONTINUOUS
 62
     3
100
AcDbCircle
 10
197.5406634732314
 20
345.7976046382428
 30
0.0
 40
0.5000221338000001
100
AcDbArc
 50
100.1951768579
 51
149.4194279667
  0
ARC
  5
362
330
1A
100
AcDbEntity
  8
SEIHIN
  6
CONTINUOUS
 62
     3
100
AcDbCircle
 10
198.7743634732314
 20
343.9844046382428
 30
0.0
 40
0.4999423215000001
100
AcDbArc
 50
99.8240783818
 51
147.5305656258
  0
ARC
  5
363
330
1A
100
AcDbEntity
  8
SEIHIN
  6
CONTINUOUS
 62
     3
100
AcDbCircle
 10
252.8298634732314
 20
351.1454046382427
 30
0.0
 40
0.5000143943
100
AcDbArc
 50
23.3911907592
 51
78.67433742260002
  0
ARC
  5
364
330
1A
100
AcDbEntity
  8
SEIHIN
  6
CONTINUOUS
 62
     3
100
AcDbCircle
 10
259.2395634732315
 20
333.6241046382427
 30
0.0
 40
0.5000211868
100
AcDbArc
 50
355.9168326648
 51
64.1933139216
  0
ARC
  5
365
330
1A
100
AcDbEntity
  8
SEIHIN
  6
CONTINUOUS
 62
     3
100
AcDbCircle
 10
248.8332634732314
 20
345.7976046382428
 30
0.0
 40
0.4999790893000001
100
AcDbArc
 50
30.58640229869999
 51
79.80482314220002
  0
ARC
  5
366
330
1A
100
AcDbEntity
  8
SEIHIN
  6
CONTINUOUS
 62
     3
100
AcDbCircle
 10
247.5995634732314
 20
343.9844046382428
 30
0.0
 40
0.4999423215000001
100
AcDbArc
 50
32.46943437409999
 51
80.1759216183
  0
ARC
  5
367
330
1A
100
AcDbEntity
  8
SEIHIN
  6
CONTINUOUS
 62
     3
100
AcDbCircle
 10
271.6458634732314
 20
359.2821046382428
 30
0.0
 40
27.99995042199999
100
AcDbArc
 50
212.4634707118999
 51
244.1948906364
  0
LINE
  5
368
330
1A
100
AcDbEntity
  8
SEIHIN
  6
CONTINUOUS
 62
     3
100
AcDbLine
 10
249.1485634732314
 20
346.2487046382427
 30
0.0
 11
253.1869634732315
 21
351.5836046382428
 31
0.0
  0
LINE
  5
369
330
1A
100
AcDbEntity
  8
SEIHIN
  6
CONTINUOUS
 62
     3
100
AcDbLine
 10
135.1869834732315
 20
395.0835046382429
 30
0.0
 11
223.1870634732313
 21
395.0836046382429
 31
0.0
  0
LINE
  5
36A
330
1A
100
AcDbEntity
  8
SEIHIN
  6
CONTINUOUS
 62
     3
100
AcDbLine
 10
136.1394434732315
 20
390.0835046382429
 30
0.0
 11
223.1869634732315
 21
390.0835046382429
 31
0.0
  0
LINE
  5
36B
330
1A
100
AcDbEntity
  8
SEIHIN
  6
CONTINUOUS
 62
     3
100
AcDbLine
 10
135.1869834732315
 20
395.0835046382429
 30
0.0
 11
135.6419234732316
 21
390.5338046382429
 31
0.0
  0
ARC
  5
36C
330
1A
100
AcDbEntity
  8
SEIHIN
  6
CONTINUOUS
 62
     3
100
AcDbCircle
 10
136.1394434732315
 20
390.5835046382429
 30
0.0
 40
0.4999981202
100
AcDbArc
 50
185.704663904
 51
270.0
  0
ARC
  5
36D
330
1A
100
AcDbEntity
  8
SEIHIN
  6
CONTINUOUS
 62
     3
100
AcDbCircle
 10
136.7423434732313
 20
389.5835046382429
 30
0.0
 40
0.5000069731
100
AcDbArc
 50
6.718807201499999
 51
90.0
  0
LINE
  5
36E
330
1A
100
AcDbEntity
  8
SEIHIN
  6
CONTINUOUS
 62
     3
100
AcDbLine
 10
309.1350634732314
 20
389.6419046382428
 30
0.0
 11
307.2240634732315
 21
373.3990046382428
 31
0.0
  0
LINE
  5
36F
330
1A
100
AcDbEntity
  8
SEIHIN
  6
CONTINUOUS
 62
     3
100
AcDbLine
 10
292.1707634732315
 20
312.1091046382427
 30
0.0
 11
298.1869634732315
 21
370.0834046382429
 31
0.0
  0
LINE
  5
370
330
1A
100
AcDbEntity
  8
SEIHIN
  6
CONTINUOUS
 62
     3
100
AcDbLine
 10
283.1707634732315
 20
312.1091046382427
 30
0.0
 11
287.3041634732312
 21
351.9406046382428
 31
0.0
  0
ARC
  5
371
330
1A
100
AcDbEntity
  8
SEIHIN
  6
CONTINUOUS
 62
     3
100
AcDbCircle
 10
312.1706634732313
 20
349.3601046382427
 30
0.0
 40
24.9999306105
100
AcDbArc
 50
124.0105596511
 51
174.0753621034
  0
ARC
  5
372
330
1A
100
AcDbEntity
  8
SEIHIN
  6
CONTINUOUS
 62
     3
100
AcDbCircle
 10
267.6563634732315
 20
339.1741046382428
 30
0.0
 40
0.4999642487
100
AcDbArc
 50
355.9168326648999
 51
78.7777203584
  0
ARC
  5
373
330
1A
100
AcDbEntity
  8
SEIHIN
  6
CONTINUOUS
 62
     3
100
AcDbCircle
 10
261.3337634732315
 20
334.8709046382428
 30
0.0
 40
0.4999758294
100
AcDbArc
 50
355.9168326648
 51
67.106867717
  0
LINE
  5
374
330
1A
100
AcDbEntity
  8
SEIHIN
  6
CONTINUOUS
 62
     3
100
AcDbLine
 10
261.8581634732313
 20
335.1948046382428
 30
0.0
 11
268.1868634732313
 21
339.5835046382428
 31
0.0
  0
LINE
  5
375
330
1A
100
AcDbEntity
  8
SEIHIN
  6
CONTINUOUS
 62
     3
100
AcDbLine
 10
299.7502634732313
 20
356.0837046382427
 30
0.0
 11
301.3111634732313
 21
371.1249046382427
 31
0.0
  0
LINE
  5
376
330
1A
100
AcDbEntity
  8
SEIHIN
  6
CONTINUOUS
 62
     3
100
AcDbLine
 10
299.7502634732313
 20
356.0837046382427
 30
0.0
 11
296.7341634732315
 21
356.0837046382427
 31
0.0
  0
ARC
  5
377
330
1A
100
AcDbEntity
  8
SEIHIN
  6
CONTINUOUS
 62
     3
100
AcDbCircle
 10
306.7274634732314
 20
373.4574046382427
 30
0.0
 40
0.4999891088
100
AcDbArc
 50
288.4349488229
 51
353.2928408779
  0
LINE
  5
378
330
1A
100
AcDbEntity
  8
SEIHIN
  6
CONTINUOUS
 62
     3
100
AcDbLine
 10
306.8856634732314
 20
372.9830046382429
 30
0.0
 11
298.1869634732315
 21
370.0834046382429
 31
0.0
  0
LINE
  5
379
330
1A
100
AcDbEntity
  8
SEIHIN
  6
CONTINUOUS
 62
     3
100
AcDbLine
 10
300.0927634732315
 20
359.3836046382428
 30
0.0
 11
297.0766634732313
 21
359.3836046382428
 31
0.0
  0
ARC
  5
37A
330
1A
100
AcDbEntity
  8
SEIHIN
  6
CONTINUOUS
 62
     3
100
AcDbCircle
 10
309.6315634732313
 20
389.5835046382429
 30
0.0
 40
0.4999614020000001
100
AcDbArc
 50
90.0
 51
173.2915023010999
  0
LINE
  5
37B
330
1A
100
AcDbEntity
  8
SEIHIN
  6
CONTINUOUS
 62
     3
100
AcDbLine
 10
311.1870634732313
 20
395.0834046382429
 30
0.0
 11
310.7320634732313
 21
390.5337046382429
 31
0.0
  0
ARC
  5
37C
330
1A
100
AcDbEntity
  8
SEIHIN
  6
CONTINUOUS
 62
     3
100
AcDbCircle
 10
310.2345634732314
 20
390.5835046382429
 30
0.0
 40
0.4999931449
100
AcDbArc
 50
270.0
 51
354.283705563
  0
ARC
  5
385
330
1A
100
AcDbEntity
  8
SEIHIN
  6
CONTINUOUS
 62
     3
100
AcDbCircle
 10
787.0687458107846
 20
343.9661652752428
 30
0.0
 40
299.9999738257999
100
AcDbArc
 50
187.9483497695
 51
193.1537167857
  0
ARC
  5
386
330
1A
100
AcDbEntity
  8
SEIHIN
  6
CONTINUOUS
 62
     3
100
AcDbCircle
 10
796.0687458107845
 20
343.9661652752428
 30
0.0
 40
299.9999469539
100
AcDbArc
 50
187.9483497695
 51
193.1483844553
  0
LINE
  5
387
330
1A
100
AcDbEntity
  8
SEIHIN
  6
CONTINUOUS
 62
     3
100
AcDbLine
 10
622.0399458107843
 20
345.1757652752428
 30
0.0
 11
613.7083458107845
 21
237.6718652752427
 31
0.0
  0
LINE
  5
388
330
1A
100
AcDbEntity
  8
SEIHIN
  6
CONTINUOUS
 62
     3
100
AcDbLine
 10
606.9212458107845
 20
191.2102905359428
 30
0.0
 11
523.9212458107543
 21
191.2102905359428
 31
0.0
  0
LINE
  5
389
330
1A
100
AcDbEntity
  8
SEIHIN
  6
CONTINUOUS
 62
     3
100
AcDbLine
 10
530.1713458106712
 20
186.9041652758101
 30
0.0
 11
600.6713458107847
 21
186.9039652752428
 31
0.0
  0
LINE
  5
38B
330
1A
100
AcDbEntity
  8
SEIHIN
  6
CONTINUOUS
 62
     3
100
AcDbLine
 10
615.0438458107847
 20
254.9036652752428
 30
0.0
 11
512.4937458107847
 21
254.9036652752428
 31
0.0
  0
LINE
  5
38C
330
1A
100
AcDbEntity
  8
SEIHIN
  6
CONTINUOUS
 62
     3
100
AcDbLine
 10
614.6563458107848
 20
249.9036652752428
 30
0.0
 11
514.2386458107844
 21
249.9036652752428
 31
0.0
  0
LINE
  5
38D
330
1A
100
AcDbEntity
  8
SEIHIN
  6
CONTINUOUS
 62
     3
100
AcDbLine
 10
610.7173458107845
 20
234.9036652752428
 30
0.0
 11
520.1251458107845
 21
234.9036652752428
 31
0.0
  0
LINE
  5
38F
330
1A
100
AcDbEntity
  8
CENTER_L
  6
CENTER
 62
     1
 48
5.0
100
AcDbLine
 10
566.4938664382844
 20
264.7189276762428
 30
0.0
 11
566.4937292992845
 21
173.8786459043428
 31
0.0
  0
ARC
  5
391
330
1A
100
AcDbEntity
  8
SEIHIN
  6
CONTINUOUS
 62
     3
100
AcDbCircle
 10
622.6430555026844
 20
207.1478026112428
 30
0.0
 40
100.0
100
AcDbArc
 50
182.0
 51
189.1706278673
  0
LINE
  5
394
330
1A
100
AcDbEntity
  8
SEIHIN
  6
CONTINUOUS
 62
     3
100
AcDbLine
 10
529.3101207586846
 20
191.2102905359428
 30
0.0
 11
530.1713458107847
 21
186.9041652752428
 31
0.0
  0
ARC
  5
395
330
1A
100
AcDbEntity
  8
SEIHIN
  6
CONTINUOUS
 62
     3
100
AcDbCircle
 10
533.1471458107844
 20
282.5478652752428
 30
0.0
 40
29.9999868557
100
AcDbArc
 50
193.1483745463
 51
246.5172280566
  0
ARC
  5
396
330
1A
100
AcDbEntity
  8
SEIHIN
  6
CONTINUOUS
 62
     3
100
AcDbCircle
 10
524.1471458107844
 20
282.5478652752428
 30
0.0
 40
29.9999868557
100
AcDbArc
 50
193.1483745463
 51
246.5172280566
  0
ARC
  5
397
330
1A
100
AcDbEntity
  8
SEIHIN
  6
CONTINUOUS
 62
     3
100
AcDbCircle
 10
491.6479458107846
 20
231.6217652752428
 30
0.0
 40
35.0000759017
100
AcDbArc
 50
9.515474263799999
 51
30.1898838538
  0
ARC
  5
398
330
1A
100
AcDbEntity
  8
SEIHIN
  6
CONTINUOUS
 62
     3
100
AcDbCircle
 10
482.6479458107846
 20
231.6217652752428
 30
0.0
 40
35.0000759017
100
AcDbArc
 50
9.515474263799999
 51
30.1898838538
  0
LINE
  5
399
330
1A
100
AcDbEntity
  8
SEIHIN
  6
CONTINUOUS
 62
     3
100
AcDbLine
 10
522.7039728007844
 20
203.6578529409427
 30
0.0
 11
522.1585751177845
 21
234.9036652752428
 31
0.0
  0
ARC
  5
39A
330
1A
100
AcDbEntity
  8
SEIHIN
  6
CONTINUOUS
 62
     3
100
AcDbCircle
 10
520.1251458107845
 20
237.9036652752428
 30
0.0
 40
2.9999852083
100
AcDbArc
 50
189.5147572149999
 51
270.0
  0
ARC
  5
39B
330
1A
100
AcDbEntity
  8
SEIHIN
  6
CONTINUOUS
 62
     3
100
AcDbCircle
 10
529.1251458107844
 20
237.9036652752428
 30
0.0
 40
2.9999852083
100
AcDbArc
 50
189.5147572149999
 51
270.0
  0
LINE
  5
39C
330
1A
100
AcDbEntity
  8
SEIHIN
  6
CONTINUOUS
 62
     3
100
AcDbLine
 10
512.4937458107847
 20
254.5737652752428
 30
0.0
 11
512.4937458107847
 21
250.7307652752428
 31
0.0
  0
ARC
  5
39D
330
1A
100
AcDbEntity
  8
SEIHIN
  6
CONTINUOUS
 62
     3
100
AcDbCircle
 10
515.4937458107847
 20
250.7307652752428
 30
0.0
 40
2.9999602461
100
AcDbArc
 50
180.0
 51
210.1907225095999
  0
ARC
  5
39E
330
1A
100
AcDbEntity
  8
SEIHIN
  6
CONTINUOUS
 62
     3
100
AcDbCircle
 10
511.9937458107847
 20
254.5737652752428
 30
0.0
 40
0.5000172244
100
AcDbArc
 50
0.0
 51
66.51102869890002
  0
LINE
  5
39F
330
1A
100
AcDbEntity
  8
SEIHIN
  6
CONTINUOUS
 62
     3
100
AcDbLine
 10
521.4937458107847
 20
254.5737652752428
 30
0.0
 11
521.4937458107847
 21
250.7307652752428
 31
0.0
  0
ARC
  5
3A0
330
1A
100
AcDbEntity
  8
SEIHIN
  6
CONTINUOUS
 62
     3
100
AcDbCircle
 10
524.4937458107847
 20
250.7307652752428
 30
0.0
 40
2.9999602461
100
AcDbArc
 50
180.0
 51
210.1907225095999
  0
ARC
  5
3A1
330
1A
100
AcDbEntity
  8
SEIHIN
  6
CONTINUOUS
 62
     3
100
AcDbCircle
 10
520.9937458107847
 20
254.5737652752428
 30
0.0
 40
0.5000172244
100
AcDbArc
 50
0.0
 51
66.51102869890002
  0
ARC
  5
3A3
330
1A
100
AcDbEntity
  8
SEIHIN
  6
CONTINUOUS
 62
     3
100
AcDbCircle
 10
508.1994361188844
 20
207.1478026112428
 30
0.0
 40
100.0
100
AcDbArc
 50
350.8293721327
 51
358.0
  0
LINE
  5
3A4
330
1A
100
AcDbEntity
  8
SEIHIN
  6
CONTINUOUS
 62
     3
100
AcDbLine
 10
601.5325908628847
 20
191.2102905359428
 30
0.0
 11
600.6713458107847
 21
186.9040652752428
 31
0.0
  0
LINE
  5
3A5
330
1A
100
AcDbEntity
  8
SEIHIN
  6
CONTINUOUS
 62
     3
100
AcDbLine
 10
608.1385188207846
 20
203.6578529409427
 30
0.0
 11
608.6839165037845
 21
234.9036652752428
 31
0.0
  0
ARC
  5
3A6
330
1A
100
AcDbEntity
  8
SEIHIN
  6
CONTINUOUS
 62
     3
100
AcDbCircle
 10
610.7173458107845
 20
237.9036652752428
 30
0.0
 40
2.999984353299999
100
AcDbArc
 50
270.0
 51
355.5684828877999
  0
LINE
  5
3AA
330
1A
100
AcDbEntity
  8
SEIHIN
  6
CONTINUOUS
 62
     3
100
AcDbLine
 10
550.2021458107846
 20
312.2036652752428
 30
0.0
 11
595.6368458107845
 21
312.2036652752428
 31
0.0
  0
LINE
  5
3AB
330
1A
100
AcDbEntity
  8
CENTER_L
  6
CENTER
 62
     1
 48
5.0
100
AcDbLine
 10
506.7938458107847
 20
369.1537652752429
 30
0.0
 11
506.7938458107848
 21
379.6537652752429
 31
0.0
  0
LINE
  5
3AD
330
1A
100
AcDbEntity
  8
SEIHIN
  6
CONTINUOUS
 62
     3
100
AcDbLine
 10
516.7938458107847
 20
375.8252652752428
 30
0.0
 11
513.1720458107845
 21
383.1258652752429
 31
0.0
  0
LINE
  5
3AE
330
1A
100
AcDbEntity
  8
SEIHIN
  6
CONTINUOUS
 62
     3
100
AcDbLine
 10
470.8457458107845
 20
380.4621652752428
 30
0.0
 11
472.7567458107846
 21
364.2191652752429
 31
0.0
  0
LINE
  5
3AF
330
1A
100
AcDbEntity
  8
CENTER_L
  6
CENTER
 62
     1
 48
5.0
100
AcDbLine
 10
501.5438458107846
 20
374.4037652752429
 30
0.0
 11
512.0438458107846
 21
374.403765275243
 31
0.0
  0
LINE
  5
3B8
330
1A
100
AcDbEntity
  8
SEIHIN
  6
CONTINUOUS
 62
     3
100
AcDbLine
 10
505.5437458107844
 20
367.9037652752429
 30
0.0
 11
500.5510458107846
 21
367.9037652752429
 31
0.0
  0
LINE
  5
3B9
330
1A
100
AcDbEntity
  8
SEIHIN
  6
CONTINUOUS
 62
     3
100
AcDbLine
 10
506.6131458107845
 20
350.2036652752428
 30
0.0
 11
500.9380458107844
 21
350.2036652752428
 31
0.0
  0
ARC
  5
3BA
330
1A
100
AcDbEntity
  8
SEIHIN
  6
CONTINUOUS
 62
     3
100
AcDbCircle
 10
550.2021458107846
 20
355.2036652752428
 30
0.0
 40
43.00002508609999
100
AcDbArc
 50
187.8372871487999
 51
269.999866754
  0
LINE
  5
3BB
330
1A
100
AcDbEntity
  8
SEIHIN
  6
CONTINUOUS
 62
     3
100
AcDbLine
 10
498.9509458107845
 20
302.4816652752428
 30
0.0
 11
493.2680458107845
 21
343.1830652752428
 31
0.0
  0
LINE
  5
3BC
330
1A
100
AcDbEntity
  8
SEIHIN
  6
CONTINUOUS
 62
     3
100
AcDbLine
 10
489.9509458107845
 20
302.4817652752428
 30
0.0
 11
481.8796458107844
 21
360.2894652752427
 31
0.0
  0
LINE
  5
3BF
330
1A
100
AcDbEntity
  8
SEIHIN
  6
CONTINUOUS
 62
     3
100
AcDbLine
 10
498.9388458107846
 20
352.1472652752428
 30
0.0
 11
498.5519458107846
 21
365.8472652752428
 31
0.0
  0
ARC
  5
3C0
330
1A
100
AcDbEntity
  8
SEIHIN
  6
CONTINUOUS
 62
     3
100
AcDbCircle
 10
468.5082458107845
 20
339.7260652752428
 30
0.0
 40
25.0000068969
100
AcDbArc
 50
7.948338777299999
 51
57.89834231850001
  0
ARC
  5
3C3
330
1A
100
AcDbEntity
  8
SEIHIN
  6
CONTINUOUS
 62
     3
100
AcDbCircle
 10
500.9380458107844
 20
352.2036652752428
 30
0.0
 40
1.999997699999999
100
AcDbArc
 50
181.6159589268999
 51
270.0
  0
LINE
  5
3C4
330
1A
100
AcDbEntity
  8
SEIHIN
  6
CONTINUOUS
 62
     3
100
AcDbLine
 10
498.6915458107846
 20
360.9037652752429
 30
0.0
 11
481.7938458107846
 21
360.9037652752429
 31
0.0
  0
LINE
  5
3C5
330
1A
100
AcDbEntity
  8
SEIHIN
  6
CONTINUOUS
 62
     3
100
AcDbLine
 10
498.6067458107846
 20
363.9037652752429
 30
0.0
 11
472.7938458107846
 21
363.9037652752429
 31
0.0
  0
ARC
  5
3C6
330
1A
100
AcDbEntity
  8
SEIHIN
  6
CONTINUOUS
 62
     3
100
AcDbCircle
 10
473.2533458107845
 20
364.2775652752427
 30
0.0
 40
0.4999891088
100
AcDbArc
 50
186.7071591221
 51
251.5650511771
  0
ARC
  5
3C7
330
1A
100
AcDbEntity
  8
SEIHIN
  6
CONTINUOUS
 62
     3
100
AcDbCircle
 10
473.2533458107845
 20
364.2776652752427
 30
0.0
 40
0.5000423881
100
AcDbArc
 50
186.7185390828
 51
251.5686745111
  0
ARC
  5
3C8
330
1A
100
AcDbEntity
  8
SEIHIN
  6
CONTINUOUS
 62
     3
100
AcDbCircle
 10
480.8892458107846
 20
360.1511652752429
 30
0.0
 40
1.000008294999999
100
AcDbArc
 50
7.9494102911
 51
71.56686301589999
  0
LINE
  5
3C9
330
1A
100
AcDbEntity
  8
SEIHIN
  6
CONTINUOUS
 62
     3
100
AcDbLine
 10
473.0952458107845
 20
363.8032652752429
 30
0.0
 11
481.2054458107845
 21
361.0998652752428
 31
0.0
  0
ARC
  5
3CD
330
1A
100
AcDbEntity
  8
SEIHIN
  6
CONTINUOUS
 62
     3
100
AcDbCircle
 10
500.5510458107846
 20
365.9037652752429
 30
0.0
 40
1.9999991112
100
AcDbArc
 50
90.0
 51
181.6188225791
  0
LINE
  5
3CE
330
1A
100
AcDbEntity
  8
CENTER_L
  6
CENTER
 62
     1
 48
5.0
100
AcDbLine
 10
558.4938458107845
 20
305.2036652752428
 30
0.0
 11
558.4938458107845
 21
319.2036652752428
 31
0.0
  0
ARC
  5
3D1
330
1A
100
AcDbEntity
  8
SEIHIN
  6
CONTINUOUS
 62
     3
100
AcDbCircle
 10
506.6131458107845
 20
349.2036652752428
 30
0.0
 40
0.9999733293
100
AcDbArc
 50
7.840003723400001
 51
90.0
  0
ARC
  5
3D2
330
1A
100
AcDbEntity
  8
SEIHIN
  6
CONTINUOUS
 62
     3
100
AcDbCircle
 10
506.7938458107846
 20
375.8252652752428
 30
0.0
 40
9.9999728064
100
AcDbArc
 50
262.8186274677
 51
0.0
  0
CIRCLE
  5
3E8
330
1A
100
AcDbEntity
  8
SEIHIN
  6
CONTINUOUS
 62
     3
100
AcDbCircle
 10
506.7938458107846
 20
374.4037652752429
 30
0.0
 40
1.25
  0
LINE
  5
3E9
330
1A
100
AcDbEntity
  8
SEIHIN
  6
CONTINUOUS
 62
     3
100
AcDbLine
 10
505.5437458107844
 20
367.9037652752429
 30
0.0
 11
505.5437458107844
 21
365.9037652752429
 31
0.0
  0
LINE
  5
3EA
330
1A
100
AcDbEntity
  8
SEIHIN
  6
CONTINUOUS
 62
     3
100
AcDbLine
 10
508.6929458107847
 20
385.9037652752429
 30
0.0
 11
468.7939458107844
 21
385.9037652752429
 31
0.0
  0
LINE
  5
3EB
330
1A
100
AcDbEntity
  8
SEIHIN
  6
CONTINUOUS
 62
     3
100
AcDbLine
 10
514.2744458107845
 20
380.9037652752429
 30
0.0
 11
469.7463458107845
 21
380.9037652752429
 31
0.0
  0
ARC
  5
3EC
330
1A
100
AcDbEntity
  8
SEIHIN
  6
CONTINUOUS
 62
     3
100
AcDbCircle
 10
469.7463458107845
 20
381.4037652752429
 30
0.0
 40
0.4999931449
100
AcDbArc
 50
185.716294437
 51
270.0
  0
LINE
  5
3ED
330
1A
100
AcDbEntity
  8
SEIHIN
  6
CONTINUOUS
 62
     3
100
AcDbLine
 10
468.7939458107844
 20
385.9037652752429
 30
0.0
 11
469.2488458107845
 21
381.3539652752429
 31
0.0
  0
ARC
  5
3EE
330
1A
100
AcDbEntity
  8
SEIHIN
  6
CONTINUOUS
 62
     3
100
AcDbCircle
 10
470.3492458107843
 20
380.4037652752429
 30
0.0
 40
0.5000110598
100
AcDbArc
 50
6.7071591221
 51
90.0
  0
ARC
  5
3F2
330
1A
100
AcDbEntity
  8
SEIHIN
  6
CONTINUOUS
 62
     3
100
AcDbCircle
 10
508.6929458107847
 20
380.9037652752429
 30
0.0
 40
5.000003260999999
100
AcDbArc
 50
26.386199428
 51
90.0
  0
LINE
  5
3F5
330
1A
100
AcDbEntity
  8
SEIHIN
  6
CONTINUOUS
 62
     3
100
AcDbLine
 10
607.0350458107846
 20
321.6158652752428
 30
0.0
 11
609.8035458107847
 21
349.3031652752428
 31
0.0
  0
LINE
  5
3F8
330
1A
100
AcDbEntity
  8
SEIHIN
  6
CONTINUOUS
 62
     3
100
AcDbLine
 10
596.2700458107847
 20
312.4297652752428
 30
0.0
 11
606.6732458107845
 21
320.9413652752428
 31
0.0
  0
ARC
  5
3FD
330
1A
100
AcDbEntity
  8
SEIHIN
  6
CONTINUOUS
 62
     3
100
AcDbCircle
 10
595.6368458107845
 20
313.2036652752428
 30
0.0
 40
0.9999658612999999
100
AcDbArc
 50
270.0
 51
309.2898100217
  0
ARC
  5
400
330
1A
100
AcDbEntity
  8
SEIHIN
  6
CONTINUOUS
 62
     3
100
AcDbCircle
 10
606.0399458107845
 20
321.7153652752428
 30
0.0
 40
1.000067285199999
100
AcDbArc
 50
309.29061617
 51
354.2899769413999
  0
LINE
  5
403
330
1A
100
AcDbEntity
  8
SEIHIN
  6
CONTINUOUS
 62
     3
100
AcDbLine
 10
624.9938458107843
 20
375.9037652752429
 30
0.0
 11
624.2021458107846
 21
347.8754652752428
 31
0.0
  0
LINE
  5
404
330
1A
100
AcDbEntity
  8
SEIHIN
  6
CONTINUOUS
 62
     3
100
AcDbLine
 10
618.8354458107847
 20
365.8472652752428
 30
0.0
 11
618.4484458107845
 21
352.1472652752428
 31
0.0
  0
LINE
  5
407
330
1A
100
AcDbEntity
  8
SEIHIN
  6
CONTINUOUS
 62
     3
100
AcDbLine
 10
623.2025458107845
 20
346.9037652752429
 30
0.0
 11
609.5636458107847
 21
346.9037652752429
 31
0.0
  0
ARC
  5
408
330
1A
100
AcDbEntity
  8
SEIHIN
  6
CONTINUOUS
 62
     3
100
AcDbCircle
 10
616.4492458107847
 20
352.2036652752428
 30
0.0
 40
1.999997699999999
100
AcDbArc
 50
270.0
 51
358.3840410731
  0
ARC
  5
40D
330
1A
100
AcDbEntity
  8
SEIHIN
  6
CONTINUOUS
 62
     3
100
AcDbCircle
 10
610.7985458107846
 20
349.2036652752428
 30
0.0
 40
0.9999813121999999
100
AcDbArc
 50
90.0
 51
174.2894068624999
  0
LINE
  5
40E
330
1A
100
AcDbEntity
  8
SEIHIN
  6
CONTINUOUS
 62
     3
100
AcDbLine
 10
616.4492458107847
 20
350.2036652752428
 30
0.0
 11
610.7985458107846
 21
350.2036652752428
 31
0.0
  0
ARC
  5
40F
330
1A
100
AcDbEntity
  8
SEIHIN
  6
CONTINUOUS
 62
     3
100
AcDbCircle
 10
625.9390458107844
 20
343.7190652752428
 30
0.0
 40
3.9999611711
100
AcDbArc
 50
123.1823388602999
 51
175.5680068456999
  0
ARC
  5
410
330
1A
100
AcDbEntity
  8
SEIHIN
  6
CONTINUOUS
 62
     3
100
AcDbCircle
 10
624.0340458107842
 20
345.0212652752427
 30
0.0
 40
2.000026371699999
100
AcDbArc
 50
106.0933572004
 51
175.5696562728999
  0
ARC
  5
411
330
1A
100
AcDbEntity
  8
SEIHIN
  6
CONTINUOUS
 62
     3
100
AcDbCircle
 10
623.2025458107845
 20
347.9037652752428
 30
0.0
 40
0.9999502825
100
AcDbArc
 50
270.0
 51
358.3781516137
  0
ARC
  5
417
330
1A
100
AcDbEntity
  8
SEIHIN
  6
CONTINUOUS
 62
     3
100
AcDbCircle
 10
616.8362458107845
 20
365.9037652752429
 30
0.0
 40
1.9999991112
100
AcDbArc
 50
358.3811774208999
 51
90.0
  0
LINE
  5
418
330
1A
100
AcDbEntity
  8
SEIHIN
  6
CONTINUOUS
 62
     3
100
AcDbLine
 10
624.9938458107843
 20
375.9037652752429
 30
0.0
 11
611.8435458107846
 21
375.9037652752429
 31
0.0
  0
LINE
  5
42E
330
1A
100
AcDbEntity
  8
SEIHIN
  6
CONTINUOUS
 62
     3
100
AcDbLine
 10
611.8435458107846
 20
367.9037652752429
 30
0.0
 11
611.8435458107846
 21
365.9037652752429
 31
0.0
  0
LINE
  5
42F
330
1A
100
AcDbEntity
  8
SEIHIN
  6
CONTINUOUS
 62
     3
100
AcDbLine
 10
616.8362458107845
 20
367.9037652752429
 30
0.0
 11
611.8435458107846
 21
367.9037652752429
 31
0.0
  0
ARC
  5
430
330
1A
100
AcDbEntity
  8
SEIHIN
  6
CONTINUOUS
 62
     3
100
AcDbCircle
 10
611.8435458107846
 20
370.9037652752429
 30
0.0
 40
5.0
100
AcDbArc
 50
90.0
 51
270.0
  0
DIMENSION
  5
52A
330
1A
100
AcDbEntity
  8
SUNPOU
100
AcDbDimension
  2
*D1
 10
660.7079272929313
 20
312.2036652752428
 30
0.0
 11
655.7079272929313
 21
344.0537152752428
 31
0.0
 70
    32
  3
STANDARD
100
AcDbAlignedDimension
 13
624.9938458107843
 23
375.9037652752429
 33
0.0
 14
595.6368458107845
 24
312.2036652752428
 34
0.0
 50
90.0
100
AcDbRotatedDimension
1001
ACAD
1000
DSTYLE
1002
{
1070
   140
1040
6.0
1070
    74
1070
     0
1070
   172
1070
     1
1070
    73
1070
     0
1070
   272
1070
     2
1070
    77
1070
     3
1070
   173
1070
     1
1070
   147
1040
2.0
1070
    42
1040
6.0
1070
    44
1040
3.0
1070
    43
1040
14.0
1070
   271
1070
     0
1070
   178
1070
     4
1070
   177
1070
     4
1070
   176
1070
     4
1070
   141
1040
150.0
1070
     7
1000
_OPEN
1070
     6
1000
_OPEN
1070
    41
1040
7.0
1002
}
  0
DIMENSION
  5
539
330
1A
100
AcDbEntity
  8
SUNPOU
100
AcDbDimension
  2
*D2
 10
624.9938458107843
 20
427.3617570963786
 30
0.0
 11
590.6357108158454
 21
427.3617570963786
 31
0.0
 70
   160
  3
STANDARD
100
AcDbAlignedDimension
 13
558.4938458107845
 23
319.2036652752428
 33
0.0
 14
624.9938458107843
 24
375.9037652752429
 34
0.0
100
AcDbRotatedDimension
1001
ACAD
1000
DSTYLE
1002
{
1070
   140
1040
6.0
1070
    74
1070
     0
1070
   172
1070
     1
1070
    73
1070
     0
1070
   272
1070
     2
1070
    77
1070
     3
1070
   173
1070
     1
1070
   147
1040
2.0
1070
    42
1040
6.0
1070
    44
1040
3.0
1070
    43
1040
14.0
1070
   271
1070
     0
1070
   178
1070
     4
1070
   177
1070
     4
1070
   176
1070
     4
1070
   141
1040
150.0
1070
     7
1000
_OPEN
1070
     6
1000
_OPEN
1070
    41
1040
7.0
1002
}
  0
DIMENSION
  5
546
330
1A
100
AcDbEntity
  8
SUNPOU
100
AcDbDimension
  2
*D3
 10
624.9938458107843
 20
444.1501249821656
 30
0.0
 11
546.8938958107844
 21
449.1501249821656
 31
0.0
 70
    32
  3
STANDARD
100
AcDbAlignedDimension
 13
468.7939458107844
 23
385.9037652752429
 33
0.0
 14
624.9938458107843
 24
375.9037652752429
 34
0.0
100
AcDbRotatedDimension
1001
ACAD
1000
DSTYLE
1002
{
1070
   140
1040
6.0
1070
    74
1070
     0
1070
   172
1070
     1
1070
    73
1070
     0
1070
   272
1070
     2
1070
    77
1070
     3
1070
   173
1070
     1
1070
   147
1040
2.0
1070
    42
1040
6.0
1070
    44
1040
3.0
1070
    43
1040
14.0
1070
   271
1070
     0
1070
   178
1070
     4
1070
   177
1070
     4
1070
   176
1070
     4
1070
   141
1040
150.0
1070
     7
1000
_OPEN
1070
     6
1000
_OPEN
1070
    41
1040
7.0
1002
}
  0
DIMENSION
  5
553
330
1A
100
AcDbEntity
  8
SUNPOU
100
AcDbDimension
  2
*D4
 10
440.9176033061389
 20
312.2036652752428
 30
0.0
 11
435.9176033061389
 21
349.0537152752429
 31
0.0
 70
    32
  3
STANDARD
100
AcDbAlignedDimension
 13
468.7939458107844
 23
385.9037652752429
 33
0.0
 14
550.2021458107846
 24
312.2036652752428
 34
0.0
 50
90.0
100
AcDbRotatedDimension
1001
ACAD
1000
DSTYLE
1002
{
1070
   140
1040
6.0
1070
    74
1070
     0
1070
   172
1070
     1
1070
    73
1070
     0
1070
   272
1070
     2
1070
    77
1070
     3
1070
   173
1070
     1
1070
   147
1040
2.0
1070
    42
1040
6.0
1070
    44
1040
3.0
1070
    43
1040
14.0
1070
   271
1070
     0
1070
   178
1070
     4
1070
   177
1070
     4
1070
   176
1070
     4
1070
   141
1040
150.0
1070
     7
1000
_OPEN
1070
     6
1000
_OPEN
1070
    41
1040
7.0
1002
}
  0
DIMENSION
  5
562
330
1A
100
AcDbEntity
  8
SUNPOU
100
AcDbDimension
  2
*D5
 10
566.4938664382844
 20
280.9330216889768
 30
0.0
 11
562.4938561245344
 21
285.9330216889768
 31
0.0
 12
30.23748587384943
 22
-20.9163160715384
 32
0.0
 70
    32
  3
STANDARD
100
AcDbAlignedDimension
 13
558.4938458107845
 23
305.2036652752428
 33
0.0
 14
566.4938664382844
 24
264.7189276762428
 34
0.0
100
AcDbRotatedDimension
1001
ACAD
1000
DSTYLE
1002
{
1070
   140
1040
6.0
1070
    74
1070
     0
1070
   172
1070
     1
1070
    73
1070
     0
1070
   272
1070
     2
1070
    77
1070
     3
1070
   173
1070
     1
1070
   147
1040
2.0
1070
    42
1040
6.0
1070
    44
1040
3.0
1070
    43
1040
14.0
1070
   271
1070
     0
1070
   178
1070
     4
1070
   177
1070
     4
1070
   176
1070
     4
1070
   141
1040
150.0
1070
     7
1000
_OPEN
1070
     6
1000
_OPEN
1070
    41
1040
7.0
1002
}
  0
DIMENSION
  5
56F
330
1A
100
AcDbEntity
  8
SUNPOU
100
AcDbDimension
  2
*D6
 10
424.3062270484838
 20
234.9036652752428
 30
0.0
 11
419.3062270484838
 21
310.4037152752429
 31
0.0
 70
    32
  3
STANDARD
100
AcDbAlignedDimension
 13
468.7939458107844
 23
385.9037652752429
 33
0.0
 14
520.1251458107845
 24
234.9036652752428
 34
0.0
 50
90.0
100
AcDbRotatedDimension
1001
ACAD
1000
DSTYLE
1002
{
1070
   140
1040
6.0
1070
    74
1070
     0
1070
   172
1070
     1
1070
    73
1070
     0
1070
   272
1070
     2
1070
    77
1070
     3
1070
   173
1070
     1
1070
   147
1040
2.0
1070
    42
1040
6.0
1070
    44
1040
3.0
1070
    43
1040
14.0
1070
   271
1070
     0
1070
   178
1070
     4
1070
   177
1070
     4
1070
   176
1070
     4
1070
   141
1040
150.0
1070
     7
1000
_OPEN
1070
     6
1000
_OPEN
1070
    41
1040
7.0
1002
}
  0
DIMENSION
  5
57C
330
1A
100
AcDbEntity
  8
SUNPOU
100
AcDbDimension
  2
*D7
 10
408.8427785294065
 20
186.9039652752428
 30
0.0
 11
403.8427785294065
 21
286.4038652752428
 31
0.0
 70
    32
  3
STANDARD
100
AcDbAlignedDimension
 13
468.7939458107844
 23
385.9037652752429
 33
0.0
 14
530.1713458107847
 24
186.9039652752428
 34
0.0
 50
90.0
100
AcDbRotatedDimension
1001
ACAD
1000
DSTYLE
1002
{
1070
   140
1040
6.0
1070
    74
1070
     0
1070
   172
1070
     1
1070
    73
1070
     0
1070
   272
1070
     2
1070
    77
1070
     3
1070
   173
1070
     1
1070
   147
1040
2.0
1070
    42
1040
6.0
1070
    44
1040
3.0
1070
    43
1040
14.0
1070
   271
1070
     0
1070
   178
1070
     4
1070
   177
1070
     4
1070
   176
1070
     4
1070
   141
1040
150.0
1070
     7
1000
_OPEN
1070
     6
1000
_OPEN
1070
    41
1040
7.0
1002
}
  0
DIMENSION
  5
593
330
1A
100
AcDbEntity
  8
SUNPOU
100
AcDbDimension
  2
*D8
 10
193.1870634732315
 20
429.7556052503836
 30
0.0
 11
223.1870634732315
 21
434.7556052503837
 31
0.0
 12
30.23748587384943
 22
-20.9163160715384
 32
0.0
 70
    32
  1
※a<>
  3
STANDARD
100
AcDbAlignedDimension
 13
253.1870634732315
 23
395.0835705472589
 33
0.0
 14
193.1870634732315
 24
395.0835705473648
 34
0.0
100
AcDbRotatedDimension
1001
ACAD
1000
DSTYLE
1002
{
1070
   140
1040
6.0
1070
    74
1070
     0
1070
   172
1070
     1
1070
    73
1070
     0
1070
   272
1070
     2
1070
    77
1070
     3
1070
   173
1070
     1
1070
   147
1040
2.0
1070
    42
1040
6.0
1070
    44
1040
3.0
1070
    43
1040
14.0
1070
   271
1070
     0
1070
   178
1070
     4
1070
   177
1070
     4
1070
   176
1070
     4
1070
   141
1040
150.0
1070
     7
1000
_OPEN
1070
     6
1000
_OPEN
1070
    41
1040
7.0
1002
}
  0
DIMENSION
  5
5A0
330
1A
100
AcDbEntity
  8
SUNPOU
100
AcDbDimension
  2
*D9
 10
135.1869834732315
 20
444.0925606213916
 30
0.0
 11
223.1870234732314
 21
449.0925606213916
 31
0.0
 12
30.23748587384943
 22
-20.9163160715384
 32
0.0
 70
    32
  3
STANDARD
100
AcDbAlignedDimension
 13
311.1870634732313
 23
395.0835046382429
 33
0.0
 14
135.1869834732315
 24
395.0835046382429
 34
0.0
100
AcDbRotatedDimension
1001
ACAD
1000
DSTYLE
1002
{
1070
   140
1040
6.0
1070
    74
1070
     0
1070
   172
1070
     1
1070
    73
1070
     0
1070
   272
1070
     2
1070
    77
1070
     3
1070
   173
1070
     1
1070
   147
1040
2.0
1070
    42
1040
6.0
1070
    44
1040
3.0
1070
    43
1040
14.0
1070
   271
1070
     0
1070
   178
1070
     4
1070
   177
1070
     4
1070
   176
1070
     4
1070
   141
1040
150.0
1070
     7
1000
_OPEN
1070
     6
1000
_OPEN
1070
    41
1040
7.0
1002
}
  0
DIMENSION
  5
5AD
330
1A
100
AcDbEntity
  8
SUNPOU
100
AcDbDimension
  2
*D10
 10
175.187022359956
 20
152.5550468696969
 30
0.0
 11
223.1869544687669
 21
157.5550468696969
 31
0.0
 12
30.23748587384943
 22
-20.9163160715384
 32
0.0
 70
    32
  3
STANDARD
100
AcDbAlignedDimension
 13
271.1868865775778
 23
244.083274310185
 33
0.0
 14
175.187022359956
 24
244.083320287851
 34
0.0
100
AcDbRotatedDimension
1001
ACAD
1000
DSTYLE
1002
{
1070
   140
1040
6.0
1070
    74
1070
     0
1070
   172
1070
     1
1070
    73
1070
     0
1070
   272
1070
     2
1070
    77
1070
     3
1070
   173
1070
     1
1070
   147
1040
2.0
1070
    42
1040
6.0
1070
    44
1040
3.0
1070
    43
1040
14.0
1070
   271
1070
     0
1070
   178
1070
     4
1070
   177
1070
     4
1070
   176
1070
     4
1070
   141
1040
150.0
1070
     7
1000
_OPEN
1070
     6
1000
_OPEN
1070
    41
1040
7.0
1002
}
  0
DIMENSION
  5
5C7
330
1A
100
AcDbEntity
  8
SUNPOU
100
AcDbDimension
  2
*D11
 10
606.9212458108279
 20
152.1906518399484
 30
0.0
 11
565.4212458107845
 21
157.1906518399484
 31
0.0
 12
30.23748587384943
 22
-20.9163160715384
 32
0.0
 70
    32
  1
φ<>
  3
STANDARD
100
AcDbAlignedDimension
 13
523.9212458107409
 23
191.2102905360253
 33
0.0
 14
606.9212458108279
 24
191.2102905360253
 34
0.0
100
AcDbRotatedDimension
1001
ACAD
1000
DSTYLE
1002
{
1070
   140
1040
6.0
1070
    74
1070
     0
1070
   172
1070
     1
1070
    73
1070
     0
1070
   272
1070
     2
1070
    77
1070
     3
1070
   173
1070
     1
1070
   147
1040
2.0
1070
    42
1040
6.0
1070
    44
1040
3.0
1070
    43
1040
14.0
1070
   271
1070
     0
1070
   178
1070
     4
1070
   177
1070
     4
1070
   176
1070
     4
1070
   141
1040
150.0
1070
     7
1000
_OPEN
1070
     6
1000
_OPEN
1070
    41
1040
7.0
1002
}
  0
DIMENSION
  5
5D7
330
1A
100
AcDbEntity
  8
SUNPOU
100
AcDbDimension
  2
*D12
 10
649.4152674245524
 20
191.2102905360253
 30
0.0
 11
644.4152674245524
 21
165.1102905360253
 31
0.0
 12
30.23748587384943
 22
-20.9163160715384
 32
0.0
 70
    32
  1
※b<>
  3
STANDARD
100
AcDbAlignedDimension
 13
608.0957964600918
 23
201.2102905359428
 33
0.0
 14
606.9212458108279
 24
191.2102905360253
 34
0.0
 50
90.0
100
AcDbRotatedDimension
1001
ACAD
1000
DSTYLE
1002
{
1070
   140
1040
6.0
1070
    74
1070
     0
1070
   172
1070
     1
1070
    73
1070
     0
1070
   272
1070
     2
1070
    77
1070
     3
1070
   173
1070
     1
1070
   147
1040
2.0
1070
    42
1040
6.0
1070
    44
1040
3.0
1070
    43
1040
14.0
1070
   271
1070
     0
1070
   178
1070
     4
1070
   177
1070
     4
1070
   176
1070
     4
1070
   141
1040
150.0
1070
     7
1000
_OPEN
1070
     6
1000
_OPEN
1070
    41
1040
7.0
1002
}
  0
LEADER
  5
67F
330
1A
100
AcDbEntity
  8
SUNPOU
  6
CONTINUOUS
 62
     4
100
AcDbLeader
  3
STANDARD
 73
     0
 74
     0
 40
6.0
 41
30.19999999999999
 76
     3
 10
507.7559172673294
 20
375.2018370217054
 30
0.0
 10
516.2741124649078
 20
400.5263328727637
 30
0.0
 10
518.5008151310248
 20
400.5263328727637
 30
0.0
1001
ACAD
1000
DSTYLE
1002
{
1070
     6
1000
OPEN
1070
    41
1040
7.0
1070
    42
1040
6.0
1070
    43
1040
14.0
1070
    44
1040
3.0
1070
    73
1070
     0
1070
    74
1070
     0
1070
    77
1070
     3
1070
   140
1040
6.0
1070
   141
1040
150.0
1070
   147
1040
2.0
1070
   172
1070
     1
1070
   173
1070
     1
1070
   176
1070
     4
1070
   177
1070
     4
1070
   178
1070
     4
1070
   271
1070
     0
1070
   272
1070
     2
1070
   341
1005
6D
1070
   343
1005
6D
1070
   344
1005
6D
1002
}
  0
MTEXT
  5
680
330
1A
100
AcDbEntity
  8
SUNPOU
  6
CONTINUOUS
 62
     4
100
AcDbMText
 10
520.5008151310249
 20
402.5263328727637
 30
0.0
 40
6.0
 41
0.0
 71
     7
 72
     5
  1
2-φ2.0
1001
ACAD
1000
MTEXTBEGIN
1070
    73
1070
     1
1070
    44
1040
1.0
1070
    74
1070
     0
1000
MTEXTEND
1000
MTEXTBEGIN
1070
    73
1070
     1
1070
    44
1040
1.0
1070
    74
1070
     0
1000
MTEXTEND
  0
LINE
  5
75C
330
1A
100
AcDbEntity
  8
NOKITOI
  6
PHANTOM
 62
     8
 48
5.0
100
AcDbLine
 10
608.6003647089476
 20
351.9535645098548
 30
0.0
 11
605.6073647089472
 21
322.0237645098547
 31
0.0
  0
LINE
  5
75D
330
1A
100
AcDbEntity
  8
NOKITOI
  6
PHANTOM
 62
     8
 48
5.0
100
AcDbLine
 10
609.6413647089478
 20
350.3032645098548
 30
0.0
 11
606.7725647089475
 21
321.6158645098548
 31
0.0
  0
ARC
  5
75E
330
1A
100
AcDbEntity
  8
NOKITOI
  6
PHANTOM
 62
     8
 48
5.0
100
AcDbCircle
 10
550.5449707909156
 20
355.2037588851985
 30
0.0
 40
41.79999437547816
100
AcDbArc
 50
184.474295212525
 51
269.9998545921086
  0
ARC
  5
75F
330
1A
100
AcDbEntity
  8
NOKITOI
  6
PHANTOM
 62
     8
 48
5.0
100
AcDbCircle
 10
550.5449484824903
 20
355.2037789862249
 30
0.0
 40
43.00001447645168
100
AcDbArc
 50
186.524910707118
 51
269.999888375144
  0
LINE
  5
760
330
1A
100
AcDbEntity
  8
NOKITOI
  6
PHANTOM
 62
     8
 48
5.0
100
AcDbLine
 10
591.3743647089477
 20
312.2036645098548
 30
0.0
 11
571.216464708948
 21
312.2036645098548
 31
0.0
  0
LINE
  5
761
330
1A
100
AcDbEntity
  8
NOKITOI
  6
PHANTOM
 62
     8
 48
5.0
100
AcDbLine
 10
591.1245647089477
 20
313.4036645098548
 30
0.0
 11
571.216464708948
 21
313.4036645098548
 31
0.0
  0
LINE
  5
762
330
1A
100
AcDbEntity
  8
NOKITOI
  6
PHANTOM
 62
     8
 48
5.0
100
AcDbLine
 10
550.5449647089476
 20
313.4037645098548
 30
0.0
 11
595.1245647089477
 21
313.4036645098548
 31
0.0
  0
LINE
  5
763
330
1A
100
AcDbEntity
  8
NOKITOI
  6
PHANTOM
 62
     8
 48
5.0
100
AcDbLine
 10
595.3743647089477
 20
312.2036645098548
 30
0.0
 11
550.5449647089476
 21
312.2037645098548
 31
0.0
  0
LINE
  5
764
330
1A
100
AcDbEntity
  8
NOKITOI
  6
PHANTOM
 62
     8
 48
5.0
100
AcDbLine
 10
605.4264647089478
 20
321.6864645098548
 30
0.0
 11
595.4411647089478
 21
313.5166645098546
 31
0.0
  0
LINE
  5
765
330
1A
100
AcDbEntity
  8
NOKITOI
  6
PHANTOM
 62
     8
 48
5.0
100
AcDbLine
 10
606.4107647089474
 20
320.9413645098549
 30
0.0
 11
596.0076647089477
 21
312.4296645098549
 31
0.0
  0
ARC
  5
766
330
1A
100
AcDbEntity
  8
NOKITOI
  6
PHANTOM
 62
     8
 48
5.0
100
AcDbCircle
 10
595.3743577763702
 20
313.2036620348487
 30
0.0
 40
0.9999975250179316
100
AcDbArc
 50
270.0003972084043
 51
309.2946416752298
  0
ARC
  5
767
330
1A
100
AcDbEntity
  8
NOKITOI
  6
PHANTOM
 62
     8
 48
5.0
100
AcDbCircle
 10
595.1245710966964
 20
313.9036667898444
 30
0.0
 40
0.5000022800304047
100
AcDbArc
 50
269.9992680212786
 51
309.2854498596058
  0
ARC
  5
768
330
1A
100
AcDbEntity
  8
NOKITOI
  6
PHANTOM
 62
     8
 48
5.0
100
AcDbCircle
 10
605.7775421360786
 20
321.7153224381822
 30
0.0
 40
0.9999908507640039
100
AcDbArc
 50
309.2887092230696
 51
354.2862329477531
  0
ARC
  5
769
330
1A
100
AcDbEntity
  8
NOKITOI
  6
PHANTOM
 62
     8
 48
5.0
100
AcDbCircle
 10
605.1098472830692
 20
322.0734320234668
 30
0.0
 40
0.4999904508696396
100
AcDbArc
 50
309.2900846377958
 51
354.2990110749245
  0
LINE
  5
76A
330
1A
100
AcDbEntity
  8
NOKITOI
  6
PHANTOM
 62
     8
 48
5.0
100
AcDbLine
 10
500.7948647089473
 20
367.2037645098548
 30
0.0
 11
504.1214647089476
 21
367.2037645098548
 31
0.0
  0
LINE
  5
76B
330
1A
100
AcDbEntity
  8
NOKITOI
  6
PHANTOM
 62
     8
 48
5.0
100
AcDbLine
 10
500.7948647089473
 20
366.003764509855
 30
0.0
 11
503.2676647089478
 21
366.003764509855
 31
0.0
  0
LINE
  5
76C
330
1A
100
AcDbEntity
  8
NOKITOI
  6
PHANTOM
 62
     8
 48
5.0
100
AcDbLine
 10
500.6852647089475
 20
351.2037645098548
 30
0.0
 11
506.8299647089475
 21
351.2037645098548
 31
0.0
  0
LINE
  5
76D
330
1A
100
AcDbEntity
  8
NOKITOI
  6
PHANTOM
 62
     8
 48
5.0
100
AcDbLine
 10
508.373864708948
 20
352.4037645098548
 30
0.0
 11
502.3329647089475
 21
352.4037645098548
 31
0.0
  0
LINE
  5
76E
330
1A
100
AcDbEntity
  8
NOKITOI
  6
PHANTOM
 62
     8
 48
5.0
100
AcDbLine
 10
502.7676647089477
 20
363.5037645098549
 30
0.0
 11
505.7041647089476
 21
363.5037645098549
 31
0.0
  0
ARC
  5
76F
330
1A
100
AcDbEntity
  8
NOKITOI
  6
PHANTOM
 62
     8
 48
5.0
100
AcDbCircle
 10
504.2465849216167
 20
357.2038232382348
 30
0.0
 40
5.2000412730095
100
AcDbArc
 50
90.00132454306161
 51
142.0757990790561
  0
ARC
  5
770
330
1A
100
AcDbEntity
  8
NOKITOI
  6
PHANTOM
 62
     8
 48
5.0
100
AcDbCircle
 10
504.2465025903942
 20
357.2038082923802
 30
0.0
 40
3.999989731271038
100
AcDbArc
 50
96.47731142013144
 51
181.7899836067308
  0
LINE
  5
771
330
1A
100
AcDbEntity
  8
NOKITOI
  6
PHANTOM
 62
     8
 48
5.0
100
AcDbLine
 10
503.2676647089478
 20
366.003764509855
 30
0.0
 11
502.7676647089477
 21
363.5037645098549
 31
0.0
  0
LINE
  5
772
330
1A
100
AcDbEntity
  8
NOKITOI
  6
PHANTOM
 62
     8
 48
5.0
100
AcDbLine
 10
498.7958647089475
 20
365.1412645098548
 30
0.0
 11
499.1860647089473
 21
352.6569645098547
 31
0.0
  0
LINE
  5
773
330
1A
100
AcDbEntity
  8
NOKITOI
  6
PHANTOM
 62
     8
 48
5.0
100
AcDbLine
 10
500.3339647089473
 20
354.3413645098548
 30
0.0
 11
500.2484647089476
 21
357.0788645098547
 31
0.0
  0
ARC
  5
774
330
1A
100
AcDbEntity
  8
NOKITOI
  6
PHANTOM
 62
     8
 48
5.0
100
AcDbCircle
 10
502.332978281086
 20
354.4037513547684
 30
0.0
 40
1.999986844959662
100
AcDbArc
 50
181.7875531852363
 51
269.9996111843223
  0
ARC
  5
775
330
1A
100
AcDbEntity
  8
NOKITOI
  6
PHANTOM
 62
     8
 48
5.0
100
AcDbCircle
 10
500.6853006680984
 20
352.7037296557115
 30
0.0
 40
1.499965146287778
100
AcDbArc
 50
181.7866280217767
 51
269.9986264296976
  0
ARC
  5
776
330
1A
100
AcDbEntity
  8
NOKITOI
  6
PHANTOM
 62
     8
 48
5.0
100
AcDbCircle
 10
500.7948692037456
 20
365.2037691473817
 30
0.0
 40
0.7999953624857498
100
AcDbArc
 50
90.00032191805336
 51
181.7911273464199
  0
ARC
  5
777
330
1A
100
AcDbEntity
  8
NOKITOI
  6
PHANTOM
 62
     8
 48
5.0
100
AcDbCircle
 10
500.7948774597974
 20
365.2037776649412
 30
0.0
 40
1.999986844954076
100
AcDbArc
 50
90.00036528735526
 51
181.7883072882699
  0
LINE
  5
778
330
1A
100
AcDbEntity
  8
NOKITOI
  6
PHANTOM
 62
     8
 48
5.0
100
AcDbLine
 10
499.9952647089479
 20
365.1787645098547
 30
0.0
 11
500.1446647089473
 21
360.3998645098549
 31
0.0
  0
ARC
  5
779
330
1A
100
AcDbEntity
  8
NOKITOI
  6
PHANTOM
 62
     8
 48
5.0
100
AcDbCircle
 10
504.5078913095452
 20
358.2037338329727
 30
0.0
 40
0.4999693238254178
100
AcDbArc
 50
171.8555038770532
 51
269.9969516090348
  0
LINE
  5
77A
330
1A
100
AcDbEntity
  8
NOKITOI
  6
PHANTOM
 62
     8
 48
5.0
100
AcDbLine
 10
507.2563647089477
 20
358.1775645098547
 30
0.0
 11
507.5721647089476
 21
364.1774645098548
 31
0.0
  0
ARC
  5
77B
330
1A
100
AcDbEntity
  8
NOKITOI
  6
PHANTOM
 62
     8
 48
5.0
100
AcDbCircle
 10
508.3738772786559
 20
351.9037528851251
 30
0.0
 40
0.5000116248877111
100
AcDbArc
 50
4.474846808342897
 51
90.00144034898337
  0
ARC
  5
77C
330
1A
100
AcDbEntity
  8
NOKITOI
  6
PHANTOM
 62
     8
 48
5.0
100
AcDbCircle
 10
506.8299562847851
 20
350.2037720249113
 30
0.0
 40
0.9999924849789756
100
AcDbArc
 50
6.528264606674428
 51
89.99951732740891
  0
LINE
  5
77D
330
1A
100
AcDbEntity
  8
NOKITOI
  6
PHANTOM
 62
     8
 48
5.0
100
AcDbLine
 10
506.7569647089476
 20
357.7037645098548
 30
0.0
 11
504.5078647089475
 21
357.7037645098548
 31
0.0
  0
ARC
  5
77E
330
1A
100
AcDbEntity
  8
NOKITOI
  6
PHANTOM
 62
     8
 48
5.0
100
AcDbCircle
 10
506.7569578219527
 20
358.2037579747693
 30
0.0
 40
0.499993464961963
100
AcDbArc
 50
270.0007892017873
 51
356.9970361317427
  0
ARC
  5
77F
330
1A
100
AcDbEntity
  8
NOKITOI
  6
PHANTOM
 62
     8
 48
5.0
100
AcDbCircle
 10
504.1214639259391
 20
366.7037654648565
 30
0.0
 40
0.4999990449987349
100
AcDbArc
 50
348.6967198015448
 51
89.99991027369452
  0
LINE
  5
780
330
1A
100
AcDbEntity
  8
NOKITOI
  6
PHANTOM
 62
     8
 48
5.0
100
AcDbLine
 10
504.3509647089475
 20
365.3018645098547
 30
0.0
 11
504.6117647089475
 21
366.6057645098548
 31
0.0
  0
LINE
  5
781
330
1A
100
AcDbEntity
  8
NOKITOI
  6
PHANTOM
 62
     8
 48
5.0
100
AcDbLine
 10
504.0129647089473
 20
358.274564509855
 30
0.0
 11
504.3466647089474
 21
360.6107645098549
 31
0.0
  0
ARC
  5
782
330
1A
100
AcDbEntity
  8
NOKITOI
  6
PHANTOM
 62
     8
 48
5.0
100
AcDbCircle
 10
503.851678927363
 20
360.6814498755538
 30
0.0
 40
0.5000073448410256
100
AcDbArc
 50
351.8729478641243
 51
96.47829282996843
  0
ARC
  5
783
330
1A
100
AcDbEntity
  8
NOKITOI
  6
PHANTOM
 62
     8
 48
5.0
100
AcDbCircle
 10
507.0727585077897
 20
364.20377104494
 30
0.0
 40
0.4999934649531607
100
AcDbArc
 50
356.9955363203384
 51
89.99928939038005
  0
LINE
  5
784
330
1A
100
AcDbEntity
  8
NOKITOI
  6
PHANTOM
 62
     8
 48
5.0
100
AcDbLine
 10
507.0727647089475
 20
364.7037645098547
 30
0.0
 11
504.8412647089475
 21
364.7037645098547
 31
0.0
  0
LINE
  5
785
330
1A
100
AcDbEntity
  8
NOKITOI
  6
PHANTOM
 62
     8
 48
5.0
100
AcDbLine
 10
504.7083647089478
 20
362.4037645098548
 30
0.0
 11
504.2464647089476
 21
362.4037645098548
 31
0.0
  0
LINE
  5
786
330
1A
100
AcDbEntity
  8
NOKITOI
  6
PHANTOM
 62
     8
 48
5.0
100
AcDbLine
 10
506.0928647089475
 20
358.9037645098548
 30
0.0
 11
506.2740647089476
 21
362.345264509855
 31
0.0
  0
LINE
  5
787
330
1A
100
AcDbEntity
  8
NOKITOI
  6
PHANTOM
 62
     8
 48
5.0
100
AcDbLine
 10
505.7190647089477
 20
361.7321645098547
 30
0.0
 11
506.2740647089476
 21
362.345264509855
 31
0.0
  0
LINE
  5
788
330
1A
100
AcDbEntity
  8
NOKITOI
  6
PHANTOM
 62
     8
 48
5.0
100
AcDbLine
 10
505.314964708948
 20
358.9037645098548
 30
0.0
 11
505.7190647089477
 21
361.7321645098547
 31
0.0
  0
LINE
  5
789
330
1A
100
AcDbEntity
  8
NOKITOI
  6
PHANTOM
 62
     8
 48
5.0
100
AcDbLine
 10
506.0928647089475
 20
358.9037645098548
 30
0.0
 11
505.314964708948
 21
358.9037645098548
 31
0.0
  0
LINE
  5
78A
330
1A
100
AcDbEntity
  8
NOKITOI
  6
PHANTOM
 62
     8
 48
5.0
100
AcDbLine
 10
504.7083647089478
 20
362.4037645098548
 30
0.0
 11
505.7041647089476
 21
363.5037645098549
 31
0.0
  0
ARC
  5
78B
330
1A
100
AcDbEntity
  8
NOKITOI
  6
PHANTOM
 62
     8
 48
5.0
100
AcDbCircle
 10
504.8412574543921
 20
365.2037733596982
 30
0.0
 40
0.5000088498959383
100
AcDbArc
 50
168.6864043304884
 51
270.0008312961434
  0
ARC
  5
78C
330
1A
100
AcDbEntity
  8
NOKITOI
  6
PHANTOM
 62
     8
 48
5.0
100
AcDbCircle
 10
616.6678534719533
 20
365.2037761036719
 30
0.0
 40
1.999988406214315
100
AcDbArc
 50
358.2088726535929
 51
89.99967808195611
  0
ARC
  5
78D
330
1A
100
AcDbEntity
  8
NOKITOI
  6
PHANTOM
 62
     8
 48
5.0
100
AcDbCircle
 10
616.7774819221256
 20
352.7037811930026
 30
0.0
 40
1.500016683246579
100
AcDbArc
 50
269.9993425123348
 51
358.207642324411
  0
ARC
  5
78E
330
1A
100
AcDbEntity
  8
NOKITOI
  6
PHANTOM
 62
     8
 48
5.0
100
AcDbCircle
 10
613.2163337820113
 20
357.2038002545186
 30
0.0
 40
3.99998565374706
100
AcDbArc
 50
358.2086966591014
 51
83.52422380468325
  0
LINE
  5
78F
330
1A
100
AcDbEntity
  8
NOKITOI
  6
PHANTOM
 62
     8
 48
5.0
100
AcDbLine
 10
610.2064647089475
 20
358.1774645098548
 30
0.0
 11
609.8906647089473
 21
364.1774645098548
 31
0.0
  0
ARC
  5
790
330
1A
100
AcDbEntity
  8
NOKITOI
  6
PHANTOM
 62
     8
 48
5.0
100
AcDbCircle
 10
612.9548748953837
 20
358.2037762545789
 30
0.0
 40
0.5000117448278309
100
AcDbArc
 50
269.9988327478018
 51
8.127314608715803
  0
LINE
  5
791
330
1A
100
AcDbEntity
  8
NOKITOI
  6
PHANTOM
 62
     8
 48
5.0
100
AcDbLine
 10
617.1288647089474
 20
354.3411645098548
 30
0.0
 11
617.2143647089471
 21
357.0787645098548
 31
0.0
  0
LINE
  5
792
330
1A
100
AcDbEntity
  8
NOKITOI
  6
PHANTOM
 62
     8
 48
5.0
100
AcDbLine
 10
616.7774647089474
 20
351.2037645098548
 30
0.0
 11
610.6363647089477
 21
351.2037645098548
 31
0.0
  0
ARC
  5
793
330
1A
100
AcDbEntity
  8
NOKITOI
  6
PHANTOM
 62
     8
 48
5.0
100
AcDbCircle
 10
610.6363853587883
 20
350.203783197704
 30
0.0
 40
0.9999813123640345
100
AcDbArc
 50
90.00118317084957
 51
174.290590033351
  0
ARC
  5
794
330
1A
100
AcDbEntity
  8
NOKITOI
  6
PHANTOM
 62
     8
 48
5.0
100
AcDbCircle
 10
615.1298026967717
 20
354.403701330427
 30
0.0
 40
2.000036820932882
100
AcDbArc
 50
269.9989117490339
 51
358.2110591274196
  0
LINE
  5
795
330
1A
100
AcDbEntity
  8
NOKITOI
  6
PHANTOM
 62
     8
 48
5.0
100
AcDbLine
 10
609.0978647089471
 20
352.4037645098548
 30
0.0
 11
615.1297647089474
 21
352.4037645098548
 31
0.0
  0
LINE
  5
796
330
1A
100
AcDbEntity
  8
NOKITOI
  6
PHANTOM
 62
     8
 48
5.0
100
AcDbLine
 10
610.7057647089475
 20
357.7037645098548
 30
0.0
 11
612.954864708947
 21
357.7037645098548
 31
0.0
  0
ARC
  5
797
330
1A
100
AcDbEntity
  8
NOKITOI
  6
PHANTOM
 62
     8
 48
5.0
100
AcDbCircle
 10
610.7057688303541
 20
358.2037605998243
 30
0.0
 40
0.4999960899864752
100
AcDbArc
 50
183.0147243791737
 51
269.9995277178594
  0
ARC
  5
798
330
1A
100
AcDbEntity
  8
NOKITOI
  6
PHANTOM
 62
     8
 48
5.0
100
AcDbCircle
 10
609.0978777799521
 20
351.9037763401346
 30
0.0
 40
0.499988169890889
100
AcDbArc
 50
90.00149786226627
 51
174.2966061377156
  0
ARC
  5
799
330
1A
100
AcDbEntity
  8
NOKITOI
  6
PHANTOM
 62
     8
 48
5.0
100
AcDbCircle
 10
613.3412574543919
 20
366.7037556600114
 30
0.0
 40
0.500008849895925
100
AcDbArc
 50
89.99916870385492
 51
191.3135956695117
  0
LINE
  5
79A
330
1A
100
AcDbEntity
  8
NOKITOI
  6
PHANTOM
 62
     8
 48
5.0
100
AcDbLine
 10
616.6678647089477
 20
367.2036645098548
 30
0.0
 11
613.3412647089474
 21
367.2037645098548
 31
0.0
  0
ARC
  5
79B
330
1A
100
AcDbEntity
  8
NOKITOI
  6
PHANTOM
 62
     8
 48
5.0
100
AcDbCircle
 10
616.6679086753004
 20
365.2037191473818
 30
0.0
 40
0.7999453636812564
100
AcDbArc
 50
358.212343644788
 51
90.00314907315372
  0
LINE
  5
79C
330
1A
100
AcDbEntity
  8
NOKITOI
  6
PHANTOM
 62
     8
 48
5.0
100
AcDbLine
 10
616.6678647089477
 20
366.0036645098547
 30
0.0
 11
614.1951647089475
 21
366.003764509855
 31
0.0
  0
LINE
  5
79D
330
1A
100
AcDbEntity
  8
NOKITOI
  6
PHANTOM
 62
     8
 48
5.0
100
AcDbLine
 10
613.1117647089475
 20
365.3017645098549
 30
0.0
 11
612.8509647089474
 21
366.6057645098548
 31
0.0
  0
LINE
  5
79E
330
1A
100
AcDbEntity
  8
NOKITOI
  6
PHANTOM
 62
     8
 48
5.0
100
AcDbLine
 10
614.6951647089474
 20
363.5037645098549
 30
0.0
 11
611.7585647089474
 21
363.5037645098549
 31
0.0
  0
LINE
  5
79F
330
1A
100
AcDbEntity
  8
NOKITOI
  6
PHANTOM
 62
     8
 48
5.0
100
AcDbLine
 10
610.3899647089477
 20
364.7037645098547
 30
0.0
 11
612.6214647089475
 21
364.7037645098547
 31
0.0
  0
LINE
  5
7A0
330
1A
100
AcDbEntity
  8
NOKITOI
  6
PHANTOM
 62
     8
 48
5.0
100
AcDbLine
 10
612.7543647089476
 20
362.4037645098548
 30
0.0
 11
611.7585647089474
 21
363.5037645098549
 31
0.0
  0
ARC
  5
7A1
330
1A
100
AcDbEntity
  8
NOKITOI
  6
PHANTOM
 62
     8
 48
5.0
100
AcDbCircle
 10
610.3899684184427
 20
364.2037684198855
 30
0.0
 40
0.4999960899831856
100
AcDbArc
 50
90.00042508015132
 51
183.0156217414654
  0
LINE
  5
7A2
330
1A
100
AcDbEntity
  8
NOKITOI
  6
PHANTOM
 62
     8
 48
5.0
100
AcDbLine
 10
612.147764708947
 20
358.9037645098548
 30
0.0
 11
611.7437647089475
 21
361.7321645098547
 31
0.0
  0
LINE
  5
7A3
330
1A
100
AcDbEntity
  8
NOKITOI
  6
PHANTOM
 62
     8
 48
5.0
100
AcDbLine
 10
611.3698647089474
 20
358.9037645098548
 30
0.0
 11
611.1887647089472
 21
362.3451645098548
 31
0.0
  0
LINE
  5
7A4
330
1A
100
AcDbEntity
  8
NOKITOI
  6
PHANTOM
 62
     8
 48
5.0
100
AcDbLine
 10
611.3698647089474
 20
358.9037645098548
 30
0.0
 11
612.147764708947
 21
358.9037645098548
 31
0.0
  0
LINE
  5
7A5
330
1A
100
AcDbEntity
  8
NOKITOI
  6
PHANTOM
 62
     8
 48
5.0
100
AcDbLine
 10
611.7437647089475
 20
361.7321645098547
 30
0.0
 11
611.1887647089472
 21
362.3451645098548
 31
0.0
  0
LINE
  5
7A6
330
1A
100
AcDbEntity
  8
NOKITOI
  6
PHANTOM
 62
     8
 48
5.0
100
AcDbLine
 10
612.7543647089476
 20
362.4037645098548
 30
0.0
 11
613.2163647089476
 21
362.4037645098548
 31
0.0
  0
LINE
  5
7A7
330
1A
100
AcDbEntity
  8
NOKITOI
  6
PHANTOM
 62
     8
 48
5.0
100
AcDbLine
 10
613.4498647089474
 20
358.2744645098547
 30
0.0
 11
613.1160647089475
 21
360.6106645098549
 31
0.0
  0
ARC
  5
7A8
330
1A
100
AcDbEntity
  8
NOKITOI
  6
PHANTOM
 62
     8
 48
5.0
100
AcDbCircle
 10
613.6110940814472
 20
360.6813947423497
 30
0.0
 40
0.4999578477751074
100
AcDbArc
 50
83.52609071220776
 51
188.1330561712924
  0
ARC
  5
7A9
330
1A
100
AcDbEntity
  8
NOKITOI
  6
PHANTOM
 62
     8
 48
5.0
100
AcDbCircle
 10
613.2163468425963
 20
357.2037732382347
 30
0.0
 40
5.199991271650611
100
AcDbArc
 50
37.92532860473096
 51
89.99980314072548
  0
LINE
  5
7AA
330
1A
100
AcDbEntity
  8
NOKITOI
  6
PHANTOM
 62
     8
 48
5.0
100
AcDbLine
 10
617.4674647089471
 20
365.1787645098547
 30
0.0
 11
617.3181647089474
 21
360.3997645098549
 31
0.0
  0
ARC
  5
7AB
330
1A
100
AcDbEntity
  8
NOKITOI
  6
PHANTOM
 62
     8
 48
5.0
100
AcDbCircle
 10
612.621463925939
 20
365.2037635548531
 30
0.0
 40
0.4999990449987399
100
AcDbArc
 50
270.0000897263054
 51
11.30328019845509
  0
LINE
  5
7AC
330
1A
100
AcDbEntity
  8
NOKITOI
  6
PHANTOM
 62
     8
 48
5.0
100
AcDbLine
 10
614.1951647089475
 20
366.003764509855
 30
0.0
 11
614.6951647089474
 21
363.5037645098549
 31
0.0
  0
LINE
  5
7AD
330
1A
100
AcDbEntity
  8
NOKITOI
  6
PHANTOM
 62
     8
 48
5.0
100
AcDbLine
 10
618.6668647089475
 20
365.1412645098548
 30
0.0
 11
618.2767647089474
 21
352.6568645098547
 31
0.0
  0
LINE
  5
8D2
330
1A
100
AcDbEntity
  8
ZUWAKU
100
AcDbLine
 10
208.6466009793416
 20
15.19999945063829
 30
0.0
 11
447.424363660265
 21
15.19999945063828
 31
0.0
  0
LINE
  5
8D3
330
1A
100
AcDbEntity
  8
ZUWAKU
100
AcDbLine
 10
208.6466009793416
 20
15.59999945063829
 30
0.0
 11
447.424363660265
 21
15.59999945063829
 31
0.0
  0
LINE
  5
8D4
330
1A
100
AcDbEntity
  8
ZUWAKU
100
AcDbLine
 10
208.6466009793416
 20
15.39999945063829
 30
0.0
 11
447.424363660265
 21
15.39999945063829
 31
0.0
  0
LINE
  5
8D5
330
1A
100
AcDbEntity
  8
ZUWAKU
100
AcDbLine
 10
-0.0000003107263638
 20
30.79999945063827
 30
0.0
 11
797.3999996892735
 21
30.79999945063827
 31
0.0
  0
LINE
  5
8D6
330
1A
100
AcDbEntity
  8
ZUWAKU
100
AcDbLine
 10
-0.0000003107263638
 20
30.59999945063826
 30
0.0
 11
797.3999996892735
 21
30.59999945063826
 31
0.0
  0
LINE
  5
8D7
330
1A
100
AcDbEntity
  8
ZUWAKU
100
AcDbLine
 10
-0.0000003107263638
 20
30.39999945063826
 30
0.0
 11
797.3999996892735
 21
30.39999945063826
 31
0.0
  0
LINE
  5
8D8
330
1A
100
AcDbEntity
  8
ZUWAKU
100
AcDbLine
 10
-0.0000003107263638
 20
30.19999945063826
 30
0.0
 11
797.3999996892735
 21
30.19999945063826
 31
0.0
  0
LINE
  5
8D9
330
1A
100
AcDbEntity
  8
ZUWAKU
100
AcDbLine
 10
-0.0000003107263638
 20
29.99999945063825
 30
0.0
 11
797.3999996892735
 21
29.99999945063825
 31
0.0
  0
LWPOLYLINE
  5
8DA
330
1A
100
AcDbEntity
  8
ZUWAKU
100
AcDbPolyline
 90
        4
 70
     1
 43
0.0
 10
0.199999689273568
 20
551.3999994506384
 10
0.199999689273568
 20
0.1999994506383018
 10
797.3999996892735
 20
0.1999994506383249
 10
797.3999996892737
 20
551.3999994506384
  0
LWPOLYLINE
  5
8DB
330
1A
100
AcDbEntity
  8
ZUWAKU
100
AcDbPolyline
 90
        4
 70
     1
 43
0.0
 10
0.5999996892735453
 20
550.9999994506383
 10
0.5999996892735453
 20
0.5999994506382791
 10
796.9999996892738
 20
0.5999994506383253
 10
796.9999996892736
 20
550.9999994506383
  0
LWPOLYLINE
  5
8DC
330
1A
100
AcDbEntity
  8
ZUWAKU
100
AcDbPolyline
 90
        4
 70
     1
 43
0.0
 10
-0.0000003107263638
 20
551.5999994506382
 10
-0.0000003107263638
 20
-0.0000005493617437
 10
797.5999996892737
 20
-0.0000005493616761
 10
797.5999996892737
 20
551.5999994506383
  0
LWPOLYLINE
  5
8DD
330
1A
100
AcDbEntity
  8
ZUWAKU
100
AcDbPolyline
 90
        4
 70
     1
 43
0.0
 10
0.3999996892736135
 20
551.1999994506383
 10
0.3999996892736135
 20
0.3999994506383473
 10
797.1999996892736
 20
0.3999994506383242
 10
797.1999996892736
 20
551.1999994506383
  0
LWPOLYLINE
  5
8DE
330
1A
100
AcDbEntity
  8
ZUWAKU
100
AcDbPolyline
 90
        4
 70
     1
 43
0.0
 10
0.7999996892735908
 20
550.7999994506383
 10
0.7999996892735908
 20
0.7999994506383246
 10
796.7999996892736
 20
0.7999994506383246
 10
796.7999996892736
 20
550.7999994506383
  0
TEXT
  5
8DF
330
1A
100
AcDbEntity
  8
MOJI
100
AcDbText
 10
92.95778927744278
 20
12.74117758091301
 30
0.0
 40
6.0
  1
新・丸トップＲＶ１０５
 41
0.9
  7
ｽﾀｲﾙ1
100
AcDbText
  0
HATCH
  5
8E0
330
1A
100
AcDbEntity
  8
ZUWAKU
100
AcDbHatch
 10
0.0
 20
0.0
 30
0.0
210
0.0
220
0.0
230
1.0
  2
ANSI37
 70
     0
 71
     0
 91
        8
 92
        7
 72
     1
 73
     1
 93
       24
 10
14.50226235039349
 20
17.64484793162184
 42
-0.1989123673796348
 10
14.09221184405476
 20
18.63479742528289
 42
0.0
 10
14.09221184405476
 20
19.92499945063826
 42
-0.4142135623730912
 10
14.61721184405473
 20
20.44999945063826
 42
0.0
 10
17.59221184405464
 20
20.44999945063826
 42
0.4142135623731546
 10
18.11721184405473
 20
20.97499945063824
 42
0.0
 10
18.11721184405473
 20
22.72499945063826
 42
0.4142135623731586
 10
17.59221184405464
 20
23.24999945063826
 42
0.0
 10
14.09221184405476
 20
23.24999945063826
 42
0.4142135623730928
 10
11.2922118440548
 20
20.44999945063828
 42
0.0
 10
11.2922118440548
 20
18.63479742528301
 42
0.1989123673796619
 10
12.52236336307123
 20
15.66494894429941
 42
0.0
 10
15.43216133771591
 20
12.75515096965475
 42
-0.1989123673796613
 10
15.84221184405476
 20
11.76520147599356
 42
0.0
 10
15.84221184405476
 20
10.47499945063825
 42
-0.4142135623730911
 10
15.31721184405478
 20
9.949999450638259
 42
0.0
 10
12.34221184405487
 20
9.949999450638259
 42
0.4142135623731526
 10
11.81721184405478
 20
9.424999450638271
 42
0.0
 10
11.81721184405478
 20
7.674999450638249
 42
0.4142135623731526
 10
12.34221184405487
 20
7.149999450638262
 42
0.0
 10
15.84221184405476
 20
7.149999450638262
 42
0.4142135623731044
 10
18.64221184405482
 20
9.949999450638237
 42
0.0
 10
18.64221184405482
 20
11.76520147599351
 42
0.1989123673796604
 10
17.41206032503828
 20
14.73504995697705
 42
0.0
 97
        0
 92
        7
 72
     1
 73
     1
 93
       16
 10
23.5422118440548
 20
19.04999945063826
 42
-0.4142135623730935
 10
24.94221184405478
 20
20.44999945063826
 42
0.0
 10
26.86721184405473
 20
20.44999945063826
 42
0.4142135623731546
 10
27.39221184405483
 20
20.97499945063824
 42
0.0
 10
27.39221184405483
 20
22.72499945063826
 42
0.4142135623730951
 10
26.86721184405485
 20
23.24999945063826
 42
0.0
 10
24.94221184405466
 20
23.24999945063822
 42
0.4142135623730892
 10
20.74221184405473
 20
19.04999945063819
 42
0.0
 10
20.74221184405473
 20
11.34999945063828
 42
0.4142135623730969
 10
24.94221184405478
 20
7.149999450638262
 42
0.0
 10
26.86721184405473
 20
7.149999450638262
 42
0.4142135623731526
 10
27.39221184405483
 20
7.674999450638249
 42
0.0
 10
27.39221184405483
 20
9.424999450638271
 42
0.4142135623730891
 10
26.86721184405485
 20
9.949999450638259
 42
0.0
 10
24.94221184405478
 20
9.949999450638259
 42
-0.4142135623730928
 10
23.5422118440548
 20
11.34999945063824
 42
0.0
 97
        0
 92
        7
 72
     1
 73
     1
 93
        2
 10
24.24221184405473
 20
15.19999945063825
 42
1.0
 10
27.74221184405473
 20
15.19999945063825
 42
1.0
 97
        0
 92
        7
 72
     1
 73
     1
 93
       26
 10
37.31485832623275
 20
19.20504664420168
 42
0.0
 10
38.37649795937057
 20
22.56690548247128
 42
0.5069206636600134
 10
37.87586706017521
 20
23.24999945063826
 42
0.0
 10
36.17697768056598
 20
23.24999945063826
 42
0.3272098845218764
 10
35.67634678137062
 20
22.88309341880523
 42
0.0
 10
33.80807690673885
 20
16.96690548247134
 42
-0.3272098845219541
 10
33.30744600754337
 20
16.59999945063825
 42
0.0
 10
33.16721184405492
 20
16.59999945063825
 42
-0.4142135623731526
 10
32.64221184405482
 20
17.12499945063824
 42
0.0
 10
32.64221184405482
 20
22.72499945063826
 42
0.4142135623730951
 10
32.11721184405485
 20
23.24999945063826
 42
0.0
 10
30.36721184405474
 20
23.24999945063826
 42
0.4142135623730871
 10
29.84221184405475
 20
22.72499945063827
 42
0.0
 10
29.84221184405475
 20
7.674999450638249
 42
0.4142135623730891
 10
30.36721184405474
 20
7.149999450638262
 42
0.0
 10
32.11721184405473
 20
7.149999450638262
 42
0.4142135623731526
 10
32.64221184405482
 20
7.674999450638249
 42
0.0
 10
32.64221184405482
 20
13.27499945063827
 42
-0.4142135623731526
 10
33.16721184405492
 20
13.79999945063826
 42
0.0
 10
33.30744600754349
 20
13.79999945063826
 42
-0.3272098845218915
 10
33.80807690673885
 20
13.43309341880518
 42
0.0
 10
35.67634678137062
 20
7.516905482471333
 42
0.3272098845218902
 10
36.17697768056598
 20
7.149999450638262
 42
0.0
 10
37.87586706017521
 20
7.149999450638262
 42
0.5069206636600335
 10
38.37649795937057
 20
7.833093418805269
 42
0.0
 10
36.05010658089691
 20
15.19999945063839
 42
0.0
 97
        0
 92
        7
 72
     1
 73
     1
 93
        8
 10
43.49221184405474
 20
22.72499945063827
 42
0.4142135623731546
 10
42.96721184405464
 20
23.24999945063826
 42
0.0
 10
41.21721184405487
 20
23.24999945063826
 42
0.4142135623731507
 10
40.69221184405478
 20
22.72499945063827
 42
0.0
 10
40.69221184405478
 20
7.674999450638249
 42
0.4142135623731526
 10
41.21721184405487
 20
7.149999450638262
 42
0.0
 10
42.96721184405464
 20
7.149999450638262
 42
0.4142135623731526
 10
43.49221184405474
 20
7.674999450638249
 42
0.0
 97
        0
 92
        7
 72
     1
 73
     1
 93
       24
 10
48.39221184405483
 20
19.92499945063826
 42
-0.4142135623731546
 10
48.91721184405492
 20
20.44999945063826
 42
0.0
 10
51.89221184405482
 20
20.44999945063826
 42
0.4142135623730911
 10
52.41721184405481
 20
20.97499945063824
 42
0.0
 10
52.41721184405481
 20
22.72499945063826
 42
0.4142135623730952
 10
51.89221184405482
 20
23.24999945063826
 42
0.0
 10
48.39221184405483
 20
23.24999945063826
 42
0.4142135623731048
 10
45.59221184405475
 20
20.44999945063828
 42
0.0
 10
45.59221184405475
 20
18.63479742528301
 42
0.1989123673796613
 10
46.8223633630713
 20
15.66494894429946
 42
0.0
 10
49.73216133771598
 20
12.7551509696548
 42
-0.1989123673796402
 10
50.14221184405482
 20
11.76520147599372
 42
0.0
 10
50.14221184405482
 20
10.47499945063825
 42
-0.4142135623730911
 10
49.61721184405485
 20
9.949999450638259
 42
0.0
 10
46.64221184405483
 20
9.949999450638259
 42
0.4142135623731526
 10
46.11721184405474
 20
9.424999450638271
 42
0.0
 10
46.11721184405474
 20
7.674999450638249
 42
0.4142135623730891
 10
46.64221184405471
 20
7.149999450638262
 42
0.0
 10
50.14221184405482
 20
7.149999450638262
 42
0.4142135623730925
 10
52.94221184405478
 20
9.949999450638237
 42
0.0
 10
52.94221184405478
 20
11.76520147599351
 42
0.1989123673796675
 10
51.71206032503824
 20
14.73504995697716
 42
0.0
 10
48.80226235039367
 20
17.64484793162168
 42
-0.1989123673796652
 10
48.39221184405483
 20
18.63479742528284
 42
0.0
 97
        0
 92
        7
 72
     1
 73
     1
 93
       16
 10
57.84221184405476
 20
22.72499945063825
 42
0.414213562373103
 10
57.31721184405478
 20
23.24999945063826
 42
0.0
 10
55.56721184405478
 20
23.24999945063826
 42
0.4142135623730871
 10
55.0422118440548
 20
22.72499945063827
 42
0.0
 10
55.0422118440548
 20
9.949999450638237
 42
0.4142135623730926
 10
57.84221184405476
 20
7.149999450638262
 42
0.0
 10
61.34221184405475
 20
7.149999450638262
 42
0.4142135623731044
 10
64.14221184405483
 20
9.949999450638237
 42
0.0
 10
64.14221184405483
 20
22.72499945063826
 42
0.4142135623730951
 10
63.61721184405485
 20
23.24999945063826
 42
0.0
 10
61.86721184405474
 20
23.24999945063826
 42
0.4142135623730871
 10
61.34221184405475
 20
22.72499945063827
 42
0.0
 10
61.34221184405475
 20
10.99999945063823
 42
-0.414213562373088
 10
60.2922118440548
 20
9.949999450638259
 42
0.0
 10
58.89221184405482
 20
9.949999450638259
 42
-0.4142135623731197
 10
57.84221184405476
 20
10.99999945063823
 42
0.0
 97
        0
 92
        7
 72
     1
 73
     1
 93
        8
 10
69.0422118440548
 20
22.72499945063827
 42
0.4142135623730871
 10
68.51721184405483
 20
23.24999945063826
 42
0.0
 10
66.76721184405483
 20
23.24999945063826
 42
0.4142135623731507
 10
66.24221184405474
 20
22.72499945063827
 42
0.0
 10
66.24221184405474
 20
7.674999450638249
 42
0.4142135623730891
 10
66.76721184405471
 20
7.149999450638262
 42
0.0
 10
68.51721184405483
 20
7.149999450638262
 42
0.4142135623730891
 10
69.0422118440548
 20
7.674999450638249
 42
0.0
 97
        0
 75
     0
 76
     1
 52
0.0
 41
0.2
 77
     0
 78
     2
 53
45.0
 43
-900.9423046454053
 44
-13.20000054936167
 45
-0.4490128060534576
 46
0.4490128060534577
 79
     0
 53
135.0
 43
-900.9423046454053
 44
-13.20000054936167
 45
-0.4490128060534577
 46
-0.4490128060534576
 79
     0
 47
0.057451373970553
 98
        8
 10
16.07985465229694
 20
15.16717309652381
 10
22.4045146957128
 20
18.84406163308926
 10
25.16436757493329
 20
15.51188109670897
 10
30.91405967091077
 20
16.20129709707976
 10
41.83847170823037
 20
16.66090936462137
 10
46.89820058440318
 20
19.41857576704546
 10
56.55768566167399
 20
18.72915736573327
 10
67.82707930889637
 20
19.18876963327488
  0
LINE
  5
8E1
330
1A
100
AcDbEntity
  8
ZUWAKU
100
AcDbLine
 10
24.94221184405478
 20
23.24999945063822
 30
0.0
 11
26.86721184405473
 21
23.24999945063826
 31
0.0
  0
LINE
  5
8E2
330
1A
100
AcDbEntity
  8
ZUWAKU
100
AcDbLine
 10
26.86721184405473
 20
20.44999945063826
 30
0.0
 11
24.94221184405478
 21
20.44999945063826
 31
0.0
  0
LINE
  5
8E3
330
1A
100
AcDbEntity
  8
ZUWAKU
100
AcDbLine
 10
24.94221184405478
 20
9.949999450638259
 30
0.0
 11
26.86721184405473
 21
9.949999450638259
 31
0.0
  0
LINE
  5
8E4
330
1A
100
AcDbEntity
  8
ZUWAKU
100
AcDbLine
 10
26.86721184405473
 20
7.149999450638262
 30
0.0
 11
24.94221184405478
 21
7.149999450638262
 31
0.0
  0
CIRCLE
  5
8E5
330
1A
100
AcDbEntity
  8
ZUWAKU
100
AcDbCircle
 10
25.99221184405474
 20
15.19999945063825
 30
0.0
 40
1.75
  0
ARC
  5
8E6
330
1A
100
AcDbEntity
  8
ZUWAKU
100
AcDbCircle
 10
15.49221184405473
 20
18.63479742528296
 30
0.0
 40
1.399999999999999
100
AcDbArc
 50
180.0000000000016
 51
224.9999999999988
  0
LINE
  5
8E7
330
1A
100
AcDbEntity
  8
ZUWAKU
100
AcDbLine
 10
23.5422118440548
 20
19.04999945063826
 30
0.0
 11
23.5422118440548
 21
11.34999945063826
 31
0.0
  0
LINE
  5
8E8
330
1A
100
AcDbEntity
  8
ZUWAKU
100
AcDbLine
 10
20.74221184405473
 20
11.34999945063826
 30
0.0
 11
20.74221184405473
 21
19.04999945063821
 31
0.0
  0
ARC
  5
8E9
330
1A
100
AcDbEntity
  8
ZUWAKU
100
AcDbCircle
 10
15.49221184405473
 20
18.63479742528296
 30
0.0
 40
4.199999999999999
100
AcDbArc
 50
180.0
 51
225.0
  0
ARC
  5
8EA
330
1A
100
AcDbEntity
  8
ZUWAKU
100
AcDbCircle
 10
15.84221184405476
 20
9.949999450638259
 30
0.0
 40
2.799999999999999
100
AcDbArc
 50
270.0
 51
0.0
  0
ARC
  5
8EB
330
1A
100
AcDbEntity
  8
ZUWAKU
100
AcDbCircle
 10
24.94221184405478
 20
11.34999945063826
 30
0.0
 40
4.199999999999999
100
AcDbArc
 50
180.0
 51
270.0
  0
ARC
  5
8EC
330
1A
100
AcDbEntity
  8
ZUWAKU
100
AcDbCircle
 10
14.44221184405478
 20
11.76520147599356
 30
0.0
 40
4.199999999999999
100
AcDbArc
 50
0.0
 51
45.0
  0
LINE
  5
8ED
330
1A
100
AcDbEntity
  8
ZUWAKU
100
AcDbLine
 10
17.41206032503828
 20
14.73504995697708
 30
0.0
 11
14.5022623503936
 21
17.64484793162176
 31
0.0
  0
LINE
  5
8EE
330
1A
100
AcDbEntity
  8
ZUWAKU
100
AcDbLine
 10
15.84221184405476
 20
10.47499945063826
 30
0.0
 11
15.84221184405476
 21
11.7652014759936
 31
0.0
  0
ARC
  5
8EF
330
1A
100
AcDbEntity
  8
ZUWAKU
100
AcDbCircle
 10
15.31721184405478
 20
10.47499945063826
 30
0.0
 40
0.525
100
AcDbArc
 50
270.0
 51
0.0
  0
ARC
  5
8F0
330
1A
100
AcDbEntity
  8
ZUWAKU
100
AcDbCircle
 10
14.44221184405478
 20
11.7652014759936
 30
0.0
 40
1.399999999999999
100
AcDbArc
 50
0.0
 51
45.0
  0
LINE
  5
8F1
330
1A
100
AcDbEntity
  8
ZUWAKU
100
AcDbLine
 10
11.81721184405478
 20
7.67499945063826
 30
0.0
 11
11.81721184405478
 21
9.42499945063826
 31
0.0
  0
ARC
  5
8F2
330
1A
100
AcDbEntity
  8
ZUWAKU
100
AcDbCircle
 10
12.34221184405476
 20
7.67499945063826
 30
0.0
 40
0.525
100
AcDbArc
 50
180.0
 51
270.0
  0
ARC
  5
8F3
330
1A
100
AcDbEntity
  8
ZUWAKU
100
AcDbCircle
 10
12.34221184405476
 20
9.42499945063826
 30
0.0
 40
0.525
100
AcDbArc
 50
90.0
 51
180.0
  0
LINE
  5
8F4
330
1A
100
AcDbEntity
  8
ZUWAKU
100
AcDbLine
 10
12.34221184405476
 20
7.149999450638262
 30
0.0
 11
15.84221184405476
 21
7.149999450638262
 31
0.0
  0
LINE
  5
8F5
330
1A
100
AcDbEntity
  8
ZUWAKU
100
AcDbLine
 10
12.34221184405476
 20
9.949999450638259
 30
0.0
 11
15.31721184405478
 21
9.949999450638259
 31
0.0
  0
LINE
  5
8F6
330
1A
100
AcDbEntity
  8
ZUWAKU
100
AcDbLine
 10
12.52236336307123
 20
15.66494894429943
 30
0.0
 11
15.43216133771591
 21
12.75515096965477
 31
0.0
  0
LINE
  5
8F7
330
1A
100
AcDbEntity
  8
ZUWAKU
100
AcDbLine
 10
18.64221184405482
 20
9.949999450638259
 30
0.0
 11
18.64221184405482
 21
11.7652014759936
 31
0.0
  0
ARC
  5
8F8
330
1A
100
AcDbEntity
  8
ZUWAKU
100
AcDbCircle
 10
24.94221184405478
 20
11.34999945063826
 30
0.0
 40
1.399999999999999
100
AcDbArc
 50
180.0
 51
270.0
  0
ARC
  5
8F9
330
1A
100
AcDbEntity
  8
ZUWAKU
100
AcDbCircle
 10
17.59221184405475
 20
22.72499945063825
 30
0.0
 40
0.525
100
AcDbArc
 50
0.0
 51
90.0
  0
ARC
  5
8FA
330
1A
100
AcDbEntity
  8
ZUWAKU
100
AcDbCircle
 10
17.59221184405475
 20
20.97499945063825
 30
0.0
 40
0.525
100
AcDbArc
 50
270.0
 51
0.0
  0
LINE
  5
8FB
330
1A
100
AcDbEntity
  8
ZUWAKU
100
AcDbLine
 10
14.09221184405476
 20
23.24999945063826
 30
0.0
 11
17.59221184405475
 21
23.24999945063826
 31
0.0
  0
ARC
  5
8FC
330
1A
100
AcDbEntity
  8
ZUWAKU
100
AcDbCircle
 10
14.61721184405473
 20
19.92499945063826
 30
0.0
 40
0.525
100
AcDbArc
 50
90.0
 51
180.0
  0
LINE
  5
8FD
330
1A
100
AcDbEntity
  8
ZUWAKU
100
AcDbLine
 10
14.09221184405476
 20
19.92499945063826
 30
0.0
 11
14.09221184405476
 21
18.63479742528292
 31
0.0
  0
LINE
  5
8FE
330
1A
100
AcDbEntity
  8
ZUWAKU
100
AcDbLine
 10
17.59221184405475
 20
20.44999945063826
 30
0.0
 11
14.61721184405473
 21
20.44999945063826
 31
0.0
  0
LINE
  5
8FF
330
1A
100
AcDbEntity
  8
ZUWAKU
100
AcDbLine
 10
11.2922118440548
 20
20.44999945063826
 30
0.0
 11
11.2922118440548
 21
18.63479742528292
 31
0.0
  0
ARC
  5
900
330
1A
100
AcDbEntity
  8
ZUWAKU
100
AcDbCircle
 10
14.09221184405476
 20
20.44999945063826
 30
0.0
 40
2.799999999999999
100
AcDbArc
 50
90.0
 51
180.0
  0
LINE
  5
901
330
1A
100
AcDbEntity
  8
ZUWAKU
100
AcDbLine
 10
18.11721184405473
 20
22.72499945063825
 30
0.0
 11
18.11721184405473
 21
20.97499945063825
 31
0.0
  0
ARC
  5
902
330
1A
100
AcDbEntity
  8
ZUWAKU
100
AcDbCircle
 10
24.94221184405478
 20
19.04999945063826
 30
0.0
 40
1.399999999999999
100
AcDbArc
 50
90.0
 51
180.0
  0
ARC
  5
903
330
1A
100
AcDbEntity
  8
ZUWAKU
100
AcDbCircle
 10
24.94221184405478
 20
19.04999945063821
 30
0.0
 40
4.199999999999999
100
AcDbArc
 50
90.0
 51
180.0
  0
LINE
  5
904
330
1A
100
AcDbEntity
  8
ZUWAKU
100
AcDbLine
 10
79.32662923726184
 20
29.99999945063825
 30
0.0
 11
79.32662923726207
 21
0.7999994506383246
 31
0.0
  0
LINE
  5
905
330
1A
100
AcDbEntity
  8
ZUWAKU
100
AcDbLine
 10
79.52662923726188
 20
29.99999945063825
 30
0.0
 11
79.52662923726212
 21
0.7999994506383246
 31
0.0
  0
LINE
  5
906
330
1A
100
AcDbEntity
  8
ZUWAKU
100
AcDbLine
 10
79.12662923726202
 20
29.99999945063825
 30
0.0
 11
79.12662923726202
 21
0.7999994506383246
 31
0.0
  0
LINE
  5
907
330
1A
100
AcDbEntity
  8
ZUWAKU
100
AcDbLine
 10
64.14221184405483
 20
9.949999450638259
 30
0.0
 11
64.14221184405483
 21
22.72499945063825
 31
0.0
  0
LINE
  5
908
330
1A
100
AcDbEntity
  8
ZUWAKU
100
AcDbLine
 10
61.34221184405475
 20
22.72499945063825
 30
0.0
 11
61.34221184405475
 21
10.99999945063825
 31
0.0
  0
LINE
  5
909
330
1A
100
AcDbEntity
  8
ZUWAKU
100
AcDbLine
 10
69.0422118440548
 20
7.67499945063826
 30
0.0
 11
69.0422118440548
 21
22.72499945063825
 31
0.0
  0
LINE
  5
90A
330
1A
100
AcDbEntity
  8
ZUWAKU
100
AcDbLine
 10
66.24221184405474
 20
22.72499945063825
 30
0.0
 11
66.24221184405474
 21
7.67499945063826
 31
0.0
  0
ARC
  5
90B
330
1A
100
AcDbEntity
  8
ZUWAKU
100
AcDbCircle
 10
49.79221184405481
 20
18.63479742528296
 30
0.0
 40
1.399999999999999
100
AcDbArc
 50
180.0000000000016
 51
224.9999999999988
  0
ARC
  5
90C
330
1A
100
AcDbEntity
  8
ZUWAKU
100
AcDbCircle
 10
49.79221184405481
 20
18.63479742528296
 30
0.0
 40
4.199999999999999
100
AcDbArc
 50
180.0
 51
225.0
  0
LINE
  5
90D
330
1A
100
AcDbEntity
  8
ZUWAKU
100
AcDbLine
 10
37.31485832623275
 20
19.20504664420168
 30
0.0
 11
36.05010658089691
 21
15.19999945063828
 31
0.0
  0
LINE
  5
90E
330
1A
100
AcDbEntity
  8
ZUWAKU
100
AcDbLine
 10
40.69221184405478
 20
22.72499945063825
 30
0.0
 11
40.69221184405478
 21
7.67499945063826
 31
0.0
  0
LINE
  5
90F
330
1A
100
AcDbEntity
  8
ZUWAKU
100
AcDbLine
 10
43.49221184405474
 20
7.67499945063826
 30
0.0
 11
43.49221184405474
 21
22.72499945063825
 31
0.0
  0
LINE
  5
910
330
1A
100
AcDbEntity
  8
ZUWAKU
100
AcDbLine
 10
55.0422118440548
 20
22.72499945063825
 30
0.0
 11
55.0422118440548
 21
9.949999450638259
 31
0.0
  0
LINE
  5
911
330
1A
100
AcDbEntity
  8
ZUWAKU
100
AcDbLine
 10
57.84221184405476
 20
10.99999945063825
 30
0.0
 11
57.84221184405476
 21
22.72499945063825
 31
0.0
  0
LINE
  5
912
330
1A
100
AcDbEntity
  8
ZUWAKU
100
AcDbLine
 10
32.64221184405482
 20
17.12499945063826
 30
0.0
 11
32.64221184405482
 21
22.72499945063825
 31
0.0
  0
LINE
  5
913
330
1A
100
AcDbEntity
  8
ZUWAKU
100
AcDbLine
 10
29.84221184405475
 20
22.72499945063825
 30
0.0
 11
29.84221184405475
 21
7.67499945063826
 31
0.0
  0
LINE
  5
914
330
1A
100
AcDbEntity
  8
ZUWAKU
100
AcDbLine
 10
35.67634678137062
 20
22.88309341880523
 30
0.0
 11
33.80807690673885
 21
16.96690548247129
 31
0.0
  0
LINE
  5
915
330
1A
100
AcDbEntity
  8
ZUWAKU
100
AcDbLine
 10
60.2922118440548
 20
9.949999450638259
 30
0.0
 11
58.89221184405482
 21
9.949999450638259
 31
0.0
  0
LINE
  5
916
330
1A
100
AcDbEntity
  8
ZUWAKU
100
AcDbLine
 10
57.84221184405476
 20
7.149999450638262
 30
0.0
 11
61.34221184405475
 21
7.149999450638262
 31
0.0
  0
LINE
  5
917
330
1A
100
AcDbEntity
  8
ZUWAKU
100
AcDbLine
 10
41.21721184405475
 20
7.149999450638262
 30
0.0
 11
42.96721184405476
 21
7.149999450638262
 31
0.0
  0
LINE
  5
918
330
1A
100
AcDbEntity
  8
ZUWAKU
100
AcDbLine
 10
35.67634678137062
 20
7.516905482471287
 30
0.0
 11
33.80807690673885
 21
13.43309341880522
 31
0.0
  0
ARC
  5
919
330
1A
100
AcDbEntity
  8
ZUWAKU
100
AcDbCircle
 10
33.30744600754349
 20
17.12499945063826
 30
0.0
 40
0.525
100
AcDbArc
 50
270.0
 51
342.4744316262769
  0
LINE
  5
91A
330
1A
100
AcDbEntity
  8
ZUWAKU
100
AcDbLine
 10
33.30744600754349
 20
16.59999945063825
 30
0.0
 11
33.1672118440548
 21
16.59999945063825
 31
0.0
  0
LINE
  5
91B
330
1A
100
AcDbEntity
  8
ZUWAKU
100
AcDbLine
 10
33.1672118440548
 20
13.79999945063826
 30
0.0
 11
33.30744600754349
 21
13.79999945063826
 31
0.0
  0
ARC
  5
91C
330
1A
100
AcDbEntity
  8
ZUWAKU
100
AcDbCircle
 10
33.1672118440548
 20
17.12499945063826
 30
0.0
 40
0.525
100
AcDbArc
 50
180.0
 51
270.0
  0
LINE
  5
91D
330
1A
100
AcDbEntity
  8
ZUWAKU
100
AcDbLine
 10
30.36721184405474
 20
7.149999450638262
 30
0.0
 11
32.11721184405473
 21
7.149999450638262
 31
0.0
  0
ARC
  5
91E
330
1A
100
AcDbEntity
  8
ZUWAKU
100
AcDbCircle
 10
32.11721184405473
 20
7.67499945063826
 30
0.0
 40
0.525
100
AcDbArc
 50
270.0
 51
0.0
  0
LINE
  5
91F
330
1A
100
AcDbEntity
  8
ZUWAKU
100
AcDbLine
 10
32.64221184405482
 20
7.67499945063826
 30
0.0
 11
32.64221184405482
 21
13.27499945063826
 31
0.0
  0
LINE
  5
920
330
1A
100
AcDbEntity
  8
ZUWAKU
100
AcDbLine
 10
27.39221184405483
 20
9.42499945063826
 30
0.0
 11
27.39221184405483
 21
7.67499945063826
 31
0.0
  0
ARC
  5
921
330
1A
100
AcDbEntity
  8
ZUWAKU
100
AcDbCircle
 10
26.86721184405473
 20
7.67499945063826
 30
0.0
 40
0.525
100
AcDbArc
 50
270.0
 51
0.0
  0
ARC
  5
922
330
1A
100
AcDbEntity
  8
ZUWAKU
100
AcDbCircle
 10
26.86721184405473
 20
9.42499945063826
 30
0.0
 40
0.525
100
AcDbArc
 50
0.0
 51
90.0
  0
ARC
  5
923
330
1A
100
AcDbEntity
  8
ZUWAKU
100
AcDbCircle
 10
30.36721184405474
 20
7.67499945063826
 30
0.0
 40
0.525
100
AcDbArc
 50
180.0
 51
270.0
  0
ARC
  5
924
330
1A
100
AcDbEntity
  8
ZUWAKU
100
AcDbCircle
 10
33.30744600754349
 20
13.27499945063826
 30
0.0
 40
0.525
100
AcDbArc
 50
17.52556837372303
 51
90.0
  0
ARC
  5
925
330
1A
100
AcDbEntity
  8
ZUWAKU
100
AcDbCircle
 10
33.1672118440548
 20
13.27499945063826
 30
0.0
 40
0.525
100
AcDbArc
 50
90.0
 51
180.0
  0
ARC
  5
926
330
1A
100
AcDbEntity
  8
ZUWAKU
100
AcDbCircle
 10
41.21721184405475
 20
7.67499945063826
 30
0.0
 40
0.525
100
AcDbArc
 50
180.0
 51
270.0
  0
LINE
  5
927
330
1A
100
AcDbEntity
  8
ZUWAKU
100
AcDbLine
 10
36.1769776805661
 20
7.149999450638262
 30
0.0
 11
37.87586706017509
 21
7.149999450638262
 31
0.0
  0
ARC
  5
928
330
1A
100
AcDbEntity
  8
ZUWAKU
100
AcDbCircle
 10
37.87586706017509
 20
7.67499945063826
 30
0.0
 40
0.525
100
AcDbArc
 50
270.0
 51
17.52556837372303
  0
LINE
  5
929
330
1A
100
AcDbEntity
  8
ZUWAKU
100
AcDbLine
 10
38.37649795937057
 20
7.833093418805233
 30
0.0
 11
36.05010658089691
 21
15.19999945063828
 31
0.0
  0
ARC
  5
92A
330
1A
100
AcDbEntity
  8
ZUWAKU
100
AcDbCircle
 10
36.1769776805661
 20
7.67499945063826
 30
0.0
 40
0.525
100
AcDbArc
 50
197.525568373723
 51
270.0
  0
ARC
  5
92B
330
1A
100
AcDbEntity
  8
ZUWAKU
100
AcDbCircle
 10
57.84221184405476
 20
9.949999450638259
 30
0.0
 40
2.799999999999999
100
AcDbArc
 50
180.0
 51
270.0
  0
ARC
  5
92C
330
1A
100
AcDbEntity
  8
ZUWAKU
100
AcDbCircle
 10
50.14221184405482
 20
9.949999450638259
 30
0.0
 40
2.799999999999999
100
AcDbArc
 50
270.0
 51
0.0
  0
LINE
  5
92D
330
1A
100
AcDbEntity
  8
ZUWAKU
100
AcDbLine
 10
51.71206032503835
 20
14.73504995697708
 30
0.0
 11
48.80226235039356
 21
17.64484793162176
 31
0.0
  0
LINE
  5
92E
330
1A
100
AcDbEntity
  8
ZUWAKU
100
AcDbLine
 10
50.14221184405482
 20
10.47499945063826
 30
0.0
 11
50.14221184405482
 21
11.7652014759936
 31
0.0
  0
ARC
  5
92F
330
1A
100
AcDbEntity
  8
ZUWAKU
100
AcDbCircle
 10
48.74221184405474
 20
11.7652014759936
 30
0.0
 40
1.399999999999999
100
AcDbArc
 50
0.0
 51
45.0
  0
ARC
  5
930
330
1A
100
AcDbEntity
  8
ZUWAKU
100
AcDbCircle
 10
49.61721184405473
 20
10.47499945063826
 30
0.0
 40
0.525
100
AcDbArc
 50
270.0
 51
0.0
  0
LINE
  5
931
330
1A
100
AcDbEntity
  8
ZUWAKU
100
AcDbLine
 10
46.11721184405474
 20
7.67499945063826
 30
0.0
 11
46.11721184405474
 21
9.42499945063826
 31
0.0
  0
ARC
  5
932
330
1A
100
AcDbEntity
  8
ZUWAKU
100
AcDbCircle
 10
46.64221184405483
 20
7.67499945063826
 30
0.0
 40
0.525
100
AcDbArc
 50
180.0
 51
270.0
  0
ARC
  5
933
330
1A
100
AcDbEntity
  8
ZUWAKU
100
AcDbCircle
 10
42.96721184405476
 20
7.67499945063826
 30
0.0
 40
0.525
100
AcDbArc
 50
270.0
 51
0.0
  0
ARC
  5
934
330
1A
100
AcDbEntity
  8
ZUWAKU
100
AcDbCircle
 10
46.64221184405483
 20
9.42499945063826
 30
0.0
 40
0.525
100
AcDbArc
 50
90.0
 51
180.0
  0
LINE
  5
935
330
1A
100
AcDbEntity
  8
ZUWAKU
100
AcDbLine
 10
46.64221184405483
 20
9.949999450638259
 30
0.0
 11
49.61721184405473
 21
9.949999450638259
 31
0.0
  0
LINE
  5
936
330
1A
100
AcDbEntity
  8
ZUWAKU
100
AcDbLine
 10
46.64221184405483
 20
7.149999450638262
 30
0.0
 11
50.14221184405482
 21
7.149999450638262
 31
0.0
  0
LINE
  5
937
330
1A
100
AcDbEntity
  8
ZUWAKU
100
AcDbLine
 10
46.8223633630713
 20
15.66494894429943
 30
0.0
 11
49.73216133771598
 21
12.75515096965477
 31
0.0
  0
LINE
  5
938
330
1A
100
AcDbEntity
  8
ZUWAKU
100
AcDbLine
 10
52.94221184405478
 20
9.949999450638259
 30
0.0
 11
52.94221184405478
 21
11.7652014759936
 31
0.0
  0
ARC
  5
939
330
1A
100
AcDbEntity
  8
ZUWAKU
100
AcDbCircle
 10
48.74221184405474
 20
11.76520147599356
 30
0.0
 40
4.199999999999999
100
AcDbArc
 50
0.0
 51
45.0
  0
ARC
  5
93A
330
1A
100
AcDbEntity
  8
ZUWAKU
100
AcDbCircle
 10
58.89221184405482
 20
10.99999945063825
 30
0.0
 40
1.049999999999999
100
AcDbArc
 50
180.0
 51
270.0
  0
ARC
  5
93B
330
1A
100
AcDbEntity
  8
ZUWAKU
100
AcDbCircle
 10
61.34221184405475
 20
9.949999450638259
 30
0.0
 40
2.799999999999999
100
AcDbArc
 50
270.0
 51
0.0
  0
LINE
  5
93C
330
1A
100
AcDbEntity
  8
ZUWAKU
100
AcDbLine
 10
66.76721184405483
 20
7.149999450638262
 30
0.0
 11
68.51721184405483
 21
7.149999450638262
 31
0.0
  0
ARC
  5
93D
330
1A
100
AcDbEntity
  8
ZUWAKU
100
AcDbCircle
 10
66.76721184405483
 20
7.67499945063826
 30
0.0
 40
0.525
100
AcDbArc
 50
180.0
 51
270.0
  0
ARC
  5
93E
330
1A
100
AcDbEntity
  8
ZUWAKU
100
AcDbCircle
 10
60.2922118440548
 20
10.99999945063825
 30
0.0
 40
1.049999999999999
100
AcDbArc
 50
270.0
 51
0.0
  0
ARC
  5
93F
330
1A
100
AcDbEntity
  8
ZUWAKU
100
AcDbCircle
 10
68.51721184405483
 20
7.67499945063826
 30
0.0
 40
0.525
100
AcDbArc
 50
270.0
 51
0.0
  0
LINE
  5
940
330
1A
100
AcDbEntity
  8
ZUWAKU
100
AcDbLine
 10
42.96721184405476
 20
23.24999945063826
 30
0.0
 11
41.21721184405475
 21
23.24999945063826
 31
0.0
  0
ARC
  5
941
330
1A
100
AcDbEntity
  8
ZUWAKU
100
AcDbCircle
 10
32.11721184405473
 20
22.72499945063825
 30
0.0
 40
0.525
100
AcDbArc
 50
0.0
 51
90.0
  0
LINE
  5
942
330
1A
100
AcDbEntity
  8
ZUWAKU
100
AcDbLine
 10
32.11721184405473
 20
23.24999945063826
 30
0.0
 11
30.36721184405474
 21
23.24999945063826
 31
0.0
  0
ARC
  5
943
330
1A
100
AcDbEntity
  8
ZUWAKU
100
AcDbCircle
 10
26.86721184405473
 20
22.72499945063825
 30
0.0
 40
0.525
100
AcDbArc
 50
0.0
 51
90.0
  0
ARC
  5
944
330
1A
100
AcDbEntity
  8
ZUWAKU
100
AcDbCircle
 10
30.36721184405474
 20
22.72499945063825
 30
0.0
 40
0.525
100
AcDbArc
 50
90.0
 51
180.0
  0
ARC
  5
945
330
1A
100
AcDbEntity
  8
ZUWAKU
100
AcDbCircle
 10
26.86721184405473
 20
20.97499945063825
 30
0.0
 40
0.525
100
AcDbArc
 50
270.0
 51
0.0
  0
LINE
  5
946
330
1A
100
AcDbEntity
  8
ZUWAKU
100
AcDbLine
 10
27.39221184405483
 20
22.72499945063825
 30
0.0
 11
27.39221184405483
 21
20.97499945063825
 31
0.0
  0
ARC
  5
947
330
1A
100
AcDbEntity
  8
ZUWAKU
100
AcDbCircle
 10
41.21721184405475
 20
22.72499945063825
 30
0.0
 40
0.525
100
AcDbArc
 50
90.0
 51
180.0
  0
LINE
  5
948
330
1A
100
AcDbEntity
  8
ZUWAKU
100
AcDbLine
 10
36.1769776805661
 20
23.24999945063826
 30
0.0
 11
37.87586706017509
 21
23.24999945063826
 31
0.0
  0
ARC
  5
949
330
1A
100
AcDbEntity
  8
ZUWAKU
100
AcDbCircle
 10
37.87586706017509
 20
22.72499945063825
 30
0.0
 40
0.525
100
AcDbArc
 50
342.4744316262769
 51
90.0
  0
LINE
  5
94A
330
1A
100
AcDbEntity
  8
ZUWAKU
100
AcDbLine
 10
38.37649795937057
 20
22.56690548247129
 30
0.0
 11
37.31485832623275
 21
19.20504664420168
 31
0.0
  0
ARC
  5
94B
330
1A
100
AcDbEntity
  8
ZUWAKU
100
AcDbCircle
 10
36.1769776805661
 20
22.72499945063825
 30
0.0
 40
0.525
100
AcDbArc
 50
90.0
 51
162.4744316262769
  0
LINE
  5
94C
330
1A
100
AcDbEntity
  8
ZUWAKU
100
AcDbLine
 10
48.39221184405483
 20
23.24999945063826
 30
0.0
 11
51.89221184405482
 21
23.24999945063826
 31
0.0
  0
LINE
  5
94D
330
1A
100
AcDbEntity
  8
ZUWAKU
100
AcDbLine
 10
51.89221184405482
 20
20.44999945063826
 30
0.0
 11
48.9172118440548
 21
20.44999945063826
 31
0.0
  0
ARC
  5
94E
330
1A
100
AcDbEntity
  8
ZUWAKU
100
AcDbCircle
 10
48.9172118440548
 20
19.92499945063826
 30
0.0
 40
0.525
100
AcDbArc
 50
90.0
 51
180.0
  0
LINE
  5
94F
330
1A
100
AcDbEntity
  8
ZUWAKU
100
AcDbLine
 10
48.39221184405483
 20
19.92499945063826
 30
0.0
 11
48.39221184405483
 21
18.63479742528292
 31
0.0
  0
ARC
  5
950
330
1A
100
AcDbEntity
  8
ZUWAKU
100
AcDbCircle
 10
42.96721184405476
 20
22.72499945063825
 30
0.0
 40
0.525
100
AcDbArc
 50
0.0
 51
90.0
  0
LINE
  5
951
330
1A
100
AcDbEntity
  8
ZUWAKU
100
AcDbLine
 10
45.59221184405475
 20
20.44999945063826
 30
0.0
 11
45.59221184405475
 21
18.63479742528292
 31
0.0
  0
ARC
  5
952
330
1A
100
AcDbEntity
  8
ZUWAKU
100
AcDbCircle
 10
48.39221184405483
 20
20.44999945063826
 30
0.0
 40
2.799999999999999
100
AcDbArc
 50
90.0
 51
180.0
  0
ARC
  5
953
330
1A
100
AcDbEntity
  8
ZUWAKU
100
AcDbCircle
 10
57.31721184405478
 20
22.72499945063825
 30
0.0
 40
0.525
100
AcDbArc
 50
0.0
 51
90.0
  0
ARC
  5
954
330
1A
100
AcDbEntity
  8
ZUWAKU
100
AcDbCircle
 10
55.56721184405478
 20
22.72499945063825
 30
0.0
 40
0.525
100
AcDbArc
 50
90.0
 51
180.0
  0
LINE
  5
955
330
1A
100
AcDbEntity
  8
ZUWAKU
100
AcDbLine
 10
57.31721184405478
 20
23.24999945063826
 30
0.0
 11
55.56721184405478
 21
23.24999945063826
 31
0.0
  0
ARC
  5
956
330
1A
100
AcDbEntity
  8
ZUWAKU
100
AcDbCircle
 10
51.89221184405482
 20
22.72499945063825
 30
0.0
 40
0.525
100
AcDbArc
 50
0.0
 51
90.0
  0
ARC
  5
957
330
1A
100
AcDbEntity
  8
ZUWAKU
100
AcDbCircle
 10
51.89221184405482
 20
20.97499945063825
 30
0.0
 40
0.525
100
AcDbArc
 50
270.0
 51
0.0
  0
LINE
  5
958
330
1A
100
AcDbEntity
  8
ZUWAKU
100
AcDbLine
 10
52.41721184405481
 20
22.72499945063825
 30
0.0
 11
52.41721184405481
 21
20.97499945063825
 31
0.0
  0
LINE
  5
959
330
1A
100
AcDbEntity
  8
ZUWAKU
100
AcDbLine
 10
68.51721184405483
 20
23.24999945063826
 30
0.0
 11
66.76721184405483
 21
23.24999945063826
 31
0.0
  0
ARC
  5
95A
330
1A
100
AcDbEntity
  8
ZUWAKU
100
AcDbCircle
 10
66.76721184405483
 20
22.72499945063825
 30
0.0
 40
0.525
100
AcDbArc
 50
90.0
 51
180.0
  0
ARC
  5
95B
330
1A
100
AcDbEntity
  8
ZUWAKU
100
AcDbCircle
 10
63.61721184405474
 20
22.72499945063825
 30
0.0
 40
0.525
100
AcDbArc
 50
0.0
 51
90.0
  0
LINE
  5
95C
330
1A
100
AcDbEntity
  8
ZUWAKU
100
AcDbLine
 10
63.61721184405474
 20
23.24999945063826
 30
0.0
 11
61.86721184405474
 21
23.24999945063826
 31
0.0
  0
ARC
  5
95D
330
1A
100
AcDbEntity
  8
ZUWAKU
100
AcDbCircle
 10
61.86721184405474
 20
22.72499945063825
 30
0.0
 40
0.525
100
AcDbArc
 50
90.0
 51
180.0
  0
ARC
  5
95E
330
1A
100
AcDbEntity
  8
ZUWAKU
100
AcDbCircle
 10
68.51721184405483
 20
22.72499945063825
 30
0.0
 40
0.525
100
AcDbArc
 50
0.0
 51
90.0
  0
TEXT
  5
95F
330
1A
100
AcDbEntity
  8
MOJI
100
AcDbText
 10
239.8272023701247
 20
18.00492050804564
 30
0.0
 40
5.599999999999999
  1
じょうご
 41
0.9
  7
ｽﾀｲﾙ1
100
AcDbText
  0
TEXT
  5
960
330
1A
100
AcDbEntity
  8
MOJI
100
AcDbText
 10
239.8272023701247
 20
3.204920508045677
 30
0.0
 40
5.599999999999999
  1
ＲＶ１０５－ＵＴ７５
 41
0.9
  7
ｽﾀｲﾙ1
100
AcDbText
  0
LINE
  5
961
330
1A
100
AcDbEntity
  8
ZUWAKU
100
AcDbLine
 10
208.2466009793415
 20
29.99999945063825
 30
0.0
 11
208.2466009793415
 21
0.7999994506383246
 31
0.0
  0
LINE
  5
962
330
1A
100
AcDbEntity
  8
ZUWAKU
100
AcDbLine
 10
208.6466009793414
 20
29.99999945063825
 30
0.0
 11
208.6466009793416
 21
0.7999994506383246
 31
0.0
  0
LINE
  5
963
330
1A
100
AcDbEntity
  8
ZUWAKU
100
AcDbLine
 10
208.4466009793414
 20
29.99999945063825
 30
0.0
 11
208.4466009793416
 21
0.7999994506383246
 31
0.0
  0
TEXT
  5
964
330
1A
100
AcDbEntity
  8
ZUWAKU
100
AcDbText
 10
209.7240460015512
 20
9.655355989023874
 30
0.0
 40
4.0
  1
サイズ
 41
0.9
  7
ｽﾀｲﾙ1
100
AcDbText
  0
TEXT
  5
965
330
1A
100
AcDbEntity
  8
ZUWAKU
100
AcDbText
 10
209.7240460015509
 20
24.05535598902384
 30
0.0
 40
4.0
  1
品名
 41
0.9
  7
ｽﾀｲﾙ1
100
AcDbText
  0
LINE
  5
966
330
1A
100
AcDbEntity
  8
ZUWAKU
100
AcDbLine
 10
648.8172021994778
 20
15.19999945063828
 30
0.0
 11
697.2490102378149
 21
15.19999945063829
 31
0.0
  0
LINE
  5
967
330
1A
100
AcDbEntity
  8
ZUWAKU
100
AcDbLine
 10
648.817202199478
 20
15.39999945063829
 30
0.0
 11
697.2490102378149
 21
15.39999945063829
 31
0.0
  0
LINE
  5
968
330
1A
100
AcDbEntity
  8
ZUWAKU
100
AcDbLine
 10
648.8172021994778
 20
15.59999945063829
 30
0.0
 11
697.2490102378149
 21
15.59999945063829
 31
0.0
  0
TEXT
  5
969
330
1A
100
AcDbEntity
  8
ZUWAKU
100
AcDbText
 10
658.203937376576
 20
18.00492050804564
 30
0.0
 40
5.599999999999999
  1
　　．　　．　　
 41
0.9
  7
ｽﾀｲﾙ1
100
AcDbText
  0
TEXT
  5
96A
330
1A
100
AcDbEntity
  8
SUNPOU
100
AcDbText
 10
661.9071641742184
 20
36.65388898337175
 30
0.0
 40
6.0
  1
※b　エルボの差込み寸法を示す
100
AcDbText
  0
TEXT
  5
96B
330
1A
100
AcDbEntity
  8
SUNPOU
100
AcDbText
 10
661.9071641742184
 20
46.25388898337178
 30
0.0
 40
6.0
  1
※a　のきといの縁切り間隔寸法を示す
100
AcDbText
  0
LINE
  5
96C
330
1A
100
AcDbEntity
  8
ZUWAKU
100
AcDbLine
 10
505.1991791874145
 20
15.19999945063829
 30
0.0
 11
552.5269554553861
 21
15.19999945063829
 31
0.0
  0
LINE
  5
96D
330
1A
100
AcDbEntity
  8
ZUWAKU
100
AcDbLine
 10
505.1991791874145
 20
15.39999945063829
 30
0.0
 11
552.5269554553861
 21
15.39999945063829
 31
0.0
  0
LINE
  5
96E
330
1A
100
AcDbEntity
  8
ZUWAKU
100
AcDbLine
 10
505.1991791874145
 20
15.59999945063829
 30
0.0
 11
552.5269554553861
 21
15.59999945063829
 31
0.0
  0
TEXT
  5
96F
330
1A
100
AcDbEntity
  8
MOJI
100
AcDbText
 10
464.5946256925126
 20
11.94261717229824
 30
0.0
 40
5.599999999999999
  1
ＧＱ７７□
 41
0.9
  7
ｽﾀｲﾙ1
100
AcDbText
  0
LINE
  5
970
330
1A
100
AcDbEntity
  8
ZUWAKU
100
AcDbLine
 10
447.6243636602649
 20
29.99999945063825
 30
0.0
 11
447.624363660265
 21
0.7999994506383246
 31
0.0
  0
LINE
  5
971
330
1A
100
AcDbEntity
  8
ZUWAKU
100
AcDbLine
 10
447.8243636602648
 20
29.99999945063825
 30
0.0
 11
447.8243636602651
 21
0.7999994506383246
 31
0.0
  0
LINE
  5
972
330
1A
100
AcDbEntity
  8
ZUWAKU
100
AcDbLine
 10
447.424363660265
 20
29.99999945063825
 30
0.0
 11
447.424363660265
 21
0.7999994506383246
 31
0.0
  0
TEXT
  5
973
330
1A
100
AcDbEntity
  8
MOJI
100
AcDbText
 10
528.0409076615865
 20
18.00492050804564
 30
0.0
 40
5.599999999999999
  1
Ａ３
 41
0.9
  7
ｽﾀｲﾙ1
100
AcDbText
  0
LINE
  5
974
330
1A
100
AcDbEntity
  8
ZUWAKU
100
AcDbLine
 10
504.9991791874145
 20
29.99999945063825
 30
0.0
 11
504.9991791874147
 21
0.7999994506383246
 31
0.0
  0
LINE
  5
975
330
1A
100
AcDbEntity
  8
ZUWAKU
100
AcDbLine
 10
505.1991791874145
 20
29.99999945063825
 30
0.0
 11
505.1991791874147
 21
0.7999994506383246
 31
0.0
  0
LINE
  5
976
330
1A
100
AcDbEntity
  8
ZUWAKU
100
AcDbLine
 10
504.7991791874146
 20
29.99999945063825
 30
0.0
 11
504.7991791874146
 21
0.7999994506383246
 31
0.0
  0
TEXT
  5
977
330
1A
100
AcDbEntity
  8
ZUWAKU
100
AcDbText
 10
462.6937613447807
 20
2.614070361777748
 30
0.0
 40
3.0
  1
□には色品番が入ります
 41
0.9
  7
ｽﾀｲﾙ1
100
AcDbText
  0
TEXT
  5
978
330
1A
100
AcDbEntity
  8
ZUWAKU
100
AcDbText
 10
506.6766242096243
 20
9.655355989023874
 30
0.0
 40
4.0
  1
縮尺
 41
0.9
  7
ｽﾀｲﾙ1
100
AcDbText
  0
TEXT
  5
979
330
1A
100
AcDbEntity
  8
MOJI
100
AcDbText
 10
528.0409076615865
 20
3.204920508045677
 30
0.0
 40
5.599999999999999
  1
１/２
 41
0.9
  7
ｽﾀｲﾙ1
100
AcDbText
  0
TEXT
  5
97A
330
1A
100
AcDbEntity
  8
ZUWAKU
100
AcDbText
 10
449.3018086824745
 20
24.05535598902384
 30
0.0
 40
4.0
  1
品番
 41
0.9
  7
ｽﾀｲﾙ1
100
AcDbText
  0
TEXT
  5
97B
330
1A
100
AcDbEntity
  8
ZUWAKU
100
AcDbText
 10
506.6766242096242
 20
24.05535598902384
 30
0.0
 40
4.0
  1
用紙
 41
0.9
  7
ｽﾀｲﾙ1
100
AcDbText
  0
LINE
  5
97C
330
1A
100
AcDbEntity
  8
ZUWAKU
100
AcDbLine
 10
648.617202199478
 20
29.99999945063825
 30
0.0
 11
648.6172021994782
 21
0.7999994506383246
 31
0.0
  0
LINE
  5
97D
330
1A
100
AcDbEntity
  8
ZUWAKU
100
AcDbLine
 10
648.817202199478
 20
29.99999945063825
 30
0.0
 11
648.8172021994783
 21
0.7999994506383246
 31
0.0
  0
LINE
  5
97E
330
1A
100
AcDbEntity
  8
ZUWAKU
100
AcDbLine
 10
648.4172021994782
 20
29.99999945063825
 30
0.0
 11
648.4172021994782
 21
0.7999994506383246
 31
0.0
  0
LINE
  5
97F
330
1A
100
AcDbEntity
  8
ZUWAKU
100
AcDbLine
 10
552.7269554553859
 20
29.99999945063825
 30
0.0
 11
552.7269554553861
 21
0.7999994506383246
 31
0.0
  0
LINE
  5
980
330
1A
100
AcDbEntity
  8
ZUWAKU
100
AcDbLine
 10
552.9269554553859
 20
29.99999945063825
 30
0.0
 11
552.9269554553861
 21
0.7999994506383246
 31
0.0
  0
LINE
  5
981
330
1A
100
AcDbEntity
  8
ZUWAKU
100
AcDbLine
 10
552.5269554553861
 20
29.99999945063825
 30
0.0
 11
552.5269554553861
 21
0.7999994506383246
 31
0.0
  0
TEXT
  5
982
330
1A
100
AcDbEntity
  8
ZUWAKU
100
AcDbText
 10
650.2946472216876
 20
24.05535598902384
 30
0.0
 40
4.0
  1
DATE
 41
0.9
  7
ｽﾀｲﾙ1
100
AcDbText
  0
LINE
  5
983
330
1A
100
AcDbEntity
  8
ZUWAKU
100
AcDbLine
 10
697.2490102378149
 20
29.99999945063825
 30
0.0
 11
697.2490102378149
 21
0.7999994506383246
 31
0.0
  0
LINE
  5
984
330
1A
100
AcDbEntity
  8
ZUWAKU
100
AcDbLine
 10
697.4490102378149
 20
29.99999945063825
 30
0.0
 11
697.4490102378149
 21
0.7999994506383246
 31
0.0
  0
LINE
  5
985
330
1A
100
AcDbEntity
  8
ZUWAKU
100
AcDbLine
 10
697.6490102378147
 20
29.99999945063825
 30
0.0
 11
697.649010237815
 21
0.7999994506383246
 31
0.0
  0
LINE
  5
986
330
1A
100
AcDbEntity
  8
ZUWAKU
100
AcDbLine
 10
697.8490102378148
 20
29.99999945063825
 30
0.0
 11
697.849010237815
 21
0.7999994506383246
 31
0.0
  0
TEXT
  5
987
330
1A
100
AcDbEntity
  8
ZUWAKU
100
AcDbText
 10
708.5280838815174
 20
17.55383878632506
 30
0.0
 40
6.0
  1
積水化学工業株式会社
 41
0.9
  7
ｽﾀｲﾙ1
100
AcDbText
  0
TEXT
  5
988
330
1A
100
AcDbEntity
  8
ZUWAKU
100
AcDbText
 10
708.5280838815174
 20
6.648839764492322
 30
0.0
 40
6.0
  1
建材事業部
 41
0.9
  7
ｽﾀｲﾙ1
100
AcDbText
  0
VIEWPORT
  5
22
330
17
100
AcDbEntity
 67
     1
  8
0
100
AcDbViewport
 10
313.6808219178082
 20
148.5
 30
0.0
 40
627.3616438356165
 41
297.0
 68
     2
 69
     1
1001
ACAD
1000
MVIEW
1002
{
1070
    16
1010
0.0
1020
0.0
1030
0.0
1010
0.0
1020
0.0
1030
1.0
1040
0.0
1040
297.0
1040
313.6808219178082
1040
148.5
1040
50.0
1040
0.0
1040
0.0
1070
     0
1070
   100
1070
     1
1070
     0
1070
     0
1070
     0
1070
     0
1070
     0
1040
0.0
1040
0.0
1040
0.0
1040
1.0
1040
1.0
1040
10.0
1040
10.0
1070
     0
1002
{
1002
}
1002
}
  0
VIEWPORT
  5
64
330
17
100
AcDbEntity
 67
     1
  8
VIEWPORT
100
AcDbViewport
 10
210.0
 20
148.5
 30
0.0
 40
420.0
 41
297.0
 68
     1
 69
     2
1001
ACAD
1000
MVIEW
1002
{
1070
    16
1010
0.0
1020
0.0
1030
0.0
1010
0.0
1020
0.0
1030
1.0
1040
0.0
1040
605.8799999999998
1040
420.0
1040
297.0
1040
50.0
1040
0.0
1040
0.0
1070
     0
1070
   100
1070
     1
1070
     0
1070
     0
1070
     0
1070
     0
1070
     0
1040
0.0
1040
0.0
1040
0.0
1040
10.0
1040
10.0
1040
0.0
1040
0.0
1070
     0
1002
{
1002
}
1002
}
  0
ENDSEC
  0
SECTION
  2
OBJECTS
  0
DICTIONARY
  5
C
330
0
100
AcDbDictionary
  3
ACAD_GROUP
350
D
  3
ACAD_LAYOUT
350
7D7
  3
ACAD_MLINESTYLE
350
E
  3
ACAD_PLOTSETTINGS
350
7D8
  3
ACAD_PLOTSTYLENAME
350
7D5
  3
ACDBHEADERROUNDTRIPXREC
350
990
  0
DICTIONARY
  5
806
330
1A
100
AcDbDictionary
280
     1
  3
ACAD_LAYOUTSELFREF
360
9B2
  0
DICTIONARY
  5
804
330
17
100
AcDbDictionary
280
     1
  3
ACAD_LAYOUTSELFREF
360
9B1
  0
DICTIONARY
  5
D
102
{ACAD_REACTORS
330
C
102
}
330
C
100
AcDbDictionary
  0
DICTIONARY
  5
7D7
102
{ACAD_REACTORS
330
C
102
}
330
C
100
AcDbDictionary
  0
DICTIONARY
  5
E
102
{ACAD_REACTORS
330
C
102
}
330
C
100
AcDbDictionary
  3
STANDARD
350
13
  0
DICTIONARY
  5
7D8
102
{ACAD_REACTORS
330
C
102
}
330
C
100
AcDbDictionary
  0
ACDBDICTIONARYWDFLT
  5
7D5
102
{ACAD_REACTORS
330
C
102
}
330
C
100
AcDbDictionary
281
     1
  3
Normal
350
7D6
100
AcDbDictionaryWithDefault
340
7D6
1001
ACAD
1000
TREAT_AS_HARD
1070
     0
  0
DICTIONARY
  5
990
102
{ACAD_REACTORS
330
C
102
}
330
C
100
AcDbDictionary
  3
TSTACKALIGN
350
991
  3
TSTACKSIZE
350
992
  3
HYPERLINKBASE
350
993
  3
STYLESHEET
350
994
  3
LAYOUTDICT
350
995
  3
PLOTSETDICT
350
996
  3
PLOTSTYLNAMDICT
350
997
  3
LWETCUNION
350
998
  3
INSUNITS
350
999
  3
CEPSNTYPE
350
99A
  3
FINGERPRINTGUID
350
99B
  3
VERSIONGUID
350
99C
  3
PSVPSCALE
350
99D
  3
DIMSTYLEDATA
350
99E
  3
PUCSORTHOREF
350
99F
  3
PUCSORTHOVIEW
350
9A0
  3
PUCSBASE
350
9A1
  3
PUCSORGTOP
350
9A2
  3
PUCSORGBOTTOM
350
9A3
  3
PUCSORGLEFT
350
9A4
  3
PUCSORGRIGHT
350
9A5
  3
PUCSORGFRONT
350
9A6
  3
PUCSORGBACK
350
9A7
  3
UCSORTHOREF
350
9A8
  3
UCSORTHOVIEW
350
9A9
  3
UCSBASE
350
9AA
  3
UCSORGTOP
350
9AB
  3
UCSORGBOTTOM
350
9AC
  3
UCSORGLEFT
350
9AD
  3
UCSORGRIGHT
350
9AE
  3
UCSORGFRONT
350
9AF
  3
UCSORGBACK
350
9B0
  0
XRECORD
  5
9B2
102
{ACAD_REACTORS
330
806
102
}
330
806
100
AcDbXrecord
340
1A
  0
XRECORD
  5
9B1
102
{ACAD_REACTORS
330
804
102
}
330
804
100
AcDbXrecord
340
17
  0
MLINESTYLE
  5
13
102
{ACAD_REACTORS
330
E
102
}
330
E
100
AcDbMlineStyle
  2
STANDARD
 70
     0
  3

 62
     0
 51
90.0
 52
90.0
 71
     2
 49
0.5
 62
   256
  6
BYLAYER
 49
-0.5
 62
   256
  6
BYLAYER
  0
ACDBPLACEHOLDER
  5
7D6
102
{ACAD_REACTORS
330
7D5
102
}
330
7D5
100
AcDbPlaceHolder
280
     0
  0
XRECORD
  5
991
102
{ACAD_REACTORS
330
990
102
}
330
990
100
AcDbXrecord
 90
        1
  0
XRECORD
  5
992
102
{ACAD_REACTORS
330
990
102
}
330
990
100
AcDbXrecord
 90
       70
  0
XRECORD
  5
993
102
{ACAD_REACTORS
330
990
102
}
330
990
100
AcDbXrecord
  1

  0
XRECORD
  5
994
102
{ACAD_REACTORS
330
990
102
}
330
990
100
AcDbXrecord
  1
systemprinter.ctb
  0
XRECORD
  5
995
102
{ACAD_REACTORS
330
990
102
}
330
990
100
AcDbXrecord
340
7D7
  0
XRECORD
  5
996
102
{ACAD_REACTORS
330
990
102
}
330
990
100
AcDbXrecord
340
7D8
  0
XRECORD
  5
997
102
{ACAD_REACTORS
330
990
102
}
330
990
100
AcDbXrecord
340
7D5
  0
XRECORD
  5
998
102
{ACAD_REACTORS
330
990
102
}
330
990
100
AcDbXrecord
 90
    10781
  0
XRECORD
  5
999
102
{ACAD_REACTORS
330
990
102
}
330
990
100
AcDbXrecord
 90
        0
  0
XRECORD
  5
99A
102
{ACAD_REACTORS
330
990
102
}
330
990
100
AcDbXrecord
 90
        0
  0
XRECORD
  5
99B
102
{ACAD_REACTORS
330
990
102
}
330
990
100
AcDbXrecord
  1
{9FE7CB88-F652-41EC-8C07-7C6CCB6D3C08}
  0
XRECORD
  5
99C
102
{ACAD_REACTORS
330
990
102
}
330
990
100
AcDbXrecord
  1
{F115211F-D3EC-4DC4-B51C-E0E8FA458B9D}
  0
XRECORD
  5
99D
102
{ACAD_REACTORS
330
990
102
}
330
990
100
AcDbXrecord
 40
0.0
  0
XRECORD
  5
99E
102
{ACAD_REACTORS
330
990
102
}
330
990
100
AcDbXrecord
1000
DSTYLE
1002
{
1070
   341
340
6D
1070
   343
340
6D
1070
   344
340
6D
1070
   371
 70
    -1
1070
   372
 70
    -1
1002
}
  0
XRECORD
  5
99F
102
{ACAD_REACTORS
330
990
102
}
330
990
100
AcDbXrecord
340
0
  0
XRECORD
  5
9A0
102
{ACAD_REACTORS
330
990
102
}
330
990
100
AcDbXrecord
 70
     0
  0
XRECORD
  5
9A1
102
{ACAD_REACTORS
330
990
102
}
330
990
100
AcDbXrecord
340
0
  0
XRECORD
  5
9A2
102
{ACAD_REACTORS
330
990
102
}
330
990
100
AcDbXrecord
 10
0.0
 20
0.0
 30
0.0
  0
XRECORD
  5
9A3
102
{ACAD_REACTORS
330
990
102
}
330
990
100
AcDbXrecord
 10
0.0
 20
0.0
 30
0.0
  0
XRECORD
  5
9A4
102
{ACAD_REACTORS
330
990
102
}
330
990
100
AcDbXrecord
 10
0.0
 20
0.0
 30
0.0
  0
XRECORD
  5
9A5
102
{ACAD_REACTORS
330
990
102
}
330
990
100
AcDbXrecord
 10
0.0
 20
0.0
 30
0.0
  0
XRECORD
  5
9A6
102
{ACAD_REACTORS
330
990
102
}
330
990
100
AcDbXrecord
 10
0.0
 20
0.0
 30
0.0
  0
XRECORD
  5
9A7
102
{ACAD_REACTORS
330
990
102
}
330
990
100
AcDbXrecord
 10
0.0
 20
0.0
 30
0.0
  0
XRECORD
  5
9A8
102
{ACAD_REACTORS
330
990
102
}
330
990
100
AcDbXrecord
340
0
  0
XRECORD
  5
9A9
102
{ACAD_REACTORS
330
990
102
}
330
990
100
AcDbXrecord
 70
     0
  0
XRECORD
  5
9AA
102
{ACAD_REACTORS
330
990
102
}
330
990
100
AcDbXrecord
340
0
  0
XRECORD
  5
9AB
102
{ACAD_REACTORS
330
990
102
}
330
990
100
AcDbXrecord
 10
0.0
 20
0.0
 30
0.0
  0
XRECORD
  5
9AC
102
{ACAD_REACTORS
330
990
102
}
330
990
100
AcDbXrecord
 10
0.0
 20
0.0
 30
0.0
  0
XRECORD
  5
9AD
102
{ACAD_REACTORS
330
990
102
}
330
990
100
AcDbXrecord
 10
0.0
 20
0.0
 30
0.0
  0
XRECORD
  5
9AE
102
{ACAD_REACTORS
330
990
102
}
330
990
100
AcDbXrecord
 10
0.0
 20
0.0
 30
0.0
  0
XRECORD
  5
9AF
102
{ACAD_REACTORS
330
990
102
}
330
990
100
AcDbXrecord
 10
0.0
 20
0.0
 30
0.0
  0
XRECORD
  5
9B0
102
{ACAD_REACTORS
330
990
102
}
330
990
100
AcDbXrecord
 10
0.0
 20
0.0
 30
0.0
  0
ENDSEC
  0
EOF
