  0
SECTION
  2
HEADER
  9
$ACADVER
  1
AC1012
  9
$DWGCODEPAGE
  3
dos932
  9
$INSBASE
 10
0.0
 20
0.0
 30
0.0
  9
$EXTMIN
 10
19.90074647074652
 20
5.798621502208327
 30
0.0
  9
$EXTMAX
 10
1611.900746470746
 20
1124.166900699545
 30
0.0
  9
$LIMMIN
 10
0.0
 20
0.0
  9
$LIMMAX
 10
1682.0
 20
1188.0
  9
$ORTHOMODE
 70
     0
  9
$REGENMODE
 70
     1
  9
$FILLMODE
 70
     1
  9
$QTEXTMODE
 70
     0
  9
$MIRRTEXT
 70
     1
  9
$DRAGMODE
 70
     2
  9
$LTSCALE
 40
5.657142857142857
  9
$OSMODE
 70
   319
  9
$ATTMODE
 70
     1
  9
$TEXTSIZE
 40
19.8
  9
$TRACEWID
 40
0.05
  9
$TEXTSTYLE
  7
STANDARD
  9
$CLAYER
  8
SEIHIN
  9
$CELTYPE
  6
BYLAYER
  9
$CECOLOR
 62
   256
  9
$CELTSCALE
 40
1.0
  9
$DELOBJ
 70
     1
  9
$DISPSILH
 70
     0
  9
$DIMSCALE
 40
1.0
  9
$DIMASZ
 40
14.0
  9
$DIMEXO
 40
12.0
  9
$DIMDLI
 40
28.0
  9
$DIMRND
 40
0.0
  9
$DIMDLE
 40
0.0
  9
$DIMEXE
 40
6.0
  9
$DIMTP
 40
0.0
  9
$DIMTM
 40
0.0
  9
$DIMTXT
 40
12.0
  9
$DIMCEN
 40
150.0
  9
$DIMTSZ
 40
0.0
  9
$DIMTOL
 70
     0
  9
$DIMLIM
 70
     0
  9
$DIMTIH
 70
     0
  9
$DIMTOH
 70
     0
  9
$DIMSE1
 70
     0
  9
$DIMSE2
 70
     0
  9
$DIMTAD
 70
     3
  9
$DIMZIN
 70
     0
  9
$DIMBLK
  1

  9
$DIMASO
 70
     1
  9
$DIMSHO
 70
     1
  9
$DIMPOST
  1

  9
$DIMAPOST
  1

  9
$DIMALT
 70
     0
  9
$DIMALTD
 70
     2
  9
$DIMALTF
 40
0.03937
  9
$DIMLFAC
 40
1.0
  9
$DIMTOFL
 70
     1
  9
$DIMTVP
 40
0.0
  9
$DIMTIX
 70
     0
  9
$DIMSOXD
 70
     0
  9
$DIMSAH
 70
     1
  9
$DIMBLK1
  1
OPEN
  9
$DIMBLK2
  1
OPEN
  9
$DIMSTYLE
  2
STANDARD
  9
$DIMCLRD
 70
   256
  9
$DIMCLRE
 70
   256
  9
$DIMCLRT
 70
   256
  9
$DIMTFAC
 40
1.0
  9
$DIMGAP
 40
4.0
  9
$DIMJUST
 70
     0
  9
$DIMSD1
 70
     0
  9
$DIMSD2
 70
     0
  9
$DIMTOLJ
 70
     1
  9
$DIMTZIN
 70
     0
  9
$DIMALTZ
 70
     0
  9
$DIMALTTZ
 70
     0
  9
$DIMFIT
 70
     3
  9
$DIMUPT
 70
     0
  9
$DIMUNIT
 70
     2
  9
$DIMDEC
 70
     0
  9
$DIMTDEC
 70
     0
  9
$DIMALTU
 70
     2
  9
$DIMALTTD
 70
     2
  9
$DIMTXSTY
  7
STANDARD
  9
$DIMAUNIT
 70
     0
  9
$LUNITS
 70
     2
  9
$LUPREC
 70
     4
  9
$SKETCHINC
 40
0.1
  9
$FILLETRAD
 40
56.57142857142858
  9
$AUNITS
 70
     0
  9
$AUPREC
 70
     0
  9
$MENU
  1
acad
  9
$ELEVATION
 40
0.0
  9
$PELEVATION
 40
0.0
  9
$THICKNESS
 40
0.0
  9
$LIMCHECK
 70
     0
  9
$BLIPMODE
 70
     0
  9
$CHAMFERA
 40
56.57142857142858
  9
$CHAMFERB
 40
56.57142857142858
  9
$CHAMFERC
 40
113.1428571428571
  9
$CHAMFERD
 40
0.0
  9
$SKPOLY
 70
     0
  9
$TDCREATE
 40
2450994.355304167
  9
$TDUPDATE
 40
2452422.692176273
  9
$TDINDWG
 40
0.0069969907
  9
$TDUSRTIMER
 40
0.0069969907
  9
$USRTIMER
 70
     1
  9
$ANGBASE
 50
0.0
  9
$ANGDIR
 70
     0
  9
$PDMODE
 70
     1
  9
$PDSIZE
 40
0.0
  9
$PLINEWID
 40
0.0
  9
$COORDS
 70
     1
  9
$SPLFRAME
 70
     0
  9
$SPLINETYPE
 70
     6
  9
$SPLINESEGS
 70
     8
  9
$ATTDIA
 70
     0
  9
$ATTREQ
 70
     1
  9
$HANDLING
 70
 10241
  9
$HANDSEED
  5
80A
  9
$SURFTAB1
 70
     6
  9
$SURFTAB2
 70
     6
  9
$SURFTYPE
 70
     6
  9
$SURFU
 70
     6
  9
$SURFV
 70
     6
  9
$UCSNAME
  2

  9
$UCSORG
 10
0.0
 20
0.0
 30
0.0
  9
$UCSXDIR
 10
1.0
 20
0.0
 30
0.0
  9
$UCSYDIR
 10
0.0
 20
1.0
 30
0.0
  9
$PUCSNAME
  2

  9
$PUCSORG
 10
0.0
 20
0.0
 30
0.0
  9
$PUCSXDIR
 10
1.0
 20
0.0
 30
0.0
  9
$PUCSYDIR
 10
0.0
 20
1.0
 30
0.0
  9
$USERI1
 70
     0
  9
$USERI2
 70
     0
  9
$USERI3
 70
     0
  9
$USERI4
 70
     0
  9
$USERI5
 70
     0
  9
$USERR1
 40
0.0
  9
$USERR2
 40
0.0
  9
$USERR3
 40
0.0
  9
$USERR4
 40
0.0
  9
$USERR5
 40
0.0
  9
$WORLDVIEW
 70
     1
  9
$SHADEDGE
 70
     3
  9
$SHADEDIF
 70
    70
  9
$TILEMODE
 70
     1
  9
$MAXACTVP
 70
    16
  9
$PINSBASE
 10
0.0
 20
0.0
 30
0.0
  9
$PLIMCHECK
 70
     0
  9
$PEXTMIN
 10
0.0
 20
0.0
 30
0.0
  9
$PEXTMAX
 10
420.0
 20
297.0
 30
0.0
  9
$PLIMMIN
 10
0.0
 20
0.0
  9
$PLIMMAX
 10
420.0
 20
297.0
  9
$UNITMODE
 70
     0
  9
$VISRETAIN
 70
     0
  9
$PLINEGEN
 70
     0
  9
$PSLTSCALE
 70
     1
  9
$TREEDEPTH
 70
  3020
  9
$PICKSTYLE
 70
     1
  9
$CMLSTYLE
  2
STANDARD
  9
$CMLJUST
 70
     0
  9
$CMLSCALE
 40
20.0
  9
$SAVEIMAGES
 70
     1
  0
ENDSEC
  0
SECTION
  2
CLASSES
  0
CLASS
  1
ACDBDICTIONARYWDFLT
  2
AcDbDictionaryWithDefault
  3
AutoCAD 2000
 90
    32768
280
     0
281
     0
  0
CLASS
  1
ACDBPLACEHOLDER
  2
AcDbPlaceHolder
  3
AutoCAD 2000
 90
    32768
280
     0
281
     0
  0
CLASS
  1
LAYOUT
  2
AcDbLayout
  3
AutoCAD 2000
 90
    32768
280
     0
281
     0
  0
CLASS
  1
LONG_TRANSACTION
  2
AcDbLongTransaction
  3
AutoCAD 2000
 90
    32768
280
     0
281
     0
  0
CLASS
  1
LWPOLYLINE
  2
AcDbPolyline
  3
AutoCAD 2000
 90
    32768
280
     0
281
     1
  0
CLASS
  1
HATCH
  2
AcDbHatch
  3
AutoCAD 2000
 90
    32768
280
     0
281
     1
  0
CLASS
  1
XRECORD
  2
AcDbXrecord
  3
AutoCAD 2000
 90
    32768
280
     0
281
     0
  0
CLASS
  1
LONG_TRANSACTION
  2
AcDbLongTransaction
  3
AutoCAD 2000
 90
    32768
280
     0
281
     0
  0
CLASS
  1
LWPOLYLINE
  2
AcDbPolyline
  3
AutoCAD 2000
 90
    32768
280
     0
281
     1
  0
CLASS
  1
HATCH
  2
AcDbHatch
  3
AutoCAD 2000
 90
    32768
280
     0
281
     1
  0
CLASS
  1
XRECORD
  2
AcDbXrecord
  3
AutoCAD 2000
 90
    32768
280
     0
281
     0
  0
ENDSEC
  0
SECTION
  2
TABLES
  0
TABLE
  2
VPORT
  5
8
330
0
100
AcDbSymbolTable
 70
     2
  0
VPORT
  5
7F5
330
8
100
AcDbSymbolTableRecord
100
AcDbViewportTableRecord
  2
*ACTIVE
 70
     0
 10
0.0
 20
0.0
 11
1.0
 21
1.0
 12
827.4283793155243
 22
587.5775913763343
 13
0.0
 23
0.0
 14
10.0
 24
10.0
 15
10.0
 25
10.0
 16
0.0
 26
0.0
 36
1.0
 17
0.0
 27
0.0
 37
0.0
 40
1235.660599974839
 41
1.709909909909909
 42
50.0
 43
0.0
 44
0.0
 50
0.0
 51
0.0
 71
     0
 72
   100
 73
     1
 74
     0
 75
     0
 76
     0
 77
     0
 78
     0
  0
ENDTAB
  0
TABLE
  2
LTYPE
  5
5
330
0
100
AcDbSymbolTable
 70
     4
  0
LTYPE
  5
13
330
5
100
AcDbSymbolTableRecord
100
AcDbLinetypeTableRecord
  2
BYBLOCK
 70
     0
  3

 72
    65
 73
     0
 40
0.0
  0
LTYPE
  5
14
330
5
100
AcDbSymbolTableRecord
100
AcDbLinetypeTableRecord
  2
BYLAYER
 70
     0
  3

 72
    65
 73
     0
 40
0.0
  0
LTYPE
  5
15
330
5
100
AcDbSymbolTableRecord
100
AcDbLinetypeTableRecord
  2
CONTINUOUS
 70
     0
  3
Solid line
 72
    65
 73
     0
 40
0.0
  0
LTYPE
  5
11C
330
5
100
AcDbSymbolTableRecord
100
AcDbLinetypeTableRecord
  2
CENTER
 70
     0
  3
____ _ ____ _ ____ _ ____ _ ____ _ ____ _ ____ 
 72
    65
 73
     4
 40
2.0
 49
1.25
 74
     0
 49
-0.25
 74
     0
 49
0.25
 74
     0
 49
-0.25
 74
     0
  0
LTYPE
  5
11E
330
5
100
AcDbSymbolTableRecord
100
AcDbLinetypeTableRecord
  2
PHANTOM
 70
     0
  3
______  __  __  ______  __  __  ______  __  __ 
 72
    65
 73
     6
 40
2.5
 49
1.25
 74
     0
 49
-0.25
 74
     0
 49
0.25
 74
     0
 49
-0.25
 74
     0
 49
0.25
 74
     0
 49
-0.25
 74
     0
  0
LTYPE
  5
1E8
330
5
100
AcDbSymbolTableRecord
100
AcDbLinetypeTableRecord
  2
ACAD_ISO04W100
 70
     0
  3
____ . ____ . ____ . ____ . ____ . ____ . ____ 
 72
    65
 73
     4
 40
30.5
 49
24.0
 74
     0
 49
-3.0
 74
     0
 49
0.5
 74
     0
 49
-3.0
 74
     0
  0
ENDTAB
  0
TABLE
  2
LAYER
  5
2
330
0
100
AcDbSymbolTable
 70
     8
  0
LAYER
  5
F
330
2
100
AcDbSymbolTableRecord
100
AcDbLayerTableRecord
  2
0
 70
     0
 62
     7
  6
CONTINUOUS
  0
LAYER
  5
23
330
2
100
AcDbSymbolTableRecord
100
AcDbLayerTableRecord
  2
VIEWPORT
 70
     0
 62
     7
  6
CONTINUOUS
  0
LAYER
  5
2D
330
2
100
AcDbSymbolTableRecord
100
AcDbLayerTableRecord
  2
ZUWAKU
 70
     0
 62
     7
  6
CONTINUOUS
  0
LAYER
  5
A6
330
2
100
AcDbSymbolTableRecord
100
AcDbLayerTableRecord
  2
DEFPOINTS
 70
     0
 62
     7
  6
CONTINUOUS
  0
LAYER
  5
1E9
330
2
100
AcDbSymbolTableRecord
100
AcDbLayerTableRecord
  2
SEIHIN
 70
     0
 62
     3
  6
CONTINUOUS
  0
LAYER
  5
1EA
330
2
100
AcDbSymbolTableRecord
100
AcDbLayerTableRecord
  2
SUNPOU
 70
     0
 62
     4
  6
CONTINUOUS
  0
LAYER
  5
1EB
330
2
100
AcDbSymbolTableRecord
100
AcDbLayerTableRecord
  2
CENTER_L
 70
     0
 62
     1
  6
CENTER
  0
LAYER
  5
1EC
330
2
100
AcDbSymbolTableRecord
100
AcDbLayerTableRecord
  2
NIKITOI
 70
     0
 62
     8
  6
PHANTOM
  0
ENDTAB
  0
TABLE
  2
STYLE
  5
3
330
0
100
AcDbSymbolTable
 70
     1
  0
STYLE
  5
10
330
3
100
AcDbSymbolTableRecord
100
AcDbTextStyleTableRecord
  2
STANDARD
 70
     0
 40
0.0
 41
1.0
 50
0.0
 71
     0
 42
19.8
  3
txt
  4
bigfont.shx
  0
ENDTAB
  0
TABLE
  2
VIEW
  5
6
330
0
100
AcDbSymbolTable
 70
     0
  0
ENDTAB
  0
TABLE
  2
UCS
  5
7
330
0
100
AcDbSymbolTable
 70
     0
  0
ENDTAB
  0
TABLE
  2
APPID
  5
9
330
0
100
AcDbSymbolTable
 70
     1
  0
APPID
  5
11
330
9
100
AcDbSymbolTableRecord
100
AcDbRegAppTableRecord
  2
ACAD
 70
     0
  0
ENDTAB
  0
TABLE
  2
DIMSTYLE
  5
A
330
0
100
AcDbSymbolTable
 70
     1
  0
DIMSTYLE
105
1D
102
{ACAD_REACTORS
330
451
330
452
330
453
330
454
330
455
330
4BF
330
62B
330
630
330
631
330
65C
330
683
102
}
330
A
100
AcDbSymbolTableRecord
100
AcDbDimStyleTableRecord
  2
STANDARD
 70
     0
  3

  4

  5

  6

  7

 40
1.0
 41
0.18
 42
0.0625
 43
0.38
 44
0.18
 45
0.0
 46
0.0
 47
0.0
 48
0.0
140
0.18
141
0.09
142
0.0
143
25.4
144
1.0
145
0.0
146
1.0
147
0.09
 71
     0
 72
     0
 73
     1
 74
     1
 75
     0
 76
     0
 77
     0
 78
     0
170
     0
171
     2
172
     0
173
     0
174
     0
175
     0
176
     0
177
     0
178
     0
270
     2
271
     4
272
     4
273
     2
274
     2
340
10
275
     0
280
     0
281
     0
282
     0
283
     1
284
     0
285
     0
286
     0
287
     3
288
     0
  0
ENDTAB
  0
TABLE
  2
BLOCK_RECORD
  5
1
330
0
100
AcDbSymbolTable
 70
    12
  0
BLOCK_RECORD
  5
19
102
{ACAD_XDICTIONARY
360
7D5
102
}
330
1
100
AcDbSymbolTableRecord
100
AcDbBlockTableRecord
  2
*MODEL_SPACE
  0
BLOCK_RECORD
  5
16
102
{ACAD_XDICTIONARY
360
7D3
102
}
330
1
100
AcDbSymbolTableRecord
100
AcDbBlockTableRecord
  2
*PAPER_SPACE
  0
BLOCK_RECORD
  5
27
330
1
100
AcDbSymbolTableRecord
100
AcDbBlockTableRecord
  2
_OPEN
  0
BLOCK_RECORD
  5
69F
330
1
100
AcDbSymbolTableRecord
100
AcDbBlockTableRecord
  2
*D1
  0
BLOCK_RECORD
  5
6AB
330
1
100
AcDbSymbolTableRecord
100
AcDbBlockTableRecord
  2
*D2
  0
BLOCK_RECORD
  5
6B6
330
1
100
AcDbSymbolTableRecord
100
AcDbBlockTableRecord
  2
*D3
  0
BLOCK_RECORD
  5
6C2
330
1
100
AcDbSymbolTableRecord
100
AcDbBlockTableRecord
  2
*D4
  0
BLOCK_RECORD
  5
6CE
330
1
100
AcDbSymbolTableRecord
100
AcDbBlockTableRecord
  2
*D5
  0
BLOCK_RECORD
  5
6DA
330
1
100
AcDbSymbolTableRecord
100
AcDbBlockTableRecord
  2
*D6
  0
BLOCK_RECORD
  5
6E6
330
1
100
AcDbSymbolTableRecord
100
AcDbBlockTableRecord
  2
*D7
  0
BLOCK_RECORD
  5
6F3
330
1
100
AcDbSymbolTableRecord
100
AcDbBlockTableRecord
  2
*D8
  0
BLOCK_RECORD
  5
701
330
1
100
AcDbSymbolTableRecord
100
AcDbBlockTableRecord
  2
*D9
  0
BLOCK_RECORD
  5
70D
330
1
100
AcDbSymbolTableRecord
100
AcDbBlockTableRecord
  2
*D10
  0
BLOCK_RECORD
  5
71A
330
1
100
AcDbSymbolTableRecord
100
AcDbBlockTableRecord
  2
*D11
  0
ENDTAB
  0
ENDSEC
  0
SECTION
  2
BLOCKS
  0
BLOCK
  5
1A
330
19
100
AcDbEntity
  8
0
100
AcDbBlockBegin
  2
*MODEL_SPACE
 70
     0
 10
0.0
 20
0.0
 30
0.0
  3
*MODEL_SPACE
  1

  0
ENDBLK
  5
1B
330
19
100
AcDbEntity
  8
0
100
AcDbBlockEnd
  0
BLOCK
  5
17
330
16
100
AcDbEntity
 67
     1
  8
0
100
AcDbBlockBegin
  2
*PAPER_SPACE
 70
     0
 10
0.0
 20
0.0
 30
0.0
  3
*PAPER_SPACE
  1

  0
ENDBLK
  5
18
330
16
100
AcDbEntity
 67
     1
  8
0
100
AcDbBlockEnd
  0
BLOCK
  5
28
330
27
100
AcDbEntity
  8
0
100
AcDbBlockBegin
  2
_OPEN
 70
     0
 10
0.0
 20
0.0
 30
0.0
  3
_OPEN
  1

  0
LINE
  5
29
330
27
100
AcDbEntity
  8
0
  6
BYBLOCK
 62
     0
100
AcDbLine
 10
-1.0
 20
0.1666666666666666
 30
0.0
 11
0.0
 21
0.0
 31
0.0
  0
LINE
  5
2A
330
27
100
AcDbEntity
  8
0
  6
BYBLOCK
 62
     0
100
AcDbLine
 10
0.0
 20
0.0
 30
0.0
 11
-1.0
 21
-0.1666666666666666
 31
0.0
  0
LINE
  5
2B
330
27
100
AcDbEntity
  8
0
  6
BYBLOCK
 62
     0
100
AcDbLine
 10
0.0
 20
0.0
 30
0.0
 11
-1.0
 21
0.0
 31
0.0
  0
ENDBLK
  5
2C
330
27
100
AcDbEntity
  8
0
100
AcDbBlockEnd
  0
BLOCK
  5
726
330
69F
100
AcDbEntity
  8
0
100
AcDbBlockBegin
  2
*D1
 70
     1
 10
0.0
 20
0.0
 30
0.0
  3
*D1
  1

  0
LINE
  5
727
330
69F
100
AcDbEntity
  8
0
  6
BYBLOCK
 62
     4
100
AcDbLine
 10
1245.034848279409
 20
368.8283969025072
 30
0.0
 11
678.0193915938905
 21
368.8283969025072
 31
0.0
  0
LINE
  5
728
330
69F
100
AcDbEntity
  8
0
  6
BYBLOCK
 62
     4
100
AcDbLine
 10
743.8891223106097
 20
827.3182789310071
 30
0.0
 11
678.0193915938905
 21
827.3182789310071
 31
0.0
  0
LINE
  5
729
330
69F
100
AcDbEntity
  8
0
  6
BYBLOCK
 62
     4
100
AcDbLine
 10
686.0193915938905
 20
380.8283969025072
 30
0.0
 11
686.0193915938905
 21
815.3182789310072
 31
0.0
  0
INSERT
  5
72A
330
69F
100
AcDbEntity
  8
0
  6
BYBLOCK
 62
     4
100
AcDbBlockReference
  2
_OPEN
 10
686.0193915938905
 20
368.8283969025072
 30
0.0
 41
12.0
 42
12.0
 43
12.0
 50
270.0
  0
INSERT
  5
72B
330
69F
100
AcDbEntity
  8
0
  6
BYBLOCK
 62
     4
100
AcDbBlockReference
  2
_OPEN
 10
686.0193915938905
 20
827.3182789310071
 30
0.0
 41
12.0
 42
12.0
 43
12.0
 50
90.0
  0
MTEXT
  5
72C
330
69F
100
AcDbEntity
  8
0
  6
BYBLOCK
 62
     4
100
AcDbMText
 10
676.0193915938905
 20
598.0733379167572
 30
0.0
 40
12.0
 41
0.0
 71
     5
 72
     1
  1
\A1;458
 11
0.0
 21
1.0
 31
0.0
1001
ACAD
1000
MTEXTBEGIN
1070
    73
1070
     1
1070
    44
1040
1.0
1070
    74
1070
     0
1000
MTEXTEND
1000
MTEXTBEGIN
1070
    73
1070
     1
1070
    44
1040
1.0
1070
    74
1070
     0
1000
MTEXTEND
  0
POINT
  5
72D
330
69F
100
AcDbEntity
  8
DEFPOINTS
  6
BYBLOCK
 62
     0
100
AcDbPoint
 10
1265.034848279409
 20
368.8283969025072
 30
0.0
  0
POINT
  5
72E
330
69F
100
AcDbEntity
  8
DEFPOINTS
  6
BYBLOCK
 62
     0
100
AcDbPoint
 10
763.8891223106098
 20
827.3182789310071
 30
0.0
  0
POINT
  5
72F
330
69F
100
AcDbEntity
  8
DEFPOINTS
  6
BYBLOCK
 62
     0
100
AcDbPoint
 10
686.0193915938905
 20
827.3182789310071
 30
0.0
  0
ENDBLK
  5
730
330
69F
100
AcDbEntity
  8
0
100
AcDbBlockEnd
  0
BLOCK
  5
731
330
6AB
100
AcDbEntity
  8
0
100
AcDbBlockBegin
  2
*D2
 70
     1
 10
0.0
 20
0.0
 30
0.0
  3
*D2
  1

  0
LINE
  5
7F8
330
6AB
100
AcDbEntity
  8
SUNPOU
  6
CONTINUOUS
 62
     4
100
AcDbLine
 10
1231.586571869897
 20
330.7564798597267
 30
0.0
 11
701.1176888970746
 21
330.7564798597268
 31
0.0
  0
LINE
  5
7F9
330
6AB
100
AcDbEntity
  8
SUNPOU
  6
CONTINUOUS
 62
     4
100
AcDbLine
 10
709.1176888970746
 20
646.345606888326
 30
0.0
 11
709.1176888970746
 21
342.7564798597269
 31
0.0
  0
INSERT
  5
7FA
330
6AB
100
AcDbEntity
  8
SUNPOU
  6
CONTINUOUS
 62
     4
100
AcDbBlockReference
  2
_OPEN
 10
709.1176888970746
 20
658.345606888326
 30
0.0
 41
12.0
 42
12.0
 43
12.0
 50
90.0
  0
INSERT
  5
7FB
330
6AB
100
AcDbEntity
  8
SUNPOU
  6
CONTINUOUS
 62
     4
100
AcDbBlockReference
  2
_OPEN
 10
709.1176888970746
 20
330.7564798597268
 30
0.0
 41
12.0
 42
12.0
 43
12.0
 50
270.0
  0
MTEXT
  5
7FC
330
6AB
100
AcDbEntity
  8
SUNPOU
  6
CONTINUOUS
 62
     4
100
AcDbMText
 10
699.1176888970746
 20
494.5510433740265
 30
0.0
 40
12.0
 41
0.0
 71
     5
 72
     1
  1
\A1;328
 11
0.0000000000000001
 21
1.0
 31
0.0
  0
POINT
  5
7FD
330
6AB
100
AcDbEntity
  8
DEFPOINTS
  6
CONTINUOUS
 62
     0
100
AcDbPoint
 10
884.4405459010967
 20
658.3456068883259
 30
0.0
  0
POINT
  5
7FE
330
6AB
100
AcDbEntity
  8
DEFPOINTS
  6
CONTINUOUS
 62
     0
100
AcDbPoint
 10
1251.586571869897
 20
330.7564798597267
 30
0.0
  0
POINT
  5
7FF
330
6AB
100
AcDbEntity
  8
DEFPOINTS
  6
CONTINUOUS
 62
     0
100
AcDbPoint
 10
709.1176888970746
 20
330.7564798597268
 30
0.0
  0
ENDBLK
  5
73A
330
6AB
100
AcDbEntity
  8
0
100
AcDbBlockEnd
  0
BLOCK
  5
73B
330
6B6
100
AcDbEntity
  8
0
100
AcDbBlockBegin
  2
*D3
 70
     1
 10
0.0
 20
0.0
 30
0.0
  3
*D3
  1

  0
LINE
  5
73C
330
6B6
100
AcDbEntity
  8
0
  6
BYBLOCK
 62
     4
100
AcDbLine
 10
743.8891223106097
 20
827.3182789310071
 30
0.0
 11
714.5659653065875
 21
827.3182789310071
 31
0.0
  0
LINE
  5
73D
330
6B6
100
AcDbEntity
  8
0
  6
BYBLOCK
 62
     4
100
AcDbLine
 10
877.8888223106095
 20
696.4175239311065
 30
0.0
 11
714.5659653065875
 21
696.4175239311065
 31
0.0
  0
LINE
  5
73E
330
6B6
100
AcDbEntity
  8
0
  6
BYBLOCK
 62
     4
100
AcDbLine
 10
722.5659653065875
 20
815.3182789310072
 30
0.0
 11
722.5659653065875
 21
708.4175239311065
 31
0.0
  0
INSERT
  5
73F
330
6B6
100
AcDbEntity
  8
0
  6
BYBLOCK
 62
     4
100
AcDbBlockReference
  2
_OPEN
 10
722.5659653065875
 20
827.3182789310071
 30
0.0
 41
12.0
 42
12.0
 43
12.0
 50
90.0
  0
INSERT
  5
740
330
6B6
100
AcDbEntity
  8
0
  6
BYBLOCK
 62
     4
100
AcDbBlockReference
  2
_OPEN
 10
722.5659653065875
 20
696.4175239311065
 30
0.0
 41
12.0
 42
12.0
 43
12.0
 50
270.0
  0
MTEXT
  5
741
330
6B6
100
AcDbEntity
  8
0
  6
BYBLOCK
 62
     4
100
AcDbMText
 10
712.5659653065874
 20
761.8679014310568
 30
0.0
 40
12.0
 41
0.0
 71
     5
 72
     1
  1
\A1;131
 11
0.0
 21
1.0
 31
0.0
1001
ACAD
1000
MTEXTBEGIN
1070
    73
1070
     1
1070
    44
1040
1.0
1070
    74
1070
     0
1000
MTEXTEND
1000
MTEXTBEGIN
1070
    73
1070
     1
1070
    44
1040
1.0
1070
    74
1070
     0
1000
MTEXTEND
  0
POINT
  5
742
330
6B6
100
AcDbEntity
  8
DEFPOINTS
  6
BYBLOCK
 62
     0
100
AcDbPoint
 10
763.8891223106098
 20
827.3182789310071
 30
0.0
  0
POINT
  5
743
330
6B6
100
AcDbEntity
  8
DEFPOINTS
  6
BYBLOCK
 62
     0
100
AcDbPoint
 10
897.8888223106096
 20
696.4175239311065
 30
0.0
  0
POINT
  5
744
330
6B6
100
AcDbEntity
  8
DEFPOINTS
  6
BYBLOCK
 62
     0
100
AcDbPoint
 10
722.5659653065875
 20
696.4175239311065
 30
0.0
  0
ENDBLK
  5
745
330
6B6
100
AcDbEntity
  8
0
100
AcDbBlockEnd
  0
BLOCK
  5
746
330
6C2
100
AcDbEntity
  8
0
100
AcDbBlockBegin
  2
*D4
 70
     1
 10
0.0
 20
0.0
 30
0.0
  3
*D4
  1

  0
LINE
  5
747
330
6C2
100
AcDbEntity
  8
0
  6
BYBLOCK
 62
     4
100
AcDbLine
 10
763.8891223106098
 20
847.3182789310071
 30
0.0
 11
763.8891223106098
 21
915.7752761532071
 31
0.0
  0
LINE
  5
748
330
6C2
100
AcDbEntity
  8
0
  6
BYBLOCK
 62
     4
100
AcDbLine
 10
961.8890223106097
 20
777.7181789310072
 30
0.0
 11
961.8890223106097
 21
915.7752761532071
 31
0.0
  0
LINE
  5
749
330
6C2
100
AcDbEntity
  8
0
  6
BYBLOCK
 62
     4
100
AcDbLine
 10
775.8891223106098
 20
907.7752761532071
 30
0.0
 11
949.8890223106098
 21
907.7752761532071
 31
0.0
  0
INSERT
  5
74A
330
6C2
100
AcDbEntity
  8
0
  6
BYBLOCK
 62
     4
100
AcDbBlockReference
  2
_OPEN
 10
763.8891223106098
 20
907.7752761532071
 30
0.0
 41
12.0
 42
12.0
 43
12.0
 50
180.0
  0
INSERT
  5
74B
330
6C2
100
AcDbEntity
  8
0
  6
BYBLOCK
 62
     4
100
AcDbBlockReference
  2
_OPEN
 10
961.8890223106097
 20
907.7752761532071
 30
0.0
 41
12.0
 42
12.0
 43
12.0
  0
MTEXT
  5
74C
330
6C2
100
AcDbEntity
  8
0
  6
BYBLOCK
 62
     4
100
AcDbMText
 10
862.8890723106097
 20
917.7752761532072
 30
0.0
 40
12.0
 41
0.0
 71
     5
 72
     1
  1
\A1;198
1001
ACAD
1000
MTEXTBEGIN
1070
    73
1070
     1
1070
    44
1040
1.0
1070
    74
1070
     0
1000
MTEXTEND
1000
MTEXTBEGIN
1070
    73
1070
     1
1070
    44
1040
1.0
1070
    74
1070
     0
1000
MTEXTEND
  0
POINT
  5
74D
330
6C2
100
AcDbEntity
  8
DEFPOINTS
  6
BYBLOCK
 62
     0
100
AcDbPoint
 10
763.8891223106098
 20
827.3182789310071
 30
0.0
  0
POINT
  5
74E
330
6C2
100
AcDbEntity
  8
DEFPOINTS
  6
BYBLOCK
 62
     0
100
AcDbPoint
 10
961.8890223106097
 20
757.7181789310071
 30
0.0
  0
POINT
  5
74F
330
6C2
100
AcDbEntity
  8
DEFPOINTS
  6
BYBLOCK
 62
     0
100
AcDbPoint
 10
961.8890223106097
 20
907.7752761532071
 30
0.0
  0
ENDBLK
  5
750
330
6C2
100
AcDbEntity
  8
0
100
AcDbBlockEnd
  0
BLOCK
  5
751
330
6CE
100
AcDbEntity
  8
0
100
AcDbBlockBegin
  2
*D5
 70
     1
 10
0.0
 20
0.0
 30
0.0
  3
*D5
  1

  0
LINE
  5
752
330
6CE
100
AcDbEntity
  8
0
  6
BYBLOCK
 62
     4
100
AcDbLine
 10
763.8891223106098
 20
847.3182789310071
 30
0.0
 11
763.8891223106098
 21
887.0679844866071
 31
0.0
  0
LINE
  5
753
330
6CE
100
AcDbEntity
  8
0
  6
BYBLOCK
 62
     4
100
AcDbLine
 10
897.8888223106096
 20
748.307220597707
 30
0.0
 11
897.8888223106096
 21
887.0679844866071
 31
0.0
  0
LINE
  5
754
330
6CE
100
AcDbEntity
  8
0
  6
BYBLOCK
 62
     4
100
AcDbLine
 10
775.8891223106098
 20
879.0679844866071
 30
0.0
 11
885.8888223106095
 21
879.0679844866071
 31
0.0
  0
INSERT
  5
755
330
6CE
100
AcDbEntity
  8
0
  6
BYBLOCK
 62
     4
100
AcDbBlockReference
  2
_OPEN
 10
763.8891223106098
 20
879.0679844866071
 30
0.0
 41
12.0
 42
12.0
 43
12.0
 50
180.0
  0
INSERT
  5
756
330
6CE
100
AcDbEntity
  8
0
  6
BYBLOCK
 62
     4
100
AcDbBlockReference
  2
_OPEN
 10
897.8888223106096
 20
879.0679844866071
 30
0.0
 41
12.0
 42
12.0
 43
12.0
  0
MTEXT
  5
757
330
6CE
100
AcDbEntity
  8
0
  6
BYBLOCK
 62
     4
100
AcDbMText
 10
830.8889723106096
 20
889.067984486607
 30
0.0
 40
12.0
 41
0.0
 71
     5
 72
     1
  1
\A1;134
1001
ACAD
1000
MTEXTBEGIN
1070
    73
1070
     1
1070
    44
1040
1.0
1070
    74
1070
     0
1000
MTEXTEND
1000
MTEXTBEGIN
1070
    73
1070
     1
1070
    44
1040
1.0
1070
    74
1070
     0
1000
MTEXTEND
  0
POINT
  5
758
330
6CE
100
AcDbEntity
  8
DEFPOINTS
  6
BYBLOCK
 62
     0
100
AcDbPoint
 10
763.8891223106098
 20
827.3182789310071
 30
0.0
  0
POINT
  5
759
330
6CE
100
AcDbEntity
  8
DEFPOINTS
  6
BYBLOCK
 62
     0
100
AcDbPoint
 10
897.8888223106096
 20
728.307220597707
 30
0.0
  0
POINT
  5
75A
330
6CE
100
AcDbEntity
  8
DEFPOINTS
  6
BYBLOCK
 62
     0
100
AcDbPoint
 10
897.8888223106096
 20
879.0679844866071
 30
0.0
  0
ENDBLK
  5
75B
330
6CE
100
AcDbEntity
  8
0
100
AcDbBlockEnd
  0
BLOCK
  5
75C
330
6DA
100
AcDbEntity
  8
0
100
AcDbBlockBegin
  2
*D6
 70
     1
 10
0.0
 20
0.0
 30
0.0
  3
*D6
  1

  0
LINE
  5
75D
330
6DA
100
AcDbEntity
  8
0
  6
BYBLOCK
 62
     4
100
AcDbLine
 10
563.9225223106097
 20
847.3181789310071
 30
0.0
 11
563.9225223106097
 21
886.7219463390444
 31
0.0
  0
LINE
  5
75E
330
6DA
100
AcDbEntity
  8
0
  6
BYBLOCK
 62
     4
100
AcDbLine
 10
303.8890223106097
 20
847.3181789310071
 30
0.0
 11
303.8890223106097
 21
886.7219463390444
 31
0.0
  0
LINE
  5
75F
330
6DA
100
AcDbEntity
  8
0
  6
BYBLOCK
 62
     4
100
AcDbLine
 10
551.9225223106097
 20
878.7219463390444
 30
0.0
 11
315.8890223106096
 21
878.7219463390444
 31
0.0
  0
INSERT
  5
760
330
6DA
100
AcDbEntity
  8
0
  6
BYBLOCK
 62
     4
100
AcDbBlockReference
  2
_OPEN
 10
563.9225223106097
 20
878.7219463390444
 30
0.0
 41
12.0
 42
12.0
 43
12.0
  0
INSERT
  5
761
330
6DA
100
AcDbEntity
  8
0
  6
BYBLOCK
 62
     4
100
AcDbBlockReference
  2
_OPEN
 10
303.8890223106097
 20
878.7219463390444
 30
0.0
 41
12.0
 42
12.0
 43
12.0
 50
180.0
  0
MTEXT
  5
762
330
6DA
100
AcDbEntity
  8
0
  6
BYBLOCK
 62
     4
100
AcDbMText
 10
433.9057723106097
 20
888.7219463390445
 30
0.0
 40
12.0
 41
0.0
 71
     5
 72
     1
  1
\A1;260
1001
ACAD
1000
MTEXTBEGIN
1070
    73
1070
     1
1070
    44
1040
1.0
1070
    74
1070
     0
1000
MTEXTEND
1000
MTEXTBEGIN
1070
    73
1070
     1
1070
    44
1040
1.0
1070
    74
1070
     0
1000
MTEXTEND
  0
POINT
  5
763
330
6DA
100
AcDbEntity
  8
DEFPOINTS
  6
BYBLOCK
 62
     0
100
AcDbPoint
 10
563.9225223106097
 20
827.318178931007
 30
0.0
  0
POINT
  5
764
330
6DA
100
AcDbEntity
  8
DEFPOINTS
  6
BYBLOCK
 62
     0
100
AcDbPoint
 10
303.8890223106097
 20
827.318178931007
 30
0.0
  0
POINT
  5
765
330
6DA
100
AcDbEntity
  8
DEFPOINTS
  6
BYBLOCK
 62
     0
100
AcDbPoint
 10
303.8890223106097
 20
878.7219463390444
 30
0.0
  0
ENDBLK
  5
766
330
6DA
100
AcDbEntity
  8
0
100
AcDbBlockEnd
  0
BLOCK
  5
767
330
6E6
100
AcDbEntity
  8
0
100
AcDbBlockBegin
  2
*D7
 70
     1
 10
0.0
 20
0.0
 30
0.0
  3
*D7
  1

  0
LINE
  5
800
330
6E6
100
AcDbEntity
  8
SUNPOU
  6
CONTINUOUS
 62
     4
100
AcDbLine
 10
884.4405459010967
 20
453.0891612955446
 30
0.0
 11
884.4405459010967
 21
397.9859770648833
 31
0.0
  0
ARC
  5
801
330
6E6
100
AcDbEntity
  8
SUNPOU
  6
CONTINUOUS
 62
     4
100
AcDbCircle
 10
884.4405459010967
 20
505.5838473410553
 30
0.0
 40
99.59787027617217
100
AcDbArc
 50
276.907435876071
 51
343.0924696862711
  0
INSERT
  5
802
330
6E6
100
AcDbEntity
  8
SUNPOU
  6
CONTINUOUS
 62
     4
100
AcDbBlockReference
  2
_OPEN
 10
884.4405459010967
 20
405.9859770648832
 30
0.0
 41
12.0
 42
12.0
 43
12.0
 50
183.4537179380355
  0
INSERT
  5
803
330
6E6
100
AcDbEntity
  8
SUNPOU
  6
CONTINUOUS
 62
     4
100
AcDbBlockReference
  2
_OPEN
 10
982.5252722260104
 20
488.2886970001067
 30
0.0
 41
12.0
 42
12.0
 43
12.0
 50
76.5461876243066
  0
MTEXT
  5
804
330
6E6
100
AcDbEntity
  8
SUNPOU
  6
CONTINUOUS
 62
     4
100
AcDbMText
 10
914.6509851464868
 20
421.2327494310317
 30
0.0
 40
12.0
 41
0.0
 71
     5
 72
     1
  1
\A1;80°
 11
0.9414408807935256
 21
0.3371780953305108
 31
0.0
  0
POINT
  5
805
330
6E6
100
AcDbEntity
  8
DEFPOINTS
  6
CONTINUOUS
 62
     0
100
AcDbPoint
 10
964.3302422447431
 20
446.1080356049454
 30
0.0
  0
POINT
  5
806
330
6E6
100
AcDbEntity
  8
DEFPOINTS
  6
CONTINUOUS
 62
     0
100
AcDbPoint
 10
1026.301571869897
 20
480.5696798597272
 30
0.0
  0
POINT
  5
807
330
6E6
100
AcDbEntity
  8
DEFPOINTS
  6
CONTINUOUS
 62
     0
100
AcDbPoint
 10
884.4405459010967
 20
473.0891612955447
 30
0.0
  0
POINT
  5
808
330
6E6
100
AcDbEntity
  8
DEFPOINTS
  6
CONTINUOUS
 62
     0
100
AcDbPoint
 10
884.4405459010969
 20
690.2353035549266
 30
0.0
  0
POINT
  5
809
330
6E6
100
AcDbEntity
  8
DEFPOINTS
  6
CONTINUOUS
 62
     0
100
AcDbPoint
 10
868.7015718698969
 20
508.3590798597268
 30
0.0
  0
ENDBLK
  5
772
330
6E6
100
AcDbEntity
  8
0
100
AcDbBlockEnd
  0
BLOCK
  5
773
330
6F3
100
AcDbEntity
  8
0
100
AcDbBlockBegin
  2
*D8
 70
     1
 10
0.0
 20
0.0
 30
0.0
  3
*D8
  1

  0
LINE
  5
774
330
6F3
100
AcDbEntity
  8
0
  6
BYBLOCK
 62
     4
100
AcDbLine
 10
1336.934918701945
 20
403.8281969023419
 30
0.0
 11
1394.83244941467
 21
403.8281969023419
 31
0.0
  0
LINE
  5
775
330
6F3
100
AcDbEntity
  8
0
  6
BYBLOCK
 62
     4
100
AcDbLine
 10
1336.934848279409
 20
388.8281969025072
 30
0.0
 11
1394.83244941467
 21
388.8281969025072
 31
0.0
  0
LINE
  5
776
330
6F3
100
AcDbEntity
  8
0
  6
BYBLOCK
 62
     4
100
AcDbLine
 10
1388.832449414671
 20
417.8281969023418
 30
0.0
 11
1388.832449414671
 21
431.8281969023419
 31
0.0
  0
LINE
  5
777
330
6F3
100
AcDbEntity
  8
0
  6
BYBLOCK
 62
     4
100
AcDbLine
 10
1388.832449414671
 20
374.8281969025072
 30
0.0
 11
1388.832449414671
 21
315.2281969025072
 31
0.0
  0
LINE
  5
778
330
6F3
100
AcDbEntity
  8
0
  6
BYBLOCK
 62
     4
100
AcDbLine
 10
1388.832449414671
 20
403.8281969023419
 30
0.0
 11
1388.832449414671
 21
388.8281969025072
 31
0.0
  0
INSERT
  5
779
330
6F3
100
AcDbEntity
  8
0
  6
BYBLOCK
 62
     4
100
AcDbBlockReference
  2
_OPEN
 10
1388.832449414671
 20
403.8281969023419
 30
0.0
 41
14.0
 42
14.0
 43
14.0
 50
270.0
  0
INSERT
  5
77A
330
6F3
100
AcDbEntity
  8
0
  6
BYBLOCK
 62
     4
100
AcDbBlockReference
  2
_OPEN
 10
1388.832449414671
 20
388.8281969025072
 30
0.0
 41
14.0
 42
14.0
 43
14.0
 50
90.0
  0
MTEXT
  5
77B
330
6F3
100
AcDbEntity
  8
0
  6
BYBLOCK
 62
     4
100
AcDbMText
 10
1378.83244941467
 20
338.0281969025072
 30
0.0
 40
12.0
 41
0.0
 71
     5
 72
     1
  1
\A1;※ 15
 11
0.0
 21
1.0
 31
0.0
1001
ACAD
1000
MTEXTBEGIN
1070
    73
1070
     1
1070
    44
1040
1.0
1070
    74
1070
     0
1000
MTEXTEND
1000
MTEXTBEGIN
1070
    73
1070
     1
1070
    44
1040
1.0
1070
    74
1070
     0
1000
MTEXTEND
  0
POINT
  5
77C
330
6F3
100
AcDbEntity
  8
DEFPOINTS
  6
BYBLOCK
 62
     0
100
AcDbPoint
 10
1324.934918701944
 20
403.8281969023419
 30
0.0
  0
POINT
  5
77D
330
6F3
100
AcDbEntity
  8
DEFPOINTS
  6
BYBLOCK
 62
     0
100
AcDbPoint
 10
1324.93484827941
 20
388.8281969025072
 30
0.0
  0
POINT
  5
77E
330
6F3
100
AcDbEntity
  8
DEFPOINTS
  6
BYBLOCK
 62
     0
100
AcDbPoint
 10
1388.832449414671
 20
388.8281969025072
 30
0.0
  0
ENDBLK
  5
77F
330
6F3
100
AcDbEntity
  8
0
100
AcDbBlockEnd
  0
BLOCK
  5
780
330
701
100
AcDbEntity
  8
0
100
AcDbBlockBegin
  2
*D9
 70
     1
 10
0.0
 20
0.0
 30
0.0
  3
*D9
  1

  0
LINE
  5
781
330
701
100
AcDbEntity
  8
0
  6
BYBLOCK
 62
     4
100
AcDbLine
 10
1292.984848279409
 20
338.9580969025072
 30
0.0
 11
1292.984848279409
 21
256.1655619518849
 31
0.0
  0
LINE
  5
782
330
701
100
AcDbEntity
  8
0
  6
BYBLOCK
 62
     4
100
AcDbLine
 10
897.8888223106096
 20
491.1610783383252
 30
0.0
 11
897.8888223106096
 21
256.1655619518849
 31
0.0
  0
LINE
  5
783
330
701
100
AcDbEntity
  8
0
  6
BYBLOCK
 62
     4
100
AcDbLine
 10
1280.98484827941
 20
264.1655619518849
 30
0.0
 11
909.8888223106095
 21
264.1655619518849
 31
0.0
  0
INSERT
  5
784
330
701
100
AcDbEntity
  8
0
  6
BYBLOCK
 62
     4
100
AcDbBlockReference
  2
_OPEN
 10
1292.984848279409
 20
264.1655619518849
 30
0.0
 41
12.0
 42
12.0
 43
12.0
  0
INSERT
  5
785
330
701
100
AcDbEntity
  8
0
  6
BYBLOCK
 62
     4
100
AcDbBlockReference
  2
_OPEN
 10
897.8888223106096
 20
264.1655619518849
 30
0.0
 41
12.0
 42
12.0
 43
12.0
 50
180.0
  0
MTEXT
  5
786
330
701
100
AcDbEntity
  8
0
  6
BYBLOCK
 62
     4
100
AcDbMText
 10
1095.436835295009
 20
274.1655619518849
 30
0.0
 40
12.0
 41
0.0
 71
     5
 72
     1
  1
\A1;395
1001
ACAD
1000
MTEXTBEGIN
1070
    73
1070
     1
1070
    44
1040
1.0
1070
    74
1070
     0
1000
MTEXTEND
1000
MTEXTBEGIN
1070
    73
1070
     1
1070
    44
1040
1.0
1070
    74
1070
     0
1000
MTEXTEND
  0
POINT
  5
787
330
701
100
AcDbEntity
  8
DEFPOINTS
  6
BYBLOCK
 62
     0
100
AcDbPoint
 10
1292.984848279409
 20
358.9580969025072
 30
0.0
  0
POINT
  5
788
330
701
100
AcDbEntity
  8
DEFPOINTS
  6
BYBLOCK
 62
     0
100
AcDbPoint
 10
897.8888223106096
 20
511.1610783383253
 30
0.0
  0
POINT
  5
789
330
701
100
AcDbEntity
  8
DEFPOINTS
  6
BYBLOCK
 62
     0
100
AcDbPoint
 10
897.8888223106096
 20
264.1655619518849
 30
0.0
  0
ENDBLK
  5
78A
330
701
100
AcDbEntity
  8
0
100
AcDbBlockEnd
  0
BLOCK
  5
78B
330
70D
100
AcDbEntity
  8
0
100
AcDbBlockBegin
  2
*D10
 70
     1
 10
0.0
 20
0.0
 30
0.0
  3
*D10
  1

  0
LINE
  5
78C
330
70D
100
AcDbEntity
  8
0
  6
BYBLOCK
 62
     4
100
AcDbLine
 10
1264.534848279409
 20
360.8283969025072
 30
0.0
 11
1264.534848279409
 21
294.9072837541832
 31
0.0
  0
LINE
  5
78D
330
70D
100
AcDbEntity
  8
0
  6
BYBLOCK
 62
     4
100
AcDbLine
 10
1321.43484827941
 20
360.8283969025072
 30
0.0
 11
1321.43484827941
 21
294.9072837541832
 31
0.0
  0
LINE
  5
78E
330
70D
100
AcDbEntity
  8
0
  6
BYBLOCK
 62
     4
100
AcDbLine
 10
1307.43484827941
 20
300.9072837541832
 30
0.0
 11
1278.534848279409
 21
300.9072837541832
 31
0.0
  0
LINE
  5
78F
330
70D
100
AcDbEntity
  8
0
  6
BYBLOCK
 62
     4
100
AcDbLine
 10
1264.534848279409
 20
300.9072837541832
 30
0.0
 11
1204.203051913679
 21
300.9072837541832
 31
0.0
  0
INSERT
  5
790
330
70D
100
AcDbEntity
  8
0
  6
BYBLOCK
 62
     4
100
AcDbBlockReference
  2
_OPEN
 10
1321.43484827941
 20
300.9072837541832
 30
0.0
 41
14.0
 42
14.0
 43
14.0
  0
INSERT
  5
791
330
70D
100
AcDbEntity
  8
0
  6
BYBLOCK
 62
     4
100
AcDbBlockReference
  2
_OPEN
 10
1264.534848279409
 20
300.9072837541832
 30
0.0
 41
14.0
 42
14.0
 43
14.0
 50
180.0
  0
MTEXT
  5
792
330
70D
100
AcDbEntity
  8
0
  6
BYBLOCK
 62
     4
100
AcDbMText
 10
1225.403051913679
 20
310.9072837541832
 30
0.0
 40
12.0
 41
0.0
 71
     5
 72
     1
  1
\A1;φ57
1001
ACAD
1000
MTEXTBEGIN
1070
    73
1070
     1
1070
    44
1040
1.0
1070
    74
1070
     0
1000
MTEXTEND
1000
MTEXTBEGIN
1070
    73
1070
     1
1070
    44
1040
1.0
1070
    74
1070
     0
1000
MTEXTEND
  0
POINT
  5
793
330
70D
100
AcDbEntity
  8
DEFPOINTS
  6
BYBLOCK
 62
     0
100
AcDbPoint
 10
1264.534848279409
 20
372.8283969025072
 30
0.0
  0
POINT
  5
794
330
70D
100
AcDbEntity
  8
DEFPOINTS
  6
BYBLOCK
 62
     0
100
AcDbPoint
 10
1321.43484827941
 20
372.8283969025072
 30
0.0
  0
POINT
  5
795
330
70D
100
AcDbEntity
  8
DEFPOINTS
  6
BYBLOCK
 62
     0
100
AcDbPoint
 10
1321.43484827941
 20
300.9072837541832
 30
0.0
  0
ENDBLK
  5
796
330
70D
100
AcDbEntity
  8
0
100
AcDbBlockEnd
  0
BLOCK
  5
797
330
71A
100
AcDbEntity
  8
0
100
AcDbBlockBegin
  2
*D11
 70
     1
 10
0.0
 20
0.0
 30
0.0
  3
*D11
  1

  0
LINE
  5
798
330
71A
100
AcDbEntity
  8
0
  6
BYBLOCK
 62
     4
100
AcDbLine
 10
897.8888223106096
 20
748.307220597707
 30
0.0
 11
897.8888223106096
 21
887.0679844866071
 31
0.0
  0
LINE
  5
799
330
71A
100
AcDbEntity
  8
0
  6
BYBLOCK
 62
     4
100
AcDbLine
 10
961.8890223106097
 20
777.7181789310072
 30
0.0
 11
961.8890223106097
 21
887.0679844866071
 31
0.0
  0
LINE
  5
79A
330
71A
100
AcDbEntity
  8
0
  6
BYBLOCK
 62
     4
100
AcDbLine
 10
909.8888223106095
 20
879.0679844866071
 30
0.0
 11
949.8890223106098
 21
879.0679844866071
 31
0.0
  0
INSERT
  5
79B
330
71A
100
AcDbEntity
  8
0
  6
BYBLOCK
 62
     4
100
AcDbBlockReference
  2
_OPEN
 10
897.8888223106096
 20
879.0679844866071
 30
0.0
 41
12.0
 42
12.0
 43
12.0
 50
180.0
  0
INSERT
  5
79C
330
71A
100
AcDbEntity
  8
0
  6
BYBLOCK
 62
     4
100
AcDbBlockReference
  2
_OPEN
 10
961.8890223106097
 20
879.0679844866071
 30
0.0
 41
12.0
 42
12.0
 43
12.0
  0
MTEXT
  5
79D
330
71A
100
AcDbEntity
  8
0
  6
BYBLOCK
 62
     4
100
AcDbMText
 10
929.8889223106098
 20
889.067984486607
 30
0.0
 40
12.0
 41
0.0
 71
     5
 72
     1
  1
\A1;64
1001
ACAD
1000
MTEXTBEGIN
1070
    73
1070
     1
1070
    44
1040
1.0
1070
    74
1070
     0
1000
MTEXTEND
1000
MTEXTBEGIN
1070
    73
1070
     1
1070
    44
1040
1.0
1070
    74
1070
     0
1000
MTEXTEND
  0
POINT
  5
79E
330
71A
100
AcDbEntity
  8
DEFPOINTS
  6
BYBLOCK
 62
     0
100
AcDbPoint
 10
897.8888223106096
 20
728.307220597707
 30
0.0
  0
POINT
  5
79F
330
71A
100
AcDbEntity
  8
DEFPOINTS
  6
BYBLOCK
 62
     0
100
AcDbPoint
 10
961.8890223106097
 20
757.7181789310071
 30
0.0
  0
POINT
  5
7A0
330
71A
100
AcDbEntity
  8
DEFPOINTS
  6
BYBLOCK
 62
     0
100
AcDbPoint
 10
961.8890223106097
 20
879.0679844866071
 30
0.0
  0
ENDBLK
  5
7A1
330
71A
100
AcDbEntity
  8
0
100
AcDbBlockEnd
  0
ENDSEC
  0
SECTION
  2
ENTITIES
  0
LINE
  5
121
330
19
100
AcDbEntity
  8
ZUWAKU
 62
     7
 48
10.0
100
AcDbLine
 10
19.90074647074652
 20
48.1669006995453
 30
0.0
 11
1611.900746470746
 21
48.16690069954507
 31
0.0
  0
LINE
  5
122
330
19
100
AcDbEntity
  8
ZUWAKU
  6
CONTINUOUS
 62
     7
100
AcDbLine
 10
1611.900746470746
 20
1124.166900699545
 30
0.0
 11
19.90074647074652
 21
1124.166900699545
 31
0.0
  0
LINE
  5
123
330
19
100
AcDbEntity
  8
ZUWAKU
  6
CONTINUOUS
 62
     7
100
AcDbLine
 10
1611.900746470746
 20
24.16690069954529
 30
0.0
 11
19.90074647074652
 21
24.16690069954529
 31
0.0
  0
LINE
  5
124
330
19
100
AcDbEntity
  8
ZUWAKU
  6
CONTINUOUS
 62
     7
100
AcDbLine
 10
19.90074647074652
 20
1124.166900699545
 30
0.0
 11
19.90074647074652
 21
24.16690069954529
 31
0.0
  0
LINE
  5
125
330
19
100
AcDbEntity
  8
ZUWAKU
 62
     7
 48
10.0
100
AcDbLine
 10
88.91574076238157
 20
24.16690069954529
 30
0.0
 11
88.91574076238157
 21
48.1669006995453
 31
0.0
  0
TEXT
  5
126
330
19
100
AcDbEntity
  8
ZUWAKU
 62
     7
100
AcDbText
 10
31.91332132304342
 20
27.64761340998802
 30
0.0
 40
16.0
  1
品 種
100
AcDbText
  0
LINE
  5
127
330
19
100
AcDbEntity
  8
ZUWAKU
 62
     7
 48
10.0
100
AcDbLine
 10
552.0054677130756
 20
24.16690069954529
 30
0.0
 11
552.0054677130756
 21
48.16690069954521
 31
0.0
  0
LINE
  5
128
330
19
100
AcDbEntity
  8
ZUWAKU
 62
     7
 48
10.0
100
AcDbLine
 10
418.8274955845217
 20
24.16690069954529
 30
0.0
 11
418.8274955845218
 21
48.16690069954525
 31
0.0
  0
TEXT
  5
129
330
19
100
AcDbEntity
  8
ZUWAKU
 62
     7
100
AcDbText
 10
564.4260762822405
 20
27.88656214294769
 30
0.0
 40
16.0
  1
飾りあんこう　型　１０５－Ｙ６０・ＵＴ６０－８０°
100
AcDbText
  0
TEXT
  5
12A
330
19
100
AcDbEntity
  8
ZUWAKU
 62
     7
100
AcDbText
 10
430.711957737576
 20
28.96889043994906
 30
0.0
 40
16.0
  1
品名・ｻ ｲ ｽﾞ
100
AcDbText
  0
TEXT
  5
12B
330
19
100
AcDbEntity
  8
ZUWAKU
 62
     7
100
AcDbText
 10
100.503666760442
 20
28.80785192669509
 30
0.0
 40
16.0
  1
丸トップ　のきとい
100
AcDbText
  0
LINE
  5
12C
330
19
100
AcDbEntity
  8
ZUWAKU
 62
     7
 48
10.0
100
AcDbLine
 10
1537.246006285983
 20
24.16690069954474
 30
0.0
 11
1537.246006285983
 21
48.16690069954507
 31
0.0
  0
LINE
  5
12D
330
19
100
AcDbEntity
  8
ZUWAKU
 62
     7
 48
10.0
100
AcDbLine
 10
1467.423590774814
 20
24.16690069954483
 30
0.0
 11
1467.423590774814
 21
48.16690069954509
 31
0.0
  0
TEXT
  5
12E
330
19
100
AcDbEntity
  8
ZUWAKU
 62
     7
100
AcDbText
 10
1479.19091629413
 20
27.08628325011705
 30
0.0
 40
16.0
  1
尺 度
100
AcDbText
  0
TEXT
  5
12F
330
19
100
AcDbEntity
  8
ZUWAKU
 62
     7
100
AcDbText
 10
1559.27471636407
 20
27.71150653553059
 30
0.0
 40
16.0
  1
1/4
100
AcDbText
  0
TEXT
  5
130
330
19
100
AcDbEntity
  8
ZUWAKU
 62
     7
100
AcDbText
 10
1308.30613703518
 20
28.40748782453036
 30
0.0
 40
16.0
  1
ＧＱ９８
100
AcDbText
  0
TEXT
  5
131
330
19
100
AcDbEntity
  8
ZUWAKU
 62
     7
100
AcDbText
 10
1240.472447976041
 20
27.90554632275259
 30
0.0
 40
16.0
  1
品 番
100
AcDbText
  0
LINE
  5
132
330
19
100
AcDbEntity
  8
ZUWAKU
 62
     7
 48
10.0
100
AcDbLine
 10
1228.46999593825
 20
24.16690069954464
 30
0.0
 11
1228.46999593825
 21
48.16690069954512
 31
0.0
  0
LINE
  5
133
330
19
100
AcDbEntity
  8
ZUWAKU
 62
     7
 48
10.0
100
AcDbLine
 10
1297.321307773629
 20
24.16690069954464
 30
0.0
 11
1297.321307773629
 21
48.1669006995451
 31
0.0
  0
TEXT
  5
134
330
19
100
AcDbEntity
  8
ZUWAKU
 62
     7
 48
10.0
100
AcDbText
 10
1292.407013373002
 20
5.798621502208334
 30
0.0
 40
16.0
  1
積水化学工業株式会社  建材
100
AcDbText
  0
LINE
  5
135
330
19
100
AcDbEntity
  8
ZUWAKU
  6
CONTINUOUS
 62
     7
100
AcDbLine
 10
1611.900746470746
 20
1124.166900699545
 30
0.0
 11
1611.900746470746
 21
24.16690069954529
 31
0.0
  0
LINE
  5
448
330
19
100
AcDbEntity
  8
SEIHIN
  6
CONTINUOUS
 62
     3
 48
32.0
100
AcDbLine
 10
757.440745901097
 20
760.2463618882266
 30
0.0
 11
835.774145901097
 21
760.2463618882266
 31
0.0
  0
LINE
  5
449
330
19
100
AcDbEntity
  8
SEIHIN
  6
CONTINUOUS
 62
     3
 48
32.0
100
AcDbLine
 10
773.4408459010969
 20
755.2463618882265
 30
0.0
 11
838.072945901097
 21
755.2463618882265
 31
0.0
  0
LINE
  5
44A
330
19
100
AcDbEntity
  8
SEIHIN
  6
CONTINUOUS
 62
     3
 48
32.0
100
AcDbLine
 10
834.660945901097
 20
708.6464618882265
 30
0.0
 11
830.6406459010968
 21
708.6464618882265
 31
0.0
  0
LINE
  5
44B
330
19
100
AcDbEntity
  8
SEIHIN
  6
CONTINUOUS
 62
     3
 48
32.0
100
AcDbLine
 10
833.3102459010968
 20
699.6464618882265
 30
0.0
 11
830.6406459010968
 21
699.6464618882265
 31
0.0
  0
ARC
  5
44C
330
19
100
AcDbEntity
  8
NIKITOI
  6
PHANTOM
 62
     8
 48
2.0
100
AcDbCircle
 10
831.6789459010969
 20
703.6457738882266
 30
0.0
 40
4.000029
100
AcDbArc
 50
185.413851
 51
319.252818
  0
CIRCLE
  5
44D
330
19
100
AcDbEntity
  8
NIKITOI
  6
PHANTOM
 62
     8
 48
2.0
100
AcDbCircle
 10
831.6789459010969
 20
703.6457738882266
 30
0.0
 40
2.7
  0
ARC
  5
44E
330
19
100
AcDbEntity
  8
NIKITOI
  6
PHANTOM
 62
     8
 48
2.0
100
AcDbCircle
 10
831.6789459010969
 20
703.6457738882266
 30
0.0
 40
3.999994
100
AcDbArc
 50
5.413986
 51
185.413851
  0
ARC
  5
44F
330
19
100
AcDbEntity
  8
SEIHIN
  6
CONTINUOUS
 62
     3
 48
32.0
100
AcDbCircle
 10
846.940571869897
 20
576.2463798597267
 30
0.0
 40
14.99994
100
AcDbArc
 50
143.1301020187
 51
216.8692860283
  0
ARC
  5
450
330
19
100
AcDbEntity
  8
SEIHIN
  6
CONTINUOUS
 62
     3
 48
32.0
100
AcDbCircle
 10
818.839245901097
 20
591.8737618882265
 30
0.0
 40
14.99995499999999
100
AcDbArc
 50
359.3059400469
 51
90.63103401179999
  0
DIMENSION
  5
451
330
19
100
AcDbEntity
  8
SUNPOU
  6
CONTINUOUS
 62
     4
 48
32.0
100
AcDbDimension
  2
*D1
 10
672.5711151843777
 20
789.2463618882266
 30
0.0
 11
662.5711151843777
 21
560.0014208739767
 31
0.0
 12
-13.4482764095128
 22
-38.07191704278057
 32
0.0
 70
    32
  3
STANDARD
100
AcDbAlignedDimension
 13
1251.586571869897
 23
330.7564798597267
 33
0.0
 14
750.4408459010969
 24
789.2463618882266
 34
0.0
 50
90.0
100
AcDbRotatedDimension
1001
ACAD
1000
DSTYLE
1002
{
1070
   140
1040
12.0
1070
    74
1070
     0
1070
    73
1070
     0
1070
   272
1070
     0
1070
    77
1070
     3
1070
   173
1070
     1
1070
   147
1040
4.0
1070
    42
1040
20.0
1070
    44
1040
8.0
1070
    43
1040
32.0
1070
   271
1070
     0
1070
   178
1070
     4
1070
   177
1070
     4
1070
   176
1070
     4
1070
   141
1040
12.0
1070
     7
1000
_OPEN
1070
     6
1000
_OPEN
1070
    41
1040
12.0
1002
}
  0
DIMENSION
  5
452
330
19
100
AcDbEntity
  8
SUNPOU
  6
CONTINUOUS
 62
     4
 48
32.0
100
AcDbDimension
  2
*D2
 10
709.1176888970746
 20
330.7564798597268
 30
0.0
 11
699.1176888970746
 21
494.5510433740265
 31
0.0
 70
    32
  3
STANDARD
100
AcDbAlignedDimension
 13
884.4405459010967
 23
658.3456068883259
 33
0.0
 14
1251.586571869897
 24
330.7564798597267
 34
0.0
 50
90.0
100
AcDbRotatedDimension
1001
ACAD
1000
DSTYLE
1002
{
1070
   287
1070
     4
1070
   287
1070
     4
1070
    41
1040
12.0
1070
    42
1040
20.0
1070
    43
1040
32.0
1070
    44
1040
8.0
1070
    73
1070
     0
1070
    74
1070
     0
1070
    75
1070
     1
1070
    77
1070
     3
1070
   140
1040
12.0
1070
   141
1040
12.0
1070
   147
1040
4.0
1070
   173
1070
     1
1070
   176
1070
     4
1070
   177
1070
     4
1070
   178
1070
     4
1070
   271
1070
     0
1070
   272
1070
     0
1070
   279
1070
     1
1070
     6
1000
OPEN
1070
     7
1000
OPEN
1002
}
  0
DIMENSION
  5
453
330
19
100
AcDbEntity
  8
SUNPOU
  6
CONTINUOUS
 62
     4
 48
32.0
100
AcDbDimension
  2
*D3
 10
709.1176888970746
 20
658.3456068883259
 30
0.0
 11
699.1176888970747
 21
723.7959843882763
 31
0.0
 12
-13.4482764095128
 22
-38.07191704278057
 32
0.0
 70
    32
  3
STANDARD
100
AcDbAlignedDimension
 13
750.4408459010969
 23
789.2463618882266
 33
0.0
 14
884.4405459010967
 24
658.3456068883259
 34
0.0
 50
90.0
100
AcDbRotatedDimension
1001
ACAD
1000
DSTYLE
1002
{
1070
   140
1040
12.0
1070
    74
1070
     0
1070
    73
1070
     0
1070
   272
1070
     0
1070
    77
1070
     3
1070
   173
1070
     1
1070
   147
1040
4.0
1070
    42
1040
20.0
1070
    44
1040
8.0
1070
    43
1040
32.0
1070
   271
1070
     0
1070
   178
1070
     4
1070
   177
1070
     4
1070
   176
1070
     4
1070
   141
1040
12.0
1070
     7
1000
_OPEN
1070
     6
1000
_OPEN
1070
    41
1040
12.0
1002
}
  0
DIMENSION
  5
454
330
19
100
AcDbEntity
  8
SUNPOU
  6
CONTINUOUS
 62
     4
 48
32.0
100
AcDbDimension
  2
*D4
 10
948.440745901097
 20
869.7033591104267
 30
0.0
 11
849.4407959010969
 21
879.7033591104266
 31
0.0
 12
-13.4482764095128
 22
-38.07191704278057
 32
0.0
 70
    32
  3
STANDARD
100
AcDbAlignedDimension
 13
750.4408459010969
 23
789.2463618882266
 33
0.0
 14
948.440745901097
 24
719.6462618882265
 34
0.0
100
AcDbRotatedDimension
1001
ACAD
1000
DSTYLE
1002
{
1070
   140
1040
12.0
1070
    74
1070
     0
1070
    73
1070
     0
1070
   272
1070
     0
1070
    77
1070
     3
1070
   173
1070
     1
1070
   147
1040
4.0
1070
    42
1040
20.0
1070
    44
1040
8.0
1070
    43
1040
32.0
1070
   271
1070
     0
1070
   178
1070
     4
1070
   177
1070
     4
1070
   176
1070
     4
1070
   141
1040
12.0
1070
     7
1000
_OPEN
1070
     6
1000
_OPEN
1070
    41
1040
12.0
1002
}
  0
DIMENSION
  5
455
330
19
100
AcDbEntity
  8
SUNPOU
  6
CONTINUOUS
 62
     4
 48
32.0
100
AcDbDimension
  2
*D5
 10
884.4405459010967
 20
840.9960674438265
 30
0.0
 11
817.4406959010969
 21
850.9960674438264
 31
0.0
 12
-13.4482764095128
 22
-38.07191704278057
 32
0.0
 70
    32
  3
STANDARD
100
AcDbAlignedDimension
 13
750.4408459010969
 23
789.2463618882266
 33
0.0
 14
884.4405459010967
 24
690.2353035549265
 34
0.0
100
AcDbRotatedDimension
1001
ACAD
1000
DSTYLE
1002
{
1070
   140
1040
12.0
1070
    74
1070
     0
1070
    73
1070
     0
1070
   272
1070
     0
1070
    77
1070
     3
1070
   173
1070
     1
1070
   147
1040
4.0
1070
    42
1040
20.0
1070
    44
1040
8.0
1070
    43
1040
32.0
1070
   271
1070
     0
1070
   178
1070
     4
1070
   177
1070
     4
1070
   176
1070
     4
1070
   141
1040
12.0
1070
     7
1000
_OPEN
1070
     6
1000
_OPEN
1070
    41
1040
12.0
1002
}
  0
LINE
  5
456
330
19
100
AcDbEntity
  8
SEIHIN
  6
CONTINUOUS
 62
     3
 48
32.0
100
AcDbLine
 10
777.159045901097
 20
738.2462618882264
 30
0.0
 11
845.8890459010968
 21
738.2462618882264
 31
0.0
  0
LINE
  5
457
330
19
100
AcDbEntity
  8
SEIHIN
  6
CONTINUOUS
 62
     3
 48
32.0
100
AcDbLine
 10
854.4407459010969
 20
719.6462618882265
 30
0.0
 11
825.1179459010968
 21
783.4236618882266
 31
0.0
  0
LINE
  5
458
330
19
100
AcDbEntity
  8
SEIHIN
  6
CONTINUOUS
 62
     3
 48
32.0
100
AcDbLine
 10
940.8736459010967
 20
606.6462618882265
 30
0.0
 11
821.4405459010968
 21
606.6464618882265
 31
0.0
  0
LINE
  5
459
330
19
100
AcDbEntity
  8
SEIHIN
  6
CONTINUOUS
 62
     3
 48
32.0
100
AcDbLine
 10
798.4407459010969
 20
719.6462618882265
 30
0.0
 11
854.4407459010969
 21
719.6462618882265
 31
0.0
  0
LINE
  5
45A
330
19
100
AcDbEntity
  8
SEIHIN
  6
CONTINUOUS
 62
     3
 48
32.0
100
AcDbLine
 10
793.2434459010969
 20
722.6462618882266
 30
0.0
 11
853.0614459010969
 21
722.6462618882266
 31
0.0
  0
LINE
  5
45B
330
19
100
AcDbEntity
  8
SEIHIN
  6
CONTINUOUS
 62
     3
 48
32.0
100
AcDbLine
 10
787.440745901097
 20
735.2462618882265
 30
0.0
 11
847.2683459010967
 21
735.2462618882265
 31
0.0
  0
LINE
  5
45C
330
19
100
AcDbEntity
  8
SEIHIN
  6
CONTINUOUS
 62
     3
 48
32.0
100
AcDbLine
 10
805.440745901097
 20
708.6462618882266
 30
0.0
 11
845.1615459010968
 21
708.6462618882266
 31
0.0
  0
LINE
  5
45D
330
19
100
AcDbEntity
  8
SEIHIN
  6
CONTINUOUS
 62
     3
 48
32.0
100
AcDbLine
 10
799.440745901097
 20
709.6462618882266
 30
0.0
 11
846.8897459010968
 21
709.6462618882266
 31
0.0
  0
LINE
  5
45E
330
19
100
AcDbEntity
  8
SEIHIN
  6
CONTINUOUS
 62
     3
 48
32.0
100
AcDbLine
 10
475.8355459010969
 20
593.3373618882265
 30
0.0
 11
475.4575459010969
 21
585.2462618882265
 31
0.0
  0
LINE
  5
45F
330
19
100
AcDbEntity
  8
SEIHIN
  6
CONTINUOUS
 62
     3
 48
32.0
100
AcDbLine
 10
365.0794459010969
 20
593.3373618882265
 30
0.0
 11
365.4574459010969
 21
585.2462618882265
 31
0.0
  0
LINE
  5
460
330
19
100
AcDbEntity
  8
CENTER_L
  6
CENTER
 62
     1
 48
3.5
100
AcDbLine
 10
420.4575459010968
 20
316.8951125826266
 30
0.0
 11
420.4575459010968
 21
801.6281618882265
 31
0.0
  0
LINE
  5
461
330
19
100
AcDbEntity
  8
SEIHIN
  6
CONTINUOUS
 62
     3
 48
32.0
100
AcDbLine
 10
460.112245901097
 20
424.3382618882265
 30
0.0
 11
450.7241459010969
 21
385.3235618882266
 31
0.0
  0
LINE
  5
462
330
19
100
AcDbEntity
  8
SEIHIN
  6
CONTINUOUS
 62
     3
 48
32.0
100
AcDbLine
 10
390.107045901097
 20
415.4750618882266
 30
0.0
 11
399.6498459010969
 21
375.8172618882266
 31
0.0
  0
LINE
  5
463
330
19
100
AcDbEntity
  8
SEIHIN
  6
CONTINUOUS
 62
     3
 48
32.0
100
AcDbLine
 10
380.8018459010969
 20
424.3383618882266
 30
0.0
 11
390.1899459010969
 21
385.3236618882266
 31
0.0
  0
LINE
  5
464
330
19
100
AcDbEntity
  8
SEIHIN
  6
CONTINUOUS
 62
     3
 48
32.0
100
AcDbLine
 10
450.8071459010968
 20
415.4749618882266
 30
0.0
 11
441.2642459010969
 21
375.8172618882266
 31
0.0
  0
LINE
  5
465
330
19
100
AcDbEntity
  8
SEIHIN
  6
CONTINUOUS
 62
     3
 48
32.0
100
AcDbLine
 10
442.4573459010969
 20
367.6847618882266
 30
0.0
 11
420.4566459010968
 21
367.6848618882266
 31
0.0
  0
LINE
  5
466
330
19
100
AcDbEntity
  8
SEIHIN
  6
CONTINUOUS
 62
     3
 48
32.0
100
AcDbLine
 10
440.4226459010969
 20
375.6842618882266
 30
0.0
 11
420.4570459010969
 21
375.6843618882267
 31
0.0
  0
LINE
  5
467
330
19
100
AcDbEntity
  8
SEIHIN
  6
CONTINUOUS
 62
     3
 48
32.0
100
AcDbLine
 10
441.1173459010968
 20
369.2605618882266
 30
0.0
 11
420.4566459010968
 21
369.2605618882266
 31
0.0
  0
LINE
  5
468
330
19
100
AcDbEntity
  8
SEIHIN
  6
CONTINUOUS
 62
     3
 48
32.0
100
AcDbLine
 10
443.4072459010969
 20
361.6277618882266
 30
0.0
 11
420.4566459010968
 21
361.6278618882266
 31
0.0
  0
LINE
  5
469
330
19
100
AcDbEntity
  8
SEIHIN
  6
CONTINUOUS
 62
     3
 48
32.0
100
AcDbLine
 10
448.4072459010969
 20
329.0200618882266
 30
0.0
 11
420.4570459010969
 21
329.0200618882266
 31
0.0
  0
LINE
  5
46A
330
19
100
AcDbEntity
  8
SEIHIN
  6
CONTINUOUS
 62
     3
 48
32.0
100
AcDbLine
 10
448.9071459010968
 20
333.0200618882266
 30
0.0
 11
420.4570459010969
 21
333.0200618882266
 31
0.0
  0
LINE
  5
46B
330
19
100
AcDbEntity
  8
SEIHIN
  6
CONTINUOUS
 62
     3
 48
32.0
100
AcDbLine
 10
452.4072459010969
 20
349.0200618882266
 30
0.0
 11
420.4572459010969
 21
349.0200618882266
 31
0.0
  0
LINE
  5
46C
330
19
100
AcDbEntity
  8
SEIHIN
  6
CONTINUOUS
 62
     3
 48
32.0
100
AcDbLine
 10
388.5068459010968
 20
349.0200618882266
 30
0.0
 11
388.5068459010968
 21
392.3184618882267
 31
0.0
  0
LINE
  5
46D
330
19
100
AcDbEntity
  8
SEIHIN
  6
CONTINUOUS
 62
     3
 48
32.0
100
AcDbLine
 10
397.5068459010969
 20
367.6848618882266
 30
0.0
 11
397.5068459010969
 21
349.0200618882266
 31
0.0
  0
LINE
  5
46E
330
19
100
AcDbEntity
  8
SEIHIN
  6
CONTINUOUS
 62
     3
 48
32.0
100
AcDbLine
 10
388.5068459010968
 20
349.0200618882266
 30
0.0
 11
420.4568459010969
 21
349.0200618882266
 31
0.0
  0
LINE
  5
46F
330
19
100
AcDbEntity
  8
SEIHIN
  6
CONTINUOUS
 62
     3
 48
32.0
100
AcDbLine
 10
392.0069459010969
 20
333.0200618882266
 30
0.0
 11
420.4570459010969
 21
333.0200618882266
 31
0.0
  0
LINE
  5
470
330
19
100
AcDbEntity
  8
SEIHIN
  6
CONTINUOUS
 62
     3
 48
32.0
100
AcDbLine
 10
392.5068459010968
 20
329.0200618882266
 30
0.0
 11
420.4570459010969
 21
329.0200618882266
 31
0.0
  0
LINE
  5
471
330
19
100
AcDbEntity
  8
SEIHIN
  6
CONTINUOUS
 62
     3
 48
32.0
100
AcDbLine
 10
392.0070459010969
 20
333.0201618882266
 30
0.0
 11
392.0070459010969
 21
349.0200618882266
 31
0.0
  0
LINE
  5
472
330
19
100
AcDbEntity
  8
SEIHIN
  6
CONTINUOUS
 62
     3
 48
32.0
100
AcDbLine
 10
392.0070459010969
 20
333.0201618882266
 30
0.0
 11
392.5068459010968
 21
329.0200618882266
 31
0.0
  0
LINE
  5
473
330
19
100
AcDbEntity
  8
SEIHIN
  6
CONTINUOUS
 62
     3
 48
32.0
100
AcDbLine
 10
400.4914459010969
 20
375.6843618882267
 30
0.0
 11
420.4570459010969
 21
375.6843618882267
 31
0.0
  0
LINE
  5
474
330
19
100
AcDbEntity
  8
SEIHIN
  6
CONTINUOUS
 62
     3
 48
32.0
100
AcDbLine
 10
399.7967459010968
 20
369.2605618882266
 30
0.0
 11
420.4574459010968
 21
369.2606618882266
 31
0.0
  0
LINE
  5
475
330
19
100
AcDbEntity
  8
SEIHIN
  6
CONTINUOUS
 62
     3
 48
32.0
100
AcDbLine
 10
398.4567459010969
 20
367.6848618882266
 30
0.0
 11
420.4574459010968
 21
367.6848618882266
 31
0.0
  0
LINE
  5
476
330
19
100
AcDbEntity
  8
SEIHIN
  6
CONTINUOUS
 62
     3
 48
32.0
100
AcDbLine
 10
397.5068459010969
 20
361.6278618882266
 30
0.0
 11
420.4574459010968
 21
361.6278618882266
 31
0.0
  0
LINE
  5
477
330
19
100
AcDbEntity
  8
SEIHIN
  6
CONTINUOUS
 62
     3
 48
32.0
100
AcDbLine
 10
390.0868459010969
 20
385.5584618882267
 30
0.0
 11
390.0868459010969
 21
378.9737618882266
 31
0.0
  0
ARC
  5
478
330
19
100
AcDbEntity
  8
SEIHIN
  6
CONTINUOUS
 62
     3
 48
32.0
100
AcDbCircle
 10
388.8474459010968
 20
373.7829618882266
 30
0.0
 40
11.000029
100
AcDbArc
 50
13.99164900179999
 51
78.87792401029999
  0
ARC
  5
479
330
19
100
AcDbEntity
  8
SEIHIN
  6
CONTINUOUS
 62
     3
 48
32.0
100
AcDbCircle
 10
388.5068459010968
 20
367.6848618882266
 30
0.0
 40
9.000012999999999
100
AcDbArc
 50
5.739162000699999
 51
84.260838011
  0
ARC
  5
47A
330
19
100
AcDbEntity
  8
SEIHIN
  6
CONTINUOUS
 62
     3
 48
32.0
100
AcDbCircle
 10
389.5068459010968
 20
377.6346618882266
 30
0.0
 40
0.999957
100
AcDbArc
 50
180.0000000234999
 51
264.2603290344999
  0
ARC
  5
47B
330
19
100
AcDbEntity
  8
SEIHIN
  6
CONTINUOUS
 62
     3
 48
32.0
100
AcDbCircle
 10
398.4567459010969
 20
368.6848618882267
 30
0.0
 40
1.000005999999999
100
AcDbArc
 50
185.7390980241999
 51
270.0000000353
  0
ARC
  5
47C
330
19
100
AcDbEntity
  8
SEIHIN
  6
CONTINUOUS
 62
     3
 48
32.0
100
AcDbCircle
 10
400.4914459010969
 20
376.6843618882266
 30
0.0
 40
0.9999869999999999
100
AcDbArc
 50
193.9931640253
 51
270.0000000353
  0
LINE
  5
47D
330
19
100
AcDbEntity
  8
SEIHIN
  6
CONTINUOUS
 62
     3
 48
32.0
100
AcDbLine
 10
398.9688459010968
 20
369.2605618882266
 30
0.0
 11
398.9688459010968
 21
376.8368618882266
 31
0.0
  0
ARC
  5
47E
330
19
100
AcDbEntity
  8
SEIHIN
  6
CONTINUOUS
 62
     3
 48
32.0
100
AcDbCircle
 10
399.7967459010968
 20
370.2605618882266
 30
0.0
 40
1.000021999999999
100
AcDbArc
 50
192.8494690251999
 51
270.0000000353
  0
ARC
  5
47F
330
19
100
AcDbEntity
  8
SEIHIN
  6
CONTINUOUS
 62
     3
 48
32.0
100
AcDbCircle
 10
391.0868459010969
 20
378.9737618882266
 30
0.0
 40
1.000016999999999
100
AcDbArc
 50
180.0000000234999
 51
257.1269130336
  0
ARC
  5
480
330
19
100
AcDbEntity
  8
SEIHIN
  6
CONTINUOUS
 62
     3
 48
32.0
100
AcDbCircle
 10
388.5068459010968
 20
367.6848618882266
 30
0.0
 40
10.579927
100
AcDbArc
 50
12.8518180017
 51
77.1270350101
  0
ARC
  5
481
330
19
100
AcDbEntity
  8
SEIHIN
  6
CONTINUOUS
 62
     3
 48
32.0
100
AcDbCircle
 10
391.1622459010968
 20
385.5575618882267
 30
0.0
 40
0.9999639999999999
100
AcDbArc
 50
193.5331740252999
 51
258.8833450338
  0
LINE
  5
482
330
19
100
AcDbEntity
  8
SEIHIN
  6
CONTINUOUS
 62
     3
 48
32.0
100
AcDbLine
 10
452.4072459010969
 20
349.0200618882266
 30
0.0
 11
452.4072459010969
 21
392.3184618882267
 31
0.0
  0
LINE
  5
483
330
19
100
AcDbEntity
  8
SEIHIN
  6
CONTINUOUS
 62
     3
 48
32.0
100
AcDbLine
 10
443.4072459010969
 20
367.6847618882266
 30
0.0
 11
443.4072459010969
 21
349.0200618882266
 31
0.0
  0
LINE
  5
484
330
19
100
AcDbEntity
  8
SEIHIN
  6
CONTINUOUS
 62
     3
 48
32.0
100
AcDbLine
 10
448.9070459010969
 20
333.0201618882266
 30
0.0
 11
448.9070459010969
 21
349.0200618882266
 31
0.0
  0
LINE
  5
485
330
19
100
AcDbEntity
  8
SEIHIN
  6
CONTINUOUS
 62
     3
 48
32.0
100
AcDbLine
 10
448.9070459010969
 20
333.0201618882266
 30
0.0
 11
448.4072459010969
 21
329.0200618882266
 31
0.0
  0
LINE
  5
486
330
19
100
AcDbEntity
  8
SEIHIN
  6
CONTINUOUS
 62
     3
 48
32.0
100
AcDbLine
 10
450.8272459010969
 20
385.5584618882267
 30
0.0
 11
450.8272459010969
 21
378.9737618882266
 31
0.0
  0
ARC
  5
487
330
19
100
AcDbEntity
  8
SEIHIN
  6
CONTINUOUS
 62
     3
 48
32.0
100
AcDbCircle
 10
452.0666459010969
 20
373.7829618882266
 30
0.0
 40
11.00001699999999
100
AcDbArc
 50
101.1220760132
 51
166.0088560217
  0
ARC
  5
488
330
19
100
AcDbEntity
  8
SEIHIN
  6
CONTINUOUS
 62
     3
 48
32.0
100
AcDbCircle
 10
449.8272459010969
 20
378.9737618882266
 30
0.0
 40
1.000016999999999
100
AcDbArc
 50
282.8730870368999
 51
0.0
  0
ARC
  5
489
330
19
100
AcDbEntity
  8
SEIHIN
  6
CONTINUOUS
 62
     3
 48
32.0
100
AcDbCircle
 10
451.4072459010968
 20
377.6346618882266
 30
0.0
 40
1.000005999999999
100
AcDbArc
 50
275.7390980359999
 51
0.0
  0
ARC
  5
48A
330
19
100
AcDbEntity
  8
SEIHIN
  6
CONTINUOUS
 62
     3
 48
32.0
100
AcDbCircle
 10
442.4573459010969
 20
368.6847618882266
 30
0.0
 40
1.000005999999999
100
AcDbArc
 50
270.0000000353
 51
354.2609020462999
  0
LINE
  5
48B
330
19
100
AcDbEntity
  8
SEIHIN
  6
CONTINUOUS
 62
     3
 48
32.0
100
AcDbLine
 10
441.9452459010968
 20
369.2605618882266
 30
0.0
 11
441.9452459010968
 21
376.8368618882266
 31
0.0
  0
ARC
  5
48C
330
19
100
AcDbEntity
  8
SEIHIN
  6
CONTINUOUS
 62
     3
 48
32.0
100
AcDbCircle
 10
441.1173459010968
 20
370.2605618882266
 30
0.0
 40
1.000021999999999
100
AcDbArc
 50
270.0000000353
 51
347.1505310453
  0
ARC
  5
48D
330
19
100
AcDbEntity
  8
SEIHIN
  6
CONTINUOUS
 62
     3
 48
32.0
100
AcDbCircle
 10
440.4226459010969
 20
376.6842618882266
 30
0.0
 40
0.9999869999999999
100
AcDbArc
 50
270.0000000353
 51
346.0068360451999
  0
ARC
  5
48E
330
19
100
AcDbEntity
  8
SEIHIN
  6
CONTINUOUS
 62
     3
 48
32.0
100
AcDbCircle
 10
452.4072459010969
 20
367.6847618882266
 30
0.0
 40
9.000012999999999
100
AcDbArc
 50
95.7391620125
 51
174.2608380228
  0
ARC
  5
48F
330
19
100
AcDbEntity
  8
SEIHIN
  6
CONTINUOUS
 62
     3
 48
32.0
100
AcDbCircle
 10
452.4072459010969
 20
367.6847618882266
 30
0.0
 40
10.57999799999999
100
AcDbArc
 50
102.8733730134
 51
167.1476540218
  0
ARC
  5
490
330
19
100
AcDbEntity
  8
SEIHIN
  6
CONTINUOUS
 62
     3
 48
32.0
100
AcDbCircle
 10
449.7518459010969
 20
385.5575618882267
 30
0.0
 40
1.000021999999999
100
AcDbArc
 50
281.1222770366999
 51
346.4681660451999
  0
LINE
  5
491
330
19
100
AcDbEntity
  8
SEIHIN
  6
CONTINUOUS
 62
     3
 48
32.0
100
AcDbLine
 10
454.3464459010968
 20
500.2466618882266
 30
0.0
 11
420.4568459010969
 21
500.2466618882266
 31
0.0
  0
LINE
  5
492
330
19
100
AcDbEntity
  8
SEIHIN
  6
CONTINUOUS
 62
     3
 48
32.0
100
AcDbLine
 10
420.4571459010969
 20
567.2461618882265
 30
0.0
 11
475.4570459010968
 21
567.2461618882265
 31
0.0
  0
LINE
  5
493
330
19
100
AcDbEntity
  8
SEIHIN
  6
CONTINUOUS
 62
     3
 48
32.0
100
AcDbLine
 10
420.4571459010969
 20
565.2460618882265
 30
0.0
 11
473.4570459010968
 21
565.2460618882265
 31
0.0
  0
LINE
  5
494
330
19
100
AcDbEntity
  8
SEIHIN
  6
CONTINUOUS
 62
     3
 48
32.0
100
AcDbLine
 10
475.457145901097
 20
585.2461618882265
 30
0.0
 11
420.4569459010969
 21
585.2462618882265
 31
0.0
  0
LINE
  5
495
330
19
100
AcDbEntity
  8
SEIHIN
  6
CONTINUOUS
 62
     3
 48
32.0
100
AcDbLine
 10
420.4571459010969
 20
585.2461618882265
 30
0.0
 11
472.4571459010969
 21
585.2462618882265
 31
0.0
  0
LINE
  5
496
330
19
100
AcDbEntity
  8
SEIHIN
  6
CONTINUOUS
 62
     3
 48
32.0
100
AcDbLine
 10
452.4850459010969
 20
451.2461618882266
 30
0.0
 11
420.4569459010969
 21
451.2462618882266
 31
0.0
  0
LINE
  5
497
330
19
100
AcDbEntity
  8
SEIHIN
  6
CONTINUOUS
 62
     3
 48
32.0
100
AcDbLine
 10
378.1571459010969
 20
460.1105618882266
 30
0.0
 11
375.1821459010968
 21
548.0066618882266
 31
0.0
  0
LINE
  5
498
330
19
100
AcDbEntity
  8
SEIHIN
  6
CONTINUOUS
 62
     3
 48
32.0
100
AcDbLine
 10
384.4853459010969
 20
539.2020618882266
 30
0.0
 11
387.4296459010969
 21
452.2123618882265
 31
0.0
  0
LINE
  5
499
330
19
100
AcDbEntity
  8
SEIHIN
  6
CONTINUOUS
 62
     3
 48
32.0
100
AcDbLine
 10
387.4623459010969
 20
451.2467618882266
 30
0.0
 11
390.107045901097
 21
415.4750618882266
 31
0.0
  0
LINE
  5
49A
330
19
100
AcDbEntity
  8
SEIHIN
  6
CONTINUOUS
 62
     3
 48
32.0
100
AcDbLine
 10
380.7344459010969
 20
425.2502618882266
 30
0.0
 11
378.1571459010969
 21
460.1101618882267
 31
0.0
  0
ARC
  5
49B
330
19
100
AcDbEntity
  8
SEIHIN
  6
CONTINUOUS
 62
     3
 48
32.0
100
AcDbCircle
 10
381.1079459010969
 20
415.3435618882266
 30
0.0
 40
8.999957
100
AcDbArc
 50
6.4966160008
 51
86.42430101129999
  0
ARC
  5
49C
330
19
100
AcDbEntity
  8
SEIHIN
  6
CONTINUOUS
 62
     3
 48
32.0
100
AcDbCircle
 10
381.7317459010969
 20
425.3240618882266
 30
0.0
 40
0.9999839999999998
100
AcDbArc
 50
184.2264490240999
 51
266.4222360347999
  0
LINE
  5
49D
330
19
100
AcDbEntity
  8
SEIHIN
  6
CONTINUOUS
 62
     3
 48
32.0
100
AcDbLine
 10
388.4290459010969
 20
451.2461618882266
 30
0.0
 11
420.4571459010969
 21
451.2462618882266
 31
0.0
  0
ARC
  5
49E
330
19
100
AcDbEntity
  8
SEIHIN
  6
CONTINUOUS
 62
     3
 48
32.0
100
AcDbCircle
 10
379.1244459010969
 20
461.0935618882266
 30
0.0
 40
1.000029
100
AcDbArc
 50
181.9368280238
 51
266.2099360347
  0
ARC
  5
49F
330
19
100
AcDbEntity
  8
SEIHIN
  6
CONTINUOUS
 62
     3
 48
32.0
100
AcDbCircle
 10
388.4290459010969
 20
452.2461618882267
 30
0.0
 40
0.9999859999999999
100
AcDbArc
 50
181.9370220238
 51
270.0000000353
  0
ARC
  5
4A0
330
19
100
AcDbEntity
  8
SEIHIN
  6
CONTINUOUS
 62
     3
 48
32.0
100
AcDbCircle
 10
378.4633459010969
 20
451.1154618882265
 30
0.0
 40
8.999973999999999
100
AcDbArc
 50
0.8359150001000001
 51
86.20934301129999
  0
LINE
  5
4A1
330
19
100
AcDbEntity
  8
SEIHIN
  6
CONTINUOUS
 62
     3
 48
32.0
100
AcDbLine
 10
365.4572459010969
 20
585.2462618882265
 30
0.0
 11
420.4575459010968
 21
585.2462618882265
 31
0.0
  0
LINE
  5
4A2
330
19
100
AcDbEntity
  8
SEIHIN
  6
CONTINUOUS
 62
     3
 48
32.0
100
AcDbLine
 10
420.4571459010969
 20
567.2461618882265
 30
0.0
 11
365.4572459010969
 21
567.2462618882264
 31
0.0
  0
LINE
  5
4A3
330
19
100
AcDbEntity
  8
SEIHIN
  6
CONTINUOUS
 62
     3
 48
32.0
100
AcDbLine
 10
420.4571459010969
 20
585.2461618882265
 30
0.0
 11
368.4571459010969
 21
585.2462618882265
 31
0.0
  0
LINE
  5
4A4
330
19
100
AcDbEntity
  8
SEIHIN
  6
CONTINUOUS
 62
     3
 48
32.0
100
AcDbLine
 10
420.4571459010969
 20
565.2460618882265
 30
0.0
 11
367.4573459010969
 21
565.2461618882265
 31
0.0
  0
ARC
  5
4A5
330
19
100
AcDbEntity
  8
SEIHIN
  6
CONTINUOUS
 62
     3
 48
32.0
100
AcDbCircle
 10
354.5024459010969
 20
538.1872618882265
 30
0.0
 40
30.000062
100
AcDbArc
 50
1.9386810003
 51
64.4171420084
  0
ARC
  5
4A6
330
19
100
AcDbEntity
  8
SEIHIN
  6
CONTINUOUS
 62
     3
 48
32.0
100
AcDbCircle
 10
350.1964459010969
 20
547.1609618882265
 30
0.0
 40
24.999997
100
AcDbArc
 50
1.938571000299999
 51
46.33660600609999
  0
LINE
  5
4A7
330
19
100
AcDbEntity
  8
SEIHIN
  6
CONTINUOUS
 62
     3
 48
32.0
100
AcDbLine
 10
367.4570459010968
 20
565.2460618882265
 30
0.0
 11
367.4570459010968
 21
567.2461618882265
 31
0.0
  0
LINE
  5
4A8
330
19
100
AcDbEntity
  8
SEIHIN
  6
CONTINUOUS
 62
     3
 48
32.0
100
AcDbLine
 10
365.4572459010969
 20
587.1047618882265
 30
0.0
 11
365.4572459010969
 21
585.2462618882265
 31
0.0
  0
ARC
  5
4A9
330
19
100
AcDbEntity
  8
SEIHIN
  6
CONTINUOUS
 62
     3
 48
32.0
100
AcDbCircle
 10
377.4572459010969
 20
576.2462618882265
 30
0.0
 40
15.0
100
AcDbArc
 50
143.1301020187
 51
216.8698980283
  0
LINE
  5
4AA
330
19
100
AcDbEntity
  8
SEIHIN
  6
CONTINUOUS
 62
     3
 48
32.0
100
AcDbLine
 10
386.5677459010969
 20
500.2466618882266
 30
0.0
 11
420.4573459010969
 21
500.2466618882266
 31
0.0
  0
ARC
  5
4AB
330
19
100
AcDbEntity
  8
SEIHIN
  6
CONTINUOUS
 62
     3
 48
32.0
100
AcDbCircle
 10
386.5677459010969
 20
501.2466618882266
 30
0.0
 40
1.000008999999999
100
AcDbArc
 50
197.4873240257999
 51
270.0000000353
  0
ARC
  5
4AC
330
19
100
AcDbEntity
  8
SEIHIN
  6
CONTINUOUS
 62
     3
 48
32.0
100
AcDbCircle
 10
377.5290459010968
 20
508.2289618882266
 30
0.0
 40
0.9999590000000001
100
AcDbArc
 50
181.9370220238
 51
267.1395980349
  0
ARC
  5
4AD
330
19
100
AcDbEntity
  8
SEIHIN
  6
CONTINUOUS
 62
     3
 48
32.0
100
AcDbCircle
 10
377.0300459010969
 20
498.2414618882266
 30
0.0
 40
9.000018999999999
100
AcDbArc
 50
17.48892100229999
 51
87.13975701139998
  0
LINE
  5
4AE
330
19
100
AcDbEntity
  8
SEIHIN
  6
CONTINUOUS
 62
     3
 48
32.0
100
AcDbLine
 10
462.7570459010969
 20
460.1105618882266
 30
0.0
 11
465.7321459010969
 21
548.0065618882266
 31
0.0
  0
LINE
  5
4AF
330
19
100
AcDbEntity
  8
SEIHIN
  6
CONTINUOUS
 62
     3
 48
32.0
100
AcDbLine
 10
456.4289459010969
 20
539.2020618882266
 30
0.0
 11
453.4845459010969
 21
452.2123618882265
 31
0.0
  0
LINE
  5
4B0
330
19
100
AcDbEntity
  8
SEIHIN
  6
CONTINUOUS
 62
     3
 48
32.0
100
AcDbLine
 10
453.4518459010969
 20
451.2467618882266
 30
0.0
 11
450.8071459010968
 21
415.4749618882266
 31
0.0
  0
LINE
  5
4B1
330
19
100
AcDbEntity
  8
SEIHIN
  6
CONTINUOUS
 62
     3
 48
32.0
100
AcDbLine
 10
460.1797459010969
 20
425.2502618882266
 30
0.0
 11
462.7570459010969
 21
460.1102618882266
 31
0.0
  0
ARC
  5
4B2
330
19
100
AcDbEntity
  8
SEIHIN
  6
CONTINUOUS
 62
     3
 48
32.0
100
AcDbCircle
 10
459.806145901097
 20
415.3434618882267
 30
0.0
 40
9.000014999999999
100
AcDbArc
 50
93.57629501219999
 51
173.5027510227
  0
ARC
  5
4B3
330
19
100
AcDbEntity
  8
SEIHIN
  6
CONTINUOUS
 62
     3
 48
32.0
100
AcDbCircle
 10
459.1824459010969
 20
425.3239618882266
 30
0.0
 40
0.9999309999999999
100
AcDbArc
 50
273.5720450356999
 51
355.7731290465
  0
ARC
  5
4B4
330
19
100
AcDbEntity
  8
SEIHIN
  6
CONTINUOUS
 62
     3
 48
32.0
100
AcDbCircle
 10
462.4509459010969
 20
451.1154618882265
 30
0.0
 40
9.000026999999999
100
AcDbArc
 50
93.79129201220001
 51
179.1640940234
  0
ARC
  5
4B5
330
19
100
AcDbEntity
  8
SEIHIN
  6
CONTINUOUS
 62
     3
 48
32.0
100
AcDbCircle
 10
452.4850459010969
 20
452.2461618882267
 30
0.0
 40
1.000035999999999
100
AcDbArc
 50
270.0000000353
 51
358.0631720467999
  0
ARC
  5
4B6
330
19
100
AcDbEntity
  8
SEIHIN
  6
CONTINUOUS
 62
     3
 48
32.0
100
AcDbCircle
 10
461.7897459010968
 20
461.0935618882266
 30
0.0
 40
0.9999789999999999
100
AcDbArc
 50
273.7900640358
 51
358.0629780468
  0
ARC
  5
4B7
330
19
100
AcDbEntity
  8
SEIHIN
  6
CONTINUOUS
 62
     3
 48
32.0
100
AcDbCircle
 10
486.4117459010969
 20
538.1872618882265
 30
0.0
 40
29.999945
100
AcDbArc
 50
115.5827680150999
 51
178.0613120233
  0
ARC
  5
4B8
330
19
100
AcDbEntity
  8
SEIHIN
  6
CONTINUOUS
 62
     3
 48
32.0
100
AcDbCircle
 10
454.3464459010968
 20
501.2466618882266
 30
0.0
 40
1.000008999999999
100
AcDbArc
 50
270.0000000353
 51
342.5126760447
  0
ARC
  5
4B9
330
19
100
AcDbEntity
  8
SEIHIN
  6
CONTINUOUS
 62
     3
 48
32.0
100
AcDbCircle
 10
463.8841459010969
 20
498.2414618882266
 30
0.0
 40
9.000018999999999
100
AcDbArc
 50
92.86024301209996
 51
162.5110790212
  0
ARC
  5
4BA
330
19
100
AcDbEntity
  8
SEIHIN
  6
CONTINUOUS
 62
     3
 48
32.0
100
AcDbCircle
 10
463.3851459010969
 20
508.2289618882266
 30
0.0
 40
1.000010999999999
100
AcDbArc
 50
272.8661250356
 51
358.0631720467999
  0
ARC
  5
4BB
330
19
100
AcDbEntity
  8
SEIHIN
  6
CONTINUOUS
 62
     3
 48
32.0
100
AcDbCircle
 10
490.7178459010968
 20
547.1608618882266
 30
0.0
 40
25.00003299999999
100
AcDbArc
 50
133.6632360175
 51
178.0614290233
  0
LINE
  5
4BC
330
19
100
AcDbEntity
  8
SEIHIN
  6
CONTINUOUS
 62
     3
 48
32.0
100
AcDbLine
 10
473.457345901097
 20
565.2460618882265
 30
0.0
 11
473.457345901097
 21
567.2460618882265
 31
0.0
  0
LINE
  5
4BD
330
19
100
AcDbEntity
  8
SEIHIN
  6
CONTINUOUS
 62
     3
 48
32.0
100
AcDbLine
 10
475.457145901097
 20
587.1046618882266
 30
0.0
 11
475.457145901097
 21
585.2460618882266
 31
0.0
  0
ARC
  5
4BE
330
19
100
AcDbEntity
  8
SEIHIN
  6
CONTINUOUS
 62
     3
 48
32.0
100
AcDbCircle
 10
463.4570459010968
 20
576.2461618882265
 30
0.0
 40
15.0
100
AcDbArc
 50
323.1301020422
 51
36.8698980048
  0
DIMENSION
  5
4BF
330
19
100
AcDbEntity
  8
SUNPOU
  6
CONTINUOUS
 62
     4
 48
32.0
100
AcDbDimension
  2
*D6
 10
290.4407459010968
 20
840.650029296264
 30
0.0
 11
420.4574959010969
 21
850.6500292962639
 31
0.0
 12
-13.4482764095128
 22
-38.07191704278057
 32
0.0
 70
    32
  3
STANDARD
100
AcDbAlignedDimension
 13
550.4742459010969
 23
789.2462618882265
 33
0.0
 14
290.4407459010968
 24
789.2462618882265
 34
0.0
100
AcDbRotatedDimension
1001
ACAD
1000
DSTYLE
1002
{
1070
   140
1040
12.0
1070
    74
1070
     0
1070
    73
1070
     0
1070
   272
1070
     0
1070
    77
1070
     3
1070
   173
1070
     1
1070
   147
1040
4.0
1070
    42
1040
20.0
1070
    44
1040
8.0
1070
    43
1040
32.0
1070
   271
1070
     0
1070
   178
1070
     4
1070
   177
1070
     4
1070
   176
1070
     4
1070
   141
1040
12.0
1070
     7
1000
_OPEN
1070
     6
1000
_OPEN
1070
    41
1040
12.0
1002
}
  0
LINE
  5
4C0
330
19
100
AcDbEntity
  8
SEIHIN
  6
CONTINUOUS
 62
     3
 48
32.0
100
AcDbLine
 10
297.4407459010968
 20
760.2462618882265
 30
0.0
 11
420.4575459010968
 21
760.2462618882265
 31
0.0
  0
ARC
  5
4C1
330
19
100
AcDbEntity
  8
SEIHIN
  6
CONTINUOUS
 62
     3
 48
32.0
100
AcDbCircle
 10
299.8907459010969
 20
743.3977618882265
 30
0.0
 40
14.99993
100
AcDbArc
 50
15.189255002
 51
66.46215500869999
  0
LINE
  5
4C2
330
19
100
AcDbEntity
  8
SEIHIN
  6
CONTINUOUS
 62
     3
 48
32.0
100
AcDbLine
 10
292.4407459010968
 20
781.2462618882265
 30
0.0
 11
420.4575459010968
 21
781.2462618882265
 31
0.0
  0
LINE
  5
4C3
330
19
100
AcDbEntity
  8
SEIHIN
  6
CONTINUOUS
 62
     3
 48
32.0
100
AcDbLine
 10
290.4407459010968
 20
783.2462618882265
 30
0.0
 11
420.4575459010968
 21
783.2462618882265
 31
0.0
  0
LINE
  5
4C4
330
19
100
AcDbEntity
  8
SEIHIN
  6
CONTINUOUS
 62
     3
 48
32.0
100
AcDbLine
 10
290.4407459010968
 20
789.2462618882265
 30
0.0
 11
420.4575459010968
 21
789.2462618882265
 31
0.0
  0
ARC
  5
4C5
330
19
100
AcDbEntity
  8
SEIHIN
  6
CONTINUOUS
 62
     3
 48
32.0
100
AcDbCircle
 10
373.3232459010969
 20
785.5808618882265
 30
0.0
 40
80.0
100
AcDbArc
 50
183.1058770239
 51
197.9884360258999
  0
ARC
  5
4C6
330
19
100
AcDbEntity
  8
SEIHIN
  6
CONTINUOUS
 62
     3
 48
32.0
100
AcDbCircle
 10
299.0524459010969
 20
761.7253618882265
 30
0.0
 40
1.99998
100
AcDbArc
 50
202.9510760264999
 51
242.1138990315999
  0
ARC
  5
4C7
330
19
100
AcDbEntity
  8
SEIHIN
  6
CONTINUOUS
 62
     3
 48
32.0
100
AcDbCircle
 10
329.1714459010969
 20
833.6843618882266
 30
0.0
 40
79.999978
100
AcDbArc
 50
247.1181330323
 51
253.2814720330999
  0
ARC
  5
4C8
330
19
100
AcDbEntity
  8
SEIHIN
  6
CONTINUOUS
 62
     3
 48
32.0
100
AcDbCircle
 10
290.4407459010968
 20
781.2462618882265
 30
0.0
 40
2.0
100
AcDbArc
 50
0.0
 51
90.0000000118
  0
LINE
  5
4C9
330
19
100
AcDbEntity
  8
SEIHIN
  6
CONTINUOUS
 62
     3
 48
32.0
100
AcDbLine
 10
290.4574459010969
 20
783.2462618882265
 30
0.0
 11
290.4574459010969
 21
789.2462618882265
 31
0.0
  0
ARC
  5
4CA
330
19
100
AcDbEntity
  8
SEIHIN
  6
CONTINUOUS
 62
     3
 48
32.0
100
AcDbCircle
 10
467.5917459010969
 20
785.5808618882265
 30
0.0
 40
80.00000699999999
100
AcDbArc
 50
342.0113370446999
 51
356.8939080466
  0
LINE
  5
4CB
330
19
100
AcDbEntity
  8
SEIHIN
  6
CONTINUOUS
 62
     3
 48
32.0
100
AcDbLine
 10
440.1800459010969
 20
693.5076618882265
 30
0.0
 11
436.4569459010969
 21
691.3581618882266
 31
0.0
  0
LINE
  5
4CC
330
19
100
AcDbEntity
  8
SEIHIN
  6
CONTINUOUS
 62
     3
 48
32.0
100
AcDbLine
 10
436.4569459010969
 20
691.3582618882266
 30
0.0
 11
440.179945901097
 21
693.5076618882265
 31
0.0
  0
ARC
  5
4CD
330
19
100
AcDbEntity
  8
SEIHIN
  6
CONTINUOUS
 62
     3
 48
32.0
100
AcDbCircle
 10
459.8782459010968
 20
791.5483618882266
 30
0.0
 40
99.99992500000001
100
AcDbArc
 50
246.7834590322
 51
259.9809180338999
  0
ARC
  5
4CE
330
19
100
AcDbEntity
  8
SEIHIN
  6
CONTINUOUS
 62
     3
 48
32.0
100
AcDbCircle
 10
459.8782459010968
 20
795.0483618882266
 30
0.0
 40
99.99993299999999
100
AcDbArc
 50
246.7834590322
 51
261.0082000341
  0
ARC
  5
4CF
330
19
100
AcDbEntity
  8
SEIHIN
  6
CONTINUOUS
 62
     3
 48
32.0
100
AcDbCircle
 10
459.8782459010968
 20
798.5483618882266
 30
0.0
 40
99.99994499999999
100
AcDbArc
 50
246.7834590322
 51
262.0141770341999
  0
LINE
  5
4D0
330
19
100
AcDbEntity
  8
SEIHIN
  6
CONTINUOUS
 62
     3
 48
32.0
100
AcDbLine
 10
443.4573459010969
 20
680.3890618882266
 30
0.0
 11
436.4569459010969
 21
676.3474618882265
 31
0.0
  0
LINE
  5
4D1
330
19
100
AcDbEntity
  8
SEIHIN
  6
CONTINUOUS
 62
     3
 48
32.0
100
AcDbLine
 10
436.4569459010969
 20
676.3474618882265
 30
0.0
 11
443.4573459010969
 21
680.3890618882266
 31
0.0
  0
LINE
  5
4D2
330
19
100
AcDbEntity
  8
SEIHIN
  6
CONTINUOUS
 62
     3
 48
32.0
100
AcDbLine
 10
436.4569459010969
 20
672.8837618882265
 30
0.0
 11
443.4573459010969
 21
668.8420618882266
 31
0.0
  0
LINE
  5
4D3
330
19
100
AcDbEntity
  8
SEIHIN
  6
CONTINUOUS
 62
     3
 48
32.0
100
AcDbLine
 10
433.4573459010969
 20
682.6981618882265
 30
0.0
 11
440.4570459010968
 21
678.6568618882265
 31
0.0
  0
LINE
  5
4D4
330
19
100
AcDbEntity
  8
SEIHIN
  6
CONTINUOUS
 62
     3
 48
32.0
100
AcDbLine
 10
436.4569459010969
 20
687.8944618882266
 30
0.0
 11
443.4573459010969
 21
683.8527618882266
 31
0.0
  0
LINE
  5
4D5
330
19
100
AcDbEntity
  8
SEIHIN
  6
CONTINUOUS
 62
     3
 48
32.0
100
AcDbLine
 10
433.4573459010969
 20
652.6766618882265
 30
0.0
 11
440.4570459010968
 21
648.6353618882266
 31
0.0
  0
LINE
  5
4D6
330
19
100
AcDbEntity
  8
SEIHIN
  6
CONTINUOUS
 62
     3
 48
32.0
100
AcDbLine
 10
436.4569459010969
 20
657.8729618882265
 30
0.0
 11
443.4573459010969
 21
653.8312618882265
 31
0.0
  0
LINE
  5
4D7
330
19
100
AcDbEntity
  8
SEIHIN
  6
CONTINUOUS
 62
     3
 48
32.0
100
AcDbLine
 10
443.4573459010969
 20
650.3675618882265
 30
0.0
 11
436.4569459010969
 21
646.3258618882265
 31
0.0
  0
LINE
  5
4D8
330
19
100
AcDbEntity
  8
SEIHIN
  6
CONTINUOUS
 62
     3
 48
32.0
100
AcDbLine
 10
436.4569459010969
 20
646.3259618882265
 30
0.0
 11
443.4573459010969
 21
650.3675618882265
 31
0.0
  0
LINE
  5
4D9
330
19
100
AcDbEntity
  8
SEIHIN
  6
CONTINUOUS
 62
     3
 48
32.0
100
AcDbLine
 10
436.4569459010969
 20
661.3366618882265
 30
0.0
 11
443.4573459010969
 21
665.3783618882265
 31
0.0
  0
LINE
  5
4DA
330
19
100
AcDbEntity
  8
SEIHIN
  6
CONTINUOUS
 62
     3
 48
32.0
100
AcDbLine
 10
443.4573459010969
 20
665.3782618882265
 30
0.0
 11
436.4569459010969
 21
661.3366618882265
 31
0.0
  0
LINE
  5
4DB
330
19
100
AcDbEntity
  8
SEIHIN
  6
CONTINUOUS
 62
     3
 48
32.0
100
AcDbLine
 10
433.4573459010969
 20
667.6873618882265
 30
0.0
 11
440.4570459010968
 21
663.6460618882265
 31
0.0
  0
LINE
  5
4DC
330
19
100
AcDbEntity
  8
SEIHIN
  6
CONTINUOUS
 62
     3
 48
32.0
100
AcDbLine
 10
543.4743459010969
 20
760.2462618882265
 30
0.0
 11
420.4575459010968
 21
760.2462618882265
 31
0.0
  0
LINE
  5
4DD
330
19
100
AcDbEntity
  8
SEIHIN
  6
CONTINUOUS
 62
     3
 48
32.0
100
AcDbLine
 10
420.4575459010968
 20
714.6461618882264
 30
0.0
 11
473.4476459010969
 21
714.6461618882264
 31
0.0
  0
LINE
  5
4DE
330
19
100
AcDbEntity
  8
SEIHIN
  6
CONTINUOUS
 62
     3
 48
32.0
100
AcDbLine
 10
527.474245901097
 20
755.2462618882265
 30
0.0
 11
420.4575459010968
 21
755.2462618882265
 31
0.0
  0
LINE
  5
4DF
330
19
100
AcDbEntity
  8
SEIHIN
  6
CONTINUOUS
 62
     3
 48
32.0
100
AcDbLine
 10
513.4743459010969
 20
735.2462618882265
 30
0.0
 11
420.4575459010968
 21
735.2462618882265
 31
0.0
  0
LINE
  5
4E0
330
19
100
AcDbEntity
  8
SEIHIN
  6
CONTINUOUS
 62
     3
 48
32.0
100
AcDbLine
 10
507.6715459010968
 20
722.6461618882265
 30
0.0
 11
420.4575459010968
 21
722.6461618882265
 31
0.0
  0
LINE
  5
4E1
330
19
100
AcDbEntity
  8
SEIHIN
  6
CONTINUOUS
 62
     3
 48
32.0
100
AcDbLine
 10
502.4743459010969
 20
719.6461618882265
 30
0.0
 11
420.4575459010968
 21
719.6461618882265
 31
0.0
  0
LINE
  5
4E2
330
19
100
AcDbEntity
  8
SEIHIN
  6
CONTINUOUS
 62
     3
 48
32.0
100
AcDbLine
 10
523.6832459010968
 20
738.2462618882264
 30
0.0
 11
420.4575459010968
 21
738.2462618882264
 31
0.0
  0
LINE
  5
4E3
330
19
100
AcDbEntity
  8
SEIHIN
  6
CONTINUOUS
 62
     3
 48
32.0
100
AcDbLine
 10
433.4573459010969
 20
637.6658618882266
 30
0.0
 11
440.4570459010968
 21
633.6245618882266
 31
0.0
  0
ARC
  5
4E4
330
19
100
AcDbEntity
  8
SEIHIN
  6
CONTINUOUS
 62
     3
 48
32.0
100
AcDbCircle
 10
459.8782459010968
 20
535.7438618882268
 30
0.0
 40
100.0000009999999
100
AcDbArc
 50
100.0189030130999
 51
113.2163910147999
  0
ARC
  5
4E5
330
19
100
AcDbEntity
  8
SEIHIN
  6
CONTINUOUS
 62
     3
 48
32.0
100
AcDbCircle
 10
459.8782459010968
 20
528.7438618882267
 30
0.0
 40
100.0000329999999
100
AcDbArc
 50
97.98570101280002
 51
113.2163910147999
  0
ARC
  5
4E6
330
19
100
AcDbEntity
  8
SEIHIN
  6
CONTINUOUS
 62
     3
 48
32.0
100
AcDbCircle
 10
459.8782459010968
 20
532.2438618882268
 30
0.0
 40
100.0000189999999
100
AcDbArc
 50
98.99167801290003
 51
113.2163910147999
  0
LINE
  5
4E7
330
19
100
AcDbEntity
  8
SEIHIN
  6
CONTINUOUS
 62
     3
 48
32.0
100
AcDbLine
 10
485.457545901097
 20
606.6461618882264
 30
0.0
 11
420.4575459010968
 21
606.6461618882264
 31
0.0
  0
LINE
  5
4E8
330
19
100
AcDbEntity
  8
SEIHIN
  6
CONTINUOUS
 62
     3
 48
32.0
100
AcDbLine
 10
472.657645901097
 20
608.6461618882265
 30
0.0
 11
420.4575459010968
 21
608.6461618882265
 31
0.0
  0
LINE
  5
4E9
330
19
100
AcDbEntity
  8
SEIHIN
  6
CONTINUOUS
 62
     3
 48
32.0
100
AcDbLine
 10
436.4569459010969
 20
642.8621618882265
 30
0.0
 11
443.4573459010969
 21
638.8204618882265
 31
0.0
  0
LINE
  5
4EA
330
19
100
AcDbEntity
  8
SEIHIN
  6
CONTINUOUS
 62
     3
 48
32.0
100
AcDbLine
 10
417.4573459010969
 20
680.3891618882265
 30
0.0
 11
417.4573459010969
 21
688.4717618882265
 31
0.0
  0
LINE
  5
4EB
330
19
100
AcDbEntity
  8
SEIHIN
  6
CONTINUOUS
 62
     3
 48
32.0
100
AcDbLine
 10
423.4573459010968
 20
680.3890618882266
 30
0.0
 11
423.4573459010968
 21
688.4716618882265
 31
0.0
  0
LINE
  5
4EC
330
19
100
AcDbEntity
  8
SEIHIN
  6
CONTINUOUS
 62
     3
 48
32.0
100
AcDbLine
 10
397.4573459010969
 20
680.3890618882266
 30
0.0
 11
397.4573459010969
 21
688.4716618882265
 31
0.0
  0
LINE
  5
4ED
330
19
100
AcDbEntity
  8
SEIHIN
  6
CONTINUOUS
 62
     3
 48
32.0
100
AcDbLine
 10
391.4580459010969
 20
680.3890618882266
 30
0.0
 11
391.4580459010969
 21
687.0463618882265
 31
0.0
  0
LINE
  5
4EE
330
19
100
AcDbEntity
  8
SEIHIN
  6
CONTINUOUS
 62
     3
 48
32.0
100
AcDbLine
 10
357.4673459010969
 20
663.6461618882265
 30
0.0
 11
355.4673459010968
 21
708.6461618882265
 31
0.0
  0
LINE
  5
4EF
330
19
100
AcDbEntity
  8
SEIHIN
  6
CONTINUOUS
 62
     3
 48
32.0
100
AcDbLine
 10
345.4574459010968
 20
708.6461618882265
 30
0.0
 11
347.4574459010968
 21
663.6461618882265
 31
0.0
  0
LINE
  5
4F0
330
19
100
AcDbEntity
  8
SEIHIN
  6
CONTINUOUS
 62
     3
 48
32.0
100
AcDbLine
 10
356.4663459010969
 20
708.6905618882266
 30
0.0
 11
358.4683459010968
 21
663.6461618882265
 31
0.0
  0
ARC
  5
4F1
330
19
100
AcDbEntity
  8
SEIHIN
  6
CONTINUOUS
 62
     3
 48
32.0
100
AcDbCircle
 10
391.4742459010968
 20
673.3703618882266
 30
0.0
 40
12.999986
100
AcDbArc
 50
90.0000000118
 51
168.0596790218999
  0
ARC
  5
4F2
330
19
100
AcDbEntity
  8
SEIHIN
  6
CONTINUOUS
 62
     3
 48
32.0
100
AcDbCircle
 10
387.0867459010969
 20
675.6462618882266
 30
0.0
 40
14.999957
100
AcDbArc
 50
95.56684801249998
 51
164.5339570214999
  0
ARC
  5
4F3
330
19
100
AcDbEntity
  8
SEIHIN
  6
CONTINUOUS
 62
     3
 48
32.0
100
AcDbCircle
 10
389.2581459010969
 20
674.5082618882265
 30
0.0
 40
14.000035
100
AcDbArc
 50
93.31681001219999
 51
166.3414390217
  0
LINE
  5
4F4
330
19
100
AcDbEntity
  8
SEIHIN
  6
CONTINUOUS
 62
     3
 48
32.0
100
AcDbLine
 10
355.4574459010968
 20
606.6461618882264
 30
0.0
 11
420.4575459010968
 21
606.6461618882264
 31
0.0
  0
LINE
  5
4F5
330
19
100
AcDbEntity
  8
SEIHIN
  6
CONTINUOUS
 62
     3
 48
32.0
100
AcDbLine
 10
368.2573459010968
 20
608.6461618882265
 30
0.0
 11
420.4575459010968
 21
608.6461618882265
 31
0.0
  0
ARC
  5
4F6
330
19
100
AcDbEntity
  8
SEIHIN
  6
CONTINUOUS
 62
     3
 48
32.0
100
AcDbCircle
 10
387.0867459010969
 20
651.6462618882266
 30
0.0
 40
15.000059
100
AcDbArc
 50
195.4659410255
 51
264.4328090345
  0
ARC
  5
4F7
330
19
100
AcDbEntity
  8
SEIHIN
  6
CONTINUOUS
 62
     3
 48
32.0
100
AcDbCircle
 10
648.3917459010967
 20
670.2722618882265
 30
0.0
 40
289.9999769999999
100
AcDbArc
 50
181.3091840236999
 51
191.624025025
  0
ARC
  5
4F8
330
19
100
AcDbEntity
  8
SEIHIN
  6
CONTINUOUS
 62
     3
 48
32.0
100
AcDbCircle
 10
647.1755459010969
 20
676.6505618882265
 30
0.0
 40
300.000093
100
AcDbArc
 50
182.4843590238
 51
193.4941790253
  0
ARC
  5
4F9
330
19
100
AcDbEntity
  8
SEIHIN
  6
CONTINUOUS
 62
     3
 48
32.0
100
AcDbCircle
 10
647.3917459010968
 20
670.2722618882265
 30
0.0
 40
290.000004
100
AcDbArc
 50
181.3091840236999
 51
192.6737540251999
  0
ARC
  5
4FA
330
19
100
AcDbEntity
  8
SEIHIN
  6
CONTINUOUS
 62
     3
 48
32.0
100
AcDbCircle
 10
350.0957459010969
 20
592.6372618882266
 30
0.0
 40
15.00002199999999
100
AcDbArc
 50
2.675149000299999
 51
69.05652600899999
  0
ARC
  5
4FB
330
19
100
AcDbEntity
  8
SEIHIN
  6
CONTINUOUS
 62
     3
 48
32.0
100
AcDbCircle
 10
368.2573459010968
 20
612.6461618882265
 30
0.0
 40
3.999963
100
AcDbArc
 50
191.623442025
 51
270.0000000353
  0
ARC
  5
4FC
330
19
100
AcDbEntity
  8
SEIHIN
  6
CONTINUOUS
 62
     3
 48
32.0
100
AcDbCircle
 10
430.4573459010969
 20
663.6459618882265
 30
0.0
 40
60.000007
100
AcDbArc
 50
179.9999050234999
 51
195.4658080254999
  0
ARC
  5
4FD
330
19
100
AcDbEntity
  8
SEIHIN
  6
CONTINUOUS
 62
     3
 48
32.0
100
AcDbCircle
 10
430.4573459010969
 20
663.6461618882265
 30
0.0
 40
60.000034
100
AcDbArc
 50
164.5340080215
 51
179.9999050234999
  0
LINE
  5
4FE
330
19
100
AcDbEntity
  8
SEIHIN
  6
CONTINUOUS
 62
     3
 48
32.0
100
AcDbLine
 10
433.4573459010969
 20
637.6658618882266
 30
0.0
 11
426.4576459010969
 21
633.6245618882266
 31
0.0
  0
LINE
  5
4FF
330
19
100
AcDbEntity
  8
SEIHIN
  6
CONTINUOUS
 62
     3
 48
32.0
100
AcDbLine
 10
426.4576459010969
 20
633.6245618882266
 30
0.0
 11
433.4573459010969
 21
637.6658618882266
 31
0.0
  0
LINE
  5
500
330
19
100
AcDbEntity
  8
SEIHIN
  6
CONTINUOUS
 62
     3
 48
32.0
100
AcDbLine
 10
407.4572459010969
 20
637.6659618882265
 30
0.0
 11
400.4575459010968
 21
633.6246618882265
 31
0.0
  0
ARC
  5
501
330
19
100
AcDbEntity
  8
SEIHIN
  6
CONTINUOUS
 62
     3
 48
32.0
100
AcDbCircle
 10
398.2283459010968
 20
640.8921618882266
 30
0.0
 40
9.99999
100
AcDbArc
 50
192.0321300250999
 51
261.0083690340999
  0
ARC
  5
502
330
19
100
AcDbEntity
  8
SEIHIN
  6
CONTINUOUS
 62
     3
 48
32.0
100
AcDbCircle
 10
396.4572459010969
 20
638.6675618882265
 30
0.0
 40
10.99999099999999
100
AcDbArc
 50
190.2135800247999
 51
262.0142030341999
  0
ARC
  5
503
330
19
100
AcDbEntity
  8
SEIHIN
  6
CONTINUOUS
 62
     3
 48
32.0
100
AcDbCircle
 10
399.9995459010968
 20
643.0817618882265
 30
0.0
 40
8.999988999999999
100
AcDbArc
 50
193.8727310253
 51
259.9807720339
  0
LINE
  5
504
330
19
100
AcDbEntity
  8
SEIHIN
  6
CONTINUOUS
 62
     3
 48
32.0
100
AcDbLine
 10
407.4572459010969
 20
637.6659618882265
 30
0.0
 11
414.4569459010969
 21
633.6246618882265
 31
0.0
  0
LINE
  5
505
330
19
100
AcDbEntity
  8
SEIHIN
  6
CONTINUOUS
 62
     3
 48
32.0
100
AcDbLine
 10
414.4569459010969
 20
633.6246618882265
 30
0.0
 11
407.4572459010969
 21
637.6659618882265
 31
0.0
  0
LINE
  5
506
330
19
100
AcDbEntity
  8
SEIHIN
  6
CONTINUOUS
 62
     3
 48
32.0
100
AcDbLine
 10
397.4572459010969
 20
635.3569618882265
 30
0.0
 11
397.4572459010969
 21
643.4394618882265
 31
0.0
  0
LINE
  5
507
330
19
100
AcDbEntity
  8
SEIHIN
  6
CONTINUOUS
 62
     3
 48
32.0
100
AcDbLine
 10
417.4572459010969
 20
635.3568618882266
 30
0.0
 11
417.4572459010969
 21
643.4394618882265
 31
0.0
  0
LINE
  5
508
330
19
100
AcDbEntity
  8
SEIHIN
  6
CONTINUOUS
 62
     3
 48
32.0
100
AcDbLine
 10
423.4573459010968
 20
635.3568618882266
 30
0.0
 11
423.4573459010968
 21
643.4393618882266
 31
0.0
  0
ARC
  5
509
330
19
100
AcDbEntity
  8
SEIHIN
  6
CONTINUOUS
 62
     3
 48
32.0
100
AcDbCircle
 10
381.0360459010969
 20
535.7439618882267
 30
0.0
 40
99.99999200000001
100
AcDbArc
 50
66.7835340087
 51
79.9809840104
  0
ARC
  5
50A
330
19
100
AcDbEntity
  8
SEIHIN
  6
CONTINUOUS
 62
     3
 48
32.0
100
AcDbCircle
 10
381.0360459010969
 20
532.2439618882267
 30
0.0
 40
99.999993
100
AcDbArc
 50
66.7835340087
 51
81.00832201060001
  0
ARC
  5
50B
330
19
100
AcDbEntity
  8
SEIHIN
  6
CONTINUOUS
 62
     3
 48
32.0
100
AcDbCircle
 10
381.0360459010969
 20
528.7439618882267
 30
0.0
 40
100.000014
100
AcDbArc
 50
66.7835340087
 51
82.0142420107
  0
LINE
  5
50C
330
19
100
AcDbEntity
  8
SEIHIN
  6
CONTINUOUS
 62
     3
 48
32.0
100
AcDbLine
 10
397.4572459010969
 20
635.3569618882265
 30
0.0
 11
399.8944459010969
 21
633.9497618882266
 31
0.0
  0
LINE
  5
50D
330
19
100
AcDbEntity
  8
SEIHIN
  6
CONTINUOUS
 62
     3
 48
32.0
100
AcDbLine
 10
420.4576459010969
 20
630.1605618882265
 30
0.0
 11
422.9971459010969
 21
628.6943618882266
 31
0.0
  0
LINE
  5
50E
330
19
100
AcDbEntity
  8
SEIHIN
  6
CONTINUOUS
 62
     3
 48
32.0
100
AcDbLine
 10
420.4569459010969
 20
630.1605618882265
 30
0.0
 11
417.9173459010969
 21
628.6943618882266
 31
0.0
  0
LINE
  5
50F
330
19
100
AcDbEntity
  8
SEIHIN
  6
CONTINUOUS
 62
     3
 48
32.0
100
AcDbLine
 10
417.4572459010969
 20
635.3568618882266
 30
0.0
 11
410.4569459010969
 21
631.3152618882265
 31
0.0
  0
LINE
  5
510
330
19
100
AcDbEntity
  8
SEIHIN
  6
CONTINUOUS
 62
     3
 48
32.0
100
AcDbLine
 10
423.4573459010968
 20
635.3568618882266
 30
0.0
 11
430.4576459010969
 21
631.3151618882265
 31
0.0
  0
LINE
  5
511
330
19
100
AcDbEntity
  8
SEIHIN
  6
CONTINUOUS
 62
     3
 48
32.0
100
AcDbLine
 10
407.4573459010968
 20
682.6982618882266
 30
0.0
 11
400.4576459010969
 21
678.6569618882265
 31
0.0
  0
LINE
  5
512
330
19
100
AcDbEntity
  8
SEIHIN
  6
CONTINUOUS
 62
     3
 48
32.0
100
AcDbLine
 10
407.4572459010969
 20
652.6766618882265
 30
0.0
 11
400.4575459010968
 21
648.6354618882265
 31
0.0
  0
LINE
  5
513
330
19
100
AcDbEntity
  8
SEIHIN
  6
CONTINUOUS
 62
     3
 48
32.0
100
AcDbLine
 10
407.4573459010968
 20
667.6873618882265
 30
0.0
 11
400.4576459010969
 21
663.6461618882265
 31
0.0
  0
LINE
  5
514
330
19
100
AcDbEntity
  8
SEIHIN
  6
CONTINUOUS
 62
     3
 48
32.0
100
AcDbLine
 10
394.4576459010969
 20
660.1821618882265
 30
0.0
 11
387.4578459010969
 21
656.1408618882266
 31
0.0
  0
LINE
  5
515
330
19
100
AcDbEntity
  8
SEIHIN
  6
CONTINUOUS
 62
     3
 48
32.0
100
AcDbLine
 10
394.4576459010969
 20
660.1821618882265
 30
0.0
 11
401.4572459010969
 21
656.1408618882266
 31
0.0
  0
LINE
  5
516
330
19
100
AcDbEntity
  8
SEIHIN
  6
CONTINUOUS
 62
     3
 48
32.0
100
AcDbLine
 10
401.4572459010969
 20
656.1408618882266
 30
0.0
 11
394.4576459010969
 21
660.1821618882265
 31
0.0
  0
LINE
  5
517
330
19
100
AcDbEntity
  8
SEIHIN
  6
CONTINUOUS
 62
     3
 48
32.0
100
AcDbLine
 10
384.4576459010969
 20
657.8730618882265
 30
0.0
 11
384.4576459010969
 21
665.9555618882266
 31
0.0
  0
LINE
  5
518
330
19
100
AcDbEntity
  8
SEIHIN
  6
CONTINUOUS
 62
     3
 48
32.0
100
AcDbLine
 10
404.4576459010969
 20
657.8729618882265
 30
0.0
 11
404.4576459010969
 21
665.9555618882266
 31
0.0
  0
ARC
  5
519
330
19
100
AcDbEntity
  8
SEIHIN
  6
CONTINUOUS
 62
     3
 48
32.0
100
AcDbCircle
 10
437.4573459010969
 20
663.6459618882265
 30
0.0
 40
60.000005
100
AcDbArc
 50
179.9999050234999
 51
191.9404510250999
  0
ARC
  5
51A
330
19
100
AcDbEntity
  8
SEIHIN
  6
CONTINUOUS
 62
     3
 48
32.0
100
AcDbCircle
 10
433.9573459010969
 20
663.6459618882265
 30
0.0
 40
59.999994
100
AcDbArc
 50
179.9999050234999
 51
193.6581460253
  0
LINE
  5
51B
330
19
100
AcDbEntity
  8
SEIHIN
  6
CONTINUOUS
 62
     3
 48
32.0
100
AcDbLine
 10
378.4582459010969
 20
657.8730618882265
 30
0.0
 11
378.4583459010968
 21
665.9556618882265
 31
0.0
  0
LINE
  5
51C
330
19
100
AcDbEntity
  8
SEIHIN
  6
CONTINUOUS
 62
     3
 48
32.0
100
AcDbLine
 10
391.4579459010969
 20
653.8314618882266
 30
0.0
 11
384.4576459010969
 21
657.8730618882265
 31
0.0
  0
LINE
  5
51D
330
19
100
AcDbEntity
  8
SEIHIN
  6
CONTINUOUS
 62
     3
 48
32.0
100
AcDbLine
 10
384.4576459010969
 20
657.8730618882265
 30
0.0
 11
391.4579459010969
 21
653.8312618882265
 31
0.0
  0
LINE
  5
51E
330
19
100
AcDbEntity
  8
SEIHIN
  6
CONTINUOUS
 62
     3
 48
32.0
100
AcDbLine
 10
391.4579459010969
 20
650.3676618882266
 30
0.0
 11
384.4576459010969
 21
646.3260618882266
 31
0.0
  0
LINE
  5
51F
330
19
100
AcDbEntity
  8
SEIHIN
  6
CONTINUOUS
 62
     3
 48
32.0
100
AcDbLine
 10
394.4576459010969
 20
645.1713618882266
 30
0.0
 11
387.9438459010969
 21
641.4105618882265
 31
0.0
  0
ARC
  5
520
330
19
100
AcDbEntity
  8
SEIHIN
  6
CONTINUOUS
 62
     3
 48
32.0
100
AcDbCircle
 10
391.4741459010969
 20
653.9219618882265
 30
0.0
 40
12.999986
100
AcDbArc
 50
191.9403210250999
 51
270.0000000353
  0
LINE
  5
521
330
19
100
AcDbEntity
  8
SEIHIN
  6
CONTINUOUS
 62
     3
 48
32.0
100
AcDbLine
 10
381.4579459010968
 20
652.6767618882265
 30
0.0
 11
388.4576459010969
 21
648.6354618882265
 31
0.0
  0
LINE
  5
522
330
19
100
AcDbEntity
  8
SEIHIN
  6
CONTINUOUS
 62
     3
 48
32.0
100
AcDbLine
 10
388.4576459010969
 20
648.6354618882265
 30
0.0
 11
381.4579459010968
 21
652.6767618882265
 31
0.0
  0
LINE
  5
523
330
19
100
AcDbEntity
  8
SEIHIN
  6
CONTINUOUS
 62
     3
 48
32.0
100
AcDbLine
 10
384.4575459010968
 20
642.8622618882266
 30
0.0
 11
384.4576459010969
 21
650.9448618882266
 31
0.0
  0
LINE
  5
524
330
19
100
AcDbEntity
  8
SEIHIN
  6
CONTINUOUS
 62
     3
 48
32.0
100
AcDbLine
 10
378.4582459010969
 20
657.8730618882265
 30
0.0
 11
377.7750459010969
 21
657.4786618882265
 31
0.0
  0
LINE
  5
525
330
19
100
AcDbEntity
  8
SEIHIN
  6
CONTINUOUS
 62
     3
 48
32.0
100
AcDbLine
 10
381.4579459010968
 20
652.6767618882265
 30
0.0
 11
378.7777459010968
 21
651.1292618882265
 31
0.0
  0
LINE
  5
526
330
19
100
AcDbEntity
  8
SEIHIN
  6
CONTINUOUS
 62
     3
 48
32.0
100
AcDbLine
 10
385.4572459010969
 20
636.6462618882266
 30
0.0
 11
385.5584459010969
 21
636.7243618882265
 31
0.0
  0
ARC
  5
527
330
19
100
AcDbEntity
  8
SEIHIN
  6
CONTINUOUS
 62
     3
 48
32.0
100
AcDbCircle
 10
389.2580459010969
 20
652.7841618882265
 30
0.0
 40
13.999973
100
AcDbArc
 50
193.6581630253
 51
266.6831660347999
  0
LINE
  5
528
330
19
100
AcDbEntity
  8
SEIHIN
  6
CONTINUOUS
 62
     3
 48
32.0
100
AcDbLine
 10
404.4576459010969
 20
657.8729618882265
 30
0.0
 11
397.4572459010969
 21
653.8314618882266
 31
0.0
  0
LINE
  5
529
330
19
100
AcDbEntity
  8
SEIHIN
  6
CONTINUOUS
 62
     3
 48
32.0
100
AcDbLine
 10
397.4572459010969
 20
650.3676618882266
 30
0.0
 11
397.4572459010969
 21
658.4502618882265
 31
0.0
  0
LINE
  5
52A
330
19
100
AcDbEntity
  8
SEIHIN
  6
CONTINUOUS
 62
     3
 48
32.0
100
AcDbLine
 10
404.4575459010968
 20
642.8623618882266
 30
0.0
 11
404.4576459010969
 21
650.9448618882266
 31
0.0
  0
LINE
  5
52B
330
19
100
AcDbEntity
  8
SEIHIN
  6
CONTINUOUS
 62
     3
 48
32.0
100
AcDbLine
 10
404.4576459010969
 20
646.3259618882265
 30
0.0
 11
397.4572459010969
 21
650.3676618882266
 31
0.0
  0
LINE
  5
52C
330
19
100
AcDbEntity
  8
SEIHIN
  6
CONTINUOUS
 62
     3
 48
32.0
100
AcDbLine
 10
397.4572459010969
 20
650.3676618882266
 30
0.0
 11
404.4576459010969
 21
646.3259618882265
 31
0.0
  0
LINE
  5
52D
330
19
100
AcDbEntity
  8
SEIHIN
  6
CONTINUOUS
 62
     3
 48
32.0
100
AcDbLine
 10
391.4579459010969
 20
650.3676618882266
 30
0.0
 11
391.4579459010969
 21
658.4502618882265
 31
0.0
  0
LINE
  5
52E
330
19
100
AcDbEntity
  8
SEIHIN
  6
CONTINUOUS
 62
     3
 48
32.0
100
AcDbLine
 10
391.4579459010969
 20
640.2461618882265
 30
0.0
 11
391.4579459010969
 21
643.4394618882265
 31
0.0
  0
LINE
  5
52F
330
19
100
AcDbEntity
  8
SEIHIN
  6
CONTINUOUS
 62
     3
 48
32.0
100
AcDbLine
 10
394.4576459010969
 20
645.1713618882266
 30
0.0
 11
401.4572459010969
 21
641.1300618882266
 31
0.0
  0
LINE
  5
530
330
19
100
AcDbEntity
  8
SEIHIN
  6
CONTINUOUS
 62
     3
 48
32.0
100
AcDbLine
 10
401.4572459010969
 20
641.1300618882266
 30
0.0
 11
394.4576459010969
 21
645.1713618882266
 31
0.0
  0
LINE
  5
531
330
19
100
AcDbEntity
  8
SEIHIN
  6
CONTINUOUS
 62
     3
 48
32.0
100
AcDbLine
 10
404.4575459010968
 20
642.8623618882266
 30
0.0
 11
397.4572459010969
 21
638.8206618882265
 31
0.0
  0
LINE
  5
532
330
19
100
AcDbEntity
  8
SEIHIN
  6
CONTINUOUS
 62
     3
 48
32.0
100
AcDbLine
 10
391.4580459010969
 20
680.3890618882266
 30
0.0
 11
384.4576459010969
 21
676.3474618882265
 31
0.0
  0
LINE
  5
533
330
19
100
AcDbEntity
  8
SEIHIN
  6
CONTINUOUS
 62
     3
 48
32.0
100
AcDbLine
 10
391.4580459010969
 20
668.8421618882265
 30
0.0
 11
384.4576459010969
 21
672.8837618882265
 31
0.0
  0
LINE
  5
534
330
19
100
AcDbEntity
  8
SEIHIN
  6
CONTINUOUS
 62
     3
 48
32.0
100
AcDbLine
 10
384.4576459010969
 20
672.8837618882265
 30
0.0
 11
391.4580459010969
 21
668.8420618882266
 31
0.0
  0
LINE
  5
535
330
19
100
AcDbEntity
  8
SEIHIN
  6
CONTINUOUS
 62
     3
 48
32.0
100
AcDbLine
 10
394.4576459010969
 20
675.1928618882266
 30
0.0
 11
387.4579459010968
 21
671.1514618882265
 31
0.0
  0
LINE
  5
536
330
19
100
AcDbEntity
  8
SEIHIN
  6
CONTINUOUS
 62
     3
 48
32.0
100
AcDbLine
 10
391.4580459010969
 20
665.3783618882265
 30
0.0
 11
384.4576459010969
 21
661.3367618882265
 31
0.0
  0
LINE
  5
537
330
19
100
AcDbEntity
  8
SEIHIN
  6
CONTINUOUS
 62
     3
 48
32.0
100
AcDbLine
 10
384.4576459010969
 20
672.8837618882265
 30
0.0
 11
384.4577459010969
 21
680.9663618882265
 31
0.0
  0
LINE
  5
538
330
19
100
AcDbEntity
  8
SEIHIN
  6
CONTINUOUS
 62
     3
 48
32.0
100
AcDbLine
 10
388.4577459010969
 20
678.6569618882265
 30
0.0
 11
382.0693459010968
 21
682.3452618882265
 31
0.0
  0
LINE
  5
539
330
19
100
AcDbEntity
  8
SEIHIN
  6
CONTINUOUS
 62
     3
 48
32.0
100
AcDbLine
 10
382.0693459010968
 20
682.3452618882265
 30
0.0
 11
388.4577459010969
 21
678.6569618882265
 31
0.0
  0
LINE
  5
53A
330
19
100
AcDbEntity
  8
SEIHIN
  6
CONTINUOUS
 62
     3
 48
32.0
100
AcDbLine
 10
381.4580459010969
 20
667.6874618882266
 30
0.0
 11
388.4576459010969
 21
663.6461618882265
 31
0.0
  0
LINE
  5
53B
330
19
100
AcDbEntity
  8
SEIHIN
  6
CONTINUOUS
 62
     3
 48
32.0
100
AcDbLine
 10
388.4576459010969
 20
663.6461618882265
 30
0.0
 11
381.4580459010969
 21
667.6874618882266
 31
0.0
  0
LINE
  5
53C
330
19
100
AcDbEntity
  8
SEIHIN
  6
CONTINUOUS
 62
     3
 48
32.0
100
AcDbLine
 10
378.4583459010968
 20
672.8837618882265
 30
0.0
 11
378.1447459010969
 21
672.7027618882265
 31
0.0
  0
ARC
  5
53D
330
19
100
AcDbEntity
  8
SEIHIN
  6
CONTINUOUS
 62
     3
 48
32.0
100
AcDbCircle
 10
433.9573459010969
 20
663.6461618882265
 30
0.0
 40
60.000017
100
AcDbArc
 50
166.3416680217
 51
179.9999050234999
  0
ARC
  5
53E
330
19
100
AcDbEntity
  8
SEIHIN
  6
CONTINUOUS
 62
     3
 48
32.0
100
AcDbCircle
 10
437.4573459010969
 20
663.6461618882265
 30
0.0
 40
60.000016
100
AcDbArc
 50
168.0594560219
 51
179.9999050234999
  0
LINE
  5
53F
330
19
100
AcDbEntity
  8
SEIHIN
  6
CONTINUOUS
 62
     3
 48
32.0
100
AcDbLine
 10
381.4580459010969
 20
667.6874618882266
 30
0.0
 11
377.4827459010968
 21
665.3923618882266
 31
0.0
  0
LINE
  5
540
330
19
100
AcDbEntity
  8
SEIHIN
  6
CONTINUOUS
 62
     3
 48
32.0
100
AcDbLine
 10
404.4576459010969
 20
676.3475618882266
 30
0.0
 11
397.4573459010969
 21
680.3892618882265
 31
0.0
  0
LINE
  5
541
330
19
100
AcDbEntity
  8
SEIHIN
  6
CONTINUOUS
 62
     3
 48
32.0
100
AcDbLine
 10
397.4573459010969
 20
680.3890618882266
 30
0.0
 11
404.4576459010969
 21
676.3474618882265
 31
0.0
  0
LINE
  5
542
330
19
100
AcDbEntity
  8
SEIHIN
  6
CONTINUOUS
 62
     3
 48
32.0
100
AcDbLine
 10
404.4576459010969
 20
672.8837618882265
 30
0.0
 11
404.4577459010969
 21
680.9663618882265
 31
0.0
  0
LINE
  5
543
330
19
100
AcDbEntity
  8
SEIHIN
  6
CONTINUOUS
 62
     3
 48
32.0
100
AcDbLine
 10
404.4576459010969
 20
672.8837618882265
 30
0.0
 11
397.4573459010969
 21
668.8421618882265
 31
0.0
  0
LINE
  5
544
330
19
100
AcDbEntity
  8
SEIHIN
  6
CONTINUOUS
 62
     3
 48
32.0
100
AcDbLine
 10
394.4576459010969
 20
675.1928618882266
 30
0.0
 11
401.4573459010969
 21
671.1514618882265
 31
0.0
  0
LINE
  5
545
330
19
100
AcDbEntity
  8
SEIHIN
  6
CONTINUOUS
 62
     3
 48
32.0
100
AcDbLine
 10
401.4573459010969
 20
671.1515618882265
 30
0.0
 11
394.4576459010969
 21
675.1928618882266
 31
0.0
  0
LINE
  5
546
330
19
100
AcDbEntity
  8
SEIHIN
  6
CONTINUOUS
 62
     3
 48
32.0
100
AcDbLine
 10
404.4576459010969
 20
661.3366618882265
 30
0.0
 11
397.4573459010969
 21
665.3784618882265
 31
0.0
  0
LINE
  5
547
330
19
100
AcDbEntity
  8
SEIHIN
  6
CONTINUOUS
 62
     3
 48
32.0
100
AcDbLine
 10
397.4573459010969
 20
665.3783618882265
 30
0.0
 11
404.4576459010969
 21
661.3366618882265
 31
0.0
  0
LINE
  5
548
330
19
100
AcDbEntity
  8
SEIHIN
  6
CONTINUOUS
 62
     3
 48
32.0
100
AcDbLine
 10
397.4573459010969
 20
665.3783618882265
 30
0.0
 11
397.4573459010969
 21
673.4609618882266
 31
0.0
  0
LINE
  5
549
330
19
100
AcDbEntity
  8
SEIHIN
  6
CONTINUOUS
 62
     3
 48
32.0
100
AcDbLine
 10
391.4580459010969
 20
665.3783618882265
 30
0.0
 11
391.4580459010969
 21
673.4609618882266
 31
0.0
  0
LINE
  5
54A
330
19
100
AcDbEntity
  8
SEIHIN
  6
CONTINUOUS
 62
     3
 48
32.0
100
AcDbLine
 10
420.4576459010969
 20
660.1820618882266
 30
0.0
 11
427.4573459010968
 21
656.1407618882266
 31
0.0
  0
LINE
  5
54B
330
19
100
AcDbEntity
  8
SEIHIN
  6
CONTINUOUS
 62
     3
 48
32.0
100
AcDbLine
 10
430.4576459010969
 20
657.8729618882265
 30
0.0
 11
430.4576459010969
 21
665.9555618882266
 31
0.0
  0
LINE
  5
54C
330
19
100
AcDbEntity
  8
SEIHIN
  6
CONTINUOUS
 62
     3
 48
32.0
100
AcDbLine
 10
436.4569459010969
 20
657.8729618882265
 30
0.0
 11
436.4569459010969
 21
665.9555618882266
 31
0.0
  0
LINE
  5
54D
330
19
100
AcDbEntity
  8
SEIHIN
  6
CONTINUOUS
 62
     3
 48
32.0
100
AcDbLine
 10
410.4569459010969
 20
657.8729618882265
 30
0.0
 11
410.4569459010969
 21
665.9555618882266
 31
0.0
  0
LINE
  5
54E
330
19
100
AcDbEntity
  8
SEIHIN
  6
CONTINUOUS
 62
     3
 48
32.0
100
AcDbLine
 10
420.4569459010969
 20
660.1820618882266
 30
0.0
 11
413.4572459010969
 21
656.1408618882266
 31
0.0
  0
LINE
  5
54F
330
19
100
AcDbEntity
  8
SEIHIN
  6
CONTINUOUS
 62
     3
 48
32.0
100
AcDbLine
 10
420.4576459010969
 20
645.1712618882265
 30
0.0
 11
427.4573459010968
 21
641.1299618882265
 31
0.0
  0
LINE
  5
550
330
19
100
AcDbEntity
  8
SEIHIN
  6
CONTINUOUS
 62
     3
 48
32.0
100
AcDbLine
 10
417.4572459010969
 20
650.3676618882266
 30
0.0
 11
417.4572459010969
 21
658.4501618882265
 31
0.0
  0
LINE
  5
551
330
19
100
AcDbEntity
  8
SEIHIN
  6
CONTINUOUS
 62
     3
 48
32.0
100
AcDbLine
 10
410.4569459010969
 20
642.8622618882266
 30
0.0
 11
410.4569459010969
 21
650.9448618882266
 31
0.0
  0
LINE
  5
552
330
19
100
AcDbEntity
  8
SEIHIN
  6
CONTINUOUS
 62
     3
 48
32.0
100
AcDbLine
 10
410.4569459010969
 20
657.8729618882265
 30
0.0
 11
417.4572459010969
 21
653.8313618882265
 31
0.0
  0
LINE
  5
553
330
19
100
AcDbEntity
  8
SEIHIN
  6
CONTINUOUS
 62
     3
 48
32.0
100
AcDbLine
 10
417.4572459010969
 20
653.8313618882265
 30
0.0
 11
410.4569459010969
 21
657.8729618882265
 31
0.0
  0
LINE
  5
554
330
19
100
AcDbEntity
  8
SEIHIN
  6
CONTINUOUS
 62
     3
 48
32.0
100
AcDbLine
 10
417.4572459010969
 20
650.3676618882266
 30
0.0
 11
410.4569459010969
 21
646.3259618882265
 31
0.0
  0
LINE
  5
555
330
19
100
AcDbEntity
  8
SEIHIN
  6
CONTINUOUS
 62
     3
 48
32.0
100
AcDbLine
 10
407.4572459010969
 20
652.6766618882265
 30
0.0
 11
414.4569459010969
 21
648.6353618882266
 31
0.0
  0
LINE
  5
556
330
19
100
AcDbEntity
  8
SEIHIN
  6
CONTINUOUS
 62
     3
 48
32.0
100
AcDbLine
 10
414.4569459010969
 20
648.6354618882265
 30
0.0
 11
407.4572459010969
 21
652.6766618882265
 31
0.0
  0
LINE
  5
557
330
19
100
AcDbEntity
  8
SEIHIN
  6
CONTINUOUS
 62
     3
 48
32.0
100
AcDbLine
 10
420.4569459010969
 20
645.1712618882265
 30
0.0
 11
413.4571459010969
 21
641.1299618882265
 31
0.0
  0
LINE
  5
558
330
19
100
AcDbEntity
  8
SEIHIN
  6
CONTINUOUS
 62
     3
 48
32.0
100
AcDbLine
 10
410.4569459010969
 20
642.8622618882266
 30
0.0
 11
417.4572459010969
 21
638.8205618882266
 31
0.0
  0
LINE
  5
559
330
19
100
AcDbEntity
  8
SEIHIN
  6
CONTINUOUS
 62
     3
 48
32.0
100
AcDbLine
 10
417.4572459010969
 20
638.8206618882265
 30
0.0
 11
410.4569459010969
 21
642.8623618882266
 31
0.0
  0
LINE
  5
55A
330
19
100
AcDbEntity
  8
SEIHIN
  6
CONTINUOUS
 62
     3
 48
32.0
100
AcDbLine
 10
430.4576459010969
 20
642.8621618882265
 30
0.0
 11
430.4576459010969
 21
650.9447618882266
 31
0.0
  0
LINE
  5
55B
330
19
100
AcDbEntity
  8
SEIHIN
  6
CONTINUOUS
 62
     3
 48
32.0
100
AcDbLine
 10
436.4569459010969
 20
642.8621618882265
 30
0.0
 11
436.4569459010969
 21
650.9447618882266
 31
0.0
  0
LINE
  5
55C
330
19
100
AcDbEntity
  8
SEIHIN
  6
CONTINUOUS
 62
     3
 48
32.0
100
AcDbLine
 10
423.4573459010968
 20
650.3676618882266
 30
0.0
 11
423.4573459010968
 21
658.4501618882265
 31
0.0
  0
LINE
  5
55D
330
19
100
AcDbEntity
  8
SEIHIN
  6
CONTINUOUS
 62
     3
 48
32.0
100
AcDbLine
 10
423.4573459010968
 20
653.8313618882265
 30
0.0
 11
430.4576459010969
 21
657.8729618882265
 31
0.0
  0
LINE
  5
55E
330
19
100
AcDbEntity
  8
SEIHIN
  6
CONTINUOUS
 62
     3
 48
32.0
100
AcDbLine
 10
430.4576459010969
 20
657.8729618882265
 30
0.0
 11
423.4573459010968
 21
653.8312618882265
 31
0.0
  0
LINE
  5
55F
330
19
100
AcDbEntity
  8
SEIHIN
  6
CONTINUOUS
 62
     3
 48
32.0
100
AcDbLine
 10
423.4573459010968
 20
650.3676618882266
 30
0.0
 11
430.4576459010969
 21
646.3259618882265
 31
0.0
  0
LINE
  5
560
330
19
100
AcDbEntity
  8
SEIHIN
  6
CONTINUOUS
 62
     3
 48
32.0
100
AcDbLine
 10
433.4573459010969
 20
652.6766618882265
 30
0.0
 11
426.4576459010969
 21
648.6353618882266
 31
0.0
  0
LINE
  5
561
330
19
100
AcDbEntity
  8
SEIHIN
  6
CONTINUOUS
 62
     3
 48
32.0
100
AcDbLine
 10
426.4576459010969
 20
648.6353618882266
 30
0.0
 11
433.4573459010969
 21
652.6766618882265
 31
0.0
  0
LINE
  5
562
330
19
100
AcDbEntity
  8
SEIHIN
  6
CONTINUOUS
 62
     3
 48
32.0
100
AcDbLine
 10
423.4573459010968
 20
638.8205618882266
 30
0.0
 11
430.4576459010969
 21
642.8622618882266
 31
0.0
  0
LINE
  5
563
330
19
100
AcDbEntity
  8
SEIHIN
  6
CONTINUOUS
 62
     3
 48
32.0
100
AcDbLine
 10
430.4576459010969
 20
642.8621618882265
 30
0.0
 11
423.4573459010968
 21
638.8204618882265
 31
0.0
  0
LINE
  5
564
330
19
100
AcDbEntity
  8
SEIHIN
  6
CONTINUOUS
 62
     3
 48
32.0
100
AcDbLine
 10
420.4576459010969
 20
675.1928618882266
 30
0.0
 11
427.4573459010968
 21
671.1514618882265
 31
0.0
  0
LINE
  5
565
330
19
100
AcDbEntity
  8
SEIHIN
  6
CONTINUOUS
 62
     3
 48
32.0
100
AcDbLine
 10
420.4575459010968
 20
663.6461618882265
 30
0.0
 11
420.4575459010968
 21
663.6461618882265
 31
0.0
  0
LINE
  5
566
330
19
100
AcDbEntity
  8
SEIHIN
  6
CONTINUOUS
 62
     3
 48
32.0
100
AcDbLine
 10
420.4575459010968
 20
663.6461618882265
 30
0.0
 11
420.4575459010968
 21
663.6461618882265
 31
0.0
  0
LINE
  5
567
330
19
100
AcDbEntity
  8
SEIHIN
  6
CONTINUOUS
 62
     3
 48
32.0
100
AcDbLine
 10
420.4575459010968
 20
663.6461618882265
 30
0.0
 11
420.4575459010968
 21
663.6461618882265
 31
0.0
  0
LINE
  5
568
330
19
100
AcDbEntity
  8
SEIHIN
  6
CONTINUOUS
 62
     3
 48
32.0
100
AcDbLine
 10
417.4573459010969
 20
665.3784618882265
 30
0.0
 11
417.4573459010969
 21
673.4609618882266
 31
0.0
  0
LINE
  5
569
330
19
100
AcDbEntity
  8
SEIHIN
  6
CONTINUOUS
 62
     3
 48
32.0
100
AcDbLine
 10
410.4569459010969
 20
672.8837618882265
 30
0.0
 11
410.4570459010968
 21
680.9663618882265
 31
0.0
  0
LINE
  5
56A
330
19
100
AcDbEntity
  8
SEIHIN
  6
CONTINUOUS
 62
     3
 48
32.0
100
AcDbLine
 10
417.4573459010969
 20
680.3891618882265
 30
0.0
 11
410.4569459010969
 21
676.3474618882265
 31
0.0
  0
LINE
  5
56B
330
19
100
AcDbEntity
  8
SEIHIN
  6
CONTINUOUS
 62
     3
 48
32.0
100
AcDbLine
 10
420.4569459010969
 20
675.1928618882266
 30
0.0
 11
413.4572459010969
 21
671.1515618882265
 31
0.0
  0
LINE
  5
56C
330
19
100
AcDbEntity
  8
SEIHIN
  6
CONTINUOUS
 62
     3
 48
32.0
100
AcDbLine
 10
417.4573459010969
 20
665.3784618882265
 30
0.0
 11
410.4569459010969
 21
661.3366618882265
 31
0.0
  0
LINE
  5
56D
330
19
100
AcDbEntity
  8
SEIHIN
  6
CONTINUOUS
 62
     3
 48
32.0
100
AcDbLine
 10
417.4573459010969
 20
668.8420618882266
 30
0.0
 11
410.4569459010969
 21
672.8837618882265
 31
0.0
  0
LINE
  5
56E
330
19
100
AcDbEntity
  8
SEIHIN
  6
CONTINUOUS
 62
     3
 48
32.0
100
AcDbLine
 10
414.4569459010969
 20
663.6461618882265
 30
0.0
 11
407.4573459010968
 21
667.6873618882265
 31
0.0
  0
LINE
  5
56F
330
19
100
AcDbEntity
  8
SEIHIN
  6
CONTINUOUS
 62
     3
 48
32.0
100
AcDbLine
 10
407.4573459010968
 20
667.6873618882265
 30
0.0
 11
414.4569459010969
 21
663.6461618882265
 31
0.0
  0
LINE
  5
570
330
19
100
AcDbEntity
  8
SEIHIN
  6
CONTINUOUS
 62
     3
 48
32.0
100
AcDbLine
 10
410.4569459010969
 20
672.8837618882265
 30
0.0
 11
417.4573459010969
 21
668.8420618882266
 31
0.0
  0
LINE
  5
571
330
19
100
AcDbEntity
  8
SEIHIN
  6
CONTINUOUS
 62
     3
 48
32.0
100
AcDbLine
 10
414.4570459010968
 20
678.6568618882265
 30
0.0
 11
407.4573459010968
 21
682.6982618882266
 31
0.0
  0
LINE
  5
572
330
19
100
AcDbEntity
  8
SEIHIN
  6
CONTINUOUS
 62
     3
 48
32.0
100
AcDbLine
 10
407.4573459010968
 20
682.6982618882266
 30
0.0
 11
414.4570459010968
 21
678.6568618882265
 31
0.0
  0
LINE
  5
573
330
19
100
AcDbEntity
  8
SEIHIN
  6
CONTINUOUS
 62
     3
 48
32.0
100
AcDbLine
 10
436.4569459010969
 20
672.8837618882265
 30
0.0
 11
436.4569459010969
 21
680.9662618882265
 31
0.0
  0
LINE
  5
574
330
19
100
AcDbEntity
  8
SEIHIN
  6
CONTINUOUS
 62
     3
 48
32.0
100
AcDbLine
 10
430.4576459010969
 20
672.8837618882265
 30
0.0
 11
430.4576459010969
 21
680.9662618882265
 31
0.0
  0
LINE
  5
575
330
19
100
AcDbEntity
  8
SEIHIN
  6
CONTINUOUS
 62
     3
 48
32.0
100
AcDbLine
 10
423.4573459010968
 20
680.3890618882266
 30
0.0
 11
430.4576459010969
 21
676.3474618882265
 31
0.0
  0
LINE
  5
576
330
19
100
AcDbEntity
  8
SEIHIN
  6
CONTINUOUS
 62
     3
 48
32.0
100
AcDbLine
 10
430.4576459010969
 20
672.8837618882265
 30
0.0
 11
423.4573459010968
 21
668.8420618882266
 31
0.0
  0
LINE
  5
577
330
19
100
AcDbEntity
  8
SEIHIN
  6
CONTINUOUS
 62
     3
 48
32.0
100
AcDbLine
 10
423.4573459010968
 20
668.8420618882266
 30
0.0
 11
430.4576459010969
 21
672.8837618882265
 31
0.0
  0
LINE
  5
578
330
19
100
AcDbEntity
  8
SEIHIN
  6
CONTINUOUS
 62
     3
 48
32.0
100
AcDbLine
 10
433.4573459010969
 20
682.6981618882265
 30
0.0
 11
426.4576459010969
 21
678.6568618882265
 31
0.0
  0
LINE
  5
579
330
19
100
AcDbEntity
  8
SEIHIN
  6
CONTINUOUS
 62
     3
 48
32.0
100
AcDbLine
 10
426.4576459010969
 20
678.6568618882265
 30
0.0
 11
433.4573459010969
 21
682.6981618882265
 31
0.0
  0
LINE
  5
57A
330
19
100
AcDbEntity
  8
SEIHIN
  6
CONTINUOUS
 62
     3
 48
32.0
100
AcDbLine
 10
423.4573459010968
 20
665.3783618882265
 30
0.0
 11
430.4576459010969
 21
661.3366618882265
 31
0.0
  0
LINE
  5
57B
330
19
100
AcDbEntity
  8
SEIHIN
  6
CONTINUOUS
 62
     3
 48
32.0
100
AcDbLine
 10
433.4573459010969
 20
667.6873618882265
 30
0.0
 11
426.4576459010969
 21
663.6461618882265
 31
0.0
  0
LINE
  5
57C
330
19
100
AcDbEntity
  8
SEIHIN
  6
CONTINUOUS
 62
     3
 48
32.0
100
AcDbLine
 10
426.4576459010969
 20
663.6461618882265
 30
0.0
 11
433.4573459010969
 21
667.6873618882265
 31
0.0
  0
LINE
  5
57D
330
19
100
AcDbEntity
  8
SEIHIN
  6
CONTINUOUS
 62
     3
 48
32.0
100
AcDbLine
 10
423.4573459010968
 20
665.3783618882265
 30
0.0
 11
423.4573459010968
 21
673.4609618882266
 31
0.0
  0
LINE
  5
57E
330
19
100
AcDbEntity
  8
SEIHIN
  6
CONTINUOUS
 62
     3
 48
32.0
100
AcDbLine
 10
317.3094459010968
 20
738.2462618882264
 30
0.0
 11
420.4575459010968
 21
738.2462618882264
 31
0.0
  0
LINE
  5
57F
330
19
100
AcDbEntity
  8
SEIHIN
  6
CONTINUOUS
 62
     3
 48
32.0
100
AcDbLine
 10
338.4407459010968
 20
719.6461618882265
 30
0.0
 11
420.4575459010968
 21
719.6461618882265
 31
0.0
  0
LINE
  5
580
330
19
100
AcDbEntity
  8
SEIHIN
  6
CONTINUOUS
 62
     3
 48
32.0
100
AcDbLine
 10
420.4575459010968
 20
714.6461618882264
 30
0.0
 11
367.4673459010969
 21
714.6461618882264
 31
0.0
  0
LINE
  5
581
330
19
100
AcDbEntity
  8
SEIHIN
  6
CONTINUOUS
 62
     3
 48
32.0
100
AcDbLine
 10
333.2434459010969
 20
722.6461618882265
 30
0.0
 11
420.4575459010968
 21
722.6461618882265
 31
0.0
  0
LINE
  5
582
330
19
100
AcDbEntity
  8
SEIHIN
  6
CONTINUOUS
 62
     3
 48
32.0
100
AcDbLine
 10
327.4407459010968
 20
735.2462618882265
 30
0.0
 11
420.4575459010968
 21
735.2462618882265
 31
0.0
  0
LINE
  5
583
330
19
100
AcDbEntity
  8
SEIHIN
  6
CONTINUOUS
 62
     3
 48
32.0
100
AcDbLine
 10
313.4407459010968
 20
755.2462618882265
 30
0.0
 11
420.4575459010968
 21
755.2462618882265
 31
0.0
  0
LINE
  5
584
330
19
100
AcDbEntity
  8
SEIHIN
  6
CONTINUOUS
 62
     3
 48
32.0
100
AcDbLine
 10
327.6081459010969
 20
734.1913618882265
 30
0.0
 11
328.5034459010969
 21
728.5433618882265
 31
0.0
  0
LINE
  5
585
330
19
100
AcDbEntity
  8
SEIHIN
  6
CONTINUOUS
 62
     3
 48
32.0
100
AcDbLine
 10
339.4407459010968
 20
709.6461618882265
 30
0.0
 11
345.4407459010969
 21
708.6461618882265
 31
0.0
  0
LINE
  5
586
330
19
100
AcDbEntity
  8
SEIHIN
  6
CONTINUOUS
 62
     3
 48
32.0
100
AcDbLine
 10
339.4407459010968
 20
709.6461618882265
 30
0.0
 11
356.2870459010969
 21
709.6461618882265
 31
0.0
  0
LINE
  5
587
330
19
100
AcDbEntity
  8
SEIHIN
  6
CONTINUOUS
 62
     3
 48
32.0
100
AcDbLine
 10
333.9660459010969
 20
721.1377618882266
 30
0.0
 11
338.4407459010968
 21
719.6461618882265
 31
0.0
  0
ARC
  5
588
330
19
100
AcDbEntity
  8
SEIHIN
  6
CONTINUOUS
 62
     3
 48
32.0
100
AcDbCircle
 10
338.3797459010969
 20
730.1109618882265
 30
0.0
 40
9.999971
100
AcDbArc
 50
188.1213510245999
 51
243.8085430318
  0
LINE
  5
589
330
19
100
AcDbEntity
  8
SEIHIN
  6
CONTINUOUS
 62
     3
 48
32.0
100
AcDbLine
 10
338.4407459010968
 20
719.6461618882265
 30
0.0
 11
339.4407459010968
 21
709.6461618882265
 31
0.0
  0
ARC
  5
58A
330
19
100
AcDbEntity
  8
SEIHIN
  6
CONTINUOUS
 62
     3
 48
32.0
100
AcDbCircle
 10
368.4673459010969
 20
699.6461618882265
 30
0.0
 40
15.0
100
AcDbArc
 50
90.0000000118
 51
143.1301020187
  0
ARC
  5
58B
330
19
100
AcDbEntity
  8
SEIHIN
  6
CONTINUOUS
 62
     3
 48
32.0
100
AcDbCircle
 10
367.4673459010969
 20
699.6461618882265
 30
0.0
 40
14.999985
100
AcDbArc
 50
90.0000000118
 51
138.189584018
  0
LINE
  5
58C
330
19
100
AcDbEntity
  8
SEIHIN
  6
CONTINUOUS
 62
     3
 48
32.0
100
AcDbLine
 10
345.4407459010969
 20
708.6461618882265
 30
0.0
 11
356.4673459010969
 21
708.6461618882265
 31
0.0
  0
ARC
  5
58D
330
19
100
AcDbEntity
  8
SEIHIN
  6
CONTINUOUS
 62
     3
 48
32.0
100
AcDbCircle
 10
342.9366459010968
 20
813.7311618882264
 30
0.0
 40
79.999964
100
AcDbArc
 50
251.1882280327999
 51
257.9880130337
  0
ARC
  5
58E
330
19
100
AcDbEntity
  8
SEIHIN
  6
CONTINUOUS
 62
     3
 48
32.0
100
AcDbCircle
 10
318.0782459010969
 20
739.7975618882266
 30
0.0
 40
2.000035
100
AcDbArc
 50
193.1468550252
 51
252.974779033
  0
ARC
  5
58F
330
19
100
AcDbEntity
  8
SEIHIN
  6
CONTINUOUS
 62
     3
 48
32.0
100
AcDbCircle
 10
393.2636459010968
 20
760.5677618882265
 30
0.0
 40
80.00005299999999
100
AcDbArc
 50
189.0127900247
 51
195.6385170255
  0
ARC
  5
590
330
19
100
AcDbEntity
  8
SEIHIN
  6
CONTINUOUS
 62
     3
 48
32.0
100
AcDbCircle
 10
325.6830459010968
 20
733.5684618882265
 30
0.0
 40
2.000029
100
AcDbArc
 50
10.8969960014
 51
75.5816050099
  0
ARC
  5
591
330
19
100
AcDbEntity
  8
SEIHIN
  6
CONTINUOUS
 62
     3
 48
32.0
100
AcDbCircle
 10
381.0368459010969
 20
791.5485618882265
 30
0.0
 40
99.99997200000001
100
AcDbArc
 50
280.0188460365999
 51
293.2163380383
  0
ARC
  5
592
330
19
100
AcDbEntity
  8
SEIHIN
  6
CONTINUOUS
 62
     3
 48
32.0
100
AcDbCircle
 10
381.0368459010969
 20
798.5485618882266
 30
0.0
 40
99.99995699999999
100
AcDbArc
 50
277.9856530362999
 51
293.2163380383
  0
ARC
  5
593
330
19
100
AcDbEntity
  8
SEIHIN
  6
CONTINUOUS
 62
     3
 48
32.0
100
AcDbCircle
 10
381.0368459010969
 20
795.0485618882265
 30
0.0
 40
99.99998300000001
100
AcDbArc
 50
278.9915650364
 51
293.2163380383
  0
ARC
  5
594
330
19
100
AcDbEntity
  8
SEIHIN
  6
CONTINUOUS
 62
     3
 48
32.0
100
AcDbCircle
 10
396.4573459010969
 20
688.6248618882265
 30
0.0
 40
11.0
100
AcDbArc
 50
97.98579701280001
 51
169.7859070221999
  0
LINE
  5
595
330
19
100
AcDbEntity
  8
SEIHIN
  6
CONTINUOUS
 62
     3
 48
32.0
100
AcDbLine
 10
387.9437459010969
 20
685.8818618882265
 30
0.0
 11
391.4580459010969
 21
683.8529618882265
 31
0.0
  0
LINE
  5
596
330
19
100
AcDbEntity
  8
SEIHIN
  6
CONTINUOUS
 62
     3
 48
32.0
100
AcDbLine
 10
391.4580459010969
 20
683.8529618882265
 30
0.0
 11
387.9438459010969
 21
685.8818618882265
 31
0.0
  0
ARC
  5
597
330
19
100
AcDbEntity
  8
SEIHIN
  6
CONTINUOUS
 62
     3
 48
32.0
100
AcDbCircle
 10
398.2285459010969
 20
686.4002618882266
 30
0.0
 40
10.000039
100
AcDbArc
 50
98.99154101290001
 51
167.9678700219
  0
LINE
  5
598
330
19
100
AcDbEntity
  8
SEIHIN
  6
CONTINUOUS
 62
     3
 48
32.0
100
AcDbLine
 10
385.4573459010969
 20
690.6461618882265
 30
0.0
 11
385.5585459010968
 21
690.5681618882265
 31
0.0
  0
LINE
  5
599
330
19
100
AcDbEntity
  8
SEIHIN
  6
CONTINUOUS
 62
     3
 48
32.0
100
AcDbLine
 10
404.4577459010969
 20
691.3582618882266
 30
0.0
 11
400.7347459010969
 21
693.5078618882265
 31
0.0
  0
LINE
  5
59A
330
19
100
AcDbEntity
  8
SEIHIN
  6
CONTINUOUS
 62
     3
 48
32.0
100
AcDbLine
 10
400.7347459010969
 20
693.5078618882265
 30
0.0
 11
404.4577459010969
 21
691.3582618882266
 31
0.0
  0
LINE
  5
59B
330
19
100
AcDbEntity
  8
SEIHIN
  6
CONTINUOUS
 62
     3
 48
32.0
100
AcDbLine
 10
404.4577459010969
 20
687.8945618882266
 30
0.0
 11
397.4573459010969
 21
683.8529618882265
 31
0.0
  0
LINE
  5
59C
330
19
100
AcDbEntity
  8
SEIHIN
  6
CONTINUOUS
 62
     3
 48
32.0
100
AcDbLine
 10
394.4577459010969
 20
690.2036618882265
 30
0.0
 11
401.4573459010969
 21
686.1623618882265
 31
0.0
  0
ARC
  5
59D
330
19
100
AcDbEntity
  8
SEIHIN
  6
CONTINUOUS
 62
     3
 48
32.0
100
AcDbCircle
 10
399.9996459010968
 20
684.2107618882265
 30
0.0
 40
8.999952999999999
100
AcDbArc
 50
100.0192280130999
 51
166.1264980217
  0
LINE
  5
59E
330
19
100
AcDbEntity
  8
SEIHIN
  6
CONTINUOUS
 62
     3
 48
32.0
100
AcDbLine
 10
404.4577459010969
 20
687.8945618882266
 30
0.0
 11
404.4577459010969
 21
694.3298618882265
 31
0.0
  0
LINE
  5
59F
330
19
100
AcDbEntity
  8
SEIHIN
  6
CONTINUOUS
 62
     3
 48
32.0
100
AcDbLine
 10
401.4573459010969
 20
686.1623618882265
 30
0.0
 11
394.4577459010969
 21
690.2036618882265
 31
0.0
  0
LINE
  5
5A0
330
19
100
AcDbEntity
  8
SEIHIN
  6
CONTINUOUS
 62
     3
 48
32.0
100
AcDbLine
 10
394.4577459010969
 20
690.2036618882265
 30
0.0
 11
392.3836459010968
 21
689.0061618882265
 31
0.0
  0
LINE
  5
5A1
330
19
100
AcDbEntity
  8
SEIHIN
  6
CONTINUOUS
 62
     3
 48
32.0
100
AcDbLine
 10
420.4576459010969
 20
690.2035618882266
 30
0.0
 11
427.4573459010968
 21
686.1622618882265
 31
0.0
  0
LINE
  5
5A2
330
19
100
AcDbEntity
  8
SEIHIN
  6
CONTINUOUS
 62
     3
 48
32.0
100
AcDbLine
 10
417.4574459010968
 20
695.3999618882265
 30
0.0
 11
417.4574459010968
 21
698.4166618882266
 31
0.0
  0
LINE
  5
5A3
330
19
100
AcDbEntity
  8
SEIHIN
  6
CONTINUOUS
 62
     3
 48
32.0
100
AcDbLine
 10
417.4574459010968
 20
695.3999618882265
 30
0.0
 11
410.4570459010968
 21
691.3582618882266
 31
0.0
  0
LINE
  5
5A4
330
19
100
AcDbEntity
  8
SEIHIN
  6
CONTINUOUS
 62
     3
 48
32.0
100
AcDbLine
 10
417.4573459010969
 20
683.8529618882265
 30
0.0
 11
410.4570459010968
 21
687.8945618882266
 31
0.0
  0
LINE
  5
5A5
330
19
100
AcDbEntity
  8
SEIHIN
  6
CONTINUOUS
 62
     3
 48
32.0
100
AcDbLine
 10
410.4570459010968
 20
687.8945618882266
 30
0.0
 11
417.4573459010969
 21
683.8527618882266
 31
0.0
  0
LINE
  5
5A6
330
19
100
AcDbEntity
  8
SEIHIN
  6
CONTINUOUS
 62
     3
 48
32.0
100
AcDbLine
 10
420.4570459010969
 20
690.2036618882265
 30
0.0
 11
413.4573459010969
 21
686.1622618882265
 31
0.0
  0
LINE
  5
5A7
330
19
100
AcDbEntity
  8
SEIHIN
  6
CONTINUOUS
 62
     3
 48
32.0
100
AcDbLine
 10
410.4570459010968
 20
687.8945618882266
 30
0.0
 11
410.4570459010968
 21
695.9770618882266
 31
0.0
  0
LINE
  5
5A8
330
19
100
AcDbEntity
  8
SEIHIN
  6
CONTINUOUS
 62
     3
 48
32.0
100
AcDbLine
 10
423.4573459010968
 20
695.3998618882266
 30
0.0
 11
423.4573459010968
 21
698.4166618882266
 31
0.0
  0
LINE
  5
5A9
330
19
100
AcDbEntity
  8
SEIHIN
  6
CONTINUOUS
 62
     3
 48
32.0
100
AcDbLine
 10
423.4573459010968
 20
695.3998618882266
 30
0.0
 11
430.4576459010969
 21
691.3582618882266
 31
0.0
  0
LINE
  5
5AA
330
19
100
AcDbEntity
  8
SEIHIN
  6
CONTINUOUS
 62
     3
 48
32.0
100
AcDbLine
 10
430.4576459010969
 20
687.8944618882266
 30
0.0
 11
423.4573459010968
 21
683.8527618882266
 31
0.0
  0
LINE
  5
5AB
330
19
100
AcDbEntity
  8
SEIHIN
  6
CONTINUOUS
 62
     3
 48
32.0
100
AcDbLine
 10
423.4573459010968
 20
683.8528618882265
 30
0.0
 11
430.4576459010969
 21
687.8945618882266
 31
0.0
  0
LINE
  5
5AC
330
19
100
AcDbEntity
  8
SEIHIN
  6
CONTINUOUS
 62
     3
 48
32.0
100
AcDbLine
 10
430.4576459010969
 20
687.8944618882266
 30
0.0
 11
430.4576459010969
 21
695.9770618882266
 31
0.0
  0
LINE
  5
5AD
330
19
100
AcDbEntity
  8
SEIHIN
  6
CONTINUOUS
 62
     3
 48
32.0
100
AcDbLine
 10
436.4569459010969
 20
687.8944618882266
 30
0.0
 11
436.4569459010969
 21
694.3298618882265
 31
0.0
  0
LINE
  5
5AE
330
19
100
AcDbEntity
  8
SEIHIN
  6
CONTINUOUS
 62
     3
 48
32.0
100
AcDbLine
 10
449.4566459010968
 20
680.3890618882266
 30
0.0
 11
449.4566459010968
 21
687.0462618882266
 31
0.0
  0
ARC
  5
5AF
330
19
100
AcDbEntity
  8
SEIHIN
  6
CONTINUOUS
 62
     3
 48
32.0
100
AcDbCircle
 10
449.4404459010969
 20
673.3702618882265
 30
0.0
 40
12.999996
100
AcDbArc
 50
11.9407530016
 51
90.0000000118
  0
LINE
  5
5B0
330
19
100
AcDbEntity
  8
SEIHIN
  6
CONTINUOUS
 62
     3
 48
32.0
100
AcDbLine
 10
483.447645901097
 20
663.6461618882265
 30
0.0
 11
485.4476459010969
 21
708.6461618882265
 31
0.0
  0
LINE
  5
5B1
330
19
100
AcDbEntity
  8
SEIHIN
  6
CONTINUOUS
 62
     3
 48
32.0
100
AcDbLine
 10
495.4575459010969
 20
708.6461618882265
 30
0.0
 11
493.457545901097
 21
663.6461618882265
 31
0.0
  0
LINE
  5
5B2
330
19
100
AcDbEntity
  8
SEIHIN
  6
CONTINUOUS
 62
     3
 48
32.0
100
AcDbLine
 10
484.4486459010969
 20
708.6905618882266
 30
0.0
 11
482.4466459010969
 21
663.6461618882265
 31
0.0
  0
ARC
  5
5B3
330
19
100
AcDbEntity
  8
SEIHIN
  6
CONTINUOUS
 62
     3
 48
32.0
100
AcDbCircle
 10
453.8278459010968
 20
675.6461618882265
 30
0.0
 40
15.00001
100
AcDbArc
 50
15.465941002
 51
84.432772011
  0
ARC
  5
5B4
330
19
100
AcDbEntity
  8
SEIHIN
  6
CONTINUOUS
 62
     3
 48
32.0
100
AcDbCircle
 10
451.6565459010969
 20
674.5082618882265
 30
0.0
 40
13.99996999999999
100
AcDbArc
 50
13.6581630018
 51
86.6835750113
  0
LINE
  5
5B5
330
19
100
AcDbEntity
  8
SEIHIN
  6
CONTINUOUS
 62
     3
 48
32.0
100
AcDbLine
 10
443.4573459010969
 20
680.3890618882266
 30
0.0
 11
443.4573459010969
 21
688.4716618882265
 31
0.0
  0
ARC
  5
5B6
330
19
100
AcDbEntity
  8
SEIHIN
  6
CONTINUOUS
 62
     3
 48
32.0
100
AcDbCircle
 10
444.4573459010968
 20
638.6674618882266
 30
0.0
 40
11.0
100
AcDbArc
 50
277.9857970363
 51
349.7859070457
  0
ARC
  5
5B7
330
19
100
AcDbEntity
  8
SEIHIN
  6
CONTINUOUS
 62
     3
 48
32.0
100
AcDbCircle
 10
442.6861459010969
 20
640.8920618882265
 30
0.0
 40
9.99999
100
AcDbArc
 50
278.9916310364
 51
347.9678700453999
  0
ARC
  5
5B8
330
19
100
AcDbEntity
  8
SEIHIN
  6
CONTINUOUS
 62
     3
 48
32.0
100
AcDbCircle
 10
440.915045901097
 20
643.0816618882265
 30
0.0
 40
8.999940999999999
100
AcDbArc
 50
280.0192280366
 51
346.1271160451999
  0
ARC
  5
5B9
330
19
100
AcDbEntity
  8
SEIHIN
  6
CONTINUOUS
 62
     3
 48
32.0
100
AcDbCircle
 10
453.8278459010968
 20
651.6461618882265
 30
0.0
 40
15.000011
100
AcDbArc
 50
275.5671910359999
 51
344.533957045
  0
LINE
  5
5BA
330
19
100
AcDbEntity
  8
SEIHIN
  6
CONTINUOUS
 62
     3
 48
32.0
100
AcDbLine
 10
443.4573459010969
 20
635.3568618882266
 30
0.0
 11
443.4573459010969
 21
643.4393618882266
 31
0.0
  0
ARC
  5
5BB
330
19
100
AcDbEntity
  8
SEIHIN
  6
CONTINUOUS
 62
     3
 48
32.0
100
AcDbCircle
 10
193.7395459010969
 20
676.6505618882265
 30
0.0
 40
300.0000029999999
100
AcDbArc
 50
346.5055990451999
 51
357.5154110466999
  0
ARC
  5
5BC
330
19
100
AcDbEntity
  8
SEIHIN
  6
CONTINUOUS
 62
     3
 48
32.0
100
AcDbCircle
 10
192.5232459010969
 20
670.2722618882265
 30
0.0
 40
290.0000079999999
100
AcDbArc
 50
348.3758360455
 51
358.6906580468
  0
ARC
  5
5BD
330
19
100
AcDbEntity
  8
SEIHIN
  6
CONTINUOUS
 62
     3
 48
32.0
100
AcDbCircle
 10
193.5232459010969
 20
670.2722618882265
 30
0.0
 40
290.000041
100
AcDbArc
 50
347.3260260453999
 51
358.6905790468
  0
LINE
  5
5BE
330
19
100
AcDbEntity
  8
SEIHIN
  6
CONTINUOUS
 62
     3
 48
32.0
100
AcDbLine
 10
443.4573459010969
 20
635.3568618882266
 30
0.0
 11
441.0200459010968
 21
633.9496618882265
 31
0.0
  0
ARC
  5
5BF
330
19
100
AcDbEntity
  8
SEIHIN
  6
CONTINUOUS
 62
     3
 48
32.0
100
AcDbCircle
 10
472.657645901097
 20
612.6461618882265
 30
0.0
 40
4.000011999999999
100
AcDbArc
 50
270.0000000353
 51
348.3768470455
  0
ARC
  5
5C0
330
19
100
AcDbEntity
  8
SEIHIN
  6
CONTINUOUS
 62
     3
 48
32.0
100
AcDbCircle
 10
490.8192459010969
 20
592.6372618882266
 30
0.0
 40
15.00002199999999
100
AcDbArc
 50
110.9434740144999
 51
177.3248510231999
  0
ARC
  5
5C1
330
19
100
AcDbEntity
  8
SEIHIN
  6
CONTINUOUS
 62
     3
 48
32.0
100
AcDbCircle
 10
406.9573459010968
 20
663.6460618882265
 30
0.0
 40
60.000029
100
AcDbArc
 50
346.3415750452
 51
359.9999050469999
  0
ARC
  5
5C2
330
19
100
AcDbEntity
  8
SEIHIN
  6
CONTINUOUS
 62
     3
 48
32.0
100
AcDbCircle
 10
410.4573459010969
 20
663.6460618882265
 30
0.0
 40
59.999986
100
AcDbArc
 50
344.533983045
 51
359.9999050469999
  0
LINE
  5
5C3
330
19
100
AcDbEntity
  8
SEIHIN
  6
CONTINUOUS
 62
     3
 48
32.0
100
AcDbLine
 10
446.4569459010968
 20
660.1820618882266
 30
0.0
 11
453.4567459010969
 21
656.1406618882265
 31
0.0
  0
ARC
  5
5C4
330
19
100
AcDbEntity
  8
SEIHIN
  6
CONTINUOUS
 62
     3
 48
32.0
100
AcDbCircle
 10
403.4573459010969
 20
663.6460618882265
 30
0.0
 40
60.000026
100
AcDbArc
 50
348.0593620454
 51
359.9998090469999
  0
LINE
  5
5C5
330
19
100
AcDbEntity
  8
SEIHIN
  6
CONTINUOUS
 62
     3
 48
32.0
100
AcDbLine
 10
456.4569459010969
 20
657.8729618882265
 30
0.0
 11
456.4569459010969
 21
665.9554618882265
 31
0.0
  0
LINE
  5
5C6
330
19
100
AcDbEntity
  8
SEIHIN
  6
CONTINUOUS
 62
     3
 48
32.0
100
AcDbLine
 10
462.4563459010969
 20
657.8729618882265
 30
0.0
 11
462.4563459010969
 21
665.9554618882265
 31
0.0
  0
LINE
  5
5C7
330
19
100
AcDbEntity
  8
SEIHIN
  6
CONTINUOUS
 62
     3
 48
32.0
100
AcDbLine
 10
446.4569459010968
 20
660.1820618882266
 30
0.0
 11
439.4573459010969
 21
656.1406618882265
 31
0.0
  0
LINE
  5
5C8
330
19
100
AcDbEntity
  8
SEIHIN
  6
CONTINUOUS
 62
     3
 48
32.0
100
AcDbLine
 10
439.4573459010969
 20
656.1406618882265
 30
0.0
 11
446.4569459010968
 21
660.1820618882266
 31
0.0
  0
LINE
  5
5C9
330
19
100
AcDbEntity
  8
SEIHIN
  6
CONTINUOUS
 62
     3
 48
32.0
100
AcDbLine
 10
449.4566459010968
 20
653.8312618882265
 30
0.0
 11
456.4569459010969
 21
657.8729618882265
 31
0.0
  0
LINE
  5
5CA
330
19
100
AcDbEntity
  8
SEIHIN
  6
CONTINUOUS
 62
     3
 48
32.0
100
AcDbLine
 10
456.4569459010969
 20
657.8729618882265
 30
0.0
 11
449.4566459010968
 21
653.8312618882265
 31
0.0
  0
LINE
  5
5CB
330
19
100
AcDbEntity
  8
SEIHIN
  6
CONTINUOUS
 62
     3
 48
32.0
100
AcDbLine
 10
449.4566459010968
 20
650.3675618882265
 30
0.0
 11
456.4569459010969
 21
646.3258618882265
 31
0.0
  0
LINE
  5
5CC
330
19
100
AcDbEntity
  8
SEIHIN
  6
CONTINUOUS
 62
     3
 48
32.0
100
AcDbLine
 10
459.456645901097
 20
652.6765618882266
 30
0.0
 11
452.4569459010969
 21
648.6353618882266
 31
0.0
  0
LINE
  5
5CD
330
19
100
AcDbEntity
  8
SEIHIN
  6
CONTINUOUS
 62
     3
 48
32.0
100
AcDbLine
 10
452.4569459010969
 20
648.6353618882266
 30
0.0
 11
459.456645901097
 21
652.6765618882266
 31
0.0
  0
ARC
  5
5CE
330
19
100
AcDbEntity
  8
SEIHIN
  6
CONTINUOUS
 62
     3
 48
32.0
100
AcDbCircle
 10
449.4404459010969
 20
653.9219618882265
 30
0.0
 40
12.999996
100
AcDbArc
 50
270.0000000353
 51
348.0592470454
  0
ARC
  5
5CF
330
19
100
AcDbEntity
  8
SEIHIN
  6
CONTINUOUS
 62
     3
 48
32.0
100
AcDbCircle
 10
451.6565459010969
 20
652.7840618882265
 30
0.0
 40
14.00001999999999
100
AcDbArc
 50
273.3164020357
 51
346.3418370451999
  0
LINE
  5
5D0
330
19
100
AcDbEntity
  8
SEIHIN
  6
CONTINUOUS
 62
     3
 48
32.0
100
AcDbLine
 10
449.4566459010968
 20
650.3675618882265
 30
0.0
 11
449.4566459010968
 21
658.4501618882265
 31
0.0
  0
LINE
  5
5D1
330
19
100
AcDbEntity
  8
SEIHIN
  6
CONTINUOUS
 62
     3
 48
32.0
100
AcDbLine
 10
443.4573459010969
 20
650.3675618882265
 30
0.0
 11
443.4573459010969
 21
658.4501618882265
 31
0.0
  0
LINE
  5
5D2
330
19
100
AcDbEntity
  8
SEIHIN
  6
CONTINUOUS
 62
     3
 48
32.0
100
AcDbLine
 10
446.4569459010968
 20
645.1712618882265
 30
0.0
 11
452.9707459010969
 21
641.4104618882265
 31
0.0
  0
LINE
  5
5D3
330
19
100
AcDbEntity
  8
SEIHIN
  6
CONTINUOUS
 62
     3
 48
32.0
100
AcDbLine
 10
446.4569459010968
 20
645.1712618882265
 30
0.0
 11
439.4573459010969
 21
641.1299618882265
 31
0.0
  0
LINE
  5
5D4
330
19
100
AcDbEntity
  8
SEIHIN
  6
CONTINUOUS
 62
     3
 48
32.0
100
AcDbLine
 10
439.4573459010969
 20
641.1299618882265
 30
0.0
 11
446.4569459010968
 21
645.1712618882265
 31
0.0
  0
LINE
  5
5D5
330
19
100
AcDbEntity
  8
SEIHIN
  6
CONTINUOUS
 62
     3
 48
32.0
100
AcDbLine
 10
449.4566459010968
 20
640.2460618882265
 30
0.0
 11
449.4566459010968
 21
643.4393618882266
 31
0.0
  0
LINE
  5
5D6
330
19
100
AcDbEntity
  8
SEIHIN
  6
CONTINUOUS
 62
     3
 48
32.0
100
AcDbLine
 10
459.456645901097
 20
652.6765618882266
 30
0.0
 11
462.136845901097
 21
651.1291618882266
 31
0.0
  0
LINE
  5
5D7
330
19
100
AcDbEntity
  8
SEIHIN
  6
CONTINUOUS
 62
     3
 48
32.0
100
AcDbLine
 10
456.4569459010969
 20
642.8621618882265
 30
0.0
 11
456.4569459010969
 21
650.9446618882265
 31
0.0
  0
LINE
  5
5D8
330
19
100
AcDbEntity
  8
SEIHIN
  6
CONTINUOUS
 62
     3
 48
32.0
100
AcDbLine
 10
462.4563459010969
 20
657.8729618882265
 30
0.0
 11
463.139545901097
 21
657.4784618882265
 31
0.0
  0
LINE
  5
5D9
330
19
100
AcDbEntity
  8
SEIHIN
  6
CONTINUOUS
 62
     3
 48
32.0
100
AcDbLine
 10
455.4573459010969
 20
636.6461618882265
 30
0.0
 11
455.3561459010969
 21
636.7241618882266
 31
0.0
  0
LINE
  5
5DA
330
19
100
AcDbEntity
  8
SEIHIN
  6
CONTINUOUS
 62
     3
 48
32.0
100
AcDbLine
 10
449.4566459010968
 20
680.3890618882266
 30
0.0
 11
456.4569459010969
 21
676.3474618882265
 31
0.0
  0
LINE
  5
5DB
330
19
100
AcDbEntity
  8
SEIHIN
  6
CONTINUOUS
 62
     3
 48
32.0
100
AcDbLine
 10
456.4569459010969
 20
672.8836618882265
 30
0.0
 11
449.4566459010968
 21
668.8419618882265
 31
0.0
  0
LINE
  5
5DC
330
19
100
AcDbEntity
  8
SEIHIN
  6
CONTINUOUS
 62
     3
 48
32.0
100
AcDbLine
 10
449.4566459010968
 20
668.8420618882266
 30
0.0
 11
456.4569459010969
 21
672.8836618882265
 31
0.0
  0
LINE
  5
5DD
330
19
100
AcDbEntity
  8
SEIHIN
  6
CONTINUOUS
 62
     3
 48
32.0
100
AcDbLine
 10
458.845345901097
 20
682.3451618882265
 30
0.0
 11
452.4569459010969
 21
678.6567618882266
 31
0.0
  0
LINE
  5
5DE
330
19
100
AcDbEntity
  8
SEIHIN
  6
CONTINUOUS
 62
     3
 48
32.0
100
AcDbLine
 10
452.4569459010969
 20
678.6567618882266
 30
0.0
 11
458.845345901097
 21
682.3451618882265
 31
0.0
  0
LINE
  5
5DF
330
19
100
AcDbEntity
  8
SEIHIN
  6
CONTINUOUS
 62
     3
 48
32.0
100
AcDbLine
 10
449.4566459010968
 20
665.3782618882265
 30
0.0
 11
456.4569459010969
 21
661.3366618882265
 31
0.0
  0
LINE
  5
5E0
330
19
100
AcDbEntity
  8
SEIHIN
  6
CONTINUOUS
 62
     3
 48
32.0
100
AcDbLine
 10
459.456645901097
 20
667.6873618882265
 30
0.0
 11
452.4569459010969
 21
663.6460618882265
 31
0.0
  0
LINE
  5
5E1
330
19
100
AcDbEntity
  8
SEIHIN
  6
CONTINUOUS
 62
     3
 48
32.0
100
AcDbLine
 10
452.4569459010969
 20
663.6460618882265
 30
0.0
 11
459.456645901097
 21
667.6873618882265
 31
0.0
  0
LINE
  5
5E2
330
19
100
AcDbEntity
  8
SEIHIN
  6
CONTINUOUS
 62
     3
 48
32.0
100
AcDbLine
 10
446.4569459010968
 20
675.1927618882265
 30
0.0
 11
453.4567459010969
 21
671.1514618882265
 31
0.0
  0
LINE
  5
5E3
330
19
100
AcDbEntity
  8
SEIHIN
  6
CONTINUOUS
 62
     3
 48
32.0
100
AcDbLine
 10
449.4566459010968
 20
665.3782618882265
 30
0.0
 11
449.4566459010968
 21
673.4608618882265
 31
0.0
  0
LINE
  5
5E4
330
19
100
AcDbEntity
  8
SEIHIN
  6
CONTINUOUS
 62
     3
 48
32.0
100
AcDbLine
 10
443.4573459010969
 20
665.3782618882265
 30
0.0
 11
443.4573459010969
 21
673.4608618882265
 31
0.0
  0
LINE
  5
5E5
330
19
100
AcDbEntity
  8
SEIHIN
  6
CONTINUOUS
 62
     3
 48
32.0
100
AcDbLine
 10
446.4569459010968
 20
675.1927618882265
 30
0.0
 11
439.4573459010969
 21
671.1514618882265
 31
0.0
  0
LINE
  5
5E6
330
19
100
AcDbEntity
  8
SEIHIN
  6
CONTINUOUS
 62
     3
 48
32.0
100
AcDbLine
 10
439.4573459010969
 20
671.1514618882265
 30
0.0
 11
446.4569459010968
 21
675.1927618882265
 31
0.0
  0
LINE
  5
5E7
330
19
100
AcDbEntity
  8
SEIHIN
  6
CONTINUOUS
 62
     3
 48
32.0
100
AcDbLine
 10
456.4569459010969
 20
672.8836618882265
 30
0.0
 11
456.4569459010969
 21
680.9662618882265
 31
0.0
  0
LINE
  5
5E8
330
19
100
AcDbEntity
  8
SEIHIN
  6
CONTINUOUS
 62
     3
 48
32.0
100
AcDbLine
 10
462.4563459010969
 20
672.8836618882265
 30
0.0
 11
462.769945901097
 21
672.7025618882265
 31
0.0
  0
ARC
  5
5E9
330
19
100
AcDbEntity
  8
SEIHIN
  6
CONTINUOUS
 62
     3
 48
32.0
100
AcDbCircle
 10
406.9573459010968
 20
663.6461618882265
 30
0.0
 40
60.000017
100
AcDbArc
 50
0.0
 51
13.65833200179999
  0
ARC
  5
5EA
330
19
100
AcDbEntity
  8
SEIHIN
  6
CONTINUOUS
 62
     3
 48
32.0
100
AcDbCircle
 10
410.4573459010969
 20
663.6461618882265
 30
0.0
 40
60.00002099999999
100
AcDbArc
 50
0.0
 51
15.465900002
  0
LINE
  5
5EB
330
19
100
AcDbEntity
  8
SEIHIN
  6
CONTINUOUS
 62
     3
 48
32.0
100
AcDbLine
 10
459.456645901097
 20
667.6873618882265
 30
0.0
 11
463.4319459010969
 21
665.3922618882265
 31
0.0
  0
ARC
  5
5EC
330
19
100
AcDbEntity
  8
SEIHIN
  6
CONTINUOUS
 62
     3
 48
32.0
100
AcDbCircle
 10
403.4573459010969
 20
663.6461618882265
 30
0.0
 40
60.000016
100
AcDbArc
 50
0.0
 51
11.9405440016
  0
LINE
  5
5ED
330
19
100
AcDbEntity
  8
SEIHIN
  6
CONTINUOUS
 62
     3
 48
32.0
100
AcDbLine
 10
506.9489459010968
 20
721.1377618882266
 30
0.0
 11
502.4743459010969
 21
719.6461618882265
 31
0.0
  0
ARC
  5
5EE
330
19
100
AcDbEntity
  8
SEIHIN
  6
CONTINUOUS
 62
     3
 48
32.0
100
AcDbCircle
 10
444.4573459010968
 20
688.6248618882265
 30
0.0
 40
10.99999099999999
100
AcDbArc
 50
10.21358000129999
 51
82.01420301069999
  0
LINE
  5
5EF
330
19
100
AcDbEntity
  8
SEIHIN
  6
CONTINUOUS
 62
     3
 48
32.0
100
AcDbLine
 10
452.9709459010969
 20
685.8817618882266
 30
0.0
 11
449.4566459010968
 21
683.8527618882266
 31
0.0
  0
LINE
  5
5F0
330
19
100
AcDbEntity
  8
SEIHIN
  6
CONTINUOUS
 62
     3
 48
32.0
100
AcDbLine
 10
449.4566459010968
 20
683.8528618882265
 30
0.0
 11
452.9708459010969
 21
685.8817618882266
 31
0.0
  0
LINE
  5
5F1
330
19
100
AcDbEntity
  8
SEIHIN
  6
CONTINUOUS
 62
     3
 48
32.0
100
AcDbLine
 10
446.4569459010968
 20
690.2034618882265
 30
0.0
 11
448.5310459010969
 21
689.0060618882265
 31
0.0
  0
ARC
  5
5F2
330
19
100
AcDbEntity
  8
SEIHIN
  6
CONTINUOUS
 62
     3
 48
32.0
100
AcDbCircle
 10
442.6861459010969
 20
686.4001618882265
 30
0.0
 40
9.999997
100
AcDbArc
 50
12.0321300016
 51
81.00780401059999
  0
LINE
  5
5F3
330
19
100
AcDbEntity
  8
SEIHIN
  6
CONTINUOUS
 62
     3
 48
32.0
100
AcDbLine
 10
446.4569459010968
 20
690.2034618882265
 30
0.0
 11
439.4573459010969
 21
686.1622618882265
 31
0.0
  0
LINE
  5
5F4
330
19
100
AcDbEntity
  8
SEIHIN
  6
CONTINUOUS
 62
     3
 48
32.0
100
AcDbLine
 10
439.4573459010969
 20
686.1622618882265
 30
0.0
 11
446.4569459010968
 21
690.2034618882265
 31
0.0
  0
ARC
  5
5F5
330
19
100
AcDbEntity
  8
SEIHIN
  6
CONTINUOUS
 62
     3
 48
32.0
100
AcDbCircle
 10
440.915045901097
 20
684.2106618882265
 30
0.0
 40
8.999940999999999
100
AcDbArc
 50
13.8728840018
 51
79.9807720104
  0
LINE
  5
5F6
330
19
100
AcDbEntity
  8
SEIHIN
  6
CONTINUOUS
 62
     3
 48
32.0
100
AcDbLine
 10
455.4573459010969
 20
690.6461618882265
 30
0.0
 11
455.3561459010969
 21
690.5680618882265
 31
0.0
  0
LINE
  5
5F7
330
19
100
AcDbEntity
  8
SEIHIN
  6
CONTINUOUS
 62
     3
 48
32.0
100
AcDbLine
 10
495.4743459010969
 20
708.6461618882265
 30
0.0
 11
484.4476459010969
 21
708.6461618882265
 31
0.0
  0
LINE
  5
5F8
330
19
100
AcDbEntity
  8
SEIHIN
  6
CONTINUOUS
 62
     3
 48
32.0
100
AcDbLine
 10
501.4743459010969
 20
709.6461618882265
 30
0.0
 11
484.6279459010969
 21
709.6461618882265
 31
0.0
  0
ARC
  5
5F9
330
19
100
AcDbEntity
  8
SEIHIN
  6
CONTINUOUS
 62
     3
 48
32.0
100
AcDbCircle
 10
473.4476459010969
 20
699.6461618882265
 30
0.0
 40
15.00002199999999
100
AcDbArc
 50
41.8101620055
 51
90.0000000118
  0
ARC
  5
5FA
330
19
100
AcDbEntity
  8
SEIHIN
  6
CONTINUOUS
 62
     3
 48
32.0
100
AcDbCircle
 10
472.4476459010969
 20
699.6461618882265
 30
0.0
 40
15.0
100
AcDbArc
 50
36.8698980048
 51
90.0000000118
  0
LINE
  5
5FB
330
19
100
AcDbEntity
  8
SEIHIN
  6
CONTINUOUS
 62
     3
 48
32.0
100
AcDbLine
 10
501.4743459010969
 20
709.6461618882265
 30
0.0
 11
495.4743459010969
 21
708.6461618882265
 31
0.0
  0
LINE
  5
5FC
330
19
100
AcDbEntity
  8
SEIHIN
  6
CONTINUOUS
 62
     3
 48
32.0
100
AcDbLine
 10
502.4743459010969
 20
719.6461618882265
 30
0.0
 11
501.4743459010969
 21
709.6461618882265
 31
0.0
  0
LINE
  5
5FD
330
19
100
AcDbEntity
  8
SEIHIN
  6
CONTINUOUS
 62
     3
 48
32.0
100
AcDbLine
 10
513.3068459010969
 20
734.1913618882265
 30
0.0
 11
512.4115459010968
 21
728.5433618882265
 31
0.0
  0
ARC
  5
5FE
330
19
100
AcDbEntity
  8
SEIHIN
  6
CONTINUOUS
 62
     3
 48
32.0
100
AcDbCircle
 10
502.535245901097
 20
730.1109618882265
 30
0.0
 40
10.0
100
AcDbArc
 50
296.1919710386999
 51
351.8780820458999
  0
ARC
  5
5FF
330
19
100
AcDbEntity
  8
SEIHIN
  6
CONTINUOUS
 62
     3
 48
32.0
100
AcDbCircle
 10
511.7435459010969
 20
833.6843618882266
 30
0.0
 40
79.999959
100
AcDbArc
 50
286.7183700373999
 51
292.8817350382
  0
ARC
  5
600
330
19
100
AcDbEntity
  8
SEIHIN
  6
CONTINUOUS
 62
     3
 48
32.0
100
AcDbCircle
 10
541.0242459010969
 20
743.3977618882265
 30
0.0
 40
14.99991
100
AcDbArc
 50
113.5374940148
 51
164.8107450215
  0
ARC
  5
601
330
19
100
AcDbEntity
  8
SEIHIN
  6
CONTINUOUS
 62
     3
 48
32.0
100
AcDbCircle
 10
497.9783459010969
 20
813.7311618882264
 30
0.0
 40
80.00003799999999
100
AcDbArc
 50
282.0118320367999
 51
288.8115220377
  0
ARC
  5
602
330
19
100
AcDbEntity
  8
SEIHIN
  6
CONTINUOUS
 62
     3
 48
32.0
100
AcDbCircle
 10
515.2319459010969
 20
733.5684618882265
 30
0.0
 40
1.999978999999999
100
AcDbArc
 50
104.4183950135999
 51
169.1024620221
  0
ARC
  5
603
330
19
100
AcDbEntity
  8
SEIHIN
  6
CONTINUOUS
 62
     3
 48
32.0
100
AcDbCircle
 10
447.6514459010969
 20
760.5677618882265
 30
0.0
 40
80.00000599999999
100
AcDbArc
 50
344.361326045
 51
350.9869860458
  0
ARC
  5
604
330
19
100
AcDbEntity
  8
SEIHIN
  6
CONTINUOUS
 62
     3
 48
32.0
100
AcDbCircle
 10
522.8368459010969
 20
739.7975618882266
 30
0.0
 40
1.999985999999999
100
AcDbArc
 50
287.0252210374999
 51
346.8524930452999
  0
ARC
  5
605
330
19
100
AcDbEntity
  8
SEIHIN
  6
CONTINUOUS
 62
     3
 48
32.0
100
AcDbCircle
 10
541.8625459010968
 20
761.7253618882265
 30
0.0
 40
1.99998
100
AcDbArc
 50
297.8861010389
 51
337.048924044
  0
LINE
  5
606
330
19
100
AcDbEntity
  8
SEIHIN
  6
CONTINUOUS
 62
     3
 48
32.0
100
AcDbLine
 10
550.4742459010969
 20
789.2462618882265
 30
0.0
 11
420.4575459010968
 21
789.2462618882265
 31
0.0
  0
LINE
  5
607
330
19
100
AcDbEntity
  8
SEIHIN
  6
CONTINUOUS
 62
     3
 48
32.0
100
AcDbLine
 10
550.4742459010969
 20
783.2462618882265
 30
0.0
 11
420.4575459010968
 21
783.2462618882265
 31
0.0
  0
LINE
  5
608
330
19
100
AcDbEntity
  8
SEIHIN
  6
CONTINUOUS
 62
     3
 48
32.0
100
AcDbLine
 10
548.474245901097
 20
781.2462618882265
 30
0.0
 11
420.4575459010968
 21
781.2462618882265
 31
0.0
  0
LINE
  5
609
330
19
100
AcDbEntity
  8
SEIHIN
  6
CONTINUOUS
 62
     3
 48
32.0
100
AcDbLine
 10
550.4575459010968
 20
783.2462618882265
 30
0.0
 11
550.4575459010968
 21
789.2462618882265
 31
0.0
  0
ARC
  5
60A
330
19
100
AcDbEntity
  8
SEIHIN
  6
CONTINUOUS
 62
     3
 48
32.0
100
AcDbCircle
 10
550.4742459010969
 20
781.2462618882265
 30
0.0
 40
2.0
100
AcDbArc
 50
90.0000000118
 51
180.0000000234999
  0
ARC
  5
60B
330
19
100
AcDbEntity
  8
SEIHIN
  6
CONTINUOUS
 62
     3
 48
32.0
100
AcDbCircle
 10
833.3233459010969
 20
785.5809618882266
 30
0.0
 40
80.0
100
AcDbArc
 50
183.1058770239
 51
197.9884360258999
  0
LINE
  5
60C
330
19
100
AcDbEntity
  8
SEIHIN
  6
CONTINUOUS
 62
     3
 48
32.0
100
AcDbLine
 10
811.4407459010969
 20
658.3461618882266
 30
0.0
 11
808.440745901097
 21
708.6462618882266
 31
0.0
  0
LINE
  5
60D
330
19
100
AcDbEntity
  8
SEIHIN
  6
CONTINUOUS
 62
     3
 48
32.0
100
AcDbLine
 10
804.4407459010969
 20
658.3461618882266
 30
0.0
 11
802.1968459010968
 21
695.9689618882265
 31
0.0
  0
LINE
  5
60E
330
19
100
AcDbEntity
  8
SEIHIN
  6
CONTINUOUS
 62
     3
 48
32.0
100
AcDbLine
 10
805.440745901097
 20
708.6462618882266
 30
0.0
 11
808.440745901097
 21
658.3461618882266
 31
0.0
  0
ARC
  5
60F
330
19
100
AcDbEntity
  8
SEIHIN
  6
CONTINUOUS
 62
     3
 48
32.0
100
AcDbCircle
 10
1109.844945901097
 20
689.2473618882266
 30
0.0
 40
299.999903
100
AcDbArc
 50
185.9121060243
 51
195.9820030256
  0
ARC
  5
610
330
19
100
AcDbEntity
  8
SEIHIN
  6
CONTINUOUS
 62
     3
 48
32.0
100
AcDbCircle
 10
1106.844945901097
 20
689.2473618882266
 30
0.0
 40
299.999903
100
AcDbArc
 50
185.9121060243
 51
195.9820030256
  0
ARC
  5
611
330
19
100
AcDbEntity
  8
SEIHIN
  6
CONTINUOUS
 62
     3
 48
32.0
100
AcDbCircle
 10
1102.844945901097
 20
689.2473618882266
 30
0.0
 40
299.999859
100
AcDbArc
 50
185.9121060243
 51
191.8086470249999
  0
LINE
  5
612
330
19
100
AcDbEntity
  8
SEIHIN
  6
CONTINUOUS
 62
     3
 48
32.0
100
AcDbLine
 10
810.1156459010969
 20
626.5523618882265
 30
0.0
 11
813.9230459010969
 21
624.2463618882266
 31
0.0
  0
ARC
  5
613
330
19
100
AcDbEntity
  8
SEIHIN
  6
CONTINUOUS
 62
     3
 48
32.0
100
AcDbCircle
 10
811.1518459010969
 20
628.2629618882265
 30
0.0
 40
1.999971
100
AcDbArc
 50
191.8088380249999
 51
238.7969660311999
  0
ARC
  5
614
330
19
100
AcDbEntity
  8
SEIHIN
  6
CONTINUOUS
 62
     3
 48
32.0
100
AcDbCircle
 10
759.8908459010967
 20
743.3977618882265
 30
0.0
 40
15.000024
100
AcDbArc
 50
15.189155002
 51
66.46230800869999
  0
ARC
  5
615
330
19
100
AcDbEntity
  8
SEIHIN
  6
CONTINUOUS
 62
     3
 48
32.0
100
AcDbCircle
 10
759.0525459010969
 20
761.7255618882266
 30
0.0
 40
2.000023999999999
100
AcDbArc
 50
202.9510760264999
 51
242.1152390316
  0
ARC
  5
616
330
19
100
AcDbEntity
  8
SEIHIN
  6
CONTINUOUS
 62
     3
 48
32.0
100
AcDbCircle
 10
789.1714459010968
 20
833.6845618882264
 30
0.0
 40
80.00005299999999
100
AcDbArc
 50
247.1182270322999
 51
253.2814930330999
  0
LINE
  5
617
330
19
100
AcDbEntity
  8
SEIHIN
  6
CONTINUOUS
 62
     3
 48
32.0
100
AcDbLine
 10
787.6082459010968
 20
734.1914618882265
 30
0.0
 11
788.5035459010969
 21
728.5433618882265
 31
0.0
  0
LINE
  5
618
330
19
100
AcDbEntity
  8
SEIHIN
  6
CONTINUOUS
 62
     3
 48
32.0
100
AcDbLine
 10
799.440745901097
 20
709.6462618882266
 30
0.0
 11
805.440745901097
 21
708.6462618882266
 31
0.0
  0
LINE
  5
619
330
19
100
AcDbEntity
  8
SEIHIN
  6
CONTINUOUS
 62
     3
 48
32.0
100
AcDbLine
 10
793.9660459010967
 20
721.1378618882265
 30
0.0
 11
798.4407459010969
 21
719.6462618882265
 31
0.0
  0
ARC
  5
61A
330
19
100
AcDbEntity
  8
SEIHIN
  6
CONTINUOUS
 62
     3
 48
32.0
100
AcDbCircle
 10
798.3798459010968
 20
730.1110618882265
 30
0.0
 40
9.999992999999999
100
AcDbArc
 50
188.1213510245999
 51
243.8080290318
  0
LINE
  5
61B
330
19
100
AcDbEntity
  8
SEIHIN
  6
CONTINUOUS
 62
     3
 48
32.0
100
AcDbLine
 10
798.4407459010969
 20
719.6462618882265
 30
0.0
 11
799.440745901097
 21
709.6462618882266
 31
0.0
  0
ARC
  5
61C
330
19
100
AcDbEntity
  8
SEIHIN
  6
CONTINUOUS
 62
     3
 48
32.0
100
AcDbCircle
 10
830.6406459010968
 20
705.1464618882265
 30
0.0
 40
3.5
100
AcDbArc
 50
90.0000000118
 51
180.0000000234999
  0
LINE
  5
61D
330
19
100
AcDbEntity
  8
SEIHIN
  6
CONTINUOUS
 62
     3
 48
32.0
100
AcDbLine
 10
805.9443459010969
 20
700.2032618882266
 30
0.0
 11
802.8974459010969
 21
697.6113618882266
 31
0.0
  0
ARC
  5
61E
330
19
100
AcDbEntity
  8
SEIHIN
  6
CONTINUOUS
 62
     3
 48
32.0
100
AcDbCircle
 10
804.1932459010968
 20
696.0880618882265
 30
0.0
 40
1.999949999999999
100
AcDbArc
 50
130.3884390169999
 51
183.414070024
  0
ARC
  5
61F
330
19
100
AcDbEntity
  8
SEIHIN
  6
CONTINUOUS
 62
     3
 48
32.0
100
AcDbCircle
 10
830.6406459010968
 20
703.1464618882266
 30
0.0
 40
3.5
100
AcDbArc
 50
180.0000000234999
 51
270.0000000353
  0
LINE
  5
620
330
19
100
AcDbEntity
  8
SEIHIN
  6
CONTINUOUS
 62
     3
 48
32.0
100
AcDbLine
 10
827.1406459010968
 20
703.1464618882266
 30
0.0
 11
827.1406459010968
 21
705.1463618882266
 31
0.0
  0
ARC
  5
621
330
19
100
AcDbEntity
  8
SEIHIN
  6
CONTINUOUS
 62
     3
 48
32.0
100
AcDbCircle
 10
802.9366459010969
 20
813.7312618882265
 30
0.0
 40
79.999948
100
AcDbArc
 50
251.1882960328
 51
257.9880130337
  0
ARC
  5
622
330
19
100
AcDbEntity
  8
SEIHIN
  6
CONTINUOUS
 62
     3
 48
32.0
100
AcDbCircle
 10
778.0782459010968
 20
739.7976618882266
 30
0.0
 40
1.999985999999999
100
AcDbArc
 50
193.1475070252
 51
252.974779033
  0
ARC
  5
623
330
19
100
AcDbEntity
  8
SEIHIN
  6
CONTINUOUS
 62
     3
 48
32.0
100
AcDbCircle
 10
853.2636459010969
 20
760.5678618882266
 30
0.0
 40
80.000005
100
AcDbArc
 50
189.0127900247
 51
195.6385360255
  0
ARC
  5
624
330
19
100
AcDbEntity
  8
SEIHIN
  6
CONTINUOUS
 62
     3
 48
32.0
100
AcDbCircle
 10
785.6831459010968
 20
733.5684618882265
 30
0.0
 40
1.999978999999999
100
AcDbArc
 50
10.8975380014
 51
75.5816050099
  0
LINE
  5
625
330
19
100
AcDbEntity
  8
SEIHIN
  6
CONTINUOUS
 62
     3
 48
32.0
100
AcDbLine
 10
752.4408459010969
 20
781.2463618882266
 30
0.0
 11
826.1190459010968
 21
781.2463618882266
 31
0.0
  0
LINE
  5
626
330
19
100
AcDbEntity
  8
SEIHIN
  6
CONTINUOUS
 62
     3
 48
32.0
100
AcDbLine
 10
750.4408459010969
 20
783.2463618882266
 30
0.0
 11
825.1994459010969
 21
783.2463618882266
 31
0.0
  0
LINE
  5
627
330
19
100
AcDbEntity
  8
SEIHIN
  6
CONTINUOUS
 62
     3
 48
32.0
100
AcDbLine
 10
750.4408459010969
 20
789.2463618882266
 30
0.0
 11
816.032245901097
 21
789.2463618882266
 31
0.0
  0
ARC
  5
628
330
19
100
AcDbEntity
  8
SEIHIN
  6
CONTINUOUS
 62
     3
 48
32.0
100
AcDbCircle
 10
750.4408459010969
 20
781.2463618882266
 30
0.0
 40
2.0
100
AcDbArc
 50
0.0
 51
90.0000000118
  0
LINE
  5
629
330
19
100
AcDbEntity
  8
SEIHIN
  6
CONTINUOUS
 62
     3
 48
32.0
100
AcDbLine
 10
750.4575459010968
 20
783.2463618882266
 30
0.0
 11
750.4575459010968
 21
789.2463618882266
 31
0.0
  0
ARC
  5
62A
330
19
100
AcDbEntity
  8
SEIHIN
  6
CONTINUOUS
 62
     3
 48
32.0
100
AcDbCircle
 10
816.032245901097
 20
779.2463618882266
 30
0.0
 40
9.999993999999999
100
AcDbArc
 50
24.6913850032
 51
90.0000000118
  0
DIMENSION
  5
62B
330
19
100
AcDbEntity
  8
SUNPOU
  6
CONTINUOUS
 62
     4
 48
32.0
100
AcDbDimension
  2
*D7
 10
868.7015718698971
 20
508.3590798597269
 30
0.0
 11
914.6509851464866
 21
421.2327494310317
 31
0.0
 70
    34
  3
STANDARD
100
AcDb2LineAngularDimension
 13
884.4405459010967
 23
473.0891612955447
 33
0.0
 14
884.4405459010967
 24
690.2353035549265
 34
0.0
 15
1026.301571869897
 25
480.5696798597273
 35
0.0
 16
964.3302422447431
 26
446.1080356049454
 36
0.0
1001
ACAD
1000
DSTYLE
1002
{
1070
   271
1070
     0
1070
   271
1070
     0
1070
   140
1040
12.0
1070
    74
1070
     0
1070
    73
1070
     0
1070
   272
1070
     0
1070
    77
1070
     3
1070
   173
1070
     1
1070
   280
1070
     2
1070
   147
1040
4.0
1070
    42
1040
20.0
1070
    44
1040
8.0
1070
    43
1040
32.0
1070
   271
1070
     0
1070
   178
1070
     4
1070
   177
1070
     4
1070
   176
1070
     4
1070
   141
1040
12.0
1070
     7
1000
_OPEN
1070
     6
1000
_OPEN
1070
    41
1040
12.0
1002
}
  0
LINE
  5
62C
330
19
100
AcDbEntity
  8
CENTER_L
  6
CENTER
 62
     1
 48
3.5
100
AcDbLine
 10
884.4405459010967
 20
473.0891612955447
 30
0.0
 11
884.4405459010967
 21
690.2353035549265
 31
0.0
  0
LINE
  5
62D
330
19
100
AcDbEntity
  8
SEIHIN
  6
CONTINUOUS
 62
     3
 48
32.0
100
AcDbLine
 10
948.440745901097
 20
719.6462618882265
 30
0.0
 11
939.4406459010967
 21
585.2462618882265
 31
0.0
  0
LINE
  5
62E
330
19
100
AcDbEntity
  8
SEIHIN
  6
CONTINUOUS
 62
     3
 48
32.0
100
AcDbLine
 10
833.7306459010969
 20
592.8430618882265
 30
0.0
 11
834.4405459010967
 21
585.2463618882266
 31
0.0
  0
TEXT
  5
62F
330
19
100
AcDbEntity
  8
SUNPOU
 62
     4
100
AcDbText
 10
1253.0567587176
 20
107.4305979452266
 30
0.0
 40
16.0
  1
※　たてといの差込み寸法を示す。
100
AcDbText
  0
DIMENSION
  5
630
330
19
100
AcDbEntity
  8
SUNPOU
100
AcDbDimension
  2
*D8
 10
1375.384173005158
 20
350.7562798597266
 30
0.0
 11
1365.384173005158
 21
299.9562798597266
 31
0.0
 12
-13.4482764095128
 22
-38.07191704278057
 32
0.0
 70
    32
  1
※ <>
  3
STANDARD
100
AcDbAlignedDimension
 13
1311.486642292432
 23
365.7562798595613
 33
0.0
 14
1311.486571869897
 24
350.7562798597266
 34
0.0
 50
90.0
100
AcDbRotatedDimension
1001
ACAD
1000
DSTYLE
1002
{
1070
   140
1040
12.0
1070
    74
1070
     0
1070
   172
1070
     1
1070
    73
1070
     0
1070
   272
1070
     2
1070
    77
1070
     3
1070
   173
1070
     1
1070
   147
1040
4.0
1070
    42
1040
12.0
1070
    44
1040
6.0
1070
    43
1040
28.0
1070
   271
1070
     0
1070
   178
1070
     4
1070
   177
1070
     4
1070
   176
1070
     4
1070
   141
1040
150.0
1070
     7
1000
_OPEN
1070
     6
1000
_OPEN
1070
    41
1040
14.0
1070
   143
1040
0.03937
1002
}
  0
DIMENSION
  5
631
330
19
100
AcDbEntity
  8
SUNPOU
  6
CONTINUOUS
 62
     4
 48
32.0
100
AcDbDimension
  2
*D9
 10
884.4405459010967
 20
226.0936449091043
 30
0.0
 11
1081.988558885497
 21
236.0936449091044
 31
0.0
 12
-13.4482764095128
 22
-38.07191704278057
 32
0.0
 70
    32
  3
STANDARD
100
AcDbAlignedDimension
 13
1279.536571869897
 23
320.8861798597266
 33
0.0
 14
884.4405459010967
 24
473.0891612955447
 34
0.0
100
AcDbRotatedDimension
1001
ACAD
1000
DSTYLE
1002
{
1070
   140
1040
12.0
1070
    74
1070
     0
1070
    73
1070
     0
1070
   272
1070
     0
1070
    77
1070
     3
1070
   173
1070
     1
1070
   147
1040
4.0
1070
    42
1040
20.0
1070
    44
1040
8.0
1070
    43
1040
32.0
1070
   271
1070
     0
1070
   178
1070
     4
1070
   177
1070
     4
1070
   176
1070
     4
1070
   141
1040
12.0
1070
     7
1000
_OPEN
1070
     6
1000
_OPEN
1070
    41
1040
12.0
1002
}
  0
LINE
  5
632
330
19
100
AcDbEntity
  8
SEIHIN
  6
CONTINUOUS
 62
     3
 48
32.0
100
AcDbLine
 10
993.7015718698969
 20
522.5020798597268
 30
0.0
 11
1170.811571869896
 21
475.1289798597266
 31
0.0
  0
LINE
  5
633
330
19
100
AcDbEntity
  8
SEIHIN
  6
CONTINUOUS
 62
     3
 48
32.0
100
AcDbLine
 10
996.0275718698969
 20
531.1964798597266
 30
0.0
 11
1173.136571869897
 21
483.8232798597267
 31
0.0
  0
LINE
  5
634
330
19
100
AcDbEntity
  8
SEIHIN
  6
CONTINUOUS
 62
     3
 48
32.0
100
AcDbLine
 10
931.1585718698967
 20
451.2463798597265
 30
0.0
 11
1153.235571869896
 21
412.0875798597267
 31
0.0
  0
LINE
  5
635
330
19
100
AcDbEntity
  8
SEIHIN
  6
CONTINUOUS
 62
     3
 48
32.0
100
AcDbLine
 10
932.7205718698969
 20
460.1095798597266
 30
0.0
 11
1154.798571869896
 21
420.9508798597267
 31
0.0
  0
LINE
  5
636
330
19
100
AcDbEntity
  8
CENTER_L
  6
CENTER
 62
     1
 48
3.5
100
AcDbLine
 10
1026.301571869897
 20
480.5696798597266
 30
0.0
 11
868.7015718698969
 21
508.3590798597267
 31
0.0
  0
LINE
  5
637
330
19
100
AcDbEntity
  8
SEIHIN
  6
CONTINUOUS
 62
     3
 48
32.0
100
AcDbLine
 10
994.4645718698968
 20
522.3332798597266
 30
0.0
 11
945.2235718698968
 21
531.0156798597268
 31
0.0
  0
LINE
  5
638
330
19
100
AcDbEntity
  8
SEIHIN
  6
CONTINUOUS
 62
     3
 48
32.0
100
AcDbLine
 10
946.786571869897
 20
539.8789798597266
 30
0.0
 11
996.0275718698969
 21
531.1964798597266
 31
0.0
  0
ARC
  5
639
330
19
100
AcDbEntity
  8
SEIHIN
  6
CONTINUOUS
 62
     3
 48
32.0
100
AcDbCircle
 10
920.8105718698968
 20
503.8423798597266
 30
0.0
 40
40.999945
100
AcDbArc
 50
175.2619830229
 51
260.0007630338999
  0
ARC
  5
63A
330
19
100
AcDbEntity
  8
SEIHIN
  6
CONTINUOUS
 62
     3
 48
32.0
100
AcDbCircle
 10
920.8105718698968
 20
503.8423798597266
 30
0.0
 40
49.999662
100
AcDbArc
 50
184.1243160239999
 51
260.0004440339
  0
LINE
  5
63B
330
19
100
AcDbEntity
  8
SEIHIN
  6
CONTINUOUS
 62
     3
 48
32.0
100
AcDbLine
 10
931.1575718698968
 20
451.2462798597266
 30
0.0
 11
946.786571869897
 21
539.8788798597267
 31
0.0
  0
LINE
  5
63C
330
19
100
AcDbEntity
  8
SEIHIN
  6
CONTINUOUS
 62
     3
 48
32.0
100
AcDbLine
 10
931.1595718698971
 20
451.2463798597265
 30
0.0
 11
946.7875718698969
 21
539.8789798597266
 31
0.0
  0
LINE
  5
63D
330
19
100
AcDbEntity
  8
SEIHIN
  6
CONTINUOUS
 62
     3
 48
32.0
100
AcDbLine
 10
932.7225718698969
 20
460.1096798597267
 30
0.0
 11
913.691571869897
 21
463.4653798597266
 31
0.0
  0
LINE
  5
63E
330
19
100
AcDbEntity
  8
SEIHIN
  6
CONTINUOUS
 62
     3
 48
32.0
100
AcDbLine
 10
931.1595718698971
 20
451.2463798597265
 30
0.0
 11
912.1285718698969
 21
454.6020798597266
 31
0.0
  0
LINE
  5
63F
330
19
100
AcDbEntity
  8
SEIHIN
  6
CONTINUOUS
 62
     3
 48
32.0
100
AcDbLine
 10
886.9405718698969
 20
567.2463798597267
 30
0.0
 11
938.940571869897
 21
567.2463798597267
 31
0.0
  0
LINE
  5
640
330
19
100
AcDbEntity
  8
SEIHIN
  6
CONTINUOUS
 62
     3
 48
32.0
100
AcDbLine
 10
886.9405718698969
 20
565.2463798597267
 30
0.0
 11
936.9405718698969
 21
565.2463798597267
 31
0.0
  0
LINE
  5
641
330
19
100
AcDbEntity
  8
SEIHIN
  6
CONTINUOUS
 62
     3
 48
32.0
100
AcDbLine
 10
834.4405459010967
 20
585.2463618882266
 30
0.0
 11
939.4406459010967
 21
585.2462618882265
 31
0.0
  0
LINE
  5
642
330
19
100
AcDbEntity
  8
SEIHIN
  6
CONTINUOUS
 62
     3
 48
32.0
100
AcDbLine
 10
834.9406199225969
 20
585.2463439299265
 30
0.0
 11
938.940571879597
 21
585.2462798465266
 31
0.0
  0
LINE
  5
643
330
19
100
AcDbEntity
  8
SEIHIN
  6
CONTINUOUS
 62
     3
 48
32.0
100
AcDbLine
 10
856.4365718698969
 20
546.2042798597265
 30
0.0
 11
861.524571869897
 21
523.5293798597267
 31
0.0
  0
LINE
  5
644
330
19
100
AcDbEntity
  8
SEIHIN
  6
CONTINUOUS
 62
     3
 48
32.0
100
AcDbLine
 10
852.7435718698969
 20
521.5588798597268
 30
0.0
 11
846.5505718698969
 21
549.1558798597266
 31
0.0
  0
ARC
  5
645
330
19
100
AcDbEntity
  8
SEIHIN
  6
CONTINUOUS
 62
     3
 48
32.0
100
AcDbCircle
 10
882.015571869897
 20
528.1271798597267
 30
0.0
 40
21.00028599999999
100
AcDbArc
 50
192.6466460252
 51
264.3568160345
  0
ARC
  5
646
330
19
100
AcDbEntity
  8
SEIHIN
  6
CONTINUOUS
 62
     3
 48
32.0
100
AcDbCircle
 10
882.015571869897
 20
528.1271798597267
 30
0.0
 40
29.999893
100
AcDbArc
 50
192.6470310251999
 51
248.3357000323999
  0
LINE
  5
647
330
19
100
AcDbEntity
  8
SEIHIN
  6
CONTINUOUS
 62
     3
 48
32.0
100
AcDbLine
 10
879.950571869897
 20
507.2289798597267
 30
0.0
 11
870.940571869897
 21
500.2463798597266
 31
0.0
  0
LINE
  5
648
330
19
100
AcDbEntity
  8
SEIHIN
  6
CONTINUOUS
 62
     3
 48
32.0
100
AcDbLine
 10
886.9405718698969
 20
567.2463798597267
 30
0.0
 11
834.9405718698969
 21
567.2465798597267
 31
0.0
  0
LINE
  5
649
330
19
100
AcDbEntity
  8
SEIHIN
  6
CONTINUOUS
 62
     3
 48
32.0
100
AcDbLine
 10
886.9405718698969
 20
565.2463798597267
 30
0.0
 11
836.9405718698969
 21
565.2465798597266
 31
0.0
  0
LINE
  5
64A
330
19
100
AcDbEntity
  8
SEIHIN
  6
CONTINUOUS
 62
     3
 48
32.0
100
AcDbLine
 10
836.9405718698969
 20
567.2463798597267
 30
0.0
 11
836.9405718698969
 21
565.2464798597267
 31
0.0
  0
ARC
  5
64B
330
19
100
AcDbEntity
  8
SEIHIN
  6
CONTINUOUS
 62
     3
 48
32.0
100
AcDbCircle
 10
832.043571869897
 20
540.7305798597266
 30
0.0
 40
24.9998
100
AcDbArc
 50
12.6474590017
 51
78.7038660103
  0
ARC
  5
64C
330
19
100
AcDbEntity
  8
SEIHIN
  6
CONTINUOUS
 62
     3
 48
32.0
100
AcDbCircle
 10
817.2785718698969
 20
542.5875798597266
 30
0.0
 40
30.000067
100
AcDbArc
 50
12.6470310017
 51
49.0504400064
  0
LINE
  5
64D
330
19
100
AcDbEntity
  8
SEIHIN
  6
CONTINUOUS
 62
     3
 48
32.0
100
AcDbLine
 10
927.9405718698969
 20
543.2934798597267
 30
0.0
 11
927.9405718698969
 21
565.2463798597267
 31
0.0
  0
LINE
  5
64E
330
19
100
AcDbEntity
  8
SEIHIN
  6
CONTINUOUS
 62
     3
 48
32.0
100
AcDbLine
 10
936.9405718698969
 20
565.2463798597267
 30
0.0
 11
936.9405718698969
 21
543.2934798597267
 31
0.0
  0
ARC
  5
64F
330
19
100
AcDbEntity
  8
SEIHIN
  6
CONTINUOUS
 62
     3
 48
32.0
100
AcDbCircle
 10
938.940571869897
 20
543.2934798597267
 30
0.0
 40
10.999947
100
AcDbArc
 50
180.0000000234999
 51
260.000589034
  0
ARC
  5
650
330
19
100
AcDbEntity
  8
SEIHIN
  6
CONTINUOUS
 62
     3
 48
32.0
100
AcDbCircle
 10
938.940571869897
 20
543.2934798597267
 30
0.0
 40
1.999967
100
AcDbArc
 50
180.0000000234999
 51
260.0082840340001
  0
LINE
  5
651
330
19
100
AcDbEntity
  8
SEIHIN
  6
CONTINUOUS
 62
     3
 48
32.0
100
AcDbLine
 10
937.0305718698968
 20
532.4606798597267
 30
0.0
 11
945.2245718698968
 21
531.0156798597268
 31
0.0
  0
LINE
  5
652
330
19
100
AcDbEntity
  8
SEIHIN
  6
CONTINUOUS
 62
     3
 48
32.0
100
AcDbLine
 10
946.7875718698969
 20
539.8789798597266
 30
0.0
 11
938.593571869897
 21
541.3238798597266
 31
0.0
  0
LINE
  5
653
330
19
100
AcDbEntity
  8
SEIHIN
  6
CONTINUOUS
 62
     3
 48
32.0
100
AcDbLine
 10
936.9405718698969
 20
567.2464798597267
 30
0.0
 11
936.9405718698969
 21
565.2464798597267
 31
0.0
  0
ARC
  5
654
330
19
100
AcDbEntity
  8
SEIHIN
  6
CONTINUOUS
 62
     3
 48
32.0
100
AcDbCircle
 10
926.9405718698969
 20
576.2463798597267
 30
0.0
 40
14.99994
100
AcDbArc
 50
323.1304080422
 51
36.8695920048
  0
ARC
  5
655
330
19
100
AcDbEntity
  8
SEIHIN
  6
CONTINUOUS
 62
     3
 48
32.0
100
AcDbCircle
 10
1289.296571869897
 20
405.6206798597266
 30
0.0
 40
1.000335999999999
100
AcDbArc
 50
198.8387520259999
 51
255.4051570333
  0
LINE
  5
656
330
19
100
AcDbEntity
  8
SEIHIN
  6
CONTINUOUS
 62
     3
 48
32.0
100
AcDbLine
 10
1288.519571869897
 20
404.7843798597266
 30
0.0
 11
1281.530571869897
 21
397.2555798597267
 31
0.0
  0
ARC
  5
657
330
19
100
AcDbEntity
  8
SEIHIN
  6
CONTINUOUS
 62
     3
 48
32.0
100
AcDbCircle
 10
1259.958571869896
 20
395.6046798597266
 30
0.0
 40
21.000036
100
AcDbArc
 50
5.2490680007
 51
79.9989270104
  0
ARC
  5
658
330
19
100
AcDbEntity
  8
SEIHIN
  6
CONTINUOUS
 62
     3
 48
32.0
100
AcDbCircle
 10
1281.486571869897
 20
375.6204798597266
 30
0.0
 40
29.999953
100
AcDbArc
 50
0.000191
 51
75.4099800098
  0
LINE
  5
659
330
19
100
AcDbEntity
  8
SEIHIN
  6
CONTINUOUS
 62
     3
 48
32.0
100
AcDbLine
 10
1234.179571869896
 20
430.6131798597266
 30
0.0
 11
1223.082571869896
 21
367.6839798597267
 31
0.0
  0
ARC
  5
65A
330
19
100
AcDbEntity
  8
SEIHIN
  6
CONTINUOUS
 62
     3
 48
32.0
100
AcDbCircle
 10
1146.115571869896
 20
371.7104798597266
 30
0.0
 40
50.000344
100
AcDbArc
 50
14.3155010019
 51
79.99933501040001
  0
ARC
  5
65B
330
19
100
AcDbEntity
  8
SEIHIN
  6
CONTINUOUS
 62
     3
 48
32.0
100
AcDbCircle
 10
1146.115571869896
 20
371.7104798597266
 30
0.0
 40
40.999955
100
AcDbArc
 50
6.601679000899999
 51
79.9994110104
  0
DIMENSION
  5
65C
330
19
100
AcDbEntity
  8
SUNPOU
  6
CONTINUOUS
100
AcDbDimension
  2
*D10
 10
1307.986571869897
 20
262.8353667114026
 30
0.0
 11
1211.954775504166
 21
262.8353667114026
 31
0.0
 12
-13.4482764095128
 22
-38.07191704278057
 32
0.0
 70
   160
  1
φ<>
  3
STANDARD
100
AcDbAlignedDimension
 13
1251.086571869897
 23
334.7564798597267
 33
0.0
 14
1307.986571869897
 24
334.7564798597267
 34
0.0
100
AcDbRotatedDimension
1001
ACAD
1000
DSTYLE
1002
{
1070
   288
1070
     1
1070
   140
1040
12.0
1070
    74
1070
     0
1070
    73
1070
     0
1070
   272
1070
     2
1070
    77
1070
     3
1070
   173
1070
     1
1070
   147
1040
4.0
1070
    42
1040
12.0
1070
    44
1040
6.0
1070
    43
1040
28.0
1070
   271
1070
     0
1070
   178
1070
     4
1070
   177
1070
     4
1070
   176
1070
     4
1070
   141
1040
150.0
1070
     7
1000
_OPEN
1070
     6
1000
_OPEN
1070
    41
1040
14.0
1070
   143
1040
0.03937
1002
}
  0
LINE
  5
65D
330
19
100
AcDbEntity
  8
SEIHIN
  6
CONTINUOUS
 62
     3
 48
32.0
100
AcDbLine
 10
1223.082571869896
 20
367.6839798597267
 30
0.0
 11
1246.759571869897
 21
363.5089798597266
 31
0.0
  0
LINE
  5
65E
330
19
100
AcDbEntity
  8
SEIHIN
  6
CONTINUOUS
 62
     3
 48
32.0
100
AcDbLine
 10
1249.148571869896
 20
372.2265798597267
 30
0.0
 11
1224.645571869897
 21
376.5472798597266
 31
0.0
  0
LINE
  5
65F
330
19
100
AcDbEntity
  8
SEIHIN
  6
CONTINUOUS
 62
     3
 48
32.0
100
AcDbLine
 10
1194.718571869896
 20
383.4489798597267
 30
0.0
 11
1187.651571869897
 21
376.4104798597267
 31
0.0
  0
ARC
  5
660
330
19
100
AcDbEntity
  8
SEIHIN
  6
CONTINUOUS
 62
     3
 48
32.0
100
AcDbCircle
 10
1195.532571869897
 20
384.3209798597266
 30
0.0
 40
1.000056
100
AcDbArc
 50
194.3169330254
 51
259.9800720339999
  0
LINE
  5
661
330
19
100
AcDbEntity
  8
SEIHIN
  6
CONTINUOUS
 62
     3
 48
32.0
100
AcDbLine
 10
1187.663571869897
 20
375.5540798597266
 30
0.0
 11
1223.360571869896
 21
369.2596798597266
 31
0.0
  0
ARC
  5
662
330
19
100
AcDbEntity
  8
SEIHIN
  6
CONTINUOUS
 62
     3
 48
32.0
100
AcDbCircle
 10
1187.837571869897
 20
376.5388798597266
 30
0.0
 40
1.000335999999999
100
AcDbArc
 50
186.5937590243999
 51
259.9800720339
  0
LINE
  5
663
330
19
100
AcDbEntity
  8
SEIHIN
  6
CONTINUOUS
 62
     3
 48
32.0
100
AcDbLine
 10
1195.358571869896
 20
383.3361798597266
 30
0.0
 11
1224.923571869896
 21
378.1229798597266
 31
0.0
  0
ARC
  5
664
330
19
100
AcDbEntity
  8
SEIHIN
  6
CONTINUOUS
 62
     3
 48
32.0
100
AcDbCircle
 10
1281.486571869897
 20
375.6204798597266
 30
0.0
 40
21.000019
100
AcDbArc
 50
0.000273
 51
89.0095540116
  0
LINE
  5
665
330
19
100
AcDbEntity
  8
SEIHIN
  6
CONTINUOUS
 62
     3
 48
32.0
100
AcDbLine
 10
1307.486571869897
 20
330.7563798597266
 30
0.0
 11
1279.536571869897
 21
330.7563798597266
 31
0.0
  0
LINE
  5
666
330
19
100
AcDbEntity
  8
SEIHIN
  6
CONTINUOUS
 62
     3
 48
32.0
100
AcDbLine
 10
1307.986571869897
 20
334.7564798597267
 30
0.0
 11
1279.535571869897
 21
334.7563798597266
 31
0.0
  0
LINE
  5
667
330
19
100
AcDbEntity
  8
SEIHIN
  6
CONTINUOUS
 62
     3
 48
32.0
100
AcDbLine
 10
1311.486571869897
 20
350.7562798597266
 30
0.0
 11
1247.586571869897
 21
350.7565798597267
 31
0.0
  0
LINE
  5
668
330
19
100
AcDbEntity
  8
CENTER_L
  6
ACAD_ISO04W100
 62
     1
 48
2.0
100
AcDbLine
 10
1279.536571869897
 20
320.8861798597266
 30
0.0
 11
1279.536571869897
 21
360.7564798597266
 31
0.0
  0
LINE
  5
669
330
19
100
AcDbEntity
  8
SEIHIN
  6
CONTINUOUS
 62
     3
 48
32.0
100
AcDbLine
 10
1256.586571869896
 20
363.3632798597266
 30
0.0
 11
1256.586571869896
 21
350.7564798597267
 31
0.0
  0
LINE
  5
66A
330
19
100
AcDbEntity
  8
SEIHIN
  6
CONTINUOUS
 62
     3
 48
32.0
100
AcDbLine
 10
1247.586571869897
 20
362.5241798597266
 30
0.0
 11
1247.586571869897
 21
350.7564798597267
 31
0.0
  0
LINE
  5
66B
330
19
100
AcDbEntity
  8
SEIHIN
  6
CONTINUOUS
 62
     3
 48
32.0
100
AcDbLine
 10
1251.586571869897
 20
330.7564798597267
 30
0.0
 11
1279.536571869897
 21
330.7563798597266
 31
0.0
  0
LINE
  5
66C
330
19
100
AcDbEntity
  8
SEIHIN
  6
CONTINUOUS
 62
     3
 48
32.0
100
AcDbLine
 10
1251.086571869897
 20
334.7564798597267
 30
0.0
 11
1279.536571869897
 21
334.7563798597266
 31
0.0
  0
LINE
  5
66D
330
19
100
AcDbEntity
  8
SEIHIN
  6
CONTINUOUS
 62
     3
 48
32.0
100
AcDbLine
 10
1251.086571869897
 20
334.7564798597267
 30
0.0
 11
1251.086571869897
 21
350.7564798597267
 31
0.0
  0
LINE
  5
66E
330
19
100
AcDbEntity
  8
SEIHIN
  6
CONTINUOUS
 62
     3
 48
32.0
100
AcDbLine
 10
1251.086571869897
 20
334.7564798597267
 30
0.0
 11
1251.586571869897
 21
330.7564798597267
 31
0.0
  0
LINE
  5
66F
330
19
100
AcDbEntity
  8
SEIHIN
  6
CONTINUOUS
 62
     3
 48
32.0
100
AcDbLine
 10
1279.536571869897
 20
330.9063798597267
 30
0.0
 11
1279.536571869897
 21
330.9063798597267
 31
0.0
  0
ARC
  5
670
330
19
100
AcDbEntity
  8
SEIHIN
  6
CONTINUOUS
 62
     3
 48
32.0
100
AcDbCircle
 10
1246.586571869896
 20
362.5241798597266
 30
0.0
 40
0.9999400000000001
100
AcDbArc
 50
0.0
 51
80.03650101039999
  0
ARC
  5
671
330
19
100
AcDbEntity
  8
SEIHIN
  6
CONTINUOUS
 62
     3
 48
32.0
100
AcDbCircle
 10
1247.586571869897
 20
363.3632798597266
 30
0.0
 40
8.999893
100
AcDbArc
 50
0.0
 51
80.0051490104
  0
ARC
  5
672
330
19
100
AcDbEntity
  8
SEIHIN
  6
CONTINUOUS
 62
     3
 48
32.0
100
AcDbCircle
 10
1281.866571869897
 20
397.6171798597266
 30
0.0
 40
1.000072999999999
100
AcDbArc
 50
185.2431810241999
 51
268.9685810350999
  0
LINE
  5
673
330
19
100
AcDbEntity
  8
SEIHIN
  6
CONTINUOUS
 62
     3
 48
32.0
100
AcDbLine
 10
1302.486571869897
 20
376.6531798597267
 30
0.0
 11
1302.486571869897
 21
350.7562798597266
 31
0.0
  0
LINE
  5
674
330
19
100
AcDbEntity
  8
SEIHIN
  6
CONTINUOUS
 62
     3
 48
32.0
100
AcDbLine
 10
1311.486571869897
 20
350.7562798597266
 30
0.0
 11
1311.486571869897
 21
376.6532798597267
 31
0.0
  0
LINE
  5
675
330
19
100
AcDbEntity
  8
SEIHIN
  6
CONTINUOUS
 62
     3
 48
32.0
100
AcDbLine
 10
1307.986571869897
 20
334.7564798597267
 30
0.0
 11
1307.986571869897
 21
350.7562798597266
 31
0.0
  0
LINE
  5
676
330
19
100
AcDbEntity
  8
SEIHIN
  6
CONTINUOUS
 62
     3
 48
32.0
100
AcDbLine
 10
1307.986571869897
 20
334.7564798597267
 30
0.0
 11
1307.486571869897
 21
330.7563798597266
 31
0.0
  0
LINE
  5
677
330
19
100
AcDbEntity
  8
SEIHIN
  6
CONTINUOUS
 62
     3
 48
32.0
100
AcDbLine
 10
1228.977571869897
 20
429.9056798597266
 30
0.0
 11
1222.143571869897
 21
422.4659798597266
 31
0.0
  0
LINE
  5
678
330
19
100
AcDbEntity
  8
SEIHIN
  6
CONTINUOUS
 62
     3
 48
32.0
100
AcDbLine
 10
1222.405571869896
 20
421.9256798597266
 30
0.0
 11
1232.338571869896
 21
420.1741798597266
 31
0.0
  0
ARC
  5
679
330
19
100
AcDbEntity
  8
SEIHIN
  6
CONTINUOUS
 62
     3
 48
32.0
100
AcDbCircle
 10
1152.465571869896
 20
406.5401798597267
 30
0.0
 40
79.99978099999999
100
AcDbArc
 50
17.4165400023
 51
75.02557600979999
  0
ARC
  5
67A
330
19
100
AcDbEntity
  8
SEIHIN
  6
CONTINUOUS
 62
     3
 48
32.0
100
AcDbCircle
 10
1152.465571869896
 20
406.5401798597267
 30
0.0
 40
70.99976100000001
100
AcDbArc
 50
13.1420640017
 51
75.02518800979999
  0
LINE
  5
67B
330
19
100
AcDbEntity
  8
SEIHIN
  6
CONTINUOUS
 62
     3
 48
32.0
100
AcDbLine
 10
1136.357571869897
 20
428.6818798597266
 30
0.0
 11
1144.863571869896
 21
476.9209798597266
 31
0.0
  0
ARC
  5
67C
330
19
100
AcDbEntity
  8
SEIHIN
  6
CONTINUOUS
 62
     3
 48
32.0
100
AcDbCircle
 10
1222.579571869896
 20
422.9104798597266
 30
0.0
 40
1.000123
100
AcDbArc
 50
193.1414600252
 51
259.9800720339
  0
LINE
  5
67D
330
19
100
AcDbEntity
  8
SEIHIN
  6
CONTINUOUS
 62
     3
 48
32.0
100
AcDbLine
 10
1263.605571869897
 20
416.2856798597266
 30
0.0
 11
1232.616571869897
 21
421.7498798597266
 31
0.0
  0
LINE
  5
67E
330
19
100
AcDbEntity
  8
SEIHIN
  6
CONTINUOUS
 62
     3
 48
32.0
100
AcDbLine
 10
1234.179571869896
 20
430.6131798597266
 30
0.0
 11
1265.168571869897
 21
425.1488798597266
 31
0.0
  0
LINE
  5
67F
330
19
100
AcDbEntity
  8
SEIHIN
  6
CONTINUOUS
 62
     3
 48
32.0
100
AcDbLine
 10
1229.578571869897
 20
429.7997798597266
 30
0.0
 11
1233.901571869897
 21
429.0374798597266
 31
0.0
  0
ARC
  5
680
330
19
100
AcDbEntity
  8
SEIHIN
  6
CONTINUOUS
 62
     3
 48
32.0
100
AcDbCircle
 10
1229.752571869897
 20
430.7844798597265
 30
0.0
 40
1.000428
100
AcDbArc
 50
197.4011550258
 51
259.9800720339
  0
ARC
  5
681
330
19
100
AcDbEntity
  8
SEIHIN
  6
CONTINUOUS
 62
     3
 48
32.0
100
AcDbCircle
 10
1229.751571869897
 20
430.7845798597266
 30
0.0
 40
0.9998639999999999
100
AcDbArc
 50
197.4182920258
 51
260.036501034
  0
ARC
  5
682
330
19
100
AcDbEntity
  8
SEIHIN
  6
CONTINUOUS
 62
     3
 48
32.0
100
AcDbCircle
 10
1259.958571869896
 20
395.6046798597266
 30
0.0
 40
30.000074
100
AcDbArc
 50
18.8506500025
 51
79.99894601040001
  0
DIMENSION
  5
683
330
19
100
AcDbEntity
  8
SUNPOU
  6
CONTINUOUS
 62
     4
 48
32.0
100
AcDbDimension
  2
*D11
 10
948.440745901097
 20
840.9960674438265
 30
0.0
 11
916.4406459010969
 21
850.9960674438264
 31
0.0
 12
-13.4482764095128
 22
-38.07191704278057
 32
0.0
 70
    32
  3
STANDARD
100
AcDbAlignedDimension
 13
884.4405459010967
 23
690.2353035549265
 33
0.0
 14
948.440745901097
 24
719.6462618882265
 34
0.0
100
AcDbRotatedDimension
1001
ACAD
1000
DSTYLE
1002
{
1070
   140
1040
12.0
1070
    74
1070
     0
1070
    73
1070
     0
1070
   272
1070
     0
1070
    77
1070
     3
1070
   173
1070
     1
1070
   147
1040
4.0
1070
    42
1040
20.0
1070
    44
1040
8.0
1070
    43
1040
32.0
1070
   271
1070
     0
1070
   178
1070
     4
1070
   177
1070
     4
1070
   176
1070
     4
1070
   141
1040
12.0
1070
     7
1000
_OPEN
1070
     6
1000
_OPEN
1070
    41
1040
12.0
1002
}
  0
ARC
  5
684
330
19
100
AcDbEntity
  8
SEIHIN
  6
CONTINUOUS
 62
     3
 48
32.0
100
AcDbCircle
 10
884.4406459010967
 20
708.6456618882265
 30
0.0
 40
50.300055
100
AcDbArc
 50
192.1405100251
 51
347.8591320454
  0
ARC
  5
685
330
19
100
AcDbEntity
  8
NIKITOI
  6
PHANTOM
 62
     8
 48
2.0
100
AcDbCircle
 10
884.4405459010967
 20
708.6456738882266
 30
0.0
 40
49.00000099999999
100
AcDbArc
 50
185.413376
 51
354.5863799999999
  0
ARC
  5
686
330
19
100
AcDbEntity
  8
NIKITOI
  6
PHANTOM
 62
     8
 48
2.0
100
AcDbCircle
 10
884.4405459010967
 20
708.6456738882266
 30
0.0
 40
50.300012
100
AcDbArc
 50
188.6764639999999
 51
351.2914929999999
  0
LINE
  5
687
330
19
100
AcDbEntity
  8
SEIHIN
  6
CONTINUOUS
 62
     3
 48
32.0
100
AcDbLine
 10
884.4405459010967
 20
658.3456618882266
 30
0.0
 11
884.4405459010967
 21
658.3456618882266
 31
0.0
  0
ARC
  5
688
330
19
100
AcDbEntity
  8
SEIHIN
  6
CONTINUOUS
 62
     3
 48
32.0
100
AcDbCircle
 10
836.7738459010968
 20
725.1355618882265
 30
0.0
 40
18.50000999999999
100
AcDbArc
 50
268.038237035
 51
342.7391100448
  0
ARC
  5
689
330
19
100
AcDbEntity
  8
SEIHIN
  6
CONTINUOUS
 62
     3
 48
32.0
100
AcDbCircle
 10
833.3102459010968
 20
697.6464618882265
 30
0.0
 40
2.000013
100
AcDbArc
 50
12.1397760016
 51
90.0000000118
  0
ARC
  5
68A
330
19
100
AcDbEntity
  8
SEIHIN
  6
CONTINUOUS
 62
     3
 48
32.0
100
AcDbCircle
 10
834.1406459010968
 20
706.6464618882265
 30
0.0
 40
2.0
100
AcDbArc
 50
0.0
 51
90.0000000118
  0
ARC
  5
68B
330
19
100
AcDbEntity
  8
SEIHIN
  6
CONTINUOUS
 62
     3
 48
32.0
100
AcDbCircle
 10
933.7213459010968
 20
721.6141618882265
 30
0.0
 40
14.999992
100
AcDbArc
 50
220.7808140288
 51
266.2513260348
  0
LINE
  5
68C
330
19
100
AcDbEntity
  8
SEIHIN
  6
CONTINUOUS
 62
     3
 48
32.0
100
AcDbLine
 10
948.440745901097
 20
719.6462618882265
 30
0.0
 11
926.7013459010968
 21
719.6462618882265
 31
0.0
  0
ARC
  5
68D
330
19
100
AcDbEntity
  8
SEIHIN
  6
CONTINUOUS
 62
     3
 48
32.0
100
AcDbCircle
 10
926.7013459010968
 20
717.6462618882266
 30
0.0
 40
2.000004
100
AcDbArc
 50
90.0000000118
 51
141.3106630185
  0
LINE
  5
68E
330
19
100
AcDbEntity
  8
SEIHIN
  6
CONTINUOUS
 62
     3
 48
32.0
100
AcDbLine
 10
922.157445901097
 20
715.1718618882265
 30
0.0
 11
925.1401459010969
 21
718.8964618882265
 31
0.0
  0
ARC
  5
68F
330
19
100
AcDbEntity
  8
SEIHIN
  6
CONTINUOUS
 62
     3
 48
32.0
100
AcDbCircle
 10
924.7406459010969
 20
713.6462618882266
 30
0.0
 40
2.999978
100
AcDbArc
 50
133.1900960174
 51
234.5668950306
  0
ARC
  5
690
330
19
100
AcDbEntity
  8
NIKITOI
  6
PHANTOM
 62
     8
 48
2.0
100
AcDbCircle
 10
937.2021459010968
 20
703.6455738882266
 30
0.0
 40
3.999958
100
AcDbArc
 50
121.784767
 51
174.584588
  0
ARC
  5
691
330
19
100
AcDbEntity
  8
SEIHIN
  6
CONTINUOUS
 62
     3
 48
32.0
100
AcDbCircle
 10
938.2406459010969
 20
705.1462618882266
 30
0.0
 40
3.5
100
AcDbArc
 50
0.0
 51
90.0000000118
  0
ARC
  5
692
330
19
100
AcDbEntity
  8
NIKITOI
  6
PHANTOM
 62
     8
 48
2.0
100
AcDbCircle
 10
937.2021459010968
 20
703.6455738882266
 30
0.0
 40
3.999994
100
AcDbArc
 50
220.269583
 51
121.7840119999999
  0
CIRCLE
  5
693
330
19
100
AcDbEntity
  8
NIKITOI
  6
PHANTOM
 62
     8
 48
2.0
100
AcDbCircle
 10
937.2021459010968
 20
703.6455738882266
 30
0.0
 40
2.7
  0
LINE
  5
694
330
19
100
AcDbEntity
  8
SEIHIN
  6
CONTINUOUS
 62
     3
 48
32.0
100
AcDbLine
 10
941.7406459010969
 20
703.1462618882265
 30
0.0
 11
941.7406459010969
 21
705.1462618882266
 31
0.0
  0
LINE
  5
695
330
19
100
AcDbEntity
  8
SEIHIN
  6
CONTINUOUS
 62
     3
 48
32.0
100
AcDbLine
 10
935.5708459010967
 20
699.6462618882266
 30
0.0
 11
938.2406459010969
 21
699.6462618882266
 31
0.0
  0
ARC
  5
696
330
19
100
AcDbEntity
  8
SEIHIN
  6
CONTINUOUS
 62
     3
 48
32.0
100
AcDbCircle
 10
935.5708459010967
 20
697.6462618882266
 30
0.0
 40
1.999964
100
AcDbArc
 50
90.0000000118
 51
167.8596220219
  0
ARC
  5
697
330
19
100
AcDbEntity
  8
SEIHIN
  6
CONTINUOUS
 62
     3
 48
32.0
100
AcDbCircle
 10
938.2406459010969
 20
703.1462618882265
 30
0.0
 40
3.5
100
AcDbArc
 50
270.0000000353
 51
0.0
  0
LINE
  5
698
330
19
100
AcDbEntity
  8
SEIHIN
  6
CONTINUOUS
 62
     3
 48
32.0
100
AcDbLine
 10
934.2203459010969
 20
708.6462618882266
 30
0.0
 11
938.2406459010969
 21
708.6462618882266
 31
0.0
  0
ARC
  5
699
330
19
100
AcDbEntity
  8
SEIHIN
  6
CONTINUOUS
 62
     3
 48
32.0
100
AcDbCircle
 10
934.7406459010969
 20
706.6462618882265
 30
0.0
 40
2.0
100
AcDbArc
 50
90.0000000118
 51
180.0000000234999
  0
LINE
  5
69A
330
19
100
AcDbEntity
  8
ZUWAKU
100
AcDbLine
 10
691.0290300684018
 20
42.7696575224097
 30
0.0
 11
691.0290300684018
 21
28.50176959346093
 31
0.0
  0
LINE
  5
69B
330
19
100
AcDbEntity
  8
ZUWAKU
100
AcDbLine
 10
685.4130037018412
 20
42.7696575224097
 30
0.0
 11
685.4130037018412
 21
28.50176959346093
 31
0.0
  0
LINE
  5
69C
330
19
100
AcDbEntity
  8
ZUWAKU
100
AcDbLine
 10
679.7969773352797
 20
42.7696575224097
 30
0.0
 11
679.7969773352797
 21
28.50176959346093
 31
0.0
  0
LINE
  5
69D
330
19
100
AcDbEntity
  8
ZUWAKU
100
AcDbLine
 10
677.390111230341
 20
28.50176959346093
 30
0.0
 11
693.5161179519564
 21
28.50176959346093
 31
0.0
  0
LINE
  5
69E
330
19
100
AcDbEntity
  8
ZUWAKU
100
AcDbLine
 10
677.390111230341
 20
42.7696575224097
 30
0.0
 11
693.5161179519564
 21
42.7696575224097
 31
0.0
  0
VIEWPORT
  5
22
330
16
100
AcDbEntity
 67
     1
  8
0
100
AcDbViewport
 10
313.6808219178082
 20
148.5
 30
0.0
 40
627.3616438356165
 41
297.0
 68
     2
 69
     1
1001
ACAD
1000
MVIEW
1002
{
1070
    16
1010
0.0
1020
0.0
1030
0.0
1010
0.0
1020
0.0
1030
1.0
1040
0.0
1040
297.0
1040
313.6808219178082
1040
148.5
1040
50.0
1040
0.0
1040
0.0
1070
     0
1070
   100
1070
     1
1070
     0
1070
     0
1070
     0
1070
     0
1070
     0
1040
0.0
1040
0.0
1040
0.0
1040
10.0
1040
10.0
1040
10.0
1040
10.0
1070
     0
1002
{
1002
}
1002
}
  0
VIEWPORT
  5
25
330
16
100
AcDbEntity
 67
     1
  8
VIEWPORT
100
AcDbViewport
 10
210.0
 20
148.5
 30
0.0
 40
420.0
 41
297.0
 68
     1
 69
     2
1001
ACAD
1000
MVIEW
1002
{
1070
    16
1010
0.0
1020
0.0
1030
0.0
1010
0.0
1020
0.0
1030
1.0
1040
0.0
1040
1212.607689320388
1040
841.0
1040
594.0
1040
50.0
1040
0.0
1040
0.0
1070
     0
1070
   100
1070
     1
1070
     0
1070
     0
1070
     0
1070
     0
1070
     0
1040
0.0
1040
0.0
1040
0.0
1040
57.0
1040
57.0
1040
57.0
1040
57.0
1070
     0
1002
{
1002
}
1002
}
  0
ENDSEC
  0
SECTION
  2
OBJECTS
  0
DICTIONARY
  5
C
330
0
100
AcDbDictionary
  3
ACAD_GROUP
350
D
  3
ACAD_LAYOUT
350
7A6
  3
ACAD_MLINESTYLE
350
E
  3
ACAD_PLOTSETTINGS
350
7A7
1001
ACAD
1000
TREAT_AS_HARD
1070
     0
  0
DICTIONARY
  5
7D5
330
19
100
AcDbDictionary
  3
ACAD_LAYOUTSELFREF
350
7F7
1001
ACAD
1000
TREAT_AS_HARD
1070
     1
  0
DICTIONARY
  5
7D3
330
16
100
AcDbDictionary
  3
ACAD_LAYOUTSELFREF
350
7F6
1001
ACAD
1000
TREAT_AS_HARD
1070
     1
  0
DICTIONARY
  5
D
102
{ACAD_REACTORS
330
C
102
}
330
C
100
AcDbDictionary
1001
ACAD
1000
TREAT_AS_HARD
1070
     0
  0
DICTIONARY
  5
7A6
102
{ACAD_REACTORS
330
C
102
}
330
C
100
AcDbDictionary
1001
ACAD
1000
TREAT_AS_HARD
1070
     0
  0
DICTIONARY
  5
E
102
{ACAD_REACTORS
330
C
102
}
330
C
100
AcDbDictionary
  3
STANDARD
350
1C
1001
ACAD
1000
TREAT_AS_HARD
1070
     0
  0
DICTIONARY
  5
7A7
102
{ACAD_REACTORS
330
C
102
}
330
C
100
AcDbDictionary
1001
ACAD
1000
TREAT_AS_HARD
1070
     0
  0
XRECORD
  5
7F7
102
{ACAD_REACTORS
330
7D5
102
}
330
7D5
100
AcDbXrecord
340
19
  0
XRECORD
  5
7F6
102
{ACAD_REACTORS
330
7D3
102
}
330
7D3
100
AcDbXrecord
340
16
  0
MLINESTYLE
  5
1C
102
{ACAD_REACTORS
330
E
102
}
330
E
100
AcDbMlineStyle
  2
STANDARD
 70
     0
  3

 62
     0
 51
90.0
 52
90.0
 71
     2
 49
0.5
 62
   256
  6
BYLAYER
 49
-0.5
 62
   256
  6
BYLAYER
  0
ENDSEC
  0
EOF
