  0
SECTION
  2
HEADER
  9
$ACADVER
  1
AC1012
  9
$DWGCODEPAGE
  3
dos932
  9
$INSBASE
 10
0.0
 20
0.0
 30
0.0
  9
$EXTMIN
 10
19.90074647074652
 20
5.798621502208327
 30
0.0
  9
$EXTMAX
 10
1611.900746470746
 20
1124.166900699545
 30
0.0
  9
$LIMMIN
 10
0.0
 20
0.0
  9
$LIMMAX
 10
1682.0
 20
1188.0
  9
$ORTHOMODE
 70
     0
  9
$REGENMODE
 70
     1
  9
$FILLMODE
 70
     1
  9
$QTEXTMODE
 70
     0
  9
$MIRRTEXT
 70
     1
  9
$DRAGMODE
 70
     2
  9
$LTSCALE
 40
5.657142857142857
  9
$OSMODE
 70
   319
  9
$ATTMODE
 70
     1
  9
$TEXTSIZE
 40
19.8
  9
$TRACEWID
 40
0.05
  9
$TEXTSTYLE
  7
STANDARD
  9
$CLAYER
  8
SEIHIN
  9
$CELTYPE
  6
BYLAYER
  9
$CECOLOR
 62
   256
  9
$CELTSCALE
 40
1.0
  9
$DELOBJ
 70
     1
  9
$DISPSILH
 70
     0
  9
$DIMSCALE
 40
1.0
  9
$DIMASZ
 40
14.0
  9
$DIMEXO
 40
12.0
  9
$DIMDLI
 40
28.0
  9
$DIMRND
 40
0.0
  9
$DIMDLE
 40
0.0
  9
$DIMEXE
 40
6.0
  9
$DIMTP
 40
0.0
  9
$DIMTM
 40
0.0
  9
$DIMTXT
 40
12.0
  9
$DIMCEN
 40
150.0
  9
$DIMTSZ
 40
0.0
  9
$DIMTOL
 70
     0
  9
$DIMLIM
 70
     0
  9
$DIMTIH
 70
     0
  9
$DIMTOH
 70
     0
  9
$DIMSE1
 70
     0
  9
$DIMSE2
 70
     0
  9
$DIMTAD
 70
     3
  9
$DIMZIN
 70
     0
  9
$DIMBLK
  1

  9
$DIMASO
 70
     1
  9
$DIMSHO
 70
     1
  9
$DIMPOST
  1

  9
$DIMAPOST
  1

  9
$DIMALT
 70
     0
  9
$DIMALTD
 70
     2
  9
$DIMALTF
 40
0.03937
  9
$DIMLFAC
 40
1.0
  9
$DIMTOFL
 70
     1
  9
$DIMTVP
 40
0.0
  9
$DIMTIX
 70
     0
  9
$DIMSOXD
 70
     0
  9
$DIMSAH
 70
     1
  9
$DIMBLK1
  1
OPEN
  9
$DIMBLK2
  1
OPEN
  9
$DIMSTYLE
  2
STANDARD
  9
$DIMCLRD
 70
   256
  9
$DIMCLRE
 70
   256
  9
$DIMCLRT
 70
   256
  9
$DIMTFAC
 40
1.0
  9
$DIMGAP
 40
4.0
  9
$DIMJUST
 70
     0
  9
$DIMSD1
 70
     0
  9
$DIMSD2
 70
     0
  9
$DIMTOLJ
 70
     1
  9
$DIMTZIN
 70
     0
  9
$DIMALTZ
 70
     0
  9
$DIMALTTZ
 70
     0
  9
$DIMFIT
 70
     3
  9
$DIMUPT
 70
     0
  9
$DIMUNIT
 70
     2
  9
$DIMDEC
 70
     0
  9
$DIMTDEC
 70
     0
  9
$DIMALTU
 70
     2
  9
$DIMALTTD
 70
     2
  9
$DIMTXSTY
  7
STANDARD
  9
$DIMAUNIT
 70
     0
  9
$LUNITS
 70
     2
  9
$LUPREC
 70
     4
  9
$SKETCHINC
 40
0.1
  9
$FILLETRAD
 40
56.57142857142858
  9
$AUNITS
 70
     0
  9
$AUPREC
 70
     0
  9
$MENU
  1
acad
  9
$ELEVATION
 40
0.0
  9
$PELEVATION
 40
0.0
  9
$THICKNESS
 40
0.0
  9
$LIMCHECK
 70
     0
  9
$BLIPMODE
 70
     0
  9
$CHAMFERA
 40
56.57142857142858
  9
$CHAMFERB
 40
56.57142857142858
  9
$CHAMFERC
 40
113.1428571428571
  9
$CHAMFERD
 40
0.0
  9
$SKPOLY
 70
     0
  9
$TDCREATE
 40
2450994.355304167
  9
$TDUPDATE
 40
2452422.691997569
  9
$TDINDWG
 40
0.0089361111
  9
$TDUSRTIMER
 40
0.0089361111
  9
$USRTIMER
 70
     1
  9
$ANGBASE
 50
0.0
  9
$ANGDIR
 70
     0
  9
$PDMODE
 70
     1
  9
$PDSIZE
 40
0.0
  9
$PLINEWID
 40
0.0
  9
$COORDS
 70
     1
  9
$SPLFRAME
 70
     0
  9
$SPLINETYPE
 70
     6
  9
$SPLINESEGS
 70
     8
  9
$ATTDIA
 70
     0
  9
$ATTREQ
 70
     1
  9
$HANDLING
 70
 10241
  9
$HANDSEED
  5
782
  9
$SURFTAB1
 70
     6
  9
$SURFTAB2
 70
     6
  9
$SURFTYPE
 70
     6
  9
$SURFU
 70
     6
  9
$SURFV
 70
     6
  9
$UCSNAME
  2

  9
$UCSORG
 10
0.0
 20
0.0
 30
0.0
  9
$UCSXDIR
 10
1.0
 20
0.0
 30
0.0
  9
$UCSYDIR
 10
0.0
 20
1.0
 30
0.0
  9
$PUCSNAME
  2

  9
$PUCSORG
 10
0.0
 20
0.0
 30
0.0
  9
$PUCSXDIR
 10
1.0
 20
0.0
 30
0.0
  9
$PUCSYDIR
 10
0.0
 20
1.0
 30
0.0
  9
$USERI1
 70
     0
  9
$USERI2
 70
     0
  9
$USERI3
 70
     0
  9
$USERI4
 70
     0
  9
$USERI5
 70
     0
  9
$USERR1
 40
0.0
  9
$USERR2
 40
0.0
  9
$USERR3
 40
0.0
  9
$USERR4
 40
0.0
  9
$USERR5
 40
0.0
  9
$WORLDVIEW
 70
     1
  9
$SHADEDGE
 70
     3
  9
$SHADEDIF
 70
    70
  9
$TILEMODE
 70
     1
  9
$MAXACTVP
 70
    16
  9
$PINSBASE
 10
0.0
 20
0.0
 30
0.0
  9
$PLIMCHECK
 70
     0
  9
$PEXTMIN
 10
0.0
 20
0.0
 30
0.0
  9
$PEXTMAX
 10
420.0
 20
297.0
 30
0.0
  9
$PLIMMIN
 10
0.0
 20
0.0
  9
$PLIMMAX
 10
420.0
 20
297.0
  9
$UNITMODE
 70
     0
  9
$VISRETAIN
 70
     0
  9
$PLINEGEN
 70
     0
  9
$PSLTSCALE
 70
     1
  9
$TREEDEPTH
 70
  3020
  9
$PICKSTYLE
 70
     1
  9
$CMLSTYLE
  2
STANDARD
  9
$CMLJUST
 70
     0
  9
$CMLSCALE
 40
20.0
  9
$SAVEIMAGES
 70
     1
  0
ENDSEC
  0
SECTION
  2
CLASSES
  0
CLASS
  1
ACDBDICTIONARYWDFLT
  2
AcDbDictionaryWithDefault
  3
AutoCAD 2000
 90
    32768
280
     0
281
     0
  0
CLASS
  1
ACDBPLACEHOLDER
  2
AcDbPlaceHolder
  3
AutoCAD 2000
 90
    32768
280
     0
281
     0
  0
CLASS
  1
LAYOUT
  2
AcDbLayout
  3
AutoCAD 2000
 90
    32768
280
     0
281
     0
  0
CLASS
  1
LONG_TRANSACTION
  2
AcDbLongTransaction
  3
AutoCAD 2000
 90
    32768
280
     0
281
     0
  0
CLASS
  1
LWPOLYLINE
  2
AcDbPolyline
  3
AutoCAD 2000
 90
    32768
280
     0
281
     1
  0
CLASS
  1
HATCH
  2
AcDbHatch
  3
AutoCAD 2000
 90
    32768
280
     0
281
     1
  0
CLASS
  1
XRECORD
  2
AcDbXrecord
  3
AutoCAD 2000
 90
    32768
280
     0
281
     0
  0
CLASS
  1
LONG_TRANSACTION
  2
AcDbLongTransaction
  3
AutoCAD 2000
 90
    32768
280
     0
281
     0
  0
CLASS
  1
LWPOLYLINE
  2
AcDbPolyline
  3
AutoCAD 2000
 90
    32768
280
     0
281
     1
  0
CLASS
  1
HATCH
  2
AcDbHatch
  3
AutoCAD 2000
 90
    32768
280
     0
281
     1
  0
CLASS
  1
XRECORD
  2
AcDbXrecord
  3
AutoCAD 2000
 90
    32768
280
     0
281
     0
  0
CLASS
  1
LONG_TRANSACTION
  2
AcDbLongTransaction
  3
AutoCAD 2000
 90
    32768
280
     0
281
     0
  0
CLASS
  1
LWPOLYLINE
  2
AcDbPolyline
  3
AutoCAD 2000
 90
    32768
280
     0
281
     1
  0
CLASS
  1
HATCH
  2
AcDbHatch
  3
AutoCAD 2000
 90
    32768
280
     0
281
     1
  0
CLASS
  1
XRECORD
  2
AcDbXrecord
  3
AutoCAD 2000
 90
    32768
280
     0
281
     0
  0
ENDSEC
  0
SECTION
  2
TABLES
  0
TABLE
  2
VPORT
  5
8
330
0
100
AcDbSymbolTable
 70
     2
  0
VPORT
  5
777
330
8
100
AcDbSymbolTableRecord
100
AcDbViewportTableRecord
  2
*ACTIVE
 70
     0
 10
0.0
 20
0.0
 11
1.0
 21
1.0
 12
793.7385739431499
 22
593.0916833957866
 13
0.0
 23
0.0
 14
10.0
 24
10.0
 15
10.0
 25
10.0
 16
0.0
 26
0.0
 36
1.0
 17
0.0
 27
0.0
 37
0.0
 40
1218.073545283615
 41
1.709909909909909
 42
50.0
 43
0.0
 44
0.0
 50
0.0
 51
0.0
 71
     0
 72
   100
 73
     1
 74
     0
 75
     0
 76
     0
 77
     0
 78
     0
  0
ENDTAB
  0
TABLE
  2
LTYPE
  5
5
330
0
100
AcDbSymbolTable
 70
     3
  0
LTYPE
  5
13
330
5
100
AcDbSymbolTableRecord
100
AcDbLinetypeTableRecord
  2
BYBLOCK
 70
     0
  3

 72
    65
 73
     0
 40
0.0
  0
LTYPE
  5
14
330
5
100
AcDbSymbolTableRecord
100
AcDbLinetypeTableRecord
  2
BYLAYER
 70
     0
  3

 72
    65
 73
     0
 40
0.0
  0
LTYPE
  5
15
330
5
100
AcDbSymbolTableRecord
100
AcDbLinetypeTableRecord
  2
CONTINUOUS
 70
     0
  3
Solid line
 72
    65
 73
     0
 40
0.0
  0
LTYPE
  5
11C
330
5
100
AcDbSymbolTableRecord
100
AcDbLinetypeTableRecord
  2
CENTER
 70
     0
  3
____ _ ____ _ ____ _ ____ _ ____ _ ____ _ ____ 
 72
    65
 73
     4
 40
2.0
 49
1.25
 74
     0
 49
-0.25
 74
     0
 49
0.25
 74
     0
 49
-0.25
 74
     0
  0
LTYPE
  5
11E
330
5
100
AcDbSymbolTableRecord
100
AcDbLinetypeTableRecord
  2
PHANTOM
 70
     0
  3
______  __  __  ______  __  __  ______  __  __ 
 72
    65
 73
     6
 40
2.5
 49
1.25
 74
     0
 49
-0.25
 74
     0
 49
0.25
 74
     0
 49
-0.25
 74
     0
 49
0.25
 74
     0
 49
-0.25
 74
     0
  0
ENDTAB
  0
TABLE
  2
LAYER
  5
2
330
0
100
AcDbSymbolTable
 70
     8
  0
LAYER
  5
F
330
2
100
AcDbSymbolTableRecord
100
AcDbLayerTableRecord
  2
0
 70
     0
 62
     7
  6
CONTINUOUS
  0
LAYER
  5
23
330
2
100
AcDbSymbolTableRecord
100
AcDbLayerTableRecord
  2
VIEWPORT
 70
     0
 62
     7
  6
CONTINUOUS
  0
LAYER
  5
2D
330
2
100
AcDbSymbolTableRecord
100
AcDbLayerTableRecord
  2
ZUWAKU
 70
     0
 62
     7
  6
CONTINUOUS
  0
LAYER
  5
A6
330
2
100
AcDbSymbolTableRecord
100
AcDbLayerTableRecord
  2
DEFPOINTS
 70
     0
 62
     7
  6
CONTINUOUS
  0
LAYER
  5
1E7
330
2
100
AcDbSymbolTableRecord
100
AcDbLayerTableRecord
  2
SEIHIN
 70
     0
 62
     3
  6
CONTINUOUS
  0
LAYER
  5
1E8
330
2
100
AcDbSymbolTableRecord
100
AcDbLayerTableRecord
  2
SUNPOU
 70
     0
 62
     4
  6
CONTINUOUS
  0
LAYER
  5
1E9
330
2
100
AcDbSymbolTableRecord
100
AcDbLayerTableRecord
  2
SENTER_L
 70
     0
 62
     1
  6
CENTER
  0
LAYER
  5
1EA
330
2
100
AcDbSymbolTableRecord
100
AcDbLayerTableRecord
  2
NOKITOI
 70
     0
 62
     8
  6
PHANTOM
  0
ENDTAB
  0
TABLE
  2
STYLE
  5
3
330
0
100
AcDbSymbolTable
 70
     1
  0
STYLE
  5
10
330
3
100
AcDbSymbolTableRecord
100
AcDbTextStyleTableRecord
  2
STANDARD
 70
     0
 40
0.0
 41
1.0
 50
0.0
 71
     0
 42
19.8
  3
txt
  4
bigfont.shx
  0
ENDTAB
  0
TABLE
  2
VIEW
  5
6
330
0
100
AcDbSymbolTable
 70
     0
  0
ENDTAB
  0
TABLE
  2
UCS
  5
7
330
0
100
AcDbSymbolTable
 70
     0
  0
ENDTAB
  0
TABLE
  2
APPID
  5
9
330
0
100
AcDbSymbolTable
 70
     1
  0
APPID
  5
11
330
9
100
AcDbSymbolTableRecord
100
AcDbRegAppTableRecord
  2
ACAD
 70
     0
  0
ENDTAB
  0
TABLE
  2
DIMSTYLE
  5
A
330
0
100
AcDbSymbolTable
 70
     1
  0
DIMSTYLE
105
1D
102
{ACAD_REACTORS
330
3F1
330
3FA
330
427
330
56B
330
56D
330
577
330
57E
330
5A6
330
5A7
330
5AE
330
5AF
102
}
330
A
100
AcDbSymbolTableRecord
100
AcDbDimStyleTableRecord
  2
STANDARD
 70
     0
  3

  4

  5

  6

  7

 40
1.0
 41
0.18
 42
0.0625
 43
0.38
 44
0.18
 45
0.0
 46
0.0
 47
0.0
 48
0.0
140
0.18
141
0.09
142
0.0
143
25.4
144
1.0
145
0.0
146
1.0
147
0.09
 71
     0
 72
     0
 73
     1
 74
     1
 75
     0
 76
     0
 77
     0
 78
     0
170
     0
171
     2
172
     0
173
     0
174
     0
175
     0
176
     0
177
     0
178
     0
270
     2
271
     4
272
     4
273
     2
274
     2
340
10
275
     0
280
     0
281
     0
282
     0
283
     1
284
     0
285
     0
286
     0
287
     3
288
     0
  0
ENDTAB
  0
TABLE
  2
BLOCK_RECORD
  5
1
330
0
100
AcDbSymbolTable
 70
    12
  0
BLOCK_RECORD
  5
19
102
{ACAD_XDICTIONARY
360
725
102
}
330
1
100
AcDbSymbolTableRecord
100
AcDbBlockTableRecord
  2
*MODEL_SPACE
  0
BLOCK_RECORD
  5
16
102
{ACAD_XDICTIONARY
360
723
102
}
330
1
100
AcDbSymbolTableRecord
100
AcDbBlockTableRecord
  2
*PAPER_SPACE
  0
BLOCK_RECORD
  5
27
330
1
100
AcDbSymbolTableRecord
100
AcDbBlockTableRecord
  2
_OPEN
  0
BLOCK_RECORD
  5
5F3
330
1
100
AcDbSymbolTableRecord
100
AcDbBlockTableRecord
  2
*D1
  0
BLOCK_RECORD
  5
5FF
330
1
100
AcDbSymbolTableRecord
100
AcDbBlockTableRecord
  2
*D2
  0
BLOCK_RECORD
  5
60B
330
1
100
AcDbSymbolTableRecord
100
AcDbBlockTableRecord
  2
*D3
  0
BLOCK_RECORD
  5
617
330
1
100
AcDbSymbolTableRecord
100
AcDbBlockTableRecord
  2
*D4
  0
BLOCK_RECORD
  5
622
330
1
100
AcDbSymbolTableRecord
100
AcDbBlockTableRecord
  2
*D5
  0
BLOCK_RECORD
  5
630
330
1
100
AcDbSymbolTableRecord
100
AcDbBlockTableRecord
  2
*D6
  0
BLOCK_RECORD
  5
63C
330
1
100
AcDbSymbolTableRecord
100
AcDbBlockTableRecord
  2
*D7
  0
BLOCK_RECORD
  5
649
330
1
100
AcDbSymbolTableRecord
100
AcDbBlockTableRecord
  2
*D8
  0
BLOCK_RECORD
  5
655
330
1
100
AcDbSymbolTableRecord
100
AcDbBlockTableRecord
  2
*D9
  0
BLOCK_RECORD
  5
661
330
1
100
AcDbSymbolTableRecord
100
AcDbBlockTableRecord
  2
*D10
  0
BLOCK_RECORD
  5
66D
330
1
100
AcDbSymbolTableRecord
100
AcDbBlockTableRecord
  2
*D11
  0
ENDTAB
  0
ENDSEC
  0
SECTION
  2
BLOCKS
  0
BLOCK
  5
1A
330
19
100
AcDbEntity
  8
0
100
AcDbBlockBegin
  2
*MODEL_SPACE
 70
     0
 10
0.0
 20
0.0
 30
0.0
  3
*MODEL_SPACE
  1

  0
ENDBLK
  5
1B
330
19
100
AcDbEntity
  8
0
100
AcDbBlockEnd
  0
BLOCK
  5
17
330
16
100
AcDbEntity
 67
     1
  8
0
100
AcDbBlockBegin
  2
*PAPER_SPACE
 70
     0
 10
0.0
 20
0.0
 30
0.0
  3
*PAPER_SPACE
  1

  0
ENDBLK
  5
18
330
16
100
AcDbEntity
 67
     1
  8
0
100
AcDbBlockEnd
  0
BLOCK
  5
28
330
27
100
AcDbEntity
  8
0
100
AcDbBlockBegin
  2
_OPEN
 70
     0
 10
0.0
 20
0.0
 30
0.0
  3
_OPEN
  1

  0
LINE
  5
29
330
27
100
AcDbEntity
  8
0
  6
BYBLOCK
 62
     0
100
AcDbLine
 10
-1.0
 20
0.1666666666666666
 30
0.0
 11
0.0
 21
0.0
 31
0.0
  0
LINE
  5
2A
330
27
100
AcDbEntity
  8
0
  6
BYBLOCK
 62
     0
100
AcDbLine
 10
0.0
 20
0.0
 30
0.0
 11
-1.0
 21
-0.1666666666666666
 31
0.0
  0
LINE
  5
2B
330
27
100
AcDbEntity
  8
0
  6
BYBLOCK
 62
     0
100
AcDbLine
 10
0.0
 20
0.0
 30
0.0
 11
-1.0
 21
0.0
 31
0.0
  0
ENDBLK
  5
2C
330
27
100
AcDbEntity
  8
0
100
AcDbBlockEnd
  0
BLOCK
  5
679
330
5F3
100
AcDbEntity
  8
0
100
AcDbBlockBegin
  2
*D1
 70
     1
 10
0.0
 20
0.0
 30
0.0
  3
*D1
  1

  0
LINE
  5
67A
330
5F3
100
AcDbEntity
  8
0
  6
BYBLOCK
 62
     4
100
AcDbLine
 10
909.3342210674798
 20
835.3433854215587
 30
0.0
 11
841.4113915811862
 21
835.3433854215587
 31
0.0
  0
LINE
  5
67B
330
5F3
100
AcDbEntity
  8
0
  6
BYBLOCK
 62
     4
100
AcDbLine
 10
1047.883971069279
 20
403.3432853488587
 30
0.0
 11
841.4113915811862
 21
403.3432853488587
 31
0.0
  0
LINE
  5
67C
330
5F3
100
AcDbEntity
  8
0
  6
BYBLOCK
 62
     4
100
AcDbLine
 10
849.4113915811862
 20
823.3433854215586
 30
0.0
 11
849.4113915811862
 21
415.3432853488587
 31
0.0
  0
INSERT
  5
67D
330
5F3
100
AcDbEntity
  8
0
  6
BYBLOCK
 62
     4
100
AcDbBlockReference
  2
_OPEN
 10
849.4113915811862
 20
835.3433854215587
 30
0.0
 41
12.0
 42
12.0
 43
12.0
 50
90.0
  0
INSERT
  5
67E
330
5F3
100
AcDbEntity
  8
0
  6
BYBLOCK
 62
     4
100
AcDbBlockReference
  2
_OPEN
 10
849.4113915811862
 20
403.3432853488587
 30
0.0
 41
12.0
 42
12.0
 43
12.0
 50
270.0
  0
MTEXT
  5
67F
330
5F3
100
AcDbEntity
  8
0
  6
BYBLOCK
 62
     4
100
AcDbMText
 10
839.4113915811862
 20
619.3433353852087
 30
0.0
 40
12.0
 41
0.0
 71
     5
 72
     1
  1
\A1;432
 11
0.0
 21
1.0
 31
0.0
1001
ACAD
1000
MTEXTBEGIN
1070
    73
1070
     1
1070
    44
1040
1.0
1070
    74
1070
     0
1000
MTEXTEND
1000
MTEXTBEGIN
1070
    73
1070
     1
1070
    44
1040
1.0
1070
    74
1070
     0
1000
MTEXTEND
1000
MTEXTBEGIN
1070
    73
1070
     1
1070
    44
1040
1.0
1070
    74
1070
     0
1000
MTEXTEND
  0
POINT
  5
680
330
5F3
100
AcDbEntity
  8
DEFPOINTS
  6
BYBLOCK
 62
     0
100
AcDbPoint
 10
929.3342210674797
 20
835.3433854215587
 30
0.0
  0
POINT
  5
681
330
5F3
100
AcDbEntity
  8
DEFPOINTS
  6
BYBLOCK
 62
     0
100
AcDbPoint
 10
1067.883971069279
 20
403.3432853488587
 30
0.0
  0
POINT
  5
682
330
5F3
100
AcDbEntity
  8
DEFPOINTS
  6
BYBLOCK
 62
     0
100
AcDbPoint
 10
849.4113915811862
 20
403.3432853488587
 30
0.0
  0
ENDBLK
  5
683
330
5F3
100
AcDbEntity
  8
0
100
AcDbBlockEnd
  0
BLOCK
  5
684
330
5FF
100
AcDbEntity
  8
0
100
AcDbBlockBegin
  2
*D2
 70
     1
 10
0.0
 20
0.0
 30
0.0
  3
*D2
  1

  0
LINE
  5
685
330
5FF
100
AcDbEntity
  8
0
  6
BYBLOCK
 62
     4
100
AcDbLine
 10
627.8007250692797
 20
387.3427823481588
 30
0.0
 11
627.8007250692797
 21
339.710846278623
 31
0.0
  0
LINE
  5
686
330
5FF
100
AcDbEntity
  8
0
  6
BYBLOCK
 62
     4
100
AcDbLine
 10
570.9008250692797
 20
387.3427823481588
 30
0.0
 11
570.9008250692797
 21
339.710846278623
 31
0.0
  0
LINE
  5
687
330
5FF
100
AcDbEntity
  8
0
  6
BYBLOCK
 62
     4
100
AcDbLine
 10
615.8007250692797
 20
347.710846278623
 30
0.0
 11
582.9008250692798
 21
347.710846278623
 31
0.0
  0
INSERT
  5
688
330
5FF
100
AcDbEntity
  8
0
  6
BYBLOCK
 62
     4
100
AcDbBlockReference
  2
_OPEN
 10
627.8007250692797
 20
347.710846278623
 30
0.0
 41
12.0
 42
12.0
 43
12.0
  0
INSERT
  5
689
330
5FF
100
AcDbEntity
  8
0
  6
BYBLOCK
 62
     4
100
AcDbBlockReference
  2
_OPEN
 10
570.9008250692797
 20
347.710846278623
 30
0.0
 41
12.0
 42
12.0
 43
12.0
 50
180.0
  0
MTEXT
  5
68A
330
5FF
100
AcDbEntity
  8
0
  6
BYBLOCK
 62
     4
100
AcDbMText
 10
599.3507750692797
 20
357.7108462786231
 30
0.0
 40
12.0
 41
0.0
 71
     5
 72
     1
  1
\A1;57
1001
ACAD
1000
MTEXTBEGIN
1070
    73
1070
     1
1070
    44
1040
1.0
1070
    74
1070
     0
1000
MTEXTEND
1000
MTEXTBEGIN
1070
    73
1070
     1
1070
    44
1040
1.0
1070
    74
1070
     0
1000
MTEXTEND
1000
MTEXTBEGIN
1070
    73
1070
     1
1070
    44
1040
1.0
1070
    74
1070
     0
1000
MTEXTEND
  0
POINT
  5
68B
330
5FF
100
AcDbEntity
  8
DEFPOINTS
  6
BYBLOCK
 62
     0
100
AcDbPoint
 10
627.8007250692797
 20
407.3427823481588
 30
0.0
  0
POINT
  5
68C
330
5FF
100
AcDbEntity
  8
DEFPOINTS
  6
BYBLOCK
 62
     0
100
AcDbPoint
 10
570.9008250692797
 20
407.3427823481588
 30
0.0
  0
POINT
  5
68D
330
5FF
100
AcDbEntity
  8
DEFPOINTS
  6
BYBLOCK
 62
     0
100
AcDbPoint
 10
570.9008250692797
 20
347.710846278623
 30
0.0
  0
ENDBLK
  5
68E
330
5FF
100
AcDbEntity
  8
0
100
AcDbBlockEnd
  0
BLOCK
  5
68F
330
60B
100
AcDbEntity
  8
0
100
AcDbBlockBegin
  2
*D3
 70
     1
 10
0.0
 20
0.0
 30
0.0
  3
*D3
  1

  0
LINE
  5
690
330
60B
100
AcDbEntity
  8
0
  6
BYBLOCK
 62
     4
100
AcDbLine
 10
729.3676210674798
 20
855.3432854215586
 30
0.0
 11
729.3676210674798
 21
898.9226787691094
 31
0.0
  0
LINE
  5
691
330
60B
100
AcDbEntity
  8
0
  6
BYBLOCK
 62
     4
100
AcDbLine
 10
469.3341210674796
 20
855.3432854215586
 30
0.0
 11
469.3341210674796
 21
898.9226787691094
 31
0.0
  0
LINE
  5
692
330
60B
100
AcDbEntity
  8
0
  6
BYBLOCK
 62
     4
100
AcDbLine
 10
717.3676210674798
 20
890.9226787691094
 30
0.0
 11
481.3341210674797
 21
890.9226787691094
 31
0.0
  0
INSERT
  5
693
330
60B
100
AcDbEntity
  8
0
  6
BYBLOCK
 62
     4
100
AcDbBlockReference
  2
_OPEN
 10
729.3676210674798
 20
890.9226787691094
 30
0.0
 41
12.0
 42
12.0
 43
12.0
  0
INSERT
  5
694
330
60B
100
AcDbEntity
  8
0
  6
BYBLOCK
 62
     4
100
AcDbBlockReference
  2
_OPEN
 10
469.3341210674796
 20
890.9226787691094
 30
0.0
 41
12.0
 42
12.0
 43
12.0
 50
180.0
  0
MTEXT
  5
695
330
60B
100
AcDbEntity
  8
0
  6
BYBLOCK
 62
     4
100
AcDbMText
 10
599.3508710674798
 20
900.9226787691094
 30
0.0
 40
12.0
 41
0.0
 71
     5
 72
     1
  1
\A1;260
1001
ACAD
1000
MTEXTBEGIN
1070
    73
1070
     1
1070
    44
1040
1.0
1070
    74
1070
     0
1000
MTEXTEND
1000
MTEXTBEGIN
1070
    73
1070
     1
1070
    44
1040
1.0
1070
    74
1070
     0
1000
MTEXTEND
1000
MTEXTBEGIN
1070
    73
1070
     1
1070
    44
1040
1.0
1070
    74
1070
     0
1000
MTEXTEND
  0
POINT
  5
696
330
60B
100
AcDbEntity
  8
DEFPOINTS
  6
BYBLOCK
 62
     0
100
AcDbPoint
 10
729.3676210674798
 20
835.3432854215585
 30
0.0
  0
POINT
  5
697
330
60B
100
AcDbEntity
  8
DEFPOINTS
  6
BYBLOCK
 62
     0
100
AcDbPoint
 10
469.3341210674796
 20
835.3432854215585
 30
0.0
  0
POINT
  5
698
330
60B
100
AcDbEntity
  8
DEFPOINTS
  6
BYBLOCK
 62
     0
100
AcDbPoint
 10
469.3341210674796
 20
890.9226787691094
 30
0.0
  0
ENDBLK
  5
699
330
60B
100
AcDbEntity
  8
0
100
AcDbBlockEnd
  0
BLOCK
  5
69A
330
617
100
AcDbEntity
  8
0
100
AcDbBlockBegin
  2
*D4
 70
     1
 10
0.0
 20
0.0
 30
0.0
  3
*D4
  1

  0
LINE
  5
77A
330
617
100
AcDbEntity
  8
SUNPOU
  6
CONTINUOUS
 62
     4
100
AcDbLine
 10
1063.573626092366
 20
311.5227823996896
 30
0.0
 11
892.2508992927882
 21
311.5227823996896
 31
0.0
  0
LINE
  5
77B
330
617
100
AcDbEntity
  8
SUNPOU
  6
CONTINUOUS
 62
     4
100
AcDbLine
 10
900.2508992927882
 20
600.6221274724888
 30
0.0
 11
900.2508992927882
 21
323.5227823996896
 31
0.0
  0
INSERT
  5
77C
330
617
100
AcDbEntity
  8
SUNPOU
  6
CONTINUOUS
 62
     4
100
AcDbBlockReference
  2
_OPEN
 10
900.2508992927882
 20
612.6221274724888
 30
0.0
 41
12.0
 42
12.0
 43
12.0
 50
90.0
  0
INSERT
  5
77D
330
617
100
AcDbEntity
  8
SUNPOU
  6
CONTINUOUS
 62
     4
100
AcDbBlockReference
  2
_OPEN
 10
900.2508992927882
 20
311.5227823996896
 30
0.0
 41
12.0
 42
12.0
 43
12.0
 50
270.0
  0
MTEXT
  5
77E
330
617
100
AcDbEntity
  8
SUNPOU
  6
CONTINUOUS
 62
     4
100
AcDbMText
 10
890.2508992927881
 20
462.0724549360893
 30
0.0
 40
12.0
 41
0.0
 71
     5
 72
     1
  1
\A1;301
 11
0.0000000000000001
 21
1.0
 31
0.0
  0
POINT
  5
77F
330
617
100
AcDbEntity
  8
DEFPOINTS
  6
CONTINUOUS
 62
     0
100
AcDbPoint
 10
1079.023576090566
 20
612.6221274724888
 30
0.0
  0
POINT
  5
780
330
617
100
AcDbEntity
  8
DEFPOINTS
  6
CONTINUOUS
 62
     0
100
AcDbPoint
 10
1083.573626092366
 20
311.5227823996896
 30
0.0
  0
POINT
  5
781
330
617
100
AcDbEntity
  8
DEFPOINTS
  6
CONTINUOUS
 62
     0
100
AcDbPoint
 10
900.2508992927882
 20
311.5227823996896
 30
0.0
  0
ENDBLK
  5
6A3
330
617
100
AcDbEntity
  8
0
100
AcDbBlockEnd
  0
BLOCK
  5
6A4
330
622
100
AcDbEntity
  8
0
100
AcDbBlockBegin
  2
*D5
 70
     1
 10
0.0
 20
0.0
 30
0.0
  3
*D5
  1

  0
LINE
  5
6A5
330
622
100
AcDbEntity
  8
0
  6
BYBLOCK
 62
     4
100
AcDbLine
 10
1063.333921067479
 20
665.9239937548587
 30
0.0
 11
1063.333921067479
 21
664.8604835847789
 31
0.0
  0
LINE
  5
6A6
330
622
100
AcDbEntity
  8
0
  6
BYBLOCK
 62
     4
100
AcDbLine
 10
1095.833971069279
 20
463.5940853488587
 30
0.0
 11
1095.833971069279
 21
676.8604835847789
 31
0.0
  0
LINE
  5
6A7
330
622
100
AcDbEntity
  8
0
  6
BYBLOCK
 62
     4
100
AcDbLine
 10
1049.333921067479
 20
670.860483584779
 30
0.0
 11
1035.333921067479
 21
670.860483584779
 31
0.0
  0
LINE
  5
6A8
330
622
100
AcDbEntity
  8
0
  6
BYBLOCK
 62
     4
100
AcDbLine
 10
1109.833971069279
 20
670.860483584779
 30
0.0
 11
1123.833971069279
 21
670.860483584779
 31
0.0
  0
LINE
  5
6A9
330
622
100
AcDbEntity
  8
0
  6
BYBLOCK
 62
     4
100
AcDbLine
 10
1063.333921067479
 20
670.860483584779
 30
0.0
 11
1095.833971069279
 21
670.860483584779
 31
0.0
  0
INSERT
  5
6AA
330
622
100
AcDbEntity
  8
0
  6
BYBLOCK
 62
     4
100
AcDbBlockReference
  2
_OPEN
 10
1063.333921067479
 20
670.860483584779
 30
0.0
 41
14.0
 42
14.0
 43
14.0
  0
INSERT
  5
6AB
330
622
100
AcDbEntity
  8
0
  6
BYBLOCK
 62
     4
100
AcDbBlockReference
  2
_OPEN
 10
1095.833971069279
 20
670.860483584779
 30
0.0
 41
14.0
 42
14.0
 43
14.0
 50
180.0
  0
MTEXT
  5
6AC
330
622
100
AcDbEntity
  8
0
  6
BYBLOCK
 62
     4
100
AcDbMText
 10
1079.583946068379
 20
680.8604835847789
 30
0.0
 40
12.0
 41
0.0
 71
     5
 72
     1
  1
\A1;33
1001
ACAD
1000
MTEXTBEGIN
1070
    73
1070
     1
1070
    44
1040
1.0
1070
    74
1070
     0
1000
MTEXTEND
1000
MTEXTBEGIN
1070
    73
1070
     1
1070
    44
1040
1.0
1070
    74
1070
     0
1000
MTEXTEND
1000
MTEXTBEGIN
1070
    73
1070
     1
1070
    44
1040
1.0
1070
    74
1070
     0
1000
MTEXTEND
  0
POINT
  5
6AD
330
622
100
AcDbEntity
  8
DEFPOINTS
  6
BYBLOCK
 62
     0
100
AcDbPoint
 10
1063.333921067479
 20
677.9239937548587
 30
0.0
  0
POINT
  5
6AE
330
622
100
AcDbEntity
  8
DEFPOINTS
  6
BYBLOCK
 62
     0
100
AcDbPoint
 10
1095.833971069279
 20
451.5940853488587
 30
0.0
  0
POINT
  5
6AF
330
622
100
AcDbEntity
  8
DEFPOINTS
  6
BYBLOCK
 62
     0
100
AcDbPoint
 10
1095.833971069279
 20
670.860483584779
 30
0.0
  0
ENDBLK
  5
6B0
330
622
100
AcDbEntity
  8
0
100
AcDbBlockEnd
  0
BLOCK
  5
6B1
330
630
100
AcDbEntity
  8
0
100
AcDbBlockBegin
  2
*D6
 70
     1
 10
0.0
 20
0.0
 30
0.0
  3
*D6
  1

  0
LINE
  5
6B2
330
630
100
AcDbEntity
  8
0
  6
BYBLOCK
 62
     4
100
AcDbLine
 10
1124.283971069279
 20
387.3432853488587
 30
0.0
 11
1124.283971069279
 21
329.5014705138559
 31
0.0
  0
LINE
  5
6B3
330
630
100
AcDbEntity
  8
0
  6
BYBLOCK
 62
     4
100
AcDbLine
 10
1067.383971069279
 20
387.3432853488587
 30
0.0
 11
1067.383971069279
 21
329.5014705138559
 31
0.0
  0
LINE
  5
6B4
330
630
100
AcDbEntity
  8
0
  6
BYBLOCK
 62
     4
100
AcDbLine
 10
1112.283971069279
 20
337.5014705138559
 30
0.0
 11
1079.383971069279
 21
337.5014705138559
 31
0.0
  0
INSERT
  5
6B5
330
630
100
AcDbEntity
  8
0
  6
BYBLOCK
 62
     4
100
AcDbBlockReference
  2
_OPEN
 10
1124.283971069279
 20
337.5014705138559
 30
0.0
 41
12.0
 42
12.0
 43
12.0
  0
INSERT
  5
6B6
330
630
100
AcDbEntity
  8
0
  6
BYBLOCK
 62
     4
100
AcDbBlockReference
  2
_OPEN
 10
1067.383971069279
 20
337.5014705138559
 30
0.0
 41
12.0
 42
12.0
 43
12.0
 50
180.0
  0
MTEXT
  5
6B7
330
630
100
AcDbEntity
  8
0
  6
BYBLOCK
 62
     4
100
AcDbMText
 10
1095.833971069279
 20
347.5014705138558
 30
0.0
 40
12.0
 41
0.0
 71
     5
 72
     1
  1
\A1;57
1001
ACAD
1000
MTEXTBEGIN
1070
    73
1070
     1
1070
    44
1040
1.0
1070
    74
1070
     0
1000
MTEXTEND
1000
MTEXTBEGIN
1070
    73
1070
     1
1070
    44
1040
1.0
1070
    74
1070
     0
1000
MTEXTEND
1000
MTEXTBEGIN
1070
    73
1070
     1
1070
    44
1040
1.0
1070
    74
1070
     0
1000
MTEXTEND
  0
POINT
  5
6B8
330
630
100
AcDbEntity
  8
DEFPOINTS
  6
BYBLOCK
 62
     0
100
AcDbPoint
 10
1124.283971069279
 20
407.3432853488587
 30
0.0
  0
POINT
  5
6B9
330
630
100
AcDbEntity
  8
DEFPOINTS
  6
BYBLOCK
 62
     0
100
AcDbPoint
 10
1067.383971069279
 20
407.3432853488587
 30
0.0
  0
POINT
  5
6BA
330
630
100
AcDbEntity
  8
DEFPOINTS
  6
BYBLOCK
 62
     0
100
AcDbPoint
 10
1067.383971069279
 20
337.5014705138559
 30
0.0
  0
ENDBLK
  5
6BB
330
630
100
AcDbEntity
  8
0
100
AcDbBlockEnd
  0
BLOCK
  5
6BC
330
63C
100
AcDbEntity
  8
0
100
AcDbBlockBegin
  2
*D7
 70
     1
 10
0.0
 20
0.0
 30
0.0
  3
*D7
  1

  0
LINE
  5
6BD
330
63C
100
AcDbEntity
  8
0
  6
BYBLOCK
 62
     4
100
AcDbLine
 10
1054.683971069279
 20
443.3432853488588
 30
0.0
 11
1005.690772182197
 21
443.3432853488588
 31
0.0
  0
LINE
  5
6BE
330
63C
100
AcDbEntity
  8
0
  6
BYBLOCK
 62
     4
100
AcDbLine
 10
1055.883971069279
 20
403.3432853488587
 30
0.0
 11
1005.690772182197
 21
403.3432853488587
 31
0.0
  0
LINE
  5
6BF
330
63C
100
AcDbEntity
  8
0
  6
BYBLOCK
 62
     4
100
AcDbLine
 10
1011.690772182197
 20
429.3432853488588
 30
0.0
 11
1011.690772182197
 21
417.3432853488588
 31
0.0
  0
LINE
  5
6C0
330
63C
100
AcDbEntity
  8
0
  6
BYBLOCK
 62
     4
100
AcDbLine
 10
1011.690772182197
 20
403.3432853488587
 30
0.0
 11
1011.690772182197
 21
341.7432853488587
 31
0.0
  0
INSERT
  5
6C1
330
63C
100
AcDbEntity
  8
0
  6
BYBLOCK
 62
     4
100
AcDbBlockReference
  2
_OPEN
 10
1011.690772182197
 20
443.3432853488588
 30
0.0
 41
14.0
 42
14.0
 43
14.0
 50
90.0
  0
INSERT
  5
6C2
330
63C
100
AcDbEntity
  8
0
  6
BYBLOCK
 62
     4
100
AcDbBlockReference
  2
_OPEN
 10
1011.690772182197
 20
403.3432853488587
 30
0.0
 41
14.0
 42
14.0
 43
14.0
 50
270.0
  0
MTEXT
  5
6C3
330
63C
100
AcDbEntity
  8
0
  6
BYBLOCK
 62
     4
100
AcDbMText
 10
1001.690772182197
 20
365.5432853488587
 30
0.0
 40
12.0
 41
0.0
 71
     5
 72
     1
  1
\A1;※ 40
 11
0.0
 21
1.0
 31
0.0
1001
ACAD
1000
MTEXTBEGIN
1070
    73
1070
     1
1070
    44
1040
1.0
1070
    74
1070
     0
1000
MTEXTEND
1000
MTEXTBEGIN
1070
    73
1070
     1
1070
    44
1040
1.0
1070
    74
1070
     0
1000
MTEXTEND
1000
MTEXTBEGIN
1070
    73
1070
     1
1070
    44
1040
1.0
1070
    74
1070
     0
1000
MTEXTEND
  0
POINT
  5
6C4
330
63C
100
AcDbEntity
  8
DEFPOINTS
  6
BYBLOCK
 62
     0
100
AcDbPoint
 10
1066.683971069279
 20
443.3432853488588
 30
0.0
  0
POINT
  5
6C5
330
63C
100
AcDbEntity
  8
DEFPOINTS
  6
BYBLOCK
 62
     0
100
AcDbPoint
 10
1067.883971069279
 20
403.3432853488587
 30
0.0
  0
POINT
  5
6C6
330
63C
100
AcDbEntity
  8
DEFPOINTS
  6
BYBLOCK
 62
     0
100
AcDbPoint
 10
1011.690772182197
 20
403.3432853488587
 30
0.0
  0
ENDBLK
  5
6C7
330
63C
100
AcDbEntity
  8
0
100
AcDbBlockEnd
  0
BLOCK
  5
6C8
330
649
100
AcDbEntity
  8
0
100
AcDbBlockBegin
  2
*D8
 70
     1
 10
0.0
 20
0.0
 30
0.0
  3
*D8
  1

  0
LINE
  5
6C9
330
649
100
AcDbEntity
  8
0
  6
BYBLOCK
 62
     4
100
AcDbLine
 10
929.3342210674797
 20
855.3433854215587
 30
0.0
 11
929.3342210674797
 21
927.8003826437588
 31
0.0
  0
LINE
  5
6CA
330
649
100
AcDbEntity
  8
0
  6
BYBLOCK
 62
     4
100
AcDbLine
 10
1127.334121067479
 20
785.7432854215586
 30
0.0
 11
1127.334121067479
 21
927.8003826437588
 31
0.0
  0
LINE
  5
6CB
330
649
100
AcDbEntity
  8
0
  6
BYBLOCK
 62
     4
100
AcDbLine
 10
941.3342210674798
 20
919.8003826437588
 30
0.0
 11
1115.334121067479
 21
919.8003826437588
 31
0.0
  0
INSERT
  5
6CC
330
649
100
AcDbEntity
  8
0
  6
BYBLOCK
 62
     4
100
AcDbBlockReference
  2
_OPEN
 10
929.3342210674797
 20
919.8003826437588
 30
0.0
 41
12.0
 42
12.0
 43
12.0
 50
180.0
  0
INSERT
  5
6CD
330
649
100
AcDbEntity
  8
0
  6
BYBLOCK
 62
     4
100
AcDbBlockReference
  2
_OPEN
 10
1127.334121067479
 20
919.8003826437588
 30
0.0
 41
12.0
 42
12.0
 43
12.0
  0
MTEXT
  5
6CE
330
649
100
AcDbEntity
  8
0
  6
BYBLOCK
 62
     4
100
AcDbMText
 10
1028.334171067479
 20
929.8003826437588
 30
0.0
 40
12.0
 41
0.0
 71
     5
 72
     1
  1
\A1;198
1001
ACAD
1000
MTEXTBEGIN
1070
    73
1070
     1
1070
    44
1040
1.0
1070
    74
1070
     0
1000
MTEXTEND
1000
MTEXTBEGIN
1070
    73
1070
     1
1070
    44
1040
1.0
1070
    74
1070
     0
1000
MTEXTEND
1000
MTEXTBEGIN
1070
    73
1070
     1
1070
    44
1040
1.0
1070
    74
1070
     0
1000
MTEXTEND
  0
POINT
  5
6CF
330
649
100
AcDbEntity
  8
DEFPOINTS
  6
BYBLOCK
 62
     0
100
AcDbPoint
 10
929.3342210674797
 20
835.3433854215587
 30
0.0
  0
POINT
  5
6D0
330
649
100
AcDbEntity
  8
DEFPOINTS
  6
BYBLOCK
 62
     0
100
AcDbPoint
 10
1127.334121067479
 20
765.7432854215586
 30
0.0
  0
POINT
  5
6D1
330
649
100
AcDbEntity
  8
DEFPOINTS
  6
BYBLOCK
 62
     0
100
AcDbPoint
 10
1127.334121067479
 20
919.8003826437588
 30
0.0
  0
ENDBLK
  5
6D2
330
649
100
AcDbEntity
  8
0
100
AcDbBlockEnd
  0
BLOCK
  5
6D3
330
655
100
AcDbEntity
  8
0
100
AcDbBlockBegin
  2
*D9
 70
     1
 10
0.0
 20
0.0
 30
0.0
  3
*D9
  1

  0
LINE
  5
6D4
330
655
100
AcDbEntity
  8
0
  6
BYBLOCK
 62
     4
100
AcDbLine
 10
1063.333921067479
 20
756.3323270882587
 30
0.0
 11
1063.333921067479
 21
899.0930909771586
 31
0.0
  0
LINE
  5
6D5
330
655
100
AcDbEntity
  8
0
  6
BYBLOCK
 62
     4
100
AcDbLine
 10
1127.334121067479
 20
785.7432854215586
 30
0.0
 11
1127.334121067479
 21
899.0930909771586
 31
0.0
  0
LINE
  5
6D6
330
655
100
AcDbEntity
  8
0
  6
BYBLOCK
 62
     4
100
AcDbLine
 10
1075.333921067479
 20
891.0930909771586
 30
0.0
 11
1115.334121067479
 21
891.0930909771586
 31
0.0
  0
INSERT
  5
6D7
330
655
100
AcDbEntity
  8
0
  6
BYBLOCK
 62
     4
100
AcDbBlockReference
  2
_OPEN
 10
1063.333921067479
 20
891.0930909771586
 30
0.0
 41
12.0
 42
12.0
 43
12.0
 50
180.0
  0
INSERT
  5
6D8
330
655
100
AcDbEntity
  8
0
  6
BYBLOCK
 62
     4
100
AcDbBlockReference
  2
_OPEN
 10
1127.334121067479
 20
891.0930909771586
 30
0.0
 41
12.0
 42
12.0
 43
12.0
  0
MTEXT
  5
6D9
330
655
100
AcDbEntity
  8
0
  6
BYBLOCK
 62
     4
100
AcDbMText
 10
1095.334021067479
 20
901.0930909771586
 30
0.0
 40
12.0
 41
0.0
 71
     5
 72
     1
  1
\A1;64
1001
ACAD
1000
MTEXTBEGIN
1070
    73
1070
     1
1070
    44
1040
1.0
1070
    74
1070
     0
1000
MTEXTEND
1000
MTEXTBEGIN
1070
    73
1070
     1
1070
    44
1040
1.0
1070
    74
1070
     0
1000
MTEXTEND
1000
MTEXTBEGIN
1070
    73
1070
     1
1070
    44
1040
1.0
1070
    74
1070
     0
1000
MTEXTEND
  0
POINT
  5
6DA
330
655
100
AcDbEntity
  8
DEFPOINTS
  6
BYBLOCK
 62
     0
100
AcDbPoint
 10
1063.333921067479
 20
736.3323270882586
 30
0.0
  0
POINT
  5
6DB
330
655
100
AcDbEntity
  8
DEFPOINTS
  6
BYBLOCK
 62
     0
100
AcDbPoint
 10
1127.334121067479
 20
765.7432854215586
 30
0.0
  0
POINT
  5
6DC
330
655
100
AcDbEntity
  8
DEFPOINTS
  6
BYBLOCK
 62
     0
100
AcDbPoint
 10
1127.334121067479
 20
891.0930909771586
 30
0.0
  0
ENDBLK
  5
6DD
330
655
100
AcDbEntity
  8
0
100
AcDbBlockEnd
  0
BLOCK
  5
6DE
330
661
100
AcDbEntity
  8
0
100
AcDbBlockBegin
  2
*D10
 70
     1
 10
0.0
 20
0.0
 30
0.0
  3
*D10
  1

  0
LINE
  5
6DF
330
661
100
AcDbEntity
  8
0
  6
BYBLOCK
 62
     4
100
AcDbLine
 10
909.3342210674798
 20
835.3433854215587
 30
0.0
 11
876.5612442697014
 21
835.3433854215587
 31
0.0
  0
LINE
  5
6E0
330
661
100
AcDbEntity
  8
0
  6
BYBLOCK
 62
     4
100
AcDbLine
 10
1043.333921067479
 20
704.442630421658
 30
0.0
 11
876.5612442697014
 21
704.442630421658
 31
0.0
  0
LINE
  5
6E1
330
661
100
AcDbEntity
  8
0
  6
BYBLOCK
 62
     4
100
AcDbLine
 10
884.5612442697014
 20
823.3433854215586
 30
0.0
 11
884.5612442697014
 21
716.442630421658
 31
0.0
  0
INSERT
  5
6E2
330
661
100
AcDbEntity
  8
0
  6
BYBLOCK
 62
     4
100
AcDbBlockReference
  2
_OPEN
 10
884.5612442697014
 20
835.3433854215587
 30
0.0
 41
12.0
 42
12.0
 43
12.0
 50
90.0
  0
INSERT
  5
6E3
330
661
100
AcDbEntity
  8
0
  6
BYBLOCK
 62
     4
100
AcDbBlockReference
  2
_OPEN
 10
884.5612442697014
 20
704.442630421658
 30
0.0
 41
12.0
 42
12.0
 43
12.0
 50
270.0
  0
MTEXT
  5
6E4
330
661
100
AcDbEntity
  8
0
  6
BYBLOCK
 62
     4
100
AcDbMText
 10
874.5612442697014
 20
769.8930079216084
 30
0.0
 40
12.0
 41
0.0
 71
     5
 72
     1
  1
\A1;131
 11
0.0
 21
1.0
 31
0.0
1001
ACAD
1000
MTEXTBEGIN
1070
    73
1070
     1
1070
    44
1040
1.0
1070
    74
1070
     0
1000
MTEXTEND
1000
MTEXTBEGIN
1070
    73
1070
     1
1070
    44
1040
1.0
1070
    74
1070
     0
1000
MTEXTEND
1000
MTEXTBEGIN
1070
    73
1070
     1
1070
    44
1040
1.0
1070
    74
1070
     0
1000
MTEXTEND
  0
POINT
  5
6E5
330
661
100
AcDbEntity
  8
DEFPOINTS
  6
BYBLOCK
 62
     0
100
AcDbPoint
 10
929.3342210674797
 20
835.3433854215587
 30
0.0
  0
POINT
  5
6E6
330
661
100
AcDbEntity
  8
DEFPOINTS
  6
BYBLOCK
 62
     0
100
AcDbPoint
 10
1063.333921067479
 20
704.442630421658
 30
0.0
  0
POINT
  5
6E7
330
661
100
AcDbEntity
  8
DEFPOINTS
  6
BYBLOCK
 62
     0
100
AcDbPoint
 10
884.5612442697014
 20
704.442630421658
 30
0.0
  0
ENDBLK
  5
6E8
330
661
100
AcDbEntity
  8
0
100
AcDbBlockEnd
  0
BLOCK
  5
6E9
330
66D
100
AcDbEntity
  8
0
100
AcDbBlockBegin
  2
*D11
 70
     1
 10
0.0
 20
0.0
 30
0.0
  3
*D11
  1

  0
LINE
  5
6EA
330
66D
100
AcDbEntity
  8
0
  6
BYBLOCK
 62
     4
100
AcDbLine
 10
929.3342210674797
 20
855.3433854215587
 30
0.0
 11
929.3342210674797
 21
899.0930909771586
 31
0.0
  0
LINE
  5
6EB
330
66D
100
AcDbEntity
  8
0
  6
BYBLOCK
 62
     4
100
AcDbLine
 10
1063.333921067479
 20
756.3323270882587
 30
0.0
 11
1063.333921067479
 21
899.0930909771586
 31
0.0
  0
LINE
  5
6EC
330
66D
100
AcDbEntity
  8
0
  6
BYBLOCK
 62
     4
100
AcDbLine
 10
941.3342210674798
 20
891.0930909771586
 30
0.0
 11
1051.333921067479
 21
891.0930909771586
 31
0.0
  0
INSERT
  5
6ED
330
66D
100
AcDbEntity
  8
0
  6
BYBLOCK
 62
     4
100
AcDbBlockReference
  2
_OPEN
 10
929.3342210674797
 20
891.0930909771586
 30
0.0
 41
12.0
 42
12.0
 43
12.0
 50
180.0
  0
INSERT
  5
6EE
330
66D
100
AcDbEntity
  8
0
  6
BYBLOCK
 62
     4
100
AcDbBlockReference
  2
_OPEN
 10
1063.333921067479
 20
891.0930909771586
 30
0.0
 41
12.0
 42
12.0
 43
12.0
  0
MTEXT
  5
6EF
330
66D
100
AcDbEntity
  8
0
  6
BYBLOCK
 62
     4
100
AcDbMText
 10
996.3340710674795
 20
901.0930909771586
 30
0.0
 40
12.0
 41
0.0
 71
     5
 72
     1
  1
\A1;134
1001
ACAD
1000
MTEXTBEGIN
1070
    73
1070
     1
1070
    44
1040
1.0
1070
    74
1070
     0
1000
MTEXTEND
1000
MTEXTBEGIN
1070
    73
1070
     1
1070
    44
1040
1.0
1070
    74
1070
     0
1000
MTEXTEND
1000
MTEXTBEGIN
1070
    73
1070
     1
1070
    44
1040
1.0
1070
    74
1070
     0
1000
MTEXTEND
  0
POINT
  5
6F0
330
66D
100
AcDbEntity
  8
DEFPOINTS
  6
BYBLOCK
 62
     0
100
AcDbPoint
 10
929.3342210674797
 20
835.3433854215587
 30
0.0
  0
POINT
  5
6F1
330
66D
100
AcDbEntity
  8
DEFPOINTS
  6
BYBLOCK
 62
     0
100
AcDbPoint
 10
1063.333921067479
 20
736.3323270882586
 30
0.0
  0
POINT
  5
6F2
330
66D
100
AcDbEntity
  8
DEFPOINTS
  6
BYBLOCK
 62
     0
100
AcDbPoint
 10
1063.333921067479
 20
891.0930909771586
 30
0.0
  0
ENDBLK
  5
6F3
330
66D
100
AcDbEntity
  8
0
100
AcDbBlockEnd
  0
ENDSEC
  0
SECTION
  2
ENTITIES
  0
LINE
  5
121
330
19
100
AcDbEntity
  8
ZUWAKU
 62
     7
 48
10.0
100
AcDbLine
 10
19.90074647074652
 20
48.1669006995453
 30
0.0
 11
1611.900746470746
 21
48.16690069954507
 31
0.0
  0
LINE
  5
122
330
19
100
AcDbEntity
  8
ZUWAKU
  6
CONTINUOUS
 62
     7
100
AcDbLine
 10
1611.900746470746
 20
1124.166900699545
 30
0.0
 11
19.90074647074652
 21
1124.166900699545
 31
0.0
  0
LINE
  5
123
330
19
100
AcDbEntity
  8
ZUWAKU
  6
CONTINUOUS
 62
     7
100
AcDbLine
 10
1611.900746470746
 20
24.16690069954529
 30
0.0
 11
19.90074647074652
 21
24.16690069954529
 31
0.0
  0
LINE
  5
124
330
19
100
AcDbEntity
  8
ZUWAKU
  6
CONTINUOUS
 62
     7
100
AcDbLine
 10
19.90074647074652
 20
1124.166900699545
 30
0.0
 11
19.90074647074652
 21
24.16690069954529
 31
0.0
  0
LINE
  5
125
330
19
100
AcDbEntity
  8
ZUWAKU
 62
     7
 48
10.0
100
AcDbLine
 10
88.91574076238157
 20
24.16690069954529
 30
0.0
 11
88.91574076238157
 21
48.1669006995453
 31
0.0
  0
TEXT
  5
126
330
19
100
AcDbEntity
  8
ZUWAKU
 62
     7
100
AcDbText
 10
31.91332132304342
 20
27.64761340998802
 30
0.0
 40
16.0
  1
品 種
100
AcDbText
  0
LINE
  5
127
330
19
100
AcDbEntity
  8
ZUWAKU
 62
     7
 48
10.0
100
AcDbLine
 10
552.0054677130756
 20
24.16690069954529
 30
0.0
 11
552.0054677130756
 21
48.16690069954521
 31
0.0
  0
LINE
  5
128
330
19
100
AcDbEntity
  8
ZUWAKU
 62
     7
 48
10.0
100
AcDbLine
 10
418.8274955845217
 20
24.16690069954529
 30
0.0
 11
418.8274955845218
 21
48.16690069954525
 31
0.0
  0
TEXT
  5
129
330
19
100
AcDbEntity
  8
ZUWAKU
 62
     7
100
AcDbText
 10
564.4260762822405
 20
27.88656214294769
 30
0.0
 40
16.0
  1
たてあんこう　型　１０５－Ｙ６０
100
AcDbText
  0
TEXT
  5
12A
330
19
100
AcDbEntity
  8
ZUWAKU
 62
     7
100
AcDbText
 10
430.711957737576
 20
28.96889043994906
 30
0.0
 40
16.0
  1
品名・ｻ ｲ ｽﾞ
100
AcDbText
  0
TEXT
  5
12B
330
19
100
AcDbEntity
  8
ZUWAKU
 62
     7
100
AcDbText
 10
100.503666760442
 20
28.80785192669509
 30
0.0
 40
16.0
  1
丸トップ　のきとい
100
AcDbText
  0
LINE
  5
12C
330
19
100
AcDbEntity
  8
ZUWAKU
 62
     7
 48
10.0
100
AcDbLine
 10
1537.246006285983
 20
24.16690069954474
 30
0.0
 11
1537.246006285983
 21
48.16690069954507
 31
0.0
  0
LINE
  5
12D
330
19
100
AcDbEntity
  8
ZUWAKU
 62
     7
 48
10.0
100
AcDbLine
 10
1467.423590774814
 20
24.16690069954483
 30
0.0
 11
1467.423590774814
 21
48.16690069954509
 31
0.0
  0
TEXT
  5
12E
330
19
100
AcDbEntity
  8
ZUWAKU
 62
     7
100
AcDbText
 10
1479.19091629413
 20
27.08628325011705
 30
0.0
 40
16.0
  1
尺 度
100
AcDbText
  0
TEXT
  5
12F
330
19
100
AcDbEntity
  8
ZUWAKU
 62
     7
100
AcDbText
 10
1559.27471636407
 20
27.71150653553059
 30
0.0
 40
16.0
  1
1/4
100
AcDbText
  0
TEXT
  5
130
330
19
100
AcDbEntity
  8
ZUWAKU
 62
     7
100
AcDbText
 10
1308.30613703518
 20
28.40748782453036
 30
0.0
 40
16.0
  1
ＧＱ９９
100
AcDbText
  0
TEXT
  5
131
330
19
100
AcDbEntity
  8
ZUWAKU
 62
     7
100
AcDbText
 10
1240.472447976041
 20
27.90554632275259
 30
0.0
 40
16.0
  1
品 番
100
AcDbText
  0
LINE
  5
132
330
19
100
AcDbEntity
  8
ZUWAKU
 62
     7
 48
10.0
100
AcDbLine
 10
1228.46999593825
 20
24.16690069954464
 30
0.0
 11
1228.46999593825
 21
48.16690069954512
 31
0.0
  0
LINE
  5
133
330
19
100
AcDbEntity
  8
ZUWAKU
 62
     7
 48
10.0
100
AcDbLine
 10
1297.321307773629
 20
24.16690069954464
 30
0.0
 11
1297.321307773629
 21
48.1669006995451
 31
0.0
  0
TEXT
  5
134
330
19
100
AcDbEntity
  8
ZUWAKU
 62
     7
 48
10.0
100
AcDbText
 10
1292.407013373002
 20
5.798621502208334
 30
0.0
 40
16.0
  1
積水化学工業株式会社  建材
100
AcDbText
  0
LINE
  5
135
330
19
100
AcDbEntity
  8
ZUWAKU
  6
CONTINUOUS
 62
     7
100
AcDbLine
 10
1611.900746470746
 20
1124.166900699545
 30
0.0
 11
1611.900746470746
 21
24.16690069954529
 31
0.0
  0
DIMENSION
  5
3F1
330
19
100
AcDbEntity
  8
SUNPOU
  6
CONTINUOUS
 62
     4
 48
32.0
100
AcDbDimension
  2
*D1
 10
865.1010466042729
 20
311.5227823996896
 30
0.0
 11
855.1010466042729
 21
527.5228324360396
 31
0.0
 12
15.68965502308674
 22
-91.82050294916917
 32
0.0
 70
    32
  3
STANDARD
100
AcDbAlignedDimension
 13
945.0238760905666
 23
743.5228824723895
 33
0.0
 14
1083.573626092366
 24
311.5227823996896
 34
0.0
 50
90.0
100
AcDbRotatedDimension
1001
ACAD
1000
DSTYLE
1002
{
1070
   140
1040
12.0
1070
    74
1070
     0
1070
    73
1070
     0
1070
   272
1070
     0
1070
    77
1070
     3
1070
   173
1070
     1
1070
   147
1040
4.0
1070
    42
1040
20.0
1070
    44
1040
8.0
1070
    43
1040
32.0
1070
   271
1070
     0
1070
   178
1070
     4
1070
   177
1070
     4
1070
   176
1070
     4
1070
   141
1040
12.0
1070
     7
1000
_OPEN
1070
     6
1000
_OPEN
1070
    41
1040
12.0
1002
}
  0
LINE
  5
3F2
330
19
100
AcDbEntity
  8
SEIHIN
  6
CONTINUOUS
 62
     3
 48
32.0
100
AcDbLine
 10
670.0401760905665
 20
541.3811824723894
 30
0.0
 11
670.0401760905665
 21
539.5225824723894
 31
0.0
  0
LINE
  5
3F3
330
19
100
AcDbEntity
  8
SEIHIN
  6
CONTINUOUS
 62
     3
 48
32.0
100
AcDbLine
 10
670.4185760905665
 20
547.6138824723895
 30
0.0
 11
670.0405760905665
 21
539.5227824723893
 31
0.0
  0
LINE
  5
3F4
330
19
100
AcDbEntity
  8
SEIHIN
  6
CONTINUOUS
 62
     3
 48
32.0
100
AcDbLine
 10
560.0402760905665
 20
541.3812824723894
 30
0.0
 11
560.0402760905665
 21
539.5227824723893
 31
0.0
  0
LINE
  5
3F5
330
19
100
AcDbEntity
  8
SEIHIN
  6
CONTINUOUS
 62
     3
 48
32.0
100
AcDbLine
 10
559.6624760905665
 20
547.6138824723895
 30
0.0
 11
560.0404760905665
 21
539.5227824723893
 31
0.0
  0
LINE
  5
3F6
330
19
100
AcDbEntity
  8
SENTER_L
  6
CENTER
 62
     1
 48
3.5
100
AcDbLine
 10
615.0404774319664
 20
299.2069633920896
 30
0.0
 11
615.0405760905665
 21
755.9046824723894
 31
0.0
  0
LINE
  5
3F7
330
19
100
AcDbEntity
  8
SEIHIN
  6
CONTINUOUS
 62
     3
 48
32.0
100
AcDbLine
 10
615.0411800923665
 20
351.5226793989896
 30
0.0
 11
584.6904800923665
 21
351.5226793989896
 31
0.0
  0
LINE
  5
3F8
330
19
100
AcDbEntity
  8
SEIHIN
  6
CONTINUOUS
 62
     3
 48
32.0
100
AcDbLine
 10
586.5904800923665
 20
315.5222793989896
 30
0.0
 11
615.0403800923665
 21
315.5222793989896
 31
0.0
  0
LINE
  5
3F9
330
19
100
AcDbEntity
  8
SEIHIN
  6
CONTINUOUS
 62
     3
 48
32.0
100
AcDbLine
 10
587.0904800923665
 20
311.5222793989896
 30
0.0
 11
615.0403800923665
 21
311.5222793989896
 31
0.0
  0
DIMENSION
  5
3FA
330
19
100
AcDbEntity
  8
SUNPOU
  6
CONTINUOUS
 62
     4
 48
32.0
100
AcDbDimension
  2
*D2
 10
586.5904800923665
 20
255.8903433294539
 30
0.0
 11
615.0404300923664
 21
265.8903433294539
 31
0.0
 12
15.68965502308674
 22
-91.82050294916917
 32
0.0
 70
    32
  3
STANDARD
100
AcDbAlignedDimension
 13
643.4903800923665
 23
315.5222793989896
 33
0.0
 14
586.5904800923665
 24
315.5222793989896
 34
0.0
100
AcDbRotatedDimension
1001
ACAD
1000
DSTYLE
1002
{
1070
   140
1040
12.0
1070
    74
1070
     0
1070
    73
1070
     0
1070
   272
1070
     0
1070
    77
1070
     3
1070
   173
1070
     1
1070
   147
1040
4.0
1070
    42
1040
20.0
1070
    44
1040
8.0
1070
    43
1040
32.0
1070
   271
1070
     0
1070
   178
1070
     4
1070
   177
1070
     4
1070
   176
1070
     4
1070
   141
1040
12.0
1070
     7
1000
_OPEN
1070
     6
1000
_OPEN
1070
    41
1040
12.0
1002
}
  0
LINE
  5
3FB
330
19
100
AcDbEntity
  8
SEIHIN
  6
CONTINUOUS
 62
     3
 48
32.0
100
AcDbLine
 10
615.0405800923665
 20
521.5226793989894
 30
0.0
 11
560.0401800923665
 21
521.5226793989894
 31
0.0
  0
LINE
  5
3FC
330
19
100
AcDbEntity
  8
SEIHIN
  6
CONTINUOUS
 62
     3
 48
32.0
100
AcDbLine
 10
560.0402721450665
 20
539.5226854692895
 30
0.0
 11
670.0408800360666
 21
539.5226794741894
 31
0.0
  0
LINE
  5
3FD
330
19
100
AcDbEntity
  8
SEIHIN
  6
CONTINUOUS
 62
     3
 48
32.0
100
AcDbLine
 10
615.0402800923664
 20
454.5233793989896
 30
0.0
 11
579.9817800923665
 21
454.5233793989896
 31
0.0
  0
LINE
  5
3FE
330
19
100
AcDbEntity
  8
SEIHIN
  6
CONTINUOUS
 62
     3
 48
32.0
100
AcDbLine
 10
615.0405800923665
 20
519.5225793989894
 30
0.0
 11
562.0403800923664
 21
519.5226793989895
 31
0.0
  0
ARC
  5
3FF
330
19
100
AcDbEntity
  8
SEIHIN
  6
CONTINUOUS
 62
     3
 48
32.0
100
AcDbCircle
 10
504.8577800923665
 20
346.3508793989896
 30
0.0
 40
80.00004099999999
100
AcDbArc
 50
3.706612000499999
 51
30.14216500389999
  0
ARC
  5
400
330
19
100
AcDbEntity
  8
SEIHIN
  6
CONTINUOUS
 62
     3
 48
32.0
100
AcDbCircle
 10
504.8577800923665
 20
346.3508793989896
 30
0.0
 40
88.999983
100
AcDbArc
 50
3.3313410004
 51
28.6856320037
  0
LINE
  5
401
330
19
100
AcDbEntity
  8
SEIHIN
  6
CONTINUOUS
 62
     3
 48
32.0
100
AcDbLine
 10
586.5904800923665
 20
315.5222793989896
 30
0.0
 11
586.5904800923665
 21
351.5222793989896
 31
0.0
  0
LINE
  5
402
330
19
100
AcDbEntity
  8
SEIHIN
  6
CONTINUOUS
 62
     3
 48
32.0
100
AcDbLine
 10
595.7404800923665
 20
315.5222793989896
 30
0.0
 11
595.7404800923665
 21
351.5221793989895
 31
0.0
  0
LINE
  5
403
330
19
100
AcDbEntity
  8
SEIHIN
  6
CONTINUOUS
 62
     3
 48
32.0
100
AcDbLine
 10
596.2404800923665
 20
311.5222793989896
 30
0.0
 11
595.7404800923665
 21
315.5222793989896
 31
0.0
  0
LINE
  5
404
330
19
100
AcDbEntity
  8
SEIHIN
  6
CONTINUOUS
 62
     3
 48
32.0
100
AcDbLine
 10
587.0904800923665
 20
311.5222793989896
 30
0.0
 11
586.5904800923665
 21
315.5222793989896
 31
0.0
  0
LINE
  5
405
330
19
100
AcDbEntity
  8
SEIHIN
  6
CONTINUOUS
 62
     3
 48
32.0
100
AcDbLine
 10
578.0515800923665
 20
497.3112793989895
 30
0.0
 11
582.9344800923665
 21
389.0711793989897
 31
0.0
  0
LINE
  5
406
330
19
100
AcDbEntity
  8
SEIHIN
  6
CONTINUOUS
 62
     3
 48
32.0
100
AcDbLine
 10
568.8390800923665
 20
501.8189793989896
 30
0.0
 11
574.0403800923664
 21
386.5226793989896
 31
0.0
  0
LINE
  5
407
330
19
100
AcDbEntity
  8
SEIHIN
  6
CONTINUOUS
 62
     3
 48
32.0
100
AcDbLine
 10
574.0403800923664
 20
386.5226793989896
 30
0.0
 11
582.9344800923665
 21
389.0711793989897
 31
0.0
  0
ARC
  5
408
330
19
100
AcDbEntity
  8
SEIHIN
  6
CONTINUOUS
 62
     3
 48
32.0
100
AcDbCircle
 10
569.3832800923665
 20
451.5788793989896
 30
0.0
 40
10.999953
100
AcDbArc
 50
15.526481002
 51
83.58457101090001
  0
ARC
  5
409
330
19
100
AcDbEntity
  8
SEIHIN
  6
CONTINUOUS
 62
     3
 48
32.0
100
AcDbCircle
 10
538.8695800923665
 20
500.4670793989895
 30
0.0
 40
29.99996499999999
100
AcDbArc
 50
2.582816000299999
 51
39.43390300509999
  0
ARC
  5
40A
330
19
100
AcDbEntity
  8
SEIHIN
  6
CONTINUOUS
 62
     3
 48
32.0
100
AcDbCircle
 10
553.0769800923665
 20
496.1846793989894
 30
0.0
 40
24.999993
100
AcDbArc
 50
2.582852000299999
 51
68.990412009
  0
LINE
  5
40B
330
19
100
AcDbEntity
  8
SEIHIN
  6
CONTINUOUS
 62
     3
 48
32.0
100
AcDbLine
 10
562.0403800923664
 20
519.5225793989894
 30
0.0
 11
562.0403800923664
 21
521.5226793989894
 31
0.0
  0
ARC
  5
40C
330
19
100
AcDbEntity
  8
SEIHIN
  6
CONTINUOUS
 62
     3
 48
32.0
100
AcDbCircle
 10
572.0402800923665
 20
530.5226793989894
 30
0.0
 40
15.00001
100
AcDbArc
 50
143.1301020187
 51
216.8693630283
  0
ARC
  5
40D
330
19
100
AcDbEntity
  8
SEIHIN
  6
CONTINUOUS
 62
     3
 48
32.0
100
AcDbCircle
 10
725.2231800923665
 20
346.3507793989896
 30
0.0
 40
89.00001000000001
100
AcDbArc
 50
151.3143120197999
 51
176.6685950231
  0
ARC
  5
40E
330
19
100
AcDbEntity
  8
SEIHIN
  6
CONTINUOUS
 62
     3
 48
32.0
100
AcDbCircle
 10
725.2231800923665
 20
346.3507793989896
 30
0.0
 40
80.000069
100
AcDbArc
 50
149.8577730195999
 51
176.293317023
  0
LINE
  5
40F
330
19
100
AcDbEntity
  8
SEIHIN
  6
CONTINUOUS
 62
     3
 48
32.0
100
AcDbLine
 10
615.0397800923665
 20
351.5226793989896
 30
0.0
 11
645.3904800923666
 21
351.5226793989896
 31
0.0
  0
LINE
  5
410
330
19
100
AcDbEntity
  8
SEIHIN
  6
CONTINUOUS
 62
     3
 48
32.0
100
AcDbLine
 10
643.4903800923665
 20
315.5222793989896
 30
0.0
 11
615.0404800923665
 21
315.5222793989896
 31
0.0
  0
LINE
  5
411
330
19
100
AcDbEntity
  8
SEIHIN
  6
CONTINUOUS
 62
     3
 48
32.0
100
AcDbLine
 10
642.9903800923665
 20
311.5222793989896
 30
0.0
 11
615.0404800923665
 21
311.5222793989896
 31
0.0
  0
LINE
  5
412
330
19
100
AcDbEntity
  8
SEIHIN
  6
CONTINUOUS
 62
     3
 48
32.0
100
AcDbLine
 10
633.8403800923665
 20
311.5222793989896
 30
0.0
 11
634.3403800923665
 21
315.5222793989896
 31
0.0
  0
LINE
  5
413
330
19
100
AcDbEntity
  8
SEIHIN
  6
CONTINUOUS
 62
     3
 48
32.0
100
AcDbLine
 10
634.3403800923665
 20
315.5222793989896
 30
0.0
 11
634.3403800923665
 21
351.5221793989895
 31
0.0
  0
LINE
  5
414
330
19
100
AcDbEntity
  8
SEIHIN
  6
CONTINUOUS
 62
     3
 48
32.0
100
AcDbLine
 10
643.4903800923665
 20
315.5222793989896
 30
0.0
 11
643.4903800923665
 21
351.5222793989896
 31
0.0
  0
LINE
  5
415
330
19
100
AcDbEntity
  8
SEIHIN
  6
CONTINUOUS
 62
     3
 48
32.0
100
AcDbLine
 10
642.9903800923665
 20
311.5222793989896
 30
0.0
 11
643.4903800923665
 21
315.5222793989896
 31
0.0
  0
LINE
  5
416
330
19
100
AcDbEntity
  8
SEIHIN
  6
CONTINUOUS
 62
     3
 48
32.0
100
AcDbLine
 10
661.2419800923666
 20
501.8189793989896
 30
0.0
 11
656.0405800923665
 21
386.5226793989896
 31
0.0
  0
LINE
  5
417
330
19
100
AcDbEntity
  8
SEIHIN
  6
CONTINUOUS
 62
     3
 48
32.0
100
AcDbLine
 10
652.0294800923664
 20
497.3112793989895
 30
0.0
 11
647.1463800923665
 21
389.0711793989897
 31
0.0
  0
LINE
  5
418
330
19
100
AcDbEntity
  8
SEIHIN
  6
CONTINUOUS
 62
     3
 48
32.0
100
AcDbLine
 10
656.0405800923665
 20
386.5226793989896
 30
0.0
 11
647.1463800923665
 21
389.0711793989897
 31
0.0
  0
ARC
  5
419
330
19
100
AcDbEntity
  8
SEIHIN
  6
CONTINUOUS
 62
     3
 48
32.0
100
AcDbCircle
 10
691.2114800923665
 20
500.4669793989895
 30
0.0
 40
29.999967
100
AcDbArc
 50
140.5660970183999
 51
177.4169940232
  0
LINE
  5
41A
330
19
100
AcDbEntity
  8
SEIHIN
  6
CONTINUOUS
 62
     3
 48
32.0
100
AcDbLine
 10
615.0405800923665
 20
519.5225793989894
 30
0.0
 11
668.0405800923665
 21
519.5226793989895
 31
0.0
  0
LINE
  5
41B
330
19
100
AcDbEntity
  8
SEIHIN
  6
CONTINUOUS
 62
     3
 48
32.0
100
AcDbLine
 10
615.0405800923665
 20
521.5226793989894
 30
0.0
 11
670.0408800923666
 21
521.5226793989894
 31
0.0
  0
ARC
  5
41C
330
19
100
AcDbEntity
  8
SEIHIN
  6
CONTINUOUS
 62
     3
 48
32.0
100
AcDbCircle
 10
677.0040800923665
 20
496.1846793989894
 30
0.0
 40
24.999993
100
AcDbArc
 50
111.0095880145
 51
177.4171480231999
  0
LINE
  5
41D
330
19
100
AcDbEntity
  8
SEIHIN
  6
CONTINUOUS
 62
     3
 48
32.0
100
AcDbLine
 10
615.0406800923665
 20
454.5233793989896
 30
0.0
 11
650.0991800923665
 21
454.5233793989896
 31
0.0
  0
ARC
  5
41E
330
19
100
AcDbEntity
  8
SEIHIN
  6
CONTINUOUS
 62
     3
 48
32.0
100
AcDbCircle
 10
660.6976800923665
 20
451.5788793989896
 30
0.0
 40
10.999953
100
AcDbArc
 50
96.41542901260002
 51
164.4735190215
  0
LINE
  5
41F
330
19
100
AcDbEntity
  8
SEIHIN
  6
CONTINUOUS
 62
     3
 48
32.0
100
AcDbLine
 10
668.0405800923665
 20
519.5225793989894
 30
0.0
 11
668.0405800923665
 21
521.5226793989894
 31
0.0
  0
ARC
  5
420
330
19
100
AcDbEntity
  8
SEIHIN
  6
CONTINUOUS
 62
     3
 48
32.0
100
AcDbCircle
 10
658.0408800923666
 20
530.5226793989894
 30
0.0
 40
15.0
100
AcDbArc
 50
323.1301020422
 51
36.8698980048
  0
ARC
  5
421
330
19
100
AcDbEntity
  8
SEIHIN
  6
CONTINUOUS
 62
     3
 48
32.0
100
AcDbCircle
 10
575.6198760905665
 20
749.3250824723894
 30
0.0
 40
99.99998300000001
100
AcDbArc
 50
278.9915650364
 51
293.2163380383
  0
ARC
  5
422
330
19
100
AcDbEntity
  8
SEIHIN
  6
CONTINUOUS
 62
     3
 48
32.0
100
AcDbCircle
 10
575.6198760905665
 20
752.8250824723894
 30
0.0
 40
99.99995699999999
100
AcDbArc
 50
277.9856530362999
 51
293.2163380383
  0
ARC
  5
423
330
19
100
AcDbEntity
  8
SEIHIN
  6
CONTINUOUS
 62
     3
 48
32.0
100
AcDbCircle
 10
575.6198760905665
 20
745.8250824723895
 30
0.0
 40
99.99997200000001
100
AcDbArc
 50
280.0188460365999
 51
293.2163380383
  0
LINE
  5
424
330
19
100
AcDbEntity
  8
SEIHIN
  6
CONTINUOUS
 62
     3
 48
32.0
100
AcDbLine
 10
602.0403760905666
 20
636.9747824723896
 30
0.0
 11
595.0406760905665
 21
632.9334824723895
 31
0.0
  0
LINE
  5
425
330
19
100
AcDbEntity
  8
SEIHIN
  6
CONTINUOUS
 62
     3
 48
32.0
100
AcDbLine
 10
602.0403760905666
 20
621.9638824723894
 30
0.0
 11
595.0406760905665
 21
617.9226824723895
 31
0.0
  0
LINE
  5
426
330
19
100
AcDbEntity
  8
SEIHIN
  6
CONTINUOUS
 62
     3
 48
32.0
100
AcDbLine
 10
602.0402760905665
 20
606.9531824723895
 30
0.0
 11
595.0405760905665
 21
602.9119824723895
 31
0.0
  0
DIMENSION
  5
427
330
19
100
AcDbEntity
  8
SUNPOU
  6
CONTINUOUS
 62
     4
 48
32.0
100
AcDbDimension
  2
*D3
 10
485.0237760905664
 20
799.1021758199402
 30
0.0
 11
615.0405260905666
 21
809.1021758199403
 31
0.0
 12
15.68965502308674
 22
-91.82050294916917
 32
0.0
 70
    32
  3
STANDARD
100
AcDbAlignedDimension
 13
745.0572760905665
 23
743.5227824723893
 33
0.0
 14
485.0237760905664
 24
743.5227824723893
 34
0.0
100
AcDbRotatedDimension
1001
ACAD
1000
DSTYLE
1002
{
1070
   140
1040
12.0
1070
    74
1070
     0
1070
    73
1070
     0
1070
   272
1070
     0
1070
    77
1070
     3
1070
   173
1070
     1
1070
   147
1040
4.0
1070
    42
1040
20.0
1070
    44
1040
8.0
1070
    43
1040
32.0
1070
   271
1070
     0
1070
   178
1070
     4
1070
   177
1070
     4
1070
   176
1070
     4
1070
   141
1040
12.0
1070
     7
1000
_OPEN
1070
     6
1000
_OPEN
1070
    41
1040
12.0
1002
}
  0
LINE
  5
428
330
19
100
AcDbEntity
  8
SEIHIN
  6
CONTINUOUS
 62
     3
 48
32.0
100
AcDbLine
 10
511.8924760905664
 20
692.5227824723894
 30
0.0
 11
615.0405760905665
 21
692.5227824723894
 31
0.0
  0
LINE
  5
429
330
19
100
AcDbEntity
  8
SEIHIN
  6
CONTINUOUS
 62
     3
 48
32.0
100
AcDbLine
 10
522.0237760905664
 20
689.5227824723893
 30
0.0
 11
615.0405760905665
 21
689.5227824723893
 31
0.0
  0
LINE
  5
42A
330
19
100
AcDbEntity
  8
SEIHIN
  6
CONTINUOUS
 62
     3
 48
32.0
100
AcDbLine
 10
527.8264760905665
 20
676.9226824723895
 30
0.0
 11
615.0405760905665
 21
676.9226824723895
 31
0.0
  0
LINE
  5
42B
330
19
100
AcDbEntity
  8
SEIHIN
  6
CONTINUOUS
 62
     3
 48
32.0
100
AcDbLine
 10
615.0405760905665
 20
668.9226824723895
 30
0.0
 11
562.0503760905665
 21
668.9226824723895
 31
0.0
  0
LINE
  5
42C
330
19
100
AcDbEntity
  8
SEIHIN
  6
CONTINUOUS
 62
     3
 48
32.0
100
AcDbLine
 10
508.0237760905665
 20
709.5227824723894
 30
0.0
 11
615.0405760905665
 21
709.5227824723894
 31
0.0
  0
LINE
  5
42D
330
19
100
AcDbEntity
  8
SEIHIN
  6
CONTINUOUS
 62
     3
 48
32.0
100
AcDbLine
 10
485.0237760905664
 20
743.5227824723893
 30
0.0
 11
615.0405760905665
 21
743.5227824723893
 31
0.0
  0
LINE
  5
42E
330
19
100
AcDbEntity
  8
SEIHIN
  6
CONTINUOUS
 62
     3
 48
32.0
100
AcDbLine
 10
485.0237760905664
 20
737.5227824723894
 30
0.0
 11
615.0405760905665
 21
737.5227824723894
 31
0.0
  0
LINE
  5
42F
330
19
100
AcDbEntity
  8
SEIHIN
  6
CONTINUOUS
 62
     3
 48
32.0
100
AcDbLine
 10
487.0237760905665
 20
735.5227824723893
 30
0.0
 11
615.0405760905665
 21
735.5227824723893
 31
0.0
  0
LINE
  5
430
330
19
100
AcDbEntity
  8
SEIHIN
  6
CONTINUOUS
 62
     3
 48
32.0
100
AcDbLine
 10
492.0237760905664
 20
714.5227824723893
 30
0.0
 11
615.0405760905665
 21
714.5227824723893
 31
0.0
  0
LINE
  5
431
330
19
100
AcDbEntity
  8
SEIHIN
  6
CONTINUOUS
 62
     3
 48
32.0
100
AcDbLine
 10
533.0237760905665
 20
673.9226824723894
 30
0.0
 11
615.0405760905665
 21
673.9226824723894
 31
0.0
  0
ARC
  5
432
330
19
100
AcDbEntity
  8
SEIHIN
  6
CONTINUOUS
 62
     3
 48
32.0
100
AcDbCircle
 10
575.6190760905665
 20
483.0204824723896
 30
0.0
 40
100.000014
100
AcDbArc
 50
66.7835340087
 51
82.0142420107
  0
ARC
  5
433
330
19
100
AcDbEntity
  8
SEIHIN
  6
CONTINUOUS
 62
     3
 48
32.0
100
AcDbCircle
 10
575.6190760905665
 20
486.5204824723895
 30
0.0
 40
99.999993
100
AcDbArc
 50
66.7835340087
 51
81.00832201060001
  0
ARC
  5
434
330
19
100
AcDbEntity
  8
SEIHIN
  6
CONTINUOUS
 62
     3
 48
32.0
100
AcDbCircle
 10
575.6190760905665
 20
490.0204824723894
 30
0.0
 40
99.99999200000001
100
AcDbArc
 50
66.7835340087
 51
79.9809840104
  0
LINE
  5
435
330
19
100
AcDbEntity
  8
SEIHIN
  6
CONTINUOUS
 62
     3
 48
32.0
100
AcDbLine
 10
602.0402760905665
 20
591.9424824723895
 30
0.0
 11
595.0405760905665
 21
587.9011824723894
 31
0.0
  0
LINE
  5
436
330
19
100
AcDbEntity
  8
SEIHIN
  6
CONTINUOUS
 62
     3
 48
32.0
100
AcDbLine
 10
550.0404760905666
 20
560.9226824723894
 30
0.0
 11
615.0405760905665
 21
560.9226824723894
 31
0.0
  0
LINE
  5
437
330
19
100
AcDbEntity
  8
SEIHIN
  6
CONTINUOUS
 62
     3
 48
32.0
100
AcDbLine
 10
562.8403760905666
 20
562.9226824723895
 30
0.0
 11
615.0405760905665
 21
562.9226824723895
 31
0.0
  0
ARC
  5
438
330
19
100
AcDbEntity
  8
SEIHIN
  6
CONTINUOUS
 62
     3
 48
32.0
100
AcDbCircle
 10
567.9062760905664
 20
739.8573824723895
 30
0.0
 40
80.0
100
AcDbArc
 50
183.1058770239
 51
197.9884360258999
  0
LINE
  5
439
330
19
100
AcDbEntity
  8
SEIHIN
  6
CONTINUOUS
 62
     3
 48
32.0
100
AcDbLine
 10
592.0403760905665
 20
634.6655824723894
 30
0.0
 11
599.0406760905665
 21
630.6239824723895
 31
0.0
  0
LINE
  5
43A
330
19
100
AcDbEntity
  8
SEIHIN
  6
CONTINUOUS
 62
     3
 48
32.0
100
AcDbLine
 10
599.0406760905665
 20
630.6240824723894
 30
0.0
 11
592.0403760905665
 21
634.6657824723894
 31
0.0
  0
LINE
  5
43B
330
19
100
AcDbEntity
  8
SEIHIN
  6
CONTINUOUS
 62
     3
 48
32.0
100
AcDbLine
 10
599.0406760905665
 20
627.1602824723894
 30
0.0
 11
599.0407760905664
 21
635.2428824723894
 31
0.0
  0
LINE
  5
43C
330
19
100
AcDbEntity
  8
SEIHIN
  6
CONTINUOUS
 62
     3
 48
32.0
100
AcDbLine
 10
579.0406760905665
 20
627.1602824723894
 30
0.0
 11
579.0407760905664
 21
635.2428824723894
 31
0.0
  0
ARC
  5
43D
330
19
100
AcDbEntity
  8
SEIHIN
  6
CONTINUOUS
 62
     3
 48
32.0
100
AcDbCircle
 10
625.0403760905665
 20
617.9226824723895
 30
0.0
 40
60.000034
100
AcDbArc
 50
164.5340080215
 51
179.9999050234999
  0
ARC
  5
43E
330
19
100
AcDbEntity
  8
SEIHIN
  6
CONTINUOUS
 62
     3
 48
32.0
100
AcDbCircle
 10
583.8411760905666
 20
628.7847824723895
 30
0.0
 40
14.000035
100
AcDbArc
 50
93.31681001219999
 51
166.3414390217
  0
LINE
  5
43F
330
19
100
AcDbEntity
  8
SEIHIN
  6
CONTINUOUS
 62
     3
 48
32.0
100
AcDbLine
 10
551.0493760905665
 20
662.9670824723895
 30
0.0
 11
553.0513760905665
 21
617.9226824723895
 31
0.0
  0
LINE
  5
440
330
19
100
AcDbEntity
  8
SEIHIN
  6
CONTINUOUS
 62
     3
 48
32.0
100
AcDbLine
 10
540.0404760905665
 20
662.9226824723895
 30
0.0
 11
542.0404760905666
 21
617.9226824723895
 31
0.0
  0
LINE
  5
441
330
19
100
AcDbEntity
  8
SEIHIN
  6
CONTINUOUS
 62
     3
 48
32.0
100
AcDbLine
 10
552.0503760905666
 20
617.9226824723895
 30
0.0
 11
550.0503760905665
 21
662.9226824723895
 31
0.0
  0
LINE
  5
442
330
19
100
AcDbEntity
  8
SEIHIN
  6
CONTINUOUS
 62
     3
 48
32.0
100
AcDbLine
 10
586.0410760905665
 20
634.6655824723894
 30
0.0
 11
579.0406760905665
 21
630.6239824723895
 31
0.0
  0
ARC
  5
443
330
19
100
AcDbEntity
  8
SEIHIN
  6
CONTINUOUS
 62
     3
 48
32.0
100
AcDbCircle
 10
586.0572760905665
 20
627.6468824723896
 30
0.0
 40
12.999986
100
AcDbArc
 50
90.0000000118
 51
168.0596790218999
  0
ARC
  5
444
330
19
100
AcDbEntity
  8
SEIHIN
  6
CONTINUOUS
 62
     3
 48
32.0
100
AcDbCircle
 10
591.0402760905665
 20
592.9440824723895
 30
0.0
 40
10.99999099999999
100
AcDbArc
 50
190.2135800247999
 51
262.0142030341999
  0
ARC
  5
445
330
19
100
AcDbEntity
  8
SEIHIN
  6
CONTINUOUS
 62
     3
 48
32.0
100
AcDbCircle
 10
841.9747760905664
 20
624.5487824723895
 30
0.0
 40
290.000004
100
AcDbArc
 50
181.3091840236999
 51
192.6737540251999
  0
ARC
  5
446
330
19
100
AcDbEntity
  8
SEIHIN
  6
CONTINUOUS
 62
     3
 48
32.0
100
AcDbCircle
 10
841.7585760905664
 20
630.9270824723895
 30
0.0
 40
300.000093
100
AcDbArc
 50
182.4843590238
 51
193.4941790253
  0
ARC
  5
447
330
19
100
AcDbEntity
  8
SEIHIN
  6
CONTINUOUS
 62
     3
 48
32.0
100
AcDbCircle
 10
842.9747760905664
 20
624.5487824723895
 30
0.0
 40
289.9999769999999
100
AcDbArc
 50
181.3091840236999
 51
191.624025025
  0
ARC
  5
448
330
19
100
AcDbEntity
  8
SEIHIN
  6
CONTINUOUS
 62
     3
 48
32.0
100
AcDbCircle
 10
592.8113760905666
 20
595.1686824723895
 30
0.0
 40
9.99999
100
AcDbArc
 50
192.0321300250999
 51
261.0083690340999
  0
ARC
  5
449
330
19
100
AcDbEntity
  8
SEIHIN
  6
CONTINUOUS
 62
     3
 48
32.0
100
AcDbCircle
 10
562.8403760905666
 20
566.9226824723895
 30
0.0
 40
3.999963
100
AcDbArc
 50
191.623442025
 51
270.0000000353
  0
ARC
  5
44A
330
19
100
AcDbEntity
  8
SEIHIN
  6
CONTINUOUS
 62
     3
 48
32.0
100
AcDbCircle
 10
544.6787760905665
 20
546.9137824723894
 30
0.0
 40
15.00002199999999
100
AcDbArc
 50
2.675149000299999
 51
69.05652600899999
  0
ARC
  5
44B
330
19
100
AcDbEntity
  8
SEIHIN
  6
CONTINUOUS
 62
     3
 48
32.0
100
AcDbCircle
 10
628.5403760905666
 20
617.9226824723895
 30
0.0
 40
60.000017
100
AcDbArc
 50
166.3416680217
 51
179.9999050234999
  0
ARC
  5
44C
330
19
100
AcDbEntity
  8
SEIHIN
  6
CONTINUOUS
 62
     3
 48
32.0
100
AcDbCircle
 10
628.5403760905666
 20
617.9224824723895
 30
0.0
 40
59.999994
100
AcDbArc
 50
179.9999050234999
 51
193.6581460253
  0
ARC
  5
44D
330
19
100
AcDbEntity
  8
SEIHIN
  6
CONTINUOUS
 62
     3
 48
32.0
100
AcDbCircle
 10
583.8410760905665
 20
607.0606824723894
 30
0.0
 40
13.999973
100
AcDbArc
 50
193.6581630253
 51
266.6831660347999
  0
ARC
  5
44E
330
19
100
AcDbEntity
  8
SEIHIN
  6
CONTINUOUS
 62
     3
 48
32.0
100
AcDbCircle
 10
581.6697760905665
 20
605.9227824723895
 30
0.0
 40
15.000059
100
AcDbArc
 50
195.4659410255
 51
264.4328090345
  0
ARC
  5
44F
330
19
100
AcDbEntity
  8
SEIHIN
  6
CONTINUOUS
 62
     3
 48
32.0
100
AcDbCircle
 10
625.0403760905665
 20
617.9224824723895
 30
0.0
 40
60.000007
100
AcDbArc
 50
179.9999050234999
 51
195.4658080254999
  0
LINE
  5
450
330
19
100
AcDbEntity
  8
SEIHIN
  6
CONTINUOUS
 62
     3
 48
32.0
100
AcDbLine
 10
599.0406760905665
 20
612.1494824723894
 30
0.0
 11
592.0402760905665
 21
608.1079824723896
 31
0.0
  0
LINE
  5
451
330
19
100
AcDbEntity
  8
SEIHIN
  6
CONTINUOUS
 62
     3
 48
32.0
100
AcDbLine
 10
586.0409760905664
 20
604.6441824723896
 30
0.0
 11
586.0409760905664
 21
612.7267824723896
 31
0.0
  0
LINE
  5
452
330
19
100
AcDbEntity
  8
SEIHIN
  6
CONTINUOUS
 62
     3
 48
32.0
100
AcDbLine
 10
592.0402760905665
 20
604.6441824723896
 30
0.0
 11
592.0402760905665
 21
612.7267824723896
 31
0.0
  0
ARC
  5
453
330
19
100
AcDbEntity
  8
SEIHIN
  6
CONTINUOUS
 62
     3
 48
32.0
100
AcDbCircle
 10
632.0403760905666
 20
617.9224824723895
 30
0.0
 40
60.000005
100
AcDbArc
 50
179.9999050234999
 51
191.9404510250999
  0
LINE
  5
454
330
19
100
AcDbEntity
  8
SEIHIN
  6
CONTINUOUS
 62
     3
 48
32.0
100
AcDbLine
 10
579.0406760905665
 20
612.1495824723893
 30
0.0
 11
586.0409760905664
 21
608.1077824723894
 31
0.0
  0
LINE
  5
455
330
19
100
AcDbEntity
  8
SEIHIN
  6
CONTINUOUS
 62
     3
 48
32.0
100
AcDbLine
 10
586.0409760905664
 20
608.1079824723896
 30
0.0
 11
579.0406760905665
 21
612.1495824723893
 31
0.0
  0
ARC
  5
456
330
19
100
AcDbEntity
  8
SEIHIN
  6
CONTINUOUS
 62
     3
 48
32.0
100
AcDbCircle
 10
586.0571760905664
 20
608.1984824723893
 30
0.0
 40
12.999986
100
AcDbArc
 50
191.9403210250999
 51
270.0000000353
  0
LINE
  5
457
330
19
100
AcDbEntity
  8
SEIHIN
  6
CONTINUOUS
 62
     3
 48
32.0
100
AcDbLine
 10
586.0409760905664
 20
604.6441824723896
 30
0.0
 11
579.0406760905665
 21
600.6025824723896
 31
0.0
  0
LINE
  5
458
330
19
100
AcDbEntity
  8
SEIHIN
  6
CONTINUOUS
 62
     3
 48
32.0
100
AcDbLine
 10
589.0406760905665
 20
599.4478824723895
 30
0.0
 11
582.5268760905665
 21
595.6870824723895
 31
0.0
  0
ARC
  5
459
330
19
100
AcDbEntity
  8
SEIHIN
  6
CONTINUOUS
 62
     3
 48
32.0
100
AcDbCircle
 10
594.5825760905664
 20
597.3582824723895
 30
0.0
 40
8.999988999999999
100
AcDbArc
 50
193.8727310253
 51
259.9807720339
  0
LINE
  5
45A
330
19
100
AcDbEntity
  8
SEIHIN
  6
CONTINUOUS
 62
     3
 48
32.0
100
AcDbLine
 10
583.0406760905665
 20
602.9119824723895
 30
0.0
 11
576.0409760905664
 21
606.9532824723895
 31
0.0
  0
LINE
  5
45B
330
19
100
AcDbEntity
  8
SEIHIN
  6
CONTINUOUS
 62
     3
 48
32.0
100
AcDbLine
 10
576.0409760905664
 20
606.9532824723895
 30
0.0
 11
583.0406760905665
 21
602.9119824723895
 31
0.0
  0
LINE
  5
45C
330
19
100
AcDbEntity
  8
SEIHIN
  6
CONTINUOUS
 62
     3
 48
32.0
100
AcDbLine
 10
576.0409760905664
 20
606.9532824723895
 30
0.0
 11
573.3607760905664
 21
605.4057824723894
 31
0.0
  0
LINE
  5
45D
330
19
100
AcDbEntity
  8
SEIHIN
  6
CONTINUOUS
 62
     3
 48
32.0
100
AcDbLine
 10
579.0405760905665
 20
597.1387824723896
 30
0.0
 11
579.0406760905665
 21
605.2213824723895
 31
0.0
  0
LINE
  5
45E
330
19
100
AcDbEntity
  8
SEIHIN
  6
CONTINUOUS
 62
     3
 48
32.0
100
AcDbLine
 10
580.0402760905665
 20
590.9227824723894
 30
0.0
 11
580.1414760905664
 21
591.0008824723894
 31
0.0
  0
LINE
  5
45F
330
19
100
AcDbEntity
  8
SEIHIN
  6
CONTINUOUS
 62
     3
 48
32.0
100
AcDbLine
 10
599.0405760905665
 20
597.1388824723895
 30
0.0
 11
592.0402760905665
 21
593.0971824723895
 31
0.0
  0
LINE
  5
460
330
19
100
AcDbEntity
  8
SEIHIN
  6
CONTINUOUS
 62
     3
 48
32.0
100
AcDbLine
 10
592.0402760905665
 20
604.6441824723896
 30
0.0
 11
599.0406760905665
 21
600.6024824723894
 31
0.0
  0
LINE
  5
461
330
19
100
AcDbEntity
  8
SEIHIN
  6
CONTINUOUS
 62
     3
 48
32.0
100
AcDbLine
 10
599.0406760905665
 20
600.6024824723894
 30
0.0
 11
592.0402760905665
 21
604.6441824723896
 31
0.0
  0
LINE
  5
462
330
19
100
AcDbEntity
  8
SEIHIN
  6
CONTINUOUS
 62
     3
 48
32.0
100
AcDbLine
 10
596.0402760905664
 20
595.4065824723894
 30
0.0
 11
589.0406760905665
 21
599.4478824723895
 31
0.0
  0
LINE
  5
463
330
19
100
AcDbEntity
  8
SEIHIN
  6
CONTINUOUS
 62
     3
 48
32.0
100
AcDbLine
 10
589.0406760905665
 20
599.4478824723895
 30
0.0
 11
596.0402760905664
 21
595.4065824723894
 31
0.0
  0
LINE
  5
464
330
19
100
AcDbEntity
  8
SEIHIN
  6
CONTINUOUS
 62
     3
 48
32.0
100
AcDbLine
 10
586.0409760905664
 20
594.5226824723894
 30
0.0
 11
586.0409760905664
 21
597.7159824723895
 31
0.0
  0
LINE
  5
465
330
19
100
AcDbEntity
  8
SEIHIN
  6
CONTINUOUS
 62
     3
 48
32.0
100
AcDbLine
 10
599.0405760905665
 20
597.1388824723895
 30
0.0
 11
599.0406760905665
 21
605.2213824723895
 31
0.0
  0
LINE
  5
466
330
19
100
AcDbEntity
  8
SEIHIN
  6
CONTINUOUS
 62
     3
 48
32.0
100
AcDbLine
 10
592.0402760905665
 20
589.6334824723895
 30
0.0
 11
594.4774760905665
 21
588.2262824723894
 31
0.0
  0
LINE
  5
467
330
19
100
AcDbEntity
  8
SEIHIN
  6
CONTINUOUS
 62
     3
 48
32.0
100
AcDbLine
 10
592.0402760905665
 20
589.6334824723895
 30
0.0
 11
592.0402760905665
 21
597.7159824723895
 31
0.0
  0
LINE
  5
468
330
19
100
AcDbEntity
  8
SEIHIN
  6
CONTINUOUS
 62
     3
 48
32.0
100
AcDbLine
 10
586.0410760905665
 20
619.6548824723894
 30
0.0
 11
579.0406760905665
 21
615.6132824723894
 31
0.0
  0
LINE
  5
469
330
19
100
AcDbEntity
  8
SEIHIN
  6
CONTINUOUS
 62
     3
 48
32.0
100
AcDbLine
 10
579.0406760905665
 20
627.1602824723894
 30
0.0
 11
586.0410760905665
 21
623.1185824723894
 31
0.0
  0
LINE
  5
46A
330
19
100
AcDbEntity
  8
SEIHIN
  6
CONTINUOUS
 62
     3
 48
32.0
100
AcDbLine
 10
586.0410760905665
 20
623.1186824723894
 30
0.0
 11
579.0406760905665
 21
627.1602824723894
 31
0.0
  0
LINE
  5
46B
330
19
100
AcDbEntity
  8
SEIHIN
  6
CONTINUOUS
 62
     3
 48
32.0
100
AcDbLine
 10
589.0406760905665
 20
614.4586824723895
 30
0.0
 11
582.0408760905665
 21
610.4173824723894
 31
0.0
  0
LINE
  5
46C
330
19
100
AcDbEntity
  8
SEIHIN
  6
CONTINUOUS
 62
     3
 48
32.0
100
AcDbLine
 10
589.0406760905665
 20
629.4693824723895
 30
0.0
 11
582.0409760905664
 21
625.4279824723895
 31
0.0
  0
LINE
  5
46D
330
19
100
AcDbEntity
  8
SEIHIN
  6
CONTINUOUS
 62
     3
 48
32.0
100
AcDbLine
 10
583.0406760905665
 20
617.9226824723895
 30
0.0
 11
576.0410760905665
 21
621.9639824723896
 31
0.0
  0
LINE
  5
46E
330
19
100
AcDbEntity
  8
SEIHIN
  6
CONTINUOUS
 62
     3
 48
32.0
100
AcDbLine
 10
576.0410760905665
 20
621.9639824723896
 30
0.0
 11
583.0406760905665
 21
617.9226824723895
 31
0.0
  0
ARC
  5
46F
330
19
100
AcDbEntity
  8
SEIHIN
  6
CONTINUOUS
 62
     3
 48
32.0
100
AcDbCircle
 10
632.0403760905666
 20
617.9226824723895
 30
0.0
 40
60.000016
100
AcDbArc
 50
168.0594560219
 51
179.9999050234999
  0
LINE
  5
470
330
19
100
AcDbEntity
  8
SEIHIN
  6
CONTINUOUS
 62
     3
 48
32.0
100
AcDbLine
 10
573.0413760905666
 20
627.1602824723894
 30
0.0
 11
572.7277760905665
 21
626.9792824723894
 31
0.0
  0
LINE
  5
471
330
19
100
AcDbEntity
  8
SEIHIN
  6
CONTINUOUS
 62
     3
 48
32.0
100
AcDbLine
 10
576.0410760905665
 20
621.9639824723896
 30
0.0
 11
572.0657760905665
 21
619.6688824723895
 31
0.0
  0
LINE
  5
472
330
19
100
AcDbEntity
  8
SEIHIN
  6
CONTINUOUS
 62
     3
 48
32.0
100
AcDbLine
 10
573.0412760905665
 20
612.1495824723893
 30
0.0
 11
572.3580760905665
 21
611.7551824723895
 31
0.0
  0
LINE
  5
473
330
19
100
AcDbEntity
  8
SEIHIN
  6
CONTINUOUS
 62
     3
 48
32.0
100
AcDbLine
 10
573.0412760905665
 20
612.1495824723893
 30
0.0
 11
573.0413760905666
 21
620.2321824723895
 31
0.0
  0
LINE
  5
474
330
19
100
AcDbEntity
  8
SEIHIN
  6
CONTINUOUS
 62
     3
 48
32.0
100
AcDbLine
 10
579.0406760905665
 20
612.1495824723893
 30
0.0
 11
579.0406760905665
 21
620.2320824723896
 31
0.0
  0
LINE
  5
475
330
19
100
AcDbEntity
  8
SEIHIN
  6
CONTINUOUS
 62
     3
 48
32.0
100
AcDbLine
 10
599.0406760905665
 20
627.1602824723894
 30
0.0
 11
592.0403760905665
 21
623.1186824723894
 31
0.0
  0
LINE
  5
476
330
19
100
AcDbEntity
  8
SEIHIN
  6
CONTINUOUS
 62
     3
 48
32.0
100
AcDbLine
 10
596.0403760905665
 20
625.4280824723895
 30
0.0
 11
589.0406760905665
 21
629.4693824723895
 31
0.0
  0
LINE
  5
477
330
19
100
AcDbEntity
  8
SEIHIN
  6
CONTINUOUS
 62
     3
 48
32.0
100
AcDbLine
 10
589.0406760905665
 20
629.4693824723895
 30
0.0
 11
596.0403760905665
 21
625.4279824723895
 31
0.0
  0
LINE
  5
478
330
19
100
AcDbEntity
  8
SEIHIN
  6
CONTINUOUS
 62
     3
 48
32.0
100
AcDbLine
 10
586.0410760905665
 20
619.6548824723894
 30
0.0
 11
586.0410760905665
 21
627.7374824723896
 31
0.0
  0
LINE
  5
479
330
19
100
AcDbEntity
  8
SEIHIN
  6
CONTINUOUS
 62
     3
 48
32.0
100
AcDbLine
 10
592.0403760905665
 20
619.6548824723894
 30
0.0
 11
592.0403760905665
 21
627.7374824723896
 31
0.0
  0
LINE
  5
47A
330
19
100
AcDbEntity
  8
SEIHIN
  6
CONTINUOUS
 62
     3
 48
32.0
100
AcDbLine
 10
596.0402760905664
 20
610.4173824723894
 30
0.0
 11
589.0406760905665
 21
614.4586824723895
 31
0.0
  0
LINE
  5
47B
330
19
100
AcDbEntity
  8
SEIHIN
  6
CONTINUOUS
 62
     3
 48
32.0
100
AcDbLine
 10
589.0406760905665
 20
614.4586824723895
 30
0.0
 11
596.0402760905664
 21
610.4173824723894
 31
0.0
  0
LINE
  5
47C
330
19
100
AcDbEntity
  8
SEIHIN
  6
CONTINUOUS
 62
     3
 48
32.0
100
AcDbLine
 10
599.0406760905665
 20
612.1494824723894
 30
0.0
 11
599.0406760905665
 21
620.2320824723896
 31
0.0
  0
LINE
  5
47D
330
19
100
AcDbEntity
  8
SEIHIN
  6
CONTINUOUS
 62
     3
 48
32.0
100
AcDbLine
 10
592.0403760905665
 20
619.6548824723894
 30
0.0
 11
599.0406760905665
 21
615.6131824723894
 31
0.0
  0
LINE
  5
47E
330
19
100
AcDbEntity
  8
SEIHIN
  6
CONTINUOUS
 62
     3
 48
32.0
100
AcDbLine
 10
599.0406760905665
 20
615.6131824723894
 30
0.0
 11
592.0403760905665
 21
619.6549824723894
 31
0.0
  0
LINE
  5
47F
330
19
100
AcDbEntity
  8
SEIHIN
  6
CONTINUOUS
 62
     3
 48
32.0
100
AcDbLine
 10
534.0237760905664
 20
663.9226824723895
 30
0.0
 11
550.8700760905666
 21
663.9226824723895
 31
0.0
  0
LINE
  5
480
330
19
100
AcDbEntity
  8
SEIHIN
  6
CONTINUOUS
 62
     3
 48
32.0
100
AcDbLine
 10
534.0237760905664
 20
663.9226824723895
 30
0.0
 11
540.0237760905664
 21
662.9226824723895
 31
0.0
  0
ARC
  5
481
330
19
100
AcDbEntity
  8
SEIHIN
  6
CONTINUOUS
 62
     3
 48
32.0
100
AcDbCircle
 10
532.9627760905665
 20
684.3874824723894
 30
0.0
 40
9.999971
100
AcDbArc
 50
188.1213510245999
 51
243.8085430318
  0
LINE
  5
482
330
19
100
AcDbEntity
  8
SEIHIN
  6
CONTINUOUS
 62
     3
 48
32.0
100
AcDbLine
 10
533.0237760905665
 20
673.9226824723894
 30
0.0
 11
534.0237760905664
 21
663.9226824723895
 31
0.0
  0
LINE
  5
483
330
19
100
AcDbEntity
  8
SEIHIN
  6
CONTINUOUS
 62
     3
 48
32.0
100
AcDbLine
 10
528.5490760905664
 20
675.4142824723896
 30
0.0
 11
533.0237760905665
 21
673.9226824723894
 31
0.0
  0
ARC
  5
484
330
19
100
AcDbEntity
  8
SEIHIN
  6
CONTINUOUS
 62
     3
 48
32.0
100
AcDbCircle
 10
494.4737760905665
 20
697.6742824723896
 30
0.0
 40
14.99993
100
AcDbArc
 50
15.189255002
 51
66.46215500869999
  0
ARC
  5
485
330
19
100
AcDbEntity
  8
SEIHIN
  6
CONTINUOUS
 62
     3
 48
32.0
100
AcDbCircle
 10
523.7544760905665
 20
787.9608824723894
 30
0.0
 40
79.999978
100
AcDbArc
 50
247.1181330323
 51
253.2814720330999
  0
ARC
  5
486
330
19
100
AcDbEntity
  8
SEIHIN
  6
CONTINUOUS
 62
     3
 48
32.0
100
AcDbCircle
 10
493.6354760905665
 20
716.0018824723894
 30
0.0
 40
1.99998
100
AcDbArc
 50
202.9510760264999
 51
242.1138990315999
  0
ARC
  5
487
330
19
100
AcDbEntity
  8
SEIHIN
  6
CONTINUOUS
 62
     3
 48
32.0
100
AcDbCircle
 10
537.5196760905665
 20
768.0076824723895
 30
0.0
 40
79.999964
100
AcDbArc
 50
251.1882280327999
 51
257.9880130337
  0
ARC
  5
488
330
19
100
AcDbEntity
  8
SEIHIN
  6
CONTINUOUS
 62
     3
 48
32.0
100
AcDbCircle
 10
587.8466760905665
 20
714.8442824723893
 30
0.0
 40
80.00005299999999
100
AcDbArc
 50
189.0127900247
 51
195.6385170255
  0
ARC
  5
489
330
19
100
AcDbEntity
  8
SEIHIN
  6
CONTINUOUS
 62
     3
 48
32.0
100
AcDbCircle
 10
512.6612760905665
 20
694.0740824723895
 30
0.0
 40
2.000035
100
AcDbArc
 50
193.1468550252
 51
252.974779033
  0
ARC
  5
48A
330
19
100
AcDbEntity
  8
SEIHIN
  6
CONTINUOUS
 62
     3
 48
32.0
100
AcDbCircle
 10
520.2660760905665
 20
687.8449824723894
 30
0.0
 40
2.000029
100
AcDbArc
 50
10.8969960014
 51
75.5816050099
  0
LINE
  5
48B
330
19
100
AcDbEntity
  8
SEIHIN
  6
CONTINUOUS
 62
     3
 48
32.0
100
AcDbLine
 10
522.1911760905665
 20
688.4678824723895
 30
0.0
 11
523.0864760905665
 21
682.8198824723894
 31
0.0
  0
ARC
  5
48C
330
19
100
AcDbEntity
  8
SEIHIN
  6
CONTINUOUS
 62
     3
 48
32.0
100
AcDbCircle
 10
581.6697760905665
 20
629.9227824723894
 30
0.0
 40
14.999957
100
AcDbArc
 50
95.56684801249998
 51
164.5339570214999
  0
ARC
  5
48D
330
19
100
AcDbEntity
  8
SEIHIN
  6
CONTINUOUS
 62
     3
 48
32.0
100
AcDbCircle
 10
562.0503760905665
 20
653.9226824723895
 30
0.0
 40
14.999985
100
AcDbArc
 50
90.0000000118
 51
138.189584018
  0
ARC
  5
48E
330
19
100
AcDbEntity
  8
SEIHIN
  6
CONTINUOUS
 62
     3
 48
32.0
100
AcDbCircle
 10
563.0503760905666
 20
653.9226824723895
 30
0.0
 40
15.0
100
AcDbArc
 50
90.0000000118
 51
143.1301020187
  0
LINE
  5
48F
330
19
100
AcDbEntity
  8
SEIHIN
  6
CONTINUOUS
 62
     3
 48
32.0
100
AcDbLine
 10
540.0237760905664
 20
662.9226824723895
 30
0.0
 11
551.0503760905666
 21
662.9226824723895
 31
0.0
  0
ARC
  5
490
330
19
100
AcDbEntity
  8
SEIHIN
  6
CONTINUOUS
 62
     3
 48
32.0
100
AcDbCircle
 10
594.5826760905664
 20
638.4872824723894
 30
0.0
 40
8.999952999999999
100
AcDbArc
 50
100.0192280130999
 51
166.1264980217
  0
ARC
  5
491
330
19
100
AcDbEntity
  8
SEIHIN
  6
CONTINUOUS
 62
     3
 48
32.0
100
AcDbCircle
 10
591.0403760905666
 20
642.9013824723893
 30
0.0
 40
11.0
100
AcDbArc
 50
97.98579701280001
 51
169.7859070221999
  0
LINE
  5
492
330
19
100
AcDbEntity
  8
SEIHIN
  6
CONTINUOUS
 62
     3
 48
32.0
100
AcDbLine
 10
586.0410760905665
 20
638.1294824723894
 30
0.0
 11
582.5268760905665
 21
640.1583824723894
 31
0.0
  0
LINE
  5
493
330
19
100
AcDbEntity
  8
SEIHIN
  6
CONTINUOUS
 62
     3
 48
32.0
100
AcDbLine
 10
582.5267760905666
 20
640.1583824723894
 30
0.0
 11
586.0410760905665
 21
638.1294824723894
 31
0.0
  0
ARC
  5
494
330
19
100
AcDbEntity
  8
SEIHIN
  6
CONTINUOUS
 62
     3
 48
32.0
100
AcDbCircle
 10
592.8115760905665
 20
640.6767824723896
 30
0.0
 40
10.000039
100
AcDbArc
 50
98.99154101290001
 51
167.9678700219
  0
LINE
  5
495
330
19
100
AcDbEntity
  8
SEIHIN
  6
CONTINUOUS
 62
     3
 48
32.0
100
AcDbLine
 10
580.0403760905665
 20
644.9226824723894
 30
0.0
 11
580.1415760905664
 21
644.8446824723895
 31
0.0
  0
LINE
  5
496
330
19
100
AcDbEntity
  8
SEIHIN
  6
CONTINUOUS
 62
     3
 48
32.0
100
AcDbLine
 10
576.6523760905664
 20
636.6217824723896
 30
0.0
 11
583.0407760905664
 21
632.9334824723895
 31
0.0
  0
LINE
  5
497
330
19
100
AcDbEntity
  8
SEIHIN
  6
CONTINUOUS
 62
     3
 48
32.0
100
AcDbLine
 10
583.0407760905664
 20
632.9334824723895
 30
0.0
 11
576.6523760905664
 21
636.6217824723896
 31
0.0
  0
LINE
  5
498
330
19
100
AcDbEntity
  8
SEIHIN
  6
CONTINUOUS
 62
     3
 48
32.0
100
AcDbLine
 10
595.3177760905665
 20
647.7843824723894
 30
0.0
 11
599.0407760905664
 21
645.6347824723894
 31
0.0
  0
LINE
  5
499
330
19
100
AcDbEntity
  8
SEIHIN
  6
CONTINUOUS
 62
     3
 48
32.0
100
AcDbLine
 10
599.0407760905664
 20
645.6347824723894
 30
0.0
 11
595.3177760905665
 21
647.7843824723894
 31
0.0
  0
LINE
  5
49A
330
19
100
AcDbEntity
  8
SEIHIN
  6
CONTINUOUS
 62
     3
 48
32.0
100
AcDbLine
 10
589.0407760905665
 20
644.4801824723894
 30
0.0
 11
596.0403760905665
 21
640.4388824723895
 31
0.0
  0
LINE
  5
49B
330
19
100
AcDbEntity
  8
SEIHIN
  6
CONTINUOUS
 62
     3
 48
32.0
100
AcDbLine
 10
589.0407760905665
 20
644.4801824723894
 30
0.0
 11
586.9666760905665
 21
643.2826824723893
 31
0.0
  0
LINE
  5
49C
330
19
100
AcDbEntity
  8
SEIHIN
  6
CONTINUOUS
 62
     3
 48
32.0
100
AcDbLine
 10
596.0403760905665
 20
640.4388824723895
 30
0.0
 11
589.0407760905665
 21
644.4801824723894
 31
0.0
  0
LINE
  5
49D
330
19
100
AcDbEntity
  8
SEIHIN
  6
CONTINUOUS
 62
     3
 48
32.0
100
AcDbLine
 10
599.0407760905664
 20
642.1710824723894
 30
0.0
 11
599.0407760905664
 21
648.6063824723895
 31
0.0
  0
LINE
  5
49E
330
19
100
AcDbEntity
  8
SEIHIN
  6
CONTINUOUS
 62
     3
 48
32.0
100
AcDbLine
 10
586.0410760905665
 20
634.6655824723894
 30
0.0
 11
586.0410760905665
 21
641.3228824723895
 31
0.0
  0
LINE
  5
49F
330
19
100
AcDbEntity
  8
SEIHIN
  6
CONTINUOUS
 62
     3
 48
32.0
100
AcDbLine
 10
592.0403760905665
 20
634.6655824723894
 30
0.0
 11
592.0403760905665
 21
642.7481824723894
 31
0.0
  0
LINE
  5
4A0
330
19
100
AcDbEntity
  8
SEIHIN
  6
CONTINUOUS
 62
     3
 48
32.0
100
AcDbLine
 10
599.0407760905664
 20
642.1710824723894
 30
0.0
 11
592.0403760905665
 21
638.1294824723894
 31
0.0
  0
ARC
  5
4A1
330
19
100
AcDbEntity
  8
SEIHIN
  6
CONTINUOUS
 62
     3
 48
32.0
100
AcDbCircle
 10
485.0237760905664
 20
735.5227824723893
 30
0.0
 40
2.0
100
AcDbArc
 50
0.0
 51
90.0000000118
  0
LINE
  5
4A2
330
19
100
AcDbEntity
  8
SEIHIN
  6
CONTINUOUS
 62
     3
 48
32.0
100
AcDbLine
 10
485.0404760905664
 20
737.5227824723894
 30
0.0
 11
485.0404760905664
 21
743.5227824723893
 31
0.0
  0
ARC
  5
4A3
330
19
100
AcDbEntity
  8
SEIHIN
  6
CONTINUOUS
 62
     3
 48
32.0
100
AcDbCircle
 10
662.1747760905665
 20
739.8573824723895
 30
0.0
 40
80.00000699999999
100
AcDbArc
 50
342.0113370446999
 51
356.8939080466
  0
ARC
  5
4A4
330
19
100
AcDbEntity
  8
SEIHIN
  6
CONTINUOUS
 62
     3
 48
32.0
100
AcDbCircle
 10
706.3265760905665
 20
787.9608824723894
 30
0.0
 40
79.999959
100
AcDbArc
 50
286.7183700373999
 51
292.8817350382
  0
LINE
  5
4A5
330
19
100
AcDbEntity
  8
SEIHIN
  6
CONTINUOUS
 62
     3
 48
32.0
100
AcDbLine
 10
738.0573760905665
 20
714.5227824723893
 30
0.0
 11
615.0405760905665
 21
714.5227824723893
 31
0.0
  0
LINE
  5
4A6
330
19
100
AcDbEntity
  8
SEIHIN
  6
CONTINUOUS
 62
     3
 48
32.0
100
AcDbLine
 10
651.0399760905665
 20
627.1601824723894
 30
0.0
 11
651.0399760905665
 21
635.2427824723894
 31
0.0
  0
ARC
  5
4A7
330
19
100
AcDbEntity
  8
SEIHIN
  6
CONTINUOUS
 62
     3
 48
32.0
100
AcDbCircle
 10
605.0403760905666
 20
617.9226824723895
 30
0.0
 40
60.00002099999999
100
AcDbArc
 50
0.0
 51
15.465900002
  0
LINE
  5
4A8
330
19
100
AcDbEntity
  8
SEIHIN
  6
CONTINUOUS
 62
     3
 48
32.0
100
AcDbLine
 10
679.0316760905665
 20
662.9670824723895
 30
0.0
 11
677.0296760905665
 21
617.9226824723895
 31
0.0
  0
LINE
  5
4A9
330
19
100
AcDbEntity
  8
SEIHIN
  6
CONTINUOUS
 62
     3
 48
32.0
100
AcDbLine
 10
690.0405760905665
 20
662.9226824723895
 30
0.0
 11
688.0405760905666
 21
617.9226824723895
 31
0.0
  0
LINE
  5
4AA
330
19
100
AcDbEntity
  8
SEIHIN
  6
CONTINUOUS
 62
     3
 48
32.0
100
AcDbLine
 10
678.0306760905665
 20
617.9226824723895
 30
0.0
 11
680.0306760905665
 21
662.9226824723895
 31
0.0
  0
LINE
  5
4AB
330
19
100
AcDbEntity
  8
SEIHIN
  6
CONTINUOUS
 62
     3
 48
32.0
100
AcDbLine
 10
625.0406760905665
 20
627.1602824723894
 30
0.0
 11
625.0406760905665
 21
635.2427824723894
 31
0.0
  0
LINE
  5
4AC
330
19
100
AcDbEntity
  8
SEIHIN
  6
CONTINUOUS
 62
     3
 48
32.0
100
AcDbLine
 10
618.0403760905666
 20
634.6655824723894
 30
0.0
 11
625.0406760905665
 21
630.6239824723895
 31
0.0
  0
LINE
  5
4AD
330
19
100
AcDbEntity
  8
SEIHIN
  6
CONTINUOUS
 62
     3
 48
32.0
100
AcDbLine
 10
631.0399760905665
 20
627.1602824723894
 30
0.0
 11
631.0399760905665
 21
635.2427824723894
 31
0.0
  0
LINE
  5
4AE
330
19
100
AcDbEntity
  8
SEIHIN
  6
CONTINUOUS
 62
     3
 48
32.0
100
AcDbLine
 10
638.0403760905665
 20
634.6655824723894
 30
0.0
 11
631.0399760905665
 21
630.6239824723895
 31
0.0
  0
LINE
  5
4AF
330
19
100
AcDbEntity
  8
SEIHIN
  6
CONTINUOUS
 62
     3
 48
32.0
100
AcDbLine
 10
631.0399760905665
 20
630.6239824723895
 30
0.0
 11
638.0403760905665
 21
634.6655824723894
 31
0.0
  0
LINE
  5
4B0
330
19
100
AcDbEntity
  8
SEIHIN
  6
CONTINUOUS
 62
     3
 48
32.0
100
AcDbLine
 10
612.0403760905666
 20
634.6656824723894
 30
0.0
 11
605.0399760905665
 21
630.6239824723895
 31
0.0
  0
LINE
  5
4B1
330
19
100
AcDbEntity
  8
SEIHIN
  6
CONTINUOUS
 62
     3
 48
32.0
100
AcDbLine
 10
605.0399760905665
 20
627.1602824723894
 30
0.0
 11
605.0400760905664
 21
635.2428824723894
 31
0.0
  0
ARC
  5
4B2
330
19
100
AcDbEntity
  8
SEIHIN
  6
CONTINUOUS
 62
     3
 48
32.0
100
AcDbCircle
 10
646.2395760905665
 20
628.7847824723895
 30
0.0
 40
13.99996999999999
100
AcDbArc
 50
13.6581630018
 51
86.6835750113
  0
ARC
  5
4B3
330
19
100
AcDbEntity
  8
SEIHIN
  6
CONTINUOUS
 62
     3
 48
32.0
100
AcDbCircle
 10
644.0234760905665
 20
627.6467824723894
 30
0.0
 40
12.999996
100
AcDbArc
 50
11.9407530016
 51
90.0000000118
  0
LINE
  5
4B4
330
19
100
AcDbEntity
  8
SEIHIN
  6
CONTINUOUS
 62
     3
 48
32.0
100
AcDbLine
 10
644.0396760905665
 20
634.6655824723894
 30
0.0
 11
651.0399760905665
 21
630.6239824723895
 31
0.0
  0
LINE
  5
4B5
330
19
100
AcDbEntity
  8
SEIHIN
  6
CONTINUOUS
 62
     3
 48
32.0
100
AcDbLine
 10
680.0405760905666
 20
560.9226824723894
 30
0.0
 11
615.0405760905665
 21
560.9226824723894
 31
0.0
  0
LINE
  5
4B6
330
19
100
AcDbEntity
  8
SEIHIN
  6
CONTINUOUS
 62
     3
 48
32.0
100
AcDbLine
 10
667.2406760905666
 20
562.9226824723895
 30
0.0
 11
615.0405760905665
 21
562.9226824723895
 31
0.0
  0
LINE
  5
4B7
330
19
100
AcDbEntity
  8
SEIHIN
  6
CONTINUOUS
 62
     3
 48
32.0
100
AcDbLine
 10
618.0403760905666
 20
589.6333824723895
 30
0.0
 11
625.0406760905665
 21
585.5916824723895
 31
0.0
  0
LINE
  5
4B8
330
19
100
AcDbEntity
  8
SEIHIN
  6
CONTINUOUS
 62
     3
 48
32.0
100
AcDbLine
 10
612.0402760905665
 20
589.6333824723895
 30
0.0
 11
605.0399760905665
 21
585.5917824723896
 31
0.0
  0
ARC
  5
4B9
330
19
100
AcDbEntity
  8
SEIHIN
  6
CONTINUOUS
 62
     3
 48
32.0
100
AcDbCircle
 10
654.4612760905664
 20
490.0203824723895
 30
0.0
 40
100.0000009999999
100
AcDbArc
 50
100.0189030130999
 51
113.2163910147999
  0
ARC
  5
4BA
330
19
100
AcDbEntity
  8
SEIHIN
  6
CONTINUOUS
 62
     3
 48
32.0
100
AcDbCircle
 10
639.0403760905666
 20
592.9439824723896
 30
0.0
 40
11.0
100
AcDbArc
 50
277.9857970363
 51
349.7859070457
  0
ARC
  5
4BB
330
19
100
AcDbEntity
  8
SEIHIN
  6
CONTINUOUS
 62
     3
 48
32.0
100
AcDbCircle
 10
637.2691760905665
 20
595.1685824723893
 30
0.0
 40
9.99999
100
AcDbArc
 50
278.9916310364
 51
347.9678700453999
  0
ARC
  5
4BC
330
19
100
AcDbEntity
  8
SEIHIN
  6
CONTINUOUS
 62
     3
 48
32.0
100
AcDbCircle
 10
654.4612760905664
 20
486.5203824723895
 30
0.0
 40
100.0000189999999
100
AcDbArc
 50
98.99167801290003
 51
113.2163910147999
  0
ARC
  5
4BD
330
19
100
AcDbEntity
  8
SEIHIN
  6
CONTINUOUS
 62
     3
 48
32.0
100
AcDbCircle
 10
654.4612760905664
 20
483.0203824723896
 30
0.0
 40
100.0000329999999
100
AcDbArc
 50
97.98570101280002
 51
113.2163910147999
  0
LINE
  5
4BE
330
19
100
AcDbEntity
  8
SEIHIN
  6
CONTINUOUS
 62
     3
 48
32.0
100
AcDbLine
 10
615.0399760905664
 20
584.4370824723895
 30
0.0
 11
612.5003760905665
 21
582.9708824723894
 31
0.0
  0
LINE
  5
4BF
330
19
100
AcDbEntity
  8
SEIHIN
  6
CONTINUOUS
 62
     3
 48
32.0
100
AcDbLine
 10
615.0406760905665
 20
584.4370824723895
 30
0.0
 11
617.5801760905665
 21
582.9708824723894
 31
0.0
  0
LINE
  5
4C0
330
19
100
AcDbEntity
  8
SEIHIN
  6
CONTINUOUS
 62
     3
 48
32.0
100
AcDbLine
 10
634.0403760905665
 20
625.4279824723895
 30
0.0
 11
641.0399760905664
 21
629.4692824723894
 31
0.0
  0
LINE
  5
4C1
330
19
100
AcDbEntity
  8
SEIHIN
  6
CONTINUOUS
 62
     3
 48
32.0
100
AcDbLine
 10
641.0399760905664
 20
629.4692824723894
 30
0.0
 11
634.0403760905665
 21
625.4279824723895
 31
0.0
  0
LINE
  5
4C2
330
19
100
AcDbEntity
  8
SEIHIN
  6
CONTINUOUS
 62
     3
 48
32.0
100
AcDbLine
 10
628.0403760905666
 20
621.9638824723894
 30
0.0
 11
635.0400760905664
 21
617.9225824723895
 31
0.0
  0
LINE
  5
4C3
330
19
100
AcDbEntity
  8
SEIHIN
  6
CONTINUOUS
 62
     3
 48
32.0
100
AcDbLine
 10
631.0399760905665
 20
627.1602824723894
 30
0.0
 11
638.0403760905665
 21
623.1185824723894
 31
0.0
  0
LINE
  5
4C4
330
19
100
AcDbEntity
  8
SEIHIN
  6
CONTINUOUS
 62
     3
 48
32.0
100
AcDbLine
 10
634.0403760905665
 20
595.4064824723895
 30
0.0
 11
641.0399760905664
 21
599.4477824723896
 31
0.0
  0
LINE
  5
4C5
330
19
100
AcDbEntity
  8
SEIHIN
  6
CONTINUOUS
 62
     3
 48
32.0
100
AcDbLine
 10
641.0399760905664
 20
599.4477824723896
 30
0.0
 11
634.0403760905665
 21
595.4064824723895
 31
0.0
  0
LINE
  5
4C6
330
19
100
AcDbEntity
  8
SEIHIN
  6
CONTINUOUS
 62
     3
 48
32.0
100
AcDbLine
 10
634.0403760905665
 20
610.4171824723895
 30
0.0
 11
641.0399760905664
 21
614.4585824723896
 31
0.0
  0
LINE
  5
4C7
330
19
100
AcDbEntity
  8
SEIHIN
  6
CONTINUOUS
 62
     3
 48
32.0
100
AcDbLine
 10
641.0399760905664
 20
614.4585824723896
 30
0.0
 11
634.0403760905665
 21
610.4171824723895
 31
0.0
  0
LINE
  5
4C8
330
19
100
AcDbEntity
  8
SEIHIN
  6
CONTINUOUS
 62
     3
 48
32.0
100
AcDbLine
 10
631.0399760905665
 20
600.6024824723894
 30
0.0
 11
638.0403760905665
 21
604.6440824723894
 31
0.0
  0
LINE
  5
4C9
330
19
100
AcDbEntity
  8
SEIHIN
  6
CONTINUOUS
 62
     3
 48
32.0
100
AcDbLine
 10
631.0399760905665
 20
612.1494824723894
 30
0.0
 11
638.0403760905665
 21
608.1077824723894
 31
0.0
  0
LINE
  5
4CA
330
19
100
AcDbEntity
  8
SEIHIN
  6
CONTINUOUS
 62
     3
 48
32.0
100
AcDbLine
 10
628.0403760905666
 20
606.9531824723895
 30
0.0
 11
635.0400760905664
 21
602.9118824723894
 31
0.0
  0
LINE
  5
4CB
330
19
100
AcDbEntity
  8
SEIHIN
  6
CONTINUOUS
 62
     3
 48
32.0
100
AcDbLine
 10
631.0399760905665
 20
597.1386824723894
 30
0.0
 11
638.0403760905665
 21
593.0969824723894
 31
0.0
  0
LINE
  5
4CC
330
19
100
AcDbEntity
  8
SEIHIN
  6
CONTINUOUS
 62
     3
 48
32.0
100
AcDbLine
 10
638.0403760905665
 20
604.6440824723894
 30
0.0
 11
631.0399760905665
 21
600.6023824723894
 31
0.0
  0
LINE
  5
4CD
330
19
100
AcDbEntity
  8
SEIHIN
  6
CONTINUOUS
 62
     3
 48
32.0
100
AcDbLine
 10
638.0403760905665
 20
619.6547824723894
 30
0.0
 11
631.0399760905665
 21
615.6131824723894
 31
0.0
  0
LINE
  5
4CE
330
19
100
AcDbEntity
  8
SEIHIN
  6
CONTINUOUS
 62
     3
 48
32.0
100
AcDbLine
 10
631.0399760905665
 20
615.6131824723894
 30
0.0
 11
638.0403760905665
 21
619.6548824723894
 31
0.0
  0
LINE
  5
4CF
330
19
100
AcDbEntity
  8
SEIHIN
  6
CONTINUOUS
 62
     3
 48
32.0
100
AcDbLine
 10
628.0403760905666
 20
591.9423824723895
 30
0.0
 11
635.0400760905664
 21
587.9010824723894
 31
0.0
  0
LINE
  5
4D0
330
19
100
AcDbEntity
  8
SEIHIN
  6
CONTINUOUS
 62
     3
 48
32.0
100
AcDbLine
 10
618.0403760905666
 20
604.6441824723896
 30
0.0
 11
618.0403760905666
 21
612.7266824723895
 31
0.0
  0
LINE
  5
4D1
330
19
100
AcDbEntity
  8
SEIHIN
  6
CONTINUOUS
 62
     3
 48
32.0
100
AcDbLine
 10
618.0403760905666
 20
608.1078824723894
 30
0.0
 11
625.0406760905665
 21
612.1494824723894
 31
0.0
  0
LINE
  5
4D2
330
19
100
AcDbEntity
  8
SEIHIN
  6
CONTINUOUS
 62
     3
 48
32.0
100
AcDbLine
 10
625.0406760905665
 20
612.1494824723894
 30
0.0
 11
618.0403760905666
 21
608.1077824723894
 31
0.0
  0
LINE
  5
4D3
330
19
100
AcDbEntity
  8
SEIHIN
  6
CONTINUOUS
 62
     3
 48
32.0
100
AcDbLine
 10
605.0399760905665
 20
612.1494824723894
 30
0.0
 11
612.0402760905665
 21
608.1078824723894
 31
0.0
  0
LINE
  5
4D4
330
19
100
AcDbEntity
  8
SEIHIN
  6
CONTINUOUS
 62
     3
 48
32.0
100
AcDbLine
 10
612.0402760905665
 20
608.1078824723894
 30
0.0
 11
605.0399760905665
 21
612.1494824723894
 31
0.0
  0
LINE
  5
4D5
330
19
100
AcDbEntity
  8
SEIHIN
  6
CONTINUOUS
 62
     3
 48
32.0
100
AcDbLine
 10
612.0402760905665
 20
604.6441824723896
 30
0.0
 11
612.0402760905665
 21
612.7266824723895
 31
0.0
  0
LINE
  5
4D6
330
19
100
AcDbEntity
  8
SEIHIN
  6
CONTINUOUS
 62
     3
 48
32.0
100
AcDbLine
 10
615.0406760905665
 20
599.4477824723896
 30
0.0
 11
622.0403760905666
 21
595.4064824723895
 31
0.0
  0
LINE
  5
4D7
330
19
100
AcDbEntity
  8
SEIHIN
  6
CONTINUOUS
 62
     3
 48
32.0
100
AcDbLine
 10
612.0402760905665
 20
593.0971824723895
 30
0.0
 11
605.0399760905665
 21
597.1388824723895
 31
0.0
  0
LINE
  5
4D8
330
19
100
AcDbEntity
  8
SEIHIN
  6
CONTINUOUS
 62
     3
 48
32.0
100
AcDbLine
 10
605.0399760905665
 20
597.1387824723896
 30
0.0
 11
612.0402760905665
 21
593.0970824723896
 31
0.0
  0
LINE
  5
4D9
330
19
100
AcDbEntity
  8
SEIHIN
  6
CONTINUOUS
 62
     3
 48
32.0
100
AcDbLine
 10
615.0399760905664
 20
599.4477824723896
 30
0.0
 11
608.0401760905665
 21
595.4064824723895
 31
0.0
  0
LINE
  5
4DA
330
19
100
AcDbEntity
  8
SEIHIN
  6
CONTINUOUS
 62
     3
 48
32.0
100
AcDbLine
 10
612.0402760905665
 20
604.6441824723896
 30
0.0
 11
605.0399760905665
 21
600.6024824723894
 31
0.0
  0
LINE
  5
4DB
330
19
100
AcDbEntity
  8
SEIHIN
  6
CONTINUOUS
 62
     3
 48
32.0
100
AcDbLine
 10
605.0399760905665
 20
597.1387824723896
 30
0.0
 11
605.0399760905665
 21
605.2213824723895
 31
0.0
  0
LINE
  5
4DC
330
19
100
AcDbEntity
  8
SEIHIN
  6
CONTINUOUS
 62
     3
 48
32.0
100
AcDbLine
 10
609.0399760905665
 20
602.9119824723895
 30
0.0
 11
602.0402760905665
 21
606.9531824723895
 31
0.0
  0
LINE
  5
4DD
330
19
100
AcDbEntity
  8
SEIHIN
  6
CONTINUOUS
 62
     3
 48
32.0
100
AcDbLine
 10
602.0402760905665
 20
606.9531824723895
 30
0.0
 11
609.0399760905665
 21
602.9118824723894
 31
0.0
  0
LINE
  5
4DE
330
19
100
AcDbEntity
  8
SEIHIN
  6
CONTINUOUS
 62
     3
 48
32.0
100
AcDbLine
 10
609.0399760905665
 20
587.9011824723894
 30
0.0
 11
602.0402760905665
 21
591.9424824723895
 31
0.0
  0
LINE
  5
4DF
330
19
100
AcDbEntity
  8
SEIHIN
  6
CONTINUOUS
 62
     3
 48
32.0
100
AcDbLine
 10
602.0402760905665
 20
591.9424824723895
 30
0.0
 11
609.0399760905665
 21
587.9011824723894
 31
0.0
  0
LINE
  5
4E0
330
19
100
AcDbEntity
  8
SEIHIN
  6
CONTINUOUS
 62
     3
 48
32.0
100
AcDbLine
 10
612.0402760905665
 20
589.6333824723895
 30
0.0
 11
612.0402760905665
 21
597.7159824723895
 31
0.0
  0
LINE
  5
4E1
330
19
100
AcDbEntity
  8
SEIHIN
  6
CONTINUOUS
 62
     3
 48
32.0
100
AcDbLine
 10
621.0406760905665
 20
602.9118824723894
 30
0.0
 11
628.0403760905666
 21
606.9531824723895
 31
0.0
  0
LINE
  5
4E2
330
19
100
AcDbEntity
  8
SEIHIN
  6
CONTINUOUS
 62
     3
 48
32.0
100
AcDbLine
 10
628.0403760905666
 20
606.9531824723895
 30
0.0
 11
621.0406760905665
 21
602.9118824723894
 31
0.0
  0
LINE
  5
4E3
330
19
100
AcDbEntity
  8
SEIHIN
  6
CONTINUOUS
 62
     3
 48
32.0
100
AcDbLine
 10
625.0406760905665
 20
597.1386824723894
 30
0.0
 11
618.0403760905666
 21
593.0969824723894
 31
0.0
  0
LINE
  5
4E4
330
19
100
AcDbEntity
  8
SEIHIN
  6
CONTINUOUS
 62
     3
 48
32.0
100
AcDbLine
 10
618.0403760905666
 20
593.0970824723896
 30
0.0
 11
625.0406760905665
 21
597.1387824723896
 31
0.0
  0
LINE
  5
4E5
330
19
100
AcDbEntity
  8
SEIHIN
  6
CONTINUOUS
 62
     3
 48
32.0
100
AcDbLine
 10
618.0403760905666
 20
604.6441824723896
 30
0.0
 11
625.0406760905665
 21
600.6024824723894
 31
0.0
  0
LINE
  5
4E6
330
19
100
AcDbEntity
  8
SEIHIN
  6
CONTINUOUS
 62
     3
 48
32.0
100
AcDbLine
 10
625.0406760905665
 20
597.1386824723894
 30
0.0
 11
625.0406760905665
 21
605.2212824723896
 31
0.0
  0
LINE
  5
4E7
330
19
100
AcDbEntity
  8
SEIHIN
  6
CONTINUOUS
 62
     3
 48
32.0
100
AcDbLine
 10
631.0399760905665
 20
597.1386824723894
 30
0.0
 11
631.0399760905665
 21
605.2212824723896
 31
0.0
  0
LINE
  5
4E8
330
19
100
AcDbEntity
  8
SEIHIN
  6
CONTINUOUS
 62
     3
 48
32.0
100
AcDbLine
 10
621.0406760905665
 20
587.9010824723894
 30
0.0
 11
628.0403760905666
 21
591.9423824723895
 31
0.0
  0
LINE
  5
4E9
330
19
100
AcDbEntity
  8
SEIHIN
  6
CONTINUOUS
 62
     3
 48
32.0
100
AcDbLine
 10
628.0403760905666
 20
591.9423824723895
 30
0.0
 11
621.0406760905665
 21
587.9010824723894
 31
0.0
  0
LINE
  5
4EA
330
19
100
AcDbEntity
  8
SEIHIN
  6
CONTINUOUS
 62
     3
 48
32.0
100
AcDbLine
 10
618.0403760905666
 20
589.6333824723895
 30
0.0
 11
618.0403760905666
 21
597.7158824723895
 31
0.0
  0
LINE
  5
4EB
330
19
100
AcDbEntity
  8
SEIHIN
  6
CONTINUOUS
 62
     3
 48
32.0
100
AcDbLine
 10
615.0406760905665
 20
614.4585824723896
 30
0.0
 11
622.0403760905666
 21
610.4172824723895
 31
0.0
  0
LINE
  5
4EC
330
19
100
AcDbEntity
  8
SEIHIN
  6
CONTINUOUS
 62
     3
 48
32.0
100
AcDbLine
 10
615.0406760905665
 20
629.4693824723895
 30
0.0
 11
622.0403760905666
 21
625.4279824723895
 31
0.0
  0
LINE
  5
4ED
330
19
100
AcDbEntity
  8
SEIHIN
  6
CONTINUOUS
 62
     3
 48
32.0
100
AcDbLine
 10
615.0399760905664
 20
629.4693824723895
 30
0.0
 11
608.0402760905665
 21
625.4280824723895
 31
0.0
  0
LINE
  5
4EE
330
19
100
AcDbEntity
  8
SEIHIN
  6
CONTINUOUS
 62
     3
 48
32.0
100
AcDbLine
 10
605.0399760905665
 20
627.1602824723894
 30
0.0
 11
612.0403760905666
 21
623.1185824723894
 31
0.0
  0
LINE
  5
4EF
330
19
100
AcDbEntity
  8
SEIHIN
  6
CONTINUOUS
 62
     3
 48
32.0
100
AcDbLine
 10
612.0403760905666
 20
623.1185824723894
 30
0.0
 11
605.0399760905665
 21
627.1602824723894
 31
0.0
  0
LINE
  5
4F0
330
19
100
AcDbEntity
  8
SEIHIN
  6
CONTINUOUS
 62
     3
 48
32.0
100
AcDbLine
 10
602.0403760905666
 20
621.9638824723894
 30
0.0
 11
609.0399760905665
 21
617.9226824723895
 31
0.0
  0
LINE
  5
4F1
330
19
100
AcDbEntity
  8
SEIHIN
  6
CONTINUOUS
 62
     3
 48
32.0
100
AcDbLine
 10
609.0399760905665
 20
617.9226824723895
 30
0.0
 11
602.0403760905666
 21
621.9638824723894
 31
0.0
  0
LINE
  5
4F2
330
19
100
AcDbEntity
  8
SEIHIN
  6
CONTINUOUS
 62
     3
 48
32.0
100
AcDbLine
 10
612.0403760905666
 20
619.6549824723894
 30
0.0
 11
612.0403760905666
 21
627.7374824723896
 31
0.0
  0
LINE
  5
4F3
330
19
100
AcDbEntity
  8
SEIHIN
  6
CONTINUOUS
 62
     3
 48
32.0
100
AcDbLine
 10
615.0399760905664
 20
614.4585824723896
 30
0.0
 11
608.0402760905665
 21
610.4173824723894
 31
0.0
  0
LINE
  5
4F4
330
19
100
AcDbEntity
  8
SEIHIN
  6
CONTINUOUS
 62
     3
 48
32.0
100
AcDbLine
 10
612.0403760905666
 20
619.6549824723894
 30
0.0
 11
605.0399760905665
 21
615.6131824723894
 31
0.0
  0
LINE
  5
4F5
330
19
100
AcDbEntity
  8
SEIHIN
  6
CONTINUOUS
 62
     3
 48
32.0
100
AcDbLine
 10
605.0399760905665
 20
612.1494824723894
 30
0.0
 11
605.0399760905665
 21
620.2320824723896
 31
0.0
  0
LINE
  5
4F6
330
19
100
AcDbEntity
  8
SEIHIN
  6
CONTINUOUS
 62
     3
 48
32.0
100
AcDbLine
 10
621.0406760905665
 20
617.9226824723895
 30
0.0
 11
628.0403760905666
 21
621.9638824723894
 31
0.0
  0
LINE
  5
4F7
330
19
100
AcDbEntity
  8
SEIHIN
  6
CONTINUOUS
 62
     3
 48
32.0
100
AcDbLine
 10
628.0403760905666
 20
621.9638824723894
 30
0.0
 11
621.0406760905665
 21
617.9226824723895
 31
0.0
  0
LINE
  5
4F8
330
19
100
AcDbEntity
  8
SEIHIN
  6
CONTINUOUS
 62
     3
 48
32.0
100
AcDbLine
 10
618.0403760905666
 20
623.1185824723894
 30
0.0
 11
625.0406760905665
 21
627.1602824723894
 31
0.0
  0
LINE
  5
4F9
330
19
100
AcDbEntity
  8
SEIHIN
  6
CONTINUOUS
 62
     3
 48
32.0
100
AcDbLine
 10
618.0403760905666
 20
619.6548824723894
 30
0.0
 11
618.0403760905666
 21
627.7374824723896
 31
0.0
  0
LINE
  5
4FA
330
19
100
AcDbEntity
  8
SEIHIN
  6
CONTINUOUS
 62
     3
 48
32.0
100
AcDbLine
 10
625.0406760905665
 20
627.1602824723894
 30
0.0
 11
618.0403760905666
 21
623.1185824723894
 31
0.0
  0
LINE
  5
4FB
330
19
100
AcDbEntity
  8
SEIHIN
  6
CONTINUOUS
 62
     3
 48
32.0
100
AcDbLine
 10
631.0399760905665
 20
612.1494824723894
 30
0.0
 11
631.0399760905665
 21
620.2320824723896
 31
0.0
  0
LINE
  5
4FC
330
19
100
AcDbEntity
  8
SEIHIN
  6
CONTINUOUS
 62
     3
 48
32.0
100
AcDbLine
 10
625.0406760905665
 20
612.1494824723894
 30
0.0
 11
625.0406760905665
 21
620.2320824723896
 31
0.0
  0
LINE
  5
4FD
330
19
100
AcDbEntity
  8
SEIHIN
  6
CONTINUOUS
 62
     3
 48
32.0
100
AcDbLine
 10
618.0403760905666
 20
619.6548824723894
 30
0.0
 11
625.0406760905665
 21
615.6131824723894
 31
0.0
  0
ARC
  5
4FE
330
19
100
AcDbEntity
  8
SEIHIN
  6
CONTINUOUS
 62
     3
 48
32.0
100
AcDbCircle
 10
601.5403760905666
 20
617.9225824723895
 30
0.0
 40
60.000029
100
AcDbArc
 50
346.3415750452
 51
359.9999050469999
  0
ARC
  5
4FF
330
19
100
AcDbEntity
  8
SEIHIN
  6
CONTINUOUS
 62
     3
 48
32.0
100
AcDbCircle
 10
605.0403760905666
 20
617.9225824723895
 30
0.0
 40
59.999986
100
AcDbArc
 50
344.533983045
 51
359.9999050469999
  0
ARC
  5
500
330
19
100
AcDbEntity
  8
SEIHIN
  6
CONTINUOUS
 62
     3
 48
32.0
100
AcDbCircle
 10
598.0403760905666
 20
617.9225824723895
 30
0.0
 40
60.000026
100
AcDbArc
 50
348.0593620454
 51
359.9998090469999
  0
LINE
  5
501
330
19
100
AcDbEntity
  8
SEIHIN
  6
CONTINUOUS
 62
     3
 48
32.0
100
AcDbLine
 10
638.0403760905665
 20
604.6440824723894
 30
0.0
 11
638.0403760905665
 21
612.7266824723895
 31
0.0
  0
LINE
  5
502
330
19
100
AcDbEntity
  8
SEIHIN
  6
CONTINUOUS
 62
     3
 48
32.0
100
AcDbLine
 10
644.0396760905665
 20
604.6440824723894
 30
0.0
 11
644.0396760905665
 21
612.7266824723895
 31
0.0
  0
LINE
  5
503
330
19
100
AcDbEntity
  8
SEIHIN
  6
CONTINUOUS
 62
     3
 48
32.0
100
AcDbLine
 10
651.0399760905665
 20
612.1494824723894
 30
0.0
 11
644.0396760905665
 21
608.1077824723894
 31
0.0
  0
LINE
  5
504
330
19
100
AcDbEntity
  8
SEIHIN
  6
CONTINUOUS
 62
     3
 48
32.0
100
AcDbLine
 10
644.0396760905665
 20
608.1077824723894
 30
0.0
 11
651.0399760905665
 21
612.1494824723894
 31
0.0
  0
ARC
  5
505
330
19
100
AcDbEntity
  8
SEIHIN
  6
CONTINUOUS
 62
     3
 48
32.0
100
AcDbCircle
 10
644.0234760905665
 20
608.1984824723893
 30
0.0
 40
12.999996
100
AcDbArc
 50
270.0000000353
 51
348.0592470454
  0
LINE
  5
506
330
19
100
AcDbEntity
  8
SEIHIN
  6
CONTINUOUS
 62
     3
 48
32.0
100
AcDbLine
 10
644.0396760905665
 20
604.6440824723894
 30
0.0
 11
651.0399760905665
 21
600.6023824723894
 31
0.0
  0
LINE
  5
507
330
19
100
AcDbEntity
  8
SEIHIN
  6
CONTINUOUS
 62
     3
 48
32.0
100
AcDbLine
 10
647.0399760905665
 20
602.9118824723894
 30
0.0
 11
654.0396760905665
 21
606.9530824723896
 31
0.0
  0
LINE
  5
508
330
19
100
AcDbEntity
  8
SEIHIN
  6
CONTINUOUS
 62
     3
 48
32.0
100
AcDbLine
 10
654.0396760905665
 20
606.9530824723896
 30
0.0
 11
647.0399760905665
 21
602.9118824723894
 31
0.0
  0
ARC
  5
509
330
19
100
AcDbEntity
  8
SEIHIN
  6
CONTINUOUS
 62
     3
 48
32.0
100
AcDbCircle
 10
648.4108760905666
 20
605.9226824723895
 30
0.0
 40
15.000011
100
AcDbArc
 50
275.5671910359999
 51
344.533957045
  0
ARC
  5
50A
330
19
100
AcDbEntity
  8
SEIHIN
  6
CONTINUOUS
 62
     3
 48
32.0
100
AcDbCircle
 10
646.2395760905665
 20
607.0605824723894
 30
0.0
 40
14.00001999999999
100
AcDbArc
 50
273.3164020357
 51
346.3418370451999
  0
LINE
  5
50B
330
19
100
AcDbEntity
  8
SEIHIN
  6
CONTINUOUS
 62
     3
 48
32.0
100
AcDbLine
 10
641.0399760905664
 20
599.4477824723896
 30
0.0
 11
647.5537760905665
 21
595.6869824723895
 31
0.0
  0
LINE
  5
50C
330
19
100
AcDbEntity
  8
SEIHIN
  6
CONTINUOUS
 62
     3
 48
32.0
100
AcDbLine
 10
644.0396760905665
 20
594.5225824723894
 30
0.0
 11
644.0396760905665
 21
597.7158824723895
 31
0.0
  0
LINE
  5
50D
330
19
100
AcDbEntity
  8
SEIHIN
  6
CONTINUOUS
 62
     3
 48
32.0
100
AcDbLine
 10
638.0403760905665
 20
589.6333824723895
 30
0.0
 11
635.6030760905666
 21
588.2261824723895
 31
0.0
  0
LINE
  5
50E
330
19
100
AcDbEntity
  8
SEIHIN
  6
CONTINUOUS
 62
     3
 48
32.0
100
AcDbLine
 10
650.0403760905665
 20
590.9226824723894
 30
0.0
 11
649.9391760905665
 21
591.0006824723894
 31
0.0
  0
ARC
  5
50F
330
19
100
AcDbEntity
  8
SEIHIN
  6
CONTINUOUS
 62
     3
 48
32.0
100
AcDbCircle
 10
635.4980760905665
 20
597.3581824723895
 30
0.0
 40
8.999940999999999
100
AcDbArc
 50
280.0192280366
 51
346.1271160451999
  0
LINE
  5
510
330
19
100
AcDbEntity
  8
SEIHIN
  6
CONTINUOUS
 62
     3
 48
32.0
100
AcDbLine
 10
638.0403760905665
 20
589.6333824723895
 30
0.0
 11
638.0403760905665
 21
597.7158824723895
 31
0.0
  0
LINE
  5
511
330
19
100
AcDbEntity
  8
SEIHIN
  6
CONTINUOUS
 62
     3
 48
32.0
100
AcDbLine
 10
651.0399760905665
 20
597.1386824723894
 30
0.0
 11
651.0399760905665
 21
605.2211824723896
 31
0.0
  0
LINE
  5
512
330
19
100
AcDbEntity
  8
SEIHIN
  6
CONTINUOUS
 62
     3
 48
32.0
100
AcDbLine
 10
654.0396760905665
 20
606.9530824723896
 30
0.0
 11
656.7198760905665
 21
605.4056824723894
 31
0.0
  0
LINE
  5
513
330
19
100
AcDbEntity
  8
SEIHIN
  6
CONTINUOUS
 62
     3
 48
32.0
100
AcDbLine
 10
644.0396760905665
 20
623.1185824723894
 30
0.0
 11
651.0399760905665
 21
627.1601824723894
 31
0.0
  0
LINE
  5
514
330
19
100
AcDbEntity
  8
SEIHIN
  6
CONTINUOUS
 62
     3
 48
32.0
100
AcDbLine
 10
647.0399760905665
 20
617.9225824723895
 30
0.0
 11
654.0396760905665
 21
621.9638824723894
 31
0.0
  0
LINE
  5
515
330
19
100
AcDbEntity
  8
SEIHIN
  6
CONTINUOUS
 62
     3
 48
32.0
100
AcDbLine
 10
654.0396760905665
 20
621.9638824723894
 30
0.0
 11
647.0399760905665
 21
617.9225824723895
 31
0.0
  0
LINE
  5
516
330
19
100
AcDbEntity
  8
SEIHIN
  6
CONTINUOUS
 62
     3
 48
32.0
100
AcDbLine
 10
651.0399760905665
 20
627.1601824723894
 30
0.0
 11
644.0396760905665
 21
623.1184824723895
 31
0.0
  0
LINE
  5
517
330
19
100
AcDbEntity
  8
SEIHIN
  6
CONTINUOUS
 62
     3
 48
32.0
100
AcDbLine
 10
644.0396760905665
 20
619.6547824723894
 30
0.0
 11
651.0399760905665
 21
615.6131824723894
 31
0.0
  0
LINE
  5
518
330
19
100
AcDbEntity
  8
SEIHIN
  6
CONTINUOUS
 62
     3
 48
32.0
100
AcDbLine
 10
641.0399760905664
 20
629.4692824723894
 30
0.0
 11
648.0397760905665
 21
625.4279824723895
 31
0.0
  0
LINE
  5
519
330
19
100
AcDbEntity
  8
SEIHIN
  6
CONTINUOUS
 62
     3
 48
32.0
100
AcDbLine
 10
638.0403760905665
 20
619.6547824723894
 30
0.0
 11
638.0403760905665
 21
627.7373824723894
 31
0.0
  0
LINE
  5
51A
330
19
100
AcDbEntity
  8
SEIHIN
  6
CONTINUOUS
 62
     3
 48
32.0
100
AcDbLine
 10
644.0396760905665
 20
619.6547824723894
 30
0.0
 11
644.0396760905665
 21
627.7373824723894
 31
0.0
  0
LINE
  5
51B
330
19
100
AcDbEntity
  8
SEIHIN
  6
CONTINUOUS
 62
     3
 48
32.0
100
AcDbLine
 10
641.0399760905664
 20
614.4585824723896
 30
0.0
 11
648.0397760905665
 21
610.4171824723895
 31
0.0
  0
ARC
  5
51C
330
19
100
AcDbEntity
  8
SEIHIN
  6
CONTINUOUS
 62
     3
 48
32.0
100
AcDbCircle
 10
598.0403760905666
 20
617.9226824723895
 30
0.0
 40
60.000016
100
AcDbArc
 50
0.0
 51
11.9405440016
  0
LINE
  5
51D
330
19
100
AcDbEntity
  8
SEIHIN
  6
CONTINUOUS
 62
     3
 48
32.0
100
AcDbLine
 10
657.0393760905665
 20
627.1601824723894
 30
0.0
 11
657.3529760905666
 21
626.9790824723894
 31
0.0
  0
LINE
  5
51E
330
19
100
AcDbEntity
  8
SEIHIN
  6
CONTINUOUS
 62
     3
 48
32.0
100
AcDbLine
 10
654.0396760905665
 20
621.9638824723894
 30
0.0
 11
658.0149760905665
 21
619.6687824723896
 31
0.0
  0
ARC
  5
51F
330
19
100
AcDbEntity
  8
SEIHIN
  6
CONTINUOUS
 62
     3
 48
32.0
100
AcDbCircle
 10
601.5403760905666
 20
617.9226824723895
 30
0.0
 40
60.000017
100
AcDbArc
 50
0.0
 51
13.65833200179999
  0
LINE
  5
520
330
19
100
AcDbEntity
  8
SEIHIN
  6
CONTINUOUS
 62
     3
 48
32.0
100
AcDbLine
 10
657.0393760905665
 20
612.1494824723894
 30
0.0
 11
657.7225760905665
 21
611.7549824723895
 31
0.0
  0
LINE
  5
521
330
19
100
AcDbEntity
  8
SEIHIN
  6
CONTINUOUS
 62
     3
 48
32.0
100
AcDbLine
 10
657.0393760905665
 20
612.1494824723894
 30
0.0
 11
657.0393760905665
 21
620.2319824723893
 31
0.0
  0
LINE
  5
522
330
19
100
AcDbEntity
  8
SEIHIN
  6
CONTINUOUS
 62
     3
 48
32.0
100
AcDbLine
 10
651.0399760905665
 20
612.1494824723894
 30
0.0
 11
651.0399760905665
 21
620.2319824723893
 31
0.0
  0
ARC
  5
523
330
19
100
AcDbEntity
  8
SEIHIN
  6
CONTINUOUS
 62
     3
 48
32.0
100
AcDbCircle
 10
388.1062760905665
 20
624.5487824723895
 30
0.0
 40
290.000041
100
AcDbArc
 50
347.3260260453999
 51
358.6905790468
  0
ARC
  5
524
330
19
100
AcDbEntity
  8
SEIHIN
  6
CONTINUOUS
 62
     3
 48
32.0
100
AcDbCircle
 10
387.1062760905665
 20
624.5487824723895
 30
0.0
 40
290.0000079999999
100
AcDbArc
 50
348.3758360455
 51
358.6906580468
  0
ARC
  5
525
330
19
100
AcDbEntity
  8
SEIHIN
  6
CONTINUOUS
 62
     3
 48
32.0
100
AcDbCircle
 10
388.3225760905665
 20
630.9270824723895
 30
0.0
 40
300.0000029999999
100
AcDbArc
 50
346.5055990451999
 51
357.5154110466999
  0
ARC
  5
526
330
19
100
AcDbEntity
  8
SEIHIN
  6
CONTINUOUS
 62
     3
 48
32.0
100
AcDbCircle
 10
667.2406760905666
 20
566.9226824723895
 30
0.0
 40
4.000011999999999
100
AcDbArc
 50
270.0000000353
 51
348.3768470455
  0
ARC
  5
527
330
19
100
AcDbEntity
  8
SEIHIN
  6
CONTINUOUS
 62
     3
 48
32.0
100
AcDbCircle
 10
685.4022760905665
 20
546.9137824723894
 30
0.0
 40
15.00002199999999
100
AcDbArc
 50
110.9434740144999
 51
177.3248510231999
  0
LINE
  5
528
330
19
100
AcDbEntity
  8
SEIHIN
  6
CONTINUOUS
 62
     3
 48
32.0
100
AcDbLine
 10
708.0573760905665
 20
689.5227824723893
 30
0.0
 11
615.0405760905665
 21
689.5227824723893
 31
0.0
  0
ARC
  5
529
330
19
100
AcDbEntity
  8
SEIHIN
  6
CONTINUOUS
 62
     3
 48
32.0
100
AcDbCircle
 10
667.0306760905665
 20
653.9226824723895
 30
0.0
 40
15.0
100
AcDbArc
 50
36.8698980048
 51
90.0000000118
  0
LINE
  5
52A
330
19
100
AcDbEntity
  8
SEIHIN
  6
CONTINUOUS
 62
     3
 48
32.0
100
AcDbLine
 10
615.0405760905665
 20
668.9226824723895
 30
0.0
 11
668.0306760905665
 21
668.9226824723895
 31
0.0
  0
LINE
  5
52B
330
19
100
AcDbEntity
  8
SEIHIN
  6
CONTINUOUS
 62
     3
 48
32.0
100
AcDbLine
 10
697.0573760905665
 20
673.9226824723894
 30
0.0
 11
615.0405760905665
 21
673.9226824723894
 31
0.0
  0
LINE
  5
52C
330
19
100
AcDbEntity
  8
SEIHIN
  6
CONTINUOUS
 62
     3
 48
32.0
100
AcDbLine
 10
702.2545760905664
 20
676.9226824723895
 30
0.0
 11
615.0405760905665
 21
676.9226824723895
 31
0.0
  0
LINE
  5
52D
330
19
100
AcDbEntity
  8
SEIHIN
  6
CONTINUOUS
 62
     3
 48
32.0
100
AcDbLine
 10
718.2662760905665
 20
692.5227824723894
 30
0.0
 11
615.0405760905665
 21
692.5227824723894
 31
0.0
  0
LINE
  5
52E
330
19
100
AcDbEntity
  8
SEIHIN
  6
CONTINUOUS
 62
     3
 48
32.0
100
AcDbLine
 10
722.0572760905666
 20
709.5227824723894
 30
0.0
 11
615.0405760905665
 21
709.5227824723894
 31
0.0
  0
LINE
  5
52F
330
19
100
AcDbEntity
  8
SEIHIN
  6
CONTINUOUS
 62
     3
 48
32.0
100
AcDbLine
 10
634.0403760905665
 20
640.4387824723896
 30
0.0
 11
641.0399760905664
 21
644.4799824723894
 31
0.0
  0
LINE
  5
530
330
19
100
AcDbEntity
  8
SEIHIN
  6
CONTINUOUS
 62
     3
 48
32.0
100
AcDbLine
 10
641.0399760905664
 20
644.4799824723894
 30
0.0
 11
634.0403760905665
 21
640.4387824723896
 31
0.0
  0
LINE
  5
531
330
19
100
AcDbEntity
  8
SEIHIN
  6
CONTINUOUS
 62
     3
 48
32.0
100
AcDbLine
 10
634.7630760905665
 20
647.7841824723895
 30
0.0
 11
631.0399760905665
 21
645.6346824723895
 31
0.0
  0
LINE
  5
532
330
19
100
AcDbEntity
  8
SEIHIN
  6
CONTINUOUS
 62
     3
 48
32.0
100
AcDbLine
 10
631.0399760905665
 20
645.6347824723894
 30
0.0
 11
634.7629760905665
 21
647.7841824723895
 31
0.0
  0
ARC
  5
533
330
19
100
AcDbEntity
  8
SEIHIN
  6
CONTINUOUS
 62
     3
 48
32.0
100
AcDbCircle
 10
654.4612760905664
 20
752.8248824723895
 30
0.0
 40
99.99994499999999
100
AcDbArc
 50
246.7834590322
 51
262.0141770341999
  0
ARC
  5
534
330
19
100
AcDbEntity
  8
SEIHIN
  6
CONTINUOUS
 62
     3
 48
32.0
100
AcDbCircle
 10
654.4612760905664
 20
749.3248824723894
 30
0.0
 40
99.99993299999999
100
AcDbArc
 50
246.7834590322
 51
261.0082000341
  0
ARC
  5
535
330
19
100
AcDbEntity
  8
SEIHIN
  6
CONTINUOUS
 62
     3
 48
32.0
100
AcDbCircle
 10
654.4612760905664
 20
745.8248824723895
 30
0.0
 40
99.99992500000001
100
AcDbArc
 50
246.7834590322
 51
259.9809180338999
  0
LINE
  5
536
330
19
100
AcDbEntity
  8
SEIHIN
  6
CONTINUOUS
 62
     3
 48
32.0
100
AcDbLine
 10
628.0403760905666
 20
636.9746824723894
 30
0.0
 11
635.0400760905664
 21
632.9333824723895
 31
0.0
  0
LINE
  5
537
330
19
100
AcDbEntity
  8
SEIHIN
  6
CONTINUOUS
 62
     3
 48
32.0
100
AcDbLine
 10
631.0399760905665
 20
642.1709824723895
 30
0.0
 11
638.0403760905665
 21
638.1292824723894
 31
0.0
  0
LINE
  5
538
330
19
100
AcDbEntity
  8
SEIHIN
  6
CONTINUOUS
 62
     3
 48
32.0
100
AcDbLine
 10
615.0406760905665
 20
644.4800824723894
 30
0.0
 11
622.0403760905666
 21
640.4387824723896
 31
0.0
  0
LINE
  5
539
330
19
100
AcDbEntity
  8
SEIHIN
  6
CONTINUOUS
 62
     3
 48
32.0
100
AcDbLine
 10
615.0400760905665
 20
644.4801824723894
 30
0.0
 11
608.0403760905666
 21
640.4387824723896
 31
0.0
  0
LINE
  5
53A
330
19
100
AcDbEntity
  8
SEIHIN
  6
CONTINUOUS
 62
     3
 48
32.0
100
AcDbLine
 10
612.0404760905666
 20
649.6764824723895
 30
0.0
 11
605.0400760905664
 21
645.6347824723894
 31
0.0
  0
LINE
  5
53B
330
19
100
AcDbEntity
  8
SEIHIN
  6
CONTINUOUS
 62
     3
 48
32.0
100
AcDbLine
 10
605.0400760905664
 20
642.1710824723894
 30
0.0
 11
605.0400760905664
 21
650.2535824723894
 31
0.0
  0
LINE
  5
53C
330
19
100
AcDbEntity
  8
SEIHIN
  6
CONTINUOUS
 62
     3
 48
32.0
100
AcDbLine
 10
612.0404760905666
 20
649.6764824723895
 30
0.0
 11
612.0404760905666
 21
652.6931824723895
 31
0.0
  0
LINE
  5
53D
330
19
100
AcDbEntity
  8
SEIHIN
  6
CONTINUOUS
 62
     3
 48
32.0
100
AcDbLine
 10
602.0403760905666
 20
636.9747824723896
 30
0.0
 11
609.0400760905664
 21
632.9333824723895
 31
0.0
  0
LINE
  5
53E
330
19
100
AcDbEntity
  8
SEIHIN
  6
CONTINUOUS
 62
     3
 48
32.0
100
AcDbLine
 10
609.0400760905664
 20
632.9333824723895
 30
0.0
 11
602.0403760905666
 21
636.9747824723896
 31
0.0
  0
LINE
  5
53F
330
19
100
AcDbEntity
  8
SEIHIN
  6
CONTINUOUS
 62
     3
 48
32.0
100
AcDbLine
 10
612.0403760905666
 20
634.6656824723894
 30
0.0
 11
612.0403760905666
 21
642.7482824723893
 31
0.0
  0
LINE
  5
540
330
19
100
AcDbEntity
  8
SEIHIN
  6
CONTINUOUS
 62
     3
 48
32.0
100
AcDbLine
 10
605.0400760905664
 20
642.1710824723894
 30
0.0
 11
612.0403760905666
 21
638.1292824723894
 31
0.0
  0
LINE
  5
541
330
19
100
AcDbEntity
  8
SEIHIN
  6
CONTINUOUS
 62
     3
 48
32.0
100
AcDbLine
 10
612.0403760905666
 20
638.1294824723894
 30
0.0
 11
605.0400760905664
 21
642.1710824723894
 31
0.0
  0
LINE
  5
542
330
19
100
AcDbEntity
  8
SEIHIN
  6
CONTINUOUS
 62
     3
 48
32.0
100
AcDbLine
 10
618.0403760905666
 20
649.6763824723895
 30
0.0
 11
625.0406760905665
 21
645.6347824723894
 31
0.0
  0
LINE
  5
543
330
19
100
AcDbEntity
  8
SEIHIN
  6
CONTINUOUS
 62
     3
 48
32.0
100
AcDbLine
 10
625.0406760905665
 20
642.1709824723895
 30
0.0
 11
625.0406760905665
 21
650.2535824723894
 31
0.0
  0
LINE
  5
544
330
19
100
AcDbEntity
  8
SEIHIN
  6
CONTINUOUS
 62
     3
 48
32.0
100
AcDbLine
 10
618.0403760905666
 20
649.6763824723895
 30
0.0
 11
618.0403760905666
 21
652.6931824723895
 31
0.0
  0
LINE
  5
545
330
19
100
AcDbEntity
  8
SEIHIN
  6
CONTINUOUS
 62
     3
 48
32.0
100
AcDbLine
 10
631.0399760905665
 20
642.1709824723895
 30
0.0
 11
631.0399760905665
 21
648.6063824723895
 31
0.0
  0
LINE
  5
546
330
19
100
AcDbEntity
  8
SEIHIN
  6
CONTINUOUS
 62
     3
 48
32.0
100
AcDbLine
 10
621.0406760905665
 20
632.9333824723895
 30
0.0
 11
628.0403760905666
 21
636.9746824723894
 31
0.0
  0
LINE
  5
547
330
19
100
AcDbEntity
  8
SEIHIN
  6
CONTINUOUS
 62
     3
 48
32.0
100
AcDbLine
 10
628.0403760905666
 20
636.9746824723894
 30
0.0
 11
621.0406760905665
 21
632.9333824723895
 31
0.0
  0
LINE
  5
548
330
19
100
AcDbEntity
  8
SEIHIN
  6
CONTINUOUS
 62
     3
 48
32.0
100
AcDbLine
 10
618.0403760905666
 20
634.6655824723894
 30
0.0
 11
618.0403760905666
 21
642.7481824723894
 31
0.0
  0
LINE
  5
549
330
19
100
AcDbEntity
  8
SEIHIN
  6
CONTINUOUS
 62
     3
 48
32.0
100
AcDbLine
 10
618.0403760905666
 20
638.1293824723894
 30
0.0
 11
625.0406760905665
 21
642.1710824723894
 31
0.0
  0
LINE
  5
54A
330
19
100
AcDbEntity
  8
SEIHIN
  6
CONTINUOUS
 62
     3
 48
32.0
100
AcDbLine
 10
625.0406760905665
 20
642.1709824723895
 30
0.0
 11
618.0403760905666
 21
638.1292824723894
 31
0.0
  0
ARC
  5
54B
330
19
100
AcDbEntity
  8
SEIHIN
  6
CONTINUOUS
 62
     3
 48
32.0
100
AcDbCircle
 10
648.4108760905666
 20
629.9226824723895
 30
0.0
 40
15.00001
100
AcDbArc
 50
15.465941002
 51
84.432772011
  0
LINE
  5
54C
330
19
100
AcDbEntity
  8
SEIHIN
  6
CONTINUOUS
 62
     3
 48
32.0
100
AcDbLine
 10
653.4283760905665
 20
636.6216824723895
 30
0.0
 11
647.0399760905665
 21
632.9332824723896
 31
0.0
  0
LINE
  5
54D
330
19
100
AcDbEntity
  8
SEIHIN
  6
CONTINUOUS
 62
     3
 48
32.0
100
AcDbLine
 10
647.0399760905665
 20
632.9332824723896
 30
0.0
 11
653.4283760905665
 21
636.6216824723895
 31
0.0
  0
ARC
  5
54E
330
19
100
AcDbEntity
  8
SEIHIN
  6
CONTINUOUS
 62
     3
 48
32.0
100
AcDbCircle
 10
639.0403760905666
 20
642.9013824723893
 30
0.0
 40
10.99999099999999
100
AcDbArc
 50
10.21358000129999
 51
82.01420301069999
  0
LINE
  5
54F
330
19
100
AcDbEntity
  8
SEIHIN
  6
CONTINUOUS
 62
     3
 48
32.0
100
AcDbLine
 10
641.0399760905664
 20
644.4799824723894
 30
0.0
 11
643.1140760905665
 21
643.2825824723894
 31
0.0
  0
ARC
  5
550
330
19
100
AcDbEntity
  8
SEIHIN
  6
CONTINUOUS
 62
     3
 48
32.0
100
AcDbCircle
 10
637.2691760905665
 20
640.6766824723894
 30
0.0
 40
9.999997
100
AcDbArc
 50
12.0321300016
 51
81.00780401059999
  0
ARC
  5
551
330
19
100
AcDbEntity
  8
SEIHIN
  6
CONTINUOUS
 62
     3
 48
32.0
100
AcDbCircle
 10
635.4980760905665
 20
638.4871824723894
 30
0.0
 40
8.999940999999999
100
AcDbArc
 50
13.8728840018
 51
79.9807720104
  0
LINE
  5
552
330
19
100
AcDbEntity
  8
SEIHIN
  6
CONTINUOUS
 62
     3
 48
32.0
100
AcDbLine
 10
644.0396760905665
 20
634.6655824723894
 30
0.0
 11
644.0396760905665
 21
641.3227824723896
 31
0.0
  0
LINE
  5
553
330
19
100
AcDbEntity
  8
SEIHIN
  6
CONTINUOUS
 62
     3
 48
32.0
100
AcDbLine
 10
638.0403760905665
 20
634.6655824723894
 30
0.0
 11
638.0403760905665
 21
642.7481824723894
 31
0.0
  0
LINE
  5
554
330
19
100
AcDbEntity
  8
SEIHIN
  6
CONTINUOUS
 62
     3
 48
32.0
100
AcDbLine
 10
644.0396760905665
 20
638.1293824723894
 30
0.0
 11
647.5538760905664
 21
640.1582824723894
 31
0.0
  0
LINE
  5
555
330
19
100
AcDbEntity
  8
SEIHIN
  6
CONTINUOUS
 62
     3
 48
32.0
100
AcDbLine
 10
647.5539760905665
 20
640.1582824723894
 30
0.0
 11
644.0396760905665
 21
638.1292824723894
 31
0.0
  0
LINE
  5
556
330
19
100
AcDbEntity
  8
SEIHIN
  6
CONTINUOUS
 62
     3
 48
32.0
100
AcDbLine
 10
650.0403760905665
 20
644.9226824723894
 30
0.0
 11
649.9391760905665
 21
644.8445824723895
 31
0.0
  0
ARC
  5
557
330
19
100
AcDbEntity
  8
SEIHIN
  6
CONTINUOUS
 62
     3
 48
32.0
100
AcDbCircle
 10
697.1182760905666
 20
684.3874824723894
 30
0.0
 40
10.0
100
AcDbArc
 50
296.1919710386999
 51
351.8780820458999
  0
LINE
  5
558
330
19
100
AcDbEntity
  8
SEIHIN
  6
CONTINUOUS
 62
     3
 48
32.0
100
AcDbLine
 10
701.5319760905664
 20
675.4142824723896
 30
0.0
 11
697.0573760905665
 21
673.9226824723894
 31
0.0
  0
LINE
  5
559
330
19
100
AcDbEntity
  8
SEIHIN
  6
CONTINUOUS
 62
     3
 48
32.0
100
AcDbLine
 10
690.0573760905665
 20
662.9226824723895
 30
0.0
 11
679.0306760905665
 21
662.9226824723895
 31
0.0
  0
LINE
  5
55A
330
19
100
AcDbEntity
  8
SEIHIN
  6
CONTINUOUS
 62
     3
 48
32.0
100
AcDbLine
 10
696.0573760905665
 20
663.9226824723895
 30
0.0
 11
679.2109760905665
 21
663.9226824723895
 31
0.0
  0
ARC
  5
55B
330
19
100
AcDbEntity
  8
SEIHIN
  6
CONTINUOUS
 62
     3
 48
32.0
100
AcDbCircle
 10
668.0306760905665
 20
653.9226824723895
 30
0.0
 40
15.00002199999999
100
AcDbArc
 50
41.8101620055
 51
90.0000000118
  0
LINE
  5
55C
330
19
100
AcDbEntity
  8
SEIHIN
  6
CONTINUOUS
 62
     3
 48
32.0
100
AcDbLine
 10
696.0573760905665
 20
663.9226824723895
 30
0.0
 11
690.0573760905665
 21
662.9226824723895
 31
0.0
  0
LINE
  5
55D
330
19
100
AcDbEntity
  8
SEIHIN
  6
CONTINUOUS
 62
     3
 48
32.0
100
AcDbLine
 10
697.0573760905665
 20
673.9226824723894
 30
0.0
 11
696.0573760905665
 21
663.9226824723895
 31
0.0
  0
ARC
  5
55E
330
19
100
AcDbEntity
  8
SEIHIN
  6
CONTINUOUS
 62
     3
 48
32.0
100
AcDbCircle
 10
735.6072760905665
 20
697.6742824723896
 30
0.0
 40
14.99991
100
AcDbArc
 50
113.5374940148
 51
164.8107450215
  0
ARC
  5
55F
330
19
100
AcDbEntity
  8
SEIHIN
  6
CONTINUOUS
 62
     3
 48
32.0
100
AcDbCircle
 10
692.5613760905665
 20
768.0076824723895
 30
0.0
 40
80.00003799999999
100
AcDbArc
 50
282.0118320367999
 51
288.8115220377
  0
ARC
  5
560
330
19
100
AcDbEntity
  8
SEIHIN
  6
CONTINUOUS
 62
     3
 48
32.0
100
AcDbCircle
 10
709.8149760905665
 20
687.8449824723894
 30
0.0
 40
1.999978999999999
100
AcDbArc
 50
104.4183950135999
 51
169.1024620221
  0
LINE
  5
561
330
19
100
AcDbEntity
  8
SEIHIN
  6
CONTINUOUS
 62
     3
 48
32.0
100
AcDbLine
 10
707.8898760905665
 20
688.4678824723895
 30
0.0
 11
706.9945760905665
 21
682.8198824723894
 31
0.0
  0
ARC
  5
562
330
19
100
AcDbEntity
  8
SEIHIN
  6
CONTINUOUS
 62
     3
 48
32.0
100
AcDbCircle
 10
642.2344760905665
 20
714.8442824723893
 30
0.0
 40
80.00000599999999
100
AcDbArc
 50
344.361326045
 51
350.9869860458
  0
ARC
  5
563
330
19
100
AcDbEntity
  8
SEIHIN
  6
CONTINUOUS
 62
     3
 48
32.0
100
AcDbCircle
 10
717.4198760905665
 20
694.0740824723895
 30
0.0
 40
1.999985999999999
100
AcDbArc
 50
287.0252210374999
 51
346.8524930452999
  0
ARC
  5
564
330
19
100
AcDbEntity
  8
SEIHIN
  6
CONTINUOUS
 62
     3
 48
32.0
100
AcDbCircle
 10
736.4455760905665
 20
716.0018824723894
 30
0.0
 40
1.99998
100
AcDbArc
 50
297.8861010389
 51
337.048924044
  0
LINE
  5
565
330
19
100
AcDbEntity
  8
SEIHIN
  6
CONTINUOUS
 62
     3
 48
32.0
100
AcDbLine
 10
743.0572760905666
 20
735.5227824723893
 30
0.0
 11
615.0405760905665
 21
735.5227824723893
 31
0.0
  0
LINE
  5
566
330
19
100
AcDbEntity
  8
SEIHIN
  6
CONTINUOUS
 62
     3
 48
32.0
100
AcDbLine
 10
745.0572760905665
 20
737.5227824723894
 30
0.0
 11
615.0405760905665
 21
737.5227824723894
 31
0.0
  0
LINE
  5
567
330
19
100
AcDbEntity
  8
SEIHIN
  6
CONTINUOUS
 62
     3
 48
32.0
100
AcDbLine
 10
745.0572760905665
 20
743.5227824723893
 30
0.0
 11
615.0405760905665
 21
743.5227824723893
 31
0.0
  0
ARC
  5
568
330
19
100
AcDbEntity
  8
SEIHIN
  6
CONTINUOUS
 62
     3
 48
32.0
100
AcDbCircle
 10
745.0572760905665
 20
735.5227824723893
 30
0.0
 40
2.0
100
AcDbArc
 50
90.0000000118
 51
180.0000000234999
  0
LINE
  5
569
330
19
100
AcDbEntity
  8
SEIHIN
  6
CONTINUOUS
 62
     3
 48
32.0
100
AcDbLine
 10
745.0405760905665
 20
737.5227824723894
 30
0.0
 11
745.0405760905665
 21
743.5227824723893
 31
0.0
  0
LINE
  5
56A
330
19
100
AcDbEntity
  8
SEIHIN
  6
CONTINUOUS
 62
     3
 48
32.0
100
AcDbLine
 10
1028.313676090566
 20
547.1195824723894
 30
0.0
 11
1029.023576090566
 21
539.5228824723895
 31
0.0
  0
DIMENSION
  5
56B
330
19
100
AcDbEntity
  8
SUNPOU
  6
CONTINUOUS
 62
     4
 48
32.0
100
AcDbDimension
  2
*D4
 10
900.2508992927882
 20
311.5227823996896
 30
0.0
 11
890.2508992927881
 21
462.0724549360893
 31
0.0
 70
    32
  3
STANDARD
100
AcDbAlignedDimension
 13
1079.023576090566
 23
612.6221274724888
 33
0.0
 14
1083.573626092366
 24
311.5227823996896
 34
0.0
 50
90.0
100
AcDbRotatedDimension
1001
ACAD
1000
DSTYLE
1002
{
1070
   287
1070
     4
1070
   287
1070
     4
1070
   287
1070
     4
1070
    41
1040
12.0
1070
    42
1040
20.0
1070
    43
1040
32.0
1070
    44
1040
8.0
1070
    73
1070
     0
1070
    74
1070
     0
1070
    75
1070
     1
1070
    77
1070
     3
1070
   140
1040
12.0
1070
   141
1040
12.0
1070
   147
1040
4.0
1070
   173
1070
     1
1070
   176
1070
     4
1070
   177
1070
     4
1070
   178
1070
     4
1070
   271
1070
     0
1070
   272
1070
     0
1070
   279
1070
     1
1070
     6
1000
OPEN
1070
     7
1000
OPEN
1002
}
  0
LINE
  5
56C
330
19
100
AcDbEntity
  8
SEIHIN
  6
CONTINUOUS
 62
     3
 48
32.0
100
AcDbLine
 10
1143.023776090566
 20
673.9227824723895
 30
0.0
 11
1134.023676090566
 21
539.5227824723893
 31
0.0
  0
DIMENSION
  5
56D
330
19
100
AcDbEntity
  8
SUNPOU
100
AcDbDimension
  2
*D5
 10
1111.523626092366
 20
579.0399806356098
 30
0.0
 11
1095.273601091466
 21
589.0399806356098
 31
0.0
 12
15.68965502308674
 22
-91.82050294916917
 32
0.0
 70
    32
  3
STANDARD
100
AcDbAlignedDimension
 13
1079.023576090566
 23
586.1034908056896
 33
0.0
 14
1111.523626092366
 24
359.7735823996896
 34
0.0
100
AcDbRotatedDimension
1001
ACAD
1000
DSTYLE
1002
{
1070
   140
1040
12.0
1070
    74
1070
     0
1070
   172
1070
     1
1070
    73
1070
     0
1070
   272
1070
     2
1070
    77
1070
     3
1070
   173
1070
     1
1070
   147
1040
4.0
1070
    42
1040
12.0
1070
    44
1040
6.0
1070
    43
1040
28.0
1070
   271
1070
     0
1070
   178
1070
     4
1070
   177
1070
     4
1070
   176
1070
     4
1070
   141
1040
150.0
1070
     7
1000
_OPEN
1070
     6
1000
_OPEN
1070
    41
1040
14.0
1070
   143
1040
0.03937
1002
}
  0
TEXT
  5
56E
330
19
100
AcDbEntity
  8
SUNPOU
 62
     4
100
AcDbText
 10
1217.088556805306
 20
110.7606001668138
 30
0.0
 40
16.0
  1
※たてといＹ６０の差込み寸法を示す。
100
AcDbText
  0
ARC
  5
56F
330
19
100
AcDbEntity
  8
SEIHIN
  6
CONTINUOUS
 62
     3
 48
32.0
100
AcDbCircle
 10
1128.523626092366
 20
511.5227823996896
 30
0.0
 40
8.0
100
AcDbArc
 50
90.0000000118
 51
180.0000000234999
  0
LINE
  5
570
330
19
100
AcDbEntity
  8
SEIHIN
  6
CONTINUOUS
 62
     3
 48
32.0
100
AcDbLine
 10
1135.673626092366
 20
488.5227823996896
 30
0.0
 11
1124.024626092366
 21
487.6944823996894
 31
0.0
  0
LINE
  5
571
330
19
100
AcDbEntity
  8
SEIHIN
  6
CONTINUOUS
 62
     3
 48
32.0
100
AcDbLine
 10
1140.673626092366
 20
351.5227823996896
 30
0.0
 11
1111.523626092366
 21
351.5227823996896
 31
0.0
  0
LINE
  5
572
330
19
100
AcDbEntity
  8
SEIHIN
  6
CONTINUOUS
 62
     3
 48
32.0
100
AcDbLine
 10
1139.973626092366
 20
315.5227823996896
 30
0.0
 11
1111.523626092366
 21
315.5227823996896
 31
0.0
  0
LINE
  5
573
330
19
100
AcDbEntity
  8
SEIHIN
  6
CONTINUOUS
 62
     3
 48
32.0
100
AcDbLine
 10
1139.473626092365
 20
311.5227823996896
 30
0.0
 11
1111.523626092366
 21
311.5227823996896
 31
0.0
  0
ARC
  5
574
330
19
100
AcDbEntity
  8
SEIHIN
  6
CONTINUOUS
 62
     3
 48
32.0
100
AcDbCircle
 10
522.0081260923665
 20
371.5355823996895
 30
0.0
 40
608.999898
100
AcDbArc
 50
1.4101640002
 51
9.1984350012
  0
LINE
  5
575
330
19
100
AcDbEntity
  8
SEIHIN
  6
CONTINUOUS
 62
     3
 48
32.0
100
AcDbLine
 10
1029.023576090566
 20
539.5228824723895
 30
0.0
 11
1134.023676090566
 21
539.5227824723893
 31
0.0
  0
LINE
  5
576
330
19
100
AcDbEntity
  8
SEIHIN
  6
CONTINUOUS
 62
     3
 48
32.0
100
AcDbLine
 10
1029.523626145066
 20
539.5228824698894
 30
0.0
 11
1133.523626036066
 21
539.5227824748896
 31
0.0
  0
DIMENSION
  5
577
330
19
100
AcDbEntity
  8
SUNPOU
  6
CONTINUOUS
 62
     4
 48
32.0
100
AcDbDimension
  2
*D6
 10
1083.073626092366
 20
245.6809675646867
 30
0.0
 11
1111.523626092366
 21
255.6809675646867
 31
0.0
 12
15.68965502308674
 22
-91.82050294916917
 32
0.0
 70
    32
  3
STANDARD
100
AcDbAlignedDimension
 13
1139.973626092366
 23
315.5227823996896
 33
0.0
 14
1083.073626092366
 24
315.5227823996896
 34
0.0
100
AcDbRotatedDimension
1001
ACAD
1000
DSTYLE
1002
{
1070
   140
1040
12.0
1070
    74
1070
     0
1070
    73
1070
     0
1070
   272
1070
     0
1070
    77
1070
     3
1070
   173
1070
     1
1070
   147
1040
4.0
1070
    42
1040
20.0
1070
    44
1040
8.0
1070
    43
1040
32.0
1070
   271
1070
     0
1070
   178
1070
     4
1070
   177
1070
     4
1070
   176
1070
     4
1070
   141
1040
12.0
1070
     7
1000
_OPEN
1070
     6
1000
_OPEN
1070
    41
1040
12.0
1002
}
  0
LINE
  5
578
330
19
100
AcDbEntity
  8
SEIHIN
  6
CONTINUOUS
 62
     3
 48
32.0
100
AcDbLine
 10
1088.912626092366
 20
386.5227823996896
 30
0.0
 11
1130.823626092366
 21
386.5227823996896
 31
0.0
  0
LINE
  5
579
330
19
100
AcDbEntity
  8
SEIHIN
  6
CONTINUOUS
 62
     3
 48
32.0
100
AcDbLine
 10
1081.523626092366
 20
521.5227823996896
 30
0.0
 11
1133.523626092366
 21
521.5227823996896
 31
0.0
  0
LINE
  5
57A
330
19
100
AcDbEntity
  8
SEIHIN
  6
CONTINUOUS
 62
     3
 48
32.0
100
AcDbLine
 10
1081.523626092366
 20
519.5227823996896
 30
0.0
 11
1131.523626092366
 21
519.5227823996896
 31
0.0
  0
LINE
  5
57B
330
19
100
AcDbEntity
  8
SENTER_L
  6
CENTER
 62
     1
 48
3.5
100
AcDbLine
 10
1111.523626092366
 20
359.7735823996896
 30
0.0
 11
1111.523626092366
 21
300.5652823996896
 31
0.0
  0
ARC
  5
57C
330
19
100
AcDbEntity
  8
SEIHIN
  6
CONTINUOUS
 62
     3
 48
32.0
100
AcDbCircle
 10
781.1204260923665
 20
341.9675823996896
 30
0.0
 40
310.9998529999999
100
AcDbArc
 50
1.7606210002
 51
18.6596770024
  0
ARC
  5
57D
330
19
100
AcDbEntity
  8
SEIHIN
  6
CONTINUOUS
 62
     3
 48
32.0
100
AcDbCircle
 10
782.7066260923665
 20
337.3895823996896
 30
0.0
 40
300.0001759999999
100
AcDbArc
 50
2.7002410004
 51
19.6008400026
  0
DIMENSION
  5
57E
330
19
100
AcDbEntity
  8
SUNPOU
100
AcDbDimension
  2
*D7
 10
1027.380427205283
 20
311.5227823996896
 30
0.0
 11
1017.380427205284
 21
273.7227823996895
 31
0.0
 12
15.68965502308674
 22
-91.82050294916917
 32
0.0
 70
    32
  1
※ <>
  3
STANDARD
100
AcDbAlignedDimension
 13
1082.373626092366
 23
351.5227823996896
 33
0.0
 14
1083.573626092366
 24
311.5227823996896
 34
0.0
 50
90.0
100
AcDbRotatedDimension
1001
ACAD
1000
DSTYLE
1002
{
1070
   140
1040
12.0
1070
    74
1070
     0
1070
   172
1070
     1
1070
    73
1070
     0
1070
   272
1070
     2
1070
    77
1070
     3
1070
   173
1070
     1
1070
   147
1040
4.0
1070
    42
1040
12.0
1070
    44
1040
6.0
1070
    43
1040
28.0
1070
   271
1070
     0
1070
   178
1070
     4
1070
   177
1070
     4
1070
   176
1070
     4
1070
   141
1040
150.0
1070
     7
1000
_OPEN
1070
     6
1000
_OPEN
1070
    41
1040
14.0
1070
   143
1040
0.03937
1002
}
  0
LINE
  5
57F
330
19
100
AcDbEntity
  8
SEIHIN
  6
CONTINUOUS
 62
     3
 48
32.0
100
AcDbLine
 10
1083.573626092366
 20
311.5227823996896
 30
0.0
 11
1111.523626092366
 21
311.5227823996896
 31
0.0
  0
LINE
  5
580
330
19
100
AcDbEntity
  8
SEIHIN
  6
CONTINUOUS
 62
     3
 48
32.0
100
AcDbLine
 10
1083.073626092366
 20
315.5227823996896
 30
0.0
 11
1111.523626092366
 21
315.5227823996896
 31
0.0
  0
LINE
  5
581
330
19
100
AcDbEntity
  8
SEIHIN
  6
CONTINUOUS
 62
     3
 48
32.0
100
AcDbLine
 10
1082.373626092366
 20
351.5227823996896
 30
0.0
 11
1111.523626092366
 21
351.5226823996896
 31
0.0
  0
LINE
  5
582
330
19
100
AcDbEntity
  8
SEIHIN
  6
CONTINUOUS
 62
     3
 48
32.0
100
AcDbLine
 10
1083.073626092366
 20
315.5227823996896
 30
0.0
 11
1083.073626092366
 21
351.5227823996896
 31
0.0
  0
LINE
  5
583
330
19
100
AcDbEntity
  8
SEIHIN
  6
CONTINUOUS
 62
     3
 48
32.0
100
AcDbLine
 10
1092.223626092365
 20
315.5227823996896
 30
0.0
 11
1092.223626092365
 21
351.5226823996896
 31
0.0
  0
LINE
  5
584
330
19
100
AcDbEntity
  8
SEIHIN
  6
CONTINUOUS
 62
     3
 48
32.0
100
AcDbLine
 10
1092.723626092366
 20
311.5227823996896
 30
0.0
 11
1092.223626092365
 21
315.5227823996896
 31
0.0
  0
LINE
  5
585
330
19
100
AcDbEntity
  8
SEIHIN
  6
CONTINUOUS
 62
     3
 48
32.0
100
AcDbLine
 10
1083.573626092366
 20
311.5227823996896
 30
0.0
 11
1083.073626092366
 21
315.5227823996896
 31
0.0
  0
LINE
  5
586
330
19
100
AcDbEntity
  8
SEIHIN
  6
CONTINUOUS
 62
     3
 48
32.0
100
AcDbLine
 10
1111.523626092366
 20
311.5227823996896
 30
0.0
 11
1111.523626092366
 21
311.5227823996896
 31
0.0
  0
ARC
  5
587
330
19
100
AcDbEntity
  8
SEIHIN
  6
CONTINUOUS
 62
     3
 48
32.0
100
AcDbCircle
 10
1112.523626092366
 20
454.5227823996897
 30
0.0
 40
38.99993
100
AcDbArc
 50
168.1826780219999
 51
199.5847070260999
  0
ARC
  5
588
330
19
100
AcDbEntity
  8
SEIHIN
  6
CONTINUOUS
 62
     3
 48
32.0
100
AcDbCircle
 10
1112.523626092366
 20
454.5227823996897
 30
0.0
 40
50.000068
100
AcDbArc
 50
179.9998850234999
 51
199.8411190261
  0
ARC
  5
589
330
19
100
AcDbEntity
  8
SEIHIN
  6
CONTINUOUS
 62
     3
 48
32.0
100
AcDbCircle
 10
1081.357626092366
 20
378.5276823996896
 30
0.0
 40
11.00000099999999
100
AcDbArc
 50
46.6207990061
 51
106.5641420138999
  0
LINE
  5
58A
330
19
100
AcDbEntity
  8
SEIHIN
  6
CONTINUOUS
 62
     3
 48
32.0
100
AcDbLine
 10
1081.523626092366
 20
521.5227823996896
 30
0.0
 11
1029.523626092366
 21
521.5229823996895
 31
0.0
  0
LINE
  5
58B
330
19
100
AcDbEntity
  8
SEIHIN
  6
CONTINUOUS
 62
     3
 48
32.0
100
AcDbLine
 10
1081.523626092366
 20
519.5227823996896
 30
0.0
 11
1031.523626092366
 21
519.5229823996895
 31
0.0
  0
ARC
  5
58C
330
19
100
AcDbEntity
  8
SEIHIN
  6
CONTINUOUS
 62
     3
 48
32.0
100
AcDbCircle
 10
1075.730626092366
 20
481.4593823996897
 30
0.0
 40
18.999984
100
AcDbArc
 50
191.3102280249999
 51
265.8348460347
  0
ARC
  5
58D
330
19
100
AcDbEntity
  8
SEIHIN
  6
CONTINUOUS
 62
     3
 48
32.0
100
AcDbCircle
 10
1075.730626092366
 20
481.4593823996897
 30
0.0
 40
29.999839
100
AcDbArc
 50
191.310120025
 51
243.8813130318
  0
ARC
  5
58E
330
19
100
AcDbEntity
  8
SEIHIN
  6
CONTINUOUS
 62
     3
 48
32.0
100
AcDbCircle
 10
1014.378626092366
 20
482.2799823996897
 30
0.0
 40
40.99995899999999
100
AcDbArc
 50
11.3099320015
 51
65.28066900849999
  0
LINE
  5
58F
330
19
100
AcDbEntity
  8
SEIHIN
  6
CONTINUOUS
 62
     3
 48
32.0
100
AcDbLine
 10
1040.792626092366
 20
503.1796823996895
 30
0.0
 11
1046.313626092366
 21
475.5757823996896
 31
0.0
  0
LINE
  5
590
330
19
100
AcDbEntity
  8
SEIHIN
  6
CONTINUOUS
 62
     3
 48
32.0
100
AcDbLine
 10
1054.581626092366
 20
490.3207823996896
 30
0.0
 11
1057.099626092366
 21
477.7330823996897
 31
0.0
  0
ARC
  5
591
330
19
100
AcDbEntity
  8
SEIHIN
  6
CONTINUOUS
 62
     3
 48
32.0
100
AcDbCircle
 10
1041.523626092366
 20
530.5228823996896
 30
0.0
 40
15.0
100
AcDbArc
 50
143.1301020187
 51
216.8698980283
  0
ARC
  5
592
330
19
100
AcDbEntity
  8
SEIHIN
  6
CONTINUOUS
 62
     3
 48
32.0
100
AcDbCircle
 10
1011.374626092366
 20
497.2961823996894
 30
0.0
 40
30.000356
100
AcDbArc
 50
11.3097450015
 51
47.80699000619999
  0
LINE
  5
593
330
19
100
AcDbEntity
  8
SEIHIN
  6
CONTINUOUS
 62
     3
 48
32.0
100
AcDbLine
 10
1031.523626092366
 20
521.5227823996896
 30
0.0
 11
1031.523626092366
 21
519.5228823996895
 31
0.0
  0
ARC
  5
594
330
19
100
AcDbEntity
  8
SEIHIN
  6
CONTINUOUS
 62
     3
 48
32.0
100
AcDbCircle
 10
1171.523626092366
 20
506.2647823996895
 30
0.0
 40
51.000054
100
AcDbArc
 50
180.0000000234999
 51
201.3536060263
  0
LINE
  5
595
330
19
100
AcDbEntity
  8
SEIHIN
  6
CONTINUOUS
 62
     3
 48
32.0
100
AcDbLine
 10
1062.523626092366
 20
454.5227823996897
 30
0.0
 11
1074.350626092366
 21
462.5094823996896
 31
0.0
  0
ARC
  5
596
330
19
100
AcDbEntity
  8
SEIHIN
  6
CONTINUOUS
 62
     3
 48
32.0
100
AcDbCircle
 10
1173.673626092366
 20
476.0326823996897
 30
0.0
 40
51.000216
100
AcDbArc
 50
166.7818080217999
 51
190.1632850248
  0
LINE
  5
597
330
19
100
AcDbEntity
  8
SEIHIN
  6
CONTINUOUS
 62
     3
 48
32.0
100
AcDbLine
 10
1120.523626092366
 20
506.2647823996895
 30
0.0
 11
1120.523626092366
 21
511.5227823996896
 31
0.0
  0
LINE
  5
598
330
19
100
AcDbEntity
  8
SEIHIN
  6
CONTINUOUS
 62
     3
 48
32.0
100
AcDbLine
 10
1140.673626092366
 20
386.5246823996896
 30
0.0
 11
1140.673626092366
 21
351.5227823996896
 31
0.0
  0
LINE
  5
599
330
19
100
AcDbEntity
  8
SEIHIN
  6
CONTINUOUS
 62
     3
 48
32.0
100
AcDbLine
 10
1130.823626092366
 20
315.5227823996896
 30
0.0
 11
1130.823626092366
 21
386.5227823996896
 31
0.0
  0
LINE
  5
59A
330
19
100
AcDbEntity
  8
SEIHIN
  6
CONTINUOUS
 62
     3
 48
32.0
100
AcDbLine
 10
1139.973626092366
 20
315.5227823996896
 30
0.0
 11
1139.973626092366
 21
351.5227823996896
 31
0.0
  0
LINE
  5
59B
330
19
100
AcDbEntity
  8
SEIHIN
  6
CONTINUOUS
 62
     3
 48
32.0
100
AcDbLine
 10
1139.473626092365
 20
311.5227823996896
 30
0.0
 11
1139.973626092366
 21
315.5227823996896
 31
0.0
  0
LINE
  5
59C
330
19
100
AcDbEntity
  8
SEIHIN
  6
CONTINUOUS
 62
     3
 48
32.0
100
AcDbLine
 10
1130.323626092366
 20
311.5227823996896
 30
0.0
 11
1130.823626092366
 21
315.5227823996896
 31
0.0
  0
ARC
  5
59D
330
19
100
AcDbEntity
  8
SEIHIN
  6
CONTINUOUS
 62
     3
 48
32.0
100
AcDbCircle
 10
520.7024260923665
 20
380.5616823996896
 30
0.0
 40
620.0000629999999
100
AcDbArc
 50
0.5508890001
 51
8.082097001099999
  0
ARC
  5
59E
330
19
100
AcDbEntity
  8
SEIHIN
  6
CONTINUOUS
 62
     3
 48
32.0
100
AcDbCircle
 10
1138.191626092366
 20
378.3549823996896
 30
0.0
 40
10.999995
100
AcDbArc
 50
76.95966601000001
 51
132.0529520171999
  0
ARC
  5
59F
330
19
100
AcDbEntity
  8
SEIHIN
  6
CONTINUOUS
 62
     3
 48
32.0
100
AcDbCircle
 10
1171.523626092366
 20
506.2647823996895
 30
0.0
 40
40.000007
100
AcDbArc
 50
180.0000000234999
 51
206.3305960269
  0
ARC
  5
5A0
330
19
100
AcDbEntity
  8
SEIHIN
  6
CONTINUOUS
 62
     3
 48
32.0
100
AcDbCircle
 10
1173.673626092366
 20
476.0326823996897
 30
0.0
 40
39.999736
100
AcDbArc
 50
161.8049860211
 51
191.9817670250999
  0
LINE
  5
5A1
330
19
100
AcDbEntity
  8
SEIHIN
  6
CONTINUOUS
 62
     3
 48
32.0
100
AcDbLine
 10
1131.523626092366
 20
521.5227823996896
 30
0.0
 11
1131.523626092366
 21
506.2647823996895
 31
0.0
  0
ARC
  5
5A2
330
19
100
AcDbEntity
  8
SEIHIN
  6
CONTINUOUS
 62
     3
 48
32.0
100
AcDbCircle
 10
1121.523626092366
 20
530.5227823996895
 30
0.0
 40
15.0
100
AcDbArc
 50
323.1301020422
 51
36.8698980048
  0
ARC
  5
5A3
330
19
100
AcDbEntity
  8
SEIHIN
  6
CONTINUOUS
 62
     3
 48
32.0
100
AcDbCircle
 10
1129.323676090566
 20
660.9227824723895
 30
0.0
 40
2.0
100
AcDbArc
 50
90.0000000118
 51
180.0000000234999
  0
ARC
  5
5A4
330
19
100
AcDbEntity
  8
SEIHIN
  6
CONTINUOUS
 62
     3
 48
32.0
100
AcDbCircle
 10
1128.304376090566
 20
675.8906824723895
 30
0.0
 40
14.999992
100
AcDbArc
 50
220.7808140288
 51
266.2513260348
  0
LINE
  5
5A5
330
19
100
AcDbEntity
  8
SEIHIN
  6
CONTINUOUS
 62
     3
 48
32.0
100
AcDbLine
 10
1143.023776090566
 20
673.9227824723895
 30
0.0
 11
1121.284376090566
 21
673.9227824723895
 31
0.0
  0
DIMENSION
  5
5A6
330
19
100
AcDbEntity
  8
SUNPOU
  6
CONTINUOUS
 62
     4
 48
32.0
100
AcDbDimension
  2
*D8
 10
1143.023776090566
 20
827.9798796945895
 30
0.0
 11
1044.023826090566
 21
837.9798796945896
 31
0.0
 12
15.68965502308674
 22
-91.82050294916917
 32
0.0
 70
    32
  3
STANDARD
100
AcDbAlignedDimension
 13
945.0238760905666
 23
743.5228824723895
 33
0.0
 14
1143.023776090566
 24
673.9227824723895
 34
0.0
100
AcDbRotatedDimension
1001
ACAD
1000
DSTYLE
1002
{
1070
   140
1040
12.0
1070
    74
1070
     0
1070
    73
1070
     0
1070
   272
1070
     0
1070
    77
1070
     3
1070
   173
1070
     1
1070
   147
1040
4.0
1070
    42
1040
20.0
1070
    44
1040
8.0
1070
    43
1040
32.0
1070
   271
1070
     0
1070
   178
1070
     4
1070
   177
1070
     4
1070
   176
1070
     4
1070
   141
1040
12.0
1070
     7
1000
_OPEN
1070
     6
1000
_OPEN
1070
    41
1040
12.0
1002
}
  0
DIMENSION
  5
5A7
330
19
100
AcDbEntity
  8
SUNPOU
  6
CONTINUOUS
 62
     4
 48
32.0
100
AcDbDimension
  2
*D9
 10
1143.023776090566
 20
799.2725880279894
 30
0.0
 11
1111.023676090566
 21
809.2725880279894
 31
0.0
 12
15.68965502308674
 22
-91.82050294916917
 32
0.0
 70
    32
  3
STANDARD
100
AcDbAlignedDimension
 13
1079.023576090566
 23
644.5118241390895
 33
0.0
 14
1143.023776090566
 24
673.9227824723895
 34
0.0
100
AcDbRotatedDimension
1001
ACAD
1000
DSTYLE
1002
{
1070
   140
1040
12.0
1070
    74
1070
     0
1070
    73
1070
     0
1070
   272
1070
     0
1070
    77
1070
     3
1070
   173
1070
     1
1070
   147
1040
4.0
1070
    42
1040
20.0
1070
    44
1040
8.0
1070
    43
1040
32.0
1070
   271
1070
     0
1070
   178
1070
     4
1070
   177
1070
     4
1070
   176
1070
     4
1070
   141
1040
12.0
1070
     7
1000
_OPEN
1070
     6
1000
_OPEN
1070
    41
1040
12.0
1002
}
  0
ARC
  5
5A8
330
19
100
AcDbEntity
  8
SEIHIN
  6
CONTINUOUS
 62
     3
 48
32.0
100
AcDbCircle
 10
1079.023676090566
 20
662.9221824723893
 30
0.0
 40
50.300055
100
AcDbArc
 50
192.1405100251
 51
347.8591320454
  0
ARC
  5
5A9
330
19
100
AcDbEntity
  8
NOKITOI
  6
PHANTOM
 62
     8
 48
2.0
100
AcDbCircle
 10
1079.023576090566
 20
662.922139472489
 30
0.0
 40
50.300012
100
AcDbArc
 50
188.6764639999999
 51
351.2914929999999
  0
ARC
  5
5AA
330
19
100
AcDbEntity
  8
NOKITOI
  6
PHANTOM
 62
     8
 48
2.0
100
AcDbCircle
 10
1079.023576090566
 20
662.922139472489
 30
0.0
 40
49.00000099999999
100
AcDbArc
 50
185.413376
 51
354.5863799999999
  0
LINE
  5
5AB
330
19
100
AcDbEntity
  8
SEIHIN
  6
CONTINUOUS
 62
     3
 48
32.0
100
AcDbLine
 10
1135.456676090566
 20
560.9227824723895
 30
0.0
 11
1016.023576090566
 21
560.9229824723894
 31
0.0
  0
LINE
  5
5AC
330
19
100
AcDbEntity
  8
SEIHIN
  6
CONTINUOUS
 62
     3
 48
32.0
100
AcDbLine
 10
1049.023776090566
 20
673.9227824723895
 30
0.0
 11
1019.700976090566
 21
737.7001824723894
 31
0.0
  0
ARC
  5
5AD
330
19
100
AcDbEntity
  8
SEIHIN
  6
CONTINUOUS
 62
     3
 48
32.0
100
AcDbCircle
 10
1027.906376090566
 20
739.8574824723895
 30
0.0
 40
80.0
100
AcDbArc
 50
183.1058770239
 51
197.9884360258999
  0
DIMENSION
  5
5AE
330
19
100
AcDbEntity
  8
SUNPOU
  6
CONTINUOUS
 62
     4
 48
32.0
100
AcDbDimension
  2
*D10
 10
900.2508992927882
 20
612.6221274724888
 30
0.0
 11
890.2508992927881
 21
678.0725049724392
 31
0.0
 12
15.68965502308674
 22
-91.82050294916917
 32
0.0
 70
    32
  3
STANDARD
100
AcDbAlignedDimension
 13
945.0238760905666
 23
743.5228824723895
 33
0.0
 14
1079.023576090566
 24
612.6221274724888
 34
0.0
 50
90.0
100
AcDbRotatedDimension
1001
ACAD
1000
DSTYLE
1002
{
1070
   140
1040
12.0
1070
    74
1070
     0
1070
    73
1070
     0
1070
   272
1070
     0
1070
    77
1070
     3
1070
   173
1070
     1
1070
   147
1040
4.0
1070
    42
1040
20.0
1070
    44
1040
8.0
1070
    43
1040
32.0
1070
   271
1070
     0
1070
   178
1070
     4
1070
   177
1070
     4
1070
   176
1070
     4
1070
   141
1040
12.0
1070
     7
1000
_OPEN
1070
     6
1000
_OPEN
1070
    41
1040
12.0
1002
}
  0
DIMENSION
  5
5AF
330
19
100
AcDbEntity
  8
SUNPOU
  6
CONTINUOUS
 62
     4
 48
32.0
100
AcDbDimension
  2
*D11
 10
1079.023576090566
 20
799.2725880279894
 30
0.0
 11
1012.023726090566
 21
809.2725880279894
 31
0.0
 12
15.68965502308674
 22
-91.82050294916917
 32
0.0
 70
    32
  3
STANDARD
100
AcDbAlignedDimension
 13
945.0238760905666
 23
743.5228824723895
 33
0.0
 14
1079.023576090566
 24
644.5118241390895
 34
0.0
100
AcDbRotatedDimension
1001
ACAD
1000
DSTYLE
1002
{
1070
   140
1040
12.0
1070
    74
1070
     0
1070
    73
1070
     0
1070
   272
1070
     0
1070
    77
1070
     3
1070
   173
1070
     1
1070
   147
1040
4.0
1070
    42
1040
20.0
1070
    44
1040
8.0
1070
    43
1040
32.0
1070
   271
1070
     0
1070
   178
1070
     4
1070
   177
1070
     4
1070
   176
1070
     4
1070
   141
1040
12.0
1070
     7
1000
_OPEN
1070
     6
1000
_OPEN
1070
    41
1040
12.0
1002
}
  0
LINE
  5
5B0
330
19
100
AcDbEntity
  8
SEIHIN
  6
CONTINUOUS
 62
     3
 48
32.0
100
AcDbLine
 10
982.0237760905666
 20
689.5227824723893
 30
0.0
 11
1041.851376090566
 21
689.5227824723893
 31
0.0
  0
LINE
  5
5B1
330
19
100
AcDbEntity
  8
SEIHIN
  6
CONTINUOUS
 62
     3
 48
32.0
100
AcDbLine
 10
994.0237760905665
 20
663.9227824723895
 30
0.0
 11
1000.023776090566
 21
662.9227824723894
 31
0.0
  0
LINE
  5
5B2
330
19
100
AcDbEntity
  8
SEIHIN
  6
CONTINUOUS
 62
     3
 48
32.0
100
AcDbLine
 10
994.0237760905665
 20
663.9227824723895
 30
0.0
 11
1041.472776090566
 21
663.9227824723895
 31
0.0
  0
LINE
  5
5B3
330
19
100
AcDbEntity
  8
SEIHIN
  6
CONTINUOUS
 62
     3
 48
32.0
100
AcDbLine
 10
987.8264760905665
 20
676.9227824723895
 30
0.0
 11
1047.644476090566
 21
676.9227824723895
 31
0.0
  0
LINE
  5
5B4
330
19
100
AcDbEntity
  8
SEIHIN
  6
CONTINUOUS
 62
     3
 48
32.0
100
AcDbLine
 10
993.0237760905665
 20
673.9227824723895
 30
0.0
 11
1049.023776090566
 21
673.9227824723895
 31
0.0
  0
LINE
  5
5B5
330
19
100
AcDbEntity
  8
SEIHIN
  6
CONTINUOUS
 62
     3
 48
32.0
100
AcDbLine
 10
952.0237760905665
 20
714.5228824723895
 30
0.0
 11
1030.357176090566
 21
714.5228824723895
 31
0.0
  0
LINE
  5
5B6
330
19
100
AcDbEntity
  8
SEIHIN
  6
CONTINUOUS
 62
     3
 48
32.0
100
AcDbLine
 10
971.7420760905666
 20
692.5227824723894
 30
0.0
 11
1040.472076090566
 21
692.5227824723894
 31
0.0
  0
LINE
  5
5B7
330
19
100
AcDbEntity
  8
SEIHIN
  6
CONTINUOUS
 62
     3
 48
32.0
100
AcDbLine
 10
968.0238760905664
 20
709.5228824723895
 30
0.0
 11
1032.655976090566
 21
709.5228824723895
 31
0.0
  0
ARC
  5
5B8
330
19
100
AcDbEntity
  8
SEIHIN
  6
CONTINUOUS
 62
     3
 48
32.0
100
AcDbCircle
 10
992.9628760905664
 20
684.3875824723895
 30
0.0
 40
9.999992999999999
100
AcDbArc
 50
188.1213510245999
 51
243.8080290318
  0
LINE
  5
5B9
330
19
100
AcDbEntity
  8
SEIHIN
  6
CONTINUOUS
 62
     3
 48
32.0
100
AcDbLine
 10
988.5490760905664
 20
675.4143824723895
 30
0.0
 11
993.0237760905665
 21
673.9227824723895
 31
0.0
  0
LINE
  5
5BA
330
19
100
AcDbEntity
  8
SEIHIN
  6
CONTINUOUS
 62
     3
 48
32.0
100
AcDbLine
 10
993.0237760905665
 20
673.9227824723895
 30
0.0
 11
994.0237760905665
 21
663.9227824723895
 31
0.0
  0
ARC
  5
5BB
330
19
100
AcDbEntity
  8
SEIHIN
  6
CONTINUOUS
 62
     3
 48
32.0
100
AcDbCircle
 10
954.4738760905664
 20
697.6742824723896
 30
0.0
 40
15.000024
100
AcDbArc
 50
15.189155002
 51
66.46230800869999
  0
ARC
  5
5BC
330
19
100
AcDbEntity
  8
SEIHIN
  6
CONTINUOUS
 62
     3
 48
32.0
100
AcDbCircle
 10
983.7544760905664
 20
787.9610824723894
 30
0.0
 40
80.00005299999999
100
AcDbArc
 50
247.1182270322999
 51
253.2814930330999
  0
ARC
  5
5BD
330
19
100
AcDbEntity
  8
SEIHIN
  6
CONTINUOUS
 62
     3
 48
32.0
100
AcDbCircle
 10
953.6355760905664
 20
716.0020824723895
 30
0.0
 40
2.000023999999999
100
AcDbArc
 50
202.9510760264999
 51
242.1152390316
  0
ARC
  5
5BE
330
19
100
AcDbEntity
  8
SEIHIN
  6
CONTINUOUS
 62
     3
 48
32.0
100
AcDbCircle
 10
997.5196760905665
 20
768.0077824723895
 30
0.0
 40
79.999948
100
AcDbArc
 50
251.1882960328
 51
257.9880130337
  0
ARC
  5
5BF
330
19
100
AcDbEntity
  8
SEIHIN
  6
CONTINUOUS
 62
     3
 48
32.0
100
AcDbCircle
 10
972.6612760905664
 20
694.0741824723894
 30
0.0
 40
1.999985999999999
100
AcDbArc
 50
193.1475070252
 51
252.974779033
  0
ARC
  5
5C0
330
19
100
AcDbEntity
  8
SEIHIN
  6
CONTINUOUS
 62
     3
 48
32.0
100
AcDbCircle
 10
1047.846676090566
 20
714.8443824723896
 30
0.0
 40
80.000005
100
AcDbArc
 50
189.0127900247
 51
195.6385360255
  0
ARC
  5
5C1
330
19
100
AcDbEntity
  8
SEIHIN
  6
CONTINUOUS
 62
     3
 48
32.0
100
AcDbCircle
 10
980.2661760905666
 20
687.8449824723894
 30
0.0
 40
1.999978999999999
100
AcDbArc
 50
10.8975380014
 51
75.5816050099
  0
LINE
  5
5C2
330
19
100
AcDbEntity
  8
SEIHIN
  6
CONTINUOUS
 62
     3
 48
32.0
100
AcDbLine
 10
982.1912760905664
 20
688.4679824723895
 30
0.0
 11
983.0865760905664
 21
682.8198824723894
 31
0.0
  0
LINE
  5
5C3
330
19
100
AcDbEntity
  8
SEIHIN
  6
CONTINUOUS
 62
     3
 48
32.0
100
AcDbLine
 10
1000.023776090566
 20
662.9227824723894
 30
0.0
 11
1003.023776090566
 21
612.6226824723895
 31
0.0
  0
LINE
  5
5C4
330
19
100
AcDbEntity
  8
SEIHIN
  6
CONTINUOUS
 62
     3
 48
32.0
100
AcDbLine
 10
999.0237760905666
 20
612.6226824723895
 30
0.0
 11
996.7798760905665
 21
650.2454824723894
 31
0.0
  0
LINE
  5
5C5
330
19
100
AcDbEntity
  8
SEIHIN
  6
CONTINUOUS
 62
     3
 48
32.0
100
AcDbLine
 10
1006.023776090566
 20
612.6226824723895
 30
0.0
 11
1003.023776090566
 21
662.9227824723894
 31
0.0
  0
LINE
  5
5C6
330
19
100
AcDbEntity
  8
SENTER_L
  6
CENTER
 62
     1
 48
3.5
100
AcDbLine
 10
1079.023576090566
 20
586.1034908056896
 30
0.0
 11
1079.023576090566
 21
644.5118241390895
 31
0.0
  0
ARC
  5
5C7
330
19
100
AcDbEntity
  8
SEIHIN
  6
CONTINUOUS
 62
     3
 48
32.0
100
AcDbCircle
 10
1297.427976090566
 20
643.5238824723896
 30
0.0
 40
299.999859
100
AcDbArc
 50
185.9121060243
 51
191.8086470249999
  0
ARC
  5
5C8
330
19
100
AcDbEntity
  8
SEIHIN
  6
CONTINUOUS
 62
     3
 48
32.0
100
AcDbCircle
 10
1304.427976090566
 20
643.5238824723896
 30
0.0
 40
299.999903
100
AcDbArc
 50
185.9121060243
 51
195.9820030256
  0
ARC
  5
5C9
330
19
100
AcDbEntity
  8
SEIHIN
  6
CONTINUOUS
 62
     3
 48
32.0
100
AcDbCircle
 10
1301.427976090566
 20
643.5238824723896
 30
0.0
 40
299.999903
100
AcDbArc
 50
185.9121060243
 51
195.9820030256
  0
ARC
  5
5CA
330
19
100
AcDbEntity
  8
SEIHIN
  6
CONTINUOUS
 62
     3
 48
32.0
100
AcDbCircle
 10
1013.422276090566
 20
546.1502824723894
 30
0.0
 40
14.99995499999999
100
AcDbArc
 50
359.3059400469
 51
90.63103401179999
  0
ARC
  5
5CB
330
19
100
AcDbEntity
  8
SEIHIN
  6
CONTINUOUS
 62
     3
 48
32.0
100
AcDbCircle
 10
1005.734876090566
 20
582.5394824723895
 30
0.0
 40
1.999971
100
AcDbArc
 50
191.8088380249999
 51
238.7969660311999
  0
LINE
  5
5CC
330
19
100
AcDbEntity
  8
SEIHIN
  6
CONTINUOUS
 62
     3
 48
32.0
100
AcDbLine
 10
1004.698676090566
 20
580.8288824723894
 30
0.0
 11
1008.506076090566
 21
578.5228824723896
 31
0.0
  0
LINE
  5
5CD
330
19
100
AcDbEntity
  8
SEIHIN
  6
CONTINUOUS
 62
     3
 48
32.0
100
AcDbLine
 10
1079.023576090566
 20
612.6221824723894
 30
0.0
 11
1079.023576090566
 21
612.6221824723894
 31
0.0
  0
LINE
  5
5CE
330
19
100
AcDbEntity
  8
SEIHIN
  6
CONTINUOUS
 62
     3
 48
32.0
100
AcDbLine
 10
1029.243976090566
 20
662.9229824723894
 30
0.0
 11
1025.223676090566
 21
662.9229824723894
 31
0.0
  0
ARC
  5
5CF
330
19
100
AcDbEntity
  8
SEIHIN
  6
CONTINUOUS
 62
     3
 48
32.0
100
AcDbCircle
 10
1027.893276090566
 20
651.9229824723894
 30
0.0
 40
2.000013
100
AcDbArc
 50
12.1397760016
 51
90.0000000118
  0
CIRCLE
  5
5D0
330
19
100
AcDbEntity
  8
NOKITOI
  6
PHANTOM
 62
     8
 48
2.0
100
AcDbCircle
 10
1026.261976090566
 20
657.9222394724889
 30
0.0
 40
2.7
  0
ARC
  5
5D1
330
19
100
AcDbEntity
  8
NOKITOI
  6
PHANTOM
 62
     8
 48
2.0
100
AcDbCircle
 10
1026.261976090566
 20
657.9222394724889
 30
0.0
 40
4.000029
100
AcDbArc
 50
185.413851
 51
319.252818
  0
ARC
  5
5D2
330
19
100
AcDbEntity
  8
NOKITOI
  6
PHANTOM
 62
     8
 48
2.0
100
AcDbCircle
 10
1026.261976090566
 20
657.9222394724889
 30
0.0
 40
3.999994
100
AcDbArc
 50
5.413986
 51
185.413851
  0
LINE
  5
5D3
330
19
100
AcDbEntity
  8
SEIHIN
  6
CONTINUOUS
 62
     3
 48
32.0
100
AcDbLine
 10
1000.023776090566
 20
662.9227824723894
 30
0.0
 11
1039.744576090566
 21
662.9227824723894
 31
0.0
  0
ARC
  5
5D4
330
19
100
AcDbEntity
  8
SEIHIN
  6
CONTINUOUS
 62
     3
 48
32.0
100
AcDbCircle
 10
1025.223676090566
 20
657.4229824723894
 30
0.0
 40
3.5
100
AcDbArc
 50
180.0000000234999
 51
270.0000000353
  0
LINE
  5
5D5
330
19
100
AcDbEntity
  8
SEIHIN
  6
CONTINUOUS
 62
     3
 48
32.0
100
AcDbLine
 10
1000.527376090566
 20
654.4797824723895
 30
0.0
 11
997.4804760905666
 21
651.8878824723896
 31
0.0
  0
ARC
  5
5D6
330
19
100
AcDbEntity
  8
SEIHIN
  6
CONTINUOUS
 62
     3
 48
32.0
100
AcDbCircle
 10
998.7762760905665
 20
650.3645824723895
 30
0.0
 40
1.999949999999999
100
AcDbArc
 50
130.3884390169999
 51
183.414070024
  0
LINE
  5
5D7
330
19
100
AcDbEntity
  8
SEIHIN
  6
CONTINUOUS
 62
     3
 48
32.0
100
AcDbLine
 10
1027.893276090566
 20
653.9229824723894
 30
0.0
 11
1025.223676090566
 21
653.9229824723894
 31
0.0
  0
LINE
  5
5D8
330
19
100
AcDbEntity
  8
SEIHIN
  6
CONTINUOUS
 62
     3
 48
32.0
100
AcDbLine
 10
1021.723676090566
 20
657.4229824723894
 30
0.0
 11
1021.723676090566
 21
659.4228824723894
 31
0.0
  0
ARC
  5
5D9
330
19
100
AcDbEntity
  8
SEIHIN
  6
CONTINUOUS
 62
     3
 48
32.0
100
AcDbCircle
 10
1025.223676090566
 20
659.4229824723894
 30
0.0
 40
3.5
100
AcDbArc
 50
90.0000000118
 51
180.0000000234999
  0
ARC
  5
5DA
330
19
100
AcDbEntity
  8
SEIHIN
  6
CONTINUOUS
 62
     3
 48
32.0
100
AcDbCircle
 10
1031.356876090566
 20
679.4120824723894
 30
0.0
 40
18.50000999999999
100
AcDbArc
 50
268.038237035
 51
342.7391100448
  0
ARC
  5
5DB
330
19
100
AcDbEntity
  8
SEIHIN
  6
CONTINUOUS
 62
     3
 48
32.0
100
AcDbCircle
 10
1028.723676090566
 20
660.9229824723894
 30
0.0
 40
2.0
100
AcDbArc
 50
0.0
 51
90.0000000118
  0
ARC
  5
5DC
330
19
100
AcDbEntity
  8
SEIHIN
  6
CONTINUOUS
 62
     3
 48
32.0
100
AcDbCircle
 10
1121.284376090566
 20
671.9227824723894
 30
0.0
 40
2.000004
100
AcDbArc
 50
90.0000000118
 51
141.3106630185
  0
LINE
  5
5DD
330
19
100
AcDbEntity
  8
SEIHIN
  6
CONTINUOUS
 62
     3
 48
32.0
100
AcDbLine
 10
1116.740476090566
 20
669.4483824723894
 30
0.0
 11
1119.723176090566
 21
673.1729824723894
 31
0.0
  0
ARC
  5
5DE
330
19
100
AcDbEntity
  8
SEIHIN
  6
CONTINUOUS
 62
     3
 48
32.0
100
AcDbCircle
 10
1119.323676090566
 20
667.9227824723895
 30
0.0
 40
2.999978
100
AcDbArc
 50
133.1900960174
 51
234.5668950306
  0
LINE
  5
5DF
330
19
100
AcDbEntity
  8
SEIHIN
  6
CONTINUOUS
 62
     3
 48
32.0
100
AcDbLine
 10
945.0238760905666
 20
743.5228824723895
 30
0.0
 11
1010.615276090566
 21
743.5228824723895
 31
0.0
  0
LINE
  5
5E0
330
19
100
AcDbEntity
  8
SEIHIN
  6
CONTINUOUS
 62
     3
 48
32.0
100
AcDbLine
 10
945.0238760905666
 20
737.5228824723896
 30
0.0
 11
1019.782476090566
 21
737.5228824723896
 31
0.0
  0
LINE
  5
5E1
330
19
100
AcDbEntity
  8
SEIHIN
  6
CONTINUOUS
 62
     3
 48
32.0
100
AcDbLine
 10
947.0238760905665
 20
735.5228824723895
 30
0.0
 11
1020.702076090566
 21
735.5228824723895
 31
0.0
  0
ARC
  5
5E2
330
19
100
AcDbEntity
  8
SEIHIN
  6
CONTINUOUS
 62
     3
 48
32.0
100
AcDbCircle
 10
945.0238760905666
 20
735.5228824723895
 30
0.0
 40
2.0
100
AcDbArc
 50
0.0
 51
90.0000000118
  0
LINE
  5
5E3
330
19
100
AcDbEntity
  8
SEIHIN
  6
CONTINUOUS
 62
     3
 48
32.0
100
AcDbLine
 10
945.0405760905665
 20
737.5228824723896
 30
0.0
 11
945.0405760905665
 21
743.5228824723895
 31
0.0
  0
ARC
  5
5E4
330
19
100
AcDbEntity
  8
SEIHIN
  6
CONTINUOUS
 62
     3
 48
32.0
100
AcDbCircle
 10
1010.615276090566
 20
733.5228824723896
 30
0.0
 40
9.999993999999999
100
AcDbArc
 50
24.6913850032
 51
90.0000000118
  0
ARC
  5
5E5
330
19
100
AcDbEntity
  8
SEIHIN
  6
CONTINUOUS
 62
     3
 48
32.0
100
AcDbCircle
 10
1132.823676090566
 20
657.4227824723894
 30
0.0
 40
3.5
100
AcDbArc
 50
270.0000000353
 51
0.0
  0
CIRCLE
  5
5E6
330
19
100
AcDbEntity
  8
NOKITOI
  6
PHANTOM
 62
     8
 48
2.0
100
AcDbCircle
 10
1131.785176090566
 20
657.922039472489
 30
0.0
 40
2.7
  0
ARC
  5
5E7
330
19
100
AcDbEntity
  8
NOKITOI
  6
PHANTOM
 62
     8
 48
2.0
100
AcDbCircle
 10
1131.785176090566
 20
657.922039472489
 30
0.0
 40
3.999994
100
AcDbArc
 50
220.269583
 51
121.7840119999999
  0
LINE
  5
5E8
330
19
100
AcDbEntity
  8
SEIHIN
  6
CONTINUOUS
 62
     3
 48
32.0
100
AcDbLine
 10
1130.153876090566
 20
653.9227824723894
 30
0.0
 11
1132.823676090566
 21
653.9227824723894
 31
0.0
  0
ARC
  5
5E9
330
19
100
AcDbEntity
  8
SEIHIN
  6
CONTINUOUS
 62
     3
 48
32.0
100
AcDbCircle
 10
1130.153876090566
 20
651.9227824723895
 30
0.0
 40
1.999964
100
AcDbArc
 50
90.0000000118
 51
167.8596220219
  0
LINE
  5
5EA
330
19
100
AcDbEntity
  8
SEIHIN
  6
CONTINUOUS
 62
     3
 48
32.0
100
AcDbLine
 10
1128.803376090566
 20
662.9227824723894
 30
0.0
 11
1132.823676090566
 21
662.9227824723894
 31
0.0
  0
LINE
  5
5EB
330
19
100
AcDbEntity
  8
SEIHIN
  6
CONTINUOUS
 62
     3
 48
32.0
100
AcDbLine
 10
1136.323676090566
 20
657.4227824723894
 30
0.0
 11
1136.323676090566
 21
659.4227824723894
 31
0.0
  0
ARC
  5
5EC
330
19
100
AcDbEntity
  8
NOKITOI
  6
PHANTOM
 62
     8
 48
2.0
100
AcDbCircle
 10
1131.785176090566
 20
657.922039472489
 30
0.0
 40
3.999958
100
AcDbArc
 50
121.784767
 51
174.584588
  0
ARC
  5
5ED
330
19
100
AcDbEntity
  8
SEIHIN
  6
CONTINUOUS
 62
     3
 48
32.0
100
AcDbCircle
 10
1132.823676090566
 20
659.4227824723894
 30
0.0
 40
3.5
100
AcDbArc
 50
0.0
 51
90.0000000118
  0
LINE
  5
5EE
330
19
100
AcDbEntity
  8
ZUWAKU
100
AcDbLine
 10
691.7553108850559
 20
42.3131783757269
 30
0.0
 11
691.7553108850559
 21
28.04529044677813
 31
0.0
  0
LINE
  5
5EF
330
19
100
AcDbEntity
  8
ZUWAKU
100
AcDbLine
 10
686.1392845184952
 20
42.3131783757269
 30
0.0
 11
686.1392845184952
 21
28.04529044677813
 31
0.0
  0
LINE
  5
5F0
330
19
100
AcDbEntity
  8
ZUWAKU
100
AcDbLine
 10
680.5232581519337
 20
42.3131783757269
 30
0.0
 11
680.5232581519337
 21
28.04529044677813
 31
0.0
  0
LINE
  5
5F1
330
19
100
AcDbEntity
  8
ZUWAKU
100
AcDbLine
 10
678.1163920469951
 20
28.04529044677813
 30
0.0
 11
694.2423987686104
 21
28.04529044677813
 31
0.0
  0
LINE
  5
5F2
330
19
100
AcDbEntity
  8
ZUWAKU
100
AcDbLine
 10
678.1163920469951
 20
42.3131783757269
 30
0.0
 11
694.2423987686104
 21
42.3131783757269
 31
0.0
  0
VIEWPORT
  5
22
330
16
100
AcDbEntity
 67
     1
  8
0
100
AcDbViewport
 10
313.6808219178082
 20
148.5
 30
0.0
 40
627.3616438356165
 41
297.0
 68
     2
 69
     1
1001
ACAD
1000
MVIEW
1002
{
1070
    16
1010
0.0
1020
0.0
1030
0.0
1010
0.0
1020
0.0
1030
1.0
1040
0.0
1040
297.0
1040
313.6808219178082
1040
148.5
1040
50.0
1040
0.0
1040
0.0
1070
     0
1070
   100
1070
     1
1070
     0
1070
     0
1070
     0
1070
     0
1070
     0
1040
0.0
1040
0.0
1040
0.0
1040
10.0
1040
10.0
1040
10.0
1040
10.0
1070
     0
1002
{
1002
}
1002
}
  0
VIEWPORT
  5
25
330
16
100
AcDbEntity
 67
     1
  8
VIEWPORT
100
AcDbViewport
 10
210.0
 20
148.5
 30
0.0
 40
420.0
 41
297.0
 68
     1
 69
     2
1001
ACAD
1000
MVIEW
1002
{
1070
    16
1010
0.0
1020
0.0
1030
0.0
1010
0.0
1020
0.0
1030
1.0
1040
0.0
1040
1212.607689320388
1040
841.0
1040
594.0
1040
50.0
1040
0.0
1040
0.0
1070
     0
1070
   100
1070
     1
1070
     0
1070
     0
1070
     0
1070
     0
1070
     0
1040
0.0
1040
0.0
1040
0.0
1040
57.0
1040
57.0
1040
57.0
1040
57.0
1070
     0
1002
{
1002
}
1002
}
  0
ENDSEC
  0
SECTION
  2
OBJECTS
  0
DICTIONARY
  5
C
330
0
100
AcDbDictionary
  3
ACAD_GROUP
350
D
  3
ACAD_LAYOUT
350
6F8
  3
ACAD_MLINESTYLE
350
E
  3
ACAD_PLOTSETTINGS
350
6F9
1001
ACAD
1000
TREAT_AS_HARD
1070
     0
  0
DICTIONARY
  5
725
330
19
100
AcDbDictionary
  3
ACAD_LAYOUTSELFREF
350
779
1001
ACAD
1000
TREAT_AS_HARD
1070
     1
  0
DICTIONARY
  5
723
330
16
100
AcDbDictionary
  3
ACAD_LAYOUTSELFREF
350
778
1001
ACAD
1000
TREAT_AS_HARD
1070
     1
  0
DICTIONARY
  5
D
102
{ACAD_REACTORS
330
C
102
}
330
C
100
AcDbDictionary
1001
ACAD
1000
TREAT_AS_HARD
1070
     0
  0
DICTIONARY
  5
6F8
102
{ACAD_REACTORS
330
C
102
}
330
C
100
AcDbDictionary
1001
ACAD
1000
TREAT_AS_HARD
1070
     0
  0
DICTIONARY
  5
E
102
{ACAD_REACTORS
330
C
102
}
330
C
100
AcDbDictionary
  3
STANDARD
350
1C
1001
ACAD
1000
TREAT_AS_HARD
1070
     0
  0
DICTIONARY
  5
6F9
102
{ACAD_REACTORS
330
C
102
}
330
C
100
AcDbDictionary
1001
ACAD
1000
TREAT_AS_HARD
1070
     0
  0
XRECORD
  5
779
102
{ACAD_REACTORS
330
725
102
}
330
725
100
AcDbXrecord
340
19
  0
XRECORD
  5
778
102
{ACAD_REACTORS
330
723
102
}
330
723
100
AcDbXrecord
340
16
  0
MLINESTYLE
  5
1C
102
{ACAD_REACTORS
330
E
102
}
330
E
100
AcDbMlineStyle
  2
STANDARD
 70
     0
  3

 62
     0
 51
90.0
 52
90.0
 71
     2
 49
0.5
 62
   256
  6
BYLAYER
 49
-0.5
 62
   256
  6
BYLAYER
  0
ENDSEC
  0
EOF
