  0
SECTION
  2
HEADER
  9
$ACADVER
  1
AC1012
  9
$DWGCODEPAGE
  3
dos932
  9
$INSBASE
 10
0.0
 20
0.0
 30
0.0
  9
$EXTMIN
 10
5.0
 20
2.449000558492456
 30
-0.00000001
  9
$EXTMAX
 10
403.0
 20
282.0
 30
0.00000001
  9
$LIMMIN
 10
0.0
 20
0.0
  9
$LIMMAX
 10
420.0
 20
297.0
  9
$ORTHOMODE
 70
     0
  9
$REGENMODE
 70
     1
  9
$FILLMODE
 70
     1
  9
$QTEXTMODE
 70
     0
  9
$MIRRTEXT
 70
     1
  9
$DRAGMODE
 70
     2
  9
$LTSCALE
 40
1.0
  9
$OSMODE
 70
  2095
  9
$ATTMODE
 70
     1
  9
$TEXTSIZE
 40
2.5
  9
$TRACEWID
 40
1.0
  9
$TEXTSTYLE
  7
STANDARD
  9
$CLAYER
  8
SUNPOU
  9
$CELTYPE
  6
BYLAYER
  9
$CECOLOR
 62
   256
  9
$CELTSCALE
 40
1.0
  9
$DELOBJ
 70
     1
  9
$DISPSILH
 70
     0
  9
$DIMSCALE
 40
1.0
  9
$DIMASZ
 40
3.0
  9
$DIMEXO
 40
3.0
  9
$DIMDLI
 40
7.0
  9
$DIMRND
 40
0.0
  9
$DIMDLE
 40
0.0
  9
$DIMEXE
 40
1.5
  9
$DIMTP
 40
0.0
  9
$DIMTM
 40
0.0
  9
$DIMTXT
 40
3.0
  9
$DIMCEN
 40
150.0
  9
$DIMTSZ
 40
0.0
  9
$DIMTOL
 70
     0
  9
$DIMLIM
 70
     0
  9
$DIMTIH
 70
     0
  9
$DIMTOH
 70
     0
  9
$DIMSE1
 70
     0
  9
$DIMSE2
 70
     0
  9
$DIMTAD
 70
     3
  9
$DIMZIN
 70
     0
  9
$DIMBLK
  1

  9
$DIMASO
 70
     1
  9
$DIMSHO
 70
     1
  9
$DIMPOST
  1

  9
$DIMAPOST
  1

  9
$DIMALT
 70
     0
  9
$DIMALTD
 70
     2
  9
$DIMALTF
 40
25.4
  9
$DIMLFAC
 40
1.0
  9
$DIMTOFL
 70
     1
  9
$DIMTVP
 40
0.0
  9
$DIMTIX
 70
     0
  9
$DIMSOXD
 70
     0
  9
$DIMSAH
 70
     1
  9
$DIMBLK1
  1
OPEN
  9
$DIMBLK2
  1
OPEN
  9
$DIMSTYLE
  2
STANDARD
  9
$DIMCLRD
 70
   256
  9
$DIMCLRE
 70
   256
  9
$DIMCLRT
 70
   256
  9
$DIMTFAC
 40
1.0
  9
$DIMGAP
 40
1.0
  9
$DIMJUST
 70
     0
  9
$DIMSD1
 70
     0
  9
$DIMSD2
 70
     0
  9
$DIMTOLJ
 70
     1
  9
$DIMTZIN
 70
     0
  9
$DIMALTZ
 70
     0
  9
$DIMALTTZ
 70
     0
  9
$DIMFIT
 70
     3
  9
$DIMUPT
 70
     0
  9
$DIMUNIT
 70
     2
  9
$DIMDEC
 70
     0
  9
$DIMTDEC
 70
     0
  9
$DIMALTU
 70
     2
  9
$DIMALTTD
 70
     2
  9
$DIMTXSTY
  7
STANDARD
  9
$DIMAUNIT
 70
     0
  9
$LUNITS
 70
     2
  9
$LUPREC
 70
     4
  9
$SKETCHINC
 40
1.0
  9
$FILLETRAD
 40
55.0
  9
$AUNITS
 70
     0
  9
$AUPREC
 70
     0
  9
$MENU
  1
.
  9
$ELEVATION
 40
0.0
  9
$PELEVATION
 40
0.0
  9
$THICKNESS
 40
0.0
  9
$LIMCHECK
 70
     0
  9
$BLIPMODE
 70
     0
  9
$CHAMFERA
 40
10.0
  9
$CHAMFERB
 40
10.0
  9
$CHAMFERC
 40
20.0
  9
$CHAMFERD
 40
0.0
  9
$SKPOLY
 70
     0
  9
$TDCREATE
 40
2451074.584006712
  9
$TDUPDATE
 40
2452822.706524699
  9
$TDINDWG
 40
0.0383121065
  9
$TDUSRTIMER
 40
0.0383121065
  9
$USRTIMER
 70
     1
  9
$ANGBASE
 50
0.0
  9
$ANGDIR
 70
     0
  9
$PDMODE
 70
     0
  9
$PDSIZE
 40
0.0
  9
$PLINEWID
 40
0.0
  9
$COORDS
 70
     1
  9
$SPLFRAME
 70
     0
  9
$SPLINETYPE
 70
     6
  9
$SPLINESEGS
 70
     8
  9
$ATTDIA
 70
     0
  9
$ATTREQ
 70
     1
  9
$HANDLING
 70
 10241
  9
$HANDSEED
  5
5DA
  9
$SURFTAB1
 70
     6
  9
$SURFTAB2
 70
     6
  9
$SURFTYPE
 70
     6
  9
$SURFU
 70
     6
  9
$SURFV
 70
     6
  9
$UCSNAME
  2

  9
$UCSORG
 10
0.0
 20
0.0
 30
0.0
  9
$UCSXDIR
 10
1.0
 20
0.0
 30
0.0
  9
$UCSYDIR
 10
0.0
 20
1.0
 30
0.0
  9
$PUCSNAME
  2

  9
$PUCSORG
 10
0.0
 20
0.0
 30
0.0
  9
$PUCSXDIR
 10
1.0
 20
0.0
 30
0.0
  9
$PUCSYDIR
 10
0.0
 20
1.0
 30
0.0
  9
$USERI1
 70
     0
  9
$USERI2
 70
     0
  9
$USERI3
 70
     0
  9
$USERI4
 70
     0
  9
$USERI5
 70
     0
  9
$USERR1
 40
0.0
  9
$USERR2
 40
0.0
  9
$USERR3
 40
0.0
  9
$USERR4
 40
0.0
  9
$USERR5
 40
0.0
  9
$WORLDVIEW
 70
     1
  9
$SHADEDGE
 70
     3
  9
$SHADEDIF
 70
    70
  9
$TILEMODE
 70
     1
  9
$MAXACTVP
 70
    16
  9
$PINSBASE
 10
0.0
 20
0.0
 30
0.0
  9
$PLIMCHECK
 70
     0
  9
$PEXTMIN
 10
0.0
 20
0.0
 30
0.0
  9
$PEXTMAX
 10
420.0
 20
297.0
 30
0.0
  9
$PLIMMIN
 10
0.0
 20
0.0
  9
$PLIMMAX
 10
420.0
 20
297.0
  9
$UNITMODE
 70
     0
  9
$VISRETAIN
 70
     0
  9
$PLINEGEN
 70
     0
  9
$PSLTSCALE
 70
     1
  9
$TREEDEPTH
 70
  3020
  9
$PICKSTYLE
 70
     1
  9
$CMLSTYLE
  2
STANDARD
  9
$CMLJUST
 70
     0
  9
$CMLSCALE
 40
1.0
  9
$SAVEIMAGES
 70
     1
  0
ENDSEC
  0
SECTION
  2
CLASSES
  0
CLASS
  1
ACDBDICTIONARYWDFLT
  2
AcDbDictionaryWithDefault
  3
AutoCAD 2000
 90
    32768
280
     0
281
     0
  0
CLASS
  1
ACDBPLACEHOLDER
  2
AcDbPlaceHolder
  3
AutoCAD 2000
 90
    32768
280
     0
281
     0
  0
CLASS
  1
LAYOUT
  2
AcDbLayout
  3
AutoCAD 2000
 90
    32768
280
     0
281
     0
  0
CLASS
  1
LONG_TRANSACTION
  2
AcDbLongTransaction
  3
AutoCAD 2000
 90
    32768
280
     0
281
     0
  0
CLASS
  1
LWPOLYLINE
  2
AcDbPolyline
  3
AutoCAD 2000
 90
    32768
280
     0
281
     1
  0
CLASS
  1
HATCH
  2
AcDbHatch
  3
AutoCAD 2000
 90
    32768
280
     0
281
     1
  0
CLASS
  1
XRECORD
  2
AcDbXrecord
  3
AutoCAD 2000
 90
    32768
280
     0
281
     0
  0
CLASS
  1
LONG_TRANSACTION
  2
AcDbLongTransaction
  3
AutoCAD 2000
 90
    32768
280
     0
281
     0
  0
CLASS
  1
LWPOLYLINE
  2
AcDbPolyline
  3
AutoCAD 2000
 90
    32768
280
     0
281
     1
  0
CLASS
  1
HATCH
  2
AcDbHatch
  3
AutoCAD 2000
 90
    32768
280
     0
281
     1
  0
CLASS
  1
XRECORD
  2
AcDbXrecord
  3
AutoCAD 2000
 90
    32768
280
     0
281
     0
  0
CLASS
  1
LONG_TRANSACTION
  2
AcDbLongTransaction
  3
AutoCAD 2000
 90
    32768
280
     0
281
     0
  0
CLASS
  1
LWPOLYLINE
  2
AcDbPolyline
  3
AutoCAD 2000
 90
    32768
280
     0
281
     1
  0
CLASS
  1
HATCH
  2
AcDbHatch
  3
AutoCAD 2000
 90
    32768
280
     0
281
     1
  0
CLASS
  1
XRECORD
  2
AcDbXrecord
  3
AutoCAD 2000
 90
    32768
280
     0
281
     0
  0
CLASS
  1
LONG_TRANSACTION
  2
AcDbLongTransaction
  3
AutoCAD 2000
 90
    32768
280
     0
281
     0
  0
CLASS
  1
LWPOLYLINE
  2
AcDbPolyline
  3
AutoCAD 2000
 90
    32768
280
     0
281
     1
  0
CLASS
  1
HATCH
  2
AcDbHatch
  3
AutoCAD 2000
 90
    32768
280
     0
281
     1
  0
CLASS
  1
XRECORD
  2
AcDbXrecord
  3
AutoCAD 2000
 90
    32768
280
     0
281
     0
  0
ENDSEC
  0
SECTION
  2
TABLES
  0
TABLE
  2
VPORT
  5
8
330
0
100
AcDbSymbolTable
 70
     2
  0
VPORT
  5
5D7
330
8
100
AcDbSymbolTableRecord
100
AcDbViewportTableRecord
  2
*ACTIVE
 70
     0
 10
0.0
 20
0.0
 11
1.0
 21
1.0
 12
210.0
 22
148.5
 13
0.0
 23
0.0
 14
5.0
 24
5.0
 15
0.0
 25
0.0
 16
0.0
 26
0.0
 36
1.0
 17
0.0
 27
0.0
 37
0.0
 40
300.343339587242
 41
1.781954887218044
 42
50.0
 43
0.0
 44
0.0
 50
0.0
 51
0.0
 71
     0
 72
   100
 73
     1
 74
     0
 75
     0
 76
     0
 77
     0
 78
     0
  0
ENDTAB
  0
TABLE
  2
LTYPE
  5
5
330
0
100
AcDbSymbolTable
 70
     2
  0
LTYPE
  5
14
330
5
100
AcDbSymbolTableRecord
100
AcDbLinetypeTableRecord
  2
BYBLOCK
 70
     0
  3

 72
    65
 73
     0
 40
0.0
  0
LTYPE
  5
15
330
5
100
AcDbSymbolTableRecord
100
AcDbLinetypeTableRecord
  2
BYLAYER
 70
     0
  3

 72
    65
 73
     0
 40
0.0
  0
LTYPE
  5
16
330
5
100
AcDbSymbolTableRecord
100
AcDbLinetypeTableRecord
  2
CONTINUOUS
 70
     0
  3
Solid line
 72
    65
 73
     0
 40
0.0
  0
LTYPE
  5
120
330
5
100
AcDbSymbolTableRecord
100
AcDbLinetypeTableRecord
  2
CENTER
 70
     0
  3
____ _ ____ _ ____ _ ____ _ ____ _ ____ _ ____ 
 72
    65
 73
     4
 40
2.0
 49
1.25
 74
     0
 49
-0.25
 74
     0
 49
0.25
 74
     0
 49
-0.25
 74
     0
  0
ENDTAB
  0
TABLE
  2
LAYER
  5
2
330
0
100
AcDbSymbolTable
 70
     7
  0
LAYER
  5
F
330
2
100
AcDbSymbolTableRecord
100
AcDbLayerTableRecord
  2
0
 70
     0
 62
     7
  6
CONTINUOUS
  0
LAYER
  5
62
330
2
100
AcDbSymbolTableRecord
100
AcDbLayerTableRecord
  2
VIEWPORT
 70
     0
 62
     7
  6
CONTINUOUS
  0
LAYER
  5
6B
330
2
100
AcDbSymbolTableRecord
100
AcDbLayerTableRecord
  2
ZUWAKU
 70
     0
 62
     7
  6
CONTINUOUS
  0
LAYER
  5
140
330
2
100
AcDbSymbolTableRecord
100
AcDbLayerTableRecord
  2
SEIHIN
 70
     0
 62
     3
  6
CONTINUOUS
  0
LAYER
  5
141
330
2
100
AcDbSymbolTableRecord
100
AcDbLayerTableRecord
  2
SUNPOU
 70
     0
 62
     4
  6
CONTINUOUS
  0
LAYER
  5
142
330
2
100
AcDbSymbolTableRecord
100
AcDbLayerTableRecord
  2
CENTER_L
 70
     0
 62
     1
  6
CENTER
  0
LAYER
  5
143
330
2
100
AcDbSymbolTableRecord
100
AcDbLayerTableRecord
  2
DEFPOINTS
 70
     0
 62
     7
  6
CONTINUOUS
  0
ENDTAB
  0
TABLE
  2
STYLE
  5
3
330
0
100
AcDbSymbolTable
 70
     1
  0
STYLE
  5
10
330
3
100
AcDbSymbolTableRecord
100
AcDbTextStyleTableRecord
  2
STANDARD
 70
     0
 40
0.0
 41
1.0
 50
0.0
 71
     0
 42
2.5
  3
TXT
  4
bigfont.shx
  0
ENDTAB
  0
TABLE
  2
VIEW
  5
6
330
0
100
AcDbSymbolTable
 70
     0
  0
ENDTAB
  0
TABLE
  2
UCS
  5
7
330
0
100
AcDbSymbolTable
 70
     0
  0
ENDTAB
  0
TABLE
  2
APPID
  5
9
330
0
100
AcDbSymbolTable
 70
     1
  0
APPID
  5
11
330
9
100
AcDbSymbolTableRecord
100
AcDbRegAppTableRecord
  2
ACAD
 70
     0
  0
ENDTAB
  0
TABLE
  2
DIMSTYLE
  5
A
330
0
100
AcDbSymbolTable
 70
     1
  0
DIMSTYLE
105
1D
102
{ACAD_REACTORS
330
1B8
330
205
330
239
330
521
330
56B
330
578
102
}
330
A
100
AcDbSymbolTableRecord
100
AcDbDimStyleTableRecord
  2
STANDARD
 70
     0
  3

  4

  5

  6

  7

 40
1.0
 41
0.18
 42
0.0625
 43
0.38
 44
0.18
 45
0.0
 46
0.0
 47
0.0
 48
0.0
140
0.18
141
0.09
142
0.0
143
25.4
144
1.0
145
0.0
146
1.0
147
0.09
 71
     0
 72
     0
 73
     1
 74
     1
 75
     0
 76
     0
 77
     0
 78
     0
170
     0
171
     2
172
     0
173
     0
174
     0
175
     0
176
     0
177
     0
178
     0
270
     2
271
     4
272
     4
273
     2
274
     2
340
10
275
     0
280
     0
281
     0
282
     0
283
     1
284
     0
285
     0
286
     0
287
     3
288
     0
  0
ENDTAB
  0
TABLE
  2
BLOCK_RECORD
  5
1
330
0
100
AcDbSymbolTable
 70
     9
  0
BLOCK_RECORD
  5
1A
102
{ACAD_XDICTIONARY
360
36A
102
}
330
1
100
AcDbSymbolTableRecord
100
AcDbBlockTableRecord
  2
*MODEL_SPACE
  0
BLOCK_RECORD
  5
17
102
{ACAD_XDICTIONARY
360
368
102
}
330
1
100
AcDbSymbolTableRecord
100
AcDbBlockTableRecord
  2
*PAPER_SPACE
  0
BLOCK_RECORD
  5
B2
330
1
100
AcDbSymbolTableRecord
100
AcDbBlockTableRecord
  2
_OPEN
  0
BLOCK_RECORD
  5
1E0
330
1
100
AcDbSymbolTableRecord
100
AcDbBlockTableRecord
  2
*D1
  0
BLOCK_RECORD
  5
1F9
330
1
100
AcDbSymbolTableRecord
100
AcDbBlockTableRecord
  2
*D2
  0
BLOCK_RECORD
  5
22D
330
1
100
AcDbSymbolTableRecord
100
AcDbBlockTableRecord
  2
*D3
  0
BLOCK_RECORD
  5
522
330
1
100
AcDbSymbolTableRecord
100
AcDbBlockTableRecord
  2
*D6
  0
BLOCK_RECORD
  5
56C
330
1
100
AcDbSymbolTableRecord
100
AcDbBlockTableRecord
  2
*D7
  0
BLOCK_RECORD
  5
579
330
1
100
AcDbSymbolTableRecord
100
AcDbBlockTableRecord
  2
*D8
  0
ENDTAB
  0
ENDSEC
  0
SECTION
  2
BLOCKS
  0
BLOCK
  5
1B
330
1A
100
AcDbEntity
  8
0
100
AcDbBlockBegin
  2
*MODEL_SPACE
 70
     0
 10
0.0
 20
0.0
 30
0.0
  3
*MODEL_SPACE
  1

  0
ENDBLK
  5
1C
330
1A
100
AcDbEntity
  8
0
100
AcDbBlockEnd
  0
BLOCK
  5
18
330
17
100
AcDbEntity
 67
     1
  8
0
100
AcDbBlockBegin
  2
*PAPER_SPACE
 70
     0
 10
0.0
 20
0.0
 30
0.0
  3
*PAPER_SPACE
  1

  0
ENDBLK
  5
19
330
17
100
AcDbEntity
 67
     1
  8
0
100
AcDbBlockEnd
  0
BLOCK
  5
B3
330
B2
100
AcDbEntity
  8
0
100
AcDbBlockBegin
  2
_OPEN
 70
     0
 10
0.0
 20
0.0
 30
0.0
  3
_OPEN
  1

  0
LINE
  5
B4
330
B2
100
AcDbEntity
  8
0
  6
BYBLOCK
 62
     0
100
AcDbLine
 10
-1.0
 20
0.1666666666666666
 30
0.0
 11
0.0
 21
0.0
 31
0.0
  0
LINE
  5
B5
330
B2
100
AcDbEntity
  8
0
  6
BYBLOCK
 62
     0
100
AcDbLine
 10
0.0
 20
0.0
 30
0.0
 11
-1.0
 21
-0.1666666666666666
 31
0.0
  0
LINE
  5
B6
330
B2
100
AcDbEntity
  8
0
  6
BYBLOCK
 62
     0
100
AcDbLine
 10
0.0
 20
0.0
 30
0.0
 11
-1.0
 21
0.0
 31
0.0
  0
ENDBLK
  5
B7
330
B2
100
AcDbEntity
  8
0
100
AcDbBlockEnd
  0
BLOCK
  5
26E
330
1E0
100
AcDbEntity
  8
0
100
AcDbBlockBegin
  2
*D1
 70
     1
 10
0.0
 20
0.0
 30
0.0
  3
*D1
  1

  0
LINE
  5
26F
330
1E0
100
AcDbEntity
  8
0
  6
BYBLOCK
 62
     4
100
AcDbLine
 10
79.3028514579569
 20
186.7527844000647
 30
0.0
 11
79.3028514579569
 21
205.6790198557532
 31
0.0
  0
LINE
  5
270
330
1E0
100
AcDbEntity
  8
0
  6
BYBLOCK
 62
     4
100
AcDbLine
 10
142.7024514579567
 20
174.9464344000646
 30
0.0
 11
142.7024514579567
 21
205.6790198557532
 31
0.0
  0
LINE
  5
271
330
1E0
100
AcDbEntity
  8
0
  6
BYBLOCK
 62
     4
100
AcDbLine
 10
82.3028514579569
 20
204.1790198557532
 30
0.0
 11
139.7024514579567
 21
204.1790198557532
 31
0.0
  0
INSERT
  5
272
330
1E0
100
AcDbEntity
  8
0
  6
BYBLOCK
 62
     4
100
AcDbBlockReference
  2
_OPEN
 10
79.3028514579569
 20
204.1790198557532
 30
0.0
 41
3.0
 42
3.0
 43
3.0
 50
180.0
  0
INSERT
  5
273
330
1E0
100
AcDbEntity
  8
0
  6
BYBLOCK
 62
     4
100
AcDbBlockReference
  2
_OPEN
 10
142.7024514579567
 20
204.1790198557532
 30
0.0
 41
3.0
 42
3.0
 43
3.0
  0
MTEXT
  5
274
330
1E0
100
AcDbEntity
  8
0
  6
BYBLOCK
 62
     4
100
AcDbMText
 10
111.0026514579568
 20
206.6790198557532
 30
0.0
 40
3.0
 41
0.0
 71
     5
 72
     1
  1
\A1;φ 63
1001
ACAD
1000
MTEXTBEGIN
1070
    73
1070
     1
1070
    44
1040
1.0
1070
    74
1070
     0
1000
MTEXTEND
1000
MTEXTBEGIN
1070
    73
1070
     1
1070
    44
1040
1.0
1070
    74
1070
     0
1000
MTEXTEND
1000
MTEXTBEGIN
1070
    73
1070
     1
1070
    44
1040
1.0
1070
    74
1070
     0
1000
MTEXTEND
1000
MTEXTBEGIN
1070
    73
1070
     1
1070
    44
1040
1.0
1070
    74
1070
     0
1000
MTEXTEND
  0
POINT
  5
275
330
1E0
100
AcDbEntity
  8
DEFPOINTS
  6
BYBLOCK
 62
     0
100
AcDbPoint
 10
79.3028514579569
 20
183.7527844000647
 30
0.0
  0
POINT
  5
276
330
1E0
100
AcDbEntity
  8
DEFPOINTS
  6
BYBLOCK
 62
     0
100
AcDbPoint
 10
142.7024514579567
 20
171.9464344000646
 30
0.0
  0
POINT
  5
277
330
1E0
100
AcDbEntity
  8
DEFPOINTS
  6
BYBLOCK
 62
     0
100
AcDbPoint
 10
142.7024514579567
 20
204.1790198557532
 30
0.0
  0
ENDBLK
  5
278
330
1E0
100
AcDbEntity
  8
0
100
AcDbBlockEnd
  0
BLOCK
  5
31A
330
1F9
100
AcDbEntity
  8
0
100
AcDbBlockBegin
  2
*D2
 70
     1
 10
0.0
 20
0.0
 30
0.0
  3
*D2
  1

  0
LINE
  5
31B
330
1F9
100
AcDbEntity
  8
0
  6
BYBLOCK
 62
     4
100
AcDbLine
 10
75.73011155459517
 20
196.909335259601
 30
0.0
 11
56.52039225850058
 21
196.909335259601
 31
0.0
  0
LINE
  5
31C
330
1F9
100
AcDbEntity
  8
0
  6
BYBLOCK
 62
     4
100
AcDbLine
 10
75.73003269024178
 20
171.9093352597254
 30
0.0
 11
56.52039225850058
 21
171.9093352597254
 31
0.0
  0
LINE
  5
31D
330
1F9
100
AcDbEntity
  8
0
  6
BYBLOCK
 62
     4
100
AcDbLine
 10
58.02039225850058
 20
193.909335259601
 30
0.0
 11
58.02039225850058
 21
174.9093352597254
 31
0.0
  0
INSERT
  5
31E
330
1F9
100
AcDbEntity
  8
0
  6
BYBLOCK
 62
     4
100
AcDbBlockReference
  2
_OPEN
 10
58.02039225850058
 20
196.909335259601
 30
0.0
 41
3.0
 42
3.0
 43
3.0
 50
90.0
  0
INSERT
  5
31F
330
1F9
100
AcDbEntity
  8
0
  6
BYBLOCK
 62
     4
100
AcDbBlockReference
  2
_OPEN
 10
58.02039225850058
 20
171.9093352597254
 30
0.0
 41
3.0
 42
3.0
 43
3.0
 50
270.0
  0
MTEXT
  5
320
330
1F9
100
AcDbEntity
  8
0
  6
BYBLOCK
 62
     4
100
AcDbMText
 10
55.52039225850058
 20
184.4093352596632
 30
0.0
 40
3.0
 41
0.0
 71
     5
 72
     1
  1
\A1;※25
 11
0.0
 21
1.0
 31
0.0
1001
ACAD
1000
MTEXTBEGIN
1070
    73
1070
     1
1070
    44
1040
1.0
1070
    74
1070
     0
1000
MTEXTEND
1000
MTEXTBEGIN
1070
    73
1070
     1
1070
    44
1040
1.0
1070
    74
1070
     0
1000
MTEXTEND
1000
MTEXTBEGIN
1070
    73
1070
     1
1070
    44
1040
1.0
1070
    74
1070
     0
1000
MTEXTEND
1000
MTEXTBEGIN
1070
    73
1070
     1
1070
    44
1040
1.0
1070
    74
1070
     0
1000
MTEXTEND
  0
POINT
  5
321
330
1F9
100
AcDbEntity
  8
DEFPOINTS
  6
BYBLOCK
 62
     0
100
AcDbPoint
 10
78.73011155459517
 20
196.909335259601
 30
0.0
  0
POINT
  5
322
330
1F9
100
AcDbEntity
  8
DEFPOINTS
  6
BYBLOCK
 62
     0
100
AcDbPoint
 10
78.73003269024178
 20
171.9093352597254
 30
0.0
  0
POINT
  5
323
330
1F9
100
AcDbEntity
  8
DEFPOINTS
  6
BYBLOCK
 62
     0
100
AcDbPoint
 10
58.02039225850058
 20
171.9093352597254
 30
0.0
  0
ENDBLK
  5
324
330
1F9
100
AcDbEntity
  8
0
100
AcDbBlockEnd
  0
BLOCK
  5
2B0
330
22D
100
AcDbEntity
  8
0
100
AcDbBlockBegin
  2
*D3
 70
     1
 10
0.0
 20
0.0
 30
0.0
  3
*D3
  1

  0
LINE
  5
4EB
330
22D
100
AcDbEntity
  8
SUNPOU
 62
     4
100
AcDbLine
 10
187.9532101733535
 20
144.3862972538115
 30
0.0
 11
205.0219110660155
 21
127.3175029470041
 31
0.0
  0
LINE
  5
4EC
330
22D
100
AcDbEntity
  8
SUNPOU
 62
     4
100
AcDbLine
 10
148.1429457050415
 20
104.5762506592264
 30
0.0
 11
165.2116465977035
 21
87.50745635241912
 31
0.0
  0
LINE
  5
4ED
330
22D
100
AcDbEntity
  8
SUNPOU
 62
     4
100
AcDbLine
 10
201.839927648288
 20
126.256851482428
 30
0.0
 11
166.2723154766791
 21
90.68943396534676
 31
0.0
  0
INSERT
  5
4EE
330
22D
100
AcDbEntity
  8
SUNPOU
 62
     4
100
AcDbBlockReference
  2
_OPEN
 10
203.9612537966395
 20
128.3781660211799
 30
0.0
 41
3.0
 42
3.0
 43
3.0
 50
44.99984321531956
  0
INSERT
  5
4EF
330
22D
100
AcDbEntity
  8
SUNPOU
 62
     4
100
AcDbBlockReference
  2
_OPEN
 10
164.1509893283275
 20
88.5681194265949
 30
0.0
 41
3.0
 42
3.0
 43
3.0
 50
224.9998432153196
  0
MTEXT
  5
4F0
330
22D
100
AcDbEntity
  8
SUNPOU
 62
     4
100
AcDbMText
 10
182.288359446857
 20
110.2409145141803
 30
0.0
 40
3.0
 41
0.0
 71
     5
 72
     1
  1
\A1;φ 56
 11
0.7071087161171822
 21
0.7071048462506182
 31
0.0
1001
ACAD
1000
MTEXTBEGIN
1070
    73
1070
     1
1070
    44
1040
1.0
1070
    74
1070
     0
1000
MTEXTEND
1000
MTEXTBEGIN
1070
    73
1070
     1
1070
    44
1040
1.0
1070
    74
1070
     0
1000
MTEXTEND
  0
POINT
  5
4F1
330
22D
100
AcDbEntity
  8
DEFPOINTS
 62
     0
100
AcDbPoint
 10
185.8318956346016
 20
146.507623402163
 30
0.0
  0
POINT
  5
4F2
330
22D
100
AcDbEntity
  8
DEFPOINTS
 62
     0
100
AcDbPoint
 10
146.0216311662896
 20
106.697576807578
 30
0.0
  0
POINT
  5
4F3
330
22D
100
AcDbEntity
  8
DEFPOINTS
 62
     0
100
AcDbPoint
 10
164.1509893283275
 20
88.5681194265949
 30
0.0
  0
ENDBLK
  5
2BA
330
22D
100
AcDbEntity
  8
0
100
AcDbBlockEnd
  0
BLOCK
  5
52C
330
522
100
AcDbEntity
  8
0
100
AcDbBlockBegin
  2
*D6
 70
     1
 10
0.0
 20
0.0
 30
0.0
  3
*D6
  1

  0
LINE
  5
5B8
330
522
100
AcDbEntity
  8
SUNPOU
100
AcDbLine
 10
99.52730442389885
 20
192.6416152266449
 30
0.0
 11
69.99894669370701
 21
192.6416152266449
 31
0.0
  0
LINE
  5
5B9
330
522
100
AcDbEntity
  8
SUNPOU
100
AcDbLine
 10
131.2271468506223
 20
158.3023727857603
 30
0.0
 11
69.998946693707
 21
158.3023727857603
 31
0.0
  0
LINE
  5
5BA
330
522
100
AcDbEntity
  8
SUNPOU
100
AcDbLine
 10
71.49894669370701
 20
189.6416152266449
 30
0.0
 11
71.49894669370701
 21
161.3023727857603
 31
0.0
  0
INSERT
  5
5BB
330
522
100
AcDbEntity
  8
SUNPOU
100
AcDbBlockReference
  2
_OPEN
 10
71.49894669370701
 20
192.6416152266449
 30
0.0
 41
3.0
 42
3.0
 43
3.0
 50
90.0
  0
INSERT
  5
5BC
330
522
100
AcDbEntity
  8
SUNPOU
100
AcDbBlockReference
  2
_OPEN
 10
71.49894669370699
 20
158.3023727857603
 30
0.0
 41
3.0
 42
3.0
 43
3.0
 50
270.0
  0
MTEXT
  5
5BD
330
522
100
AcDbEntity
  8
SUNPOU
100
AcDbMText
 10
68.99894669370699
 20
175.4719940062026
 30
0.0
 40
3.0
 41
0.0
 71
     5
 72
     1
  1
\A1;34
 11
0.0000000000000001
 21
1.0
 31
0.0
1001
ACAD
1000
MTEXTBEGIN
1070
    73
1070
     1
1070
    44
1040
1.0
1070
    74
1070
     0
1000
MTEXTEND
  0
POINT
  5
5BE
330
522
100
AcDbEntity
  8
DEFPOINTS
 62
     0
100
AcDbPoint
 10
102.5273044238988
 20
192.6416152266449
 30
0.0
  0
POINT
  5
5BF
330
522
100
AcDbEntity
  8
DEFPOINTS
 62
     0
100
AcDbPoint
 10
134.2271468506223
 20
158.3023727857603
 30
0.0
  0
POINT
  5
5C0
330
522
100
AcDbEntity
  8
DEFPOINTS
 62
     0
100
AcDbPoint
 10
71.49894669370699
 20
158.3023727857603
 30
0.0
  0
ENDBLK
  5
52D
330
522
100
AcDbEntity
  8
0
100
AcDbBlockEnd
  0
BLOCK
  5
576
330
56C
100
AcDbEntity
  8
0
100
AcDbBlockBegin
  2
*D7
 70
     1
 10
0.0
 20
0.0
 30
0.0
  3
*D7
  1

  0
LINE
  5
5C1
330
56C
100
AcDbEntity
  8
SUNPOU
100
AcDbLine
 10
142.8199359685004
 20
103.4959885794378
 30
0.0
 11
122.6268640354388
 21
83.30301456938402
 31
0.0
  0
LINE
  5
5C2
330
56C
100
AcDbEntity
  8
SUNPOU
100
AcDbLine
 10
111.1203393452595
 20
135.1957389254461
 30
0.0
 11
90.92726741219793
 21
115.0027649153923
 31
0.0
  0
LINE
  5
5C3
330
56C
100
AcDbEntity
  8
SUNPOU
100
AcDbLine
 10
121.5662115789285
 20
86.48499765646958
 30
0.0
 11
94.10924535577258
 21
113.9420970283492
 31
0.0
  0
INSERT
  5
5C4
330
56C
100
AcDbEntity
  8
SUNPOU
100
AcDbBlockReference
  2
_OPEN
 10
123.687526778971
 20
84.36367216940526
 30
0.0
 41
3.0
 42
3.0
 43
3.0
 50
314.9998610763957
  0
INSERT
  5
5C5
330
56C
100
AcDbEntity
  8
SUNPOU
100
AcDbBlockReference
  2
_OPEN
 10
91.98793015573009
 20
116.0634225154135
 30
0.0
 41
3.0
 42
3.0
 43
3.0
 50
134.9998610763957
  0
MTEXT
  5
5C6
330
56C
100
AcDbEntity
  8
SUNPOU
100
AcDbMText
 10
109.6054997065708
 20
101.9813100091114
 30
0.0
 40
3.0
 41
0.0
 71
     5
 72
     1
  1
\A1;45
 11
0.7071050666808271
 21
-0.7071084956881109
 31
0.0
1001
ACAD
1000
MTEXTBEGIN
1070
    73
1070
     1
1070
    44
1040
1.0
1070
    74
1070
     0
1000
MTEXTEND
  0
POINT
  5
5C7
330
56C
100
AcDbEntity
  8
DEFPOINTS
 62
     0
100
AcDbPoint
 10
144.9412614555647
 20
105.6173037794802
 30
0.0
  0
POINT
  5
5C8
330
56C
100
AcDbEntity
  8
DEFPOINTS
 62
     0
100
AcDbPoint
 10
113.2416648323238
 20
137.3170541254886
 30
0.0
  0
POINT
  5
5C9
330
56C
100
AcDbEntity
  8
DEFPOINTS
 62
     0
100
AcDbPoint
 10
91.98793015573009
 20
116.0634225154135
 30
0.0
  0
ENDBLK
  5
577
330
56C
100
AcDbEntity
  8
0
100
AcDbBlockEnd
  0
BLOCK
  5
583
330
579
100
AcDbEntity
  8
0
100
AcDbBlockBegin
  2
*D8
 70
     1
 10
0.0
 20
0.0
 30
0.0
  3
*D8
  1

  0
LINE
  5
5CA
330
579
100
AcDbEntity
  8
SUNPOU
100
AcDbLine
 10
121.6068317695317
 20
124.7091956483932
 30
0.0
 11
106.6376875532477
 21
109.7401240225318
 31
0.0
  0
LINE
  5
5CB
330
579
100
AcDbEntity
  8
SUNPOU
100
AcDbLine
 10
111.1203701414373
 20
135.1957081291189
 30
0.0
 11
96.15122592515337
 21
120.2266365032576
 31
0.0
  0
LINE
  5
5CC
330
579
100
AcDbEntity
  8
SUNPOU
100
AcDbLine
 10
105.5770350967374
 20
112.9221071096174
 30
0.0
 11
99.333203868728
 21
119.1659686162145
 31
0.0
  0
INSERT
  5
5CD
330
579
100
AcDbEntity
  8
SUNPOU
100
AcDbBlockReference
  2
_OPEN
 10
107.6983502967798
 20
110.8007816225531
 30
0.0
 41
3.0
 42
3.0
 43
3.0
 50
314.9998610763958
  0
INSERT
  5
5CE
330
579
100
AcDbEntity
  8
SUNPOU
100
AcDbBlockReference
  2
_OPEN
 10
97.21188866868553
 20
121.2872941032788
 30
0.0
 41
3.0
 42
3.0
 43
3.0
 50
134.9998610763957
  0
MTEXT
  5
5CF
330
579
100
AcDbEntity
  8
SUNPOU
100
AcDbMText
 10
104.2228907219529
 20
117.811800529618
 30
0.0
 40
3.0
 41
0.0
 71
     5
 72
     1
  1
\A1;15
 11
0.7071050666808278
 21
-0.7071084956881102
 31
0.0
1001
ACAD
1000
MTEXTBEGIN
1070
    73
1070
     1
1070
    44
1040
1.0
1070
    74
1070
     0
1000
MTEXTEND
  0
POINT
  5
5D0
330
579
100
AcDbEntity
  8
DEFPOINTS
 62
     0
100
AcDbPoint
 10
123.728157256596
 20
126.8305108484357
 30
0.0
  0
POINT
  5
5D1
330
579
100
AcDbEntity
  8
DEFPOINTS
 62
     0
100
AcDbPoint
 10
113.2416956285016
 20
137.3170233291614
 30
0.0
  0
POINT
  5
5D2
330
579
100
AcDbEntity
  8
DEFPOINTS
 62
     0
100
AcDbPoint
 10
97.21188866868553
 20
121.2872941032788
 30
0.0
  0
ENDBLK
  5
584
330
579
100
AcDbEntity
  8
0
100
AcDbBlockEnd
  0
ENDSEC
  0
SECTION
  2
ENTITIES
  0
LINE
  5
6C
330
1A
100
AcDbEntity
  8
ZUWAKU
  6
CONTINUOUS
 62
     7
100
AcDbLine
 10
403.0
 20
7.0
 30
0.0
 11
5.0
 21
7.0
 31
0.0
  0
LINE
  5
6D
330
1A
100
AcDbEntity
  8
ZUWAKU
  6
CONTINUOUS
 62
     7
100
AcDbLine
 10
5.0
 20
282.0
 30
0.0
 11
5.0
 21
7.0
 31
0.0
  0
LINE
  5
6E
330
1A
100
AcDbEntity
  8
ZUWAKU
  6
CONTINUOUS
 62
     7
100
AcDbLine
 10
403.0
 20
282.0
 30
0.0
 11
403.0
 21
7.0
 31
0.0
  0
LINE
  5
6F
330
1A
100
AcDbEntity
  8
ZUWAKU
  6
CONTINUOUS
 62
     7
100
AcDbLine
 10
403.0
 20
282.0
 30
0.0
 11
5.0
 21
282.0
 31
0.0
  0
LINE
  5
8E
330
1A
100
AcDbEntity
  8
ZUWAKU
 62
     7
 48
10.0
100
AcDbLine
 10
5.0
 20
13.0
 30
0.0
 11
403.0
 21
12.99999999999994
 31
0.0
  0
TEXT
  5
93
330
1A
100
AcDbEntity
  8
ZUWAKU
 62
     7
100
AcDbText
 10
8.003143713074223
 20
7.870178177610682
 30
0.0
 40
4.0
  1
品 種
100
AcDbText
  0
TEXT
  5
97
330
1A
100
AcDbEntity
  8
ZUWAKU
 62
     7
100
AcDbText
 10
107.7028028167073
 20
8.200497435100942
 30
0.0
 40
4.0
  1
品名・ｻ ｲ ｽﾞ
100
AcDbText
  0
LINE
  5
9A
330
1A
100
AcDbEntity
  8
ZUWAKU
 62
     7
 48
10.0
100
AcDbLine
 10
324.3551403257206
 20
6.999999999999836
 30
0.0
 11
324.3551403257206
 21
12.99999999999995
 31
0.0
  0
LINE
  5
9B
330
1A
100
AcDbEntity
  8
ZUWAKU
 62
     7
 48
10.0
100
AcDbLine
 10
307.142312366876
 20
6.999999999999836
 30
0.0
 11
307.142312366876
 21
12.99999999999995
 31
0.0
  0
TEXT
  5
9C
330
1A
100
AcDbEntity
  8
ZUWAKU
 62
     7
100
AcDbText
 10
310.1429253763237
 20
7.934661405801826
 30
0.0
 40
4.0
  1
品 番
100
AcDbText
  0
TEXT
  5
9E
330
1A
100
AcDbEntity
  8
ZUWAKU
 62
     7
 48
10.0
100
AcDbText
 10
322.9513761015196
 20
2.449000558492457
 30
0.0
 40
4.0
  1
積水化学工業株式会社  建材
100
AcDbText
  0
TEXT
  5
A1
330
1A
100
AcDbEntity
  8
ZUWAKU
 62
     7
100
AcDbText
 10
389.843492473331
 20
7.886151458996323
 30
0.0
 40
4.0
  1
1/1
100
AcDbText
  0
TEXT
  5
A2
330
1A
100
AcDbEntity
  8
ZUWAKU
 62
     7
100
AcDbText
 10
369.8225424558458
 20
7.729845637642938
 30
0.0
 40
4.0
  1
尺 度
100
AcDbText
  0
LINE
  5
A3
330
1A
100
AcDbEntity
  8
ZUWAKU
 62
     7
 48
10.0
100
AcDbLine
 10
366.8807110760169
 20
6.999999999999886
 30
0.0
 11
366.8807110760169
 21
12.99999999999994
 31
0.0
  0
TEXT
  5
A6
330
1A
100
AcDbEntity
  8
ZUWAKU
 62
     7
 48
10.0
100
AcDbText
 10
396.1622424237184
 20
2.480970960763784
 30
0.0
 40
4.0
  1
A3
100
AcDbText
  0
LINE
  5
F5
330
1A
100
AcDbEntity
  8
ZUWAKU
 62
     7
 48
10.0
100
AcDbLine
 10
22.25374857290876
 20
7.0
 30
0.0
 11
22.25374857290876
 21
13.0
 31
0.0
  0
LINE
  5
F6
330
1A
100
AcDbEntity
  8
ZUWAKU
 62
     7
 48
10.0
100
AcDbLine
 10
104.7316872784438
 20
7.0
 30
0.0
 11
104.7316872784438
 21
12.99999999999998
 31
0.0
  0
LINE
  5
F8
330
1A
100
AcDbEntity
  8
ZUWAKU
 62
     7
 48
10.0
100
AcDbLine
 10
138.0261803105822
 20
7.0
 30
0.0
 11
138.0261803105822
 21
12.99999999999998
 31
0.0
  0
LINE
  5
100
330
1A
100
AcDbEntity
  8
ZUWAKU
 62
     7
 48
10.0
100
AcDbLine
 10
384.3363149538092
 20
6.999999999999862
 30
0.0
 11
384.3363149538092
 21
12.99999999999994
 31
0.0
  0
LINE
  5
195
330
1A
100
AcDbEntity
  8
SEIHIN
  6
CONTINUOUS
 62
     3
 48
5.0
100
AcDbLine
 10
182.6499342929837
 20
149.689605298788
 30
0.0
 11
164.793337758221
 21
127.7360521058604
 31
0.0
  0
LINE
  5
196
330
1A
100
AcDbEntity
  8
SEIHIN
  6
CONTINUOUS
 62
     3
 48
5.0
100
AcDbLine
 10
181.2356903290575
 20
151.1037885862364
 30
0.0
 11
159.2820646573343
 21
133.2473858153575
 31
0.0
  0
LINE
  5
197
330
1A
100
AcDbEntity
  8
SEIHIN
  6
CONTINUOUS
 62
     3
 48
5.0
100
AcDbLine
 10
181.2356903290575
 20
151.1037885862364
 30
0.0
 11
161.3305339104254
 21
131.1988317352463
 31
0.0
  0
LINE
  5
198
330
1A
100
AcDbEntity
  8
SEIHIN
  6
CONTINUOUS
 62
     3
 48
5.0
100
AcDbLine
 10
182.6499342929837
 20
149.689605298788
 30
0.0
 11
162.744735612525
 21
129.7845578170191
 31
0.0
  0
LINE
  5
199
330
1A
100
AcDbEntity
  8
SEIHIN
  6
CONTINUOUS
 62
     3
 48
5.0
100
AcDbLine
 10
165.926829846748
 20
126.6026242893468
 30
0.0
 11
185.8318956346017
 21
146.5076234021631
 31
0.0
  0
LINE
  5
19B
330
1A
100
AcDbEntity
  8
SEIHIN
  6
CONTINUOUS
 62
     3
 48
5.0
100
AcDbLine
 10
165.9269044238987
 20
169.0290152266447
 30
0.0
 11
123.5003482786715
 21
126.6027411283235
 31
0.0
  0
LINE
  5
19C
330
1A
100
AcDbEntity
  8
CENTER_L
  6
CENTER
 62
     1
 48
5.0
100
AcDbLine
 10
134.2272044238987
 20
195.6411806857429
 30
0.0
 11
134.2271232491008
 21
152.9120815305346
 31
0.0
  0
LINE
  5
19E
330
1A
100
AcDbEntity
  8
SEIHIN
  6
CONTINUOUS
 62
     3
 48
5.0
100
AcDbLine
 10
147.89556656199
 20
144.6338509654698
 30
0.0
 11
165.7521630967525
 21
166.5874041583975
 31
0.0
  0
LINE
  5
19F
330
1A
100
AcDbEntity
  8
SEIHIN
  6
CONTINUOUS
 62
     3
 48
5.0
100
AcDbLine
 10
149.3097682640897
 20
143.2195770472426
 30
0.0
 11
169.9219679574939
 21
163.8317887728008
 31
0.0
  0
LINE
  5
1A0
330
1A
100
AcDbEntity
  8
SEIHIN
  6
CONTINUOUS
 62
     3
 48
5.0
100
AcDbLine
 10
147.89556656199
 20
144.6338509654698
 30
0.0
 11
168.5077239935678
 21
165.2459720602492
 31
0.0
  0
LINE
  5
1A1
330
1A
100
AcDbEntity
  8
SEIHIN
  6
CONTINUOUS
 62
     3
 48
5.0
100
AcDbLine
 10
149.3097682640897
 20
143.2195770472426
 30
0.0
 11
171.2634361976394
 21
161.0760704489002
 31
0.0
  0
TEXT
  5
1A3
330
1A
100
AcDbEntity
  8
ZUWAKU
 62
     7
100
AcDbText
 10
25.15073007242387
 20
8.160237806787449
 30
0.0
 40
4.0
  1
丸トップ　たてとい
100
AcDbText
  0
TEXT
  5
1A5
330
1A
100
AcDbEntity
  8
ZUWAKU
 62
     7
100
AcDbText
 10
141.1313324528735
 20
7.9299153608506
 30
0.0
 40
4.0
  1
エルボ　ＵＴ６０－４５°
100
AcDbText
  0
LINE
  5
1A9
330
1A
100
AcDbEntity
  8
SEIHIN
  6
CONTINUOUS
 62
     3
 48
5.0
100
AcDbLine
 10
149.309810525916
 20
143.2196676780214
 30
0.0
 11
131.4532139911534
 21
121.2661144850937
 31
0.0
  0
LINE
  5
1AA
330
1A
100
AcDbEntity
  8
SEIHIN
  6
CONTINUOUS
 62
     3
 48
5.0
100
AcDbLine
 10
147.89556656199
 20
144.6338509654698
 30
0.0
 11
125.9419408902667
 21
126.777448194591
 31
0.0
  0
LINE
  5
1AB
330
1A
100
AcDbEntity
  8
SEIHIN
  6
CONTINUOUS
 62
     3
 48
5.0
100
AcDbLine
 10
147.89556656199
 20
144.6338509654698
 30
0.0
 11
127.2833184996333
 21
124.0217721325169
 31
0.0
  0
LINE
  5
1AC
330
1A
100
AcDbEntity
  8
SEIHIN
  6
CONTINUOUS
 62
     3
 48
5.0
100
AcDbLine
 10
149.309810525916
 20
143.2196676780214
 30
0.0
 11
128.6975624635595
 21
122.6075888450682
 31
0.0
  0
LINE
  5
1AD
330
1A
100
AcDbEntity
  8
SEIHIN
  6
CONTINUOUS
 62
     3
 48
5.0
100
AcDbLine
 10
146.0216311662897
 20
106.697576807578
 30
0.0
 11
131.5259777913466
 21
121.1933452650798
 31
0.0
  0
LINE
  5
1AE
330
1A
100
AcDbEntity
  8
SEIHIN
  6
CONTINUOUS
 62
     3
 48
5.0
100
AcDbLine
 10
118.6361375269949
 20
133.0026646948303
 30
0.0
 11
124.2681640202379
 21
127.3705995164766
 31
0.0
  0
LINE
  5
1AF
330
1A
100
AcDbEntity
  8
SEIHIN
  6
CONTINUOUS
 62
     3
 48
5.0
100
AcDbLine
 10
128.6976530943381
 20
122.6075465832421
 30
0.0
 11
127.2834091304121
 21
124.0217298706907
 31
0.0
  0
LINE
  5
1B0
330
1A
100
AcDbEntity
  8
SEIHIN
  6
CONTINUOUS
 62
     3
 48
5.0
100
AcDbLine
 10
125.8691770900736
 20
126.8502174146052
 30
0.0
 11
124.8085394325184
 21
127.9108337492784
 31
0.0
  0
LINE
  5
1B1
330
1A
100
AcDbEntity
  8
SEIHIN
  6
CONTINUOUS
 62
     3
 48
5.0
100
AcDbLine
 10
125.8691770900736
 20
126.8502174146052
 30
0.0
 11
127.2833184996333
 21
124.0217721325169
 31
0.0
  0
LINE
  5
1B2
330
1A
100
AcDbEntity
  8
SEIHIN
  6
CONTINUOUS
 62
     3
 48
5.0
100
AcDbLine
 10
128.6975624635595
 20
122.6075888450682
 30
0.0
 11
131.5259777913466
 21
121.1933452650798
 31
0.0
  0
LINE
  5
1B3
330
1A
100
AcDbEntity
  8
SEIHIN
  6
CONTINUOUS
 62
     3
 48
5.0
100
AcDbLine
 10
165.9266969541433
 20
126.6025759203941
 30
0.0
 11
146.0216311662897
 21
106.697576807578
 31
0.0
  0
LINE
  5
1B4
330
1A
100
AcDbEntity
  8
SEIHIN
  6
CONTINUOUS
 62
     3
 48
5.0
100
AcDbLine
 10
142.8396698246715
 20
109.8795587042029
 30
0.0
 11
164.793337758221
 21
127.7360521058604
 31
0.0
  0
LINE
  5
1B5
330
1A
100
AcDbEntity
  8
SEIHIN
  6
CONTINUOUS
 62
     3
 48
5.0
100
AcDbLine
 10
142.8396698246715
 20
109.8795587042029
 30
0.0
 11
162.7447778743513
 21
129.7846484477979
 31
0.0
  0
LINE
  5
1B6
330
1A
100
AcDbEntity
  8
SEIHIN
  6
CONTINUOUS
 62
     3
 48
5.0
100
AcDbLine
 10
141.4254681225718
 20
111.2938326224301
 30
0.0
 11
161.3305339104254
 21
131.1988317352463
 31
0.0
  0
LINE
  5
1B7
330
1A
100
AcDbEntity
  8
SEIHIN
  6
CONTINUOUS
 62
     3
 48
5.0
100
AcDbLine
 10
141.4254681225718
 20
111.2938326224301
 30
0.0
 11
159.2819740265556
 21
133.2474280771837
 31
0.0
  0
DIMENSION
  5
1B8
330
1A
100
AcDbEntity
  8
SUNPOU
100
AcDbDimension
  2
*D1
 10
165.9269044238987
 20
213.0678506823334
 30
0.0
 11
134.2271044238988
 21
215.5678506823333
 31
0.0
 12
23.22445296594196
 22
8.888830826580147
 32
0.0
 70
    32
  1
φ <>
  3
STANDARD
100
AcDbAlignedDimension
 13
102.5273044238988
 23
192.6416152266449
 33
0.0
 14
165.9269044238987
 24
180.8352652266448
 34
0.0
100
AcDbRotatedDimension
1001
ACAD
1000
DSTYLE
1002
{
1070
   140
1040
3.0
1070
    74
1070
     0
1070
   172
1070
     1
1070
    73
1070
     0
1070
   272
1070
     2
1070
    77
1070
     3
1070
   173
1070
     1
1070
   147
1040
1.0
1070
    42
1040
3.0
1070
    44
1040
1.5
1070
    43
1040
7.0
1070
   271
1070
     0
1070
   178
1070
     4
1070
   177
1070
     4
1070
   176
1070
     4
1070
   141
1040
150.0
1070
     7
1000
_OPEN
1070
     6
1000
_OPEN
1070
    41
1040
3.0
1002
}
  0
LINE
  5
1B9
330
1A
100
AcDbEntity
  8
SEIHIN
  6
CONTINUOUS
 62
     3
 48
5.0
100
AcDbLine
 10
134.2271044238988
 20
192.6415152266448
 30
0.0
 11
165.9270044238988
 21
192.6415152266448
 31
0.0
  0
LINE
  5
1BA
330
1A
100
AcDbEntity
  8
SEIHIN
  6
CONTINUOUS
 62
     3
 48
5.0
100
AcDbLine
 10
134.2271044238988
 20
192.6415152266448
 30
0.0
 11
102.5271044238988
 21
192.6416152266449
 31
0.0
  0
LINE
  5
1BB
330
1A
100
AcDbEntity
  8
SEIHIN
  6
CONTINUOUS
 62
     3
 48
5.0
100
AcDbLine
 10
102.5271440594964
 20
171.8938292016626
 30
0.0
 11
102.5273044238988
 21
192.6416152266449
 31
0.0
  0
LINE
  5
1BC
330
1A
100
AcDbEntity
  8
SEIHIN
  6
CONTINUOUS
 62
     3
 48
5.0
100
AcDbLine
 10
100.8272044238988
 20
187.6416152266449
 30
0.0
 11
102.5273044238988
 21
187.6416152266449
 31
0.0
  0
LINE
  5
1BD
330
1A
100
AcDbEntity
  8
SEIHIN
  6
CONTINUOUS
 62
     3
 48
5.0
100
AcDbLine
 10
102.5273044238988
 20
192.6416152266449
 30
0.0
 11
100.8272044238988
 21
187.6416152266449
 31
0.0
  0
LINE
  5
1BE
330
1A
100
AcDbEntity
  8
SEIHIN
  6
CONTINUOUS
 62
     3
 48
5.0
100
AcDbLine
 10
185.8318956346017
 20
146.5076234021631
 30
0.0
 11
171.3361999978327
 21
161.0033012288862
 31
0.0
  0
LINE
  5
1BF
330
1A
100
AcDbEntity
  8
SEIHIN
  6
CONTINUOUS
 62
     3
 48
5.0
100
AcDbLine
 10
165.9269044238987
 20
169.0290152266447
 30
0.0
 11
165.9269044238987
 21
192.6415152266448
 31
0.0
  0
LINE
  5
1C0
330
1A
100
AcDbEntity
  8
SEIHIN
  6
CONTINUOUS
 62
     3
 48
5.0
100
AcDbLine
 10
165.6794054377864
 20
166.6601567290315
 30
0.0
 11
168.5077301347947
 21
165.2459554108691
 31
0.0
  0
LINE
  5
1C1
330
1A
100
AcDbEntity
  8
SEIHIN
  6
CONTINUOUS
 62
     3
 48
5.0
100
AcDbLine
 10
165.6794054377864
 20
166.6601567290315
 30
0.0
 11
164.6186771494524
 21
167.720815325531
 31
0.0
  0
LINE
  5
1C3
330
1A
100
AcDbEntity
  8
SEIHIN
  6
CONTINUOUS
 62
     3
 48
5.0
100
AcDbLine
 10
169.9219679574939
 20
163.8317887728008
 30
0.0
 11
171.3361999978327
 21
161.0033012288862
 31
0.0
  0
LINE
  5
1C4
330
1A
100
AcDbEntity
  8
SEIHIN
  6
CONTINUOUS
 62
     3
 48
5.0
100
AcDbLine
 10
169.9220585882728
 20
163.8317465109745
 30
0.0
 11
168.5078146243465
 21
165.245929798423
 31
0.0
  0
LINE
  5
1C5
330
1A
100
AcDbEntity
  8
SEIHIN
  6
CONTINUOUS
 62
     3
 48
5.0
100
AcDbLine
 10
165.9270044238988
 20
192.6415152266448
 30
0.0
 11
167.6270044238988
 21
187.6415152266448
 31
0.0
  0
LINE
  5
1C6
330
1A
100
AcDbEntity
  8
SEIHIN
  6
CONTINUOUS
 62
     3
 48
5.0
100
AcDbLine
 10
167.6270044238988
 20
187.6415152266448
 30
0.0
 11
165.9269044238987
 21
187.6415152266448
 31
0.0
  0
LINE
  5
1C8
330
1A
100
AcDbEntity
  8
CENTER_L
  6
CENTER
 62
     1
 48
5.0
100
AcDbLine
 10
268.6270405143242
 20
201.6299152266448
 30
0.0
 11
268.6269405143243
 21
95.12901522664494
 31
0.0
  0
LINE
  5
1C9
330
1A
100
AcDbEntity
  8
SEIHIN
  6
CONTINUOUS
 62
     3
 48
5.0
100
AcDbLine
 10
236.9270405143245
 20
170.5632152266448
 30
0.0
 11
238.6269405143243
 21
148.6415152266448
 31
0.0
  0
LINE
  5
1CA
330
1A
100
AcDbEntity
  8
SEIHIN
  6
CONTINUOUS
 62
     3
 48
5.0
100
AcDbLine
 10
300.3270405143244
 20
170.5632152266448
 30
0.0
 11
298.6269405143243
 21
148.6415152266448
 31
0.0
  0
TEXT
  5
1D4
330
1A
100
AcDbEntity
  8
ZUWAKU
 62
     7
100
AcDbText
 10
327.1013476411085
 20
8.060146781246267
 30
0.0
 40
4.0
  1
GR12
100
AcDbText
  0
LINE
  5
1D8
330
1A
100
AcDbEntity
  8
SEIHIN
  6
CONTINUOUS
 62
     3
 48
5.0
100
AcDbLine
 10
268.6269405143243
 20
192.6416152266449
 30
0.0
 11
300.3270405143244
 21
192.6415152266448
 31
0.0
  0
LINE
  5
1D9
330
1A
100
AcDbEntity
  8
SEIHIN
  6
CONTINUOUS
 62
     3
 48
5.0
100
AcDbLine
 10
268.6271405143244
 20
192.6416152266449
 30
0.0
 11
236.9270405143245
 21
192.6416152266449
 31
0.0
  0
LINE
  5
1DA
330
1A
100
AcDbEntity
  8
SEIHIN
  6
CONTINUOUS
 62
     3
 48
5.0
100
AcDbLine
 10
236.9270405143245
 20
192.6416152266449
 30
0.0
 11
236.9271405143242
 21
170.5633152266448
 31
0.0
  0
LINE
  5
1DB
330
1A
100
AcDbEntity
  8
SEIHIN
  6
CONTINUOUS
 62
     3
 48
5.0
100
AcDbLine
 10
268.6271405143244
 20
187.6415152266448
 30
0.0
 11
266.1271405143243
 21
187.6415152266448
 31
0.0
  0
LINE
  5
1DC
330
1A
100
AcDbEntity
  8
SEIHIN
  6
CONTINUOUS
 62
     3
 48
5.0
100
AcDbLine
 10
267.6271405143244
 20
192.6416152266449
 30
0.0
 11
266.1271405143243
 21
187.6415152266448
 31
0.0
  0
LINE
  5
1DD
330
1A
100
AcDbEntity
  8
SEIHIN
  6
CONTINUOUS
 62
     3
 48
5.0
100
AcDbLine
 10
269.6270405143244
 20
192.6415152266448
 30
0.0
 11
271.1270405143244
 21
187.6415152266448
 31
0.0
  0
LINE
  5
1DE
330
1A
100
AcDbEntity
  8
SEIHIN
  6
CONTINUOUS
 62
     3
 48
5.0
100
AcDbLine
 10
268.6270405143242
 20
187.6415152266448
 30
0.0
 11
271.1270405143244
 21
187.6415152266448
 31
0.0
  0
LINE
  5
1DF
330
1A
100
AcDbEntity
  8
SEIHIN
  6
CONTINUOUS
 62
     3
 48
5.0
100
AcDbLine
 10
300.3270405143244
 20
192.6415152266448
 30
0.0
 11
300.3269405143242
 21
170.5629152266448
 31
0.0
  0
DIMENSION
  5
205
330
1A
100
AcDbEntity
  8
SUNPOU
100
AcDbDimension
  2
*D2
 10
81.8173851278043
 20
167.6416152267693
 30
0.0
 11
79.3173851278043
 21
180.1416152267071
 31
0.0
 12
23.79699286930372
 22
-4.267720032956162
 32
0.0
 70
    32
  1
※<>
  3
STANDARD
100
AcDbAlignedDimension
 13
102.5271044238988
 23
192.6416152266449
 33
0.0
 14
102.5270255595455
 24
167.6416152267693
 34
0.0
 50
90.0
100
AcDbRotatedDimension
1001
ACAD
1000
DSTYLE
1002
{
1070
   140
1040
3.0
1070
    74
1070
     0
1070
   172
1070
     1
1070
    73
1070
     0
1070
   272
1070
     2
1070
    77
1070
     3
1070
   173
1070
     1
1070
   147
1040
1.0
1070
    42
1040
3.0
1070
    44
1040
1.5
1070
    43
1040
7.0
1070
   271
1070
     0
1070
   178
1070
     4
1070
   177
1070
     4
1070
   176
1070
     4
1070
   141
1040
150.0
1070
     7
1000
_OPEN
1070
     6
1000
_OPEN
1070
    41
1040
3.0
1002
}
  0
DIMENSION
  5
239
330
1A
100
AcDbEntity
  8
SUNPOU
100
AcDbDimension
  2
*D3
 10
164.1509893283275
 20
88.5681194265949
 30
0.0
 11
182.288359446857
 21
110.2409145141803
 31
0.0
 70
    33
  1
φ <>
  3
STANDARD
100
AcDbAlignedDimension
 13
185.8318956346017
 23
146.5076234021631
 33
0.0
 14
146.0216311662896
 24
106.697576807578
 34
0.0
1001
ACAD
1000
DSTYLE
1002
{
1070
   140
1040
3.0
1070
    74
1070
     0
1070
   172
1070
     1
1070
    73
1070
     0
1070
   272
1070
     2
1070
    77
1070
     3
1070
   173
1070
     1
1070
   147
1040
1.0
1070
    42
1040
3.0
1070
    44
1040
1.5
1070
    43
1040
7.0
1070
   271
1070
     0
1070
   178
1070
     4
1070
   177
1070
     4
1070
   176
1070
     4
1070
   141
1040
150.0
1070
     7
1000
_OPEN
1070
     6
1000
_OPEN
1070
    41
1040
3.0
1002
}
  0
LINE
  5
254
330
1A
100
AcDbEntity
  8
CENTER_L
  6
CENTER
 62
     1
 48
5.0
100
AcDbLine
 10
229.9273182363689
 20
126.6025759203941
 30
0.0
 11
307.3267554505505
 21
126.6025759203942
 31
0.0
  0
TEXT
  5
257
330
1A
100
AcDbEntity
  8
SUNPOU
 62
     4
100
AcDbText
 10
281.6073699975513
 20
25.13506166364397
 30
0.0
 40
4.0
  1
※　たてといの差込み寸法を示す。
100
AcDbText
  0
LINE
  5
4EA
330
1A
100
AcDbEntity
  8
SEIHIN
100
AcDbLine
 10
134.2271468506223
 20
158.3023727857603
 30
0.0
 11
165.9269044238987
 21
169.0290152266447
 31
0.0
  0
ARC
  5
506
330
1A
100
AcDbEntity
  8
SEIHIN
  6
CONTINUOUS
 62
     3
 48
5.0
100
AcDbCircle
 10
157.5271440578535
 20
171.8934040940332
 30
0.0
 40
55.0
100
AcDbArc
 50
179.9995571477635
 51
224.9998032248278
  0
DIMENSION
  5
521
330
1A
100
AcDbEntity
  8
SUNPOU
100
AcDbDimension
  2
*D6
 10
71.49894669370699
 20
158.3023727857603
 30
0.0
 11
68.99894669370699
 21
175.4719940062026
 31
0.0
 70
    32
  3
STANDARD
100
AcDbAlignedDimension
 13
102.5273044238988
 23
192.6416152266449
 33
0.0
 14
134.2271468506223
 24
158.3023727857603
 34
0.0
 50
90.0
100
AcDbRotatedDimension
1001
ACAD
1000
DSTYLE
1002
{
1070
    41
1040
3.0
1070
    42
1040
3.0
1070
    43
1040
7.0
1070
    44
1040
1.5
1070
    73
1070
     0
1070
    74
1070
     0
1070
    77
1070
     3
1070
   140
1040
3.0
1070
   141
1040
150.0
1070
   147
1040
1.0
1070
   172
1070
     1
1070
   173
1070
     1
1070
   176
1070
   256
1070
   177
1070
   256
1070
   178
1070
   256
1070
   271
1070
     0
1070
   272
1070
     0
1070
   341
1005
B2
1070
     6
1000
OPEN
1070
     7
1000
OPEN
1070
   371
1070
    -1
1070
   372
1070
    -1
1002
}
  0
ELLIPSE
  5
53B
330
1A
100
AcDbEntity
  8
SEIHIN
100
AcDbEllipse
 10
268.6269700667544
 20
126.6026193052839
 30
0.0
 11
-26.08699470930186
 21
0.0000244946236836
 31
0.0
210
0.0
220
0.0
230
1.0
 40
0.714233713636448
 41
0.0
 42
6.283185307179586
  0
ELLIPSE
  5
53C
330
1A
100
AcDbEntity
  8
SEIHIN
100
AcDbEllipse
 10
268.6269700666898
 20
126.6025505189594
 30
0.0
 11
-27.88704910633596
 21
0.0000261848013307
 31
0.0
210
0.0
220
0.0
230
0.9999999999999998
 40
0.7137730649934007
 41
3.198569875277826
 42
6.226210716465587
  0
ELLIPSE
  5
545
330
1A
100
AcDbEntity
  8
SEIHIN
100
AcDbEllipse
 10
268.6268883635348
 20
147.8158781774841
 30
0.0
 11
-29.999904989441
 21
0.0
 31
0.0
210
0.0
220
0.0
230
1.0
 40
0.707108216469397
 41
2.764049600971102
 42
6.660740945632114
  0
ELLIPSE
  5
54D
330
1A
100
AcDbEntity
  8
SEIHIN
100
AcDbEllipse
 10
268.627005023386
 20
144.7816594350808
 30
0.0
 11
-27.88703522872572
 21
0.0
 31
0.0
210
0.0
220
0.0
230
1.0
 40
0.6831162552671303
 41
3.21591234602091
 42
6.357478940719357
  0
ELLIPSE
  5
54E
330
1A
100
AcDbEntity
  8
SEIHIN
100
AcDbEllipse
 10
268.627006351286
 20
146.1958849843555
 30
0.0
 11
-27.88703522872572
 21
0.0
 31
0.0
210
0.0
220
0.0
230
1.0
 40
0.6831162552671303
 41
3.029997465690454
 42
6.394764341754519
  0
LINE
  5
54F
330
1A
100
AcDbEntity
  8
SEIHIN
100
AcDbLine
 10
240.8168962604139
 20
143.3676608562997
 30
0.0
 11
240.8168962604139
 21
135.5240200426258
 31
0.0
  0
LINE
  5
550
330
1A
100
AcDbEntity
  8
SEIHIN
100
AcDbLine
 10
296.3405763118927
 20
144.0743966644772
 30
0.0
 11
296.3405904446805
 21
136.2581003063854
 31
0.0
  0
ELLIPSE
  5
55D
330
1A
100
AcDbEntity
  8
SEIHIN
100
AcDbEllipse
 10
268.6312873570865
 20
147.8158603050346
 30
0.0
 11
-27.99523893018994
 21
0.0
 31
0.0
210
0.0
220
0.0
230
1.0
 40
0.7110121663899937
 41
3.141592653589793
 42
6.396912320679278
  0
ELLIPSE
  5
55F
330
1A
100
AcDbEntity
  8
SEIHIN
100
AcDbEllipse
 10
268.7004335588154
 20
145.727184923258
 30
0.0
 11
-27.92609272846112
 21
0.0
 31
0.0
210
0.0
220
0.0
230
1.0
 40
0.5470257928477557
 41
3.258145968388992
 42
6.283185307179586
  0
ELLIPSE
  5
567
330
1A
100
AcDbEntity
  8
SEIHIN
100
AcDbEllipse
 10
268.6269690419604
 20
127.7360438284273
 30
0.0
 11
-27.8417971291557
 21
0.0
 31
0.0
210
0.0
220
0.0
230
1.0
 40
0.7885104498614936
 41
0.0
 42
6.283185307179586
  0
ELLIPSE
  5
568
330
1A
100
AcDbEntity
  8
SEIHIN
100
AcDbEllipse
 10
268.6312873570865
 20
131.1988317352463
 30
0.0
 11
-28.49523893018993
 21
0.0
 31
0.0
210
0.0
220
0.0
230
1.0
 40
0.6489070199404257
 41
3.065034829419953
 42
6.359743131349426
  0
ELLIPSE
  5
569
330
1A
100
AcDbEntity
  8
SEIHIN
100
AcDbEllipse
 10
268.6312873570865
 20
131.1988317352463
 30
0.0
 11
-28.49523893018993
 21
0.0
 31
0.0
210
0.0
220
0.0
230
1.0
 40
0.6985357754630247
 41
2.92285904780028
 42
6.500263148245053
  0
DIMENSION
  5
56B
330
1A
100
AcDbEntity
  8
SUNPOU
100
AcDbDimension
  2
*D7
 10
91.98793015573009
 20
116.0634225154135
 30
0.0
 11
109.6054997065708
 21
101.9813100091114
 31
0.0
 70
    33
  3
STANDARD
100
AcDbAlignedDimension
 13
144.9412614555647
 23
105.6173037794802
 33
0.0
 14
113.2416648323238
 24
137.3170541254886
 34
0.0
1001
ACAD
1000
DSTYLE
1002
{
1070
    41
1040
3.0
1070
    42
1040
3.0
1070
    43
1040
7.0
1070
    44
1040
1.5
1070
    73
1070
     0
1070
    74
1070
     0
1070
    77
1070
     3
1070
   140
1040
3.0
1070
   141
1040
150.0
1070
   147
1040
1.0
1070
   172
1070
     1
1070
   173
1070
     1
1070
   176
1070
   256
1070
   177
1070
   256
1070
   178
1070
   256
1070
   271
1070
     0
1070
   272
1070
     0
1070
   341
1005
B2
1070
     6
1000
OPEN
1070
     7
1000
OPEN
1070
   371
1070
    -1
1070
   372
1070
    -1
1002
}
  0
DIMENSION
  5
578
330
1A
100
AcDbEntity
  8
SUNPOU
100
AcDbDimension
  2
*D8
 10
97.21188866868553
 20
121.2872941032788
 30
0.0
 11
104.2228907219529
 21
117.811800529618
 31
0.0
 70
    33
  3
STANDARD
100
AcDbAlignedDimension
 13
123.728157256596
 23
126.8305108484357
 33
0.0
 14
113.2416956285016
 24
137.3170233291614
 34
0.0
1001
ACAD
1000
DSTYLE
1002
{
1070
    41
1040
3.0
1070
    42
1040
3.0
1070
    43
1040
7.0
1070
    44
1040
1.5
1070
    73
1070
     0
1070
    74
1070
     0
1070
    77
1070
     3
1070
   140
1040
3.0
1070
   141
1040
150.0
1070
   147
1040
1.0
1070
   172
1070
     1
1070
   173
1070
     1
1070
   176
1070
   256
1070
   177
1070
   256
1070
   178
1070
   256
1070
   271
1070
     0
1070
   272
1070
     0
1070
   341
1005
B2
1070
     6
1000
OPEN
1070
     7
1000
OPEN
1070
   371
1070
    -1
1070
   372
1070
    -1
1002
}
  0
LINE
  5
585
330
1A
100
AcDbEntity
  8
SUNPOU
100
AcDbLine
 10
134.2271468506223
 20
158.3023727857603
 30
0.0
 11
111.1203701414373
 21
135.1957081291189
 31
0.0
  0
LINE
  5
586
330
1A
100
AcDbEntity
  8
CENTER_L
  6
CENTER
 62
     1
 48
5.0
100
AcDbLine
 10
127.871279819228
 20
164.6580348737898
 30
0.0
 11
170.876424951549
 21
121.6528089812395
 31
0.0
  0
VIEWPORT
  5
22
330
17
100
AcDbEntity
 67
     1
  8
0
100
AcDbViewport
 10
313.6808219178082
 20
148.5
 30
0.0
 40
627.3616438356165
 41
297.0
 68
     2
 69
     1
1001
ACAD
1000
MVIEW
1002
{
1070
    16
1010
0.0
1020
0.0
1030
0.0
1010
0.0
1020
0.0
1030
1.0
1040
0.0
1040
297.0
1040
313.6808219178082
1040
148.5
1040
50.0
1040
0.0
1040
0.0
1070
     0
1070
   100
1070
     1
1070
     0
1070
     0
1070
     0
1070
     0
1070
     0
1040
0.0
1040
0.0
1040
0.0
1040
1.0
1040
1.0
1040
10.0
1040
10.0
1070
     0
1002
{
1002
}
1002
}
  0
VIEWPORT
  5
64
330
17
100
AcDbEntity
 67
     1
  8
VIEWPORT
100
AcDbViewport
 10
210.0
 20
148.5
 30
0.0
 40
420.0
 41
297.0
 68
     1
 69
     2
1001
ACAD
1000
MVIEW
1002
{
1070
    16
1010
0.0
1020
0.0
1030
0.0
1010
0.0
1020
0.0
1030
1.0
1040
0.0
1040
302.9399999999998
1040
210.0
1040
148.5
1040
50.0
1040
0.0
1040
0.0
1070
     0
1070
   100
1070
     1
1070
     0
1070
     0
1070
     0
1070
     0
1070
     0
1040
0.0
1040
0.0
1040
0.0
1040
5.0
1040
5.0
1040
0.0
1040
0.0
1070
     0
1002
{
1002
}
1002
}
  0
ENDSEC
  0
SECTION
  2
OBJECTS
  0
DICTIONARY
  5
C
330
0
100
AcDbDictionary
  3
ACAD_GROUP
350
D
  3
ACAD_LAYOUT
350
33B
  3
ACAD_MLINESTYLE
350
E
  3
ACAD_PLOTSETTINGS
350
33C
1001
ACAD
1000
TREAT_AS_HARD
1070
     0
  0
DICTIONARY
  5
36A
330
1A
100
AcDbDictionary
  3
ACAD_LAYOUTSELFREF
350
5D9
1001
ACAD
1000
TREAT_AS_HARD
1070
     1
  0
DICTIONARY
  5
368
330
17
100
AcDbDictionary
  3
ACAD_LAYOUTSELFREF
350
5D8
1001
ACAD
1000
TREAT_AS_HARD
1070
     1
  0
DICTIONARY
  5
D
102
{ACAD_REACTORS
330
C
102
}
330
C
100
AcDbDictionary
1001
ACAD
1000
TREAT_AS_HARD
1070
     0
  0
DICTIONARY
  5
33B
102
{ACAD_REACTORS
330
C
102
}
330
C
100
AcDbDictionary
1001
ACAD
1000
TREAT_AS_HARD
1070
     0
  0
DICTIONARY
  5
E
102
{ACAD_REACTORS
330
C
102
}
330
C
100
AcDbDictionary
  3
STANDARD
350
13
1001
ACAD
1000
TREAT_AS_HARD
1070
     0
  0
DICTIONARY
  5
33C
102
{ACAD_REACTORS
330
C
102
}
330
C
100
AcDbDictionary
1001
ACAD
1000
TREAT_AS_HARD
1070
     0
  0
XRECORD
  5
5D9
102
{ACAD_REACTORS
330
36A
102
}
330
36A
100
AcDbXrecord
340
1A
  0
XRECORD
  5
5D8
102
{ACAD_REACTORS
330
368
102
}
330
368
100
AcDbXrecord
340
17
  0
MLINESTYLE
  5
13
102
{ACAD_REACTORS
330
E
102
}
330
E
100
AcDbMlineStyle
  2
STANDARD
 70
     0
  3

 62
     0
 51
90.0
 52
90.0
 71
     2
 49
0.5
 62
   256
  6
BYLAYER
 49
-0.5
 62
   256
  6
BYLAYER
  0
ENDSEC
  0
EOF
