  0
SECTION
  2
HEADER
  9
$ACADVER
  1
AC1015
  9
$ACADMAINTVER
 70
     6
  9
$DWGCODEPAGE
  3
ANSI_932
  9
$INSBASE
 10
0.0
 20
0.0
 30
0.0
  9
$EXTMIN
 10
0.0000003933412245
 20
-0.0000003446635901
 30
0.0
  9
$EXTMAX
 10
797.6000003933414
 20
551.5999996553366
 30
0.0
  9
$LIMMIN
 10
0.0
 20
0.0
  9
$LIMMAX
 10
840.0
 20
594.0
  9
$ORTHOMODE
 70
     0
  9
$REGENMODE
 70
     1
  9
$FILLMODE
 70
     1
  9
$QTEXTMODE
 70
     0
  9
$MIRRTEXT
 70
     1
  9
$LTSCALE
 40
2.0
  9
$ATTMODE
 70
     1
  9
$TEXTSIZE
 40
5.0
  9
$TRACEWID
 40
1.0
  9
$TEXTSTYLE
  7
STANDARD
  9
$CLAYER
  8
SUNPOU
  9
$CELTYPE
  6
BYLAYER
  9
$CECOLOR
 62
   256
  9
$CELTSCALE
 40
1.0
  9
$DISPSILH
 70
     0
  9
$DIMSCALE
 40
1.0
  9
$DIMASZ
 40
7.0
  9
$DIMEXO
 40
6.0
  9
$DIMDLI
 40
14.0
  9
$DIMRND
 40
0.0
  9
$DIMDLE
 40
0.0
  9
$DIMEXE
 40
3.0
  9
$DIMTP
 40
0.0
  9
$DIMTM
 40
0.0
  9
$DIMTXT
 40
6.0
  9
$DIMCEN
 40
150.0
  9
$DIMTSZ
 40
0.0
  9
$DIMTOL
 70
     0
  9
$DIMLIM
 70
     0
  9
$DIMTIH
 70
     0
  9
$DIMTOH
 70
     0
  9
$DIMSE1
 70
     0
  9
$DIMSE2
 70
     0
  9
$DIMTAD
 70
     3
  9
$DIMZIN
 70
     0
  9
$DIMBLK
  1

  9
$DIMASO
 70
     1
  9
$DIMSHO
 70
     1
  9
$DIMPOST
  1

  9
$DIMAPOST
  1

  9
$DIMALT
 70
     0
  9
$DIMALTD
 70
     2
  9
$DIMALTF
 40
25.4
  9
$DIMLFAC
 40
1.0
  9
$DIMTOFL
 70
     1
  9
$DIMTVP
 40
0.0
  9
$DIMTIX
 70
     0
  9
$DIMSOXD
 70
     0
  9
$DIMSAH
 70
     1
  9
$DIMBLK1
  1
OPEN
  9
$DIMBLK2
  1
OPEN
  9
$DIMSTYLE
  2
STANDARD
  9
$DIMCLRD
 70
   256
  9
$DIMCLRE
 70
   256
  9
$DIMCLRT
 70
   256
  9
$DIMTFAC
 40
1.0
  9
$DIMGAP
 40
2.0
  9
$DIMJUST
 70
     0
  9
$DIMSD1
 70
     0
  9
$DIMSD2
 70
     0
  9
$DIMTOLJ
 70
     1
  9
$DIMTZIN
 70
     0
  9
$DIMALTZ
 70
     0
  9
$DIMALTTZ
 70
     0
  9
$DIMUPT
 70
     0
  9
$DIMDEC
 70
     0
  9
$DIMTDEC
 70
     0
  9
$DIMALTU
 70
     2
  9
$DIMALTTD
 70
     2
  9
$DIMTXSTY
  7
STANDARD
  9
$DIMAUNIT
 70
     0
  9
$DIMADEC
 70
     0
  9
$DIMALTRND
 40
0.0
  9
$DIMAZIN
 70
     0
  9
$DIMDSEP
 70
    46
  9
$DIMATFIT
 70
     3
  9
$DIMFRAC
 70
     0
  9
$DIMLDRBLK
  1
OPEN
  9
$DIMLUNIT
 70
     2
  9
$DIMLWD
 70
    -1
  9
$DIMLWE
 70
    -1
  9
$DIMTMOVE
 70
     2
  9
$LUNITS
 70
     2
  9
$LUPREC
 70
     4
  9
$SKETCHINC
 40
1.0
  9
$FILLETRAD
 40
0.5
  9
$AUNITS
 70
     0
  9
$AUPREC
 70
     0
  9
$MENU
  1
.
  9
$ELEVATION
 40
0.0
  9
$PELEVATION
 40
0.0
  9
$THICKNESS
 40
0.0
  9
$LIMCHECK
 70
     0
  9
$CHAMFERA
 40
20.0
  9
$CHAMFERB
 40
20.0
  9
$CHAMFERC
 40
40.0
  9
$CHAMFERD
 40
0.0
  9
$SKPOLY
 70
     0
  9
$TDCREATE
 40
2451159.855623148
  9
$TDUCREATE
 40
2451159.480623148
  9
$TDUPDATE
 40
2455609.396106123
  9
$TDUUPDATE
 40
2455609.021106123
  9
$TDINDWG
 40
0.1454455093
  9
$TDUSRTIMER
 40
0.1454455093
  9
$USRTIMER
 70
     1
  9
$ANGBASE
 50
0.0
  9
$ANGDIR
 70
     0
  9
$PDMODE
 70
     0
  9
$PDSIZE
 40
0.0
  9
$PLINEWID
 40
0.0
  9
$SPLFRAME
 70
     0
  9
$SPLINETYPE
 70
     6
  9
$SPLINESEGS
 70
     8
  9
$HANDSEED
  5
2A50
  9
$SURFTAB1
 70
     6
  9
$SURFTAB2
 70
     6
  9
$SURFTYPE
 70
     6
  9
$SURFU
 70
     6
  9
$SURFV
 70
     6
  9
$UCSBASE
  2

  9
$UCSNAME
  2

  9
$UCSORG
 10
0.0
 20
0.0
 30
0.0
  9
$UCSXDIR
 10
1.0
 20
0.0
 30
0.0
  9
$UCSYDIR
 10
0.0
 20
1.0
 30
0.0
  9
$UCSORTHOREF
  2

  9
$UCSORTHOVIEW
 70
     0
  9
$UCSORGTOP
 10
0.0
 20
0.0
 30
0.0
  9
$UCSORGBOTTOM
 10
0.0
 20
0.0
 30
0.0
  9
$UCSORGLEFT
 10
0.0
 20
0.0
 30
0.0
  9
$UCSORGRIGHT
 10
0.0
 20
0.0
 30
0.0
  9
$UCSORGFRONT
 10
0.0
 20
0.0
 30
0.0
  9
$UCSORGBACK
 10
0.0
 20
0.0
 30
0.0
  9
$PUCSBASE
  2

  9
$PUCSNAME
  2

  9
$PUCSORG
 10
0.0
 20
0.0
 30
0.0
  9
$PUCSXDIR
 10
1.0
 20
0.0
 30
0.0
  9
$PUCSYDIR
 10
0.0
 20
1.0
 30
0.0
  9
$PUCSORTHOREF
  2

  9
$PUCSORTHOVIEW
 70
     0
  9
$PUCSORGTOP
 10
0.0
 20
0.0
 30
0.0
  9
$PUCSORGBOTTOM
 10
0.0
 20
0.0
 30
0.0
  9
$PUCSORGLEFT
 10
0.0
 20
0.0
 30
0.0
  9
$PUCSORGRIGHT
 10
0.0
 20
0.0
 30
0.0
  9
$PUCSORGFRONT
 10
0.0
 20
0.0
 30
0.0
  9
$PUCSORGBACK
 10
0.0
 20
0.0
 30
0.0
  9
$USERI1
 70
     0
  9
$USERI2
 70
     0
  9
$USERI3
 70
     0
  9
$USERI4
 70
     0
  9
$USERI5
 70
     0
  9
$USERR1
 40
0.0
  9
$USERR2
 40
0.0
  9
$USERR3
 40
0.0
  9
$USERR4
 40
0.0
  9
$USERR5
 40
0.0
  9
$WORLDVIEW
 70
     1
  9
$SHADEDGE
 70
     3
  9
$SHADEDIF
 70
    70
  9
$TILEMODE
 70
     1
  9
$MAXACTVP
 70
    16
  9
$PINSBASE
 10
0.0
 20
0.0
 30
0.0
  9
$PLIMCHECK
 70
     0
  9
$PEXTMIN
 10
0.0
 20
0.0
 30
0.0
  9
$PEXTMAX
 10
420.0
 20
297.0
 30
0.0
  9
$PLIMMIN
 10
0.0
 20
0.0
  9
$PLIMMAX
 10
420.0
 20
297.0
  9
$UNITMODE
 70
     0
  9
$VISRETAIN
 70
     0
  9
$PLINEGEN
 70
     0
  9
$PSLTSCALE
 70
     1
  9
$TREEDEPTH
 70
  3020
  9
$CMLSTYLE
  2
STANDARD
  9
$CMLJUST
 70
     0
  9
$CMLSCALE
 40
1.0
  9
$PROXYGRAPHICS
 70
     1
  9
$MEASUREMENT
 70
     1
  9
$CELWEIGHT
370
    -1
  9
$ENDCAPS
280
     0
  9
$JOINSTYLE
280
     0
  9
$LWDISPLAY
290
     0
  9
$INSUNITS
 70
     0
  9
$HYPERLINKBASE
  1

  9
$STYLESHEET
  1
print.ctb
  9
$XEDIT
290
     1
  9
$CEPSNTYPE
380
     0
  9
$PSTYLEMODE
290
     1
  9
$FINGERPRINTGUID
  2
{844639E2-177E-11D4-932C-444553540000}
  9
$VERSIONGUID
  2
{0A959B3A-8F5A-45AA-BA56-B49A2C48665E}
  9
$EXTNAMES
290
     1
  9
$PSVPSCALE
 40
0.0
  9
$OLESTARTUP
290
     0
  0
ENDSEC
  0
SECTION
  2
CLASSES
  0
CLASS
  1
ACDBDICTIONARYWDFLT
  2
AcDbDictionaryWithDefault
  3
ObjectDBX Classes
 90
        0
280
     0
281
     0
  0
CLASS
  1
ACDBPLACEHOLDER
  2
AcDbPlaceHolder
  3
ObjectDBX Classes
 90
        0
280
     0
281
     0
  0
CLASS
  1
LAYOUT
  2
AcDbLayout
  3
ObjectDBX Classes
 90
        0
280
     0
281
     0
  0
CLASS
  1
DUMMY
  2
AcDbLongTransaction
  3
DUMMY
 90
        0
280
     0
281
     0
  0
CLASS
  1
LWPOLYLINE
  2
AcDbPolyline
  3
AutoCAD 2000
 90
        0
280
     0
281
     1
  0
CLASS
  1
HATCH
  2
AcDbHatch
  3
AutoCAD 2000
 90
        0
280
     0
281
     1
  0
CLASS
  1
XRECORD
  2
AcDbXrecord
  3
AutoCAD 2000
 90
        0
280
     0
281
     0
  0
CLASS
  1
DUMMY
  2
AcDbLongTransaction
  3
DUMMY
 90
        0
280
     0
281
     0
  0
CLASS
  1
LWPOLYLINE
  2
AcDbPolyline
  3
AutoCAD 2000
 90
        0
280
     0
281
     1
  0
CLASS
  1
HATCH
  2
AcDbHatch
  3
AutoCAD 2000
 90
        0
280
     0
281
     1
  0
CLASS
  1
XRECORD
  2
AcDbXrecord
  3
AutoCAD 2000
 90
        0
280
     0
281
     0
  0
CLASS
  1
DUMMY
  2
AcDbLongTransaction
  3
DUMMY
 90
        0
280
     0
281
     0
  0
CLASS
  1
LWPOLYLINE
  2
AcDbPolyline
  3
AutoCAD 2000
 90
        0
280
     0
281
     1
  0
CLASS
  1
HATCH
  2
AcDbHatch
  3
AutoCAD 2000
 90
        0
280
     0
281
     1
  0
CLASS
  1
XRECORD
  2
AcDbXrecord
  3
AutoCAD 2000
 90
        0
280
     0
281
     0
  0
CLASS
  1
DUMMY
  2
AcDbLongTransaction
  3
DUMMY
 90
        0
280
     0
281
     0
  0
CLASS
  1
LWPOLYLINE
  2
AcDbPolyline
  3
AutoCAD 2000
 90
        0
280
     0
281
     1
  0
CLASS
  1
HATCH
  2
AcDbHatch
  3
AutoCAD 2000
 90
        0
280
     0
281
     1
  0
CLASS
  1
XRECORD
  2
AcDbXrecord
  3
AutoCAD 2000
 90
        0
280
     0
281
     0
  0
CLASS
  1
DUMMY
  2
AcDbLongTransaction
  3
DUMMY
 90
        0
280
     0
281
     0
  0
CLASS
  1
LWPOLYLINE
  2
AcDbPolyline
  3
AutoCAD 2000
 90
        0
280
     0
281
     1
  0
CLASS
  1
HATCH
  2
AcDbHatch
  3
AutoCAD 2000
 90
        0
280
     0
281
     1
  0
CLASS
  1
XRECORD
  2
AcDbXrecord
  3
AutoCAD 2000
 90
        0
280
     0
281
     0
  0
CLASS
  1
DUMMY
  2
AcDbLongTransaction
  3
DUMMY
 90
        0
280
     0
281
     0
  0
CLASS
  1
LWPOLYLINE
  2
AcDbPolyline
  3
AutoCAD 2000
 90
        0
280
     0
281
     1
  0
CLASS
  1
HATCH
  2
AcDbHatch
  3
AutoCAD 2000
 90
        0
280
     0
281
     1
  0
CLASS
  1
XRECORD
  2
AcDbXrecord
  3
AutoCAD 2000
 90
        0
280
     0
281
     0
  0
ENDSEC
  0
SECTION
  2
TABLES
  0
TABLE
  2
VPORT
  5
8
330
0
100
AcDbSymbolTable
 70
     2
  0
VPORT
  5
2A4F
330
8
100
AcDbSymbolTableRecord
100
AcDbViewportTableRecord
  2
*Active
 70
     0
 10
0.0
 20
0.0
 11
1.0
 21
1.0
 12
257.5239631194323
 22
90.30520815582713
 13
0.0
 23
0.0
 14
5.0
 24
5.0
 15
0.0
 25
0.0
 16
0.0
 26
0.0
 36
1.0
 17
0.0
 27
0.0
 37
0.0
 40
303.0930147302643
 41
1.261584454409567
 42
50.0
 43
0.0
 44
0.0
 50
0.0
 51
0.0
 71
     0
 72
   100
 73
     1
 74
     0
 75
     0
 76
     0
 77
     0
 78
     0
281
     0
 65
     1
110
0.0
120
0.0
130
0.0
111
1.0
121
0.0
131
0.0
112
0.0
122
1.0
132
0.0
 79
     0
146
0.0
  0
ENDTAB
  0
TABLE
  2
LTYPE
  5
5
330
0
100
AcDbSymbolTable
 70
     3
  0
LTYPE
  5
14
330
5
100
AcDbSymbolTableRecord
100
AcDbLinetypeTableRecord
  2
BYBLOCK
 70
     0
  3

 72
    65
 73
     0
 40
0.0
  0
LTYPE
  5
15
330
5
100
AcDbSymbolTableRecord
100
AcDbLinetypeTableRecord
  2
BYLAYER
 70
     0
  3

 72
    65
 73
     0
 40
0.0
  0
LTYPE
  5
16
330
5
100
AcDbSymbolTableRecord
100
AcDbLinetypeTableRecord
  2
CONTINUOUS
 70
     0
  3
Solid line
 72
    65
 73
     0
 40
0.0
  0
LTYPE
  5
115
330
5
100
AcDbSymbolTableRecord
100
AcDbLinetypeTableRecord
  2
PHANTOM
 70
     0
  3
______  __  __  ______  __  __  ______  __  __ 
 72
    65
 73
     6
 40
2.5
 49
1.25
 74
     0
 49
-0.25
 74
     0
 49
0.25
 74
     0
 49
-0.25
 74
     0
 49
0.25
 74
     0
 49
-0.25
 74
     0
  0
LTYPE
  5
135
330
5
100
AcDbSymbolTableRecord
100
AcDbLinetypeTableRecord
  2
CENTER
 70
     0
  3
____ _ ____ _ ____ _ ____ _ ____ _ ____ _ ____ 
 72
    65
 73
     4
 40
2.0
 49
1.25
 74
     0
 49
-0.25
 74
     0
 49
0.25
 74
     0
 49
-0.25
 74
     0
  0
ENDTAB
  0
TABLE
  2
LAYER
  5
2
330
0
100
AcDbSymbolTable
 70
     8
  0
LAYER
  5
F
330
2
100
AcDbSymbolTableRecord
100
AcDbLayerTableRecord
  2
0
 70
     0
 62
     7
  6
CONTINUOUS
370
    -3
390
C41
  0
LAYER
  5
62
330
2
100
AcDbSymbolTableRecord
100
AcDbLayerTableRecord
  2
VIEWPORT
 70
     0
 62
     7
  6
CONTINUOUS
370
    -3
390
C41
  0
LAYER
  5
65
330
2
100
AcDbSymbolTableRecord
100
AcDbLayerTableRecord
  2
ZUWAKU
 70
     0
 62
     7
  6
CONTINUOUS
370
    -3
390
C41
  0
LAYER
  5
144
330
2
100
AcDbSymbolTableRecord
100
AcDbLayerTableRecord
  2
SEIHIN
 70
     0
 62
     3
  6
CONTINUOUS
370
    -3
390
C41
  0
LAYER
  5
3CD
330
2
100
AcDbSymbolTableRecord
100
AcDbLayerTableRecord
  2
CENTER L
 70
     0
 62
     1
  6
CENTER
370
    -3
390
C41
  0
LAYER
  5
3CE
330
2
100
AcDbSymbolTableRecord
100
AcDbLayerTableRecord
  2
SUNPOU
 70
     0
 62
     4
  6
CONTINUOUS
370
    -3
390
C41
  0
LAYER
  5
6E3
330
2
100
AcDbSymbolTableRecord
100
AcDbLayerTableRecord
  2
DEFPOINTS
 70
     0
 62
     7
  6
CONTINUOUS
290
     0
370
    -3
390
C41
  0
LAYER
  5
15FD
330
2
100
AcDbSymbolTableRecord
100
AcDbLayerTableRecord
  2
moji
 70
     0
 62
     2
  6
CONTINUOUS
370
    -3
390
C41
  0
ENDTAB
  0
TABLE
  2
STYLE
  5
3
330
0
100
AcDbSymbolTable
 70
     2
  0
STYLE
  5
10
330
3
100
AcDbSymbolTableRecord
100
AcDbTextStyleTableRecord
  2
STANDARD
 70
     0
 40
0.0
 41
1.0
 50
0.0
 71
     0
 42
5.0
  3
TXT
  4
a:\program files\autocad lt\ms\bigfont.shx
  0
STYLE
  5
15FE
330
3
100
AcDbSymbolTableRecord
100
AcDbTextStyleTableRecord
  2
ｽﾀｲﾙ1
 70
     0
 40
0.0
 41
1.0
 50
0.0
 71
     0
 42
2.5
  3
MS PGothic.ttf
  4

1001
ACAD
1000
MS PGothic
1071
    32818
  0
ENDTAB
  0
TABLE
  2
VIEW
  5
6
330
0
100
AcDbSymbolTable
 70
     0
  0
ENDTAB
  0
TABLE
  2
UCS
  5
7
330
0
100
AcDbSymbolTable
 70
     0
  0
ENDTAB
  0
TABLE
  2
APPID
  5
9
330
0
100
AcDbSymbolTable
 70
     1
  0
APPID
  5
11
330
9
100
AcDbSymbolTableRecord
100
AcDbRegAppTableRecord
  2
ACAD
 70
     0
  0
ENDTAB
  0
TABLE
  2
DIMSTYLE
  5
A
330
0
100
AcDbSymbolTable
 70
     1
100
AcDbDimStyleTable
  0
DIMSTYLE
105
1D
102
{ACAD_REACTORS
330
2002
330
200B
330
200C
330
201F
330
2022
330
2034
330
283A
330
283F
330
2875
330
2900
330
2901
330
2902
330
2906
330
2911
330
2912
330
2915
330
2933
330
2934
102
}
330
A
100
AcDbSymbolTableRecord
100
AcDbDimStyleTableRecord
  2
STANDARD
 70
     0
340
10
  0
ENDTAB
  0
TABLE
  2
BLOCK_RECORD
  5
1
330
0
100
AcDbSymbolTable
 70
    19
  0
BLOCK_RECORD
  5
1A
330
1
100
AcDbSymbolTableRecord
100
AcDbBlockTableRecord
  2
*MODEL_SPACE
340
C44
  0
BLOCK_RECORD
  5
17
330
1
100
AcDbSymbolTableRecord
100
AcDbBlockTableRecord
  2
*PAPER_SPACE
340
C45
  0
BLOCK_RECORD
  5
6D
330
1
100
AcDbSymbolTableRecord
100
AcDbBlockTableRecord
  2
_OPEN
340
0
102
{BLKREFS
331
2173
331
2174
331
217C
331
217D
331
2185
331
2186
331
218E
331
218F
331
2197
331
2198
331
21A2
331
21A3
331
29DE
331
29DF
331
29E7
331
29E8
331
29F0
331
29F1
331
29F9
331
29FA
331
2A02
331
2A03
331
2A0A
331
2A0B
331
2A13
331
2A14
331
2A1C
331
2A1D
331
2A25
331
2A26
331
2A2F
331
2A30
331
2A3A
331
2A3B
331
2A43
331
2A44
102
}
  0
BLOCK_RECORD
  5
20CA
330
1
100
AcDbSymbolTableRecord
100
AcDbBlockTableRecord
  2
*D1
340
0
  0
BLOCK_RECORD
  5
20D6
330
1
100
AcDbSymbolTableRecord
100
AcDbBlockTableRecord
  2
*D2
340
0
  0
BLOCK_RECORD
  5
20E2
330
1
100
AcDbSymbolTableRecord
100
AcDbBlockTableRecord
  2
*D3
340
0
  0
BLOCK_RECORD
  5
20EE
330
1
100
AcDbSymbolTableRecord
100
AcDbBlockTableRecord
  2
*D4
340
0
  0
BLOCK_RECORD
  5
20FA
330
1
100
AcDbSymbolTableRecord
100
AcDbBlockTableRecord
  2
*D5
340
0
  0
BLOCK_RECORD
  5
2106
330
1
100
AcDbSymbolTableRecord
100
AcDbBlockTableRecord
  2
*D6
340
0
  0
BLOCK_RECORD
  5
2949
330
1
100
AcDbSymbolTableRecord
100
AcDbBlockTableRecord
  2
*D7
340
0
  0
BLOCK_RECORD
  5
2955
330
1
100
AcDbSymbolTableRecord
100
AcDbBlockTableRecord
  2
*D8
340
0
  0
BLOCK_RECORD
  5
2961
330
1
100
AcDbSymbolTableRecord
100
AcDbBlockTableRecord
  2
*D9
340
0
  0
BLOCK_RECORD
  5
296D
330
1
100
AcDbSymbolTableRecord
100
AcDbBlockTableRecord
  2
*D10
340
0
  0
BLOCK_RECORD
  5
2979
330
1
100
AcDbSymbolTableRecord
100
AcDbBlockTableRecord
  2
*D11
340
0
  0
BLOCK_RECORD
  5
2985
330
1
100
AcDbSymbolTableRecord
100
AcDbBlockTableRecord
  2
*D12
340
0
  0
BLOCK_RECORD
  5
2990
330
1
100
AcDbSymbolTableRecord
100
AcDbBlockTableRecord
  2
*D13
340
0
  0
BLOCK_RECORD
  5
299C
330
1
100
AcDbSymbolTableRecord
100
AcDbBlockTableRecord
  2
*D14
340
0
  0
BLOCK_RECORD
  5
29A8
330
1
100
AcDbSymbolTableRecord
100
AcDbBlockTableRecord
  2
*D15
340
0
  0
BLOCK_RECORD
  5
29B4
330
1
100
AcDbSymbolTableRecord
100
AcDbBlockTableRecord
  2
*D16
340
0
  0
BLOCK_RECORD
  5
29C1
330
1
100
AcDbSymbolTableRecord
100
AcDbBlockTableRecord
  2
*D17
340
0
  0
BLOCK_RECORD
  5
29CF
330
1
100
AcDbSymbolTableRecord
100
AcDbBlockTableRecord
  2
*D18
340
0
  0
ENDTAB
  0
ENDSEC
  0
SECTION
  2
BLOCKS
  0
BLOCK
  5
1B
330
1A
100
AcDbEntity
  8
0
100
AcDbBlockBegin
  2
*MODEL_SPACE
 70
     0
 71
     0
 10
0.0
 20
0.0
 30
0.0
  3
*MODEL_SPACE
  1

  0
ENDBLK
  5
1C
330
1A
100
AcDbEntity
  8
0
100
AcDbBlockEnd
  0
BLOCK
  5
18
330
17
100
AcDbEntity
 67
     1
  8
0
100
AcDbBlockBegin
  2
*PAPER_SPACE
 70
     0
 71
     0
 10
0.0
 20
0.0
 30
0.0
  3
*PAPER_SPACE
  1

  0
ENDBLK
  5
19
330
17
100
AcDbEntity
 67
     1
  8
0
100
AcDbBlockEnd
  0
BLOCK
  5
6E
330
6D
100
AcDbEntity
  8
0
100
AcDbBlockBegin
  2
_OPEN
 70
     0
 71
     0
 10
0.0
 20
0.0
 30
0.0
  3
_OPEN
  1

  0
LINE
  5
6F
330
6D
100
AcDbEntity
  8
0
  6
ByBlock
 62
     0
100
AcDbLine
 10
-1.0
 20
0.1666666666666667
 30
0.0
 11
0.0
 21
0.0
 31
0.0
  0
LINE
  5
70
330
6D
100
AcDbEntity
  8
0
  6
ByBlock
 62
     0
100
AcDbLine
 10
0.0
 20
0.0
 30
0.0
 11
-1.0
 21
-0.1666666666666667
 31
0.0
  0
LINE
  5
71
330
6D
100
AcDbEntity
  8
0
  6
ByBlock
 62
     0
100
AcDbLine
 10
0.0
 20
0.0
 30
0.0
 11
-1.0
 21
0.0
 31
0.0
  0
ENDBLK
  5
72
330
6D
100
AcDbEntity
  8
0
100
AcDbBlockEnd
  0
BLOCK
  5
20D4
330
20CA
100
AcDbEntity
  8
0
100
AcDbBlockBegin
  2
*D1
 70
     1
 71
     0
 10
0.0
 20
0.0
 30
0.0
  3
*D1
  1

  0
LINE
  5
2170
330
20CA
100
AcDbEntity
  8
SUNPOU
 62
     4
370
    -2
100
AcDbLine
 10
530.6116922931437
 20
453.2854054052098
 30
0.0
 11
530.6116922931437
 21
489.7506008261465
 31
0.0
  0
LINE
  5
2171
330
20CA
100
AcDbEntity
  8
SUNPOU
 62
     4
370
    -2
100
AcDbLine
 10
600.6116922931437
 20
453.2854054052098
 30
0.0
 11
600.6116922931437
 21
489.7506008261465
 31
0.0
  0
LINE
  5
2172
330
20CA
100
AcDbEntity
  8
SUNPOU
 62
     4
370
    -2
100
AcDbLine
 10
534.1116922931437
 20
488.2506008261465
 30
0.0
 11
597.1116922931437
 21
488.2506008261465
 31
0.0
  0
INSERT
  5
2173
330
20CA
100
AcDbEntity
  8
SUNPOU
 62
     4
370
    -2
100
AcDbBlockReference
  2
_OPEN
 10
530.6116922931437
 20
488.2506008261465
 30
0.0
 41
3.5
 42
3.5
 43
3.5
 50
180.0
  0
INSERT
  5
2174
330
20CA
100
AcDbEntity
  8
SUNPOU
 62
     4
370
    -2
100
AcDbBlockReference
  2
_OPEN
 10
600.6116922931437
 20
488.2506008261465
 30
0.0
 41
3.5
 42
3.5
 43
3.5
  0
MTEXT
  5
2175
330
20CA
100
AcDbEntity
  8
SUNPOU
 62
     4
100
AcDbMText
 10
565.6116922931437
 20
492.2506008261465
 30
0.0
 40
6.0
 41
0.0
 71
     5
 72
     1
  1
\A1;70
 73
     1
 44
1.0
  0
POINT
  5
2176
330
20CA
100
AcDbEntity
  8
DEFPOINTS
 62
     0
100
AcDbPoint
 10
530.6116922931437
 20
450.2854054052098
 30
0.0
  0
POINT
  5
2177
330
20CA
100
AcDbEntity
  8
DEFPOINTS
 62
     0
100
AcDbPoint
 10
600.6116922931437
 20
450.2854054052098
 30
0.0
  0
POINT
  5
2178
330
20CA
100
AcDbEntity
  8
DEFPOINTS
 62
     0
100
AcDbPoint
 10
600.6116922931437
 20
488.2506008261465
 30
0.0
  0
ENDBLK
  5
20D5
330
20CA
100
AcDbEntity
  8
0
100
AcDbBlockEnd
  0
BLOCK
  5
20E0
330
20D6
100
AcDbEntity
  8
0
100
AcDbBlockBegin
  2
*D2
 70
     1
 71
     0
 10
0.0
 20
0.0
 30
0.0
  3
*D2
  1

  0
LINE
  5
2179
330
20D6
100
AcDbEntity
  8
SUNPOU
 62
     4
370
    -2
100
AcDbLine
 10
603.6116922931437
 20
450.2854054052098
 30
0.0
 11
615.8716755349431
 21
450.2854054052098
 31
0.0
  0
LINE
  5
217A
330
20D6
100
AcDbEntity
  8
SUNPOU
 62
     4
370
    -2
100
AcDbLine
 10
591.2597831592437
 20
432.2854054052097
 30
0.0
 11
615.8716755349431
 21
432.2854054052097
 31
0.0
  0
LINE
  5
217B
330
20D6
100
AcDbEntity
  8
SUNPOU
 62
     4
370
    -2
100
AcDbLine
 10
614.3716755349431
 20
446.7854054052098
 30
0.0
 11
614.3716755349431
 21
435.7854054052097
 31
0.0
  0
INSERT
  5
217C
330
20D6
100
AcDbEntity
  8
SUNPOU
 62
     4
370
    -2
100
AcDbBlockReference
  2
_OPEN
 10
614.3716755349431
 20
450.2854054052098
 30
0.0
 41
3.5
 42
3.5
 43
3.5
 50
90.0
  0
INSERT
  5
217D
330
20D6
100
AcDbEntity
  8
SUNPOU
 62
     4
370
    -2
100
AcDbBlockReference
  2
_OPEN
 10
614.3716755349431
 20
432.2854054052097
 30
0.0
 41
3.5
 42
3.5
 43
3.5
 50
270.0
  0
MTEXT
  5
217E
330
20D6
100
AcDbEntity
  8
SUNPOU
 62
     4
100
AcDbMText
 10
610.3716755349429
 20
441.2854054052098
 30
0.0
 40
6.0
 41
0.0
 71
     5
 72
     1
  1
\A1;18
 11
6.123031769111886E-17
 21
1.0
 31
0.0
 73
     1
 44
1.0
  0
POINT
  5
217F
330
20D6
100
AcDbEntity
  8
DEFPOINTS
 62
     0
100
AcDbPoint
 10
600.6116922931437
 20
450.2854054052098
 30
0.0
  0
POINT
  5
2180
330
20D6
100
AcDbEntity
  8
DEFPOINTS
 62
     0
100
AcDbPoint
 10
588.2597831592437
 20
432.2854054052097
 30
0.0
  0
POINT
  5
2181
330
20D6
100
AcDbEntity
  8
DEFPOINTS
 62
     0
100
AcDbPoint
 10
614.3716755349431
 20
432.2854054052097
 30
0.0
  0
ENDBLK
  5
20E1
330
20D6
100
AcDbEntity
  8
0
100
AcDbBlockEnd
  0
BLOCK
  5
20EC
330
20E2
100
AcDbEntity
  8
0
100
AcDbBlockBegin
  2
*D3
 70
     1
 71
     0
 10
0.0
 20
0.0
 30
0.0
  3
*D3
  1

  0
LINE
  5
2182
330
20E2
100
AcDbEntity
  8
SUNPOU
 62
     4
370
    -2
100
AcDbLine
 10
561.6116922931437
 20
460.2854054052098
 30
0.0
 11
628.8148895007613
 21
460.2854054052098
 31
0.0
  0
LINE
  5
2183
330
20E2
100
AcDbEntity
  8
SUNPOU
 62
     4
370
    -2
100
AcDbLine
 10
568.6116922931437
 20
430.2854054052098
 30
0.0
 11
628.8148895007613
 21
430.2854054052098
 31
0.0
  0
LINE
  5
2184
330
20E2
100
AcDbEntity
  8
SUNPOU
 62
     4
370
    -2
100
AcDbLine
 10
627.3148895007613
 20
456.7854054052098
 30
0.0
 11
627.3148895007613
 21
433.7854054052098
 31
0.0
  0
INSERT
  5
2185
330
20E2
100
AcDbEntity
  8
SUNPOU
 62
     4
370
    -2
100
AcDbBlockReference
  2
_OPEN
 10
627.3148895007613
 20
460.2854054052098
 30
0.0
 41
3.5
 42
3.5
 43
3.5
 50
90.0
  0
INSERT
  5
2186
330
20E2
100
AcDbEntity
  8
SUNPOU
 62
     4
370
    -2
100
AcDbBlockReference
  2
_OPEN
 10
627.3148895007613
 20
430.2854054052098
 30
0.0
 41
3.5
 42
3.5
 43
3.5
 50
270.0
  0
MTEXT
  5
2187
330
20E2
100
AcDbEntity
  8
SUNPOU
 62
     4
100
AcDbMText
 10
623.3148895007612
 20
445.2854054052098
 30
0.0
 40
6.0
 41
0.0
 71
     5
 72
     1
  1
\A1;30
 11
6.123031769111886E-17
 21
1.0
 31
0.0
 73
     1
 44
1.0
  0
POINT
  5
2188
330
20E2
100
AcDbEntity
  8
DEFPOINTS
 62
     0
100
AcDbPoint
 10
558.6116922931437
 20
460.2854054052098
 30
0.0
  0
POINT
  5
2189
330
20E2
100
AcDbEntity
  8
DEFPOINTS
 62
     0
100
AcDbPoint
 10
565.6116922931437
 20
430.2854054052098
 30
0.0
  0
POINT
  5
218A
330
20E2
100
AcDbEntity
  8
DEFPOINTS
 62
     0
100
AcDbPoint
 10
627.3148895007613
 20
430.2854054052098
 30
0.0
  0
ENDBLK
  5
20ED
330
20E2
100
AcDbEntity
  8
0
100
AcDbBlockEnd
  0
BLOCK
  5
20F8
330
20EE
100
AcDbEntity
  8
0
100
AcDbBlockBegin
  2
*D4
 70
     1
 71
     0
 10
0.0
 20
0.0
 30
0.0
  3
*D4
  1

  0
LINE
  5
218B
330
20EE
100
AcDbEntity
  8
SUNPOU
 62
     4
370
    -2
100
AcDbLine
 10
555.6116922931437
 20
460.2854054052098
 30
0.0
 11
555.6116922931437
 21
473.8672851621869
 31
0.0
  0
LINE
  5
218C
330
20EE
100
AcDbEntity
  8
SUNPOU
 62
     4
370
    -2
100
AcDbLine
 10
575.6116922931437
 20
460.2854054052098
 30
0.0
 11
575.6116922931437
 21
473.8672851621869
 31
0.0
  0
LINE
  5
218D
330
20EE
100
AcDbEntity
  8
SUNPOU
 62
     4
370
    -2
100
AcDbLine
 10
559.1116922931437
 20
472.3672851621869
 30
0.0
 11
572.1116922931437
 21
472.3672851621869
 31
0.0
  0
INSERT
  5
218E
330
20EE
100
AcDbEntity
  8
SUNPOU
 62
     4
370
    -2
100
AcDbBlockReference
  2
_OPEN
 10
555.6116922931437
 20
472.3672851621869
 30
0.0
 41
3.5
 42
3.5
 43
3.5
 50
180.0
  0
INSERT
  5
218F
330
20EE
100
AcDbEntity
  8
SUNPOU
 62
     4
370
    -2
100
AcDbBlockReference
  2
_OPEN
 10
575.6116922931437
 20
472.3672851621869
 30
0.0
 41
3.5
 42
3.5
 43
3.5
  0
MTEXT
  5
2190
330
20EE
100
AcDbEntity
  8
SUNPOU
 62
     4
100
AcDbMText
 10
565.6116922931437
 20
476.3672851621869
 30
0.0
 40
6.0
 41
0.0
 71
     5
 72
     1
  1
\A1;20
 73
     1
 44
1.0
  0
POINT
  5
2191
330
20EE
100
AcDbEntity
  8
DEFPOINTS
 62
     0
100
AcDbPoint
 10
555.6116922931437
 20
457.2854054052098
 30
0.0
  0
POINT
  5
2192
330
20EE
100
AcDbEntity
  8
DEFPOINTS
 62
     0
100
AcDbPoint
 10
575.6116922931437
 20
457.2854054052098
 30
0.0
  0
POINT
  5
2193
330
20EE
100
AcDbEntity
  8
DEFPOINTS
 62
     0
100
AcDbPoint
 10
575.6116922931437
 20
472.3672851621869
 30
0.0
  0
ENDBLK
  5
20F9
330
20EE
100
AcDbEntity
  8
0
100
AcDbBlockEnd
  0
BLOCK
  5
2104
330
20FA
100
AcDbEntity
  8
0
100
AcDbBlockBegin
  2
*D5
 70
     1
 71
     0
 10
0.0
 20
0.0
 30
0.0
  3
*D5
  1

  0
LINE
  5
2194
330
20FA
100
AcDbEntity
  8
SUNPOU
 62
     4
370
    -2
100
AcDbLine
 10
585.6116922931437
 20
453.2854054052098
 30
0.0
 11
585.6116922931437
 21
473.8672851621869
 31
0.0
  0
LINE
  5
2195
330
20FA
100
AcDbEntity
  8
SUNPOU
 62
     4
370
    -2
100
AcDbLine
 10
600.6116922931437
 20
453.2854054052098
 30
0.0
 11
600.6116922931437
 21
473.8672851621869
 31
0.0
  0
LINE
  5
2196
330
20FA
100
AcDbEntity
  8
SUNPOU
 62
     4
370
    -2
100
AcDbLine
 10
589.1116922931437
 20
472.3672851621869
 30
0.0
 11
597.1116922931437
 21
472.3672851621869
 31
0.0
  0
INSERT
  5
2197
330
20FA
100
AcDbEntity
  8
SUNPOU
 62
     4
370
    -2
100
AcDbBlockReference
  2
_OPEN
 10
585.6116922931437
 20
472.3672851621869
 30
0.0
 41
3.5
 42
3.5
 43
3.5
 50
180.0
  0
INSERT
  5
2198
330
20FA
100
AcDbEntity
  8
SUNPOU
 62
     4
370
    -2
100
AcDbBlockReference
  2
_OPEN
 10
600.6116922931437
 20
472.3672851621869
 30
0.0
 41
3.5
 42
3.5
 43
3.5
  0
MTEXT
  5
2199
330
20FA
100
AcDbEntity
  8
SUNPOU
 62
     4
100
AcDbMText
 10
593.1116922931437
 20
476.3672851621869
 30
0.0
 40
6.0
 41
0.0
 71
     5
 72
     1
  1
\A1;15
 73
     1
 44
1.0
  0
POINT
  5
219A
330
20FA
100
AcDbEntity
  8
DEFPOINTS
 62
     0
100
AcDbPoint
 10
585.6116922931437
 20
450.2854054052098
 30
0.0
  0
POINT
  5
219B
330
20FA
100
AcDbEntity
  8
DEFPOINTS
 62
     0
100
AcDbPoint
 10
600.6116922931437
 20
450.2854054052098
 30
0.0
  0
POINT
  5
219C
330
20FA
100
AcDbEntity
  8
DEFPOINTS
 62
     0
100
AcDbPoint
 10
600.6116922931437
 20
472.3672851621869
 30
0.0
  0
ENDBLK
  5
2105
330
20FA
100
AcDbEntity
  8
0
100
AcDbBlockEnd
  0
BLOCK
  5
2112
330
2106
100
AcDbEntity
  8
0
100
AcDbBlockBegin
  2
*D6
 70
     1
 71
     0
 10
0.0
 20
0.0
 30
0.0
  3
*D6
  1

  0
LINE
  5
219D
330
2106
100
AcDbEntity
  8
SUNPOU
 62
     4
370
    -2
100
AcDbLine
 10
652.2070764990158
 20
461.7854054052098
 30
0.0
 11
652.2070764990158
 21
473.8672851621869
 31
0.0
  0
LINE
  5
219E
330
2106
100
AcDbEntity
  8
SUNPOU
 62
     4
370
    -2
100
AcDbLine
 10
660.207076499016
 20
451.7854054052097
 30
0.0
 11
660.207076499016
 21
473.8672851621869
 31
0.0
  0
LINE
  5
219F
330
2106
100
AcDbEntity
  8
SUNPOU
 62
     4
370
    -2
100
AcDbLine
 10
648.7070764990158
 20
472.3672851621869
 30
0.0
 11
645.2070764990158
 21
472.3672851621869
 31
0.0
  0
LINE
  5
21A0
330
2106
100
AcDbEntity
  8
SUNPOU
 62
     4
370
    -2
100
AcDbLine
 10
663.707076499016
 20
472.3672851621869
 30
0.0
 11
667.207076499016
 21
472.3672851621869
 31
0.0
  0
LINE
  5
21A1
330
2106
100
AcDbEntity
  8
SUNPOU
 62
     4
370
    -2
100
AcDbLine
 10
652.2070764990158
 20
472.3672851621869
 30
0.0
 11
660.207076499016
 21
472.3672851621869
 31
0.0
  0
INSERT
  5
21A2
330
2106
100
AcDbEntity
  8
SUNPOU
 62
     4
370
    -2
100
AcDbBlockReference
  2
_OPEN
 10
652.2070764990158
 20
472.3672851621869
 30
0.0
 41
3.5
 42
3.5
 43
3.5
  0
INSERT
  5
21A3
330
2106
100
AcDbEntity
  8
SUNPOU
 62
     4
370
    -2
100
AcDbBlockReference
  2
_OPEN
 10
660.207076499016
 20
472.3672851621869
 30
0.0
 41
3.5
 42
3.5
 43
3.5
 50
180.0
  0
MTEXT
  5
21A4
330
2106
100
AcDbEntity
  8
SUNPOU
 62
     4
100
AcDbMText
 10
656.2070764990159
 20
476.3672851621869
 30
0.0
 40
6.0
 41
0.0
 71
     5
 72
     1
  1
\A1;8
 73
     1
 44
1.0
  0
POINT
  5
21A5
330
2106
100
AcDbEntity
  8
DEFPOINTS
 62
     0
100
AcDbPoint
 10
652.2070764990158
 20
458.7854054052098
 30
0.0
  0
POINT
  5
21A6
330
2106
100
AcDbEntity
  8
DEFPOINTS
 62
     0
100
AcDbPoint
 10
660.207076499016
 20
448.7854054052097
 30
0.0
  0
POINT
  5
21A7
330
2106
100
AcDbEntity
  8
DEFPOINTS
 62
     0
100
AcDbPoint
 10
660.207076499016
 20
472.3672851621869
 30
0.0
  0
ENDBLK
  5
2113
330
2106
100
AcDbEntity
  8
0
100
AcDbBlockEnd
  0
BLOCK
  5
2953
330
2949
100
AcDbEntity
  8
0
100
AcDbBlockBegin
  2
*D7
 70
     1
 71
     0
 10
0.0
 20
0.0
 30
0.0
  3
*D7
  1

  0
LINE
  5
29DB
330
2949
100
AcDbEntity
  8
SUNPOU
  6
Continuous
 62
     4
370
    -2
100
AcDbLine
 10
358.2331192416547
 20
266.573794807935
 30
0.0
 11
358.2331192416547
 21
296.2395986742693
 31
0.0
  0
LINE
  5
29DC
330
2949
100
AcDbEntity
  8
SUNPOU
  6
Continuous
 62
     4
370
    -2
100
AcDbLine
 10
138.2326192416547
 20
266.5740948079349
 30
0.0
 11
138.2326192416547
 21
296.2395986742693
 31
0.0
  0
LINE
  5
29DD
330
2949
100
AcDbEntity
  8
SUNPOU
  6
Continuous
 62
     4
370
    -2
100
AcDbLine
 10
351.2331192416547
 20
293.2395986742693
 30
0.0
 11
145.2326192416547
 21
293.2395986742693
 31
0.0
  0
INSERT
  5
29DE
330
2949
100
AcDbEntity
  8
SUNPOU
  6
Continuous
 62
     4
370
    -2
100
AcDbBlockReference
  2
_OPEN
 10
358.2331192416547
 20
293.2395986742693
 30
0.0
 41
7.0
 42
7.0
 43
7.0
  0
INSERT
  5
29DF
330
2949
100
AcDbEntity
  8
SUNPOU
  6
Continuous
 62
     4
370
    -2
100
AcDbBlockReference
  2
_OPEN
 10
138.2326192416547
 20
293.2395986742693
 30
0.0
 41
7.0
 42
7.0
 43
7.0
 50
180.0
  0
MTEXT
  5
29E0
330
2949
100
AcDbEntity
  8
SUNPOU
  6
Continuous
 62
     4
100
AcDbMText
 10
248.2328692416547
 20
298.2395986742693
 30
0.0
 40
6.0
 41
0.0
 71
     5
 72
     1
  1
\A1;220
 73
     1
 44
1.0
  0
POINT
  5
29E1
330
2949
100
AcDbEntity
  8
DEFPOINTS
  6
Continuous
 62
     0
100
AcDbPoint
 10
358.2331192416547
 20
260.573794807935
 30
0.0
  0
POINT
  5
29E2
330
2949
100
AcDbEntity
  8
DEFPOINTS
  6
Continuous
 62
     0
100
AcDbPoint
 10
138.2326192416547
 20
260.5740948079349
 30
0.0
  0
POINT
  5
29E3
330
2949
100
AcDbEntity
  8
DEFPOINTS
  6
Continuous
 62
     0
100
AcDbPoint
 10
138.2326192416547
 20
293.2395986742693
 30
0.0
  0
ENDBLK
  5
2954
330
2949
100
AcDbEntity
  8
0
100
AcDbBlockEnd
  0
BLOCK
  5
295F
330
2955
100
AcDbEntity
  8
0
100
AcDbBlockBegin
  2
*D8
 70
     1
 71
     0
 10
0.0
 20
0.0
 30
0.0
  3
*D8
  1

  0
LINE
  5
29E4
330
2955
100
AcDbEntity
  8
SUNPOU
  6
Continuous
 62
     4
370
    -2
100
AcDbLine
 10
327.2327612199342
 20
138.6738906093561
 30
0.0
 11
327.2327612199342
 21
47.04288057726285
 31
0.0
  0
LINE
  5
29E5
330
2955
100
AcDbEntity
  8
SUNPOU
  6
Continuous
 62
     4
370
    -2
100
AcDbLine
 10
169.2324470513146
 20
138.6740969072634
 30
0.0
 11
169.2324470513146
 21
47.04288057726285
 31
0.0
  0
LINE
  5
29E6
330
2955
100
AcDbEntity
  8
SUNPOU
  6
Continuous
 62
     4
370
    -2
100
AcDbLine
 10
320.2327612199342
 20
50.04288057726285
 30
0.0
 11
176.2324470513146
 21
50.04288057726285
 31
0.0
  0
INSERT
  5
29E7
330
2955
100
AcDbEntity
  8
SUNPOU
  6
Continuous
 62
     4
370
    -2
100
AcDbBlockReference
  2
_OPEN
 10
327.2327612199342
 20
50.04288057726285
 30
0.0
 41
7.0
 42
7.0
 43
7.0
  0
INSERT
  5
29E8
330
2955
100
AcDbEntity
  8
SUNPOU
  6
Continuous
 62
     4
370
    -2
100
AcDbBlockReference
  2
_OPEN
 10
169.2324470513146
 20
50.04288057726285
 30
0.0
 41
7.0
 42
7.0
 43
7.0
 50
180.0
  0
MTEXT
  5
29E9
330
2955
100
AcDbEntity
  8
SUNPOU
  6
Continuous
 62
     4
100
AcDbMText
 10
248.2326041356243
 20
55.04288057726285
 30
0.0
 40
6.0
 41
0.0
 71
     5
 72
     1
  1
\A1;158
 73
     1
 44
1.0
  0
POINT
  5
29EA
330
2955
100
AcDbEntity
  8
DEFPOINTS
  6
Continuous
 62
     0
100
AcDbPoint
 10
327.2327612199342
 20
144.6738906093561
 30
0.0
  0
POINT
  5
29EB
330
2955
100
AcDbEntity
  8
DEFPOINTS
  6
Continuous
 62
     0
100
AcDbPoint
 10
169.2324470513146
 20
144.6740969072634
 30
0.0
  0
POINT
  5
29EC
330
2955
100
AcDbEntity
  8
DEFPOINTS
  6
Continuous
 62
     0
100
AcDbPoint
 10
169.2324470513146
 20
50.04288057726285
 30
0.0
  0
ENDBLK
  5
2960
330
2955
100
AcDbEntity
  8
0
100
AcDbBlockEnd
  0
BLOCK
  5
296B
330
2961
100
AcDbEntity
  8
0
100
AcDbBlockBegin
  2
*D9
 70
     1
 71
     0
 10
0.0
 20
0.0
 30
0.0
  3
*D9
  1

  0
LINE
  5
29ED
330
2961
100
AcDbEntity
  8
SUNPOU
 62
     4
370
    -2
100
AcDbLine
 10
220.1306830587864
 20
373.1948625991465
 30
0.0
 11
220.1306830587864
 21
315.5281527803736
 31
0.0
  0
LINE
  5
29EE
330
2961
100
AcDbEntity
  8
SUNPOU
 62
     4
370
    -2
100
AcDbLine
 10
280.1306830587864
 20
373.1949270169864
 30
0.0
 11
280.1306830587864
 21
315.5281527803736
 31
0.0
  0
LINE
  5
29EF
330
2961
100
AcDbEntity
  8
SUNPOU
 62
     4
370
    -2
100
AcDbLine
 10
227.1306830587864
 20
318.5281527803736
 30
0.0
 11
273.1306830587864
 21
318.5281527803736
 31
0.0
  0
INSERT
  5
29F0
330
2961
100
AcDbEntity
  8
SUNPOU
 62
     4
370
    -2
100
AcDbBlockReference
  2
_OPEN
 10
220.1306830587864
 20
318.5281527803736
 30
0.0
 41
7.0
 42
7.0
 43
7.0
 50
180.0
  0
INSERT
  5
29F1
330
2961
100
AcDbEntity
  8
SUNPOU
 62
     4
370
    -2
100
AcDbBlockReference
  2
_OPEN
 10
280.1306830587864
 20
318.5281527803736
 30
0.0
 41
7.0
 42
7.0
 43
7.0
  0
MTEXT
  5
29F2
330
2961
100
AcDbEntity
  8
SUNPOU
 62
     4
100
AcDbMText
 10
250.1306830587864
 20
323.5281527803736
 30
0.0
 40
6.0
 41
0.0
 71
     5
 72
     1
  1
\A1;※ 60
 73
     1
 44
1.0
  0
POINT
  5
29F3
330
2961
100
AcDbEntity
  8
DEFPOINTS
 62
     0
100
AcDbPoint
 10
220.1306830587864
 20
379.1948625991465
 30
0.0
  0
POINT
  5
29F4
330
2961
100
AcDbEntity
  8
DEFPOINTS
 62
     0
100
AcDbPoint
 10
280.1306830587864
 20
379.1949270169864
 30
0.0
  0
POINT
  5
29F5
330
2961
100
AcDbEntity
  8
DEFPOINTS
 62
     0
100
AcDbPoint
 10
280.1306830587864
 20
318.5281527803736
 30
0.0
  0
ENDBLK
  5
296C
330
2961
100
AcDbEntity
  8
0
100
AcDbBlockEnd
  0
BLOCK
  5
2977
330
296D
100
AcDbEntity
  8
0
100
AcDbBlockBegin
  2
*D10
 70
     1
 71
     0
 10
0.0
 20
0.0
 30
0.0
  3
*D10
  1

  0
LINE
  5
29F6
330
296D
100
AcDbEntity
  8
SUNPOU
  6
Continuous
 62
     4
370
    -2
100
AcDbLine
 10
640.6220192416547
 20
243.1737948079349
 30
0.0
 11
640.6220192416547
 21
290.9168556601123
 31
0.0
  0
LINE
  5
29F7
330
296D
100
AcDbEntity
  8
SUNPOU
  6
Continuous
 62
     4
370
    -2
100
AcDbLine
 10
475.6220192416546
 20
266.573794807935
 30
0.0
 11
475.6220192416546
 21
290.9168556601123
 31
0.0
  0
LINE
  5
29F8
330
296D
100
AcDbEntity
  8
SUNPOU
  6
Continuous
 62
     4
370
    -2
100
AcDbLine
 10
633.6220192416547
 20
287.9168556601123
 30
0.0
 11
482.6220192416546
 21
287.9168556601123
 31
0.0
  0
INSERT
  5
29F9
330
296D
100
AcDbEntity
  8
SUNPOU
  6
Continuous
 62
     4
370
    -2
100
AcDbBlockReference
  2
_OPEN
 10
640.6220192416547
 20
287.9168556601123
 30
0.0
 41
7.0
 42
7.0
 43
7.0
  0
INSERT
  5
29FA
330
296D
100
AcDbEntity
  8
SUNPOU
  6
Continuous
 62
     4
370
    -2
100
AcDbBlockReference
  2
_OPEN
 10
475.6220192416546
 20
287.9168556601123
 30
0.0
 41
7.0
 42
7.0
 43
7.0
 50
180.0
  0
MTEXT
  5
29FB
330
296D
100
AcDbEntity
  8
SUNPOU
  6
Continuous
 62
     4
100
AcDbMText
 10
558.1220192416547
 20
292.9168556601123
 30
0.0
 40
6.0
 41
0.0
 71
     5
 72
     1
  1
\A1;165
 73
     1
 44
1.0
  0
POINT
  5
29FC
330
296D
100
AcDbEntity
  8
DEFPOINTS
  6
Continuous
 62
     0
100
AcDbPoint
 10
640.6220192416547
 20
237.1737948079349
 30
0.0
  0
POINT
  5
29FD
330
296D
100
AcDbEntity
  8
DEFPOINTS
  6
Continuous
 62
     0
100
AcDbPoint
 10
475.6220192416546
 20
260.573794807935
 30
0.0
  0
POINT
  5
29FE
330
296D
100
AcDbEntity
  8
DEFPOINTS
  6
Continuous
 62
     0
100
AcDbPoint
 10
475.6220192416546
 20
287.9168556601123
 30
0.0
  0
ENDBLK
  5
2978
330
296D
100
AcDbEntity
  8
0
100
AcDbBlockEnd
  0
BLOCK
  5
2983
330
2979
100
AcDbEntity
  8
0
100
AcDbBlockBegin
  2
*D11
 70
     1
 71
     0
 10
0.0
 20
0.0
 30
0.0
  3
*D11
  1

  0
LINE
  5
29FF
330
2979
100
AcDbEntity
  8
SUNPOU
  6
Continuous
 62
     4
370
    -2
100
AcDbLine
 10
646.6220192416547
 20
237.1737948079349
 30
0.0
 11
674.0606569948718
 21
237.1737948079349
 31
0.0
  0
LINE
  5
2A00
330
2979
100
AcDbEntity
  8
SUNPOU
  6
Continuous
 62
     4
370
    -2
100
AcDbLine
 10
626.1608192416547
 20
167.6737948079349
 30
0.0
 11
674.0606569948718
 21
167.6737948079349
 31
0.0
  0
LINE
  5
2A01
330
2979
100
AcDbEntity
  8
SUNPOU
  6
Continuous
 62
     4
370
    -2
100
AcDbLine
 10
671.0606569948718
 20
230.1737948079349
 30
0.0
 11
671.0606569948718
 21
174.6737948079349
 31
0.0
  0
INSERT
  5
2A02
330
2979
100
AcDbEntity
  8
SUNPOU
  6
Continuous
 62
     4
370
    -2
100
AcDbBlockReference
  2
_OPEN
 10
671.0606569948718
 20
237.1737948079349
 30
0.0
 41
7.0
 42
7.0
 43
7.0
 50
90.0
  0
INSERT
  5
2A03
330
2979
100
AcDbEntity
  8
SUNPOU
  6
Continuous
 62
     4
370
    -2
100
AcDbBlockReference
  2
_OPEN
 10
671.0606569948718
 20
167.6737948079349
 30
0.0
 41
7.0
 42
7.0
 43
7.0
 50
270.0
  0
MTEXT
  5
2A04
330
2979
100
AcDbEntity
  8
SUNPOU
  6
Continuous
 62
     4
100
AcDbMText
 10
666.0606569948718
 20
202.423794807935
 30
0.0
 40
6.0
 41
0.0
 71
     5
 72
     1
  1
\A1;70
 11
6.123031769111886E-17
 21
1.0
 31
0.0
 73
     1
 44
1.0
  0
POINT
  5
2A05
330
2979
100
AcDbEntity
  8
DEFPOINTS
  6
Continuous
 62
     0
100
AcDbPoint
 10
640.6220192416547
 20
237.1737948079349
 30
0.0
  0
POINT
  5
2A06
330
2979
100
AcDbEntity
  8
DEFPOINTS
  6
Continuous
 62
     0
100
AcDbPoint
 10
620.1608192416547
 20
167.6737948079349
 30
0.0
  0
POINT
  5
2A07
330
2979
100
AcDbEntity
  8
DEFPOINTS
  6
Continuous
 62
     0
100
AcDbPoint
 10
671.0606569948718
 20
167.6737948079349
 30
0.0
  0
ENDBLK
  5
2984
330
2979
100
AcDbEntity
  8
0
100
AcDbBlockEnd
  0
BLOCK
  5
298E
330
2985
100
AcDbEntity
  8
0
100
AcDbBlockBegin
  2
*D12
 70
     1
 71
     0
 10
0.0
 20
0.0
 30
0.0
  3
*D12
  1

  0
LINE
  5
2A08
330
2985
100
AcDbEntity
  8
SUNPOU
  6
Continuous
 62
     4
370
    -2
100
AcDbLine
 10
531.2222192416546
 20
92.67379480793494
 30
0.0
 11
432.2145078237149
 21
92.67379480793495
 31
0.0
  0
LINE
  5
2A09
330
2985
100
AcDbEntity
  8
SUNPOU
  6
Continuous
 62
     4
370
    -2
100
AcDbLine
 10
435.2145078237149
 20
121.673794807935
 30
0.0
 11
435.2145078237149
 21
99.67379480793495
 31
0.0
  0
INSERT
  5
2A0A
330
2985
100
AcDbEntity
  8
SUNPOU
  6
Continuous
 62
     4
370
    -2
100
AcDbBlockReference
  2
_OPEN
 10
435.214507823715
 20
128.673794807935
 30
0.0
 41
7.0
 42
7.0
 43
7.0
 50
90.0
  0
INSERT
  5
2A0B
330
2985
100
AcDbEntity
  8
SUNPOU
  6
Continuous
 62
     4
370
    -2
100
AcDbBlockReference
  2
_OPEN
 10
435.2145078237149
 20
92.67379480793495
 30
0.0
 41
7.0
 42
7.0
 43
7.0
 50
270.0
  0
MTEXT
  5
2A0C
330
2985
100
AcDbEntity
  8
SUNPOU
  6
Continuous
 62
     4
100
AcDbMText
 10
430.2145078237149
 20
110.673794807935
 30
0.0
 40
6.0
 41
0.0
 71
     5
 72
     1
  1
\A1;36
 11
6.123031769111886E-17
 21
1.0
 31
0.0
 73
     1
 44
1.0
  0
POINT
  5
2A0D
330
2985
100
AcDbEntity
  8
DEFPOINTS
  6
Continuous
 62
     0
100
AcDbPoint
 10
530.5493192416545
 20
128.6737948079349
 30
0.0
  0
POINT
  5
2A0E
330
2985
100
AcDbEntity
  8
DEFPOINTS
  6
Continuous
 62
     0
100
AcDbPoint
 10
537.2222192416546
 20
92.67379480793494
 30
0.0
  0
POINT
  5
2A0F
330
2985
100
AcDbEntity
  8
DEFPOINTS
  6
Continuous
 62
     0
100
AcDbPoint
 10
435.2145078237149
 20
92.67379480793495
 30
0.0
  0
ENDBLK
  5
298F
330
2985
100
AcDbEntity
  8
0
100
AcDbBlockEnd
  0
BLOCK
  5
299A
330
2990
100
AcDbEntity
  8
0
100
AcDbBlockBegin
  2
*D13
 70
     1
 71
     0
 10
0.0
 20
0.0
 30
0.0
  3
*D13
  1

  0
LINE
  5
2A10
330
2990
100
AcDbEntity
  8
SUNPOU
  6
Continuous
 62
     4
370
    -2
100
AcDbLine
 10
625.0218192416546
 20
87.67379480793494
 30
0.0
 11
625.0218192416546
 21
47.04288057726285
 31
0.0
  0
LINE
  5
2A11
330
2990
100
AcDbEntity
  8
SUNPOU
  6
Continuous
 62
     4
370
    -2
100
AcDbLine
 10
536.2222192416546
 20
87.67379480793494
 30
0.0
 11
536.2222192416546
 21
47.04288057726285
 31
0.0
  0
LINE
  5
2A12
330
2990
100
AcDbEntity
  8
SUNPOU
  6
Continuous
 62
     4
370
    -2
100
AcDbLine
 10
618.0218192416546
 20
50.04288057726285
 30
0.0
 11
543.2222192416546
 21
50.04288057726285
 31
0.0
  0
INSERT
  5
2A13
330
2990
100
AcDbEntity
  8
SUNPOU
  6
Continuous
 62
     4
370
    -2
100
AcDbBlockReference
  2
_OPEN
 10
625.0218192416546
 20
50.04288057726285
 30
0.0
 41
7.0
 42
7.0
 43
7.0
  0
INSERT
  5
2A14
330
2990
100
AcDbEntity
  8
SUNPOU
  6
Continuous
 62
     4
370
    -2
100
AcDbBlockReference
  2
_OPEN
 10
536.2222192416546
 20
50.04288057726285
 30
0.0
 41
7.0
 42
7.0
 43
7.0
 50
180.0
  0
MTEXT
  5
2A15
330
2990
100
AcDbEntity
  8
SUNPOU
  6
Continuous
 62
     4
100
AcDbMText
 10
580.6220192416546
 20
55.04288057726285
 30
0.0
 40
6.0
 41
0.0
 71
     5
 72
     1
  1
\A1;φ89
 73
     1
 44
1.0
  0
POINT
  5
2A16
330
2990
100
AcDbEntity
  8
DEFPOINTS
  6
Continuous
 62
     0
100
AcDbPoint
 10
625.0218192416546
 20
93.67379480793494
 30
0.0
  0
POINT
  5
2A17
330
2990
100
AcDbEntity
  8
DEFPOINTS
  6
Continuous
 62
     0
100
AcDbPoint
 10
536.2222192416546
 20
93.67379480793494
 30
0.0
  0
POINT
  5
2A18
330
2990
100
AcDbEntity
  8
DEFPOINTS
  6
Continuous
 62
     0
100
AcDbPoint
 10
536.2222192416546
 20
50.04288057726285
 30
0.0
  0
ENDBLK
  5
299B
330
2990
100
AcDbEntity
  8
0
100
AcDbBlockEnd
  0
BLOCK
  5
29A6
330
299C
100
AcDbEntity
  8
0
100
AcDbBlockBegin
  2
*D14
 70
     1
 71
     0
 10
0.0
 20
0.0
 30
0.0
  3
*D14
  1

  0
LINE
  5
2A19
330
299C
100
AcDbEntity
  8
SUNPOU
  6
Continuous
 62
     4
370
    -2
100
AcDbLine
 10
469.6220192416546
 20
260.573794807935
 30
0.0
 11
432.2145078237149
 21
260.573794807935
 31
0.0
  0
LINE
  5
2A1A
330
299C
100
AcDbEntity
  8
SUNPOU
  6
Continuous
 62
     4
370
    -2
100
AcDbLine
 10
512.3781192416546
 20
144.6737948079349
 30
0.0
 11
432.2145078237149
 21
144.673794807935
 31
0.0
  0
LINE
  5
2A1B
330
299C
100
AcDbEntity
  8
SUNPOU
  6
Continuous
 62
     4
370
    -2
100
AcDbLine
 10
435.2145078237149
 20
253.573794807935
 30
0.0
 11
435.2145078237149
 21
151.673794807935
 31
0.0
  0
INSERT
  5
2A1C
330
299C
100
AcDbEntity
  8
SUNPOU
  6
Continuous
 62
     4
370
    -2
100
AcDbBlockReference
  2
_OPEN
 10
435.2145078237149
 20
260.573794807935
 30
0.0
 41
7.0
 42
7.0
 43
7.0
 50
90.0
  0
INSERT
  5
2A1D
330
299C
100
AcDbEntity
  8
SUNPOU
  6
Continuous
 62
     4
370
    -2
100
AcDbBlockReference
  2
_OPEN
 10
435.2145078237149
 20
144.673794807935
 30
0.0
 41
7.0
 42
7.0
 43
7.0
 50
270.0
  0
MTEXT
  5
2A1E
330
299C
100
AcDbEntity
  8
SUNPOU
  6
Continuous
 62
     4
100
AcDbMText
 10
430.2145078237149
 20
202.623794807935
 30
0.0
 40
6.0
 41
0.0
 71
     5
 72
     1
  1
\A1;116
 11
6.123031769111886E-17
 21
1.0
 31
0.0
 73
     1
 44
1.0
  0
POINT
  5
2A1F
330
299C
100
AcDbEntity
  8
DEFPOINTS
  6
Continuous
 62
     0
100
AcDbPoint
 10
475.6220192416546
 20
260.573794807935
 30
0.0
  0
POINT
  5
2A20
330
299C
100
AcDbEntity
  8
DEFPOINTS
  6
Continuous
 62
     0
100
AcDbPoint
 10
518.3781192416546
 20
144.6737948079349
 30
0.0
  0
POINT
  5
2A21
330
299C
100
AcDbEntity
  8
DEFPOINTS
  6
Continuous
 62
     0
100
AcDbPoint
 10
435.2145078237149
 20
144.673794807935
 30
0.0
  0
ENDBLK
  5
29A7
330
299C
100
AcDbEntity
  8
0
100
AcDbBlockEnd
  0
BLOCK
  5
29B2
330
29A8
100
AcDbEntity
  8
0
100
AcDbBlockBegin
  2
*D15
 70
     1
 71
     0
 10
0.0
 20
0.0
 30
0.0
  3
*D15
  1

  0
LINE
  5
2A22
330
29A8
100
AcDbEntity
  8
SUNPOU
  6
Continuous
 62
     4
370
    -2
100
AcDbLine
 10
469.6220192416546
 20
260.573794807935
 30
0.0
 11
451.4019906733947
 21
260.573794807935
 31
0.0
  0
LINE
  5
2A23
330
29A8
100
AcDbEntity
  8
SUNPOU
  6
Continuous
 62
     4
370
    -2
100
AcDbLine
 10
527.7066192416546
 20
167.6737948079349
 30
0.0
 11
451.4019906733947
 21
167.6737948079349
 31
0.0
  0
LINE
  5
2A24
330
29A8
100
AcDbEntity
  8
SUNPOU
  6
Continuous
 62
     4
370
    -2
100
AcDbLine
 10
454.4019906733947
 20
253.573794807935
 30
0.0
 11
454.4019906733947
 21
174.6737948079349
 31
0.0
  0
INSERT
  5
2A25
330
29A8
100
AcDbEntity
  8
SUNPOU
  6
Continuous
 62
     4
370
    -2
100
AcDbBlockReference
  2
_OPEN
 10
454.4019906733947
 20
260.573794807935
 30
0.0
 41
7.0
 42
7.0
 43
7.0
 50
90.0
  0
INSERT
  5
2A26
330
29A8
100
AcDbEntity
  8
SUNPOU
  6
Continuous
 62
     4
370
    -2
100
AcDbBlockReference
  2
_OPEN
 10
454.4019906733947
 20
167.6737948079349
 30
0.0
 41
7.0
 42
7.0
 43
7.0
 50
270.0
  0
MTEXT
  5
2A27
330
29A8
100
AcDbEntity
  8
SUNPOU
  6
Continuous
 62
     4
100
AcDbMText
 10
449.4019906733947
 20
214.123794807935
 30
0.0
 40
6.0
 41
0.0
 71
     5
 72
     1
  1
\A1;93
 11
6.123031769111886E-17
 21
1.0
 31
0.0
 73
     1
 44
1.0
  0
POINT
  5
2A28
330
29A8
100
AcDbEntity
  8
DEFPOINTS
  6
Continuous
 62
     0
100
AcDbPoint
 10
475.6220192416546
 20
260.573794807935
 30
0.0
  0
POINT
  5
2A29
330
29A8
100
AcDbEntity
  8
DEFPOINTS
  6
Continuous
 62
     0
100
AcDbPoint
 10
533.7066192416546
 20
167.6737948079349
 30
0.0
  0
POINT
  5
2A2A
330
29A8
100
AcDbEntity
  8
DEFPOINTS
  6
Continuous
 62
     0
100
AcDbPoint
 10
454.4019906733947
 20
167.6737948079349
 30
0.0
  0
ENDBLK
  5
29B3
330
29A8
100
AcDbEntity
  8
0
100
AcDbBlockEnd
  0
BLOCK
  5
29BF
330
29B4
100
AcDbEntity
  8
0
100
AcDbBlockBegin
  2
*D16
 70
     1
 71
     0
 10
0.0
 20
0.0
 30
0.0
  3
*D16
  1

  0
LINE
  5
2A2B
330
29B4
100
AcDbEntity
  8
SUNPOU
  6
Continuous
 62
     4
370
    -2
100
AcDbLine
 10
524.5493192416545
 20
128.6737948079349
 30
0.0
 11
432.2145078237149
 21
128.673794807935
 31
0.0
  0
LINE
  5
2A2C
330
29B4
100
AcDbEntity
  8
SUNPOU
  6
Continuous
 62
     4
370
    -2
100
AcDbLine
 10
435.2145078237149
 20
151.673794807935
 30
0.0
 11
435.2145078237149
 21
158.673794807935
 31
0.0
  0
LINE
  5
2A2D
330
29B4
100
AcDbEntity
  8
SUNPOU
  6
Continuous
 62
     4
370
    -2
100
AcDbLine
 10
435.2145078237149
 20
121.673794807935
 30
0.0
 11
435.2145078237149
 21
114.673794807935
 31
0.0
  0
LINE
  5
2A2E
330
29B4
100
AcDbEntity
  8
SUNPOU
  6
Continuous
 62
     4
370
    -2
100
AcDbLine
 10
435.2145078237149
 20
144.673794807935
 30
0.0
 11
435.2145078237149
 21
128.673794807935
 31
0.0
  0
INSERT
  5
2A2F
330
29B4
100
AcDbEntity
  8
SUNPOU
  6
Continuous
 62
     4
370
    -2
100
AcDbBlockReference
  2
_OPEN
 10
435.2145078237149
 20
144.673794807935
 30
0.0
 41
7.0
 42
7.0
 43
7.0
 50
270.0
  0
INSERT
  5
2A30
330
29B4
100
AcDbEntity
  8
SUNPOU
  6
Continuous
 62
     4
370
    -2
100
AcDbBlockReference
  2
_OPEN
 10
435.2145078237149
 20
128.673794807935
 30
0.0
 41
7.0
 42
7.0
 43
7.0
 50
90.0
  0
MTEXT
  5
2A31
330
29B4
100
AcDbEntity
  8
SUNPOU
  6
Continuous
 62
     4
100
AcDbMText
 10
430.2145078237149
 20
136.673794807935
 30
0.0
 40
6.0
 41
0.0
 71
     5
 72
     1
  1
\A1;16
 11
6.123031769111886E-17
 21
1.0
 31
0.0
 73
     1
 44
1.0
  0
POINT
  5
2A32
330
29B4
100
AcDbEntity
  8
DEFPOINTS
  6
Continuous
 62
     0
100
AcDbPoint
 10
518.3781192416546
 20
144.6737948079349
 30
0.0
  0
POINT
  5
2A33
330
29B4
100
AcDbEntity
  8
DEFPOINTS
  6
Continuous
 62
     0
100
AcDbPoint
 10
530.5493192416545
 20
128.6737948079349
 30
0.0
  0
POINT
  5
2A34
330
29B4
100
AcDbEntity
  8
DEFPOINTS
  6
Continuous
 62
     0
100
AcDbPoint
 10
435.2145078237149
 20
128.673794807935
 30
0.0
  0
ENDBLK
  5
29C0
330
29B4
100
AcDbEntity
  8
0
100
AcDbBlockEnd
  0
BLOCK
  5
29CD
330
29C1
100
AcDbEntity
  8
0
100
AcDbBlockBegin
  2
*D17
 70
     1
 71
     0
 10
0.0
 20
0.0
 30
0.0
  3
*D17
  1

  0
LINE
  5
2A35
330
29C1
100
AcDbEntity
  8
SUNPOU
  6
Continuous
 62
     4
370
    -2
100
AcDbLine
 10
577.0220192416546
 20
189.4590948079349
 30
0.0
 11
577.0220192416546
 21
209.9709225040263
 31
0.0
  0
LINE
  5
2A36
330
29C1
100
AcDbEntity
  8
SUNPOU
  6
Continuous
 62
     4
370
    -2
100
AcDbLine
 10
580.6220192416548
 20
120.1764818172084
 30
0.0
 11
580.6220192416548
 21
209.9709225040263
 31
0.0
  0
LINE
  5
2A37
330
29C1
100
AcDbEntity
  8
SUNPOU
  6
Continuous
 62
     4
370
    -2
100
AcDbLine
 10
570.0220192416546
 20
206.9709225040263
 30
0.0
 11
563.0220192416546
 21
206.9709225040263
 31
0.0
  0
LINE
  5
2A38
330
29C1
100
AcDbEntity
  8
SUNPOU
  6
Continuous
 62
     4
370
    -2
100
AcDbLine
 10
587.6220192416548
 20
206.9709225040263
 30
0.0
 11
602.6220192416548
 21
206.9709225040263
 31
0.0
  0
LINE
  5
2A39
330
29C1
100
AcDbEntity
  8
SUNPOU
  6
Continuous
 62
     4
370
    -2
100
AcDbLine
 10
577.0220192416546
 20
206.9709225040263
 30
0.0
 11
580.6220192416548
 21
206.9709225040263
 31
0.0
  0
INSERT
  5
2A3A
330
29C1
100
AcDbEntity
  8
SUNPOU
  6
Continuous
 62
     4
370
    -2
100
AcDbBlockReference
  2
_OPEN
 10
577.0220192416546
 20
206.9709225040263
 30
0.0
 41
7.0
 42
7.0
 43
7.0
  0
INSERT
  5
2A3B
330
29C1
100
AcDbEntity
  8
SUNPOU
  6
Continuous
 62
     4
370
    -2
100
AcDbBlockReference
  2
_OPEN
 10
580.6220192416548
 20
206.9709225040263
 30
0.0
 41
7.0
 42
7.0
 43
7.0
 50
180.0
  0
MTEXT
  5
2A3C
330
29C1
100
AcDbEntity
  8
SUNPOU
  6
Continuous
 62
     4
100
AcDbMText
 10
598.6220192416548
 20
211.9709225040263
 30
0.0
 40
6.0
 41
0.0
 71
     5
 72
     1
  1
\A1;4
 73
     1
 44
1.0
  0
POINT
  5
2A3D
330
29C1
100
AcDbEntity
  8
DEFPOINTS
  6
Continuous
 62
     0
100
AcDbPoint
 10
577.0220192416546
 20
183.4590948079349
 30
0.0
  0
POINT
  5
2A3E
330
29C1
100
AcDbEntity
  8
DEFPOINTS
  6
Continuous
 62
     0
100
AcDbPoint
 10
580.6220192416548
 20
114.1764818172084
 30
0.0
  0
POINT
  5
2A3F
330
29C1
100
AcDbEntity
  8
DEFPOINTS
  6
Continuous
 62
     0
100
AcDbPoint
 10
580.6220192416548
 20
206.9709225040263
 30
0.0
  0
ENDBLK
  5
29CE
330
29C1
100
AcDbEntity
  8
0
100
AcDbBlockEnd
  0
BLOCK
  5
29D9
330
29CF
100
AcDbEntity
  8
0
100
AcDbBlockBegin
  2
*D18
 70
     1
 71
     0
 10
0.0
 20
0.0
 30
0.0
  3
*D18
  1

  0
LINE
  5
2A40
330
29CF
100
AcDbEntity
  8
SUNPOU
  6
Continuous
 62
     4
370
    -2
100
AcDbLine
 10
640.6220192416547
 20
243.1737948079349
 30
0.0
 11
640.6220192416547
 21
270.9464365125793
 31
0.0
  0
LINE
  5
2A41
330
29CF
100
AcDbEntity
  8
SUNPOU
  6
Continuous
 62
     4
370
    -2
100
AcDbLine
 10
577.0220192416546
 20
189.4590948079349
 30
0.0
 11
577.0220192416546
 21
270.9464365125793
 31
0.0
  0
LINE
  5
2A42
330
29CF
100
AcDbEntity
  8
SUNPOU
  6
Continuous
 62
     4
370
    -2
100
AcDbLine
 10
633.6220192416547
 20
267.9464365125793
 30
0.0
 11
584.0220192416546
 21
267.9464365125793
 31
0.0
  0
INSERT
  5
2A43
330
29CF
100
AcDbEntity
  8
SUNPOU
  6
Continuous
 62
     4
370
    -2
100
AcDbBlockReference
  2
_OPEN
 10
640.6220192416547
 20
267.9464365125793
 30
0.0
 41
7.0
 42
7.0
 43
7.0
  0
INSERT
  5
2A44
330
29CF
100
AcDbEntity
  8
SUNPOU
  6
Continuous
 62
     4
370
    -2
100
AcDbBlockReference
  2
_OPEN
 10
577.0220192416546
 20
267.9464365125793
 30
0.0
 41
7.0
 42
7.0
 43
7.0
 50
180.0
  0
MTEXT
  5
2A45
330
29CF
100
AcDbEntity
  8
SUNPOU
  6
Continuous
 62
     4
100
AcDbMText
 10
608.8220192416546
 20
272.9464365125793
 30
0.0
 40
6.0
 41
0.0
 71
     5
 72
     1
  1
\A1;64
 73
     1
 44
1.0
  0
POINT
  5
2A46
330
29CF
100
AcDbEntity
  8
DEFPOINTS
  6
Continuous
 62
     0
100
AcDbPoint
 10
640.6220192416547
 20
237.1737948079349
 30
0.0
  0
POINT
  5
2A47
330
29CF
100
AcDbEntity
  8
DEFPOINTS
  6
Continuous
 62
     0
100
AcDbPoint
 10
577.0220192416546
 20
183.4590948079349
 30
0.0
  0
POINT
  5
2A48
330
29CF
100
AcDbEntity
  8
DEFPOINTS
  6
Continuous
 62
     0
100
AcDbPoint
 10
577.0220192416546
 20
267.9464365125793
 30
0.0
  0
ENDBLK
  5
29DA
330
29CF
100
AcDbEntity
  8
0
100
AcDbBlockEnd
  0
ENDSEC
  0
SECTION
  2
ENTITIES
  0
TEXT
  5
9DF
330
1A
100
AcDbEntity
  8
SUNPOU
100
AcDbText
 10
676.296058680618
 20
45.3789568130245
 30
0.0
 40
6.0
  1
※ 軒樋の差込寸法を示す
100
AcDbText
  0
TEXT
  5
EDF
330
1A
100
AcDbEntity
  8
SUNPOU
 62
     4
100
AcDbText
 10
544.754825136059
 20
405.4713357348927
 30
0.0
 40
6.0
  1
じょうご用ストッパー２個入り
100
AcDbText
  0
LINE
  5
18CA
330
1A
100
AcDbEntity
  8
ZUWAKU
100
AcDbLine
 10
208.6466016834092
 20
15.19999965533645
 30
0.0
 11
447.4243643643326
 21
15.19999965533644
 31
0.0
  0
LINE
  5
18CB
330
1A
100
AcDbEntity
  8
ZUWAKU
100
AcDbLine
 10
208.6466016834092
 20
15.59999965533644
 30
0.0
 11
447.4243643643326
 21
15.59999965533645
 31
0.0
  0
LINE
  5
18CC
330
1A
100
AcDbEntity
  8
ZUWAKU
100
AcDbLine
 10
208.6466016834092
 20
15.39999965533644
 30
0.0
 11
447.4243643643326
 21
15.39999965533644
 31
0.0
  0
LINE
  5
18CD
330
1A
100
AcDbEntity
  8
ZUWAKU
100
AcDbLine
 10
0.0000003933412245
 20
30.79999965533642
 30
0.0
 11
797.4000003933411
 21
30.79999965533642
 31
0.0
  0
LINE
  5
18CE
330
1A
100
AcDbEntity
  8
ZUWAKU
100
AcDbLine
 10
0.0000003933412245
 20
30.59999965533642
 30
0.0
 11
797.4000003933411
 21
30.59999965533642
 31
0.0
  0
LINE
  5
18CF
330
1A
100
AcDbEntity
  8
ZUWAKU
100
AcDbLine
 10
0.0000003933412245
 20
30.39999965533642
 30
0.0
 11
797.4000003933411
 21
30.39999965533642
 31
0.0
  0
LINE
  5
18D0
330
1A
100
AcDbEntity
  8
ZUWAKU
100
AcDbLine
 10
0.0000003933412245
 20
30.19999965533641
 30
0.0
 11
797.4000003933411
 21
30.19999965533641
 31
0.0
  0
LINE
  5
18D1
330
1A
100
AcDbEntity
  8
ZUWAKU
100
AcDbLine
 10
0.0000003933412245
 20
29.99999965533641
 30
0.0
 11
797.4000003933411
 21
29.99999965533641
 31
0.0
  0
LWPOLYLINE
  5
18D2
330
1A
100
AcDbEntity
  8
ZUWAKU
100
AcDbPolyline
 90
        4
 70
     1
 43
0.0
 10
0.2000003933411563
 20
551.3999996553365
 10
0.2000003933411563
 20
0.1999996553364554
 10
797.4000003933411
 20
0.1999996553364785
 10
797.4000003933413
 20
551.3999996553365
  0
LWPOLYLINE
  5
18D3
330
1A
100
AcDbEntity
  8
ZUWAKU
100
AcDbPolyline
 90
        4
 70
     1
 43
0.0
 10
0.6000003933411335
 20
550.9999996553365
 10
0.6000003933411335
 20
0.5999996553364326
 10
797.0000003933415
 20
0.5999996553364788
 10
797.0000003933412
 20
550.9999996553365
  0
LWPOLYLINE
  5
18D4
330
1A
100
AcDbEntity
  8
ZUWAKU
100
AcDbPolyline
 90
        4
 70
     1
 43
0.0
 10
0.0000003933412245
 20
551.5999996553364
 10
0.0000003933412245
 20
-0.0000003446635901
 10
797.6000003933414
 20
-0.0000003446635226
 10
797.6000003933414
 20
551.5999996553366
  0
LWPOLYLINE
  5
18D5
330
1A
100
AcDbEntity
  8
ZUWAKU
100
AcDbPolyline
 90
        4
 70
     1
 43
0.0
 10
0.4000003933412017
 20
551.1999996553365
 10
0.4000003933412017
 20
0.3999996553365008
 10
797.2000003933413
 20
0.3999996553364777
 10
797.2000003933413
 20
551.1999996553365
  0
LWPOLYLINE
  5
18D6
330
1A
100
AcDbEntity
  8
ZUWAKU
100
AcDbPolyline
 90
        4
 70
     1
 43
0.0
 10
0.800000393341179
 20
550.7999996553365
 10
0.800000393341179
 20
0.7999996553364781
 10
796.8000003933412
 20
0.7999996553364781
 10
796.8000003933412
 20
550.7999996553365
  0
TEXT
  5
18D7
330
1A
100
AcDbEntity
  8
moji
100
AcDbText
 10
92.95778998151036
 20
12.74117778561117
 30
0.0
 40
6.0
  1
アーバントップΣ９０
 41
0.9
  7
ｽﾀｲﾙ1
100
AcDbText
  0
HATCH
  5
18D8
330
1A
100
AcDbEntity
  8
ZUWAKU
100
AcDbHatch
 10
0.0
 20
0.0
 30
0.0
210
0.0
220
0.0
230
1.0
  2
ANSI37
 70
     0
 71
     0
 91
        8
 92
        7
 72
     1
 73
     1
 93
       24
 10
14.50226305446108
 20
17.64484813631999
 42
-0.1989123673796348
 10
14.09221254812235
 20
18.63479762998104
 42
0.0
 10
14.09221254812235
 20
19.92499965533642
 42
-0.4142135623730912
 10
14.61721254812233
 20
20.44999965533641
 42
0.0
 10
17.59221254812223
 20
20.44999965533641
 42
0.4142135623731546
 10
18.11721254812233
 20
20.9749996553364
 42
0.0
 10
18.11721254812233
 20
22.72499965533642
 42
0.4142135623731586
 10
17.59221254812223
 20
23.24999965533642
 42
0.0
 10
14.09221254812235
 20
23.24999965533642
 42
0.4142135623730928
 10
11.29221254812239
 20
20.44999965533644
 42
0.0
 10
11.29221254812239
 20
18.63479762998117
 42
0.1989123673796619
 10
12.52236406713882
 20
15.66494914899757
 42
0.0
 10
15.4321620417835
 20
12.75515117435291
 42
-0.1989123673796613
 10
15.84221254812235
 20
11.76520168069172
 42
0.0
 10
15.84221254812235
 20
10.4749996553364
 42
-0.4142135623730911
 10
15.31721254812237
 20
9.949999655336413
 42
0.0
 10
12.34221254812246
 20
9.949999655336413
 42
0.4142135623731526
 10
11.81721254812237
 20
9.424999655336425
 42
0.0
 10
11.81721254812237
 20
7.674999655336404
 42
0.4142135623731526
 10
12.34221254812246
 20
7.149999655336416
 42
0.0
 10
15.84221254812235
 20
7.149999655336416
 42
0.4142135623731044
 10
18.64221254812242
 20
9.949999655336391
 42
0.0
 10
18.64221254812242
 20
11.76520168069166
 42
0.1989123673796604
 10
17.41206102910587
 20
14.7350501616752
 42
0.0
 97
        0
 92
        7
 72
     1
 73
     1
 93
       16
 10
23.54221254812239
 20
19.04999965533642
 42
-0.4142135623730935
 10
24.94221254812237
 20
20.44999965533641
 42
0.0
 10
26.86721254812233
 20
20.44999965533641
 42
0.4142135623731546
 10
27.39221254812242
 20
20.9749996553364
 42
0.0
 10
27.39221254812242
 20
22.72499965533642
 42
0.4142135623730952
 10
26.86721254812244
 20
23.24999965533642
 42
0.0
 10
24.94221254812226
 20
23.24999965533637
 42
0.4142135623730892
 10
20.74221254812233
 20
19.04999965533635
 42
0.0
 10
20.74221254812233
 20
11.34999965533644
 42
0.4142135623730969
 10
24.94221254812237
 20
7.149999655336416
 42
0.0
 10
26.86721254812233
 20
7.149999655336416
 42
0.4142135623731526
 10
27.39221254812242
 20
7.674999655336404
 42
0.0
 10
27.39221254812242
 20
9.424999655336425
 42
0.414213562373089
 10
26.86721254812244
 20
9.949999655336413
 42
0.0
 10
24.94221254812237
 20
9.949999655336413
 42
-0.4142135623730928
 10
23.54221254812239
 20
11.3499996553364
 42
0.0
 97
        0
 92
        7
 72
     1
 73
     1
 93
        2
 10
24.24221254812233
 20
15.19999965533641
 42
1.0
 10
27.74221254812233
 20
15.19999965533641
 42
1.0
 97
        0
 92
        7
 72
     1
 73
     1
 93
       26
 10
37.31485903030034
 20
19.20504684889984
 42
0.0
 10
38.37649866343816
 20
22.56690568716943
 42
0.5069206636600134
 10
37.8758677642428
 20
23.24999965533642
 42
0.0
 10
36.17697838463357
 20
23.24999965533642
 42
0.3272098845218764
 10
35.67634748543821
 20
22.88309362350339
 42
0.0
 10
33.80807761080644
 20
16.96690568716949
 42
-0.3272098845219541
 10
33.30744671161096
 20
16.59999965533641
 42
0.0
 10
33.16721254812251
 20
16.59999965533641
 42
-0.4142135623731526
 10
32.64221254812242
 20
17.1249996553364
 42
0.0
 10
32.64221254812242
 20
22.72499965533642
 42
0.4142135623730952
 10
32.11721254812244
 20
23.24999965533642
 42
0.0
 10
30.36721254812233
 20
23.24999965533642
 42
0.4142135623730872
 10
29.84221254812235
 20
22.72499965533643
 42
0.0
 10
29.84221254812235
 20
7.674999655336404
 42
0.414213562373089
 10
30.36721254812233
 20
7.149999655336416
 42
0.0
 10
32.11721254812233
 20
7.149999655336416
 42
0.4142135623731526
 10
32.64221254812242
 20
7.674999655336404
 42
0.0
 10
32.64221254812242
 20
13.27499965533643
 42
-0.4142135623731526
 10
33.16721254812251
 20
13.79999965533641
 42
0.0
 10
33.30744671161108
 20
13.79999965533641
 42
-0.3272098845218915
 10
33.80807761080644
 20
13.43309362350334
 42
0.0
 10
35.67634748543821
 20
7.516905687169487
 42
0.3272098845218902
 10
36.17697838463357
 20
7.149999655336416
 42
0.0
 10
37.8758677642428
 20
7.149999655336416
 42
0.5069206636600334
 10
38.37649866343816
 20
7.833093623503423
 42
0.0
 10
36.0501072849645
 20
15.19999965533655
 42
0.0
 97
        0
 92
        7
 72
     1
 73
     1
 93
        8
 10
43.49221254812233
 20
22.72499965533643
 42
0.4142135623731546
 10
42.96721254812223
 20
23.24999965533642
 42
0.0
 10
41.21721254812246
 20
23.24999965533642
 42
0.4142135623731506
 10
40.69221254812237
 20
22.72499965533643
 42
0.0
 10
40.69221254812237
 20
7.674999655336404
 42
0.4142135623731526
 10
41.21721254812246
 20
7.149999655336416
 42
0.0
 10
42.96721254812223
 20
7.149999655336416
 42
0.4142135623731526
 10
43.49221254812233
 20
7.674999655336404
 42
0.0
 97
        0
 92
        7
 72
     1
 73
     1
 93
       24
 10
48.39221254812242
 20
19.92499965533642
 42
-0.4142135623731547
 10
48.91721254812251
 20
20.44999965533641
 42
0.0
 10
51.89221254812242
 20
20.44999965533641
 42
0.4142135623730911
 10
52.41721254812239
 20
20.9749996553364
 42
0.0
 10
52.41721254812239
 20
22.72499965533642
 42
0.4142135623730952
 10
51.89221254812242
 20
23.24999965533642
 42
0.0
 10
48.39221254812242
 20
23.24999965533642
 42
0.4142135623731048
 10
45.59221254812235
 20
20.44999965533644
 42
0.0
 10
45.59221254812235
 20
18.63479762998117
 42
0.1989123673796613
 10
46.82236406713889
 20
15.66494914899762
 42
0.0
 10
49.73216204178357
 20
12.75515117435295
 42
-0.1989123673796402
 10
50.14221254812242
 20
11.76520168069188
 42
0.0
 10
50.14221254812242
 20
10.4749996553364
 42
-0.4142135623730911
 10
49.61721254812244
 20
9.949999655336413
 42
0.0
 10
46.64221254812242
 20
9.949999655336413
 42
0.4142135623731526
 10
46.11721254812233
 20
9.424999655336425
 42
0.0
 10
46.11721254812233
 20
7.674999655336404
 42
0.414213562373089
 10
46.6422125481223
 20
7.149999655336416
 42
0.0
 10
50.14221254812242
 20
7.149999655336416
 42
0.4142135623730925
 10
52.94221254812237
 20
9.949999655336391
 42
0.0
 10
52.94221254812237
 20
11.76520168069166
 42
0.1989123673796675
 10
51.71206102910583
 20
14.73505016167532
 42
0.0
 10
48.80226305446126
 20
17.64484813631983
 42
-0.1989123673796653
 10
48.39221254812242
 20
18.634797629981
 42
0.0
 97
        0
 92
        7
 72
     1
 73
     1
 93
       16
 10
57.84221254812235
 20
22.7249996553364
 42
0.414213562373103
 10
57.31721254812237
 20
23.24999965533642
 42
0.0
 10
55.56721254812237
 20
23.24999965533642
 42
0.4142135623730872
 10
55.04221254812239
 20
22.72499965533643
 42
0.0
 10
55.04221254812239
 20
9.949999655336391
 42
0.4142135623730925
 10
57.84221254812235
 20
7.149999655336416
 42
0.0
 10
61.34221254812235
 20
7.149999655336416
 42
0.4142135623731044
 10
64.14221254812242
 20
9.949999655336391
 42
0.0
 10
64.14221254812242
 20
22.72499965533642
 42
0.4142135623730952
 10
63.61721254812244
 20
23.24999965533642
 42
0.0
 10
61.86721254812233
 20
23.24999965533642
 42
0.4142135623730872
 10
61.34221254812235
 20
22.72499965533643
 42
0.0
 10
61.34221254812235
 20
10.99999965533639
 42
-0.414213562373088
 10
60.29221254812239
 20
9.949999655336413
 42
0.0
 10
58.89221254812242
 20
9.949999655336413
 42
-0.4142135623731197
 10
57.84221254812235
 20
10.99999965533639
 42
0.0
 97
        0
 92
        7
 72
     1
 73
     1
 93
        8
 10
69.04221254812239
 20
22.72499965533643
 42
0.4142135623730872
 10
68.51721254812242
 20
23.24999965533642
 42
0.0
 10
66.76721254812242
 20
23.24999965533642
 42
0.4142135623731506
 10
66.24221254812233
 20
22.72499965533643
 42
0.0
 10
66.24221254812233
 20
7.674999655336404
 42
0.414213562373089
 10
66.7672125481223
 20
7.149999655336416
 42
0.0
 10
68.51721254812242
 20
7.149999655336416
 42
0.414213562373089
 10
69.04221254812239
 20
7.674999655336404
 42
0.0
 97
        0
 75
     0
 76
     1
 52
0.0
 41
0.2
 77
     0
 78
     2
 53
45.0
 43
-900.9423039413377
 44
-13.20000034466352
 45
-0.4490128060534576
 46
0.4490128060534577
 79
     0
 53
135.0
 43
-900.9423039413377
 44
-13.20000034466352
 45
-0.4490128060534577
 46
-0.4490128060534576
 79
     0
 47
0.057451373970553
 98
        8
 10
16.07985535636453
 20
15.16717330122197
 10
22.40451539978039
 20
18.84406183778742
 10
25.16436827900088
 20
15.51188130140713
 10
30.91406037497836
 20
16.20129730177791
 10
41.83847241229796
 20
16.66090956931953
 10
46.89820128847077
 20
19.41857597174362
 10
56.55768636574157
 20
18.72915757043143
 10
67.82708001296396
 20
19.18876983797304
  0
LINE
  5
18D9
330
1A
100
AcDbEntity
  8
ZUWAKU
100
AcDbLine
 10
24.94221254812237
 20
23.24999965533637
 30
0.0
 11
26.86721254812233
 21
23.24999965533642
 31
0.0
  0
LINE
  5
18DA
330
1A
100
AcDbEntity
  8
ZUWAKU
100
AcDbLine
 10
26.86721254812233
 20
20.44999965533641
 30
0.0
 11
24.94221254812237
 21
20.44999965533641
 31
0.0
  0
LINE
  5
18DB
330
1A
100
AcDbEntity
  8
ZUWAKU
100
AcDbLine
 10
24.94221254812237
 20
9.949999655336413
 30
0.0
 11
26.86721254812233
 21
9.949999655336413
 31
0.0
  0
LINE
  5
18DC
330
1A
100
AcDbEntity
  8
ZUWAKU
100
AcDbLine
 10
26.86721254812233
 20
7.149999655336416
 30
0.0
 11
24.94221254812237
 21
7.149999655336416
 31
0.0
  0
CIRCLE
  5
18DD
330
1A
100
AcDbEntity
  8
ZUWAKU
100
AcDbCircle
 10
25.99221254812233
 20
15.19999965533641
 30
0.0
 40
1.75
  0
ARC
  5
18DE
330
1A
100
AcDbEntity
  8
ZUWAKU
100
AcDbCircle
 10
15.49221254812233
 20
18.63479762998112
 30
0.0
 40
1.4
100
AcDbArc
 50
180.0000000000016
 51
224.9999999999988
  0
LINE
  5
18DF
330
1A
100
AcDbEntity
  8
ZUWAKU
100
AcDbLine
 10
23.54221254812239
 20
19.04999965533641
 30
0.0
 11
23.54221254812239
 21
11.34999965533642
 31
0.0
  0
LINE
  5
18E0
330
1A
100
AcDbEntity
  8
ZUWAKU
100
AcDbLine
 10
20.74221254812233
 20
11.34999965533642
 30
0.0
 11
20.74221254812233
 21
19.04999965533637
 31
0.0
  0
ARC
  5
18E1
330
1A
100
AcDbEntity
  8
ZUWAKU
100
AcDbCircle
 10
15.49221254812233
 20
18.63479762998112
 30
0.0
 40
4.199999999999999
100
AcDbArc
 50
180.0
 51
225.0
  0
ARC
  5
18E2
330
1A
100
AcDbEntity
  8
ZUWAKU
100
AcDbCircle
 10
15.84221254812235
 20
9.949999655336413
 30
0.0
 40
2.8
100
AcDbArc
 50
270.0
 51
0.0
  0
ARC
  5
18E3
330
1A
100
AcDbEntity
  8
ZUWAKU
100
AcDbCircle
 10
24.94221254812237
 20
11.34999965533642
 30
0.0
 40
4.199999999999999
100
AcDbArc
 50
180.0
 51
270.0
  0
ARC
  5
18E4
330
1A
100
AcDbEntity
  8
ZUWAKU
100
AcDbCircle
 10
14.44221254812237
 20
11.76520168069172
 30
0.0
 40
4.199999999999999
100
AcDbArc
 50
0.0
 51
45.0
  0
LINE
  5
18E5
330
1A
100
AcDbEntity
  8
ZUWAKU
100
AcDbLine
 10
17.41206102910587
 20
14.73505016167524
 30
0.0
 11
14.5022630544612
 21
17.64484813631992
 31
0.0
  0
LINE
  5
18E6
330
1A
100
AcDbEntity
  8
ZUWAKU
100
AcDbLine
 10
15.84221254812235
 20
10.47499965533642
 30
0.0
 11
15.84221254812235
 21
11.76520168069176
 31
0.0
  0
ARC
  5
18E7
330
1A
100
AcDbEntity
  8
ZUWAKU
100
AcDbCircle
 10
15.31721254812237
 20
10.47499965533642
 30
0.0
 40
0.5249999999999999
100
AcDbArc
 50
270.0
 51
0.0
  0
ARC
  5
18E8
330
1A
100
AcDbEntity
  8
ZUWAKU
100
AcDbCircle
 10
14.44221254812237
 20
11.76520168069176
 30
0.0
 40
1.4
100
AcDbArc
 50
0.0
 51
45.0
  0
LINE
  5
18E9
330
1A
100
AcDbEntity
  8
ZUWAKU
100
AcDbLine
 10
11.81721254812237
 20
7.674999655336414
 30
0.0
 11
11.81721254812237
 21
9.424999655336414
 31
0.0
  0
ARC
  5
18EA
330
1A
100
AcDbEntity
  8
ZUWAKU
100
AcDbCircle
 10
12.34221254812235
 20
7.674999655336414
 30
0.0
 40
0.5249999999999999
100
AcDbArc
 50
180.0
 51
270.0
  0
ARC
  5
18EB
330
1A
100
AcDbEntity
  8
ZUWAKU
100
AcDbCircle
 10
12.34221254812235
 20
9.424999655336414
 30
0.0
 40
0.5249999999999999
100
AcDbArc
 50
90.0
 51
180.0
  0
LINE
  5
18EC
330
1A
100
AcDbEntity
  8
ZUWAKU
100
AcDbLine
 10
12.34221254812235
 20
7.149999655336416
 30
0.0
 11
15.84221254812235
 21
7.149999655336416
 31
0.0
  0
LINE
  5
18ED
330
1A
100
AcDbEntity
  8
ZUWAKU
100
AcDbLine
 10
12.34221254812235
 20
9.949999655336413
 30
0.0
 11
15.31721254812237
 21
9.949999655336413
 31
0.0
  0
LINE
  5
18EE
330
1A
100
AcDbEntity
  8
ZUWAKU
100
AcDbLine
 10
12.52236406713882
 20
15.66494914899759
 30
0.0
 11
15.4321620417835
 21
12.75515117435293
 31
0.0
  0
LINE
  5
18EF
330
1A
100
AcDbEntity
  8
ZUWAKU
100
AcDbLine
 10
18.64221254812242
 20
9.949999655336413
 30
0.0
 11
18.64221254812242
 21
11.76520168069176
 31
0.0
  0
ARC
  5
18F0
330
1A
100
AcDbEntity
  8
ZUWAKU
100
AcDbCircle
 10
24.94221254812237
 20
11.34999965533642
 30
0.0
 40
1.4
100
AcDbArc
 50
180.0
 51
270.0
  0
ARC
  5
18F1
330
1A
100
AcDbEntity
  8
ZUWAKU
100
AcDbCircle
 10
17.59221254812235
 20
22.72499965533641
 30
0.0
 40
0.5249999999999999
100
AcDbArc
 50
0.0
 51
90.0
  0
ARC
  5
18F2
330
1A
100
AcDbEntity
  8
ZUWAKU
100
AcDbCircle
 10
17.59221254812235
 20
20.97499965533641
 30
0.0
 40
0.5249999999999999
100
AcDbArc
 50
270.0
 51
0.0
  0
LINE
  5
18F3
330
1A
100
AcDbEntity
  8
ZUWAKU
100
AcDbLine
 10
14.09221254812235
 20
23.24999965533642
 30
0.0
 11
17.59221254812235
 21
23.24999965533642
 31
0.0
  0
ARC
  5
18F4
330
1A
100
AcDbEntity
  8
ZUWAKU
100
AcDbCircle
 10
14.61721254812233
 20
19.92499965533641
 30
0.0
 40
0.5249999999999999
100
AcDbArc
 50
90.0
 51
180.0
  0
LINE
  5
18F5
330
1A
100
AcDbEntity
  8
ZUWAKU
100
AcDbLine
 10
14.09221254812235
 20
19.92499965533641
 30
0.0
 11
14.09221254812235
 21
18.63479762998107
 31
0.0
  0
LINE
  5
18F6
330
1A
100
AcDbEntity
  8
ZUWAKU
100
AcDbLine
 10
17.59221254812235
 20
20.44999965533641
 30
0.0
 11
14.61721254812233
 21
20.44999965533641
 31
0.0
  0
LINE
  5
18F7
330
1A
100
AcDbEntity
  8
ZUWAKU
100
AcDbLine
 10
11.29221254812239
 20
20.44999965533641
 30
0.0
 11
11.29221254812239
 21
18.63479762998107
 31
0.0
  0
ARC
  5
18F8
330
1A
100
AcDbEntity
  8
ZUWAKU
100
AcDbCircle
 10
14.09221254812235
 20
20.44999965533641
 30
0.0
 40
2.8
100
AcDbArc
 50
90.0
 51
180.0
  0
LINE
  5
18F9
330
1A
100
AcDbEntity
  8
ZUWAKU
100
AcDbLine
 10
18.11721254812233
 20
22.72499965533641
 30
0.0
 11
18.11721254812233
 21
20.97499965533641
 31
0.0
  0
ARC
  5
18FA
330
1A
100
AcDbEntity
  8
ZUWAKU
100
AcDbCircle
 10
24.94221254812237
 20
19.04999965533641
 30
0.0
 40
1.4
100
AcDbArc
 50
90.0
 51
180.0
  0
ARC
  5
18FB
330
1A
100
AcDbEntity
  8
ZUWAKU
100
AcDbCircle
 10
24.94221254812237
 20
19.04999965533637
 30
0.0
 40
4.199999999999999
100
AcDbArc
 50
90.0
 51
180.0
  0
LINE
  5
18FC
330
1A
100
AcDbEntity
  8
ZUWAKU
100
AcDbLine
 10
79.32662994132943
 20
29.99999965533641
 30
0.0
 11
79.32662994132966
 21
0.7999996553364781
 31
0.0
  0
LINE
  5
18FD
330
1A
100
AcDbEntity
  8
ZUWAKU
100
AcDbLine
 10
79.52662994132948
 20
29.99999965533641
 30
0.0
 11
79.5266299413297
 21
0.7999996553364781
 31
0.0
  0
LINE
  5
18FE
330
1A
100
AcDbEntity
  8
ZUWAKU
100
AcDbLine
 10
79.12662994132961
 20
29.99999965533641
 30
0.0
 11
79.12662994132961
 21
0.7999996553364781
 31
0.0
  0
LINE
  5
18FF
330
1A
100
AcDbEntity
  8
ZUWAKU
100
AcDbLine
 10
64.14221254812242
 20
9.949999655336413
 30
0.0
 11
64.14221254812242
 21
22.72499965533641
 31
0.0
  0
LINE
  5
1900
330
1A
100
AcDbEntity
  8
ZUWAKU
100
AcDbLine
 10
61.34221254812235
 20
22.72499965533641
 30
0.0
 11
61.34221254812235
 21
10.99999965533641
 31
0.0
  0
LINE
  5
1901
330
1A
100
AcDbEntity
  8
ZUWAKU
100
AcDbLine
 10
69.04221254812239
 20
7.674999655336414
 30
0.0
 11
69.04221254812239
 21
22.72499965533641
 31
0.0
  0
LINE
  5
1902
330
1A
100
AcDbEntity
  8
ZUWAKU
100
AcDbLine
 10
66.24221254812233
 20
22.72499965533641
 30
0.0
 11
66.24221254812233
 21
7.674999655336414
 31
0.0
  0
ARC
  5
1903
330
1A
100
AcDbEntity
  8
ZUWAKU
100
AcDbCircle
 10
49.79221254812239
 20
18.63479762998112
 30
0.0
 40
1.4
100
AcDbArc
 50
180.0000000000016
 51
224.9999999999988
  0
ARC
  5
1904
330
1A
100
AcDbEntity
  8
ZUWAKU
100
AcDbCircle
 10
49.79221254812239
 20
18.63479762998112
 30
0.0
 40
4.199999999999999
100
AcDbArc
 50
180.0
 51
225.0
  0
LINE
  5
1905
330
1A
100
AcDbEntity
  8
ZUWAKU
100
AcDbLine
 10
37.31485903030034
 20
19.20504684889984
 30
0.0
 11
36.0501072849645
 21
15.19999965533643
 31
0.0
  0
LINE
  5
1906
330
1A
100
AcDbEntity
  8
ZUWAKU
100
AcDbLine
 10
40.69221254812237
 20
22.72499965533641
 30
0.0
 11
40.69221254812237
 21
7.674999655336414
 31
0.0
  0
LINE
  5
1907
330
1A
100
AcDbEntity
  8
ZUWAKU
100
AcDbLine
 10
43.49221254812233
 20
7.674999655336414
 30
0.0
 11
43.49221254812233
 21
22.72499965533641
 31
0.0
  0
LINE
  5
1908
330
1A
100
AcDbEntity
  8
ZUWAKU
100
AcDbLine
 10
55.04221254812239
 20
22.72499965533641
 30
0.0
 11
55.04221254812239
 21
9.949999655336413
 31
0.0
  0
LINE
  5
1909
330
1A
100
AcDbEntity
  8
ZUWAKU
100
AcDbLine
 10
57.84221254812235
 20
10.99999965533641
 30
0.0
 11
57.84221254812235
 21
22.72499965533641
 31
0.0
  0
LINE
  5
190A
330
1A
100
AcDbEntity
  8
ZUWAKU
100
AcDbLine
 10
32.64221254812242
 20
17.12499965533642
 30
0.0
 11
32.64221254812242
 21
22.72499965533641
 31
0.0
  0
LINE
  5
190B
330
1A
100
AcDbEntity
  8
ZUWAKU
100
AcDbLine
 10
29.84221254812235
 20
22.72499965533641
 30
0.0
 11
29.84221254812235
 21
7.674999655336414
 31
0.0
  0
LINE
  5
190C
330
1A
100
AcDbEntity
  8
ZUWAKU
100
AcDbLine
 10
35.67634748543821
 20
22.88309362350339
 30
0.0
 11
33.80807761080644
 21
16.96690568716944
 31
0.0
  0
LINE
  5
190D
330
1A
100
AcDbEntity
  8
ZUWAKU
100
AcDbLine
 10
60.29221254812239
 20
9.949999655336413
 30
0.0
 11
58.89221254812242
 21
9.949999655336413
 31
0.0
  0
LINE
  5
190E
330
1A
100
AcDbEntity
  8
ZUWAKU
100
AcDbLine
 10
57.84221254812235
 20
7.149999655336416
 30
0.0
 11
61.34221254812235
 21
7.149999655336416
 31
0.0
  0
LINE
  5
190F
330
1A
100
AcDbEntity
  8
ZUWAKU
100
AcDbLine
 10
41.21721254812235
 20
7.149999655336416
 30
0.0
 11
42.96721254812235
 21
7.149999655336416
 31
0.0
  0
LINE
  5
1910
330
1A
100
AcDbEntity
  8
ZUWAKU
100
AcDbLine
 10
35.67634748543821
 20
7.516905687169441
 30
0.0
 11
33.80807761080644
 21
13.43309362350338
 31
0.0
  0
ARC
  5
1911
330
1A
100
AcDbEntity
  8
ZUWAKU
100
AcDbCircle
 10
33.30744671161108
 20
17.12499965533642
 30
0.0
 40
0.5249999999999999
100
AcDbArc
 50
270.0
 51
342.474431626277
  0
LINE
  5
1912
330
1A
100
AcDbEntity
  8
ZUWAKU
100
AcDbLine
 10
33.30744671161108
 20
16.59999965533641
 30
0.0
 11
33.16721254812239
 21
16.59999965533641
 31
0.0
  0
LINE
  5
1913
330
1A
100
AcDbEntity
  8
ZUWAKU
100
AcDbLine
 10
33.16721254812239
 20
13.79999965533641
 30
0.0
 11
33.30744671161108
 21
13.79999965533641
 31
0.0
  0
ARC
  5
1914
330
1A
100
AcDbEntity
  8
ZUWAKU
100
AcDbCircle
 10
33.16721254812239
 20
17.12499965533642
 30
0.0
 40
0.5249999999999999
100
AcDbArc
 50
180.0
 51
270.0
  0
LINE
  5
1915
330
1A
100
AcDbEntity
  8
ZUWAKU
100
AcDbLine
 10
30.36721254812233
 20
7.149999655336416
 30
0.0
 11
32.11721254812233
 21
7.149999655336416
 31
0.0
  0
ARC
  5
1916
330
1A
100
AcDbEntity
  8
ZUWAKU
100
AcDbCircle
 10
32.11721254812233
 20
7.674999655336414
 30
0.0
 40
0.5249999999999999
100
AcDbArc
 50
270.0
 51
0.0
  0
LINE
  5
1917
330
1A
100
AcDbEntity
  8
ZUWAKU
100
AcDbLine
 10
32.64221254812242
 20
7.674999655336414
 30
0.0
 11
32.64221254812242
 21
13.27499965533642
 31
0.0
  0
LINE
  5
1918
330
1A
100
AcDbEntity
  8
ZUWAKU
100
AcDbLine
 10
27.39221254812242
 20
9.424999655336414
 30
0.0
 11
27.39221254812242
 21
7.674999655336414
 31
0.0
  0
ARC
  5
1919
330
1A
100
AcDbEntity
  8
ZUWAKU
100
AcDbCircle
 10
26.86721254812233
 20
7.674999655336414
 30
0.0
 40
0.5249999999999999
100
AcDbArc
 50
270.0
 51
0.0
  0
ARC
  5
191A
330
1A
100
AcDbEntity
  8
ZUWAKU
100
AcDbCircle
 10
26.86721254812233
 20
9.424999655336414
 30
0.0
 40
0.5249999999999999
100
AcDbArc
 50
0.0
 51
90.0
  0
ARC
  5
191B
330
1A
100
AcDbEntity
  8
ZUWAKU
100
AcDbCircle
 10
30.36721254812233
 20
7.674999655336414
 30
0.0
 40
0.5249999999999999
100
AcDbArc
 50
180.0
 51
270.0
  0
ARC
  5
191C
330
1A
100
AcDbEntity
  8
ZUWAKU
100
AcDbCircle
 10
33.30744671161108
 20
13.27499965533642
 30
0.0
 40
0.5249999999999999
100
AcDbArc
 50
17.52556837372303
 51
90.0
  0
ARC
  5
191D
330
1A
100
AcDbEntity
  8
ZUWAKU
100
AcDbCircle
 10
33.16721254812239
 20
13.27499965533642
 30
0.0
 40
0.5249999999999999
100
AcDbArc
 50
90.0
 51
180.0
  0
ARC
  5
191E
330
1A
100
AcDbEntity
  8
ZUWAKU
100
AcDbCircle
 10
41.21721254812235
 20
7.674999655336414
 30
0.0
 40
0.5249999999999999
100
AcDbArc
 50
180.0
 51
270.0
  0
LINE
  5
191F
330
1A
100
AcDbEntity
  8
ZUWAKU
100
AcDbLine
 10
36.17697838463369
 20
7.149999655336416
 30
0.0
 11
37.87586776424269
 21
7.149999655336416
 31
0.0
  0
ARC
  5
1920
330
1A
100
AcDbEntity
  8
ZUWAKU
100
AcDbCircle
 10
37.87586776424269
 20
7.674999655336414
 30
0.0
 40
0.5249999999999999
100
AcDbArc
 50
270.0
 51
17.52556837372303
  0
LINE
  5
1921
330
1A
100
AcDbEntity
  8
ZUWAKU
100
AcDbLine
 10
38.37649866343816
 20
7.833093623503387
 30
0.0
 11
36.0501072849645
 21
15.19999965533643
 31
0.0
  0
ARC
  5
1922
330
1A
100
AcDbEntity
  8
ZUWAKU
100
AcDbCircle
 10
36.17697838463369
 20
7.674999655336414
 30
0.0
 40
0.5249999999999999
100
AcDbArc
 50
197.525568373723
 51
270.0
  0
ARC
  5
1923
330
1A
100
AcDbEntity
  8
ZUWAKU
100
AcDbCircle
 10
57.84221254812235
 20
9.949999655336413
 30
0.0
 40
2.8
100
AcDbArc
 50
180.0
 51
270.0
  0
ARC
  5
1924
330
1A
100
AcDbEntity
  8
ZUWAKU
100
AcDbCircle
 10
50.14221254812242
 20
9.949999655336413
 30
0.0
 40
2.8
100
AcDbArc
 50
270.0
 51
0.0
  0
LINE
  5
1925
330
1A
100
AcDbEntity
  8
ZUWAKU
100
AcDbLine
 10
51.71206102910594
 20
14.73505016167524
 30
0.0
 11
48.80226305446115
 21
17.64484813631992
 31
0.0
  0
LINE
  5
1926
330
1A
100
AcDbEntity
  8
ZUWAKU
100
AcDbLine
 10
50.14221254812242
 20
10.47499965533642
 30
0.0
 11
50.14221254812242
 21
11.76520168069176
 31
0.0
  0
ARC
  5
1927
330
1A
100
AcDbEntity
  8
ZUWAKU
100
AcDbCircle
 10
48.74221254812233
 20
11.76520168069176
 30
0.0
 40
1.4
100
AcDbArc
 50
0.0
 51
45.0
  0
ARC
  5
1928
330
1A
100
AcDbEntity
  8
ZUWAKU
100
AcDbCircle
 10
49.61721254812233
 20
10.47499965533642
 30
0.0
 40
0.5249999999999999
100
AcDbArc
 50
270.0
 51
0.0
  0
LINE
  5
1929
330
1A
100
AcDbEntity
  8
ZUWAKU
100
AcDbLine
 10
46.11721254812233
 20
7.674999655336414
 30
0.0
 11
46.11721254812233
 21
9.424999655336414
 31
0.0
  0
ARC
  5
192A
330
1A
100
AcDbEntity
  8
ZUWAKU
100
AcDbCircle
 10
46.64221254812242
 20
7.674999655336414
 30
0.0
 40
0.5249999999999999
100
AcDbArc
 50
180.0
 51
270.0
  0
ARC
  5
192B
330
1A
100
AcDbEntity
  8
ZUWAKU
100
AcDbCircle
 10
42.96721254812235
 20
7.674999655336414
 30
0.0
 40
0.5249999999999999
100
AcDbArc
 50
270.0
 51
0.0
  0
ARC
  5
192C
330
1A
100
AcDbEntity
  8
ZUWAKU
100
AcDbCircle
 10
46.64221254812242
 20
9.424999655336414
 30
0.0
 40
0.5249999999999999
100
AcDbArc
 50
90.0
 51
180.0
  0
LINE
  5
192D
330
1A
100
AcDbEntity
  8
ZUWAKU
100
AcDbLine
 10
46.64221254812242
 20
9.949999655336413
 30
0.0
 11
49.61721254812233
 21
9.949999655336413
 31
0.0
  0
LINE
  5
192E
330
1A
100
AcDbEntity
  8
ZUWAKU
100
AcDbLine
 10
46.64221254812242
 20
7.149999655336416
 30
0.0
 11
50.14221254812242
 21
7.149999655336416
 31
0.0
  0
LINE
  5
192F
330
1A
100
AcDbEntity
  8
ZUWAKU
100
AcDbLine
 10
46.82236406713889
 20
15.66494914899759
 30
0.0
 11
49.73216204178357
 21
12.75515117435293
 31
0.0
  0
LINE
  5
1930
330
1A
100
AcDbEntity
  8
ZUWAKU
100
AcDbLine
 10
52.94221254812237
 20
9.949999655336413
 30
0.0
 11
52.94221254812237
 21
11.76520168069176
 31
0.0
  0
ARC
  5
1931
330
1A
100
AcDbEntity
  8
ZUWAKU
100
AcDbCircle
 10
48.74221254812233
 20
11.76520168069172
 30
0.0
 40
4.199999999999999
100
AcDbArc
 50
0.0
 51
45.0
  0
ARC
  5
1932
330
1A
100
AcDbEntity
  8
ZUWAKU
100
AcDbCircle
 10
58.89221254812242
 20
10.99999965533641
 30
0.0
 40
1.05
100
AcDbArc
 50
180.0
 51
270.0
  0
ARC
  5
1933
330
1A
100
AcDbEntity
  8
ZUWAKU
100
AcDbCircle
 10
61.34221254812235
 20
9.949999655336413
 30
0.0
 40
2.8
100
AcDbArc
 50
270.0
 51
0.0
  0
LINE
  5
1934
330
1A
100
AcDbEntity
  8
ZUWAKU
100
AcDbLine
 10
66.76721254812242
 20
7.149999655336416
 30
0.0
 11
68.51721254812242
 21
7.149999655336416
 31
0.0
  0
ARC
  5
1935
330
1A
100
AcDbEntity
  8
ZUWAKU
100
AcDbCircle
 10
66.76721254812242
 20
7.674999655336414
 30
0.0
 40
0.5249999999999999
100
AcDbArc
 50
180.0
 51
270.0
  0
ARC
  5
1936
330
1A
100
AcDbEntity
  8
ZUWAKU
100
AcDbCircle
 10
60.29221254812239
 20
10.99999965533641
 30
0.0
 40
1.05
100
AcDbArc
 50
270.0
 51
0.0
  0
ARC
  5
1937
330
1A
100
AcDbEntity
  8
ZUWAKU
100
AcDbCircle
 10
68.51721254812242
 20
7.674999655336414
 30
0.0
 40
0.5249999999999999
100
AcDbArc
 50
270.0
 51
0.0
  0
LINE
  5
1938
330
1A
100
AcDbEntity
  8
ZUWAKU
100
AcDbLine
 10
42.96721254812235
 20
23.24999965533642
 30
0.0
 11
41.21721254812235
 21
23.24999965533642
 31
0.0
  0
ARC
  5
1939
330
1A
100
AcDbEntity
  8
ZUWAKU
100
AcDbCircle
 10
32.11721254812233
 20
22.72499965533641
 30
0.0
 40
0.5249999999999999
100
AcDbArc
 50
0.0
 51
90.0
  0
LINE
  5
193A
330
1A
100
AcDbEntity
  8
ZUWAKU
100
AcDbLine
 10
32.11721254812233
 20
23.24999965533642
 30
0.0
 11
30.36721254812233
 21
23.24999965533642
 31
0.0
  0
ARC
  5
193B
330
1A
100
AcDbEntity
  8
ZUWAKU
100
AcDbCircle
 10
26.86721254812233
 20
22.72499965533641
 30
0.0
 40
0.5249999999999999
100
AcDbArc
 50
0.0
 51
90.0
  0
ARC
  5
193C
330
1A
100
AcDbEntity
  8
ZUWAKU
100
AcDbCircle
 10
30.36721254812233
 20
22.72499965533641
 30
0.0
 40
0.5249999999999999
100
AcDbArc
 50
90.0
 51
180.0
  0
ARC
  5
193D
330
1A
100
AcDbEntity
  8
ZUWAKU
100
AcDbCircle
 10
26.86721254812233
 20
20.97499965533641
 30
0.0
 40
0.5249999999999999
100
AcDbArc
 50
270.0
 51
0.0
  0
LINE
  5
193E
330
1A
100
AcDbEntity
  8
ZUWAKU
100
AcDbLine
 10
27.39221254812242
 20
22.72499965533641
 30
0.0
 11
27.39221254812242
 21
20.97499965533641
 31
0.0
  0
ARC
  5
193F
330
1A
100
AcDbEntity
  8
ZUWAKU
100
AcDbCircle
 10
41.21721254812235
 20
22.72499965533641
 30
0.0
 40
0.5249999999999999
100
AcDbArc
 50
90.0
 51
180.0
  0
LINE
  5
1940
330
1A
100
AcDbEntity
  8
ZUWAKU
100
AcDbLine
 10
36.17697838463369
 20
23.24999965533642
 30
0.0
 11
37.87586776424269
 21
23.24999965533642
 31
0.0
  0
ARC
  5
1941
330
1A
100
AcDbEntity
  8
ZUWAKU
100
AcDbCircle
 10
37.87586776424269
 20
22.72499965533641
 30
0.0
 40
0.5249999999999999
100
AcDbArc
 50
342.474431626277
 51
90.0
  0
LINE
  5
1942
330
1A
100
AcDbEntity
  8
ZUWAKU
100
AcDbLine
 10
38.37649866343816
 20
22.56690568716945
 30
0.0
 11
37.31485903030034
 21
19.20504684889984
 31
0.0
  0
ARC
  5
1943
330
1A
100
AcDbEntity
  8
ZUWAKU
100
AcDbCircle
 10
36.17697838463369
 20
22.72499965533641
 30
0.0
 40
0.5249999999999999
100
AcDbArc
 50
90.0
 51
162.474431626277
  0
LINE
  5
1944
330
1A
100
AcDbEntity
  8
ZUWAKU
100
AcDbLine
 10
48.39221254812242
 20
23.24999965533642
 30
0.0
 11
51.89221254812242
 21
23.24999965533642
 31
0.0
  0
LINE
  5
1945
330
1A
100
AcDbEntity
  8
ZUWAKU
100
AcDbLine
 10
51.89221254812242
 20
20.44999965533641
 30
0.0
 11
48.91721254812239
 21
20.44999965533641
 31
0.0
  0
ARC
  5
1946
330
1A
100
AcDbEntity
  8
ZUWAKU
100
AcDbCircle
 10
48.91721254812239
 20
19.92499965533641
 30
0.0
 40
0.5249999999999999
100
AcDbArc
 50
90.0
 51
180.0
  0
LINE
  5
1947
330
1A
100
AcDbEntity
  8
ZUWAKU
100
AcDbLine
 10
48.39221254812242
 20
19.92499965533641
 30
0.0
 11
48.39221254812242
 21
18.63479762998107
 31
0.0
  0
ARC
  5
1948
330
1A
100
AcDbEntity
  8
ZUWAKU
100
AcDbCircle
 10
42.96721254812235
 20
22.72499965533641
 30
0.0
 40
0.5249999999999999
100
AcDbArc
 50
0.0
 51
90.0
  0
LINE
  5
1949
330
1A
100
AcDbEntity
  8
ZUWAKU
100
AcDbLine
 10
45.59221254812235
 20
20.44999965533641
 30
0.0
 11
45.59221254812235
 21
18.63479762998107
 31
0.0
  0
ARC
  5
194A
330
1A
100
AcDbEntity
  8
ZUWAKU
100
AcDbCircle
 10
48.39221254812242
 20
20.44999965533641
 30
0.0
 40
2.8
100
AcDbArc
 50
90.0
 51
180.0
  0
ARC
  5
194B
330
1A
100
AcDbEntity
  8
ZUWAKU
100
AcDbCircle
 10
57.31721254812237
 20
22.72499965533641
 30
0.0
 40
0.5249999999999999
100
AcDbArc
 50
0.0
 51
90.0
  0
ARC
  5
194C
330
1A
100
AcDbEntity
  8
ZUWAKU
100
AcDbCircle
 10
55.56721254812237
 20
22.72499965533641
 30
0.0
 40
0.5249999999999999
100
AcDbArc
 50
90.0
 51
180.0
  0
LINE
  5
194D
330
1A
100
AcDbEntity
  8
ZUWAKU
100
AcDbLine
 10
57.31721254812237
 20
23.24999965533642
 30
0.0
 11
55.56721254812237
 21
23.24999965533642
 31
0.0
  0
ARC
  5
194E
330
1A
100
AcDbEntity
  8
ZUWAKU
100
AcDbCircle
 10
51.89221254812242
 20
22.72499965533641
 30
0.0
 40
0.5249999999999999
100
AcDbArc
 50
0.0
 51
90.0
  0
ARC
  5
194F
330
1A
100
AcDbEntity
  8
ZUWAKU
100
AcDbCircle
 10
51.89221254812242
 20
20.97499965533641
 30
0.0
 40
0.5249999999999999
100
AcDbArc
 50
270.0
 51
0.0
  0
LINE
  5
1950
330
1A
100
AcDbEntity
  8
ZUWAKU
100
AcDbLine
 10
52.41721254812239
 20
22.72499965533641
 30
0.0
 11
52.41721254812239
 21
20.97499965533641
 31
0.0
  0
LINE
  5
1951
330
1A
100
AcDbEntity
  8
ZUWAKU
100
AcDbLine
 10
68.51721254812242
 20
23.24999965533642
 30
0.0
 11
66.76721254812242
 21
23.24999965533642
 31
0.0
  0
ARC
  5
1952
330
1A
100
AcDbEntity
  8
ZUWAKU
100
AcDbCircle
 10
66.76721254812242
 20
22.72499965533641
 30
0.0
 40
0.5249999999999999
100
AcDbArc
 50
90.0
 51
180.0
  0
ARC
  5
1953
330
1A
100
AcDbEntity
  8
ZUWAKU
100
AcDbCircle
 10
63.61721254812233
 20
22.72499965533641
 30
0.0
 40
0.5249999999999999
100
AcDbArc
 50
0.0
 51
90.0
  0
LINE
  5
1954
330
1A
100
AcDbEntity
  8
ZUWAKU
100
AcDbLine
 10
63.61721254812233
 20
23.24999965533642
 30
0.0
 11
61.86721254812233
 21
23.24999965533642
 31
0.0
  0
ARC
  5
1955
330
1A
100
AcDbEntity
  8
ZUWAKU
100
AcDbCircle
 10
61.86721254812233
 20
22.72499965533641
 30
0.0
 40
0.5249999999999999
100
AcDbArc
 50
90.0
 51
180.0
  0
ARC
  5
1956
330
1A
100
AcDbEntity
  8
ZUWAKU
100
AcDbCircle
 10
68.51721254812242
 20
22.72499965533641
 30
0.0
 40
0.5249999999999999
100
AcDbArc
 50
0.0
 51
90.0
  0
TEXT
  5
1957
330
1A
100
AcDbEntity
  8
moji
100
AcDbText
 10
239.8272030741923
 20
3.204920712743832
 30
0.0
 40
5.6
  1
Σ９０－ＶＵ・ＶＰ７５
 41
0.9
  7
ｽﾀｲﾙ1
100
AcDbText
  0
TEXT
  5
1958
330
1A
100
AcDbEntity
  8
moji
100
AcDbText
 10
239.8272030741923
 20
18.0049207127438
 30
0.0
 40
5.6
  1
じょうご
 41
0.9
  7
ｽﾀｲﾙ1
100
AcDbText
  0
LINE
  5
1959
330
1A
100
AcDbEntity
  8
ZUWAKU
100
AcDbLine
 10
208.2466016834092
 20
29.99999965533641
 30
0.0
 11
208.2466016834092
 21
0.7999996553364781
 31
0.0
  0
LINE
  5
195A
330
1A
100
AcDbEntity
  8
ZUWAKU
100
AcDbLine
 10
208.646601683409
 20
29.99999965533641
 30
0.0
 11
208.6466016834092
 21
0.7999996553364781
 31
0.0
  0
LINE
  5
195B
330
1A
100
AcDbEntity
  8
ZUWAKU
100
AcDbLine
 10
208.446601683409
 20
29.99999965533641
 30
0.0
 11
208.4466016834092
 21
0.7999996553364781
 31
0.0
  0
TEXT
  5
195C
330
1A
100
AcDbEntity
  8
ZUWAKU
100
AcDbText
 10
209.7240467056188
 20
9.655356193722028
 30
0.0
 40
4.0
  1
サイズ
 41
0.9
  7
ｽﾀｲﾙ1
100
AcDbText
  0
TEXT
  5
195D
330
1A
100
AcDbEntity
  8
ZUWAKU
100
AcDbText
 10
209.7240467056186
 20
24.05535619372199
 30
0.0
 40
4.0
  1
品名
 41
0.9
  7
ｽﾀｲﾙ1
100
AcDbText
  0
LINE
  5
195E
330
1A
100
AcDbEntity
  8
ZUWAKU
100
AcDbLine
 10
648.8172029035454
 20
15.19999965533644
 30
0.0
 11
697.2490109418825
 21
15.19999965533645
 31
0.0
  0
LINE
  5
195F
330
1A
100
AcDbEntity
  8
ZUWAKU
100
AcDbLine
 10
648.8172029035457
 20
15.39999965533645
 30
0.0
 11
697.2490109418825
 21
15.39999965533644
 31
0.0
  0
LINE
  5
1960
330
1A
100
AcDbEntity
  8
ZUWAKU
100
AcDbLine
 10
648.8172029035454
 20
15.59999965533644
 30
0.0
 11
697.2490109418825
 21
15.59999965533644
 31
0.0
  0
TEXT
  5
1961
330
1A
100
AcDbEntity
  8
ZUWAKU
100
AcDbText
 10
658.2039380806436
 20
18.0049207127438
 30
0.0
 40
5.6
  1
　　．　　．　　
 41
0.9
  7
ｽﾀｲﾙ1
100
AcDbText
  0
LINE
  5
1962
330
1A
100
AcDbEntity
  8
ZUWAKU
100
AcDbLine
 10
505.1991798914821
 20
15.19999965533645
 30
0.0
 11
552.5269561594537
 21
15.19999965533645
 31
0.0
  0
LINE
  5
1963
330
1A
100
AcDbEntity
  8
ZUWAKU
100
AcDbLine
 10
505.1991798914821
 20
15.39999965533644
 30
0.0
 11
552.5269561594537
 21
15.39999965533644
 31
0.0
  0
LINE
  5
1964
330
1A
100
AcDbEntity
  8
ZUWAKU
100
AcDbLine
 10
505.1991798914821
 20
15.59999965533644
 30
0.0
 11
552.5269561594537
 21
15.59999965533644
 31
0.0
  0
TEXT
  5
1965
330
1A
100
AcDbEntity
  8
moji
100
AcDbText
 10
464.5946263965802
 20
11.9426173769964
 30
0.0
 40
5.6
  1
ＧＲ１５□
 41
0.9
  7
ｽﾀｲﾙ1
100
AcDbText
  0
LINE
  5
1966
330
1A
100
AcDbEntity
  8
ZUWAKU
100
AcDbLine
 10
447.6243643643325
 20
29.99999965533641
 30
0.0
 11
447.6243643643327
 21
0.7999996553364781
 31
0.0
  0
LINE
  5
1967
330
1A
100
AcDbEntity
  8
ZUWAKU
100
AcDbLine
 10
447.8243643643325
 20
29.99999965533641
 30
0.0
 11
447.8243643643327
 21
0.7999996553364781
 31
0.0
  0
LINE
  5
1968
330
1A
100
AcDbEntity
  8
ZUWAKU
100
AcDbLine
 10
447.4243643643326
 20
29.99999965533641
 30
0.0
 11
447.4243643643326
 21
0.7999996553364781
 31
0.0
  0
TEXT
  5
1969
330
1A
100
AcDbEntity
  8
moji
100
AcDbText
 10
528.0409083656541
 20
18.0049207127438
 30
0.0
 40
5.6
  1
Ａ３
 41
0.9
  7
ｽﾀｲﾙ1
100
AcDbText
  0
LINE
  5
196A
330
1A
100
AcDbEntity
  8
ZUWAKU
100
AcDbLine
 10
504.9991798914821
 20
29.99999965533641
 30
0.0
 11
504.9991798914823
 21
0.7999996553364781
 31
0.0
  0
LINE
  5
196B
330
1A
100
AcDbEntity
  8
ZUWAKU
100
AcDbLine
 10
505.1991798914821
 20
29.99999965533641
 30
0.0
 11
505.1991798914823
 21
0.7999996553364781
 31
0.0
  0
LINE
  5
196C
330
1A
100
AcDbEntity
  8
ZUWAKU
100
AcDbLine
 10
504.7991798914823
 20
29.99999965533641
 30
0.0
 11
504.7991798914823
 21
0.7999996553364781
 31
0.0
  0
TEXT
  5
196D
330
1A
100
AcDbEntity
  8
ZUWAKU
100
AcDbText
 10
462.6937620488484
 20
2.614070566475903
 30
0.0
 40
3.0
  1
□には色品番が入ります
 41
0.9
  7
ｽﾀｲﾙ1
100
AcDbText
  0
TEXT
  5
196E
330
1A
100
AcDbEntity
  8
ZUWAKU
100
AcDbText
 10
506.676624913692
 20
9.655356193722028
 30
0.0
 40
4.0
  1
縮尺
 41
0.9
  7
ｽﾀｲﾙ1
100
AcDbText
  0
TEXT
  5
196F
330
1A
100
AcDbEntity
  8
moji
100
AcDbText
 10
528.0409083656541
 20
3.204920712743832
 30
0.0
 40
5.6
  1
１/２
 41
0.9
  7
ｽﾀｲﾙ1
100
AcDbText
  0
TEXT
  5
1970
330
1A
100
AcDbEntity
  8
ZUWAKU
100
AcDbText
 10
449.3018093865421
 20
24.05535619372199
 30
0.0
 40
4.0
  1
品番
 41
0.9
  7
ｽﾀｲﾙ1
100
AcDbText
  0
TEXT
  5
1971
330
1A
100
AcDbEntity
  8
ZUWAKU
100
AcDbText
 10
506.6766249136917
 20
24.05535619372199
 30
0.0
 40
4.0
  1
用紙
 41
0.9
  7
ｽﾀｲﾙ1
100
AcDbText
  0
LINE
  5
1972
330
1A
100
AcDbEntity
  8
ZUWAKU
100
AcDbLine
 10
648.6172029035456
 20
29.99999965533641
 30
0.0
 11
648.6172029035458
 21
0.7999996553364781
 31
0.0
  0
LINE
  5
1973
330
1A
100
AcDbEntity
  8
ZUWAKU
100
AcDbLine
 10
648.8172029035457
 20
29.99999965533641
 30
0.0
 11
648.8172029035459
 21
0.7999996553364781
 31
0.0
  0
LINE
  5
1974
330
1A
100
AcDbEntity
  8
ZUWAKU
100
AcDbLine
 10
648.4172029035458
 20
29.99999965533641
 30
0.0
 11
648.4172029035458
 21
0.7999996553364781
 31
0.0
  0
LINE
  5
1975
330
1A
100
AcDbEntity
  8
ZUWAKU
100
AcDbLine
 10
552.7269561594535
 20
29.99999965533641
 30
0.0
 11
552.7269561594537
 21
0.7999996553364781
 31
0.0
  0
LINE
  5
1976
330
1A
100
AcDbEntity
  8
ZUWAKU
100
AcDbLine
 10
552.9269561594535
 20
29.99999965533641
 30
0.0
 11
552.9269561594538
 21
0.7999996553364781
 31
0.0
  0
LINE
  5
1977
330
1A
100
AcDbEntity
  8
ZUWAKU
100
AcDbLine
 10
552.5269561594537
 20
29.99999965533641
 30
0.0
 11
552.5269561594537
 21
0.7999996553364781
 31
0.0
  0
TEXT
  5
1978
330
1A
100
AcDbEntity
  8
ZUWAKU
100
AcDbText
 10
650.2946479257553
 20
24.05535619372199
 30
0.0
 40
4.0
  1
DATE
 41
0.9
  7
ｽﾀｲﾙ1
100
AcDbText
  0
LINE
  5
1979
330
1A
100
AcDbEntity
  8
ZUWAKU
100
AcDbLine
 10
697.2490109418825
 20
29.99999965533641
 30
0.0
 11
697.2490109418825
 21
0.7999996553364781
 31
0.0
  0
LINE
  5
197A
330
1A
100
AcDbEntity
  8
ZUWAKU
100
AcDbLine
 10
697.4490109418825
 20
29.99999965533641
 30
0.0
 11
697.4490109418825
 21
0.7999996553364781
 31
0.0
  0
LINE
  5
197B
330
1A
100
AcDbEntity
  8
ZUWAKU
100
AcDbLine
 10
697.6490109418824
 20
29.99999965533641
 30
0.0
 11
697.6490109418826
 21
0.7999996553364781
 31
0.0
  0
LINE
  5
197C
330
1A
100
AcDbEntity
  8
ZUWAKU
100
AcDbLine
 10
697.8490109418824
 20
29.99999965533641
 30
0.0
 11
697.8490109418826
 21
0.7999996553364781
 31
0.0
  0
TEXT
  5
197D
330
1A
100
AcDbEntity
  8
ZUWAKU
100
AcDbText
 10
708.528084585585
 20
17.55383899102321
 30
0.0
 40
6.0
  1
積水化学工業株式会社
 41
0.9
  7
ｽﾀｲﾙ1
100
AcDbText
  0
TEXT
  5
197E
330
1A
100
AcDbEntity
  8
ZUWAKU
100
AcDbText
 10
708.528084585585
 20
6.648839969190476
 30
0.0
 40
6.0
  1
建材事業部
 41
0.9
  7
ｽﾀｲﾙ1
100
AcDbText
  0
DIMENSION
  5
2002
330
1A
100
AcDbEntity
  8
SUNPOU
 62
     4
 48
5.0
100
AcDbDimension
  2
*D1
 10
600.6116922931437
 20
488.2506008261465
 30
0.0
 11
565.6116922931437
 21
492.2506008261465
 31
0.0
 70
    32
 71
     5
 42
70.0
  3
STANDARD
100
AcDbAlignedDimension
 13
530.6116922931437
 23
450.2854054052098
 33
0.0
 14
600.6116922931437
 24
450.2854054052098
 34
0.0
100
AcDbRotatedDimension
1001
ACAD
1000
DSTYLE
1002
{
1070
    41
1040
3.5
1070
    42
1040
3.0
1070
    43
1040
7.0
1070
    44
1040
1.5
1070
    73
1070
     0
1070
    74
1070
     0
1070
    77
1070
     3
1070
   140
1040
6.0
1070
   141
1040
7.0
1070
   147
1040
1.0
1070
   172
1070
     1
1070
   173
1070
     1
1070
   176
1070
     4
1070
   177
1070
     4
1070
   178
1070
     4
1070
   271
1070
     0
1070
   272
1070
     2
1070
     6
1000
OPEN
1070
     7
1000
OPEN
1002
}
  0
LINE
  5
2003
330
1A
100
AcDbEntity
  8
SEIHIN
100
AcDbLine
 10
544.1116922931437
 20
450.2854054052098
 30
0.0
 11
530.6116922931437
 21
450.2854054052098
 31
0.0
  0
ARC
  5
2004
330
1A
100
AcDbEntity
  8
SEIHIN
100
AcDbCircle
 10
543.6116922931437
 20
434.2854054052098
 30
0.0
 40
2.0
100
AcDbArc
 50
270.0
 51
0.0
  0
ARC
  5
2005
330
1A
100
AcDbEntity
  8
SEIHIN
100
AcDbCircle
 10
542.9636014270438
 20
442.2854054052097
 30
0.0
 40
9.999999999999998
100
AcDbArc
 50
197.3540246363016
 51
270.0
  0
LINE
  5
2006
330
1A
100
AcDbEntity
  8
SEIHIN
100
AcDbLine
 10
543.6116922931437
 20
432.2854054052098
 30
0.0
 11
542.9636014270438
 21
432.2854054052098
 31
0.0
  0
LINE
  5
2007
330
1A
100
AcDbEntity
  8
SEIHIN
100
AcDbLine
 10
533.4188016466437
 20
439.3026554738097
 30
0.0
 11
530.6116922931437
 21
448.2854054052098
 31
0.0
  0
LINE
  5
2008
330
1A
100
AcDbEntity
  8
SEIHIN
100
AcDbLine
 10
530.6116922931437
 20
448.2854054052098
 30
0.0
 11
530.6116922931437
 21
450.2854054052098
 31
0.0
  0
ARC
  5
2009
330
1A
100
AcDbEntity
  8
SEIHIN
100
AcDbCircle
 10
531.6116922931437
 20
449.2854054052098
 30
0.0
 40
1.0
100
AcDbArc
 50
90.0
 51
93.03947777139152
  0
DIMENSION
  5
200B
330
1A
100
AcDbEntity
  8
SUNPOU
 62
     4
 48
5.0
100
AcDbDimension
  2
*D2
 10
614.3716755349431
 20
432.2854054052097
 30
0.0
 11
610.3716755349429
 21
441.2854054052098
 31
0.0
 70
    32
 71
     5
 42
18.00000000000006
  3
STANDARD
100
AcDbAlignedDimension
 13
600.6116922931437
 23
450.2854054052098
 33
0.0
 14
588.2597831592437
 24
432.2854054052097
 34
0.0
 50
90.0
100
AcDbRotatedDimension
1001
ACAD
1000
DSTYLE
1002
{
1070
    41
1040
3.5
1070
    42
1040
3.0
1070
    43
1040
7.0
1070
    44
1040
1.5
1070
    73
1070
     0
1070
    74
1070
     0
1070
    77
1070
     3
1070
   140
1040
6.0
1070
   141
1040
7.0
1070
   147
1040
1.0
1070
   172
1070
     1
1070
   173
1070
     1
1070
   176
1070
     4
1070
   177
1070
     4
1070
   178
1070
     4
1070
   271
1070
     0
1070
   272
1070
     2
1070
     6
1000
OPEN
1070
     7
1000
OPEN
1002
}
  0
DIMENSION
  5
200C
330
1A
100
AcDbEntity
  8
SUNPOU
 62
     4
 48
5.0
100
AcDbDimension
  2
*D3
 10
627.3148895007613
 20
430.2854054052098
 30
0.0
 11
627.3148895007612
 21
445.2854054052098
 31
0.0
 70
   160
 71
     5
 42
30.0
  3
STANDARD
100
AcDbAlignedDimension
 13
558.6116922931437
 23
460.2854054052098
 33
0.0
 14
565.6116922931437
 24
430.2854054052098
 34
0.0
 50
90.0
100
AcDbRotatedDimension
1001
ACAD
1000
DSTYLE
1002
{
1070
    41
1040
3.5
1070
    42
1040
3.0
1070
    43
1040
7.0
1070
    44
1040
1.5
1070
    73
1070
     0
1070
    74
1070
     0
1070
    77
1070
     3
1070
   140
1040
6.0
1070
   141
1040
7.0
1070
   147
1040
1.0
1070
   172
1070
     1
1070
   173
1070
     1
1070
   176
1070
     4
1070
   177
1070
     4
1070
   178
1070
     4
1070
   271
1070
     0
1070
   272
1070
     2
1070
     6
1000
OPEN
1070
     7
1000
OPEN
1002
}
  0
ARC
  5
200D
330
1A
100
AcDbEntity
  8
SEIHIN
100
AcDbCircle
 10
587.6116922931437
 20
434.2854054052098
 30
0.0
 40
2.0
100
AcDbArc
 50
180.0
 51
270.0
  0
ARC
  5
200E
330
1A
100
AcDbEntity
  8
SEIHIN
100
AcDbCircle
 10
588.2597831592437
 20
442.2854054052097
 30
0.0
 40
9.999999999999972
100
AcDbArc
 50
270.0
 51
342.6459753636984
  0
ARC
  5
200F
330
1A
100
AcDbEntity
  8
SEIHIN
100
AcDbCircle
 10
563.6116922931437
 20
438.2854054052097
 30
0.0
 40
8.0
100
AcDbArc
 50
180.0
 51
270.0
  0
ARC
  5
2010
330
1A
100
AcDbEntity
  8
SEIHIN
100
AcDbCircle
 10
567.6116922931437
 20
438.2854054052097
 30
0.0
 40
7.999999999999972
100
AcDbArc
 50
270.0
 51
0.0
  0
LINE
  5
2011
330
1A
100
AcDbEntity
  8
CENTER L
  6
CENTER
 62
     1
 48
5.0
100
AcDbLine
 10
565.6116922931437
 20
462.3295385394557
 30
0.0
 11
565.6116922931437
 21
428.2546751514776
 31
0.0
  0
LINE
  5
2012
330
1A
100
AcDbEntity
  8
SEIHIN
100
AcDbLine
 10
567.6116922931437
 20
430.2854054052098
 30
0.0
 11
563.6116922931437
 21
430.2854054052098
 31
0.0
  0
LINE
  5
2013
330
1A
100
AcDbEntity
  8
SEIHIN
100
AcDbLine
 10
588.2597831592437
 20
432.2854054052098
 30
0.0
 11
587.6116922931437
 21
432.2854054052098
 31
0.0
  0
ARC
  5
2014
330
1A
100
AcDbEntity
  8
SEIHIN
100
AcDbCircle
 10
576.6116922931437
 20
450.2854054052098
 30
0.0
 40
1.0
100
AcDbArc
 50
180.0
 51
270.0
  0
LINE
  5
2015
330
1A
100
AcDbEntity
  8
SEIHIN
100
AcDbLine
 10
575.6116922931437
 20
448.2854054052098
 30
0.0
 11
585.6116922931437
 21
448.2854054052098
 31
0.0
  0
LINE
  5
2016
330
1A
100
AcDbEntity
  8
SEIHIN
100
AcDbLine
 10
555.6116922931437
 20
438.2854054052097
 30
0.0
 11
555.6116922931437
 21
457.2854054052098
 31
0.0
  0
LINE
  5
2017
330
1A
100
AcDbEntity
  8
SEIHIN
100
AcDbLine
 10
575.6116922931437
 20
457.2854054052098
 30
0.0
 11
575.6116922931437
 21
438.2854054052097
 31
0.0
  0
LINE
  5
2018
330
1A
100
AcDbEntity
  8
SEIHIN
100
AcDbLine
 10
545.6116922931437
 20
450.2854054052098
 30
0.0
 11
545.6116922931437
 21
434.2854054052098
 31
0.0
  0
LINE
  5
2019
330
1A
100
AcDbEntity
  8
SEIHIN
100
AcDbLine
 10
546.6116922931437
 20
449.2854054052098
 30
0.0
 11
554.6116922931437
 21
449.2854054052098
 31
0.0
  0
LINE
  5
201A
330
1A
100
AcDbEntity
  8
SEIHIN
100
AcDbLine
 10
545.6116922931437
 20
448.2854054052098
 30
0.0
 11
555.6116922931437
 21
448.2854054052098
 31
0.0
  0
LINE
  5
201B
330
1A
100
AcDbEntity
  8
SEIHIN
100
AcDbLine
 10
544.1116922931437
 20
450.2854054052098
 30
0.0
 11
545.6116922931437
 21
450.2854054052098
 31
0.0
  0
ARC
  5
201C
330
1A
100
AcDbEntity
  8
SEIHIN
100
AcDbCircle
 10
546.6116922931437
 20
450.2854054052098
 30
0.0
 40
1.0
100
AcDbArc
 50
180.0
 51
270.0
  0
ARC
  5
201D
330
1A
100
AcDbEntity
  8
SEIHIN
100
AcDbCircle
 10
554.6116922931437
 20
450.2854054052098
 30
0.0
 40
1.0
100
AcDbArc
 50
270.0
 51
0.0
  0
LINE
  5
201E
330
1A
100
AcDbEntity
  8
SEIHIN
100
AcDbLine
 10
558.6116922931437
 20
460.2854054052098
 30
0.0
 11
572.6116922931437
 21
460.2854054052098
 31
0.0
  0
DIMENSION
  5
201F
330
1A
100
AcDbEntity
  8
SUNPOU
 62
     4
 48
5.0
100
AcDbDimension
  2
*D4
 10
575.6116922931437
 20
472.3672851621869
 30
0.0
 11
565.6116922931437
 21
476.3672851621869
 31
0.0
 70
    32
 71
     5
 42
20.0
  3
STANDARD
100
AcDbAlignedDimension
 13
555.6116922931437
 23
457.2854054052098
 33
0.0
 14
575.6116922931437
 24
457.2854054052098
 34
0.0
100
AcDbRotatedDimension
1001
ACAD
1000
DSTYLE
1002
{
1070
    41
1040
3.5
1070
    42
1040
3.0
1070
    43
1040
7.0
1070
    44
1040
1.5
1070
    73
1070
     0
1070
    74
1070
     0
1070
    77
1070
     3
1070
   140
1040
6.0
1070
   141
1040
7.0
1070
   147
1040
1.0
1070
   172
1070
     1
1070
   173
1070
     1
1070
   176
1070
     4
1070
   177
1070
     4
1070
   178
1070
     4
1070
   271
1070
     0
1070
   272
1070
     2
1070
     6
1000
OPEN
1070
     7
1000
OPEN
1002
}
  0
ARC
  5
2020
330
1A
100
AcDbEntity
  8
SEIHIN
100
AcDbCircle
 10
558.6116922931437
 20
457.2854054052098
 30
0.0
 40
3.0
100
AcDbArc
 50
90.0
 51
180.0
  0
ARC
  5
2021
330
1A
100
AcDbEntity
  8
SEIHIN
100
AcDbCircle
 10
572.6116922931437
 20
457.2854054052098
 30
0.0
 40
3.0
100
AcDbArc
 50
0.0
 51
90.0
  0
DIMENSION
  5
2022
330
1A
100
AcDbEntity
  8
SUNPOU
 62
     4
 48
5.0
100
AcDbDimension
  2
*D5
 10
600.6116922931437
 20
472.3672851621869
 30
0.0
 11
593.1116922931437
 21
476.3672851621869
 31
0.0
 70
    32
 71
     5
 42
15.0
  3
STANDARD
100
AcDbAlignedDimension
 13
585.6116922931437
 23
450.2854054052098
 33
0.0
 14
600.6116922931437
 24
450.2854054052098
 34
0.0
100
AcDbRotatedDimension
1001
ACAD
1000
DSTYLE
1002
{
1070
    41
1040
3.5
1070
    42
1040
3.0
1070
    43
1040
7.0
1070
    44
1040
1.5
1070
    73
1070
     0
1070
    74
1070
     0
1070
    77
1070
     3
1070
   140
1040
6.0
1070
   141
1040
7.0
1070
   147
1040
1.0
1070
   172
1070
     1
1070
   173
1070
     1
1070
   176
1070
     4
1070
   177
1070
     4
1070
   178
1070
     4
1070
   271
1070
     0
1070
   272
1070
     2
1070
     6
1000
OPEN
1070
     7
1000
OPEN
1002
}
  0
LINE
  5
2023
330
1A
100
AcDbEntity
  8
SEIHIN
100
AcDbLine
 10
600.6116922931437
 20
450.2854054052098
 30
0.0
 11
587.1116922931437
 21
450.2854054052098
 31
0.0
  0
LINE
  5
2024
330
1A
100
AcDbEntity
  8
SEIHIN
100
AcDbLine
 10
585.6116922931437
 20
434.2854054052098
 30
0.0
 11
585.6116922931437
 21
450.2854054052098
 31
0.0
  0
ARC
  5
2025
330
1A
100
AcDbEntity
  8
SEIHIN
100
AcDbCircle
 10
584.6116922931437
 20
450.2854054052098
 30
0.0
 40
1.0
100
AcDbArc
 50
270.0
 51
0.0
  0
LINE
  5
2026
330
1A
100
AcDbEntity
  8
SEIHIN
100
AcDbLine
 10
576.6116922931437
 20
449.2854054052098
 30
0.0
 11
584.6116922931437
 21
449.2854054052098
 31
0.0
  0
LINE
  5
2027
330
1A
100
AcDbEntity
  8
SEIHIN
100
AcDbLine
 10
585.6116922931437
 20
450.2854054052098
 30
0.0
 11
587.1116922931437
 21
450.2854054052098
 31
0.0
  0
LINE
  5
2028
330
1A
100
AcDbEntity
  8
SEIHIN
100
AcDbLine
 10
600.6116922931437
 20
448.2854054052098
 30
0.0
 11
597.8045829395437
 21
439.3026554738097
 31
0.0
  0
ARC
  5
2029
330
1A
100
AcDbEntity
  8
SEIHIN
100
AcDbCircle
 10
599.6116922931437
 20
449.2854054052098
 30
0.0
 40
0.9999999999999191
100
AcDbArc
 50
86.96052222859544
 51
90.0
  0
LINE
  5
202A
330
1A
100
AcDbEntity
  8
SEIHIN
100
AcDbLine
 10
600.6116922931437
 20
450.2854054052098
 30
0.0
 11
600.6116922931437
 21
448.2854054052098
 31
0.0
  0
LINE
  5
202B
330
1A
100
AcDbEntity
  8
SEIHIN
100
AcDbLine
 10
653.7070764990158
 20
439.3026554738098
 30
0.0
 11
653.7070764990158
 21
432.2854054052098
 31
0.0
  0
LINE
  5
202C
330
1A
100
AcDbEntity
  8
SEIHIN
100
AcDbLine
 10
654.207076499016
 20
439.3026554738098
 30
0.0
 11
654.207076499016
 21
432.2854054052098
 31
0.0
  0
LINE
  5
202D
330
1A
100
AcDbEntity
  8
SEIHIN
100
AcDbLine
 10
652.207076499016
 20
431.7854054052098
 30
0.0
 11
652.207076499016
 21
433.7854054052098
 31
0.0
  0
LINE
  5
202E
330
1A
100
AcDbEntity
  8
SEIHIN
100
AcDbLine
 10
654.207076499016
 20
436.2854054052096
 30
0.0
 11
654.207076499016
 21
432.2854054052096
 31
0.0
  0
LINE
  5
202F
330
1A
100
AcDbEntity
  8
SEIHIN
100
AcDbLine
 10
654.207076499016
 20
430.2854054052098
 30
0.0
 11
653.7070764990158
 21
430.2854054052098
 31
0.0
  0
ARC
  5
2030
330
1A
100
AcDbEntity
  8
SEIHIN
100
AcDbCircle
 10
653.7070764990158
 20
431.7854054052098
 30
0.0
 40
1.499999999999886
100
AcDbArc
 50
180.0
 51
270.0
  0
LINE
  5
2031
330
1A
100
AcDbEntity
  8
SEIHIN
100
AcDbLine
 10
654.207076499016
 20
432.2854054052098
 30
0.0
 11
654.207076499016
 21
430.2854054052098
 31
0.0
  0
LINE
  5
2032
330
1A
100
AcDbEntity
  8
SEIHIN
100
AcDbLine
 10
653.7070764990158
 20
432.2854054052098
 30
0.0
 11
653.7070764990158
 21
430.2854054052098
 31
0.0
  0
LINE
  5
2033
330
1A
100
AcDbEntity
  8
SEIHIN
100
AcDbLine
 10
654.207076499016
 20
432.2854054052096
 30
0.0
 11
654.207076499016
 21
430.2854054052096
 31
0.0
  0
DIMENSION
  5
2034
330
1A
100
AcDbEntity
  8
SUNPOU
 62
     4
 48
5.0
100
AcDbDimension
  2
*D6
 10
660.207076499016
 20
472.3672851621869
 30
0.0
 11
656.2070764990159
 21
476.3672851621869
 31
0.0
 70
    32
 71
     5
 42
8.000000000000227
  3
STANDARD
100
AcDbAlignedDimension
 13
652.2070764990158
 23
458.7854054052098
 33
0.0
 14
660.207076499016
 24
448.7854054052097
 34
0.0
100
AcDbRotatedDimension
1001
ACAD
1000
DSTYLE
1002
{
1070
    41
1040
3.5
1070
    42
1040
3.0
1070
    43
1040
7.0
1070
    44
1040
1.5
1070
    73
1070
     0
1070
    74
1070
     0
1070
    77
1070
     3
1070
   140
1040
6.0
1070
   141
1040
7.0
1070
   147
1040
1.0
1070
   172
1070
     1
1070
   173
1070
     1
1070
   176
1070
     4
1070
   177
1070
     4
1070
   178
1070
     4
1070
   271
1070
     0
1070
   272
1070
     2
1070
     6
1000
OPEN
1070
     7
1000
OPEN
1002
}
  0
LINE
  5
2035
330
1A
100
AcDbEntity
  8
SEIHIN
100
AcDbLine
 10
652.207076499016
 20
450.2854054052098
 30
0.0
 11
652.207076499016
 21
457.2854054052098
 31
0.0
  0
LINE
  5
2036
330
1A
100
AcDbEntity
  8
SEIHIN
100
AcDbLine
 10
654.207076499016
 20
457.2854054052098
 30
0.0
 11
654.207076499016
 21
450.7854054052098
 31
0.0
  0
LINE
  5
2037
330
1A
100
AcDbEntity
  8
SEIHIN
100
AcDbLine
 10
654.207076499016
 20
458.2854054052098
 30
0.0
 11
654.207076499016
 21
450.2854054052098
 31
0.0
  0
LINE
  5
2038
330
1A
100
AcDbEntity
  8
SEIHIN
100
AcDbLine
 10
652.207076499016
 20
450.2854054052098
 30
0.0
 11
659.207076499016
 21
450.2854054052098
 31
0.0
  0
LINE
  5
2039
330
1A
100
AcDbEntity
  8
SEIHIN
100
AcDbLine
 10
659.207076499016
 20
448.2854054052098
 30
0.0
 11
654.207076499016
 21
448.2854054052098
 31
0.0
  0
LINE
  5
203A
330
1A
100
AcDbEntity
  8
SEIHIN
100
AcDbLine
 10
655.9834561168161
 20
444.2056601829097
 30
0.0
 11
655.6570764990158
 21
448.2854054052098
 31
0.0
  0
LINE
  5
203B
330
1A
100
AcDbEntity
  8
SEIHIN
100
AcDbLine
 10
658.1570764990158
 20
448.2854054052098
 30
0.0
 11
658.1570764990158
 21
443.2854054052098
 31
0.0
  0
LINE
  5
203C
330
1A
100
AcDbEntity
  8
SEIHIN
100
AcDbLine
 10
658.1570764990161
 20
448.2854054052096
 30
0.0
 11
658.1570764990161
 21
443.2854054052096
 31
0.0
  0
LINE
  5
203D
330
1A
100
AcDbEntity
  8
SEIHIN
100
AcDbLine
 10
653.7070764990158
 20
448.2854054052098
 30
0.0
 11
653.7070764990158
 21
439.3026554738098
 31
0.0
  0
LINE
  5
203E
330
1A
100
AcDbEntity
  8
SEIHIN
100
AcDbLine
 10
654.207076499016
 20
439.3026554738098
 30
0.0
 11
654.207076499016
 21
448.2854054052098
 31
0.0
  0
LINE
  5
203F
330
1A
100
AcDbEntity
  8
SEIHIN
100
AcDbLine
 10
652.207076499016
 20
439.7500679635098
 30
0.0
 11
652.207076499016
 21
450.2839986425097
 31
0.0
  0
LINE
  5
2040
330
1A
100
AcDbEntity
  8
SEIHIN
100
AcDbLine
 10
658.1570764990158
 20
443.2854054052098
 30
0.0
 11
656.9802713953161
 21
443.2854054052098
 31
0.0
  0
ARC
  5
2041
330
1A
100
AcDbEntity
  8
SEIHIN
100
AcDbCircle
 10
656.9802713953161
 20
444.2854054052098
 30
0.0
 40
1.000000000000008
100
AcDbArc
 50
184.5739212599011
 51
270.0
  0
LINE
  5
2042
330
1A
100
AcDbEntity
  8
SEIHIN
100
AcDbLine
 10
652.207076499016
 20
433.7854054052098
 30
0.0
 11
652.207076499016
 21
439.7500679635098
 31
0.0
  0
LINE
  5
2043
330
1A
100
AcDbEntity
  8
SEIHIN
100
AcDbLine
 10
652.207076499016
 20
450.2839986425097
 30
0.0
 11
652.207076499016
 21
450.2854054052098
 31
0.0
  0
LINE
  5
2044
330
1A
100
AcDbEntity
  8
SEIHIN
100
AcDbLine
 10
654.207076499016
 20
448.2854054052098
 30
0.0
 11
653.7070764990158
 21
448.2854054052098
 31
0.0
  0
LINE
  5
2045
330
1A
100
AcDbEntity
  8
SEIHIN
100
AcDbLine
 10
660.207076499016
 20
449.2854054052098
 30
0.0
 11
660.207076499016
 21
448.2854054052098
 31
0.0
  0
LINE
  5
2046
330
1A
100
AcDbEntity
  8
SEIHIN
100
AcDbLine
 10
660.207076499016
 20
448.2854054052098
 30
0.0
 11
659.207076499016
 21
448.2854054052098
 31
0.0
  0
ARC
  5
2047
330
1A
100
AcDbEntity
  8
SEIHIN
100
AcDbCircle
 10
659.207076499016
 20
449.2854054052098
 30
0.0
 40
1.0
100
AcDbArc
 50
0.0
 51
90.0
  0
LINE
  5
2048
330
1A
100
AcDbEntity
  8
SEIHIN
100
AcDbLine
 10
660.207076499016
 20
448.2854054052096
 30
0.0
 11
659.207076499016
 21
448.2854054052096
 31
0.0
  0
LINE
  5
2049
330
1A
100
AcDbEntity
  8
SEIHIN
100
AcDbLine
 10
660.207076499016
 20
449.2854054052098
 30
0.0
 11
660.207076499016
 21
448.2854054052096
 31
0.0
  0
LINE
  5
204A
330
1A
100
AcDbEntity
  8
SEIHIN
100
AcDbLine
 10
654.207076499016
 20
460.2854054052098
 30
0.0
 11
654.207076499016
 21
458.2854054052098
 31
0.0
  0
ARC
  5
204B
330
1A
100
AcDbEntity
  8
SEIHIN
100
AcDbCircle
 10
653.7070764990158
 20
458.7854054052098
 30
0.0
 40
1.5
100
AcDbArc
 50
90.0
 51
180.0
  0
LINE
  5
204C
330
1A
100
AcDbEntity
  8
SEIHIN
100
AcDbLine
 10
653.7070764990158
 20
460.2854054052098
 30
0.0
 11
654.207076499016
 21
460.2854054052098
 31
0.0
  0
LINE
  5
204D
330
1A
100
AcDbEntity
  8
SEIHIN
100
AcDbLine
 10
653.707076499016
 20
460.2854054052098
 30
0.0
 11
654.207076499016
 21
460.2854054052098
 31
0.0
  0
LINE
  5
204E
330
1A
100
AcDbEntity
  8
SEIHIN
100
AcDbLine
 10
652.207076499016
 20
457.2854054052098
 30
0.0
 11
652.207076499016
 21
458.7854054052098
 31
0.0
  0
LINE
  5
204F
330
1A
100
AcDbEntity
  8
SEIHIN
100
AcDbLine
 10
654.207076499016
 20
460.2854054052098
 30
0.0
 11
654.207076499016
 21
457.2854054052098
 31
0.0
  0
DIMENSION
  5
283A
330
1A
100
AcDbEntity
  8
SUNPOU
  6
Continuous
100
AcDbDimension
  2
*D7
 10
138.2326192416547
 20
293.2395986742693
 30
0.0
 11
248.2328692416547
 21
298.2395986742693
 31
0.0
 70
    32
 71
     5
 42
220.0005
  3
STANDARD
100
AcDbAlignedDimension
 13
358.2331192416547
 23
260.573794807935
 33
0.0
 14
138.2326192416547
 24
260.5740948079349
 34
0.0
100
AcDbRotatedDimension
1001
ACAD
1000
DSTYLE
1002
{
1070
   140
1040
6.0
1070
    74
1070
     0
1070
   172
1070
     1
1070
    73
1070
     0
1070
   272
1070
     2
1070
    77
1070
     3
1070
   173
1070
     1
1070
   147
1040
2.0
1070
    42
1040
6.0
1070
    44
1040
3.0
1070
    43
1040
14.0
1070
   271
1070
     0
1070
   178
1070
     4
1070
   177
1070
     4
1070
   176
1070
     4
1070
   141
1040
150.0
1070
     7
1000
_OPEN
1070
     6
1000
_OPEN
1070
    41
1040
7.0
1002
}
  0
LINE
  5
283B
330
1A
100
AcDbEntity
  8
SEIHIN
  6
Continuous
 62
     3
 48
16.0
100
AcDbLine
 10
248.2328192416547
 20
260.5739948079349
 30
0.0
 11
138.2326192416547
 21
260.5740948079349
 31
0.0
  0
LINE
  5
283C
330
1A
100
AcDbEntity
  8
SEIHIN
  6
Continuous
 62
     3
 48
16.0
100
AcDbLine
 10
248.2328192416547
 20
230.573994807935
 30
0.0
 11
143.0425192416547
 21
230.5740948079349
 31
0.0
  0
LINE
  5
283D
330
1A
100
AcDbEntity
  8
SEIHIN
  6
Continuous
 62
     3
 48
16.0
100
AcDbLine
 10
141.0524192416547
 20
232.3750948079349
 30
0.0
 11
138.2326192416547
 21
260.573794807935
 31
0.0
  0
ARC
  5
283E
330
1A
100
AcDbEntity
  8
SEIHIN
  6
Continuous
 62
     3
 48
16.0
100
AcDbCircle
 10
143.0425192416547
 20
232.5740948079349
 30
0.0
 40
2.000012376173408
100
AcDbArc
 50
185.7103080838704
 51
270.0
  0
DIMENSION
  5
283F
330
1A
100
AcDbEntity
  8
SUNPOU
  6
Continuous
100
AcDbDimension
  2
*D8
 10
169.2324470513146
 20
50.04288057726285
 30
0.0
 11
248.2326041356243
 21
55.04288057726285
 31
0.0
 70
    32
 71
     5
 42
158.0003141686196
  3
STANDARD
100
AcDbAlignedDimension
 13
327.2327612199342
 23
144.6738906093561
 33
0.0
 14
169.2324470513146
 24
144.6740969072634
 34
0.0
100
AcDbRotatedDimension
1001
ACAD
1000
DSTYLE
1002
{
1070
   140
1040
6.0
1070
    74
1070
     0
1070
   172
1070
     1
1070
    73
1070
     0
1070
   272
1070
     2
1070
    77
1070
     3
1070
   173
1070
     1
1070
   147
1040
2.0
1070
    42
1040
6.0
1070
    44
1040
3.0
1070
    43
1040
14.0
1070
   271
1070
     0
1070
   178
1070
     4
1070
   177
1070
     4
1070
   176
1070
     4
1070
   141
1040
150.0
1070
     7
1000
_OPEN
1070
     6
1000
_OPEN
1070
    41
1040
7.0
1002
}
  0
LINE
  5
2840
330
1A
100
AcDbEntity
  8
SEIHIN
  6
Continuous
 62
     3
 48
16.0
100
AcDbLine
 10
292.8824192416547
 20
128.6740948079349
 30
0.0
 11
292.6324192416547
 21
93.67409480793494
 31
0.0
  0
LINE
  5
2841
330
1A
100
AcDbEntity
  8
SEIHIN
  6
Continuous
 62
     3
 48
16.0
100
AcDbLine
 10
203.5829192416547
 20
128.6740948079349
 30
0.0
 11
203.8329192416547
 21
93.67409480793494
 31
0.0
  0
LINE
  5
2842
330
1A
100
AcDbEntity
  8
CENTER L
  6
CENTER
 62
     1
 48
5.0
100
AcDbLine
 10
248.2328192416547
 20
266.1867948079349
 30
0.0
 11
248.2325192416547
 21
66.98539480793494
 31
0.0
  0
LINE
  5
2843
330
1A
100
AcDbEntity
  8
SEIHIN
  6
Continuous
 62
     3
 48
16.0
100
AcDbLine
 10
292.6324192416547
 20
93.67399480793493
 30
0.0
 11
248.2324192416547
 21
93.67399480793493
 31
0.0
  0
LINE
  5
2844
330
1A
100
AcDbEntity
  8
SEIHIN
  6
Continuous
 62
     3
 48
16.0
100
AcDbLine
 10
291.6324192416547
 20
92.67399480793493
 30
0.0
 11
248.2324192416547
 21
92.67399480793493
 31
0.0
  0
LINE
  5
2845
330
1A
100
AcDbEntity
  8
SEIHIN
  6
Continuous
 62
     3
 48
16.0
100
AcDbLine
 10
203.8329192416547
 20
93.67399480793493
 30
0.0
 11
248.2329192416547
 21
93.67399480793493
 31
0.0
  0
LINE
  5
2846
330
1A
100
AcDbEntity
  8
SEIHIN
  6
Continuous
 62
     3
 48
16.0
100
AcDbLine
 10
204.8329192416547
 20
92.67399480793493
 30
0.0
 11
248.2329192416547
 21
92.67399480793493
 31
0.0
  0
LINE
  5
2847
330
1A
100
AcDbEntity
  8
SEIHIN
  6
Continuous
 62
     3
 48
16.0
100
AcDbLine
 10
203.8329192416547
 20
93.67409480793494
 30
0.0
 11
204.8329192416547
 21
92.67399480793493
 31
0.0
  0
LINE
  5
2848
330
1A
100
AcDbEntity
  8
SEIHIN
  6
Continuous
 62
     3
 48
16.0
100
AcDbLine
 10
292.6324192416547
 20
93.67409480793494
 30
0.0
 11
291.6324192416547
 21
92.67399480793493
 31
0.0
  0
LINE
  5
2849
330
1A
100
AcDbEntity
  8
SEIHIN
  6
Continuous
 62
     3
 48
16.0
100
AcDbLine
 10
248.2328192416547
 20
260.573894807935
 30
0.0
 11
358.2331192416547
 21
260.573794807935
 31
0.0
  0
LINE
  5
284A
330
1A
100
AcDbEntity
  8
SEIHIN
  6
Continuous
 62
     3
 48
16.0
100
AcDbLine
 10
248.2326192416547
 20
167.674094807935
 30
0.0
 11
332.0523192416547
 21
167.6738948079349
 31
0.0
  0
LINE
  5
284B
330
1A
100
AcDbEntity
  8
SEIHIN
  6
Continuous
 62
     3
 48
16.0
100
AcDbLine
 10
248.2326192416547
 20
144.6740948079349
 30
0.0
 11
325.6084192416546
 21
144.6738948079349
 31
0.0
  0
LINE
  5
284C
330
1A
100
AcDbEntity
  8
SEIHIN
  6
Continuous
 62
     3
 48
16.0
100
AcDbLine
 10
248.2328192416547
 20
230.5738948079349
 30
0.0
 11
353.4230192416547
 21
230.5736948079349
 31
0.0
  0
LINE
  5
284D
330
1A
100
AcDbEntity
  8
SEIHIN
  6
Continuous
 62
     3
 48
16.0
100
AcDbLine
 10
248.2327192416547
 20
128.673994807935
 30
0.0
 11
306.1241192416547
 21
128.6738948079349
 31
0.0
  0
LINE
  5
284E
330
1A
100
AcDbEntity
  8
SEIHIN
  6
Continuous
 62
     3
 48
16.0
100
AcDbLine
 10
151.2329192416547
 20
230.5738948079349
 30
0.0
 11
168.8993192416547
 21
146.263894807935
 31
0.0
  0
LINE
  5
284F
330
1A
100
AcDbEntity
  8
SEIHIN
  6
Continuous
 62
     3
 48
16.0
100
AcDbLine
 10
248.2327192416547
 20
167.674094807935
 30
0.0
 11
164.4130192416547
 21
167.6741948079349
 31
0.0
  0
LINE
  5
2850
330
1A
100
AcDbEntity
  8
SEIHIN
  6
Continuous
 62
     3
 48
16.0
100
AcDbLine
 10
248.2326192416547
 20
144.673994807935
 30
0.0
 11
170.8568192416547
 21
144.6740948079349
 31
0.0
  0
LINE
  5
2851
330
1A
100
AcDbEntity
  8
SEIHIN
  6
Continuous
 62
     3
 48
16.0
100
AcDbLine
 10
248.2327192416547
 20
128.6740948079349
 30
0.0
 11
190.3412192416547
 21
128.6740948079349
 31
0.0
  0
ARC
  5
2852
330
1A
100
AcDbEntity
  8
SEIHIN
  6
Continuous
 62
     3
 48
16.0
100
AcDbCircle
 10
170.8568192416547
 20
146.6740948079349
 30
0.0
 40
1.999998532498917
100
AcDbArc
 50
191.8324436312522
 51
270.0
  0
LINE
  5
2853
330
1A
100
AcDbEntity
  8
SEIHIN
  6
Continuous
 62
     3
 48
16.0
100
AcDbLine
 10
179.5263192416547
 20
144.204094807935
 30
0.0
 11
188.6452192416547
 21
129.6140948079349
 31
0.0
  0
ARC
  5
2854
330
1A
100
AcDbEntity
  8
SEIHIN
  6
Continuous
 62
     3
 48
16.0
100
AcDbCircle
 10
190.3412192416547
 20
130.6740948079349
 30
0.0
 40
2.000001999997999
100
AcDbArc
 50
212.0053832080825
 51
270.0
  0
ARC
  5
2855
330
1A
100
AcDbEntity
  8
SEIHIN
  6
Continuous
 62
     3
 48
16.0
100
AcDbCircle
 10
178.6783192416547
 20
143.6740948079349
 30
0.0
 40
1.000000999999009
100
AcDbArc
 50
32.00538320808436
 51
90.0
  0
LINE
  5
2856
330
1A
100
AcDbEntity
  8
SEIHIN
  6
Continuous
 62
     3
 48
16.0
100
AcDbLine
 10
345.2327192416547
 20
230.5736948079349
 30
0.0
 11
327.5659192416547
 21
146.2637948079349
 31
0.0
  0
ARC
  5
2857
330
1A
100
AcDbEntity
  8
SEIHIN
  6
Continuous
 62
     3
 48
16.0
100
AcDbCircle
 10
306.1241192416547
 20
130.673994807935
 30
0.0
 40
2.000001999997981
100
AcDbArc
 50
270.0
 51
327.9946167919153
  0
LINE
  5
2858
330
1A
100
AcDbEntity
  8
SEIHIN
  6
Continuous
 62
     3
 48
16.0
100
AcDbLine
 10
316.9390192416547
 20
144.2038948079349
 30
0.0
 11
307.8201192416547
 21
129.6138948079349
 31
0.0
  0
ARC
  5
2859
330
1A
100
AcDbEntity
  8
SEIHIN
  6
Continuous
 62
     3
 48
16.0
100
AcDbCircle
 10
317.7870192416547
 20
143.6738948079349
 30
0.0
 40
1.000027501743668
100
AcDbArc
 50
90.0
 51
147.9897583867564
  0
ARC
  5
285A
330
1A
100
AcDbEntity
  8
SEIHIN
  6
Continuous
 62
     3
 48
16.0
100
AcDbCircle
 10
325.6084192416546
 20
146.6738948079349
 30
0.0
 40
1.999998532498945
100
AcDbArc
 50
270.0
 51
348.1675563687478
  0
LINE
  5
285B
330
1A
100
AcDbEntity
  8
SEIHIN
  6
Continuous
 62
     3
 48
16.0
100
AcDbLine
 10
355.4131192416547
 20
232.374694807935
 30
0.0
 11
358.2331192416547
 21
260.573394807935
 31
0.0
  0
ARC
  5
285C
330
1A
100
AcDbEntity
  8
SEIHIN
  6
Continuous
 62
     3
 48
16.0
100
AcDbCircle
 10
353.4230192416547
 20
232.5736948079349
 30
0.0
 40
2.000012376173413
100
AcDbArc
 50
270.0
 51
354.2896919161304
  0
LINE
  5
285D
330
1A
100
AcDbEntity
  8
SEIHIN
  6
Continuous
 62
     3
 48
16.0
100
AcDbLine
 10
140.1307192416547
 20
398.094694807935
 30
0.0
 11
144.1306192416546
 21
398.094694807935
 31
0.0
  0
LINE
  5
285E
330
1A
100
AcDbEntity
  8
SEIHIN
  6
Continuous
 62
     3
 48
16.0
100
AcDbLine
 10
140.1304192416547
 20
398.0947948079349
 30
0.0
 11
144.1502192416547
 21
398.0947948079349
 31
0.0
  0
ARC
  5
285F
330
1A
100
AcDbEntity
  8
SEIHIN
  6
Continuous
 62
     3
 48
16.0
100
AcDbCircle
 10
156.1502192416547
 20
365.506294807935
 30
0.0
 40
12.0
100
AcDbArc
 50
180.0
 51
270.0
  0
ARC
  5
2860
330
1A
100
AcDbEntity
  8
SEIHIN
  6
Continuous
 62
     3
 48
16.0
100
AcDbCircle
 10
155.1303192416547
 20
366.194794807935
 30
0.0
 40
14.99999999999999
100
AcDbArc
 50
180.0
 51
270.0
  0
LINE
  5
2861
330
1A
100
AcDbEntity
  8
SEIHIN
  6
Continuous
 62
     3
 48
16.0
100
AcDbLine
 10
140.1307192416547
 20
398.095094807935
 30
0.0
 11
140.1306192416546
 21
366.194694807935
 31
0.0
  0
LINE
  5
2862
330
1A
100
AcDbEntity
  8
SEIHIN
  6
Continuous
 62
     3
 48
16.0
100
AcDbLine
 10
140.1303192416547
 20
366.194694807935
 30
0.0
 11
140.1304192416547
 21
398.094694807935
 31
0.0
  0
LINE
  5
2863
330
1A
100
AcDbEntity
  8
SUNPOU
  6
PHANTOM
 62
     4
 48
5.0
100
AcDbLine
 10
220.1306830587864
 20
379.1948625991465
 30
0.0
 11
220.1306830587864
 21
509.1948625992213
 31
0.0
  0
LINE
  5
2864
330
1A
100
AcDbEntity
  8
SUNPOU
  6
PHANTOM
 62
     4
 48
5.0
100
AcDbLine
 10
280.1306830587864
 20
379.1949270169864
 30
0.0
 11
280.1306830587865
 21
509.1949270170612
 31
0.0
  0
ARC
  5
2865
330
1A
100
AcDbEntity
  8
SEIHIN
  6
Continuous
 62
     3
 48
16.0
100
AcDbCircle
 10
250.1305192416547
 20
456.194794807935
 30
0.0
 40
38.50000000006493
100
AcDbArc
 50
0.0
 51
359.9998511797934
  0
ARC
  5
2866
330
1A
100
AcDbEntity
  8
SEIHIN
  6
Continuous
 62
     3
 48
16.0
100
AcDbCircle
 10
250.1305192416547
 20
456.194794807935
 30
0.0
 40
35.95000000006953
100
AcDbArc
 50
90.0
 51
269.9998406237007
  0
ARC
  5
2867
330
1A
100
AcDbEntity
  8
SEIHIN
  6
Continuous
 62
     3
 48
16.0
100
AcDbCircle
 10
250.1309192416547
 20
456.1948948079349
 30
0.0
 40
35.9500000001391
100
AcDbArc
 50
269.9998406237007
 51
89.99984062370075
  0
ARC
  5
2868
330
1A
100
AcDbEntity
  8
SEIHIN
  6
Continuous
 62
     3
 48
16.0
100
AcDbCircle
 10
250.1309192416547
 20
456.1948948079349
 30
0.0
 40
33.9500000007364
100
AcDbArc
 50
269.9994937044519
 51
90.00016876518268
  0
ARC
  5
2869
330
1A
100
AcDbEntity
  8
SEIHIN
  6
Continuous
 62
     3
 48
16.0
100
AcDbCircle
 10
250.1305192416547
 20
456.194794807935
 30
0.0
 40
33.95000000036818
100
AcDbArc
 50
89.99966246963463
 51
270.0001687651827
  0
LINE
  5
286A
330
1A
100
AcDbEntity
  8
SEIHIN
  6
Continuous
 62
     3
 48
16.0
100
AcDbLine
 10
172.9987192416547
 20
406.914394807935
 30
0.0
 11
172.9988192416547
 21
498.0711948079349
 31
0.0
  0
LINE
  5
286B
330
1A
100
AcDbEntity
  8
SEIHIN
  6
Continuous
 62
     3
 48
16.0
100
AcDbLine
 10
182.4056192416547
 20
416.925294807935
 30
0.0
 11
182.4057192416547
 21
493.8710948079349
 31
0.0
  0
LINE
  5
286C
330
1A
100
AcDbEntity
  8
SEIHIN
  6
Continuous
 62
     3
 48
16.0
100
AcDbLine
 10
192.4058192416547
 20
418.9249948079349
 30
0.0
 11
192.4058192416547
 21
493.278594807935
 31
0.0
  0
LINE
  5
286D
330
1A
100
AcDbEntity
  8
SEIHIN
  6
Continuous
 62
     3
 48
16.0
100
AcDbLine
 10
168.6611192416547
 20
407.544794807935
 30
0.0
 11
168.6612192416547
 21
497.6447948079349
 31
0.0
  0
LINE
  5
286E
330
1A
100
AcDbEntity
  8
SEIHIN
  6
Continuous
 62
     3
 48
16.0
100
AcDbLine
 10
166.3112192416547
 20
408.073294807935
 30
0.0
 11
166.3113192416547
 21
496.838394807935
 31
0.0
  0
LINE
  5
286F
330
1A
100
AcDbEntity
  8
SEIHIN
  6
Continuous
 62
     3
 48
16.0
100
AcDbLine
 10
333.9501192416547
 20
408.073294807935
 30
0.0
 11
333.9501192416547
 21
496.838394807935
 31
0.0
  0
LINE
  5
2870
330
1A
100
AcDbEntity
  8
SEIHIN
  6
Continuous
 62
     3
 48
16.0
100
AcDbLine
 10
331.6002192416547
 20
407.544694807935
 30
0.0
 11
331.6002192416547
 21
497.6446948079349
 31
0.0
  0
LINE
  5
2871
330
1A
100
AcDbEntity
  8
SEIHIN
  6
Continuous
 62
     3
 48
16.0
100
AcDbLine
 10
307.8556192416547
 20
418.9249948079349
 30
0.0
 11
307.8556192416547
 21
493.278494807935
 31
0.0
  0
LINE
  5
2872
330
1A
100
AcDbEntity
  8
SEIHIN
  6
Continuous
 62
     3
 48
16.0
100
AcDbLine
 10
317.8557192416547
 20
416.925294807935
 30
0.0
 11
317.8557192416547
 21
493.8710948079349
 31
0.0
  0
LINE
  5
2873
330
1A
100
AcDbEntity
  8
SEIHIN
  6
Continuous
 62
     3
 48
16.0
100
AcDbLine
 10
327.2626192416547
 20
406.914394807935
 30
0.0
 11
327.2626192416547
 21
498.0711948079349
 31
0.0
  0
LINE
  5
2874
330
1A
100
AcDbEntity
  8
CENTER L
  6
CENTER
 62
     1
 48
5.0
100
AcDbLine
 10
250.1306192416546
 20
337.0269948079349
 30
0.0
 11
250.1307192416547
 21
523.760394807935
 31
0.0
  0
DIMENSION
  5
2875
330
1A
100
AcDbEntity
  8
SUNPOU
100
AcDbDimension
  2
*D9
 10
280.1306830587864
 20
318.5281527803736
 30
0.0
 11
250.1306830587864
 21
323.5281527803736
 31
0.0
 70
    32
  1
※ <>
 71
     5
 42
60.0
  3
STANDARD
100
AcDbAlignedDimension
 13
220.1306830587864
 23
379.1948625991465
 33
0.0
 14
280.1306830587864
 24
379.1949270169864
 34
0.0
100
AcDbRotatedDimension
1001
ACAD
1000
DSTYLE
1002
{
1070
   140
1040
6.0
1070
    74
1070
     0
1070
   172
1070
     1
1070
    73
1070
     0
1070
   272
1070
     2
1070
    77
1070
     3
1070
   173
1070
     1
1070
   147
1040
2.0
1070
    42
1040
6.0
1070
    44
1040
3.0
1070
    43
1040
14.0
1070
   271
1070
     0
1070
   178
1070
     4
1070
   177
1070
     4
1070
   176
1070
     4
1070
   141
1040
150.0
1070
     7
1000
_OPEN
1070
     6
1000
_OPEN
1070
    41
1040
7.0
1002
}
  0
LINE
  5
2876
330
1A
100
AcDbEntity
  8
CENTER L
  6
CENTER
 62
     1
 48
5.0
100
AcDbLine
 10
343.2725192416547
 20
456.1949948079349
 30
0.0
 11
250.1305192416547
 21
456.1948948079349
 31
0.0
  0
LINE
  5
2877
330
1A
100
AcDbEntity
  8
SEIHIN
  6
Continuous
 62
     3
 48
16.0
100
AcDbLine
 10
341.3411192416547
 20
356.276194807935
 30
0.0
 11
250.1307192416547
 21
356.276194807935
 31
0.0
  0
LINE
  5
2878
330
1A
100
AcDbEntity
  8
SEIHIN
  6
Continuous
 62
     3
 48
16.0
100
AcDbLine
 10
321.8406192416547
 20
368.6519948079349
 30
0.0
 11
250.1307192416547
 21
368.6519948079349
 31
0.0
  0
LINE
  5
2879
330
1A
100
AcDbEntity
  8
SEIHIN
  6
Continuous
 62
     3
 48
16.0
100
AcDbLine
 10
318.9002192416547
 20
391.2705948079349
 30
0.0
 11
250.1307192416547
 21
391.270694807935
 31
0.0
  0
LINE
  5
287A
330
1A
100
AcDbEntity
  8
SEIHIN
  6
Continuous
 62
     3
 48
16.0
100
AcDbLine
 10
314.5626192416547
 20
394.214294807935
 30
0.0
 11
250.1307192416547
 21
394.214294807935
 31
0.0
  0
LINE
  5
287B
330
1A
100
AcDbEntity
  8
SEIHIN
  6
Continuous
 62
     3
 48
16.0
100
AcDbLine
 10
305.1557192416547
 20
404.2251948079349
 30
0.0
 11
250.1307192416547
 21
404.225394807935
 31
0.0
  0
LINE
  5
287C
330
1A
100
AcDbEntity
  8
SEIHIN
  6
Continuous
 62
     3
 48
16.0
100
AcDbLine
 10
295.1556192416547
 20
406.224994807935
 30
0.0
 11
250.1307192416547
 21
406.224994807935
 31
0.0
  0
LINE
  5
287D
330
1A
100
AcDbEntity
  8
SEIHIN
  6
Continuous
 62
     3
 48
16.0
100
AcDbLine
 10
345.1310192416547
 20
351.194794807935
 30
0.0
 11
250.1307192416547
 21
351.194794807935
 31
0.0
  0
LINE
  5
287E
330
1A
100
AcDbEntity
  8
SEIHIN
  6
Continuous
 62
     3
 48
16.0
100
AcDbLine
 10
344.1111192416547
 20
353.506194807935
 30
0.0
 11
250.1307192416547
 21
353.506294807935
 31
0.0
  0
LINE
  5
287F
330
1A
100
AcDbEntity
  8
SEIHIN
  6
Continuous
 62
     3
 48
16.0
100
AcDbLine
 10
155.4806192416547
 20
376.444794807935
 30
0.0
 11
155.4806192416547
 21
381.979594807935
 31
0.0
  0
LINE
  5
2880
330
1A
100
AcDbEntity
  8
SEIHIN
  6
Continuous
 62
     3
 48
16.0
100
AcDbLine
 10
145.3706192416547
 20
375.9064948079349
 30
0.0
 11
145.3706192416547
 21
382.344694807935
 31
0.0
  0
LINE
  5
2881
330
1A
100
AcDbEntity
  8
SEIHIN
  6
Continuous
 62
     3
 48
16.0
100
AcDbLine
 10
153.1307192416547
 20
376.444794807935
 30
0.0
 11
153.1307192416547
 21
381.979594807935
 31
0.0
  0
LINE
  5
2882
330
1A
100
AcDbEntity
  8
SEIHIN
  6
Continuous
 62
     3
 48
16.0
100
AcDbLine
 10
144.1502192416547
 20
365.506194807935
 30
0.0
 11
144.1502192416547
 21
398.094694807935
 31
0.0
  0
LINE
  5
2883
330
1A
100
AcDbEntity
  8
SEIHIN
  6
Continuous
 62
     3
 48
16.0
100
AcDbLine
 10
178.4207192416547
 20
368.6519948079349
 30
0.0
 11
250.1307192416547
 21
368.6518948079349
 31
0.0
  0
LINE
  5
2884
330
1A
100
AcDbEntity
  8
SEIHIN
  6
Continuous
 62
     3
 48
16.0
100
AcDbLine
 10
158.9202192416547
 20
356.276294807935
 30
0.0
 11
250.1306192416546
 21
356.276194807935
 31
0.0
  0
LINE
  5
2885
330
1A
100
AcDbEntity
  8
SEIHIN
  6
Continuous
 62
     3
 48
16.0
100
AcDbLine
 10
156.1502192416547
 20
353.506294807935
 30
0.0
 11
250.1306192416546
 21
353.506194807935
 31
0.0
  0
LINE
  5
2886
330
1A
100
AcDbEntity
  8
SEIHIN
  6
Continuous
 62
     3
 48
16.0
100
AcDbLine
 10
155.1303192416547
 20
351.194794807935
 30
0.0
 11
250.1306192416546
 21
351.194794807935
 31
0.0
  0
ARC
  5
2887
330
1A
100
AcDbEntity
  8
SEIHIN
  6
Continuous
 62
     3
 48
16.0
100
AcDbCircle
 10
158.9202192416547
 20
368.276294807935
 30
0.0
 40
12.0
100
AcDbArc
 50
180.0
 51
270.0
  0
ARC
  5
2888
330
1A
100
AcDbEntity
  8
SEIHIN
  6
Continuous
 62
     3
 48
16.0
100
AcDbCircle
 10
168.1807192416547
 20
381.3519948079349
 30
0.0
 40
12.70000783660936
100
AcDbArc
 50
202.7297714417187
 51
270.0
  0
LINE
  5
2889
330
1A
100
AcDbEntity
  8
SEIHIN
  6
Continuous
 62
     3
 48
16.0
100
AcDbLine
 10
146.9202192416547
 20
376.444794807935
 30
0.0
 11
146.9202192416547
 21
368.276194807935
 31
0.0
  0
LINE
  5
288A
330
1A
100
AcDbEntity
  8
SEIHIN
  6
Continuous
 62
     3
 48
16.0
100
AcDbLine
 10
146.9202192416547
 20
376.444794807935
 30
0.0
 11
155.4806192416547
 21
376.444794807935
 31
0.0
  0
ARC
  5
288B
330
1A
100
AcDbEntity
  8
SEIHIN
  6
Continuous
 62
     3
 48
16.0
100
AcDbCircle
 10
145.8706192416547
 20
375.9064948079349
 30
0.0
 40
0.4999707382874858
100
AcDbArc
 50
180.0
 51
322.2315625337361
  0
LINE
  5
288C
330
1A
100
AcDbEntity
  8
SEIHIN
  6
Continuous
 62
     3
 48
16.0
100
AcDbLine
 10
146.9202192416547
 20
376.444794807935
 30
0.0
 11
146.2659192416547
 21
375.6002948079349
 31
0.0
  0
LINE
  5
288D
330
1A
100
AcDbEntity
  8
SEIHIN
  6
Continuous
 62
     3
 48
16.0
100
AcDbLine
 10
205.1058192416547
 20
406.224994807935
 30
0.0
 11
250.1307192416547
 21
406.224994807935
 31
0.0
  0
LINE
  5
288E
330
1A
100
AcDbEntity
  8
SEIHIN
  6
Continuous
 62
     3
 48
16.0
100
AcDbLine
 10
195.1056192416547
 20
404.2252948079349
 30
0.0
 11
250.1306192416546
 21
404.2252948079349
 31
0.0
  0
LINE
  5
288F
330
1A
100
AcDbEntity
  8
SEIHIN
  6
Continuous
 62
     3
 48
16.0
100
AcDbLine
 10
185.6987192416547
 20
394.214294807935
 30
0.0
 11
250.1306192416546
 21
394.214294807935
 31
0.0
  0
LINE
  5
2890
330
1A
100
AcDbEntity
  8
SEIHIN
  6
Continuous
 62
     3
 48
16.0
100
AcDbLine
 10
181.3611192416547
 20
391.2705948079349
 30
0.0
 11
250.1306192416546
 21
391.2705948079349
 31
0.0
  0
LINE
  5
2891
330
1A
100
AcDbEntity
  8
CENTER L
  6
CENTER
 62
     1
 48
5.0
100
AcDbLine
 10
156.9889192416547
 20
456.1949948079349
 30
0.0
 11
250.1309192416547
 21
456.194794807935
 31
0.0
  0
ARC
  5
2892
330
1A
100
AcDbEntity
  8
SEIHIN
  6
Continuous
 62
     3
 48
16.0
100
AcDbCircle
 10
185.6987192416547
 20
406.914294807935
 30
0.0
 40
12.70000000019684
100
AcDbArc
 50
179.9995488521301
 51
270.0
  0
ARC
  5
2893
330
1A
100
AcDbEntity
  8
SEIHIN
  6
Continuous
 62
     3
 48
16.0
100
AcDbCircle
 10
181.3611192416547
 20
403.970594807935
 30
0.0
 40
12.7
100
AcDbArc
 50
180.0
 51
270.0
  0
ARC
  5
2894
330
1A
100
AcDbEntity
  8
SEIHIN
  6
Continuous
 62
     3
 48
16.0
100
AcDbCircle
 10
148.2314192416547
 20
405.175194807935
 30
0.0
 40
17.50003882148815
100
AcDbArc
 50
327.0679969127671
 51
1.209849274852012
  0
ARC
  5
2895
330
1A
100
AcDbEntity
  8
SEIHIN
  6
Continuous
 62
     3
 48
16.0
100
AcDbCircle
 10
145.8815192416546
 20
405.175194807935
 30
0.0
 40
17.49999685571343
100
AcDbArc
 50
327.0678189214382
 51
1.209849274852012
  0
LINE
  5
2896
330
1A
100
AcDbEntity
  8
SEIHIN
  6
Continuous
 62
     3
 48
16.0
100
AcDbLine
 10
154.9348192416547
 20
391.8823948079349
 30
0.0
 11
160.5695192416547
 21
395.6614948079349
 31
0.0
  0
LINE
  5
2897
330
1A
100
AcDbEntity
  8
SEIHIN
  6
Continuous
 62
     3
 48
16.0
100
AcDbLine
 10
162.9195192416547
 20
395.6614948079349
 30
0.0
 11
157.2848192416547
 21
391.8823948079349
 31
0.0
  0
ARC
  5
2898
330
1A
100
AcDbEntity
  8
SEIHIN
  6
Continuous
 62
     3
 48
16.0
100
AcDbCircle
 10
95.68493924165466
 20
385.724694807935
 30
0.0
 40
49.99998151298352
100
AcDbArc
 50
356.1238457936564
 51
14.323708379417
  0
LINE
  5
2899
330
1A
100
AcDbEntity
  8
SEIHIN
  6
Continuous
 62
     3
 48
16.0
100
AcDbLine
 10
145.3706192416547
 20
382.3443948079349
 30
0.0
 11
145.5706192416547
 21
382.3443948079349
 31
0.0
  0
ARC
  5
289A
330
1A
100
AcDbEntity
  8
SEIHIN
  6
Continuous
 62
     3
 48
16.0
100
AcDbCircle
 10
183.1287192416547
 20
381.6300948079349
 30
0.0
 40
30.00004738670989
100
AcDbArc
 50
160.0171219160538
 51
179.3326808403817
  0
ARC
  5
289B
330
1A
100
AcDbEntity
  8
SEIHIN
  6
Continuous
 62
     3
 48
16.0
100
AcDbCircle
 10
185.4786192416547
 20
381.629894807935
 30
0.0
 40
30.00003573631199
100
AcDbArc
 50
160.0166976739727
 51
179.332298894897
  0
LINE
  5
289C
330
1A
100
AcDbEntity
  8
SEIHIN
  6
Continuous
 62
     3
 48
16.0
100
AcDbLine
 10
168.2244192416547
 20
407.2470948079349
 30
0.0
 11
165.7275192416547
 21
405.544794807935
 31
0.0
  0
LINE
  5
289D
330
1A
100
AcDbEntity
  8
SEIHIN
  6
Continuous
 62
     3
 48
16.0
100
AcDbLine
 10
165.8745192416547
 20
407.2470948079349
 30
0.0
 11
163.3776192416547
 21
405.544794807935
 31
0.0
  0
LINE
  5
289E
330
1A
100
AcDbEntity
  8
SEIHIN
  6
Continuous
 62
     3
 48
16.0
100
AcDbLine
 10
163.3776192416547
 20
405.544794807935
 30
0.0
 11
165.7275192416547
 21
405.544794807935
 31
0.0
  0
ARC
  5
289F
330
1A
100
AcDbEntity
  8
SEIHIN
  6
Continuous
 62
     3
 48
16.0
100
AcDbCircle
 10
165.3112192416547
 20
408.073294807935
 30
0.0
 40
0.9999783320305091
100
AcDbArc
 50
304.2860162246414
 51
0.0
  0
ARC
  5
28A0
330
1A
100
AcDbEntity
  8
SEIHIN
  6
Continuous
 62
     3
 48
16.0
100
AcDbCircle
 10
167.6611192416547
 20
408.073294807935
 30
0.0
 40
0.9999783320305091
100
AcDbArc
 50
304.2860162246414
 51
0.0
  0
ARC
  5
28A1
330
1A
100
AcDbEntity
  8
SEIHIN
  6
Continuous
 62
     3
 48
16.0
100
AcDbCircle
 10
205.1058192416547
 20
418.9249948079349
 30
0.0
 40
12.70000000019685
100
AcDbArc
 50
179.9995488521301
 51
270.0
  0
ARC
  5
28A2
330
1A
100
AcDbEntity
  8
SEIHIN
  6
Continuous
 62
     3
 48
16.0
100
AcDbCircle
 10
195.1056192416547
 20
416.925294807935
 30
0.0
 40
12.69995
100
AcDbArc
 50
180.0
 51
270.0
  0
LINE
  5
28A3
330
1A
100
AcDbEntity
  8
SEIHIN
  6
Continuous
 62
     3
 48
16.0
100
AcDbLine
 10
347.1306192416546
 20
376.444794807935
 30
0.0
 11
347.1306192416546
 21
381.979494807935
 31
0.0
  0
LINE
  5
28A4
330
1A
100
AcDbEntity
  8
SEIHIN
  6
Continuous
 62
     3
 48
16.0
100
AcDbLine
 10
354.8907192416547
 20
375.9063948079349
 30
0.0
 11
354.8907192416547
 21
382.344594807935
 31
0.0
  0
LINE
  5
28A5
330
1A
100
AcDbEntity
  8
SEIHIN
  6
Continuous
 62
     3
 48
16.0
100
AcDbLine
 10
360.1307192416547
 20
398.094994807935
 30
0.0
 11
360.1307192416547
 21
366.194594807935
 31
0.0
  0
LINE
  5
28A6
330
1A
100
AcDbEntity
  8
SEIHIN
  6
Continuous
 62
     3
 48
16.0
100
AcDbLine
 10
360.1310192416547
 20
366.194594807935
 30
0.0
 11
360.1310192416547
 21
398.094694807935
 31
0.0
  0
LINE
  5
28A7
330
1A
100
AcDbEntity
  8
SEIHIN
  6
Continuous
 62
     3
 48
16.0
100
AcDbLine
 10
356.1111192416547
 20
365.5060948079349
 30
0.0
 11
356.1111192416547
 21
398.094694807935
 31
0.0
  0
LINE
  5
28A8
330
1A
100
AcDbEntity
  8
SEIHIN
  6
Continuous
 62
     3
 48
16.0
100
AcDbLine
 10
344.7807192416547
 20
376.444794807935
 30
0.0
 11
344.7807192416547
 21
381.979494807935
 31
0.0
  0
ARC
  5
28A9
330
1A
100
AcDbEntity
  8
SEIHIN
  6
Continuous
 62
     3
 48
16.0
100
AcDbCircle
 10
332.0807192416547
 20
381.3519948079349
 30
0.0
 40
12.69998103953867
100
AcDbArc
 50
269.9995488521297
 51
337.2696381290171
  0
ARC
  5
28AA
330
1A
100
AcDbEntity
  8
SEIHIN
  6
Continuous
 62
     3
 48
16.0
100
AcDbCircle
 10
341.3411192416547
 20
368.276294807935
 30
0.0
 40
12.00000000020834
100
AcDbArc
 50
270.0
 51
359.9995225351707
  0
ARC
  5
28AB
330
1A
100
AcDbEntity
  8
SEIHIN
  6
Continuous
 62
     3
 48
16.0
100
AcDbCircle
 10
344.1111192416547
 20
365.506294807935
 30
0.0
 40
12.00000000041667
100
AcDbArc
 50
269.9995225351703
 51
359.9995225351707
  0
ARC
  5
28AC
330
1A
100
AcDbEntity
  8
SEIHIN
  6
Continuous
 62
     3
 48
16.0
100
AcDbCircle
 10
345.1310192416547
 20
366.194794807935
 30
0.0
 40
15.00000000033333
100
AcDbArc
 50
269.9996180281359
 51
359.9996180281368
  0
LINE
  5
28AD
330
1A
100
AcDbEntity
  8
SEIHIN
  6
Continuous
 62
     3
 48
16.0
100
AcDbLine
 10
353.3411192416547
 20
376.444794807935
 30
0.0
 11
353.3411192416547
 21
368.2760948079349
 31
0.0
  0
LINE
  5
28AE
330
1A
100
AcDbEntity
  8
SEIHIN
  6
Continuous
 62
     3
 48
16.0
100
AcDbLine
 10
353.3411192416547
 20
376.444694807935
 30
0.0
 11
344.7807192416547
 21
376.444794807935
 31
0.0
  0
ARC
  5
28AF
330
1A
100
AcDbEntity
  8
SEIHIN
  6
Continuous
 62
     3
 48
16.0
100
AcDbCircle
 10
354.3907192416547
 20
375.9063948079349
 30
0.0
 40
0.5000013649962561
100
AcDbArc
 50
217.7774957939298
 51
0.0
  0
LINE
  5
28B0
330
1A
100
AcDbEntity
  8
SEIHIN
  6
Continuous
 62
     3
 48
16.0
100
AcDbLine
 10
353.3411192416547
 20
376.444794807935
 30
0.0
 11
353.9955192416547
 21
375.6001948079349
 31
0.0
  0
LINE
  5
28B1
330
1A
100
AcDbEntity
  8
SEIHIN
  6
Continuous
 62
     3
 48
16.0
100
AcDbLine
 10
337.3418192416547
 20
395.6614948079349
 30
0.0
 11
342.9765192416547
 21
391.882294807935
 31
0.0
  0
LINE
  5
28B2
330
1A
100
AcDbEntity
  8
SEIHIN
  6
Continuous
 62
     3
 48
16.0
100
AcDbLine
 10
345.3265192416547
 20
391.882294807935
 30
0.0
 11
339.6918192416547
 21
395.6614948079349
 31
0.0
  0
ARC
  5
28B3
330
1A
100
AcDbEntity
  8
SEIHIN
  6
Continuous
 62
     3
 48
16.0
100
AcDbCircle
 10
295.1556192416547
 20
418.9249948079349
 30
0.0
 40
12.69999999999999
100
AcDbArc
 50
270.0
 51
0.0
  0
ARC
  5
28B4
330
1A
100
AcDbEntity
  8
SEIHIN
  6
Continuous
 62
     3
 48
16.0
100
AcDbCircle
 10
305.1557192416547
 20
416.925294807935
 30
0.0
 40
12.70000000000002
100
AcDbArc
 50
270.0
 51
0.0
  0
ARC
  5
28B5
330
1A
100
AcDbEntity
  8
SEIHIN
  6
Continuous
 62
     3
 48
16.0
100
AcDbCircle
 10
354.3799192416547
 20
405.1750948079349
 30
0.0
 40
17.50001269527861
100
AcDbArc
 50
178.7898233937461
 51
212.9317282916693
  0
ARC
  5
28B6
330
1A
100
AcDbEntity
  8
SEIHIN
  6
Continuous
 62
     3
 48
16.0
100
AcDbCircle
 10
352.0299192416547
 20
405.1750948079349
 30
0.0
 40
17.50001269527867
100
AcDbArc
 50
178.7898233937461
 51
212.9317282916693
  0
ARC
  5
28B7
330
1A
100
AcDbEntity
  8
SEIHIN
  6
Continuous
 62
     3
 48
16.0
100
AcDbCircle
 10
314.5626192416547
 20
406.914294807935
 30
0.0
 40
12.69999999999999
100
AcDbArc
 50
270.0
 51
0.0
  0
ARC
  5
28B8
330
1A
100
AcDbEntity
  8
SEIHIN
  6
Continuous
 62
     3
 48
16.0
100
AcDbCircle
 10
318.9002192416547
 20
403.970494807935
 30
0.0
 40
12.69999999999999
100
AcDbArc
 50
270.0
 51
0.0
  0
LINE
  5
28B9
330
1A
100
AcDbEntity
  8
SEIHIN
  6
Continuous
 62
     3
 48
16.0
100
AcDbLine
 10
332.0369192416547
 20
407.2470948079349
 30
0.0
 11
334.5338192416547
 21
405.544794807935
 31
0.0
  0
ARC
  5
28BA
330
1A
100
AcDbEntity
  8
SEIHIN
  6
Continuous
 62
     3
 48
16.0
100
AcDbCircle
 10
332.6002192416547
 20
408.073294807935
 30
0.0
 40
1.000019644614092
100
AcDbArc
 50
180.0
 51
235.7172112596896
  0
ARC
  5
28BB
330
1A
100
AcDbEntity
  8
SEIHIN
  6
Continuous
 62
     3
 48
16.0
100
AcDbCircle
 10
334.9501192416547
 20
408.073294807935
 30
0.0
 40
1.000019644614092
100
AcDbArc
 50
180.0
 51
235.7172112596896
  0
LINE
  5
28BC
330
1A
100
AcDbEntity
  8
SEIHIN
  6
Continuous
 62
     3
 48
16.0
100
AcDbLine
 10
336.8838192416547
 20
405.544794807935
 30
0.0
 11
334.5338192416547
 21
405.544794807935
 31
0.0
  0
LINE
  5
28BD
330
1A
100
AcDbEntity
  8
SEIHIN
  6
Continuous
 62
     3
 48
16.0
100
AcDbLine
 10
334.3868192416547
 20
407.2470948079349
 30
0.0
 11
336.8838192416547
 21
405.544794807935
 31
0.0
  0
LINE
  5
28BE
330
1A
100
AcDbEntity
  8
SEIHIN
  6
Continuous
 62
     3
 48
16.0
100
AcDbLine
 10
360.1310192416547
 20
398.094694807935
 30
0.0
 11
356.1111192416547
 21
398.094694807935
 31
0.0
  0
LINE
  5
28BF
330
1A
100
AcDbEntity
  8
SEIHIN
  6
Continuous
 62
     3
 48
16.0
100
AcDbLine
 10
360.1307192416547
 20
398.094694807935
 30
0.0
 11
356.1307192416547
 21
398.094694807935
 31
0.0
  0
ARC
  5
28C0
330
1A
100
AcDbEntity
  8
SEIHIN
  6
Continuous
 62
     3
 48
16.0
100
AcDbCircle
 10
404.5764192416547
 20
385.724494807935
 30
0.0
 40
49.99997071399056
100
AcDbArc
 50
165.6760468819238
 51
183.8759239980249
  0
ARC
  5
28C1
330
1A
100
AcDbEntity
  8
SEIHIN
  6
Continuous
 62
     3
 48
16.0
100
AcDbCircle
 10
314.7828192416547
 20
381.629894807935
 30
0.0
 40
29.99993875010407
100
AcDbArc
 50
0.6677033307272278
 51
19.98336759488764
  0
ARC
  5
28C2
330
1A
100
AcDbEntity
  8
SEIHIN
  6
Continuous
 62
     3
 48
16.0
100
AcDbCircle
 10
317.1327192416547
 20
381.629994807935
 30
0.0
 40
29.99995098278949
100
AcDbArc
 50
0.6675123573563347
 51
19.98294335142204
  0
LINE
  5
28C3
330
1A
100
AcDbEntity
  8
SEIHIN
  6
Continuous
 62
     3
 48
16.0
100
AcDbLine
 10
354.8907192416547
 20
382.3443948079349
 30
0.0
 11
354.6907192416547
 21
382.3443948079349
 31
0.0
  0
LINE
  5
28C4
330
1A
100
AcDbEntity
  8
SEIHIN
  6
Continuous
 62
     3
 48
16.0
100
AcDbLine
 10
337.9807192416547
 20
516.1946948079349
 30
0.0
 11
250.1308192416547
 21
516.194794807935
 31
0.0
  0
LINE
  5
28C5
330
1A
100
AcDbEntity
  8
SEIHIN
  6
Continuous
 62
     3
 48
16.0
100
AcDbLine
 10
337.9111192416547
 20
513.8945948079349
 30
0.0
 11
250.1307192416547
 21
513.8946948079349
 31
0.0
  0
LINE
  5
28C6
330
1A
100
AcDbEntity
  8
SEIHIN
  6
Continuous
 62
     3
 48
16.0
100
AcDbLine
 10
332.2819192416547
 20
508.8782948079349
 30
0.0
 11
250.1307192416547
 21
508.8782948079349
 31
0.0
  0
LINE
  5
28C7
330
1A
100
AcDbEntity
  8
SEIHIN
  6
Continuous
 62
     3
 48
16.0
100
AcDbLine
 10
318.7626192416547
 20
506.5711948079349
 30
0.0
 11
250.1308192416547
 21
506.5711948079349
 31
0.0
  0
LINE
  5
28C8
330
1A
100
AcDbEntity
  8
SEIHIN
  6
Continuous
 62
     3
 48
16.0
100
AcDbLine
 10
295.1556192416547
 20
505.9785948079349
 30
0.0
 11
250.1308192416547
 21
505.9785948079349
 31
0.0
  0
LINE
  5
28C9
330
1A
100
AcDbEntity
  8
SEIHIN
  6
Continuous
 62
     3
 48
16.0
100
AcDbLine
 10
205.1058192416547
 20
505.9785948079349
 30
0.0
 11
250.1306192416546
 21
505.9785948079349
 31
0.0
  0
LINE
  5
28CA
330
1A
100
AcDbEntity
  8
SEIHIN
  6
Continuous
 62
     3
 48
16.0
100
AcDbLine
 10
181.4987192416547
 20
506.5711948079349
 30
0.0
 11
250.1306192416546
 21
506.5711948079349
 31
0.0
  0
LINE
  5
28CB
330
1A
100
AcDbEntity
  8
SEIHIN
  6
Continuous
 62
     3
 48
16.0
100
AcDbLine
 10
167.9795192416547
 20
508.8782948079349
 30
0.0
 11
250.1307192416547
 21
508.8782948079349
 31
0.0
  0
LINE
  5
28CC
330
1A
100
AcDbEntity
  8
SEIHIN
  6
Continuous
 62
     3
 48
16.0
100
AcDbLine
 10
162.3502192416547
 20
513.8947948079349
 30
0.0
 11
250.1307192416547
 21
513.8946948079349
 31
0.0
  0
LINE
  5
28CD
330
1A
100
AcDbEntity
  8
SEIHIN
  6
Continuous
 62
     3
 48
16.0
100
AcDbLine
 10
162.2807192416547
 20
516.194794807935
 30
0.0
 11
250.1306192416546
 21
516.194794807935
 31
0.0
  0
ARC
  5
28CE
330
1A
100
AcDbEntity
  8
SEIHIN
  6
Continuous
 62
     3
 48
16.0
100
AcDbCircle
 10
181.4988192416547
 20
498.0711948079349
 30
0.0
 40
8.5
100
AcDbArc
 50
90.0
 51
180.0
  0
ARC
  5
28CF
330
1A
100
AcDbEntity
  8
SEIHIN
  6
Continuous
 62
     3
 48
16.0
100
AcDbCircle
 10
165.3113192416547
 20
496.838394807935
 30
0.0
 40
1.000031911481673
100
AcDbArc
 50
0.0
 51
77.77879682849337
  0
ARC
  5
28D0
330
1A
100
AcDbEntity
  8
SEIHIN
  6
Continuous
 62
     3
 48
16.0
100
AcDbCircle
 10
147.7220192416547
 20
497.2129948079349
 30
0.0
 40
9.000034821311839
100
AcDbArc
 50
317.4347248532464
 51
9.025051013299036
  0
LINE
  5
28D1
330
1A
100
AcDbEntity
  8
SEIHIN
  6
Continuous
 62
     3
 48
16.0
100
AcDbLine
 10
154.3502192416547
 20
491.1248948079349
 30
0.0
 11
154.3502192416547
 21
505.8947948079349
 31
0.0
  0
LINE
  5
28D2
330
1A
100
AcDbEntity
  8
SEIHIN
  6
Continuous
 62
     3
 48
16.0
100
AcDbLine
 10
151.2807192416547
 20
505.194794807935
 30
0.0
 11
151.2807192416547
 21
491.1248948079349
 31
0.0
  0
LINE
  5
28D3
330
1A
100
AcDbEntity
  8
SEIHIN
  6
Continuous
 62
     3
 48
16.0
100
AcDbLine
 10
151.2804192416547
 20
491.1248948079349
 30
0.0
 11
154.3502192416547
 21
491.1248948079349
 31
0.0
  0
ARC
  5
28D4
330
1A
100
AcDbEntity
  8
SEIHIN
  6
Continuous
 62
     3
 48
16.0
100
AcDbCircle
 10
158.9795192416547
 20
505.1248948079349
 30
0.0
 40
1.0
100
AcDbArc
 50
0.0
 51
90.0
  0
ARC
  5
28D5
330
1A
100
AcDbEntity
  8
SEIHIN
  6
Continuous
 62
     3
 48
16.0
100
AcDbCircle
 10
160.9795192416547
 20
500.3316948079349
 30
0.0
 40
0.9999830447125202
100
AcDbArc
 50
180.0
 51
257.7775839131201
  0
LINE
  5
28D6
330
1A
100
AcDbEntity
  8
SEIHIN
  6
Continuous
 62
     3
 48
16.0
100
AcDbLine
 10
165.5229192416547
 20
497.815694807935
 30
0.0
 11
158.4191192416547
 21
499.3543948079349
 31
0.0
  0
ARC
  5
28D7
330
1A
100
AcDbEntity
  8
SEIHIN
  6
Continuous
 62
     3
 48
16.0
100
AcDbCircle
 10
167.9795192416547
 20
505.8947948079349
 30
0.0
 40
8.0
100
AcDbArc
 50
90.0
 51
180.0
  0
ARC
  5
28D8
330
1A
100
AcDbEntity
  8
SEIHIN
  6
Continuous
 62
     3
 48
16.0
100
AcDbCircle
 10
167.9795192416547
 20
500.8782948079349
 30
0.0
 40
8.0
100
AcDbArc
 50
90.0
 51
180.0
  0
ARC
  5
28D9
330
1A
100
AcDbEntity
  8
SEIHIN
  6
Continuous
 62
     3
 48
16.0
100
AcDbCircle
 10
162.3502192416547
 20
505.8947948079349
 30
0.0
 40
8.0
100
AcDbArc
 50
90.0
 51
180.0
  0
ARC
  5
28DA
330
1A
100
AcDbEntity
  8
SEIHIN
  6
Continuous
 62
     3
 48
16.0
100
AcDbCircle
 10
162.2807192416547
 20
505.194794807935
 30
0.0
 40
11.0
100
AcDbArc
 50
90.0
 51
180.0
  0
ARC
  5
28DB
330
1A
100
AcDbEntity
  8
SEIHIN
  6
Continuous
 62
     3
 48
16.0
100
AcDbCircle
 10
156.6307192416547
 20
505.1248948079349
 30
0.0
 40
1.000000000000018
100
AcDbArc
 50
0.0
 51
73.739795291688
  0
ARC
  5
28DC
330
1A
100
AcDbEntity
  8
SEIHIN
  6
Continuous
 62
     3
 48
16.0
100
AcDbCircle
 10
157.1907192416547
 20
505.1248948079349
 30
0.0
 40
1.0
100
AcDbArc
 50
90.0
 51
180.0
  0
LINE
  5
28DD
330
1A
100
AcDbEntity
  8
SEIHIN
  6
Continuous
 62
     3
 48
16.0
100
AcDbLine
 10
156.1907192416547
 20
498.6248948079349
 30
0.0
 11
156.6106192416547
 21
498.6248948079349
 31
0.0
  0
LINE
  5
28DE
330
1A
100
AcDbEntity
  8
SEIHIN
  6
Continuous
 62
     3
 48
16.0
100
AcDbLine
 10
156.1907192416547
 20
505.1248948079349
 30
0.0
 11
156.1907192416547
 21
498.6248948079349
 31
0.0
  0
LINE
  5
28DF
330
1A
100
AcDbEntity
  8
SEIHIN
  6
Continuous
 62
     3
 48
16.0
100
AcDbLine
 10
157.6307192416547
 20
505.1248948079349
 30
0.0
 11
157.6307192416547
 21
500.3316948079349
 31
0.0
  0
ARC
  5
28E0
330
1A
100
AcDbEntity
  8
SEIHIN
  6
Continuous
 62
     3
 48
16.0
100
AcDbCircle
 10
158.6307192416547
 20
500.3316948079349
 30
0.0
 40
0.9999830447125232
100
AcDbArc
 50
180.0
 51
257.7775839131184
  0
LINE
  5
28E1
330
1A
100
AcDbEntity
  8
SEIHIN
  6
Continuous
 62
     3
 48
16.0
100
AcDbLine
 10
157.1907192416547
 20
506.1248948079349
 30
0.0
 11
158.9795192416547
 21
506.1248948079349
 31
0.0
  0
LINE
  5
28E2
330
1A
100
AcDbEntity
  8
SEIHIN
  6
Continuous
 62
     3
 48
16.0
100
AcDbLine
 10
168.6612192416547
 20
497.6447948079349
 30
0.0
 11
160.7678192416547
 21
499.3543948079349
 31
0.0
  0
LINE
  5
28E3
330
1A
100
AcDbEntity
  8
SEIHIN
  6
Continuous
 62
     3
 48
16.0
100
AcDbLine
 10
159.9795192416547
 20
505.1248948079349
 30
0.0
 11
159.9795192416547
 21
505.8947948079349
 31
0.0
  0
LINE
  5
28E4
330
1A
100
AcDbEntity
  8
SEIHIN
  6
Continuous
 62
     3
 48
16.0
100
AcDbLine
 10
159.9795192416547
 20
500.3316948079349
 30
0.0
 11
159.9795192416547
 21
500.8782948079349
 31
0.0
  0
ARC
  5
28E5
330
1A
100
AcDbEntity
  8
SEIHIN
  6
Continuous
 62
     3
 48
16.0
100
AcDbCircle
 10
205.1058192416547
 20
493.278594807935
 30
0.0
 40
12.69999999999997
100
AcDbArc
 50
90.0
 51
180.0
  0
ARC
  5
28E6
330
1A
100
AcDbEntity
  8
SEIHIN
  6
Continuous
 62
     3
 48
16.0
100
AcDbCircle
 10
195.1057192416547
 20
493.8710948079349
 30
0.0
 40
12.70005000000002
100
AcDbArc
 50
90.0
 51
180.0
  0
ARC
  5
28E7
330
1A
100
AcDbEntity
  8
SEIHIN
  6
Continuous
 62
     3
 48
16.0
100
AcDbCircle
 10
341.2819192416547
 20
505.1247948079349
 30
0.0
 40
1.0
100
AcDbArc
 50
90.0
 51
180.0
  0
ARC
  5
28E8
330
1A
100
AcDbEntity
  8
SEIHIN
  6
Continuous
 62
     3
 48
16.0
100
AcDbCircle
 10
332.2819192416547
 20
505.8946948079349
 30
0.0
 40
8.0
100
AcDbArc
 50
0.0
 51
90.0
  0
ARC
  5
28E9
330
1A
100
AcDbEntity
  8
SEIHIN
  6
Continuous
 62
     3
 48
16.0
100
AcDbCircle
 10
339.2819192416547
 20
500.3316948079349
 30
0.0
 40
1.000031911481664
100
AcDbArc
 50
282.2212031715016
 51
0.0
  0
LINE
  5
28EA
330
1A
100
AcDbEntity
  8
SEIHIN
  6
Continuous
 62
     3
 48
16.0
100
AcDbLine
 10
334.7385192416547
 20
497.815694807935
 30
0.0
 11
341.8424192416547
 21
499.3543948079349
 31
0.0
  0
ARC
  5
28EB
330
1A
100
AcDbEntity
  8
SEIHIN
  6
Continuous
 62
     3
 48
16.0
100
AcDbCircle
 10
332.2819192416547
 20
500.8782948079349
 30
0.0
 40
8.0
100
AcDbArc
 50
0.0
 51
90.0
  0
ARC
  5
28EC
330
1A
100
AcDbEntity
  8
SEIHIN
  6
Continuous
 62
     3
 48
16.0
100
AcDbCircle
 10
337.9807192416547
 20
505.194794807935
 30
0.0
 40
11.0
100
AcDbArc
 50
0.0
 51
90.0
  0
ARC
  5
28ED
330
1A
100
AcDbEntity
  8
SEIHIN
  6
Continuous
 62
     3
 48
16.0
100
AcDbCircle
 10
337.9111192416547
 20
505.8946948079349
 30
0.0
 40
8.0
100
AcDbArc
 50
0.0
 51
90.0
  0
ARC
  5
28EE
330
1A
100
AcDbEntity
  8
SEIHIN
  6
Continuous
 62
     3
 48
16.0
100
AcDbCircle
 10
295.1556192416547
 20
493.278494807935
 30
0.0
 40
12.69999999999996
100
AcDbArc
 50
0.0
 51
90.0
  0
ARC
  5
28EF
330
1A
100
AcDbEntity
  8
SEIHIN
  6
Continuous
 62
     3
 48
16.0
100
AcDbCircle
 10
305.1557192416547
 20
493.8710948079349
 30
0.0
 40
12.70005000000003
100
AcDbArc
 50
0.0
 51
90.0
  0
ARC
  5
28F0
330
1A
100
AcDbEntity
  8
SEIHIN
  6
Continuous
 62
     3
 48
16.0
100
AcDbCircle
 10
334.9501192416547
 20
496.838394807935
 30
0.0
 40
0.9999724617416583
100
AcDbArc
 50
102.216816072021
 51
180.0
  0
ARC
  5
28F1
330
1A
100
AcDbEntity
  8
SEIHIN
  6
Continuous
 62
     3
 48
16.0
100
AcDbCircle
 10
318.7626192416547
 20
498.0711948079349
 30
0.0
 40
8.5
100
AcDbArc
 50
0.0
 51
90.0
  0
LINE
  5
28F2
330
1A
100
AcDbEntity
  8
SEIHIN
  6
Continuous
 62
     3
 48
16.0
100
AcDbLine
 10
331.6002192416547
 20
497.6446948079349
 30
0.0
 11
339.4936192416546
 21
499.3543948079349
 31
0.0
  0
LINE
  5
28F3
330
1A
100
AcDbEntity
  8
SEIHIN
  6
Continuous
 62
     3
 48
16.0
100
AcDbLine
 10
340.2819192416547
 20
505.1247948079349
 30
0.0
 11
340.2819192416547
 21
505.8946948079349
 31
0.0
  0
LINE
  5
28F4
330
1A
100
AcDbEntity
  8
SEIHIN
  6
Continuous
 62
     3
 48
16.0
100
AcDbLine
 10
340.2819192416547
 20
500.3316948079349
 30
0.0
 11
340.2819192416547
 21
500.8782948079349
 31
0.0
  0
LINE
  5
28F5
330
1A
100
AcDbEntity
  8
SEIHIN
  6
Continuous
 62
     3
 48
16.0
100
AcDbLine
 10
348.9807192416547
 20
505.194794807935
 30
0.0
 11
348.9807192416547
 21
491.1247948079349
 31
0.0
  0
LINE
  5
28F6
330
1A
100
AcDbEntity
  8
SEIHIN
  6
Continuous
 62
     3
 48
16.0
100
AcDbLine
 10
345.9111192416547
 20
491.1247948079349
 30
0.0
 11
345.9111192416547
 21
505.8946948079349
 31
0.0
  0
ARC
  5
28F7
330
1A
100
AcDbEntity
  8
SEIHIN
  6
Continuous
 62
     3
 48
16.0
100
AcDbCircle
 10
352.5394192416547
 20
497.212894807935
 30
0.0
 40
8.999914793481937
100
AcDbArc
 50
170.9748491216637
 51
222.5652368998601
  0
LINE
  5
28F8
330
1A
100
AcDbEntity
  8
SEIHIN
  6
Continuous
 62
     3
 48
16.0
100
AcDbLine
 10
348.9810192416547
 20
491.1247948079349
 30
0.0
 11
345.9111192416547
 21
491.1247948079349
 31
0.0
  0
ARC
  5
28F9
330
1A
100
AcDbEntity
  8
SEIHIN
  6
Continuous
 62
     3
 48
16.0
100
AcDbCircle
 10
343.6307192416547
 20
505.1247948079349
 30
0.0
 40
1.000000000000022
100
AcDbArc
 50
106.2602047083137
 51
180.0
  0
ARC
  5
28FA
330
1A
100
AcDbEntity
  8
SEIHIN
  6
Continuous
 62
     3
 48
16.0
100
AcDbCircle
 10
343.0707192416547
 20
505.1247948079349
 30
0.0
 40
1.0
100
AcDbArc
 50
0.0
 51
90.0
  0
LINE
  5
28FB
330
1A
100
AcDbEntity
  8
SEIHIN
  6
Continuous
 62
     3
 48
16.0
100
AcDbLine
 10
343.0707192416547
 20
506.1247948079349
 30
0.0
 11
341.2819192416547
 21
506.1247948079349
 31
0.0
  0
ARC
  5
28FC
330
1A
100
AcDbEntity
  8
SEIHIN
  6
Continuous
 62
     3
 48
16.0
100
AcDbCircle
 10
341.6307192416547
 20
500.3316948079349
 30
0.0
 40
1.00003191148167
100
AcDbArc
 50
282.2212031715049
 51
0.0
  0
LINE
  5
28FD
330
1A
100
AcDbEntity
  8
SEIHIN
  6
Continuous
 62
     3
 48
16.0
100
AcDbLine
 10
344.0707192416547
 20
498.6248948079349
 30
0.0
 11
343.6508192416547
 21
498.6248948079349
 31
0.0
  0
LINE
  5
28FE
330
1A
100
AcDbEntity
  8
SEIHIN
  6
Continuous
 62
     3
 48
16.0
100
AcDbLine
 10
344.0707192416547
 20
505.1247948079349
 30
0.0
 11
344.0707192416547
 21
498.6248948079349
 31
0.0
  0
LINE
  5
28FF
330
1A
100
AcDbEntity
  8
SEIHIN
  6
Continuous
 62
     3
 48
16.0
100
AcDbLine
 10
342.6307192416547
 20
505.1247948079349
 30
0.0
 11
342.6307192416547
 21
500.3316948079349
 31
0.0
  0
DIMENSION
  5
2900
330
1A
100
AcDbEntity
  8
SUNPOU
  6
Continuous
100
AcDbDimension
  2
*D10
 10
475.6220192416546
 20
287.9168556601123
 30
0.0
 11
558.1220192416547
 21
292.9168556601123
 31
0.0
 70
    32
 71
     5
 42
165.0000000000001
  3
STANDARD
100
AcDbAlignedDimension
 13
640.6220192416547
 23
237.1737948079349
 33
0.0
 14
475.6220192416546
 24
260.573794807935
 34
0.0
100
AcDbRotatedDimension
1001
ACAD
1000
DSTYLE
1002
{
1070
   140
1040
6.0
1070
    74
1070
     0
1070
   172
1070
     1
1070
    73
1070
     0
1070
   272
1070
     2
1070
    77
1070
     3
1070
   173
1070
     1
1070
   147
1040
2.0
1070
    42
1040
6.0
1070
    44
1040
3.0
1070
    43
1040
14.0
1070
   271
1070
     0
1070
   178
1070
     4
1070
   177
1070
     4
1070
   176
1070
     4
1070
   141
1040
150.0
1070
     7
1000
_OPEN
1070
     6
1000
_OPEN
1070
    41
1040
7.0
1002
}
  0
DIMENSION
  5
2901
330
1A
100
AcDbEntity
  8
SUNPOU
  6
Continuous
100
AcDbDimension
  2
*D11
 10
671.0606569948718
 20
167.6737948079349
 30
0.0
 11
666.0606569948718
 21
202.423794807935
 31
0.0
 70
    32
 71
     5
 42
69.5
  3
STANDARD
100
AcDbAlignedDimension
 13
640.6220192416547
 23
237.1737948079349
 33
0.0
 14
620.1608192416547
 24
167.6737948079349
 34
0.0
 50
90.0
100
AcDbRotatedDimension
1001
ACAD
1000
DSTYLE
1002
{
1070
   140
1040
6.0
1070
    74
1070
     0
1070
   172
1070
     1
1070
    73
1070
     0
1070
   272
1070
     2
1070
    77
1070
     3
1070
   173
1070
     1
1070
   147
1040
2.0
1070
    42
1040
6.0
1070
    44
1040
3.0
1070
    43
1040
14.0
1070
   271
1070
     0
1070
   178
1070
     4
1070
   177
1070
     4
1070
   176
1070
     4
1070
   141
1040
150.0
1070
     7
1000
_OPEN
1070
     6
1000
_OPEN
1070
    41
1040
7.0
1002
}
  0
DIMENSION
  5
2902
330
1A
100
AcDbEntity
  8
SUNPOU
  6
Continuous
100
AcDbDimension
  2
*D12
 10
435.2145078237149
 20
92.67379480793495
 30
0.0
 11
430.2145078237149
 21
110.673794807935
 31
0.0
 70
    32
 71
     5
 42
36.0
  3
STANDARD
100
AcDbAlignedDimension
 13
530.5493192416545
 23
128.6737948079349
 33
0.0
 14
537.2222192416546
 24
92.67379480793494
 34
0.0
 50
90.0
100
AcDbRotatedDimension
1001
ACAD
1000
DSTYLE
1002
{
1070
   287
1070
     4
1070
   287
1070
     4
1070
   287
1070
     4
1070
   287
1070
     4
1070
   287
1070
     4
1070
   287
1070
     4
1070
    41
1040
7.0
1070
    42
1040
6.0
1070
    43
1040
14.0
1070
    44
1040
3.0
1070
    73
1070
     0
1070
    74
1070
     0
1070
    75
1070
     1
1070
    77
1070
     3
1070
   140
1040
6.0
1070
   141
1040
150.0
1070
   147
1040
2.0
1070
   172
1070
     1
1070
   173
1070
     1
1070
   176
1070
     4
1070
   177
1070
     4
1070
   178
1070
     4
1070
   271
1070
     0
1070
   272
1070
     2
1070
   279
1070
     1
1070
     6
1000
OPEN
1070
     7
1000
OPEN
1002
}
  0
LINE
  5
2903
330
1A
100
AcDbEntity
  8
SEIHIN
  6
Continuous
 62
     3
 48
16.0
100
AcDbLine
 10
625.2718192416546
 20
128.6737948079349
 30
0.0
 11
625.0218192416546
 21
93.67379480793494
 31
0.0
  0
LINE
  5
2904
330
1A
100
AcDbEntity
  8
CENTER L
  6
CENTER
 62
     1
 48
5.0
100
AcDbLine
 10
580.6220192416547
 20
72.55903480793492
 30
0.0
 11
580.6220192416548
 21
114.1764818172084
 31
0.0
  0
LINE
  5
2905
330
1A
100
AcDbEntity
  8
SEIHIN
  6
Continuous
 62
     3
 48
16.0
100
AcDbLine
 10
535.9722192416546
 20
128.6737948079349
 30
0.0
 11
536.2222192416546
 21
93.67379480793494
 31
0.0
  0
DIMENSION
  5
2906
330
1A
100
AcDbEntity
  8
SUNPOU
  6
Continuous
100
AcDbDimension
  2
*D13
 10
536.2222192416546
 20
50.04288057726285
 30
0.0
 11
580.6220192416546
 21
55.04288057726285
 31
0.0
 70
    32
  1
φ<>
 71
     5
 42
88.79960000000006
  3
STANDARD
100
AcDbAlignedDimension
 13
625.0218192416546
 23
93.67379480793494
 33
0.0
 14
536.2222192416546
 24
93.67379480793494
 34
0.0
100
AcDbRotatedDimension
1001
ACAD
1000
DSTYLE
1002
{
1070
   140
1040
6.0
1070
    74
1070
     0
1070
   172
1070
     1
1070
    73
1070
     0
1070
   272
1070
     2
1070
    77
1070
     3
1070
   173
1070
     1
1070
   147
1040
2.0
1070
    42
1040
6.0
1070
    44
1040
3.0
1070
    43
1040
14.0
1070
   271
1070
     0
1070
   178
1070
     4
1070
   177
1070
     4
1070
   176
1070
     4
1070
   141
1040
150.0
1070
     7
1000
_OPEN
1070
     6
1000
_OPEN
1070
    41
1040
7.0
1002
}
  0
LINE
  5
2907
330
1A
100
AcDbEntity
  8
SEIHIN
  6
Continuous
 62
     3
 48
16.0
100
AcDbLine
 10
536.2222192416546
 20
93.67379480793494
 30
0.0
 11
580.6223192416546
 21
93.67379480793494
 31
0.0
  0
LINE
  5
2908
330
1A
100
AcDbEntity
  8
SEIHIN
  6
Continuous
 62
     3
 48
16.0
100
AcDbLine
 10
537.2222192416546
 20
92.67379480793494
 30
0.0
 11
580.6223192416546
 21
92.67379480793494
 31
0.0
  0
LINE
  5
2909
330
1A
100
AcDbEntity
  8
SEIHIN
  6
Continuous
 62
     3
 48
16.0
100
AcDbLine
 10
536.2222192416546
 20
93.67379480793494
 30
0.0
 11
537.2222192416546
 21
92.67379480793494
 31
0.0
  0
LINE
  5
290A
330
1A
100
AcDbEntity
  8
SEIHIN
  6
Continuous
 62
     3
 48
16.0
100
AcDbLine
 10
624.0218192416546
 20
92.67379480793494
 30
0.0
 11
580.6218192416548
 21
92.67379480793494
 31
0.0
  0
LINE
  5
290B
330
1A
100
AcDbEntity
  8
SEIHIN
  6
Continuous
 62
     3
 48
16.0
100
AcDbLine
 10
625.0218192416546
 20
93.67379480793494
 30
0.0
 11
580.6218192416548
 21
93.67379480793494
 31
0.0
  0
LINE
  5
290C
330
1A
100
AcDbEntity
  8
SEIHIN
  6
Continuous
 62
     3
 48
16.0
100
AcDbLine
 10
625.0218192416546
 20
93.67379480793494
 30
0.0
 11
624.0218192416546
 21
92.67379480793494
 31
0.0
  0
MTEXT
  5
290D
330
1A
100
AcDbEntity
  8
SUNPOU
  6
Continuous
 62
     4
100
AcDbMText
 10
524.2825448990002
 20
270.0146669422024
 30
0.0
 40
6.0
 41
0.0
 71
     7
 72
     5
  1
2-φ2.0
 73
     1
 44
1.0
  0
LINE
  5
290E
330
1A
100
AcDbEntity
  8
SEIHIN
  6
Continuous
 62
     3
 48
16.0
100
AcDbLine
 10
530.5493192416545
 20
128.6737948079349
 30
0.0
 11
580.6220192416547
 21
128.6737948079349
 31
0.0
  0
LINE
  5
290F
330
1A
100
AcDbEntity
  8
SEIHIN
  6
Continuous
 62
     3
 48
16.0
100
AcDbLine
 10
633.2146192416547
 20
144.6737948079349
 30
0.0
 11
518.3781192416546
 21
144.6737948079349
 31
0.0
  0
LINE
  5
2910
330
1A
100
AcDbEntity
  8
SEIHIN
  6
Continuous
 62
     3
 48
16.0
100
AcDbLine
 10
533.7066192416546
 20
167.6737948079349
 30
0.0
 11
620.1608192416547
 21
167.6737948079349
 31
0.0
  0
DIMENSION
  5
2911
330
1A
100
AcDbEntity
  8
SUNPOU
  6
Continuous
100
AcDbDimension
  2
*D14
 10
435.2145078237149
 20
144.673794807935
 30
0.0
 11
430.2145078237149
 21
202.623794807935
 31
0.0
 70
    32
 71
     5
 42
115.9
  3
STANDARD
100
AcDbAlignedDimension
 13
475.6220192416546
 23
260.573794807935
 33
0.0
 14
518.3781192416546
 24
144.6737948079349
 34
0.0
 50
90.0
100
AcDbRotatedDimension
1001
ACAD
1000
DSTYLE
1002
{
1070
   140
1040
6.0
1070
    74
1070
     0
1070
   172
1070
     1
1070
    73
1070
     0
1070
   272
1070
     2
1070
    77
1070
     3
1070
   173
1070
     1
1070
   147
1040
2.0
1070
    42
1040
6.0
1070
    44
1040
3.0
1070
    43
1040
14.0
1070
   271
1070
     0
1070
   178
1070
     4
1070
   177
1070
     4
1070
   176
1070
     4
1070
   141
1040
150.0
1070
     7
1000
_OPEN
1070
     6
1000
_OPEN
1070
    41
1040
7.0
1002
}
  0
DIMENSION
  5
2912
330
1A
100
AcDbEntity
  8
SUNPOU
  6
Continuous
100
AcDbDimension
  2
*D15
 10
454.4019906733947
 20
167.6737948079349
 30
0.0
 11
449.4019906733947
 21
214.123794807935
 31
0.0
 70
    32
 71
     5
 42
92.90000000000006
  3
STANDARD
100
AcDbAlignedDimension
 13
475.6220192416546
 23
260.573794807935
 33
0.0
 14
533.7066192416546
 24
167.6737948079349
 34
0.0
 50
90.0
100
AcDbRotatedDimension
1001
ACAD
1000
DSTYLE
1002
{
1070
   140
1040
6.0
1070
    74
1070
     0
1070
   172
1070
     1
1070
    73
1070
     0
1070
   272
1070
     2
1070
    77
1070
     3
1070
   173
1070
     1
1070
   147
1040
2.0
1070
    42
1040
6.0
1070
    44
1040
3.0
1070
    43
1040
14.0
1070
   271
1070
     0
1070
   178
1070
     4
1070
   177
1070
     4
1070
   176
1070
     4
1070
   141
1040
150.0
1070
     7
1000
_OPEN
1070
     6
1000
_OPEN
1070
    41
1040
7.0
1002
}
  0
LINE
  5
2913
330
1A
100
AcDbEntity
  8
SEIHIN
  6
Continuous
 62
     3
 48
16.0
100
AcDbLine
 10
493.2933192416547
 20
218.157794807935
 30
0.0
 11
499.3587192416546
 21
183.4750948079349
 31
0.0
  0
LINE
  5
2914
330
1A
100
AcDbEntity
  8
SEIHIN
  6
Continuous
 62
     3
 48
16.0
100
AcDbLine
 10
520.0886192416547
 20
195.0749948079349
 30
0.0
 11
516.3095192416547
 21
221.965494807935
 31
0.0
  0
DIMENSION
  5
2915
330
1A
100
AcDbEntity
  8
SUNPOU
  6
Continuous
100
AcDbDimension
  2
*D16
 10
435.2145078237149
 20
128.673794807935
 30
0.0
 11
430.2145078237149
 21
136.673794807935
 31
0.0
 70
    32
 71
     5
 42
16.0
  3
STANDARD
100
AcDbAlignedDimension
 13
518.3781192416546
 23
144.6737948079349
 33
0.0
 14
530.5493192416545
 24
128.6737948079349
 34
0.0
 50
90.0
100
AcDbRotatedDimension
1001
ACAD
1000
DSTYLE
1002
{
1070
   140
1040
6.0
1070
    74
1070
     0
1070
   172
1070
     1
1070
    73
1070
     0
1070
   272
1070
     2
1070
    77
1070
     3
1070
    75
1070
     1
1070
   173
1070
     1
1070
   147
1040
2.0
1070
    42
1040
6.0
1070
    44
1040
3.0
1070
    43
1040
14.0
1070
   271
1070
     0
1070
   178
1070
     4
1070
   177
1070
     4
1070
   176
1070
     4
1070
   141
1040
150.0
1070
     7
1000
_OPEN
1070
     6
1000
_OPEN
1070
    41
1040
7.0
1002
}
  0
LINE
  5
2916
330
1A
100
AcDbEntity
  8
SEIHIN
  6
Continuous
 62
     3
 48
16.0
100
AcDbLine
 10
513.7058192416547
 20
167.031394807935
 30
0.0
 11
516.3949192416546
 21
146.415094807935
 31
0.0
  0
ARC
  5
2917
330
1A
100
AcDbEntity
  8
SEIHIN
  6
Continuous
 62
     3
 48
16.0
100
AcDbCircle
 10
518.3781192416546
 20
146.6737948079349
 30
0.0
 40
2.000000991249486
100
AcDbArc
 50
187.4320255196741
 51
270.0
  0
LINE
  5
2918
330
1A
100
AcDbEntity
  8
SEIHIN
  6
Continuous
 62
     3
 48
16.0
100
AcDbLine
 10
526.7315192416547
 20
143.797794807935
 30
0.0
 11
528.4030192416547
 21
130.4256948079349
 31
0.0
  0
ARC
  5
2919
330
1A
100
AcDbEntity
  8
SEIHIN
  6
Continuous
 62
     3
 48
16.0
100
AcDbCircle
 10
530.3876192416547
 20
130.6737948079349
 30
0.0
 40
2.000023845965679
100
AcDbArc
 50
187.1257269986361
 51
270.0
  0
ARC
  5
291A
330
1A
100
AcDbEntity
  8
SEIHIN
  6
Continuous
 62
     3
 48
16.0
100
AcDbCircle
 10
525.7393192416546
 20
143.6737948079349
 30
0.0
 40
0.9999592083360536
100
AcDbArc
 50
7.123594899575954
 51
90.0
  0
ARC
  5
291B
330
1A
100
AcDbEntity
  8
SEIHIN
  6
Continuous
 62
     3
 48
16.0
100
AcDbCircle
 10
519.0596192416547
 20
186.9203948079349
 30
0.0
 40
19.99997246672553
100
AcDbArc
 50
189.9195434793853
 51
252.412577483235
  0
LINE
  5
291C
330
1A
100
AcDbEntity
  8
SEIHIN
  6
Continuous
 62
     3
 48
16.0
100
AcDbLine
 10
529.9721192416546
 20
181.6737948079349
 30
0.0
 11
531.7268192416545
 21
169.390994807935
 31
0.0
  0
LINE
  5
291D
330
1A
100
AcDbEntity
  8
SEIHIN
  6
Continuous
 62
     3
 48
16.0
100
AcDbLine
 10
528.6218192416548
 20
167.6737948079349
 30
0.0
 11
513.6220192416547
 21
167.6737948079349
 31
0.0
  0
ARC
  5
291E
330
1A
100
AcDbEntity
  8
SEIHIN
  6
Continuous
 62
     3
 48
16.0
100
AcDbCircle
 10
512.7142192416548
 20
166.9019948079349
 30
0.0
 40
1.000073274607091
100
AcDbArc
 50
7.428444013102878
 51
72.41117191720184
  0
ARC
  5
291F
330
1A
100
AcDbEntity
  8
SEIHIN
  6
Continuous
 62
     3
 48
16.0
100
AcDbCircle
 10
533.7066192416546
 20
169.6737948079349
 30
0.0
 40
1.999997481246827
100
AcDbArc
 50
188.1288869240667
 51
270.0
  0
ARC
  5
2920
330
1A
100
AcDbEntity
  8
SEIHIN
  6
Continuous
 62
     3
 48
16.0
100
AcDbCircle
 10
537.4183192416547
 20
197.5104948079349
 30
0.0
 40
17.49998018454311
100
AcDbArc
 50
187.9999011032951
 51
244.817435071342
  0
LINE
  5
2921
330
1A
100
AcDbEntity
  8
SEIHIN
  6
Continuous
 62
     3
 48
16.0
100
AcDbLine
 10
499.2514192416547
 20
244.835094807935
 30
0.0
 11
500.7208192416547
 21
231.904394807935
 31
0.0
  0
LINE
  5
2922
330
1A
100
AcDbEntity
  8
SEIHIN
  6
Continuous
 62
     3
 48
16.0
100
AcDbLine
 10
475.6220192416546
 20
260.573794807935
 30
0.0
 11
478.4529192416547
 21
232.2653948079349
 31
0.0
  0
LINE
  5
2923
330
1A
100
AcDbEntity
  8
SEIHIN
  6
Continuous
 62
     3
 48
16.0
100
AcDbLine
 10
479.7906192416547
 20
230.573794807935
 30
0.0
 11
506.4068192416546
 21
230.573794807935
 31
0.0
  0
ARC
  5
2924
330
1A
100
AcDbEntity
  8
SEIHIN
  6
Continuous
 62
     3
 48
16.0
100
AcDbCircle
 10
478.5175192416547
 20
215.573794807935
 30
0.0
 40
15.00003158496159
100
AcDbArc
 50
9.919604644398664
 51
83.49673365114823
  0
ARC
  5
2925
330
1A
100
AcDbEntity
  8
SEIHIN
  6
Continuous
 62
     3
 48
16.0
100
AcDbCircle
 10
480.4429192416547
 20
232.464394807935
 30
0.0
 40
1.999995958538662
100
AcDbArc
 50
185.71030808387
 51
263.4971947745625
  0
LINE
  5
2926
330
1A
100
AcDbEntity
  8
SEIHIN
  6
Continuous
 62
     3
 48
16.0
100
AcDbLine
 10
478.3383192416547
 20
230.573794807935
 30
0.0
 11
478.5175192416547
 21
230.573794807935
 31
0.0
  0
ARC
  5
2927
330
1A
100
AcDbEntity
  8
SEIHIN
  6
Continuous
 62
     3
 48
16.0
100
AcDbCircle
 10
502.2113192416547
 20
232.073794807935
 30
0.0
 40
1.50004776681222
100
AcDbArc
 50
186.4840224555977
 51
270.0
  0
ARC
  5
2928
330
1A
100
AcDbEntity
  8
SEIHIN
  6
Continuous
 62
     3
 48
16.0
100
AcDbCircle
 10
506.4068192416546
 20
220.573794807935
 30
0.0
 40
10.00000740449451
100
AcDbArc
 50
7.999808657534904
 51
90.0
  0
LINE
  5
2929
330
1A
100
AcDbEntity
  8
SEIHIN
  6
Continuous
 62
     3
 48
16.0
100
AcDbLine
 10
502.2322192416547
 20
248.173794807935
 30
0.0
 11
506.7720192416547
 21
248.173794807935
 31
0.0
  0
LINE
  5
292A
330
1A
100
AcDbEntity
  8
SEIHIN
  6
Continuous
 62
     3
 48
16.0
100
AcDbLine
 10
520.2631192416548
 20
260.573794807935
 30
0.0
 11
475.6220192416546
 21
260.573794807935
 31
0.0
  0
ARC
  5
292B
330
1A
100
AcDbEntity
  8
SEIHIN
  6
Continuous
 62
     3
 48
16.0
100
AcDbCircle
 10
502.2322192416547
 20
245.173794807935
 30
0.0
 40
2.999990527470069
100
AcDbArc
 50
90.0
 51
186.4825561497419
  0
LEADER
  5
292C
330
1A
100
AcDbEntity
  8
SUNPOU
  6
Continuous
 62
     4
100
AcDbLeader
  3
STANDARD
 74
     0
 40
6.0
 41
30.2
 76
     3
 10
514.7809569069187
 20
254.5396888422408
 30
0.0
 10
520.566943360805
 20
268.0146669422024
 30
0.0
 10
522.2825448990002
 20
268.0146669422024
 30
0.0
1001
ACAD
1000
DSTYLE
1002
{
1070
     6
1000
OPEN
1070
    41
1040
7.0
1070
    42
1040
6.0
1070
    43
1040
14.0
1070
    44
1040
3.0
1070
    73
1070
     0
1070
    74
1070
     0
1070
    77
1070
     3
1070
   140
1040
6.0
1070
   141
1040
150.0
1070
   147
1040
2.0
1070
   172
1070
     1
1070
   173
1070
     1
1070
   176
1070
     4
1070
   177
1070
     4
1070
   178
1070
     4
1070
   271
1070
     0
1070
   272
1070
     2
1070
   341
1005
6D
1070
   343
1005
6D
1070
   344
1005
6D
1002
}
  0
ARC
  5
292D
330
1A
100
AcDbEntity
  8
SEIHIN
  6
Continuous
 62
     3
 48
16.0
100
AcDbCircle
 10
520.2631192416548
 20
258.573794807935
 30
0.0
 40
2.000009056208976
100
AcDbArc
 50
348.5479253379427
 51
90.0
  0
ARC
  5
292E
330
1A
100
AcDbEntity
  8
SEIHIN
  6
Continuous
 62
     3
 48
16.0
100
AcDbCircle
 10
507.5220192416547
 20
261.1549948079349
 30
0.0
 40
14.99996569479358
100
AcDbArc
 50
267.134008709005
 51
348.547212105996
  0
CIRCLE
  5
292F
330
1A
100
AcDbEntity
  8
SEIHIN
  6
Continuous
 62
     3
 48
16.0
100
AcDbCircle
 10
514.5220192416547
 20
253.573794807935
 30
0.0
 40
1.0
  0
LINE
  5
2930
330
1A
100
AcDbEntity
  8
CENTER L
  6
CENTER
 62
     1
 48
5.0
100
AcDbLine
 10
514.5220192416547
 20
248.8977948079349
 30
0.0
 11
514.5220192416547
 21
259.097394807935
 31
0.0
  0
LINE
  5
2931
330
1A
100
AcDbEntity
  8
CENTER L
  6
CENTER
 62
     1
 48
5.0
100
AcDbLine
 10
520.0745192416547
 20
253.573794807935
 30
0.0
 11
508.7322192416547
 21
253.573794807935
 31
0.0
  0
LINE
  5
2932
330
1A
100
AcDbEntity
  8
SEIHIN
  6
Continuous
 62
     3
 48
16.0
100
AcDbLine
 10
506.7720192416547
 20
246.173794807935
 30
0.0
 11
506.7720192416547
 21
248.173794807935
 31
0.0
  0
DIMENSION
  5
2933
330
1A
100
AcDbEntity
  8
SUNPOU
  6
Continuous
100
AcDbDimension
  2
*D17
 10
580.6220192416548
 20
206.9709225040263
 30
0.0
 11
598.6220192416548
 21
211.9709225040263
 31
0.0
 70
    32
 71
     5
 42
3.60000000000025
  3
STANDARD
100
AcDbAlignedDimension
 13
577.0220192416546
 23
183.4590948079349
 33
0.0
 14
580.6220192416548
 24
114.1764818172084
 34
0.0
100
AcDbRotatedDimension
1001
ACAD
1000
DSTYLE
1002
{
1070
   140
1040
6.0
1070
    74
1070
     0
1070
   172
1070
     1
1070
    73
1070
     0
1070
   272
1070
     2
1070
    77
1070
     3
1070
   173
1070
     1
1070
   147
1040
2.0
1070
    42
1040
6.0
1070
    44
1040
3.0
1070
    43
1040
14.0
1070
   271
1070
     0
1070
   178
1070
     4
1070
   177
1070
     4
1070
   176
1070
     4
1070
   141
1040
150.0
1070
     7
1000
_OPEN
1070
     6
1000
_OPEN
1070
    41
1040
7.0
1002
}
  0
DIMENSION
  5
2934
330
1A
100
AcDbEntity
  8
SUNPOU
  6
Continuous
100
AcDbDimension
  2
*D18
 10
577.0220192416546
 20
267.9464365125793
 30
0.0
 11
608.8220192416546
 21
272.9464365125793
 31
0.0
 70
    32
 71
     5
 42
63.60000000000014
  3
STANDARD
100
AcDbAlignedDimension
 13
640.6220192416547
 23
237.1737948079349
 33
0.0
 14
577.0220192416546
 24
183.4590948079349
 34
0.0
100
AcDbRotatedDimension
1001
ACAD
1000
DSTYLE
1002
{
1070
   140
1040
6.0
1070
    74
1070
     0
1070
   172
1070
     1
1070
    73
1070
     0
1070
   272
1070
     2
1070
    77
1070
     3
1070
   173
1070
     1
1070
   147
1040
2.0
1070
    42
1040
6.0
1070
    44
1040
3.0
1070
    43
1040
14.0
1070
   271
1070
     0
1070
   178
1070
     4
1070
   177
1070
     4
1070
   176
1070
     4
1070
   141
1040
150.0
1070
     7
1000
_OPEN
1070
     6
1000
_OPEN
1070
    41
1040
7.0
1002
}
  0
LINE
  5
2935
330
1A
100
AcDbEntity
  8
SEIHIN
  6
Continuous
 62
     3
 48
16.0
100
AcDbLine
 10
622.1587192416546
 20
169.5830948079349
 30
0.0
 11
623.8870192416546
 21
207.6417948079349
 31
0.0
  0
LINE
  5
2936
330
1A
100
AcDbEntity
  8
SEIHIN
  6
Continuous
 62
     3
 48
16.0
100
AcDbLine
 10
632.6934192416547
 20
130.5997948079349
 30
0.0
 11
635.4864192416546
 21
206.010794807935
 31
0.0
  0
LINE
  5
2937
330
1A
100
AcDbEntity
  8
SEIHIN
  6
Continuous
 62
     3
 48
16.0
100
AcDbLine
 10
630.6948192416546
 20
128.6737948079349
 30
0.0
 11
580.6220192416547
 21
128.6737948079349
 31
0.0
  0
LINE
  5
2938
330
1A
100
AcDbEntity
  8
CENTER L
  6
CENTER
 62
     1
 48
5.0
100
AcDbLine
 10
577.0220192416546
 20
153.7824948079349
 30
0.0
 11
577.0220192416546
 21
183.4590948079349
 31
0.0
  0
ARC
  5
2939
330
1A
100
AcDbEntity
  8
SEIHIN
  6
Continuous
 62
     3
 48
16.0
100
AcDbCircle
 10
630.6948192416546
 20
130.6737948079349
 30
0.0
 40
1.999984744883627
100
AcDbArc
 50
270.0
 51
357.8795397966266
  0
ARC
  5
293A
330
1A
100
AcDbEntity
  8
SEIHIN
  6
Continuous
 62
     3
 48
16.0
100
AcDbCircle
 10
620.1608192416547
 20
169.6737948079349
 30
0.0
 40
1.999978862276593
100
AcDbArc
 50
270.0
 51
357.4006899504053
  0
LINE
  5
293B
330
1A
100
AcDbEntity
  8
SEIHIN
  6
Continuous
 62
     3
 48
16.0
100
AcDbLine
 10
617.6234192416546
 20
237.1737948079349
 30
0.0
 11
640.6220192416547
 21
237.1737948079349
 31
0.0
  0
ARC
  5
293C
330
1A
100
AcDbEntity
  8
SEIHIN
  6
Continuous
 62
     3
 48
16.0
100
AcDbCircle
 10
636.4857192416546
 20
205.9737948079349
 30
0.0
 40
0.9999923724417716
100
AcDbArc
 50
90.0
 51
177.879539796625
  0
LINE
  5
293D
330
1A
100
AcDbEntity
  8
SEIHIN
  6
Continuous
 62
     3
 48
16.0
100
AcDbLine
 10
623.8566192416547
 20
206.9737948079349
 30
0.0
 11
638.6907192416547
 21
206.9737948079349
 31
0.0
  0
LINE
  5
293E
330
1A
100
AcDbEntity
  8
SEIHIN
  6
Continuous
 62
     3
 48
16.0
100
AcDbLine
 10
630.5521192416547
 20
210.073794807935
 30
0.0
 11
630.5521192416547
 21
226.1737948079349
 31
0.0
  0
LINE
  5
293F
330
1A
100
AcDbEntity
  8
SEIHIN
  6
Continuous
 62
     3
 48
16.0
100
AcDbLine
 10
629.5521192416547
 20
209.073794807935
 30
0.0
 11
625.3854192416547
 21
209.073794807935
 31
0.0
  0
ARC
  5
2940
330
1A
100
AcDbEntity
  8
SEIHIN
  6
Continuous
 62
     3
 48
16.0
100
AcDbCircle
 10
625.3854192416547
 20
207.573794807935
 30
0.0
 40
1.499971092776278
100
AcDbArc
 50
90.0
 51
177.4016006256764
  0
ARC
  5
2941
330
1A
100
AcDbEntity
  8
SEIHIN
  6
Continuous
 62
     3
 48
16.0
100
AcDbCircle
 10
629.5521192416547
 20
210.073794807935
 30
0.0
 40
1.0
100
AcDbArc
 50
270.0
 51
0.0
  0
ARC
  5
2942
330
1A
100
AcDbEntity
  8
SEIHIN
  6
Continuous
 62
     3
 48
16.0
100
AcDbCircle
 10
624.6220192416547
 20
235.0357948079349
 30
0.0
 40
8.99997272214846
100
AcDbArc
 50
178.8705569226872
 51
259.9536666534695
  0
ARC
  5
2943
330
1A
100
AcDbEntity
  8
SEIHIN
  6
Continuous
 62
     3
 48
16.0
100
AcDbCircle
 10
617.6234192416546
 20
235.1737948079349
 30
0.0
 40
1.999994064982393
100
AcDbArc
 50
90.0
 51
178.8711934225507
  0
LINE
  5
2944
330
1A
100
AcDbEntity
  8
SEIHIN
  6
Continuous
 62
     3
 48
16.0
100
AcDbLine
 10
628.5521192416547
 20
228.1737948079349
 30
0.0
 11
623.0521192416547
 21
228.1737948079349
 31
0.0
  0
LINE
  5
2945
330
1A
100
AcDbEntity
  8
SEIHIN
  6
Continuous
 62
     3
 48
16.0
100
AcDbLine
 10
623.0521192416547
 20
228.1737948079349
 30
0.0
 11
623.0521192416547
 21
226.1737948079349
 31
0.0
  0
ARC
  5
2946
330
1A
100
AcDbEntity
  8
SEIHIN
  6
Continuous
 62
     3
 48
16.0
100
AcDbCircle
 10
628.5521192416547
 20
226.1737948079349
 30
0.0
 40
2.0
100
AcDbArc
 50
0.0
 51
90.0
  0
LINE
  5
2947
330
1A
100
AcDbEntity
  8
SEIHIN
  6
Continuous
 62
     3
 48
5.0
100
AcDbLine
 10
640.6220192416547
 20
208.973694807935
 30
0.0
 11
640.6220192416547
 21
237.173794807935
 31
0.0
  0
ARC
  5
2948
330
1A
100
AcDbEntity
  8
SEIHIN
  6
Continuous
 62
     3
 48
16.0
100
AcDbCircle
 10
638.6907192416547
 20
208.9737948079349
 30
0.0
 40
2.000009184957775
100
AcDbArc
 50
270.0
 51
357.999989523077
  0
VIEWPORT
  5
22
330
17
100
AcDbEntity
 67
     1
  8
0
100
AcDbViewport
 10
313.6808219178083
 20
148.5
 30
0.0
 40
627.3616438356165
 41
297.0
 68
     2
 69
     1
 12
313.6808219178083
 22
148.5
 13
0.0
 23
0.0
 14
1.0
 24
1.0
 15
10.0
 25
10.0
 16
0.0
 26
0.0
 36
1.0
 17
0.0
 27
0.0
 37
0.0
 42
50.0
 43
0.0
 44
0.0
 45
297.0
 50
0.0
 51
0.0
 72
   100
 90
    32768
  1

281
     0
 71
     1
 74
     0
110
0.0
120
0.0
130
0.0
111
1.0
121
0.0
131
0.0
112
0.0
122
1.0
132
0.0
 79
     0
146
0.0
  0
VIEWPORT
  5
64
330
17
100
AcDbEntity
 67
     1
  8
VIEWPORT
100
AcDbViewport
 10
210.0
 20
148.5
 30
0.0
 40
420.0
 41
297.0
 68
     1
 69
     2
 12
420.0
 22
297.0
 13
0.0
 23
0.0
 14
10.0
 24
10.0
 15
0.0
 25
0.0
 16
0.0
 26
0.0
 36
1.0
 17
0.0
 27
0.0
 37
0.0
 42
50.0
 43
0.0
 44
0.0
 45
605.8799999999999
 50
0.0
 51
0.0
 72
   100
 90
    32768
  1

281
     0
 71
     1
 74
     0
110
0.0
120
0.0
130
0.0
111
1.0
121
0.0
131
0.0
112
0.0
122
1.0
132
0.0
 79
     0
146
0.0
  0
ENDSEC
  0
SECTION
  2
OBJECTS
  0
DICTIONARY
  5
C
330
0
100
AcDbDictionary
281
     1
  3
ACAD_GROUP
350
D
  3
ACAD_LAYOUT
350
C42
  3
ACAD_MLINESTYLE
350
E
  3
ACAD_PLOTSETTINGS
350
C43
  3
ACAD_PLOTSTYLENAME
350
C40
  0
DICTIONARY
  5
D
102
{ACAD_REACTORS
330
C
102
}
330
C
100
AcDbDictionary
281
     1
  0
DICTIONARY
  5
C42
102
{ACAD_REACTORS
330
C
102
}
330
C
100
AcDbDictionary
281
     1
  3
Model
350
C44
  3
ﾚｲｱｳﾄ1
350
C45
  0
DICTIONARY
  5
E
102
{ACAD_REACTORS
330
C
102
}
330
C
100
AcDbDictionary
281
     1
  3
STANDARD
350
13
  0
DICTIONARY
  5
C43
102
{ACAD_REACTORS
330
C
102
}
330
C
100
AcDbDictionary
281
     1
  0
ACDBDICTIONARYWDFLT
  5
C40
102
{ACAD_REACTORS
330
C
102
}
330
C
100
AcDbDictionary
281
     1
  3
Normal
350
C41
100
AcDbDictionaryWithDefault
340
C41
1001
ACAD
1000
TREAT_AS_HARD
1070
     0
1000
TREAT_AS_HARD
1070
     0
1000
TREAT_AS_HARD
1070
     0
1000
TREAT_AS_HARD
1070
     0
1000
TREAT_AS_HARD
1070
     0
1000
TREAT_AS_HARD
1070
     0
  0
LAYOUT
  5
C44
102
{ACAD_REACTORS
330
C42
102
}
330
C42
100
AcDbPlotSettings
  1

  2
Acrobat PDFWriter
  4
A3
  6

 40
7.143749713897705
 41
7.14375638961792
 42
7.143768310546875
 43
7.14373779296875
 44
297.1270751953125
 45
420.1583251953125
 46
0.0
 47
0.0
 48
0.0
 49
0.0
140
0.0
141
0.0
142
1.0
143
2.0
 70
 28336
 72
     1
 73
     1
 74
     2
  7
print.ctb
 75
    17
147
0.5
148
0.0
149
0.0
100
AcDbLayout
  1
Model
 70
     1
 71
     0
 10
0.0
 20
0.0
 11
12.0
 21
9.0
 12
0.0
 22
0.0
 32
0.0
 14
0.0
 24
0.0
 34
0.0
 15
0.0
 25
0.0
 35
0.0
146
0.0
 13
0.0
 23
0.0
 33
0.0
 16
1.0
 26
0.0
 36
0.0
 17
0.0
 27
1.0
 37
0.0
 76
     0
330
1A
  0
LAYOUT
  5
C45
102
{ACAD_REACTORS
330
C42
102
}
330
C42
100
AcDbPlotSettings
  1

  2
Canon LBP-A404 LIPS3
  4

  6

 40
0.0
 41
0.0
 42
0.0
 43
0.0
 44
0.0
 45
0.0
 46
0.0
 47
0.0
 48
0.0
 49
0.0
140
0.0
141
0.0
142
1.0
143
1.0
 70
   688
 72
     0
 73
     0
 74
     5
  7

 75
    16
147
1.0
148
0.0
149
0.0
100
AcDbLayout
  1
ﾚｲｱｳﾄ1
 70
     1
 71
     1
 10
0.0
 20
0.0
 11
420.0
 21
297.0
 12
0.0
 22
0.0
 32
0.0
 14
0.0
 24
0.0
 34
0.0
 15
420.0
 25
297.0
 35
0.0
146
0.0
 13
0.0
 23
0.0
 33
0.0
 16
1.0
 26
0.0
 36
0.0
 17
0.0
 27
1.0
 37
0.0
 76
     0
330
17
331
64
  0
MLINESTYLE
  5
13
102
{ACAD_REACTORS
330
E
102
}
330
E
100
AcDbMlineStyle
  2
STANDARD
 70
     0
  3

 62
     0
 51
90.0
 52
90.0
 71
     2
 49
0.5
 62
   256
  6
BYLAYER
 49
-0.5
 62
   256
  6
BYLAYER
  0
ACDBPLACEHOLDER
  5
C41
102
{ACAD_REACTORS
330
C40
102
}
330
C40
  0
ENDSEC
  0
EOF
