  0
SECTION
  2
HEADER
  9
$ACADVER
  1
AC1014
  9
$ACADMAINTVER
 70
     9
  9
$DWGCODEPAGE
  3
ANSI_932
  9
$INSBASE
 10
0.0
 20
0.0
 30
0.0
  9
$EXTMIN
 10
-0.1026548667550742
 20
-0.0725053398959972
 30
-0.0000000000112498
  9
$EXTMAX
 10
1595.300031564657
 20
1103.287884043502
 30
0.0000000000002956
  9
$LIMMIN
 10
0.0
 20
0.0
  9
$LIMMAX
 10
1682.0
 20
1188.0
  9
$ORTHOMODE
 70
     0
  9
$REGENMODE
 70
     1
  9
$FILLMODE
 70
     1
  9
$QTEXTMODE
 70
     0
  9
$MIRRTEXT
 70
     1
  9
$DRAGMODE
 70
     2
  9
$LTSCALE
 40
5.657142857142857
  9
$OSMODE
 70
    35
  9
$ATTMODE
 70
     1
  9
$TEXTSIZE
 40
19.8
  9
$TRACEWID
 40
0.05
  9
$TEXTSTYLE
  7
STANDARD
  9
$CLAYER
  8
SEIHIN
  9
$CELTYPE
  6
BYLAYER
  9
$CECOLOR
 62
   256
  9
$CELTSCALE
 40
1.0
  9
$DELOBJ
 70
     1
  9
$DISPSILH
 70
     0
  9
$DIMSCALE
 40
1.0
  9
$DIMASZ
 40
14.0
  9
$DIMEXO
 40
12.0
  9
$DIMDLI
 40
28.0
  9
$DIMRND
 40
0.0
  9
$DIMDLE
 40
0.0
  9
$DIMEXE
 40
6.0
  9
$DIMTP
 40
0.0
  9
$DIMTM
 40
0.0
  9
$DIMTXT
 40
12.0
  9
$DIMCEN
 40
150.0
  9
$DIMTSZ
 40
0.0
  9
$DIMTOL
 70
     0
  9
$DIMLIM
 70
     0
  9
$DIMTIH
 70
     0
  9
$DIMTOH
 70
     0
  9
$DIMSE1
 70
     0
  9
$DIMSE2
 70
     0
  9
$DIMTAD
 70
     3
  9
$DIMZIN
 70
     0
  9
$DIMBLK
  1

  9
$DIMASO
 70
     1
  9
$DIMSHO
 70
     1
  9
$DIMPOST
  1

  9
$DIMAPOST
  1

  9
$DIMALT
 70
     0
  9
$DIMALTD
 70
     2
  9
$DIMALTF
 40
0.03937
  9
$DIMLFAC
 40
1.0
  9
$DIMTOFL
 70
     1
  9
$DIMTVP
 40
0.0
  9
$DIMTIX
 70
     0
  9
$DIMSOXD
 70
     0
  9
$DIMSAH
 70
     1
  9
$DIMBLK1
  1
OPEN
  9
$DIMBLK2
  1
OPEN
  9
$DIMSTYLE
  2
STANDARD
  9
$DIMCLRD
 70
   256
  9
$DIMCLRE
 70
   256
  9
$DIMCLRT
 70
   256
  9
$DIMTFAC
 40
1.0
  9
$DIMGAP
 40
4.0
  9
$DIMJUST
 70
     0
  9
$DIMSD1
 70
     0
  9
$DIMSD2
 70
     0
  9
$DIMTOLJ
 70
     1
  9
$DIMTZIN
 70
     0
  9
$DIMALTZ
 70
     0
  9
$DIMALTTZ
 70
     0
  9
$DIMFIT
 70
     3
  9
$DIMUPT
 70
     0
  9
$DIMUNIT
 70
     2
  9
$DIMDEC
 70
     0
  9
$DIMTDEC
 70
     0
  9
$DIMALTU
 70
     2
  9
$DIMALTTD
 70
     2
  9
$DIMTXSTY
  7
STANDARD
  9
$DIMAUNIT
 70
     0
  9
$LUNITS
 70
     2
  9
$LUPREC
 70
     4
  9
$SKETCHINC
 40
0.1
  9
$FILLETRAD
 40
56.57142857142858
  9
$AUNITS
 70
     0
  9
$AUPREC
 70
     0
  9
$MENU
  1
acad
  9
$ELEVATION
 40
0.0
  9
$PELEVATION
 40
0.0
  9
$THICKNESS
 40
0.0
  9
$LIMCHECK
 70
     0
  9
$BLIPMODE
 70
     0
  9
$CHAMFERA
 40
56.57142857142858
  9
$CHAMFERB
 40
56.57142857142858
  9
$CHAMFERC
 40
113.1428571428571
  9
$CHAMFERD
 40
0.0
  9
$SKPOLY
 70
     0
  9
$TDCREATE
 40
2450994.355304167
  9
$TDUPDATE
 40
2453802.434684965
  9
$TDINDWG
 40
0.0083860417
  9
$TDUSRTIMER
 40
0.0083862269
  9
$USRTIMER
 70
     1
  9
$ANGBASE
 50
0.0
  9
$ANGDIR
 70
     0
  9
$PDMODE
 70
     1
  9
$PDSIZE
 40
0.0
  9
$PLINEWID
 40
0.0
  9
$COORDS
 70
     1
  9
$SPLFRAME
 70
     0
  9
$SPLINETYPE
 70
     6
  9
$SPLINESEGS
 70
     8
  9
$ATTDIA
 70
     0
  9
$ATTREQ
 70
     1
  9
$HANDLING
 70
 10241
  9
$HANDSEED
  5
517
  9
$SURFTAB1
 70
     6
  9
$SURFTAB2
 70
     6
  9
$SURFTYPE
 70
     6
  9
$SURFU
 70
     6
  9
$SURFV
 70
     6
  9
$UCSNAME
  2

  9
$UCSORG
 10
0.0
 20
0.0
 30
0.0
  9
$UCSXDIR
 10
1.0
 20
0.0
 30
0.0
  9
$UCSYDIR
 10
0.0
 20
1.0
 30
0.0
  9
$PUCSNAME
  2

  9
$PUCSORG
 10
0.0
 20
0.0
 30
0.0
  9
$PUCSXDIR
 10
1.0
 20
0.0
 30
0.0
  9
$PUCSYDIR
 10
0.0
 20
1.0
 30
0.0
  9
$USERI1
 70
     0
  9
$USERI2
 70
     0
  9
$USERI3
 70
     0
  9
$USERI4
 70
     0
  9
$USERI5
 70
     0
  9
$USERR1
 40
0.0
  9
$USERR2
 40
0.0
  9
$USERR3
 40
0.0
  9
$USERR4
 40
0.0
  9
$USERR5
 40
0.0
  9
$WORLDVIEW
 70
     1
  9
$SHADEDGE
 70
     3
  9
$SHADEDIF
 70
    70
  9
$TILEMODE
 70
     1
  9
$MAXACTVP
 70
    16
  9
$PINSBASE
 10
0.0
 20
0.0
 30
0.0
  9
$PLIMCHECK
 70
     0
  9
$PEXTMIN
 10
0.0
 20
0.0
 30
0.0
  9
$PEXTMAX
 10
420.0
 20
297.0
 30
0.0
  9
$PLIMMIN
 10
0.0
 20
0.0
  9
$PLIMMAX
 10
420.0
 20
297.0
  9
$UNITMODE
 70
     0
  9
$VISRETAIN
 70
     0
  9
$PLINEGEN
 70
     0
  9
$PSLTSCALE
 70
     1
  9
$TREEDEPTH
 70
  3020
  9
$PICKSTYLE
 70
     1
  9
$CMLSTYLE
  2
STANDARD
  9
$CMLJUST
 70
     0
  9
$CMLSCALE
 40
20.0
  9
$PROXYGRAPHICS
 70
     1
  9
$MEASUREMENT
 70
     1
  0
ENDSEC
  0
SECTION
  2
CLASSES
  0
CLASS
  1
ACDBDICTIONARYWDFLT
  2
AcDbDictionaryWithDefault
  3
AutoCAD 2000
 90
        0
280
     0
281
     0
  0
CLASS
  1
ACDBPLACEHOLDER
  2
AcDbPlaceHolder
  3
AutoCAD 2000
 90
        0
280
     0
281
     0
  0
CLASS
  1
LAYOUT
  2
AcDbLayout
  3
AutoCAD 2000
 90
        0
280
     0
281
     0
  0
CLASS
  1
LONG_TRANSACTION
  2
AcDbLongTransaction
  3
AutoCAD 2000
 90
        0
280
     0
281
     0
  0
CLASS
  1
LWPOLYLINE
  2
AcDbPolyline
  3
AutoCAD 2000
 90
        0
280
     0
281
     1
  0
CLASS
  1
HATCH
  2
AcDbHatch
  3
AutoCAD 2000
 90
        0
280
     0
281
     1
  0
CLASS
  1
XRECORD
  2
AcDbXrecord
  3
AutoCAD 2000
 90
        0
280
     0
281
     0
  0
CLASS
  1
LONG_TRANSACTION
  2
AcDbLongTransaction
  3
AutoCAD 2000
 90
        0
280
     0
281
     0
  0
CLASS
  1
LWPOLYLINE
  2
AcDbPolyline
  3
AutoCAD 2000
 90
        0
280
     0
281
     1
  0
CLASS
  1
HATCH
  2
AcDbHatch
  3
AutoCAD 2000
 90
        0
280
     0
281
     1
  0
CLASS
  1
XRECORD
  2
AcDbXrecord
  3
AutoCAD 2000
 90
        0
280
     0
281
     0
  0
ENDSEC
  0
SECTION
  2
TABLES
  0
TABLE
  2
VPORT
  5
8
330
0
100
AcDbSymbolTable
 70
     2
  0
VPORT
  5
4F3
330
8
100
AcDbSymbolTableRecord
100
AcDbViewportTableRecord
  2
*ACTIVE
 70
     0
 10
0.0
 20
0.0
 11
1.0
 21
1.0
 12
859.1790478103447
 22
542.0465899349726
 13
0.0
 23
0.0
 14
10.0
 24
10.0
 15
10.0
 25
10.0
 16
0.0
 26
0.0
 36
1.0
 17
0.0
 27
0.0
 37
0.0
 40
1320.648327097692
 41
1.795454545454545
 42
50.0
 43
0.0
 44
0.0
 50
0.0
 51
0.0
 71
     0
 72
   100
 73
     1
 74
     0
 75
     0
 76
     0
 77
     0
 78
     0
  0
ENDTAB
  0
TABLE
  2
LTYPE
  5
5
330
0
100
AcDbSymbolTable
 70
     2
  0
LTYPE
  5
13
330
5
100
AcDbSymbolTableRecord
100
AcDbLinetypeTableRecord
  2
BYBLOCK
 70
     0
  3

 72
    65
 73
     0
 40
0.0
  0
LTYPE
  5
14
330
5
100
AcDbSymbolTableRecord
100
AcDbLinetypeTableRecord
  2
BYLAYER
 70
     0
  3

 72
    65
 73
     0
 40
0.0
  0
LTYPE
  5
15
330
5
100
AcDbSymbolTableRecord
100
AcDbLinetypeTableRecord
  2
CONTINUOUS
 70
     0
  3
Solid line
 72
    65
 73
     0
 40
0.0
  0
LTYPE
  5
11C
330
5
100
AcDbSymbolTableRecord
100
AcDbLinetypeTableRecord
  2
CENTER
 70
     0
  3
____ _ ____ _ ____ _ ____ _ ____ _ ____ _ ____ 
 72
    65
 73
     4
 40
2.0
 49
1.25
 74
     0
 49
-0.25
 74
     0
 49
0.25
 74
     0
 49
-0.25
 74
     0
  0
ENDTAB
  0
TABLE
  2
LAYER
  5
2
330
0
100
AcDbSymbolTable
 70
     8
  0
LAYER
  5
F
330
2
100
AcDbSymbolTableRecord
100
AcDbLayerTableRecord
  2
0
 70
     0
 62
     7
  6
CONTINUOUS
  0
LAYER
  5
23
330
2
100
AcDbSymbolTableRecord
100
AcDbLayerTableRecord
  2
VIEWPORT
 70
     0
 62
     7
  6
CONTINUOUS
  0
LAYER
  5
2D
330
2
100
AcDbSymbolTableRecord
100
AcDbLayerTableRecord
  2
ZUWAKU
 70
     0
 62
     7
  6
CONTINUOUS
  0
LAYER
  5
A6
330
2
100
AcDbSymbolTableRecord
100
AcDbLayerTableRecord
  2
DEFPOINTS
 70
     0
 62
     7
  6
CONTINUOUS
  0
LAYER
  5
189
330
2
100
AcDbSymbolTableRecord
100
AcDbLayerTableRecord
  2
SEIHIN
 70
     0
 62
     3
  6
CONTINUOUS
  0
LAYER
  5
18A
330
2
100
AcDbSymbolTableRecord
100
AcDbLayerTableRecord
  2
SUNPOU
 70
     0
 62
     4
  6
CONTINUOUS
  0
LAYER
  5
18B
330
2
100
AcDbSymbolTableRecord
100
AcDbLayerTableRecord
  2
CENTER_L
 70
     0
 62
     1
  6
CENTER
  0
LAYER
  5
37C
330
2
100
AcDbSymbolTableRecord
100
AcDbLayerTableRecord
  2
MOJI
 70
     0
 62
     2
  6
CONTINUOUS
  0
ENDTAB
  0
TABLE
  2
STYLE
  5
3
330
0
100
AcDbSymbolTable
 70
     2
  0
STYLE
  5
10
330
3
100
AcDbSymbolTableRecord
100
AcDbTextStyleTableRecord
  2
STANDARD
 70
     0
 40
0.0
 41
1.0
 50
0.0
 71
     0
 42
19.8
  3
txt
  4
bigfont.shx
  0
STYLE
  5
37D
330
3
100
AcDbSymbolTableRecord
100
AcDbTextStyleTableRecord
  2
ｽﾀｲﾙ1
 70
     0
 40
0.0
 41
1.0
 50
0.0
 71
     0
 42
2.5
  3
MS PGothic.ttf
  4

1001
ACAD
1000
MS PGothic
1071
    32818
  0
ENDTAB
  0
TABLE
  2
VIEW
  5
6
330
0
100
AcDbSymbolTable
 70
     0
  0
ENDTAB
  0
TABLE
  2
UCS
  5
7
330
0
100
AcDbSymbolTable
 70
     0
  0
ENDTAB
  0
TABLE
  2
APPID
  5
9
330
0
100
AcDbSymbolTable
 70
     1
  0
APPID
  5
11
330
9
100
AcDbSymbolTableRecord
100
AcDbRegAppTableRecord
  2
ACAD
 70
     0
  0
ENDTAB
  0
TABLE
  2
DIMSTYLE
  5
A
330
0
100
AcDbSymbolTable
 70
     1
  0
DIMSTYLE
105
1D
102
{ACAD_REACTORS
330
242
330
26C
330
26D
102
}
330
A
100
AcDbSymbolTableRecord
100
AcDbDimStyleTableRecord
  2
STANDARD
 70
     0
  3

  4

  5

  6

  7

 40
1.0
 41
0.18
 42
0.0625
 43
0.38
 44
0.18
 45
0.0
 46
0.0
 47
0.0
 48
0.0
140
0.18
141
0.09
142
0.0
143
25.4
144
1.0
145
0.0
146
1.0
147
0.09
 71
     0
 72
     0
 73
     1
 74
     1
 75
     0
 76
     0
 77
     0
 78
     0
170
     0
171
     2
172
     0
173
     0
174
     0
175
     0
176
     0
177
     0
178
     0
270
     2
271
     4
272
     4
273
     2
274
     2
340
10
275
     0
280
     0
281
     0
282
     0
283
     1
284
     0
285
     0
286
     0
287
     3
288
     0
  0
ENDTAB
  0
TABLE
  2
BLOCK_RECORD
  5
1
330
0
100
AcDbSymbolTable
 70
     4
  0
BLOCK_RECORD
  5
19
102
{ACAD_XDICTIONARY
360
36E
102
}
330
1
100
AcDbSymbolTableRecord
100
AcDbBlockTableRecord
  2
*MODEL_SPACE
  0
BLOCK_RECORD
  5
16
102
{ACAD_XDICTIONARY
360
36C
102
}
330
1
100
AcDbSymbolTableRecord
100
AcDbBlockTableRecord
  2
*PAPER_SPACE
  0
BLOCK_RECORD
  5
27
330
1
100
AcDbSymbolTableRecord
100
AcDbBlockTableRecord
  2
_OPEN
  0
BLOCK_RECORD
  5
2EE
330
1
100
AcDbSymbolTableRecord
100
AcDbBlockTableRecord
  2
*D1
  0
BLOCK_RECORD
  5
2FA
330
1
100
AcDbSymbolTableRecord
100
AcDbBlockTableRecord
  2
*D2
  0
BLOCK_RECORD
  5
308
330
1
100
AcDbSymbolTableRecord
100
AcDbBlockTableRecord
  2
*D3
  0
ENDTAB
  0
ENDSEC
  0
SECTION
  2
BLOCKS
  0
BLOCK
  5
1A
330
19
100
AcDbEntity
  8
0
100
AcDbBlockBegin
  2
*MODEL_SPACE
 70
     0
 10
0.0
 20
0.0
 30
0.0
  3
*MODEL_SPACE
  1

  0
ENDBLK
  5
1B
330
19
100
AcDbEntity
  8
0
100
AcDbBlockEnd
  0
BLOCK
  5
17
330
16
100
AcDbEntity
 67
     1
  8
0
100
AcDbBlockBegin
  2
*PAPER_SPACE
 70
     0
 10
0.0
 20
0.0
 30
0.0
  3
*PAPER_SPACE
  1

  0
ENDBLK
  5
18
330
16
100
AcDbEntity
 67
     1
  8
0
100
AcDbBlockEnd
  0
BLOCK
  5
28
330
27
100
AcDbEntity
  8
0
100
AcDbBlockBegin
  2
_OPEN
 70
     0
 10
0.0
 20
0.0
 30
0.0
  3
_OPEN
  1

  0
LINE
  5
29
330
27
100
AcDbEntity
  8
0
  6
BYBLOCK
 62
     0
100
AcDbLine
 10
-1.0
 20
0.1666666666666666
 30
0.0
 11
0.0
 21
0.0
 31
0.0
  0
LINE
  5
2A
330
27
100
AcDbEntity
  8
0
  6
BYBLOCK
 62
     0
100
AcDbLine
 10
0.0
 20
0.0
 30
0.0
 11
-1.0
 21
-0.1666666666666666
 31
0.0
  0
LINE
  5
2B
330
27
100
AcDbEntity
  8
0
  6
BYBLOCK
 62
     0
100
AcDbLine
 10
0.0
 20
0.0
 30
0.0
 11
-1.0
 21
0.0
 31
0.0
  0
ENDBLK
  5
2C
330
27
100
AcDbEntity
  8
0
100
AcDbBlockEnd
  0
BLOCK
  5
316
330
2EE
100
AcDbEntity
  8
0
100
AcDbBlockBegin
  2
*D1
 70
     1
 10
0.0
 20
0.0
 30
0.0
  3
*D1
  1

  0
LINE
  5
317
330
2EE
100
AcDbEntity
  8
0
  6
BYBLOCK
 62
     4
100
AcDbLine
 10
114.9838345410274
 20
594.6991843090789
 30
0.0
 11
114.9838345410274
 21
661.8516617790472
 31
0.0
  0
LINE
  5
318
330
2EE
100
AcDbEntity
  8
0
  6
BYBLOCK
 62
     4
100
AcDbLine
 10
1314.954575723791
 20
594.4821321135731
 30
0.0
 11
1314.954575723791
 21
661.8516617790472
 31
0.0
  0
LINE
  5
319
330
2EE
100
AcDbEntity
  8
0
  6
BYBLOCK
 62
     4
100
AcDbLine
 10
128.9838345410274
 20
655.8516617790473
 30
0.0
 11
1300.954575723791
 21
655.8516617790473
 31
0.0
  0
INSERT
  5
31A
330
2EE
100
AcDbEntity
  8
0
  6
BYBLOCK
 62
     4
100
AcDbBlockReference
  2
_OPEN
 10
114.9838345410274
 20
655.8516617790473
 30
0.0
 41
14.0
 42
14.0
 43
14.0
 50
180.0
  0
INSERT
  5
31B
330
2EE
100
AcDbEntity
  8
0
  6
BYBLOCK
 62
     4
100
AcDbBlockReference
  2
_OPEN
 10
1314.954575723791
 20
655.8516617790473
 30
0.0
 41
14.0
 42
14.0
 43
14.0
  0
MTEXT
  5
31C
330
2EE
100
AcDbEntity
  8
0
  6
BYBLOCK
 62
     4
100
AcDbMText
 10
714.9692051324096
 20
665.8516617790472
 30
0.0
 40
12.0
 41
0.0
 71
     5
 72
     5
  1
\A1;1200
1001
ACAD
1000
MTEXTBEGIN
1070
    73
1070
     1
1070
    44
1040
1.0
1070
    74
1070
     0
1000
MTEXTEND
1000
MTEXTBEGIN
1070
    73
1070
     1
1070
    44
1040
1.0
1070
    74
1070
     0
1000
MTEXTEND
  0
POINT
  5
31D
330
2EE
100
AcDbEntity
  8
DEFPOINTS
  6
BYBLOCK
 62
     0
100
AcDbPoint
 10
114.9838345410274
 20
582.6991843090789
 30
0.0
  0
POINT
  5
31E
330
2EE
100
AcDbEntity
  8
DEFPOINTS
  6
BYBLOCK
 62
     0
100
AcDbPoint
 10
1314.954575723791
 20
582.4821321135731
 30
0.0
  0
POINT
  5
31F
330
2EE
100
AcDbEntity
  8
DEFPOINTS
  6
BYBLOCK
 62
     0
100
AcDbPoint
 10
1314.954575723791
 20
655.8516617790473
 30
0.0
  0
ENDBLK
  5
320
330
2EE
100
AcDbEntity
  8
0
100
AcDbBlockEnd
  0
BLOCK
  5
321
330
2FA
100
AcDbEntity
  8
0
100
AcDbBlockBegin
  2
*D2
 70
     1
 10
0.0
 20
0.0
 30
0.0
  3
*D2
  1

  0
LINE
  5
322
330
2FA
100
AcDbEntity
  8
0
  6
BYBLOCK
 62
     4
100
AcDbLine
 10
1459.269924398593
 20
592.6057830393948
 30
0.0
 11
1459.269924398593
 21
643.2711283804772
 31
0.0
  0
LINE
  5
323
330
2FA
100
AcDbEntity
  8
0
  6
BYBLOCK
 62
     4
100
AcDbLine
 10
1436.769924398594
 20
570.1057830393949
 30
0.0
 11
1436.769924398594
 21
643.2711283804772
 31
0.0
  0
LINE
  5
324
330
2FA
100
AcDbEntity
  8
0
  6
BYBLOCK
 62
     4
100
AcDbLine
 10
1473.269924398593
 20
637.2711283804773
 30
0.0
 11
1487.269924398593
 21
637.2711283804773
 31
0.0
  0
LINE
  5
325
330
2FA
100
AcDbEntity
  8
0
  6
BYBLOCK
 62
     4
100
AcDbLine
 10
1422.769924398594
 20
637.2711283804773
 30
0.0
 11
1380.769924398594
 21
637.2711283804773
 31
0.0
  0
LINE
  5
326
330
2FA
100
AcDbEntity
  8
0
  6
BYBLOCK
 62
     4
100
AcDbLine
 10
1459.269924398593
 20
637.2711283804773
 30
0.0
 11
1436.769924398594
 21
637.2711283804773
 31
0.0
  0
INSERT
  5
327
330
2FA
100
AcDbEntity
  8
0
  6
BYBLOCK
 62
     4
100
AcDbBlockReference
  2
_OPEN
 10
1459.269924398593
 20
637.2711283804773
 30
0.0
 41
14.0
 42
14.0
 43
14.0
 50
180.0
  0
INSERT
  5
328
330
2FA
100
AcDbEntity
  8
0
  6
BYBLOCK
 62
     4
100
AcDbBlockReference
  2
_OPEN
 10
1436.769924398594
 20
637.2711283804773
 30
0.0
 41
14.0
 42
14.0
 43
14.0
  0
MTEXT
  5
329
330
2FA
100
AcDbEntity
  8
0
  6
BYBLOCK
 62
     4
100
AcDbMText
 10
1394.769924398594
 20
647.2711283804772
 30
0.0
 40
12.0
 41
0.0
 71
     5
 72
     5
  1
\A1;22
1001
ACAD
1000
MTEXTBEGIN
1070
    73
1070
     1
1070
    44
1040
1.0
1070
    74
1070
     0
1000
MTEXTEND
1000
MTEXTBEGIN
1070
    73
1070
     1
1070
    44
1040
1.0
1070
    74
1070
     0
1000
MTEXTEND
  0
POINT
  5
32A
330
2FA
100
AcDbEntity
  8
DEFPOINTS
  6
BYBLOCK
 62
     0
100
AcDbPoint
 10
1459.269924398593
 20
580.6057830393948
 30
0.0
  0
POINT
  5
32B
330
2FA
100
AcDbEntity
  8
DEFPOINTS
  6
BYBLOCK
 62
     0
100
AcDbPoint
 10
1436.769924398594
 20
558.1057830393949
 30
0.0
  0
POINT
  5
32C
330
2FA
100
AcDbEntity
  8
DEFPOINTS
  6
BYBLOCK
 62
     0
100
AcDbPoint
 10
1436.769924398594
 20
637.2711283804773
 30
0.0
  0
ENDBLK
  5
32D
330
2FA
100
AcDbEntity
  8
0
100
AcDbBlockEnd
  0
BLOCK
  5
32E
330
308
100
AcDbEntity
  8
0
100
AcDbBlockBegin
  2
*D3
 70
     1
 10
0.0
 20
0.0
 30
0.0
  3
*D3
  1

  0
LINE
  5
32F
330
308
100
AcDbEntity
  8
0
  6
BYBLOCK
 62
     4
100
AcDbLine
 10
1449.268924398593
 20
582.6681830393946
 30
0.0
 11
1381.646502210055
 21
582.6681830393946
 31
0.0
  0
LINE
  5
330
330
308
100
AcDbEntity
  8
0
  6
BYBLOCK
 62
     4
100
AcDbLine
 10
1426.768936980342
 20
560.1677682814893
 30
0.0
 11
1381.646502210055
 21
560.1677682814893
 31
0.0
  0
LINE
  5
331
330
308
100
AcDbEntity
  8
0
  6
BYBLOCK
 62
     4
100
AcDbLine
 10
1387.646502210055
 20
596.6681830393946
 30
0.0
 11
1387.646502210055
 21
610.6681830393946
 31
0.0
  0
LINE
  5
332
330
308
100
AcDbEntity
  8
0
  6
BYBLOCK
 62
     4
100
AcDbLine
 10
1387.646502210055
 20
546.1677682814893
 30
0.0
 11
1387.646502210055
 21
504.1677682814893
 31
0.0
  0
LINE
  5
333
330
308
100
AcDbEntity
  8
0
  6
BYBLOCK
 62
     4
100
AcDbLine
 10
1387.646502210055
 20
582.6681830393946
 30
0.0
 11
1387.646502210055
 21
560.1677682814893
 31
0.0
  0
INSERT
  5
334
330
308
100
AcDbEntity
  8
0
  6
BYBLOCK
 62
     4
100
AcDbBlockReference
  2
_OPEN
 10
1387.646502210055
 20
582.6681830393946
 30
0.0
 41
14.0
 42
14.0
 43
14.0
 50
270.0
  0
INSERT
  5
335
330
308
100
AcDbEntity
  8
0
  6
BYBLOCK
 62
     4
100
AcDbBlockReference
  2
_OPEN
 10
1387.646502210055
 20
560.1677682814893
 30
0.0
 41
14.0
 42
14.0
 43
14.0
 50
90.0
  0
MTEXT
  5
336
330
308
100
AcDbEntity
  8
0
  6
BYBLOCK
 62
     4
100
AcDbMText
 10
1377.646502210055
 20
518.1677682814893
 30
0.0
 40
12.0
 41
0.0
 71
     5
 72
     5
  1
\A1;23
 11
0.0
 21
1.0
 31
0.0
1001
ACAD
1000
MTEXTBEGIN
1070
    73
1070
     1
1070
    44
1040
1.0
1070
    74
1070
     0
1000
MTEXTEND
1000
MTEXTBEGIN
1070
    73
1070
     1
1070
    44
1040
1.0
1070
    74
1070
     0
1000
MTEXTEND
  0
POINT
  5
337
330
308
100
AcDbEntity
  8
DEFPOINTS
  6
BYBLOCK
 62
     0
100
AcDbPoint
 10
1461.268924398593
 20
582.6681830393946
 30
0.0
  0
POINT
  5
338
330
308
100
AcDbEntity
  8
DEFPOINTS
  6
BYBLOCK
 62
     0
100
AcDbPoint
 10
1438.768936980342
 20
560.1677682814893
 30
0.0
  0
POINT
  5
339
330
308
100
AcDbEntity
  8
DEFPOINTS
  6
BYBLOCK
 62
     0
100
AcDbPoint
 10
1387.646502210055
 20
560.1677682814893
 30
0.0
  0
ENDBLK
  5
33A
330
308
100
AcDbEntity
  8
0
100
AcDbBlockEnd
  0
ENDSEC
  0
SECTION
  2
ENTITIES
  0
ARC
  5
23F
330
19
100
AcDbEntity
  8
CENTER_L
  6
CENTER
 62
     1
 48
5.0
100
AcDbCircle
 10
690.2993967902722
 20
8859.207622808131
 30
0.0
 40
8059.935000000001
100
AcDbArc
 50
265.6193572831077
 51
274.3806427168923
  0
ARC
  5
240
330
19
100
AcDbEntity
  8
SEIHIN
100
AcDbCircle
 10
690.2993967902722
 20
8859.207622808131
 30
0.0
 40
8000.0
100
AcDbArc
 50
265.6987776953296
 51
274.3012223046704
  0
ARC
  5
241
330
19
100
AcDbEntity
  8
SEIHIN
100
AcDbCircle
 10
690.2993967902722
 20
8859.207622808131
 30
0.0
 40
8005.816000000001
100
AcDbArc
 50
265.698740009702
 51
274.3012599902979
  0
DIMENSION
  5
242
330
19
100
AcDbEntity
  8
SUNPOU
100
AcDbDimension
  2
*D1
 10
1290.299396790272
 20
566.2706852683998
 30
0.0
 11
690.3140261988905
 21
576.2706852683999
 31
0.0
 12
-24.65517893351898
 22
-89.58097651064736
 32
0.0
 70
    32
  3
STANDARD
100
AcDbAlignedDimension
 13
90.32865560750849
 23
493.1182077984316
 33
0.0
 14
1290.299396790272
 24
492.9011556029258
 34
0.0
100
AcDbRotatedDimension
1001
ACAD
1000
DSTYLE
1002
{
1070
   140
1040
12.0
1070
    74
1070
     0
1070
   172
1070
     1
1070
    73
1070
     0
1070
   272
1070
     2
1070
    77
1070
     3
1070
   173
1070
     1
1070
   147
1040
4.0
1070
    42
1040
12.0
1070
    44
1040
6.0
1070
    43
1040
28.0
1070
   271
1070
     0
1070
   178
1070
     4
1070
   177
1070
     4
1070
   176
1070
     4
1070
   141
1040
150.0
1070
     7
1000
_OPEN
1070
     6
1000
_OPEN
1070
    41
1040
14.0
1070
   143
1040
0.03937
1002
}
  0
ARC
  5
243
330
19
100
AcDbEntity
  8
SEIHIN
100
AcDbCircle
 10
690.2999671621527
 20
8470.588635528729
 30
0.0
 40
8054.9999
100
AcDbArc
 50
265.6991469146209
 51
274.3009373888182
  0
ARC
  5
244
330
19
100
AcDbEntity
  8
SEIHIN
100
AcDbCircle
 10
690.2999671621527
 20
8470.588635528729
 30
0.0
 40
8016.000100000001
100
AcDbArc
 50
265.6990314413602
 51
274.3010532722358
  0
ARC
  5
245
330
19
100
AcDbEntity
  8
SEIHIN
100
AcDbCircle
 10
690.2999671621527
 20
8470.588635528729
 30
0.0
 40
8000.0
100
AcDbArc
 50
265.6989837414788
 51
274.3011011415454
  0
ARC
  5
246
330
19
100
AcDbEntity
  8
SEIHIN
100
AcDbCircle
 10
690.2993967902722
 20
8859.207622808131
 30
0.0
 40
8119.871000000001
100
AcDbArc
 50
265.6980119918278
 51
274.3019880081721
  0
ARC
  5
247
330
19
100
AcDbEntity
  8
SEIHIN
100
AcDbCircle
 10
690.2993967902722
 20
8859.207622808131
 30
0.0
 40
8114.054900000001
100
AcDbArc
 50
265.6980485183284
 51
274.3019514816716
  0
ARC
  5
248
330
19
100
AcDbEntity
  8
SEIHIN
100
AcDbCircle
 10
690.2993967902722
 20
8859.207622808131
 30
0.0
 40
8111.094900000001
100
AcDbArc
 50
265.6980671830376
 51
274.3019328169623
  0
ARC
  5
249
330
19
100
AcDbEntity
  8
SEIHIN
100
AcDbCircle
 10
690.2993967902722
 20
8859.207622808131
 30
0.0
 40
8109.8048
100
AcDbArc
 50
265.6980753222135
 51
274.3019246777865
  0
ARC
  5
24A
330
19
100
AcDbEntity
  8
SEIHIN
100
AcDbCircle
 10
697.5218451686087
 20
8858.661121074527
 30
0.0
 40
8106.7914
100
AcDbArc
 50
265.6176292142035
 51
274.2513004643989
  0
ARC
  5
24B
330
19
100
AcDbEntity
  8
SEIHIN
100
AcDbCircle
 10
690.2993967902722
 20
8859.207622808131
 30
0.0
 40
8096.4769
100
AcDbArc
 50
265.6688859077151
 51
274.3311140922848
  0
ARC
  5
24C
330
19
100
AcDbEntity
  8
SEIHIN
100
AcDbCircle
 10
690.2993967902722
 20
8859.207622808131
 30
0.0
 40
8051.861800000001
100
AcDbArc
 50
265.7047491580036
 51
274.2952508419964
  0
ARC
  5
24D
330
19
100
AcDbEntity
  8
SEIHIN
100
AcDbCircle
 10
690.2993967902722
 20
8859.207622808131
 30
0.0
 40
8010.042699999999
100
AcDbArc
 50
265.6694282165639
 51
274.330571783436
  0
ARC
  5
24E
330
19
100
AcDbEntity
  8
SEIHIN
100
AcDbCircle
 10
690.2993967902722
 20
8859.207622808131
 30
0.0
 40
8008.776199999999
100
AcDbArc
 50
265.6694471981055
 51
274.3268748703695
  0
ARC
  5
24F
330
19
100
AcDbEntity
  8
SEIHIN
  6
CONTINUOUS
 62
     3
100
AcDbCircle
 10
690.2990967902727
 20
-7876.142211150559
 30
0.0
 40
8174.918821
100
AcDbArc
 50
85.72275500000001
 51
94.27718
  0
ARC
  5
250
330
19
100
AcDbEntity
  8
SEIHIN
  6
CONTINUOUS
 62
     3
100
AcDbCircle
 10
690.2990967902727
 20
-7876.142211150559
 30
0.0
 40
8185.209159999999
100
AcDbArc
 50
85.72275799999999
 51
94.27717900000001
  0
ARC
  5
251
330
19
100
AcDbEntity
  8
SEIHIN
  6
CONTINUOUS
 62
     3
100
AcDbCircle
 10
690.2990967902727
 20
-7876.142211150559
 30
0.0
 40
8188.259175
100
AcDbArc
 50
85.72275500000001
 51
94.27718
  0
ARC
  5
252
330
19
100
AcDbEntity
  8
SEIHIN
  6
CONTINUOUS
 62
     3
100
AcDbCircle
 10
690.2990967902727
 20
-7876.142211150559
 30
0.0
 40
8088.439205
100
AcDbArc
 50
85.72275600000001
 51
94.27717900000001
  0
ARC
  5
253
330
19
100
AcDbEntity
  8
SEIHIN
  6
CONTINUOUS
 62
     3
100
AcDbCircle
 10
690.2990967902727
 20
-7876.142211150559
 30
0.0
 40
8084.349167
100
AcDbArc
 50
85.72275600000001
 51
94.27717900000001
  0
ARC
  5
254
330
19
100
AcDbEntity
  8
SEIHIN
  6
CONTINUOUS
 62
     3
100
AcDbCircle
 10
690.2990967902727
 20
-7876.142211150559
 30
0.0
 40
8192.349212999999
100
AcDbArc
 50
85.72275500000001
 51
94.27717900000001
  0
ARC
  5
255
330
19
100
AcDbEntity
  8
SEIHIN
  6
CONTINUOUS
 62
     3
100
AcDbCircle
 10
690.2990967902727
 20
-7876.142211150559
 30
0.0
 40
8087.349229999999
100
AcDbArc
 50
85.722754
 51
94.27717900000001
  0
ARC
  5
256
330
19
100
AcDbEntity
  8
SEIHIN
  6
CONTINUOUS
 62
     3
100
AcDbCircle
 10
690.2990967902727
 20
-7876.142211150559
 30
0.0
 40
8189.349145999999
100
AcDbArc
 50
85.722757
 51
94.27717900000001
  0
ARC
  5
257
330
19
100
AcDbEntity
  8
SEIHIN
  6
CONTINUOUS
 62
     3
100
AcDbCircle
 10
690.2990967902727
 20
-7876.142211150559
 30
0.0
 40
8198.349304999998
100
AcDbArc
 50
85.72275899999999
 51
94.27717900000001
  0
ARC
  5
258
330
19
100
AcDbEntity
  8
SEIHIN
  6
CONTINUOUS
 62
     3
100
AcDbCircle
 10
690.2990967902727
 20
-7876.142211150559
 30
0.0
 40
8078.349037999998
100
AcDbArc
 50
85.72275899999999
 51
94.27717900000001
  0
ARC
  5
259
330
19
100
AcDbEntity
  8
CENTER_L
  6
CENTER
 62
     1
 48
5.0
100
AcDbCircle
 10
690.2990967902727
 20
-7876.142211150559
 30
0.0
 40
8138.349125000001
100
AcDbArc
 50
85.67351317820545
 51
94.32649326187878
  0
LINE
  5
25A
330
19
100
AcDbEntity
  8
SUNPOU
  6
CONTINUOUS
 62
     4
100
AcDbLine
 10
598.8078556320474
 20
691.8723886798955
 30
0.0
 11
596.4005155245619
 21
485.1354043642052
 31
0.0
  0
LINE
  5
25B
330
19
100
AcDbEntity
  8
SEIHIN
  6
CONTINUOUS
 62
     3
100
AcDbLine
 10
78.84889679027253
 20
299.3736888494415
 30
0.0
 11
87.7987967902726
 21
179.7075888494413
 31
0.0
  0
LINE
  5
25C
330
19
100
AcDbEntity
  8
SEIHIN
  6
CONTINUOUS
 62
     3
100
AcDbLine
 10
90.32865560751167
 20
493.1182077984325
 30
0.0
 11
86.22673564270996
 21
438.2714779482544
 31
0.0
  0
LINE
  5
25D
330
19
100
AcDbEntity
  8
CENTER_L
  6
CENTER
 62
     1
 48
5.0
100
AcDbLine
 10
690.2988967902728
 20
158.8387888494414
 30
0.0
 11
690.2988967902728
 21
348.4620888494414
 31
0.0
  0
LINE
  5
25E
330
19
100
AcDbEntity
  8
CENTER_L
  6
CENTER
 62
     1
 48
5.0
100
AcDbLine
 10
690.2993967902724
 20
380.8817065287473
 30
0.0
 11
690.2993967902724
 21
505.7112065287475
 31
0.0
  0
INSERT
  5
25F
330
19
100
AcDbEntity
  8
SUNPOU
  6
CONTINUOUS
 62
     4
100
AcDbBlockReference
  2
_OPEN
 10
596.2375041654053
 20
471.1363534214883
 30
0.0
 41
14.0
 42
14.0
 43
14.0
 50
269.3328518609125
  0
POINT
  5
260
330
19
100
AcDbEntity
  8
SUNPOU
  6
CONTINUOUS
 62
     4
100
AcDbPoint
 10
620.8926830989242
 20
560.7173299321357
 30
0.0
  0
LINE
  5
261
330
19
100
AcDbEntity
  8
SEIHIN
100
AcDbLine
 10
78.06372670824828
 20
775.5714616319513
 30
0.0
 11
85.45651193095466
 21
872.037298477648
 31
0.0
  0
LINE
  5
262
330
19
100
AcDbEntity
  8
SEIHIN
100
AcDbLine
 10
78.06372670824806
 20
775.5714616319504
 30
0.0
 11
81.20085152658147
 21
762.214154074922
 31
0.0
  0
LINE
  5
263
330
19
100
AcDbEntity
  8
SEIHIN
100
AcDbLine
 10
81.20085152657736
 20
762.214154074922
 30
0.0
 11
82.19362986855356
 21
775.2560223200665
 31
0.0
  0
LINE
  5
264
330
19
100
AcDbEntity
  8
SEIHIN
100
AcDbLine
 10
89.53712767998116
 20
871.7256237061176
 30
0.0
 11
90.29939679027245
 21
881.7393527364787
 31
0.0
  0
LINE
  5
265
330
19
100
AcDbEntity
  8
SEIHIN
100
AcDbLine
 10
90.29939679027654
 20
881.7393527364778
 30
0.0
 11
85.45651193095466
 21
872.037298477648
 31
0.0
  0
LINE
  5
266
330
19
100
AcDbEntity
  8
0
  6
BYBLOCK
 62
     4
100
AcDbLine
 10
621.9403707652483
 20
1010.940702858057
 30
0.0
 11
620.7433431387221
 21
873.5105364292321
 31
0.0
  0
MTEXT
  5
267
330
19
100
AcDbEntity
  8
SUNPOU
  6
CONTINUOUS
 62
     4
100
AcDbMText
 10
583.7206027573751
 20
622.9926874991146
 30
0.0
 40
12.0
 41
0.0
 71
     5
 72
     5
  1
\A1;R8000
 11
0.0116436685111519
 21
0.9999322101940723
 31
0.0
1001
ACAD
1000
MTEXTBEGIN
1070
    73
1070
     1
1070
    44
1040
1.0
1070
    74
1070
     0
1000
MTEXTEND
1000
MTEXTBEGIN
1070
    73
1070
     1
1070
    44
1040
1.0
1070
    74
1070
     0
1000
MTEXTEND
  0
LINE
  5
268
330
19
100
AcDbEntity
  8
CENTER_L
  6
CENTER
 62
     1
 48
5.0
100
AcDbLine
 10
690.2993967902723
 20
866.2076228081309
 30
0.0
 11
690.2993967902723
 21
732.3366228081307
 31
0.0
  0
INSERT
  5
269
330
19
100
AcDbEntity
  8
0
  6
BYBLOCK
 62
     4
100
AcDbBlockReference
  2
_OPEN
 10
620.6214066559875
 20
859.511067457368
 30
0.0
 41
14.0
 42
14.0
 43
14.0
 50
269.5009618454256
  0
POINT
  5
26A
330
19
100
AcDbEntity
  8
DEFPOINTS
  6
BYBLOCK
 62
     0
100
AcDbPoint
 10
620.6214066559875
 20
859.511067457368
 30
0.0
  0
MTEXT
  5
26B
330
19
100
AcDbEntity
  8
0
  6
BYBLOCK
 62
     4
100
AcDbMText
 10
609.3429649001154
 20
974.3798177482336
 30
0.0
 40
12.0
 41
0.0
 71
     5
 72
     5
  1
\A1;R8000
 11
0.0087097487667857
 21
0.9999620694188452
 31
0.0
1001
ACAD
1000
MTEXTBEGIN
1070
    73
1070
     1
1070
    44
1040
1.0
1070
    74
1070
     0
1000
MTEXTEND
1000
MTEXTBEGIN
1070
    73
1070
     1
1070
    44
1040
1.0
1070
    74
1070
     0
1000
MTEXTEND
  0
DIMENSION
  5
26C
330
19
100
AcDbEntity
  8
SUNPOU
100
AcDbDimension
  2
*D2
 10
1412.114745465075
 20
547.6901518698299
 30
0.0
 11
1370.114745465075
 21
557.6901518698299
 31
0.0
 12
-24.65517893351898
 22
-89.58097651064736
 32
0.0
 70
    32
  3
STANDARD
100
AcDbAlignedDimension
 13
1434.614745465074
 23
491.0248065287475
 33
0.0
 14
1412.114745465075
 24
468.5248065287476
 34
0.0
100
AcDbRotatedDimension
1001
ACAD
1000
DSTYLE
1002
{
1070
   140
1040
12.0
1070
    74
1070
     0
1070
   172
1070
     1
1070
    73
1070
     0
1070
   272
1070
     2
1070
    77
1070
     3
1070
   173
1070
     1
1070
   147
1040
4.0
1070
    42
1040
12.0
1070
    44
1040
6.0
1070
    43
1040
28.0
1070
   271
1070
     0
1070
   178
1070
     4
1070
   177
1070
     4
1070
   176
1070
     4
1070
   141
1040
150.0
1070
     7
1000
_OPEN
1070
     6
1000
_OPEN
1070
    41
1040
14.0
1070
   143
1040
0.03937
1002
}
  0
DIMENSION
  5
26D
330
19
100
AcDbEntity
  8
SUNPOU
100
AcDbDimension
  2
*D3
 10
1362.991323276536
 20
470.5867917708419
 30
0.0
 11
1352.991323276536
 21
428.586791770842
 31
0.0
 12
-24.65517893351898
 22
-89.58097651064736
 32
0.0
 70
    32
  3
STANDARD
100
AcDbAlignedDimension
 13
1436.613745465074
 23
493.0872065287473
 33
0.0
 14
1414.113758046823
 24
470.5867917708419
 34
0.0
 50
90.0
100
AcDbRotatedDimension
1001
ACAD
1000
DSTYLE
1002
{
1070
   140
1040
12.0
1070
    74
1070
     0
1070
   172
1070
     1
1070
    73
1070
     0
1070
   272
1070
     2
1070
    77
1070
     3
1070
   173
1070
     1
1070
   147
1040
4.0
1070
    42
1040
12.0
1070
    44
1040
6.0
1070
    43
1040
28.0
1070
   271
1070
     0
1070
   178
1070
     4
1070
   177
1070
     4
1070
   176
1070
     4
1070
   141
1040
150.0
1070
     7
1000
_OPEN
1070
     6
1000
_OPEN
1070
    41
1040
14.0
1070
   143
1040
0.03937
1002
}
  0
LINE
  5
26E
330
19
100
AcDbEntity
  8
SEIHIN
  6
CONTINUOUS
 62
     3
100
AcDbLine
 10
1301.748496790272
 20
299.3754888494415
 30
0.0
 11
1292.798496790272
 21
179.7075888494413
 31
0.0
  0
LINE
  5
26F
330
19
100
AcDbEntity
  8
SEIHIN
  6
CONTINUOUS
 62
     3
100
AcDbLine
 10
1290.299396790272
 20
492.9011556029258
 30
0.0
 11
1294.385017212191
 21
438.2723667737414
 31
0.0
  0
ARC
  5
270
330
19
100
AcDbEntity
  8
SEIHIN
  6
CONTINUOUS
 62
     3
100
AcDbCircle
 10
1480.236745465075
 20
458.5871065287476
 30
0.0
 40
42.999794
100
AcDbArc
 50
270.0
 51
314.999435
  0
ARC
  5
271
330
19
100
AcDbEntity
  8
SEIHIN
  6
CONTINUOUS
 62
     3
100
AcDbCircle
 10
1502.736745465075
 20
481.0870065287474
 30
0.0
 40
41.800152
100
AcDbArc
 50
270.0
 51
355.525466
  0
ARC
  5
272
330
19
100
AcDbEntity
  8
SEIHIN
  6
CONTINUOUS
 62
     3
100
AcDbCircle
 10
1502.736745465075
 20
481.0870065287474
 30
0.0
 40
42.99977199999999
100
AcDbArc
 50
270.0
 51
353.4749029999999
  0
LINE
  5
273
330
19
100
AcDbEntity
  8
SEIHIN
  6
CONTINUOUS
 62
     3
100
AcDbLine
 10
1444.680745465074
 20
477.8370065287474
 30
0.0
 11
1447.673745465074
 21
447.9072065287475
 31
0.0
  0
LINE
  5
274
330
19
100
AcDbEntity
  8
SEIHIN
  6
CONTINUOUS
 62
     3
100
AcDbLine
 10
1443.639745465075
 20
476.1866065287474
 30
0.0
 11
1446.508745465074
 21
447.4993065287474
 31
0.0
  0
LINE
  5
275
330
19
100
AcDbEntity
  8
SEIHIN
  6
CONTINUOUS
 62
     3
100
AcDbLine
 10
1421.139745465074
 20
453.6868065287474
 30
0.0
 11
1424.008745465074
 21
424.9993065287474
 31
0.0
  0
LINE
  5
276
330
19
100
AcDbEntity
  8
SEIHIN
  6
CONTINUOUS
 62
     3
100
AcDbLine
 10
1424.244745465075
 20
424.7817065287474
 30
0.0
 11
1446.549745465075
 21
447.0870065287474
 31
0.0
  0
LINE
  5
277
330
19
100
AcDbEntity
  8
SEIHIN
  6
CONTINUOUS
 62
     3
100
AcDbLine
 10
1435.146745465074
 20
415.6837065287474
 30
0.0
 11
1457.549745465074
 21
438.0870065287474
 31
0.0
  0
LINE
  5
278
330
19
100
AcDbEntity
  8
SEIHIN
  6
CONTINUOUS
 62
     3
100
AcDbLine
 10
1435.406745465074
 20
415.5872065287473
 30
0.0
 11
1480.236745465075
 21
415.5870065287474
 31
0.0
  0
LINE
  5
279
330
19
100
AcDbEntity
  8
SEIHIN
  6
CONTINUOUS
 62
     3
100
AcDbLine
 10
1424.370745465074
 20
424.3248065287473
 30
0.0
 11
1434.773745465075
 21
415.8132065287474
 31
0.0
  0
ARC
  5
27A
330
19
100
AcDbEntity
  8
SEIHIN
  6
CONTINUOUS
 62
     3
100
AcDbCircle
 10
1425.003745465075
 20
425.0988065287477
 30
0.0
 40
0.999923
100
AcDbArc
 50
185.710593
 51
230.722689
  0
ARC
  5
27B
330
19
100
AcDbEntity
  8
SEIHIN
  6
CONTINUOUS
 62
     3
100
AcDbCircle
 10
1435.406745465074
 20
416.5872065287473
 30
0.0
 40
0.9999409999999999
100
AcDbArc
 50
230.722689
 51
270.0
  0
LINE
  5
27C
330
19
100
AcDbEntity
  8
SEIHIN
  6
CONTINUOUS
 62
     3
100
AcDbLine
 10
1502.736745465075
 20
439.2870065287477
 30
0.0
 11
1458.156745465075
 21
439.2871065287474
 31
0.0
  0
LINE
  5
27D
330
19
100
AcDbEntity
  8
SEIHIN
  6
CONTINUOUS
 62
     3
100
AcDbLine
 10
1457.906745465074
 20
438.0870065287474
 30
0.0
 11
1502.736745465075
 21
438.0870065287474
 31
0.0
  0
ARC
  5
27E
330
19
100
AcDbEntity
  8
SEIHIN
  6
CONTINUOUS
 62
     3
100
AcDbCircle
 10
1458.156745465075
 20
439.7871065287474
 30
0.0
 40
0.4998120000000001
100
AcDbArc
 50
230.767074
 51
270.0
  0
ARC
  5
27F
330
19
100
AcDbEntity
  8
SEIHIN
  6
CONTINUOUS
 62
     3
100
AcDbCircle
 10
1457.906745465074
 20
439.0870065287474
 30
0.0
 40
0.9999030000000001
100
AcDbArc
 50
230.7190609999999
 51
270.0
  0
ARC
  5
280
330
19
100
AcDbEntity
  8
SEIHIN
  6
CONTINUOUS
 62
     3
100
AcDbCircle
 10
1447.503745465074
 20
447.5988065287476
 30
0.0
 40
0.999923
100
AcDbArc
 50
185.710593
 51
230.722689
  0
LINE
  5
281
330
19
100
AcDbEntity
  8
SEIHIN
  6
CONTINUOUS
 62
     3
100
AcDbLine
 10
1447.854745465074
 20
447.5699065287474
 30
0.0
 11
1457.840745465074
 21
439.4001065287473
 31
0.0
  0
LINE
  5
282
330
19
100
AcDbEntity
  8
SEIHIN
  6
CONTINUOUS
 62
     3
100
AcDbLine
 10
1446.870745465075
 20
446.8248065287473
 30
0.0
 11
1457.273745465075
 21
438.3131065287472
 31
0.0
  0
ARC
  5
283
330
19
100
AcDbEntity
  8
SEIHIN
  6
CONTINUOUS
 62
     3
100
AcDbCircle
 10
1448.171745465074
 20
447.9569065287476
 30
0.0
 40
0.500371
100
AcDbArc
 50
185.710593
 51
230.6783589999999
  0
LINE
  5
284
330
19
100
AcDbEntity
  8
SEIHIN
  6
CONTINUOUS
 62
     3
100
AcDbLine
 10
1442.891745465074
 20
490.5872065287472
 30
0.0
 11
1440.660745465074
 21
490.5872065287472
 31
0.0
  0
LINE
  5
285
330
19
100
AcDbEntity
  8
SEIHIN
  6
CONTINUOUS
 62
     3
100
AcDbLine
 10
1442.575745465074
 20
483.5872065287474
 30
0.0
 11
1440.326745465075
 21
483.5872065287474
 31
0.0
  0
LINE
  5
286
330
19
100
AcDbEntity
  8
SEIHIN
  6
CONTINUOUS
 62
     3
100
AcDbLine
 10
1437.569745465075
 20
478.3738065287472
 30
0.0
 11
1442.929745465075
 21
483.7336065287474
 31
0.0
  0
LINE
  5
287
330
19
100
AcDbEntity
  8
SEIHIN
  6
CONTINUOUS
 62
     3
100
AcDbLine
 10
1421.049745465075
 20
454.5873065287476
 30
0.0
 11
1442.719745465075
 21
476.2567065287473
 31
0.0
  0
LINE
  5
288
330
19
100
AcDbEntity
  8
SEIHIN
  6
CONTINUOUS
 62
     3
100
AcDbLine
 10
1436.503745465074
 20
477.0872065287473
 30
0.0
 11
1442.644745465074
 21
477.0873065287475
 31
0.0
  0
LINE
  5
289
330
19
100
AcDbEntity
  8
SEIHIN
  6
CONTINUOUS
 62
     3
100
AcDbLine
 10
1444.183745465075
 20
478.2872065287476
 30
0.0
 11
1438.151745465074
 21
478.2872065287476
 31
0.0
  0
LINE
  5
28A
330
19
100
AcDbEntity
  8
SEIHIN
  6
CONTINUOUS
 62
     3
100
AcDbLine
 10
1435.049745465074
 20
477.0873065287475
 30
0.0
 11
1413.380745465074
 21
455.4179065287473
 31
0.0
  0
LINE
  5
28B
330
19
100
AcDbEntity
  8
SEIHIN
  6
CONTINUOUS
 62
     3
100
AcDbLine
 10
1412.699745465075
 20
470.0014065287475
 30
0.0
 11
1435.199745465074
 21
492.5013065287472
 31
0.0
  0
ARC
  5
28C
330
19
100
AcDbEntity
  8
SEIHIN
  6
CONTINUOUS
 62
     3
100
AcDbCircle
 10
1420.144745465074
 20
453.5873065287476
 30
0.0
 40
0.9999809999999998
100
AcDbArc
 50
5.710593
 51
90.0
  0
ARC
  5
28D
330
19
100
AcDbEntity
  8
SEIHIN
  6
CONTINUOUS
 62
     3
100
AcDbCircle
 10
1414.003745465075
 20
456.0872065287473
 30
0.0
 40
1.499867
100
AcDbArc
 50
181.7920589999999
 51
270.0
  0
ARC
  5
28E
330
19
100
AcDbEntity
  8
SEIHIN
  6
CONTINUOUS
 62
     3
100
AcDbCircle
 10
1414.113745465074
 20
468.5872065287473
 30
0.0
 40
1.999908
100
AcDbArc
 50
134.995948
 51
181.790805
  0
LINE
  5
28F
330
19
100
AcDbEntity
  8
SEIHIN
  6
CONTINUOUS
 62
     3
100
AcDbLine
 10
1412.114745465075
 20
468.5248065287476
 30
0.0
 11
1412.504745465074
 21
456.0404065287473
 31
0.0
  0
LINE
  5
290
330
19
100
AcDbEntity
  8
SEIHIN
  6
CONTINUOUS
 62
     3
100
AcDbLine
 10
1414.003745465075
 20
454.5872065287474
 30
0.0
 11
1420.144745465074
 21
454.5873065287476
 31
0.0
  0
ARC
  5
291
330
19
100
AcDbEntity
  8
SEIHIN
  6
CONTINUOUS
 62
     3
100
AcDbCircle
 10
1440.660745465074
 20
491.0873065287474
 30
0.0
 40
0.500352
100
AcDbArc
 50
168.7012879999999
 51
270.0
  0
ARC
  5
292
330
19
100
AcDbEntity
  8
SEIHIN
  6
CONTINUOUS
 62
     3
100
AcDbCircle
 10
1439.940745465074
 20
492.5873065287475
 30
0.0
 40
0.499862
100
AcDbArc
 50
348.678825
 51
90.0
  0
ARC
  5
293
330
19
100
AcDbEntity
  8
SEIHIN
  6
CONTINUOUS
 62
     3
100
AcDbCircle
 10
1439.670745465074
 20
486.5649065287473
 30
0.0
 40
0.500048
100
AcDbArc
 50
351.860175
 51
96.54517100000001
  0
LINE
  5
294
330
19
100
AcDbEntity
  8
SEIHIN
  6
CONTINUOUS
 62
     3
100
AcDbLine
 10
1440.527745465075
 20
488.2872065287476
 30
0.0
 11
1441.522745465074
 21
489.3872065287474
 31
0.0
  0
LINE
  5
295
330
19
100
AcDbEntity
  8
SEIHIN
  6
CONTINUOUS
 62
     3
100
AcDbLine
 10
1441.537745465074
 20
487.6157065287473
 30
0.0
 11
1442.092745465074
 21
488.2286065287473
 31
0.0
  0
LINE
  5
296
330
19
100
AcDbEntity
  8
SEIHIN
  6
CONTINUOUS
 62
     3
100
AcDbLine
 10
1440.527745465075
 20
488.2872065287476
 30
0.0
 11
1440.065745465074
 21
488.2872065287476
 31
0.0
  0
LINE
  5
297
330
19
100
AcDbEntity
  8
SEIHIN
  6
CONTINUOUS
 62
     3
100
AcDbLine
 10
1440.169745465074
 20
491.1852065287472
 30
0.0
 11
1440.430745465074
 21
492.4892065287473
 31
0.0
  0
ARC
  5
298
330
19
100
AcDbEntity
  8
SEIHIN
  6
CONTINUOUS
 62
     3
100
AcDbCircle
 10
1440.326745465075
 20
484.0873065287476
 30
0.0
 40
0.500012
100
AcDbArc
 50
171.8715179999999
 51
270.0
  0
LINE
  5
299
330
19
100
AcDbEntity
  8
SEIHIN
  6
CONTINUOUS
 62
     3
100
AcDbLine
 10
1441.911745465074
 20
484.7872065287476
 30
0.0
 11
1441.133745465075
 21
484.7872065287476
 31
0.0
  0
LINE
  5
29A
330
19
100
AcDbEntity
  8
SEIHIN
  6
CONTINUOUS
 62
     3
100
AcDbLine
 10
1441.911745465074
 20
484.7872065287476
 30
0.0
 11
1442.092745465074
 21
488.2286065287473
 31
0.0
  0
LINE
  5
29B
330
19
100
AcDbEntity
  8
SEIHIN
  6
CONTINUOUS
 62
     3
100
AcDbLine
 10
1441.133745465075
 20
484.7872065287476
 30
0.0
 11
1441.537745465074
 21
487.6156065287475
 31
0.0
  0
LINE
  5
29C
330
19
100
AcDbEntity
  8
SEIHIN
  6
CONTINUOUS
 62
     3
100
AcDbLine
 10
1439.831745465074
 20
484.1579065287476
 30
0.0
 11
1440.165745465074
 21
486.4941065287474
 31
0.0
  0
ARC
  5
29D
330
19
100
AcDbEntity
  8
SEIHIN
  6
CONTINUOUS
 62
     3
100
AcDbCircle
 10
1436.613745465074
 20
491.0872065287472
 30
0.0
 40
0.799696
100
AcDbArc
 50
90.0
 51
181.792149
  0
ARC
  5
29E
330
19
100
AcDbEntity
  8
SEIHIN
  6
CONTINUOUS
 62
     3
100
AcDbCircle
 10
1436.613745465074
 20
491.0872065287472
 30
0.0
 40
1.999988
100
AcDbArc
 50
90.0
 51
181.790805
  0
LINE
  5
29F
330
19
100
AcDbEntity
  8
SEIHIN
  6
CONTINUOUS
 62
     3
100
AcDbLine
 10
1439.086745465074
 20
491.8872065287474
 30
0.0
 11
1435.888745465074
 21
488.6890065287473
 31
0.0
  0
LINE
  5
2A0
330
19
100
AcDbEntity
  8
SEIHIN
  6
CONTINUOUS
 62
     3
100
AcDbLine
 10
1438.586745465074
 20
489.3872065287474
 30
0.0
 11
1435.948745465075
 21
486.7497065287473
 31
0.0
  0
LINE
  5
2A1
330
19
100
AcDbEntity
  8
SEIHIN
  6
CONTINUOUS
 62
     3
100
AcDbLine
 10
1436.613745465074
 20
491.8872065287474
 30
0.0
 11
1439.086745465074
 21
491.8872065287474
 31
0.0
  0
LINE
  5
2A2
330
19
100
AcDbEntity
  8
SEIHIN
  6
CONTINUOUS
 62
     3
100
AcDbLine
 10
1439.086745465074
 20
491.8872065287474
 30
0.0
 11
1438.586745465074
 21
489.3872065287474
 31
0.0
  0
LINE
  5
2A3
330
19
100
AcDbEntity
  8
SEIHIN
  6
CONTINUOUS
 62
     3
100
AcDbLine
 10
1435.813745465075
 20
491.0622065287472
 30
0.0
 11
1435.963745465074
 21
486.2833065287475
 31
0.0
  0
ARC
  5
2A4
330
19
100
AcDbEntity
  8
SEIHIN
  6
CONTINUOUS
 62
     3
100
AcDbCircle
 10
1436.503745465074
 20
478.5872065287474
 30
0.0
 40
1.499867
100
AcDbArc
 50
181.7920589999999
 51
270.0
  0
ARC
  5
2A5
330
19
100
AcDbEntity
  8
SEIHIN
  6
CONTINUOUS
 62
     3
100
AcDbCircle
 10
1438.151745465074
 20
480.2872065287476
 30
0.0
 40
1.999988
100
AcDbArc
 50
181.790805
 51
270.0
  0
LINE
  5
2A6
330
19
100
AcDbEntity
  8
SEIHIN
  6
CONTINUOUS
 62
     3
100
AcDbLine
 10
1436.152745465075
 20
480.2247065287477
 30
0.0
 11
1436.067745465074
 21
482.9623065287476
 31
0.0
  0
LINE
  5
2A7
330
19
100
AcDbEntity
  8
SEIHIN
  6
CONTINUOUS
 62
     3
100
AcDbLine
 10
1434.614745465074
 20
491.0248065287475
 30
0.0
 11
1435.004745465074
 21
478.5404065287472
 31
0.0
  0
ARC
  5
2A8
330
19
100
AcDbEntity
  8
SEIHIN
  6
CONTINUOUS
 62
     3
100
AcDbCircle
 10
1440.065745465074
 20
483.0873065287476
 30
0.0
 40
5.200069999999999
100
AcDbArc
 50
90.0
 51
142.075829
  0
ARC
  5
2A9
330
19
100
AcDbEntity
  8
SEIHIN
  6
CONTINUOUS
 62
     3
100
AcDbCircle
 10
1440.065745465074
 20
483.0873065287476
 30
0.0
 40
4.000035999999999
100
AcDbArc
 50
96.488087
 51
181.790805
  0
LINE
  5
2AA
330
19
100
AcDbEntity
  8
SEIHIN
  6
CONTINUOUS
 62
     3
100
AcDbLine
 10
1440.250745465074
 20
487.0872065287474
 30
0.0
 11
1436.068745465074
 21
482.9059065287476
 31
0.0
  0
LINE
  5
2AB
330
19
100
AcDbEntity
  8
SEIHIN
  6
CONTINUOUS
 62
     3
100
AcDbLine
 10
1439.750745465074
 20
483.5872065287474
 30
0.0
 11
1436.170745465074
 21
480.0083065287473
 31
0.0
  0
LINE
  5
2AC
330
19
100
AcDbEntity
  8
SEIHIN
  6
CONTINUOUS
 62
     3
100
AcDbLine
 10
1438.586745465074
 20
489.3872065287474
 30
0.0
 11
1441.522745465074
 21
489.3872065287474
 31
0.0
  0
LINE
  5
2AD
330
19
100
AcDbEntity
  8
SEIHIN
  6
CONTINUOUS
 62
     3
100
AcDbLine
 10
1436.613745465074
 20
493.0872065287473
 30
0.0
 11
1439.940745465074
 21
493.0873065287475
 31
0.0
  0
ARC
  5
2AE
330
19
100
AcDbEntity
  8
SEIHIN
  6
CONTINUOUS
 62
     3
100
AcDbCircle
 10
1442.891745465074
 20
490.0873065287474
 30
0.0
 40
0.499846
100
AcDbArc
 50
356.982994
 51
90.0
  0
ARC
  5
2AF
330
19
100
AcDbEntity
  8
SEIHIN
  6
CONTINUOUS
 62
     3
100
AcDbCircle
 10
1444.183745465075
 20
477.7872065287477
 30
0.0
 40
0.499744
100
AcDbArc
 50
5.722006999999998
 51
90.0
  0
ARC
  5
2B0
330
19
100
AcDbEntity
  8
SEIHIN
  6
CONTINUOUS
 62
     3
100
AcDbCircle
 10
1442.644745465074
 20
476.0873065287476
 30
0.0
 40
0.9999809999999998
100
AcDbArc
 50
5.710593
 51
90.0
  0
ARC
  5
2B1
330
19
100
AcDbEntity
  8
SEIHIN
  6
CONTINUOUS
 62
     3
100
AcDbCircle
 10
1442.575745465074
 20
484.0873065287476
 30
0.0
 40
0.499846
100
AcDbArc
 50
270.0
 51
356.982994
  0
LINE
  5
2B2
330
19
100
AcDbEntity
  8
SEIHIN
  6
CONTINUOUS
 62
     3
100
AcDbLine
 10
1443.075745465074
 20
484.0609065287473
 30
0.0
 11
1443.390745465074
 21
490.0610065287475
 31
0.0
  0
ARC
  5
2B3
330
19
100
AcDbEntity
  8
SEIHIN
  6
CONTINUOUS
 62
     3
100
AcDbCircle
 10
1480.236745465075
 20
458.5871065287476
 30
0.0
 40
41.79956899999999
100
AcDbArc
 50
337.3716999999999
 51
355.5253589999999
  0
LINE
  5
2B4
330
19
100
AcDbEntity
  8
SEIHIN
  6
CONTINUOUS
 62
     3
100
AcDbLine
 10
1510.641745465074
 20
428.1815065287475
 30
0.0
 11
1533.141745465074
 21
450.6814065287474
 31
0.0
  0
LINE
  5
2B5
330
19
100
AcDbEntity
  8
SEIHIN
  6
CONTINUOUS
 62
     3
100
AcDbLine
 10
1522.053745465075
 20
455.6407065287474
 30
0.0
 11
1544.553745465075
 21
478.1406065287476
 31
0.0
  0
LINE
  5
2B6
330
19
100
AcDbEntity
  8
SEIHIN
  6
CONTINUOUS
 62
     3
100
AcDbLine
 10
1523.843745465074
 20
461.3812065287477
 30
0.0
 11
1546.050745465074
 21
483.5869065287472
 31
0.0
  0
LINE
  5
2B7
330
19
100
AcDbEntity
  8
SEIHIN
  6
CONTINUOUS
 62
     3
100
AcDbLine
 10
1523.354745465074
 20
467.9407065287476
 30
0.0
 11
1545.855745465074
 21
490.4407065287474
 31
0.0
  0
LINE
  5
2B8
330
19
100
AcDbEntity
  8
SEIHIN
  6
CONTINUOUS
 62
     3
100
AcDbLine
 10
1526.626745465074
 20
461.2334065287475
 30
0.0
 11
1549.127745465074
 21
483.7334065287475
 31
0.0
  0
LINE
  5
2B9
330
19
100
AcDbEntity
  8
SEIHIN
  6
CONTINUOUS
 62
     3
100
AcDbLine
 10
1524.024745465075
 20
461.0869065287472
 30
0.0
 11
1526.273745465075
 21
461.0869065287472
 31
0.0
  0
ARC
  5
2BA
330
19
100
AcDbEntity
  8
SEIHIN
  6
CONTINUOUS
 62
     3
100
AcDbCircle
 10
1522.407745465074
 20
455.2871065287474
 30
0.0
 40
0.500261
100
AcDbArc
 50
90.0
 51
175.5310579999999
  0
ARC
  5
2BB
330
19
100
AcDbEntity
  8
SEIHIN
  6
CONTINUOUS
 62
     3
100
AcDbCircle
 10
1523.708745465074
 20
467.5870065287474
 30
0.0
 40
0.5000210000000001
100
AcDbArc
 50
135.032389
 51
183.017006
  0
ARC
  5
2BC
330
19
100
AcDbEntity
  8
SEIHIN
  6
CONTINUOUS
 62
     3
100
AcDbCircle
 10
1524.024745465075
 20
461.5870065287474
 30
0.0
 40
0.500346
100
AcDbArc
 50
183.0109829999999
 51
270.0
  0
LINE
  5
2BD
330
19
100
AcDbEntity
  8
SEIHIN
  6
CONTINUOUS
 62
     3
100
AcDbLine
 10
1523.524745465074
 20
461.5608065287476
 30
0.0
 11
1523.209745465075
 21
467.5608065287476
 31
0.0
  0
ARC
  5
2BE
330
19
100
AcDbEntity
  8
SEIHIN
  6
CONTINUOUS
 62
     3
100
AcDbCircle
 10
1526.273745465075
 20
461.5870065287474
 30
0.0
 40
0.499786
100
AcDbArc
 50
270.0
 51
314.959451
  0
LINE
  5
2BF
330
19
100
AcDbEntity
  8
SEIHIN
  6
CONTINUOUS
 62
     3
100
AcDbLine
 10
1543.484745465074
 20
467.3543065287474
 30
0.0
 11
1553.656745465074
 21
477.5263065287474
 31
0.0
  0
ARC
  5
2C0
330
19
100
AcDbEntity
  8
SEIHIN
  6
CONTINUOUS
 62
     3
100
AcDbCircle
 10
1549.035745465074
 20
483.0870065287474
 30
0.0
 40
5.199676
100
AcDbArc
 50
37.930944
 51
90.0
  0
ARC
  5
2C1
330
19
100
AcDbEntity
  8
SEIHIN
  6
CONTINUOUS
 62
     3
100
AcDbCircle
 10
1552.486745465074
 20
491.0870065287473
 30
0.0
 40
0.800195
100
AcDbArc
 50
358.210089
 51
90.0
  0
ARC
  5
2C2
330
19
100
AcDbEntity
  8
SEIHIN
  6
CONTINUOUS
 62
     3
100
AcDbCircle
 10
1548.440745465074
 20
491.0870065287473
 30
0.0
 40
0.499852
100
AcDbArc
 50
270.0
 51
11.309932
  0
ARC
  5
2C3
330
19
100
AcDbEntity
  8
SEIHIN
  6
CONTINUOUS
 62
     3
100
AcDbCircle
 10
1549.160745465075
 20
492.5870065287473
 30
0.0
 40
0.500352
100
AcDbArc
 50
90.0
 51
191.298712
  0
ARC
  5
2C4
330
19
100
AcDbEntity
  8
SEIHIN
  6
CONTINUOUS
 62
     3
100
AcDbCircle
 10
1552.486745465074
 20
491.0870065287473
 30
0.0
 40
1.999988
100
AcDbArc
 50
358.209195
 51
90.0
  0
ARC
  5
2C5
330
19
100
AcDbEntity
  8
SEIHIN
  6
CONTINUOUS
 62
     3
100
AcDbCircle
 10
1549.429745465075
 20
486.5646065287476
 30
0.0
 40
0.500091
100
AcDbArc
 50
83.456135
 51
188.128482
  0
LINE
  5
2C6
330
19
100
AcDbEntity
  8
SEIHIN
  6
CONTINUOUS
 62
     3
100
AcDbLine
 10
1552.730745465074
 20
491.3058065287474
 30
0.0
 11
1549.672745465074
 21
488.2477065287473
 31
0.0
  0
LINE
  5
2C7
330
19
100
AcDbEntity
  8
SEIHIN
  6
CONTINUOUS
 62
     3
100
AcDbLine
 10
1550.513745465075
 20
489.3870065287475
 30
0.0
 11
1549.400745465074
 21
488.2741065287475
 31
0.0
  0
LINE
  5
2C8
330
19
100
AcDbEntity
  8
SEIHIN
  6
CONTINUOUS
 62
     3
100
AcDbLine
 10
1547.562745465074
 20
487.6155065287473
 30
0.0
 11
1547.065745465074
 21
487.1189065287474
 31
0.0
  0
LINE
  5
2C9
330
19
100
AcDbEntity
  8
SEIHIN
  6
CONTINUOUS
 62
     3
100
AcDbLine
 10
1548.573745465074
 20
488.2869065287475
 30
0.0
 11
1547.577745465074
 21
489.3870065287475
 31
0.0
  0
LINE
  5
2CA
330
19
100
AcDbEntity
  8
SEIHIN
  6
CONTINUOUS
 62
     3
100
AcDbLine
 10
1547.562745465074
 20
487.6155065287473
 30
0.0
 11
1547.007745465074
 21
488.2285065287476
 31
0.0
  0
LINE
  5
2CB
330
19
100
AcDbEntity
  8
SEIHIN
  6
CONTINUOUS
 62
     3
100
AcDbLine
 10
1550.513745465075
 20
489.3870065287475
 30
0.0
 11
1547.577745465074
 21
489.3870065287475
 31
0.0
  0
LINE
  5
2CC
330
19
100
AcDbEntity
  8
SEIHIN
  6
CONTINUOUS
 62
     3
100
AcDbLine
 10
1550.014745465075
 20
491.8870065287475
 30
0.0
 11
1550.513745465075
 21
489.3870065287475
 31
0.0
  0
LINE
  5
2CD
330
19
100
AcDbEntity
  8
SEIHIN
  6
CONTINUOUS
 62
     3
100
AcDbLine
 10
1552.486745465074
 20
491.8870065287475
 30
0.0
 11
1550.014745465075
 21
491.8870065287475
 31
0.0
  0
LINE
  5
2CE
330
19
100
AcDbEntity
  8
SEIHIN
  6
CONTINUOUS
 62
     3
100
AcDbLine
 10
1553.286745465074
 20
491.0620065287472
 30
0.0
 11
1553.136745465074
 21
486.2830065287473
 31
0.0
  0
LINE
  5
2CF
330
19
100
AcDbEntity
  8
SEIHIN
  6
CONTINUOUS
 62
     3
100
AcDbLine
 10
1548.573745465074
 20
488.2869065287475
 30
0.0
 11
1549.035745465074
 21
488.2869065287475
 31
0.0
  0
LINE
  5
2D0
330
19
100
AcDbEntity
  8
SEIHIN
  6
CONTINUOUS
 62
     3
100
AcDbLine
 10
1548.930745465074
 20
491.1850065287473
 30
0.0
 11
1548.669745465074
 21
492.4889065287476
 31
0.0
  0
LINE
  5
2D1
330
19
100
AcDbEntity
  8
SEIHIN
  6
CONTINUOUS
 62
     3
100
AcDbLine
 10
1552.486745465074
 20
493.0870065287473
 30
0.0
 11
1549.160745465075
 21
493.0870065287473
 31
0.0
  0
ARC
  5
2D2
330
19
100
AcDbEntity
  8
SEIHIN
  6
CONTINUOUS
 62
     3
100
AcDbCircle
 10
1552.596745465074
 20
478.5870065287475
 30
0.0
 40
1.499867
100
AcDbArc
 50
270.0
 51
358.207941
  0
ARC
  5
2D3
330
19
100
AcDbEntity
  8
SEIHIN
  6
CONTINUOUS
 62
     3
100
AcDbCircle
 10
1550.948745465074
 20
480.2869065287475
 30
0.0
 40
1.999988
100
AcDbArc
 50
270.0
 51
358.209195
  0
ARC
  5
2D4
330
19
100
AcDbEntity
  8
SEIHIN
  6
CONTINUOUS
 62
     3
100
AcDbCircle
 10
1548.773745465075
 20
484.0870065287474
 30
0.0
 40
0.500012
100
AcDbArc
 50
270.0
 51
8.128481999999999
  0
LINE
  5
2D5
330
19
100
AcDbEntity
  8
SEIHIN
  6
CONTINUOUS
 62
     3
100
AcDbLine
 10
1547.188745465075
 20
484.7871065287474
 30
0.0
 11
1547.966745465074
 21
484.7869065287475
 31
0.0
  0
LINE
  5
2D6
330
19
100
AcDbEntity
  8
SEIHIN
  6
CONTINUOUS
 62
     3
100
AcDbLine
 10
1552.947745465074
 20
480.2244065287474
 30
0.0
 11
1553.033745465074
 21
482.9620065287474
 31
0.0
  0
ARC
  5
2D7
330
19
100
AcDbEntity
  8
SEIHIN
  6
CONTINUOUS
 62
     3
100
AcDbCircle
 10
1549.035745465074
 20
483.0870065287474
 30
0.0
 40
3.99998
100
AcDbArc
 50
358.209195
 51
83.52614499999999
  0
LINE
  5
2D8
330
19
100
AcDbEntity
  8
SEIHIN
  6
CONTINUOUS
 62
     3
100
AcDbLine
 10
1547.188745465075
 20
484.7871065287474
 30
0.0
 11
1547.007745465074
 21
488.2285065287476
 31
0.0
  0
LINE
  5
2D9
330
19
100
AcDbEntity
  8
SEIHIN
  6
CONTINUOUS
 62
     3
100
AcDbLine
 10
1547.966745465074
 20
484.7869065287475
 30
0.0
 11
1547.562745465074
 21
487.6155065287473
 31
0.0
  0
LINE
  5
2DA
330
19
100
AcDbEntity
  8
SEIHIN
  6
CONTINUOUS
 62
     3
100
AcDbLine
 10
1549.268745465075
 20
484.1577065287476
 30
0.0
 11
1548.934745465075
 21
486.4938065287476
 31
0.0
  0
LINE
  5
2DB
330
19
100
AcDbEntity
  8
SEIHIN
  6
CONTINUOUS
 62
     3
100
AcDbLine
 10
1554.485745465074
 20
491.0245065287473
 30
0.0
 11
1554.095745465074
 21
478.5401065287476
 31
0.0
  0
ARC
  5
2DC
330
19
100
AcDbEntity
  8
SEIHIN
  6
CONTINUOUS
 62
     3
100
AcDbCircle
 10
1546.208745465074
 20
490.0870065287473
 30
0.0
 40
0.499846
100
AcDbArc
 50
90.0
 51
183.017006
  0
ARC
  5
2DD
330
19
100
AcDbEntity
  8
SEIHIN
  6
CONTINUOUS
 62
     3
100
AcDbCircle
 10
1544.907745465074
 20
477.7871065287475
 30
0.0
 40
0.500261
100
AcDbArc
 50
90.0
 51
175.5310579999999
  0
ARC
  5
2DE
330
19
100
AcDbEntity
  8
SEIHIN
  6
CONTINUOUS
 62
     3
100
AcDbCircle
 10
1546.524745465075
 20
484.0870065287474
 30
0.0
 40
0.499846
100
AcDbArc
 50
183.017006
 51
270.0
  0
ARC
  5
2DF
330
19
100
AcDbEntity
  8
SEIHIN
  6
CONTINUOUS
 62
     3
100
AcDbCircle
 10
1546.451745465074
 20
476.0870065287474
 30
0.0
 40
1.000240999999999
100
AcDbArc
 50
90.0
 51
173.474508
  0
LINE
  5
2E0
330
19
100
AcDbEntity
  8
SEIHIN
  6
CONTINUOUS
 62
     3
100
AcDbLine
 10
1546.025745465074
 20
484.0608065287476
 30
0.0
 11
1545.709745465075
 21
490.0608065287475
 31
0.0
  0
LINE
  5
2E1
330
19
100
AcDbEntity
  8
SEIHIN
  6
CONTINUOUS
 62
     3
100
AcDbLine
 10
1546.452745465074
 20
490.5869065287471
 30
0.0
 11
1548.806745465074
 21
492.9406065287472
 31
0.0
  0
LINE
  5
2E2
330
19
100
AcDbEntity
  8
SEIHIN
  6
CONTINUOUS
 62
     3
100
AcDbLine
 10
1546.208745465074
 20
490.5869065287471
 30
0.0
 11
1548.440745465074
 21
490.5869065287471
 31
0.0
  0
LINE
  5
2E3
330
19
100
AcDbEntity
  8
SEIHIN
  6
CONTINUOUS
 62
     3
100
AcDbLine
 10
1546.524745465075
 20
483.5869065287472
 30
0.0
 11
1548.773745465075
 21
483.5869065287472
 31
0.0
  0
LINE
  5
2E4
330
19
100
AcDbEntity
  8
SEIHIN
  6
CONTINUOUS
 62
     3
100
AcDbLine
 10
1544.907745465074
 20
478.2870065287477
 30
0.0
 11
1550.948745465074
 21
478.2869065287475
 31
0.0
  0
LINE
  5
2E5
330
19
100
AcDbEntity
  8
SEIHIN
  6
CONTINUOUS
 62
     3
100
AcDbLine
 10
1552.596745465074
 20
477.0870065287474
 30
0.0
 11
1546.451745465074
 21
477.0870065287474
 31
0.0
  0
LINE
  5
2E6
330
19
100
AcDbEntity
  8
SEIHIN
100
AcDbLine
 10
1302.535066872301
 20
775.5714616319522
 30
0.0
 11
1295.142281649594
 21
872.0372984776489
 31
0.0
  0
LINE
  5
2E7
330
19
100
AcDbEntity
  8
SEIHIN
100
AcDbLine
 10
1302.535066872301
 20
775.5714616319513
 30
0.0
 11
1299.397942053967
 21
762.2141540749229
 31
0.0
  0
LINE
  5
2E8
330
19
100
AcDbEntity
  8
SEIHIN
100
AcDbLine
 10
1299.397942053971
 20
762.2141540749229
 30
0.0
 11
1298.405163711995
 21
775.2560223200674
 31
0.0
  0
LINE
  5
2E9
330
19
100
AcDbEntity
  8
SEIHIN
100
AcDbLine
 10
1290.299396790273
 20
881.7393527364787
 30
0.0
 11
1295.142281649594
 21
872.0372984776489
 31
0.0
  0
LINE
  5
2EA
330
19
100
AcDbEntity
  8
SEIHIN
100
AcDbLine
 10
1291.061665900568
 20
871.7256237061187
 30
0.0
 11
1290.299396790277
 21
881.7393527364796
 31
0.0
  0
LWPOLYLINE
  5
438
330
19
100
AcDbEntity
  8
ZUWAKU
100
AcDbPolyline
 90
        4
 70
     1
 43
0.0
 10
1.599999387005709
 20
1101.600000518291
 10
1.599999387005709
 20
1.600000518291608
 10
1593.599999387005
 20
1.600000518291608
 10
1593.599999387005
 20
1101.600000518291
  0
LWPOLYLINE
  5
439
330
19
100
AcDbEntity
  8
ZUWAKU
100
AcDbPolyline
 90
        4
 70
     1
 43
0.0
 10
0.7999993870057552
 20
1102.400000518291
 10
0.7999993870057552
 20
0.8000005182916538
 10
1594.399999387006
 20
0.8000005182916076
 10
1594.399999387006
 20
1102.400000518291
  0
LWPOLYLINE
  5
43A
330
19
100
AcDbEntity
  8
ZUWAKU
100
AcDbPolyline
 90
        4
 70
     1
 43
0.0
 10
-0.0000006129941994
 20
1103.200000518291
 10
-0.0000006129941994
 20
0.000000518291472
 10
1595.199999387006
 20
0.000000518291607
 10
1595.199999387006
 20
1103.200000518291
  0
LWPOLYLINE
  5
43B
330
19
100
AcDbEntity
  8
ZUWAKU
100
AcDbPolyline
 90
        4
 70
     1
 43
0.0
 10
1.199999387005618
 20
1102.000000518291
 10
1.199999387005618
 20
1.200000518291517
 10
1593.999999387006
 20
1.200000518291609
 10
1593.999999387006
 20
1102.000000518291
  0
LWPOLYLINE
  5
43C
330
19
100
AcDbEntity
  8
ZUWAKU
100
AcDbPolyline
 90
        4
 70
     1
 43
0.0
 10
0.3999993870056642
 20
1102.800000518291
 10
0.3999993870056642
 20
0.400000518291563
 10
1594.799999387005
 20
0.4000005182916091
 10
1594.799999387006
 20
1102.800000518291
  0
LINE
  5
43D
330
19
100
AcDbEntity
  8
ZUWAKU
100
AcDbLine
 10
-0.0000006129941994
 20
60.00000051829147
 30
0.0
 11
1594.799999387005
 21
60.00000051829147
 31
0.0
  0
LINE
  5
43E
330
19
100
AcDbEntity
  8
ZUWAKU
100
AcDbLine
 10
-0.0000006129941994
 20
60.40000051829148
 30
0.0
 11
1594.799999387005
 21
60.40000051829148
 31
0.0
  0
LINE
  5
43F
330
19
100
AcDbEntity
  8
ZUWAKU
100
AcDbLine
 10
-0.0000006129941994
 20
60.80000051829149
 30
0.0
 11
1594.799999387005
 21
60.80000051829149
 31
0.0
  0
LINE
  5
440
330
19
100
AcDbEntity
  8
ZUWAKU
100
AcDbLine
 10
-0.0000006129941994
 20
61.20000051829149
 30
0.0
 11
1594.799999387005
 21
61.20000051829149
 31
0.0
  0
LINE
  5
441
330
19
100
AcDbEntity
  8
ZUWAKU
100
AcDbLine
 10
-0.0000006129941994
 20
61.6000005182915
 30
0.0
 11
1594.799999387005
 21
61.6000005182915
 31
0.0
  0
LINE
  5
442
330
19
100
AcDbEntity
  8
ZUWAKU
100
AcDbLine
 10
417.2932019671418
 20
30.80000051829154
 30
0.0
 11
894.8487273289886
 21
30.80000051829154
 31
0.0
  0
LINE
  5
443
330
19
100
AcDbEntity
  8
ZUWAKU
100
AcDbLine
 10
417.2932019671418
 20
31.20000051829153
 30
0.0
 11
894.8487273289886
 21
31.20000051829155
 31
0.0
  0
LINE
  5
444
330
19
100
AcDbEntity
  8
ZUWAKU
100
AcDbLine
 10
417.2932019671418
 20
30.40000051829155
 30
0.0
 11
894.8487273289886
 21
30.40000051829153
 31
0.0
  0
CIRCLE
  5
445
330
19
100
AcDbEntity
  8
ZUWAKU
100
AcDbCircle
 10
51.984423696568
 20
30.40000051829148
 30
0.0
 40
3.5
  0
LINE
  5
446
330
19
100
AcDbEntity
  8
ZUWAKU
100
AcDbLine
 10
53.734423696568
 20
14.30000051829148
 30
0.0
 11
49.88442369656809
 21
14.30000051829148
 31
0.0
  0
LINE
  5
447
330
19
100
AcDbEntity
  8
ZUWAKU
100
AcDbLine
 10
49.88442369656809
 20
19.90000051829147
 30
0.0
 11
53.734423696568
 21
19.90000051829147
 31
0.0
  0
LINE
  5
448
330
19
100
AcDbEntity
  8
ZUWAKU
100
AcDbLine
 10
53.734423696568
 20
40.90000051829147
 30
0.0
 11
49.88442369656809
 21
40.90000051829147
 31
0.0
  0
LINE
  5
449
330
19
100
AcDbEntity
  8
ZUWAKU
100
AcDbLine
 10
49.88442369656809
 20
46.5000005182914
 30
0.0
 11
53.734423696568
 21
46.50000051829148
 31
0.0
  0
HATCH
  5
44A
330
19
100
AcDbEntity
  8
ZUWAKU
100
AcDbHatch
 10
0.0
 20
0.0
 30
0.0
210
0.0
220
0.0
230
1.0
  2
ANSI37
 70
     0
 71
     0
 91
        8
 92
        7
 72
     1
 73
     1
 93
       24
 10
29.00452470924551
 20
35.28969748025863
 42
-0.1989123673796348
 10
28.18442369656804
 20
37.26959646758074
 42
0.0
 10
28.18442369656804
 20
39.85000051829149
 42
-0.4142135623730912
 10
29.234423696568
 20
40.90000051829147
 42
0.0
 10
35.18442369656781
 20
40.90000051829147
 42
0.4142135623731546
 10
36.234423696568
 20
41.95000051829146
 42
0.0
 10
36.234423696568
 20
45.45000051829148
 42
0.4142135623731586
 10
35.18442369656781
 20
46.50000051829148
 42
0.0
 10
28.18442369656804
 20
46.50000051829148
 42
0.4142135623730928
 10
22.58442369656813
 20
40.90000051829153
 42
0.0
 10
22.58442369656813
 20
37.26959646758099
 42
0.1989123673796619
 10
25.04472673460099
 20
31.32989950561378
 42
0.0
 10
30.86432268389035
 20
25.51030355632446
 42
-0.1989123673796613
 10
31.68442369656804
 20
23.53040456900209
 42
0.0
 10
31.68442369656804
 20
20.95000051829146
 42
-0.4142135623730911
 10
30.63442369656809
 20
19.90000051829147
 42
0.0
 10
24.68442369656827
 20
19.90000051829147
 42
0.4142135623731526
 10
23.63442369656809
 20
18.8500005182915
 42
0.0
 10
23.63442369656809
 20
15.35000051829146
 42
0.4142135623731526
 10
24.68442369656827
 20
14.30000051829148
 42
0.0
 10
31.68442369656804
 20
14.30000051829148
 42
0.4142135623731044
 10
37.28442369656818
 20
19.90000051829143
 42
0.0
 10
37.28442369656818
 20
23.53040456900198
 42
0.1989123673796604
 10
34.82412065853509
 20
29.47010153096906
 42
0.0
 97
        0
 92
        7
 72
     1
 73
     1
 93
       16
 10
47.08442369656814
 20
38.10000051829149
 42
-0.4142135623730935
 10
49.88442369656809
 20
40.90000051829147
 42
0.0
 10
53.734423696568
 20
40.90000051829147
 42
0.4142135623731546
 10
54.78442369656818
 20
41.95000051829146
 42
0.0
 10
54.78442369656818
 20
45.45000051829148
 42
0.4142135623730951
 10
53.73442369656823
 20
46.50000051829148
 42
0.0
 10
49.88442369656787
 20
46.5000005182914
 42
0.4142135623730892
 10
41.484423696568
 20
38.10000051829135
 42
0.0
 10
41.484423696568
 20
22.70000051829153
 42
0.4142135623730969
 10
49.88442369656809
 20
14.30000051829148
 42
0.0
 10
53.734423696568
 20
14.30000051829148
 42
0.4142135623731526
 10
54.78442369656818
 20
15.35000051829146
 42
0.0
 10
54.78442369656818
 20
18.8500005182915
 42
0.4142135623730891
 10
53.73442369656823
 20
19.90000051829147
 42
0.0
 10
49.88442369656809
 20
19.90000051829147
 42
-0.4142135623730928
 10
47.08442369656814
 20
22.70000051829145
 42
0.0
 97
        0
 92
        7
 72
     1
 73
     1
 93
        2
 10
48.484423696568
 20
30.40000051829148
 42
1.0
 10
55.484423696568
 20
30.40000051829148
 42
1.0
 97
        0
 92
        7
 72
     1
 73
     1
 93
       26
 10
74.62971666092403
 20
38.41009490541833
 42
0.0
 10
76.75299592719966
 20
45.13381258195751
 42
0.5069206636600134
 10
75.75173412880895
 20
46.50000051829148
 42
0.0
 10
72.3539553695905
 20
46.50000051829148
 42
0.3272098845218764
 10
71.35269357119978
 20
45.76618845462542
 42
0.0
 10
67.61615382193622
 20
33.93381258195764
 42
-0.3272098845219541
 10
66.61489202354528
 20
33.20000051829147
 42
0.0
 10
66.33442369656837
 20
33.20000051829147
 42
-0.4142135623731526
 10
65.28442369656819
 20
34.25000051829145
 42
0.0
 10
65.28442369656819
 20
45.45000051829148
 42
0.4142135623730951
 10
64.23442369656823
 20
46.50000051829148
 42
0.0
 10
60.734423696568
 20
46.50000051829148
 42
0.4142135623730871
 10
59.68442369656805
 20
45.45000051829151
 42
0.0
 10
59.68442369656805
 20
15.35000051829146
 42
0.4142135623730891
 10
60.734423696568
 20
14.30000051829148
 42
0.0
 10
64.234423696568
 20
14.30000051829148
 42
0.4142135623731526
 10
65.28442369656819
 20
15.35000051829146
 42
0.0
 10
65.28442369656819
 20
26.5500005182915
 42
-0.4142135623731526
 10
66.33442369656837
 20
27.60000051829148
 42
0.0
 10
66.61489202354551
 20
27.60000051829148
 42
-0.3272098845218915
 10
67.61615382193622
 20
26.86618845462533
 42
0.0
 10
71.35269357119978
 20
15.03381258195762
 42
0.3272098845218902
 10
72.3539553695905
 20
14.30000051829148
 42
0.0
 10
75.75173412880895
 20
14.30000051829148
 42
0.5069206636600335
 10
76.75299592719966
 20
15.66618845462549
 42
0.0
 10
72.10021317025234
 20
30.40000051829175
 42
0.0
 97
        0
 92
        7
 72
     1
 73
     1
 93
        8
 10
86.98442369656801
 20
45.4500005182915
 42
0.4142135623731546
 10
85.93442369656782
 20
46.50000051829148
 42
0.0
 10
82.43442369656827
 20
46.50000051829148
 42
0.4142135623731507
 10
81.38442369656809
 20
45.45000051829151
 42
0.0
 10
81.38442369656809
 20
15.35000051829146
 42
0.4142135623731526
 10
82.43442369656827
 20
14.30000051829148
 42
0.0
 10
85.93442369656782
 20
14.30000051829148
 42
0.4142135623731526
 10
86.98442369656801
 20
15.35000051829146
 42
0.0
 97
        0
 92
        7
 72
     1
 73
     1
 93
       24
 10
96.78442369656819
 20
39.85000051829149
 42
-0.4142135623731546
 10
97.83442369656837
 20
40.90000051829147
 42
0.0
 10
103.7844236965681
 20
40.90000051829147
 42
0.4142135623730911
 10
104.8344236965681
 20
41.95000051829146
 42
0.0
 10
104.8344236965681
 20
45.45000051829148
 42
0.4142135623730952
 10
103.7844236965681
 20
46.50000051829148
 42
0.0
 10
96.78442369656819
 20
46.50000051829148
 42
0.4142135623731048
 10
91.18442369656804
 20
40.90000051829153
 42
0.0
 10
91.18442369656804
 20
37.26959646758099
 42
0.1989123673796613
 10
93.64472673460113
 20
31.32989950561389
 42
0.0
 10
99.46432268389049
 20
25.51030355632455
 42
-0.1989123673796402
 10
100.2844236965681
 20
23.53040456900241
 42
0.0
 10
100.2844236965681
 20
20.95000051829146
 42
-0.4142135623730911
 10
99.23442369656823
 20
19.90000051829147
 42
0.0
 10
93.28442369656817
 20
19.90000051829147
 42
0.4142135623731526
 10
92.23442369656799
 20
18.8500005182915
 42
0.0
 10
92.23442369656799
 20
15.35000051829146
 42
0.4142135623730891
 10
93.28442369656796
 20
14.30000051829148
 42
0.0
 10
100.2844236965681
 20
14.30000051829148
 42
0.4142135623730925
 10
105.884423696568
 20
19.90000051829143
 42
0.0
 10
105.884423696568
 20
23.53040456900198
 42
0.1989123673796675
 10
103.424120658535
 20
29.47010153096929
 42
0.0
 10
97.60452470924589
 20
35.28969748025831
 42
-0.1989123673796652
 10
96.78442369656819
 20
37.26959646758065
 42
0.0
 97
        0
 92
        7
 72
     1
 73
     1
 93
       16
 10
115.684423696568
 20
45.45000051829146
 42
0.414213562373103
 10
114.634423696568
 20
46.50000051829148
 42
0.0
 10
111.134423696568
 20
46.50000051829148
 42
0.4142135623730871
 10
110.0844236965681
 20
45.45000051829151
 42
0.0
 10
110.0844236965681
 20
19.90000051829143
 42
0.4142135623730926
 10
115.684423696568
 20
14.30000051829148
 42
0.0
 10
122.684423696568
 20
14.30000051829148
 42
0.4142135623731044
 10
128.2844236965681
 20
19.90000051829143
 42
0.0
 10
128.2844236965681
 20
45.45000051829148
 42
0.4142135623730951
 10
127.2344236965682
 20
46.50000051829148
 42
0.0
 10
123.7344236965679
 20
46.50000051829148
 42
0.4142135623730871
 10
122.684423696568
 20
45.45000051829151
 42
0.0
 10
122.684423696568
 20
22.00000051829142
 42
-0.414213562373088
 10
120.5844236965681
 20
19.90000051829147
 42
0.0
 10
117.7844236965681
 20
19.90000051829147
 42
-0.4142135623731197
 10
115.684423696568
 20
22.00000051829142
 42
0.0
 97
        0
 92
        7
 72
     1
 73
     1
 93
        8
 10
138.0844236965681
 20
45.45000051829151
 42
0.4142135623730871
 10
137.0344236965681
 20
46.50000051829148
 42
0.0
 10
133.5344236965681
 20
46.50000051829148
 42
0.4142135623731507
 10
132.484423696568
 20
45.45000051829151
 42
0.0
 10
132.484423696568
 20
15.35000051829146
 42
0.4142135623730891
 10
133.5344236965679
 20
14.30000051829148
 42
0.0
 10
137.0344236965681
 20
14.30000051829148
 42
0.4142135623730891
 10
138.0844236965681
 20
15.35000051829146
 42
0.0
 97
        0
 75
     0
 76
     1
 52
0.0
 41
0.4
 77
     0
 78
     2
 53
45.0
 43
-1801.884609282352
 44
-26.39999948170839
 45
-0.8980256121069151
 46
0.8980256121069153
 79
     0
 53
135.0
 43
-1801.884609282352
 44
-26.39999948170839
 45
-0.8980256121069153
 46
-0.8980256121069151
 79
     0
 47
0.057451373970553
 98
        8
 10
32.15970931305241
 20
30.33434781006258
 10
44.80902939988413
 20
37.68812488319349
 10
50.32873515832512
 20
31.02376381043291
 10
61.82811935028007
 20
32.40259581117447
 10
83.67694342491928
 20
33.32182034625771
 10
93.7964011772649
 20
38.83715315110589
 10
113.1153713318065
 20
37.4583163484815
 10
135.6541586262512
 20
38.37754088356473
  0
ARC
  5
44B
330
19
100
AcDbEntity
  8
ZUWAKU
100
AcDbCircle
 10
30.984423696568
 20
37.26959646758088
 30
0.0
 40
8.399999999999998
100
AcDbArc
 50
180.0
 51
225.0
  0
LINE
  5
44C
330
19
100
AcDbEntity
  8
ZUWAKU
100
AcDbLine
 10
41.484423696568
 20
22.70000051829148
 30
0.0
 11
41.484423696568
 21
38.10000051829139
 31
0.0
  0
LINE
  5
44D
330
19
100
AcDbEntity
  8
ZUWAKU
100
AcDbLine
 10
47.08442369656814
 20
38.10000051829148
 30
0.0
 11
47.08442369656814
 21
22.70000051829148
 31
0.0
  0
ARC
  5
44E
330
19
100
AcDbEntity
  8
ZUWAKU
100
AcDbCircle
 10
30.984423696568
 20
37.26959646758088
 30
0.0
 40
2.799999999999999
100
AcDbArc
 50
180.0000000000016
 51
224.9999999999988
  0
ARC
  5
44F
330
19
100
AcDbEntity
  8
ZUWAKU
100
AcDbCircle
 10
49.88442369656809
 20
22.70000051829148
 30
0.0
 40
8.399999999999998
100
AcDbArc
 50
180.0
 51
270.0
  0
ARC
  5
450
330
19
100
AcDbEntity
  8
ZUWAKU
100
AcDbCircle
 10
31.68442369656804
 20
19.90000051829147
 30
0.0
 40
5.599999999999999
100
AcDbArc
 50
270.0
 51
0.0
  0
ARC
  5
451
330
19
100
AcDbEntity
  8
ZUWAKU
100
AcDbCircle
 10
28.88442369656809
 20
23.53040456900208
 30
0.0
 40
8.399999999999998
100
AcDbArc
 50
0.0
 51
45.0
  0
LINE
  5
452
330
19
100
AcDbEntity
  8
ZUWAKU
100
AcDbLine
 10
25.04472673460099
 20
31.32989950561384
 30
0.0
 11
30.86432268389035
 21
25.51030355632451
 31
0.0
  0
LINE
  5
453
330
19
100
AcDbEntity
  8
ZUWAKU
100
AcDbLine
 10
24.68442369656804
 20
19.90000051829147
 30
0.0
 11
30.63442369656809
 21
19.90000051829147
 31
0.0
  0
LINE
  5
454
330
19
100
AcDbEntity
  8
ZUWAKU
100
AcDbLine
 10
24.68442369656804
 20
14.30000051829148
 30
0.0
 11
31.68442369656804
 21
14.30000051829148
 31
0.0
  0
ARC
  5
455
330
19
100
AcDbEntity
  8
ZUWAKU
100
AcDbCircle
 10
24.68442369656804
 20
18.85000051829148
 30
0.0
 40
1.049999999999999
100
AcDbArc
 50
90.0
 51
180.0
  0
ARC
  5
456
330
19
100
AcDbEntity
  8
ZUWAKU
100
AcDbCircle
 10
24.68442369656804
 20
15.35000051829148
 30
0.0
 40
1.049999999999999
100
AcDbArc
 50
180.0
 51
270.0
  0
LINE
  5
457
330
19
100
AcDbEntity
  8
ZUWAKU
100
AcDbLine
 10
23.63442369656809
 20
15.35000051829148
 30
0.0
 11
23.63442369656809
 21
18.85000051829148
 31
0.0
  0
ARC
  5
458
330
19
100
AcDbEntity
  8
ZUWAKU
100
AcDbCircle
 10
28.88442369656809
 20
23.53040456900217
 30
0.0
 40
2.799999999999999
100
AcDbArc
 50
0.0
 51
45.0
  0
ARC
  5
459
330
19
100
AcDbEntity
  8
ZUWAKU
100
AcDbCircle
 10
30.63442369656809
 20
20.95000051829149
 30
0.0
 40
1.049999999999999
100
AcDbArc
 50
270.0
 51
0.0
  0
LINE
  5
45A
330
19
100
AcDbEntity
  8
ZUWAKU
100
AcDbLine
 10
31.68442369656804
 20
20.95000051829149
 30
0.0
 11
31.68442369656804
 21
23.53040456900217
 31
0.0
  0
LINE
  5
45B
330
19
100
AcDbEntity
  8
ZUWAKU
100
AcDbLine
 10
34.82412065853509
 20
29.47010153096913
 30
0.0
 11
29.00452470924574
 21
35.28969748025848
 31
0.0
  0
ARC
  5
45C
330
19
100
AcDbEntity
  8
ZUWAKU
100
AcDbCircle
 10
49.88442369656809
 20
22.70000051829148
 30
0.0
 40
2.799999999999999
100
AcDbArc
 50
180.0
 51
270.0
  0
LINE
  5
45D
330
19
100
AcDbEntity
  8
ZUWAKU
100
AcDbLine
 10
37.28442369656818
 20
19.90000051829147
 30
0.0
 11
37.28442369656818
 21
23.53040456900217
 31
0.0
  0
ARC
  5
45E
330
19
100
AcDbEntity
  8
ZUWAKU
100
AcDbCircle
 10
35.18442369656805
 20
41.95000051829147
 30
0.0
 40
1.049999999999999
100
AcDbArc
 50
270.0
 51
0.0
  0
ARC
  5
45F
330
19
100
AcDbEntity
  8
ZUWAKU
100
AcDbCircle
 10
35.18442369656805
 20
45.45000051829148
 30
0.0
 40
1.049999999999999
100
AcDbArc
 50
0.0
 51
90.0
  0
ARC
  5
460
330
19
100
AcDbEntity
  8
ZUWAKU
100
AcDbCircle
 10
28.18442369656804
 20
40.90000051829147
 30
0.0
 40
5.599999999999999
100
AcDbArc
 50
90.0
 51
180.0
  0
LINE
  5
461
330
19
100
AcDbEntity
  8
ZUWAKU
100
AcDbLine
 10
22.58442369656813
 20
40.90000051829147
 30
0.0
 11
22.58442369656813
 21
37.26959646758079
 31
0.0
  0
LINE
  5
462
330
19
100
AcDbEntity
  8
ZUWAKU
100
AcDbLine
 10
35.18442369656805
 20
40.90000051829147
 30
0.0
 11
29.234423696568
 21
40.90000051829147
 31
0.0
  0
LINE
  5
463
330
19
100
AcDbEntity
  8
ZUWAKU
100
AcDbLine
 10
28.18442369656804
 20
39.85000051829148
 30
0.0
 11
28.18442369656804
 21
37.26959646758079
 31
0.0
  0
ARC
  5
464
330
19
100
AcDbEntity
  8
ZUWAKU
100
AcDbCircle
 10
29.234423696568
 20
39.85000051829148
 30
0.0
 40
1.049999999999999
100
AcDbArc
 50
90.0
 51
180.0
  0
LINE
  5
465
330
19
100
AcDbEntity
  8
ZUWAKU
100
AcDbLine
 10
28.18442369656804
 20
46.50000051829148
 30
0.0
 11
35.18442369656805
 21
46.50000051829148
 31
0.0
  0
ARC
  5
466
330
19
100
AcDbEntity
  8
ZUWAKU
100
AcDbCircle
 10
49.88442369656809
 20
38.10000051829139
 30
0.0
 40
8.399999999999998
100
AcDbArc
 50
90.0
 51
180.0
  0
ARC
  5
467
330
19
100
AcDbEntity
  8
ZUWAKU
100
AcDbCircle
 10
49.88442369656809
 20
38.10000051829148
 30
0.0
 40
2.799999999999999
100
AcDbArc
 50
90.0
 51
180.0
  0
LINE
  5
468
330
19
100
AcDbEntity
  8
ZUWAKU
100
AcDbLine
 10
36.234423696568
 20
45.45000051829148
 30
0.0
 11
36.234423696568
 21
41.95000051829147
 31
0.0
  0
LINE
  5
469
330
19
100
AcDbEntity
  8
ZUWAKU
100
AcDbLine
 10
71.35269357119978
 20
45.76618845462542
 30
0.0
 11
67.61615382193622
 21
33.93381258195754
 31
0.0
  0
LINE
  5
46A
330
19
100
AcDbEntity
  8
ZUWAKU
100
AcDbLine
 10
59.68442369656805
 20
45.45000051829148
 30
0.0
 11
59.68442369656805
 21
15.35000051829148
 31
0.0
  0
LINE
  5
46B
330
19
100
AcDbEntity
  8
ZUWAKU
100
AcDbLine
 10
65.28442369656819
 20
34.25000051829148
 30
0.0
 11
65.28442369656819
 21
45.45000051829148
 31
0.0
  0
LINE
  5
46C
330
19
100
AcDbEntity
  8
ZUWAKU
100
AcDbLine
 10
115.684423696568
 20
22.00000051829147
 30
0.0
 11
115.684423696568
 21
45.45000051829148
 31
0.0
  0
LINE
  5
46D
330
19
100
AcDbEntity
  8
ZUWAKU
100
AcDbLine
 10
110.0844236965681
 20
45.45000051829148
 30
0.0
 11
110.0844236965681
 21
19.90000051829147
 31
0.0
  0
LINE
  5
46E
330
19
100
AcDbEntity
  8
ZUWAKU
100
AcDbLine
 10
86.98442369656801
 20
15.35000051829148
 30
0.0
 11
86.98442369656801
 21
45.45000051829148
 31
0.0
  0
LINE
  5
46F
330
19
100
AcDbEntity
  8
ZUWAKU
100
AcDbLine
 10
81.38442369656809
 20
45.45000051829148
 30
0.0
 11
81.38442369656809
 21
15.35000051829148
 31
0.0
  0
LINE
  5
470
330
19
100
AcDbEntity
  8
ZUWAKU
100
AcDbLine
 10
74.62971666092403
 20
38.41009490541833
 30
0.0
 11
72.10021317025234
 21
30.40000051829152
 31
0.0
  0
ARC
  5
471
330
19
100
AcDbEntity
  8
ZUWAKU
100
AcDbCircle
 10
99.58442369656815
 20
37.26959646758088
 30
0.0
 40
8.399999999999998
100
AcDbArc
 50
180.0
 51
225.0
  0
ARC
  5
472
330
19
100
AcDbEntity
  8
ZUWAKU
100
AcDbCircle
 10
99.58442369656815
 20
37.26959646758088
 30
0.0
 40
2.799999999999999
100
AcDbArc
 50
180.0000000000016
 51
224.9999999999988
  0
LINE
  5
473
330
19
100
AcDbEntity
  8
ZUWAKU
100
AcDbLine
 10
132.484423696568
 20
45.45000051829148
 30
0.0
 11
132.484423696568
 21
15.35000051829148
 31
0.0
  0
LINE
  5
474
330
19
100
AcDbEntity
  8
ZUWAKU
100
AcDbLine
 10
138.0844236965681
 20
15.35000051829148
 30
0.0
 11
138.0844236965681
 21
45.45000051829148
 31
0.0
  0
LINE
  5
475
330
19
100
AcDbEntity
  8
ZUWAKU
100
AcDbLine
 10
122.684423696568
 20
45.45000051829148
 30
0.0
 11
122.684423696568
 21
22.00000051829147
 31
0.0
  0
LINE
  5
476
330
19
100
AcDbEntity
  8
ZUWAKU
100
AcDbLine
 10
128.2844236965681
 20
19.90000051829147
 30
0.0
 11
128.2844236965681
 21
45.45000051829148
 31
0.0
  0
LINE
  5
477
330
19
100
AcDbEntity
  8
ZUWAKU
100
AcDbLine
 10
158.2532584829825
 20
60.00000051829147
 30
0.0
 11
158.2532584829825
 21
1.600000518291608
 31
0.0
  0
LINE
  5
478
330
19
100
AcDbEntity
  8
ZUWAKU
100
AcDbLine
 10
159.0532584829823
 20
60.00000051829147
 30
0.0
 11
159.0532584829827
 21
1.600000518291608
 31
0.0
  0
LINE
  5
479
330
19
100
AcDbEntity
  8
ZUWAKU
100
AcDbLine
 10
158.6532584829822
 20
60.00000051829147
 30
0.0
 11
158.6532584829826
 21
1.600000518291608
 31
0.0
  0
TEXT
  5
47A
330
19
100
AcDbEntity
  8
MOJI
100
AcDbText
 10
177.0279264471212
 20
25.48235677884099
 30
0.0
 40
12.0
  1
新・丸トップＲＶ１０５
 41
0.9
  7
ｽﾀｲﾙ1
100
AcDbText
  0
LINE
  5
47B
330
19
100
AcDbEntity
  8
ZUWAKU
100
AcDbLine
 10
115.684423696568
 20
14.30000051829148
 30
0.0
 11
122.684423696568
 21
14.30000051829148
 31
0.0
  0
LINE
  5
47C
330
19
100
AcDbEntity
  8
ZUWAKU
100
AcDbLine
 10
120.5844236965681
 20
19.90000051829147
 30
0.0
 11
117.7844236965681
 21
19.90000051829147
 31
0.0
  0
LINE
  5
47D
330
19
100
AcDbEntity
  8
ZUWAKU
100
AcDbLine
 10
82.43442369656804
 20
14.30000051829148
 30
0.0
 11
85.93442369656804
 21
14.30000051829148
 31
0.0
  0
LINE
  5
47E
330
19
100
AcDbEntity
  8
ZUWAKU
100
AcDbLine
 10
71.35269357119978
 20
15.03381258195753
 30
0.0
 11
67.61615382193622
 21
26.86618845462541
 31
0.0
  0
ARC
  5
47F
330
19
100
AcDbEntity
  8
ZUWAKU
100
AcDbCircle
 10
66.33442369656814
 20
26.55000051829148
 30
0.0
 40
1.049999999999999
100
AcDbArc
 50
90.0
 51
180.0
  0
ARC
  5
480
330
19
100
AcDbEntity
  8
ZUWAKU
100
AcDbCircle
 10
66.61489202354551
 20
26.55000051829148
 30
0.0
 40
1.049999999999999
100
AcDbArc
 50
17.52556837372303
 51
90.0
  0
ARC
  5
481
330
19
100
AcDbEntity
  8
ZUWAKU
100
AcDbCircle
 10
60.734423696568
 20
15.35000051829148
 30
0.0
 40
1.049999999999999
100
AcDbArc
 50
180.0
 51
270.0
  0
ARC
  5
482
330
19
100
AcDbEntity
  8
ZUWAKU
100
AcDbCircle
 10
53.734423696568
 20
18.85000051829148
 30
0.0
 40
1.049999999999999
100
AcDbArc
 50
0.0
 51
90.0
  0
ARC
  5
483
330
19
100
AcDbEntity
  8
ZUWAKU
100
AcDbCircle
 10
53.734423696568
 20
15.35000051829148
 30
0.0
 40
1.049999999999999
100
AcDbArc
 50
270.0
 51
0.0
  0
LINE
  5
484
330
19
100
AcDbEntity
  8
ZUWAKU
100
AcDbLine
 10
54.78442369656818
 20
18.85000051829148
 30
0.0
 11
54.78442369656818
 21
15.35000051829148
 31
0.0
  0
LINE
  5
485
330
19
100
AcDbEntity
  8
ZUWAKU
100
AcDbLine
 10
65.28442369656819
 20
15.35000051829148
 30
0.0
 11
65.28442369656819
 21
26.55000051829148
 31
0.0
  0
ARC
  5
486
330
19
100
AcDbEntity
  8
ZUWAKU
100
AcDbCircle
 10
64.234423696568
 20
15.35000051829148
 30
0.0
 40
1.049999999999999
100
AcDbArc
 50
270.0
 51
0.0
  0
LINE
  5
487
330
19
100
AcDbEntity
  8
ZUWAKU
100
AcDbLine
 10
60.734423696568
 20
14.30000051829148
 30
0.0
 11
64.234423696568
 21
14.30000051829148
 31
0.0
  0
ARC
  5
488
330
19
100
AcDbEntity
  8
ZUWAKU
100
AcDbCircle
 10
66.33442369656814
 20
34.25000051829148
 30
0.0
 40
1.049999999999999
100
AcDbArc
 50
180.0
 51
270.0
  0
LINE
  5
489
330
19
100
AcDbEntity
  8
ZUWAKU
100
AcDbLine
 10
66.33442369656814
 20
27.60000051829148
 30
0.0
 11
66.61489202354551
 21
27.60000051829148
 31
0.0
  0
LINE
  5
48A
330
19
100
AcDbEntity
  8
ZUWAKU
100
AcDbLine
 10
66.61489202354551
 20
33.20000051829147
 30
0.0
 11
66.33442369656814
 21
33.20000051829147
 31
0.0
  0
ARC
  5
48B
330
19
100
AcDbEntity
  8
ZUWAKU
100
AcDbCircle
 10
66.61489202354551
 20
34.25000051829148
 30
0.0
 40
1.049999999999999
100
AcDbArc
 50
270.0
 51
342.4744316262769
  0
ARC
  5
48C
330
19
100
AcDbEntity
  8
ZUWAKU
100
AcDbCircle
 10
72.35395536959072
 20
15.35000051829148
 30
0.0
 40
1.049999999999999
100
AcDbArc
 50
197.525568373723
 51
270.0
  0
LINE
  5
48D
330
19
100
AcDbEntity
  8
ZUWAKU
100
AcDbLine
 10
76.75299592719966
 20
15.66618845462542
 30
0.0
 11
72.10021317025234
 21
30.40000051829152
 31
0.0
  0
ARC
  5
48E
330
19
100
AcDbEntity
  8
ZUWAKU
100
AcDbCircle
 10
75.75173412880872
 20
15.35000051829148
 30
0.0
 40
1.049999999999999
100
AcDbArc
 50
270.0
 51
17.52556837372303
  0
LINE
  5
48F
330
19
100
AcDbEntity
  8
ZUWAKU
100
AcDbLine
 10
72.35395536959072
 20
14.30000051829148
 30
0.0
 11
75.75173412880872
 21
14.30000051829148
 31
0.0
  0
ARC
  5
490
330
19
100
AcDbEntity
  8
ZUWAKU
100
AcDbCircle
 10
82.43442369656804
 20
15.35000051829148
 30
0.0
 40
1.049999999999999
100
AcDbArc
 50
180.0
 51
270.0
  0
ARC
  5
491
330
19
100
AcDbEntity
  8
ZUWAKU
100
AcDbCircle
 10
100.2844236965681
 20
19.90000051829147
 30
0.0
 40
5.599999999999999
100
AcDbArc
 50
270.0
 51
0.0
  0
ARC
  5
492
330
19
100
AcDbEntity
  8
ZUWAKU
100
AcDbCircle
 10
115.684423696568
 20
19.90000051829147
 30
0.0
 40
5.599999999999999
100
AcDbArc
 50
180.0
 51
270.0
  0
LINE
  5
493
330
19
100
AcDbEntity
  8
ZUWAKU
100
AcDbLine
 10
103.4241206585352
 20
29.47010153096913
 30
0.0
 11
97.60452470924565
 21
35.28969748025848
 31
0.0
  0
LINE
  5
494
330
19
100
AcDbEntity
  8
ZUWAKU
100
AcDbLine
 10
93.64472673460113
 20
31.32989950561384
 30
0.0
 11
99.46432268389049
 21
25.51030355632451
 31
0.0
  0
LINE
  5
495
330
19
100
AcDbEntity
  8
ZUWAKU
100
AcDbLine
 10
93.28442369656817
 20
14.30000051829148
 30
0.0
 11
100.2844236965681
 21
14.30000051829148
 31
0.0
  0
LINE
  5
496
330
19
100
AcDbEntity
  8
ZUWAKU
100
AcDbLine
 10
93.28442369656817
 20
19.90000051829147
 30
0.0
 11
99.234423696568
 21
19.90000051829147
 31
0.0
  0
ARC
  5
497
330
19
100
AcDbEntity
  8
ZUWAKU
100
AcDbCircle
 10
93.28442369656817
 20
18.85000051829148
 30
0.0
 40
1.049999999999999
100
AcDbArc
 50
90.0
 51
180.0
  0
ARC
  5
498
330
19
100
AcDbEntity
  8
ZUWAKU
100
AcDbCircle
 10
85.93442369656804
 20
15.35000051829148
 30
0.0
 40
1.049999999999999
100
AcDbArc
 50
270.0
 51
0.0
  0
ARC
  5
499
330
19
100
AcDbEntity
  8
ZUWAKU
100
AcDbCircle
 10
93.28442369656817
 20
15.35000051829148
 30
0.0
 40
1.049999999999999
100
AcDbArc
 50
180.0
 51
270.0
  0
LINE
  5
49A
330
19
100
AcDbEntity
  8
ZUWAKU
100
AcDbLine
 10
92.23442369656799
 20
15.35000051829148
 30
0.0
 11
92.23442369656799
 21
18.85000051829148
 31
0.0
  0
ARC
  5
49B
330
19
100
AcDbEntity
  8
ZUWAKU
100
AcDbCircle
 10
99.234423696568
 20
20.95000051829149
 30
0.0
 40
1.049999999999999
100
AcDbArc
 50
270.0
 51
0.0
  0
ARC
  5
49C
330
19
100
AcDbEntity
  8
ZUWAKU
100
AcDbCircle
 10
97.484423696568
 20
23.53040456900217
 30
0.0
 40
2.799999999999999
100
AcDbArc
 50
0.0
 51
45.0
  0
LINE
  5
49D
330
19
100
AcDbEntity
  8
ZUWAKU
100
AcDbLine
 10
100.2844236965681
 20
20.95000051829149
 30
0.0
 11
100.2844236965681
 21
23.53040456900217
 31
0.0
  0
ARC
  5
49E
330
19
100
AcDbEntity
  8
ZUWAKU
100
AcDbCircle
 10
117.7844236965681
 20
22.00000051829147
 30
0.0
 40
2.099999999999999
100
AcDbArc
 50
180.0
 51
270.0
  0
ARC
  5
49F
330
19
100
AcDbEntity
  8
ZUWAKU
100
AcDbCircle
 10
97.484423696568
 20
23.53040456900208
 30
0.0
 40
8.399999999999998
100
AcDbArc
 50
0.0
 51
45.0
  0
LINE
  5
4A0
330
19
100
AcDbEntity
  8
ZUWAKU
100
AcDbLine
 10
105.884423696568
 20
19.90000051829147
 30
0.0
 11
105.884423696568
 21
23.53040456900217
 31
0.0
  0
ARC
  5
4A1
330
19
100
AcDbEntity
  8
ZUWAKU
100
AcDbCircle
 10
122.684423696568
 20
19.90000051829147
 30
0.0
 40
5.599999999999999
100
AcDbArc
 50
270.0
 51
0.0
  0
LINE
  5
4A2
330
19
100
AcDbEntity
  8
ZUWAKU
100
AcDbLine
 10
133.5344236965681
 20
14.30000051829148
 30
0.0
 11
137.0344236965681
 21
14.30000051829148
 31
0.0
  0
ARC
  5
4A3
330
19
100
AcDbEntity
  8
ZUWAKU
100
AcDbCircle
 10
120.5844236965681
 20
22.00000051829147
 30
0.0
 40
2.099999999999999
100
AcDbArc
 50
270.0
 51
0.0
  0
ARC
  5
4A4
330
19
100
AcDbEntity
  8
ZUWAKU
100
AcDbCircle
 10
133.5344236965681
 20
15.35000051829148
 30
0.0
 40
1.049999999999999
100
AcDbArc
 50
180.0
 51
270.0
  0
ARC
  5
4A5
330
19
100
AcDbEntity
  8
ZUWAKU
100
AcDbCircle
 10
137.0344236965681
 20
15.35000051829148
 30
0.0
 40
1.049999999999999
100
AcDbArc
 50
270.0
 51
0.0
  0
LINE
  5
4A6
330
19
100
AcDbEntity
  8
ZUWAKU
100
AcDbLine
 10
85.93442369656804
 20
46.50000051829148
 30
0.0
 11
82.43442369656804
 21
46.50000051829148
 31
0.0
  0
LINE
  5
4A7
330
19
100
AcDbEntity
  8
ZUWAKU
100
AcDbLine
 10
54.78442369656818
 20
45.45000051829148
 30
0.0
 11
54.78442369656818
 21
41.95000051829147
 31
0.0
  0
ARC
  5
4A8
330
19
100
AcDbEntity
  8
ZUWAKU
100
AcDbCircle
 10
53.734423696568
 20
41.95000051829147
 30
0.0
 40
1.049999999999999
100
AcDbArc
 50
270.0
 51
0.0
  0
ARC
  5
4A9
330
19
100
AcDbEntity
  8
ZUWAKU
100
AcDbCircle
 10
60.734423696568
 20
45.45000051829148
 30
0.0
 40
1.049999999999999
100
AcDbArc
 50
90.0
 51
180.0
  0
ARC
  5
4AA
330
19
100
AcDbEntity
  8
ZUWAKU
100
AcDbCircle
 10
53.734423696568
 20
45.45000051829148
 30
0.0
 40
1.049999999999999
100
AcDbArc
 50
0.0
 51
90.0
  0
LINE
  5
4AB
330
19
100
AcDbEntity
  8
ZUWAKU
100
AcDbLine
 10
64.234423696568
 20
46.50000051829148
 30
0.0
 11
60.734423696568
 21
46.50000051829148
 31
0.0
  0
ARC
  5
4AC
330
19
100
AcDbEntity
  8
ZUWAKU
100
AcDbCircle
 10
64.234423696568
 20
45.45000051829148
 30
0.0
 40
1.049999999999999
100
AcDbArc
 50
0.0
 51
90.0
  0
ARC
  5
4AD
330
19
100
AcDbEntity
  8
ZUWAKU
100
AcDbCircle
 10
72.35395536959072
 20
45.45000051829148
 30
0.0
 40
1.049999999999999
100
AcDbArc
 50
90.0
 51
162.4744316262769
  0
LINE
  5
4AE
330
19
100
AcDbEntity
  8
ZUWAKU
100
AcDbLine
 10
76.75299592719966
 20
45.13381258195754
 30
0.0
 11
74.62971666092403
 21
38.41009490541833
 31
0.0
  0
ARC
  5
4AF
330
19
100
AcDbEntity
  8
ZUWAKU
100
AcDbCircle
 10
75.75173412880872
 20
45.45000051829148
 30
0.0
 40
1.049999999999999
100
AcDbArc
 50
342.4744316262769
 51
90.0
  0
LINE
  5
4B0
330
19
100
AcDbEntity
  8
ZUWAKU
100
AcDbLine
 10
72.35395536959072
 20
46.50000051829148
 30
0.0
 11
75.75173412880872
 21
46.50000051829148
 31
0.0
  0
ARC
  5
4B1
330
19
100
AcDbEntity
  8
ZUWAKU
100
AcDbCircle
 10
82.43442369656804
 20
45.45000051829148
 30
0.0
 40
1.049999999999999
100
AcDbArc
 50
90.0
 51
180.0
  0
LINE
  5
4B2
330
19
100
AcDbEntity
  8
ZUWAKU
100
AcDbLine
 10
103.7844236965681
 20
40.90000051829147
 30
0.0
 11
97.83442369656814
 21
40.90000051829147
 31
0.0
  0
LINE
  5
4B3
330
19
100
AcDbEntity
  8
ZUWAKU
100
AcDbLine
 10
96.78442369656819
 20
46.50000051829148
 30
0.0
 11
103.7844236965681
 21
46.50000051829148
 31
0.0
  0
ARC
  5
4B4
330
19
100
AcDbEntity
  8
ZUWAKU
100
AcDbCircle
 10
96.78442369656819
 20
40.90000051829147
 30
0.0
 40
5.599999999999999
100
AcDbArc
 50
90.0
 51
180.0
  0
LINE
  5
4B5
330
19
100
AcDbEntity
  8
ZUWAKU
100
AcDbLine
 10
91.18442369656804
 20
40.90000051829147
 30
0.0
 11
91.18442369656804
 21
37.26959646758079
 31
0.0
  0
ARC
  5
4B6
330
19
100
AcDbEntity
  8
ZUWAKU
100
AcDbCircle
 10
85.93442369656804
 20
45.45000051829148
 30
0.0
 40
1.049999999999999
100
AcDbArc
 50
0.0
 51
90.0
  0
LINE
  5
4B7
330
19
100
AcDbEntity
  8
ZUWAKU
100
AcDbLine
 10
96.78442369656819
 20
39.85000051829148
 30
0.0
 11
96.78442369656819
 21
37.26959646758079
 31
0.0
  0
ARC
  5
4B8
330
19
100
AcDbEntity
  8
ZUWAKU
100
AcDbCircle
 10
97.83442369656814
 20
39.85000051829148
 30
0.0
 40
1.049999999999999
100
AcDbArc
 50
90.0
 51
180.0
  0
LINE
  5
4B9
330
19
100
AcDbEntity
  8
ZUWAKU
100
AcDbLine
 10
104.8344236965681
 20
45.45000051829148
 30
0.0
 11
104.8344236965681
 21
41.95000051829147
 31
0.0
  0
ARC
  5
4BA
330
19
100
AcDbEntity
  8
ZUWAKU
100
AcDbCircle
 10
103.7844236965681
 20
41.95000051829147
 30
0.0
 40
1.049999999999999
100
AcDbArc
 50
270.0
 51
0.0
  0
ARC
  5
4BB
330
19
100
AcDbEntity
  8
ZUWAKU
100
AcDbCircle
 10
103.7844236965681
 20
45.45000051829148
 30
0.0
 40
1.049999999999999
100
AcDbArc
 50
0.0
 51
90.0
  0
LINE
  5
4BC
330
19
100
AcDbEntity
  8
ZUWAKU
100
AcDbLine
 10
114.634423696568
 20
46.50000051829148
 30
0.0
 11
111.134423696568
 21
46.50000051829148
 31
0.0
  0
ARC
  5
4BD
330
19
100
AcDbEntity
  8
ZUWAKU
100
AcDbCircle
 10
111.134423696568
 20
45.45000051829148
 30
0.0
 40
1.049999999999999
100
AcDbArc
 50
90.0
 51
180.0
  0
ARC
  5
4BE
330
19
100
AcDbEntity
  8
ZUWAKU
100
AcDbCircle
 10
114.634423696568
 20
45.45000051829148
 30
0.0
 40
1.049999999999999
100
AcDbArc
 50
0.0
 51
90.0
  0
LINE
  5
4BF
330
19
100
AcDbEntity
  8
ZUWAKU
100
AcDbLine
 10
137.0344236965681
 20
46.50000051829148
 30
0.0
 11
133.5344236965681
 21
46.50000051829148
 31
0.0
  0
ARC
  5
4C0
330
19
100
AcDbEntity
  8
ZUWAKU
100
AcDbCircle
 10
123.7344236965679
 20
45.45000051829148
 30
0.0
 40
1.049999999999999
100
AcDbArc
 50
90.0
 51
180.0
  0
LINE
  5
4C1
330
19
100
AcDbEntity
  8
ZUWAKU
100
AcDbLine
 10
127.234423696568
 20
46.50000051829148
 30
0.0
 11
123.7344236965679
 21
46.50000051829148
 31
0.0
  0
ARC
  5
4C2
330
19
100
AcDbEntity
  8
ZUWAKU
100
AcDbCircle
 10
127.234423696568
 20
45.45000051829148
 30
0.0
 40
1.049999999999999
100
AcDbArc
 50
0.0
 51
90.0
  0
ARC
  5
4C3
330
19
100
AcDbEntity
  8
ZUWAKU
100
AcDbCircle
 10
133.5344236965681
 20
45.45000051829148
 30
0.0
 40
1.049999999999999
100
AcDbArc
 50
90.0
 51
180.0
  0
ARC
  5
4C4
330
19
100
AcDbEntity
  8
ZUWAKU
100
AcDbCircle
 10
137.0344236965681
 20
45.45000051829148
 30
0.0
 40
1.049999999999999
100
AcDbArc
 50
0.0
 51
90.0
  0
TEXT
  5
4C5
330
19
100
AcDbEntity
  8
MOJI
100
AcDbText
 10
479.6544047487079
 20
6.409842633106315
 30
0.0
 40
11.19999999999999
  1
ＲＶ１０５－Ｌ１,２００
 41
0.9
  7
ｽﾀｲﾙ1
100
AcDbText
  0
LINE
  5
4C6
330
19
100
AcDbEntity
  8
ZUWAKU
100
AcDbLine
 10
416.8932019671412
 20
60.00000051829147
 30
0.0
 11
416.8932019671417
 21
1.600000518291608
 31
0.0
  0
LINE
  5
4C7
330
19
100
AcDbEntity
  8
ZUWAKU
100
AcDbLine
 10
417.2932019671414
 20
60.00000051829147
 30
0.0
 11
417.2932019671418
 21
1.600000518291608
 31
0.0
  0
LINE
  5
4C8
330
19
100
AcDbEntity
  8
ZUWAKU
100
AcDbLine
 10
416.4932019671416
 20
60.00000051829147
 30
0.0
 11
416.4932019671416
 21
1.600000518291608
 31
0.0
  0
TEXT
  5
4C9
330
19
100
AcDbEntity
  8
MOJI
100
AcDbText
 10
479.6544047487079
 20
36.00984263310624
 30
0.0
 40
11.19999999999999
  1
テリといＩ型
 41
0.9
  7
ｽﾀｲﾙ1
100
AcDbText
  0
TEXT
  5
4CA
330
19
100
AcDbEntity
  8
ZUWAKU
100
AcDbText
 10
419.4480920115609
 20
19.31071359506271
 30
0.0
 40
8.0
  1
サイズ
 41
0.9
  7
ｽﾀｲﾙ1
100
AcDbText
  0
TEXT
  5
4CB
330
19
100
AcDbEntity
  8
ZUWAKU
100
AcDbText
 10
419.4480920115604
 20
48.11071359506263
 30
0.0
 40
8.0
  1
品名
 41
0.9
  7
ｽﾀｲﾙ1
100
AcDbText
  0
TEXT
  5
4CC
330
19
100
AcDbEntity
  8
ZUWAKU
100
AcDbText
 10
1316.40787476161
 20
36.00984263310624
 30
0.0
 40
11.19999999999999
  1
　　．　　．　　
 41
0.9
  7
ｽﾀｲﾙ1
100
AcDbText
  0
LINE
  5
4CD
330
19
100
AcDbEntity
  8
ZUWAKU
100
AcDbLine
 10
1297.634404407414
 20
31.20000051829153
 30
0.0
 11
1394.498020484088
 21
31.20000051829153
 31
0.0
  0
LINE
  5
4CE
330
19
100
AcDbEntity
  8
ZUWAKU
100
AcDbLine
 10
1297.634404407414
 20
30.80000051829154
 30
0.0
 11
1394.498020484088
 21
30.80000051829154
 31
0.0
  0
LINE
  5
4CF
330
19
100
AcDbEntity
  8
ZUWAKU
100
AcDbLine
 10
1297.634404407414
 20
30.40000051829153
 30
0.0
 11
1394.498020484088
 21
30.40000051829154
 31
0.0
  0
LINE
  5
4D0
330
19
100
AcDbEntity
  8
ZUWAKU
100
AcDbLine
 10
1010.398358383287
 20
31.20000051829153
 30
0.0
 11
1105.05391091923
 21
31.20000051829153
 31
0.0
  0
LINE
  5
4D1
330
19
100
AcDbEntity
  8
ZUWAKU
100
AcDbLine
 10
1010.398358383287
 20
30.80000051829154
 30
0.0
 11
1105.05391091923
 21
30.80000051829154
 31
0.0
  0
LINE
  5
4D2
330
19
100
AcDbEntity
  8
ZUWAKU
100
AcDbLine
 10
1010.398358383287
 20
30.40000051829155
 30
0.0
 11
1105.05391091923
 21
30.40000051829155
 31
0.0
  0
LINE
  5
4D3
330
19
100
AcDbEntity
  8
ZUWAKU
100
AcDbLine
 10
1009.598358383287
 20
60.00000051829147
 30
0.0
 11
1009.598358383287
 21
1.600000518291608
 31
0.0
  0
LINE
  5
4D4
330
19
100
AcDbEntity
  8
ZUWAKU
100
AcDbLine
 10
1010.398358383287
 20
60.00000051829147
 30
0.0
 11
1010.398358383288
 21
1.600000518291608
 31
0.0
  0
LINE
  5
4D5
330
19
100
AcDbEntity
  8
ZUWAKU
100
AcDbLine
 10
1009.998358383287
 20
60.00000051829147
 30
0.0
 11
1009.998358383287
 21
1.600000518291608
 31
0.0
  0
TEXT
  5
4D6
330
19
100
AcDbEntity
  8
MOJI
100
AcDbText
 10
1056.081815331631
 20
36.00984263310624
 30
0.0
 40
11.19999999999999
  1
Ａ３
 41
0.9
  7
ｽﾀｲﾙ1
100
AcDbText
  0
LINE
  5
4D7
330
19
100
AcDbEntity
  8
ZUWAKU
100
AcDbLine
 10
894.8487273289886
 20
60.00000051829147
 30
0.0
 11
894.8487273289886
 21
1.600000518291608
 31
0.0
  0
LINE
  5
4D8
330
19
100
AcDbEntity
  8
ZUWAKU
100
AcDbLine
 10
895.6487273289884
 20
60.00000051829147
 30
0.0
 11
895.6487273289887
 21
1.600000518291608
 31
0.0
  0
LINE
  5
4D9
330
19
100
AcDbEntity
  8
ZUWAKU
100
AcDbLine
 10
895.2487273289882
 20
60.00000051829147
 30
0.0
 11
895.2487273289888
 21
1.600000518291608
 31
0.0
  0
TEXT
  5
4DA
330
19
100
AcDbEntity
  8
MOJI
100
AcDbText
 10
925.365537023714
 20
23.88523596161144
 30
0.0
 40
11.19999999999999
  1
ＧＲ２６□
 41
0.9
  7
ｽﾀｲﾙ1
100
AcDbText
  0
TEXT
  5
4DB
330
19
100
AcDbEntity
  8
ZUWAKU
100
AcDbText
 10
925.38752269802
 20
5.228142340570457
 30
0.0
 40
6.0
  1
□には色品番が入ります
 41
0.9
  7
ｽﾀｲﾙ1
100
AcDbText
  0
TEXT
  5
4DC
330
19
100
AcDbEntity
  8
ZUWAKU
100
AcDbText
 10
1013.353248427707
 20
19.31071359506271
 30
0.0
 40
8.0
  1
縮尺
 41
0.9
  7
ｽﾀｲﾙ1
100
AcDbText
  0
TEXT
  5
4DD
330
19
100
AcDbEntity
  8
MOJI
100
AcDbText
 10
1056.081815331631
 20
6.409842633106315
 30
0.0
 40
11.19999999999999
  1
１/４
 41
0.9
  7
ｽﾀｲﾙ1
100
AcDbText
  0
TEXT
  5
4DE
330
19
100
AcDbEntity
  8
ZUWAKU
100
AcDbText
 10
898.6036173734076
 20
48.11071359506263
 30
0.0
 40
8.0
  1
品番
 41
0.9
  7
ｽﾀｲﾙ1
100
AcDbText
  0
TEXT
  5
4DF
330
19
100
AcDbEntity
  8
ZUWAKU
100
AcDbText
 10
1013.353248427707
 20
48.11071359506263
 30
0.0
 40
8.0
  1
用紙
 41
0.9
  7
ｽﾀｲﾙ1
100
AcDbText
  0
LINE
  5
4E0
330
19
100
AcDbEntity
  8
ZUWAKU
100
AcDbLine
 10
1105.05391091923
 20
60.00000051829147
 30
0.0
 11
1105.05391091923
 21
1.600000518291608
 31
0.0
  0
LINE
  5
4E1
330
19
100
AcDbEntity
  8
ZUWAKU
100
AcDbLine
 10
1105.85391091923
 20
60.00000051829147
 30
0.0
 11
1105.85391091923
 21
1.600000518291608
 31
0.0
  0
LINE
  5
4E2
330
19
100
AcDbEntity
  8
ZUWAKU
100
AcDbLine
 10
1105.45391091923
 20
60.00000051829147
 30
0.0
 11
1105.45391091923
 21
1.600000518291608
 31
0.0
  0
LINE
  5
4E3
330
19
100
AcDbEntity
  8
ZUWAKU
100
AcDbLine
 10
1296.834404407414
 20
60.00000051829147
 30
0.0
 11
1296.834404407414
 21
1.600000518291608
 31
0.0
  0
LINE
  5
4E4
330
19
100
AcDbEntity
  8
ZUWAKU
100
AcDbLine
 10
1297.634404407414
 20
60.00000051829147
 30
0.0
 11
1297.634404407415
 21
1.600000518291608
 31
0.0
  0
LINE
  5
4E5
330
19
100
AcDbEntity
  8
ZUWAKU
100
AcDbLine
 10
1297.234404407414
 20
60.00000051829147
 30
0.0
 11
1297.234404407415
 21
1.600000518291608
 31
0.0
  0
TEXT
  5
4E6
330
19
100
AcDbEntity
  8
ZUWAKU
100
AcDbText
 10
1300.589294451834
 20
48.11071359506263
 30
0.0
 40
8.0
  1
DATE
 41
0.9
  7
ｽﾀｲﾙ1
100
AcDbText
  0
TEXT
  5
4E7
330
19
100
AcDbEntity
  8
ZUWAKU
100
AcDbText
 10
1417.056167771493
 20
35.10767918966507
 30
0.0
 40
12.0
  1
積水化学工業株式会社
 41
0.9
  7
ｽﾀｲﾙ1
100
AcDbText
  0
LINE
  5
4E8
330
19
100
AcDbEntity
  8
ZUWAKU
100
AcDbLine
 10
1395.698020484088
 20
60.00000051829147
 30
0.0
 11
1395.698020484088
 21
1.600000518291608
 31
0.0
  0
LINE
  5
4E9
330
19
100
AcDbEntity
  8
ZUWAKU
100
AcDbLine
 10
1395.298020484088
 20
60.00000051829147
 30
0.0
 11
1395.298020484088
 21
1.600000518291608
 31
0.0
  0
LINE
  5
4EA
330
19
100
AcDbEntity
  8
ZUWAKU
100
AcDbLine
 10
1394.898020484088
 20
60.00000051829147
 30
0.0
 11
1394.898020484088
 21
1.600000518291608
 31
0.0
  0
LINE
  5
4EB
330
19
100
AcDbEntity
  8
ZUWAKU
100
AcDbLine
 10
1394.498020484088
 20
60.00000051829147
 30
0.0
 11
1394.498020484088
 21
1.600000518291608
 31
0.0
  0
TEXT
  5
4EC
330
19
100
AcDbEntity
  8
ZUWAKU
100
AcDbText
 10
1417.056167771493
 20
13.2976811459996
 30
0.0
 40
12.0
  1
建材事業部
 41
0.9
  7
ｽﾀｲﾙ1
100
AcDbText
  0
VIEWPORT
  5
22
330
16
100
AcDbEntity
 67
     1
  8
0
100
AcDbViewport
 10
313.6808219178082
 20
148.5
 30
0.0
 40
627.3616438356165
 41
297.0
 68
     2
 69
     1
1001
ACAD
1000
MVIEW
1002
{
1070
    16
1010
0.0
1020
0.0
1030
0.0
1010
0.0
1020
0.0
1030
1.0
1040
0.0
1040
297.0
1040
313.6808219178082
1040
148.5
1040
50.0
1040
0.0
1040
0.0
1070
     0
1070
   100
1070
     1
1070
     0
1070
     0
1070
     0
1070
     0
1070
     0
1040
0.0
1040
0.0
1040
0.0
1040
10.0
1040
10.0
1040
10.0
1040
10.0
1070
     0
1002
{
1002
}
1002
}
  0
VIEWPORT
  5
25
330
16
100
AcDbEntity
 67
     1
  8
VIEWPORT
100
AcDbViewport
 10
210.0
 20
148.5
 30
0.0
 40
420.0
 41
297.0
 68
     1
 69
     2
1001
ACAD
1000
MVIEW
1002
{
1070
    16
1010
0.0
1020
0.0
1030
0.0
1010
0.0
1020
0.0
1030
1.0
1040
0.0
1040
1212.607689320388
1040
841.0
1040
594.0
1040
50.0
1040
0.0
1040
0.0
1070
     0
1070
   100
1070
     1
1070
     0
1070
     0
1070
     0
1070
     0
1070
     0
1040
0.0
1040
0.0
1040
0.0
1040
57.0
1040
57.0
1040
57.0
1040
57.0
1070
     0
1002
{
1002
}
1002
}
  0
ENDSEC
  0
SECTION
  2
OBJECTS
  0
DICTIONARY
  5
C
330
0
100
AcDbDictionary
  3
ACAD_GROUP
350
D
  3
ACAD_LAYOUT
350
33F
  3
ACAD_MLINESTYLE
350
E
  3
ACAD_PLOTSETTINGS
350
340
  3
ACAD_PLOTSTYLENAME
350
33D
  3
ACDBHEADERROUNDTRIPXREC
350
4F4
  0
DICTIONARY
  5
36E
330
19
100
AcDbDictionary
280
     1
  3
ACAD_LAYOUTSELFREF
360
516
  0
DICTIONARY
  5
36C
330
16
100
AcDbDictionary
280
     1
  3
ACAD_LAYOUTSELFREF
360
515
  0
DICTIONARY
  5
D
102
{ACAD_REACTORS
330
C
102
}
330
C
100
AcDbDictionary
  0
DICTIONARY
  5
33F
102
{ACAD_REACTORS
330
C
102
}
330
C
100
AcDbDictionary
  0
DICTIONARY
  5
E
102
{ACAD_REACTORS
330
C
102
}
330
C
100
AcDbDictionary
  3
STANDARD
350
1C
  0
DICTIONARY
  5
340
102
{ACAD_REACTORS
330
C
102
}
330
C
100
AcDbDictionary
  0
ACDBDICTIONARYWDFLT
  5
33D
102
{ACAD_REACTORS
330
C
102
}
330
C
100
AcDbDictionary
281
     1
  3
Normal
350
33E
100
AcDbDictionaryWithDefault
340
33E
1001
ACAD
1000
TREAT_AS_HARD
1070
     0
  0
DICTIONARY
  5
4F4
102
{ACAD_REACTORS
330
C
102
}
330
C
100
AcDbDictionary
  3
TSTACKALIGN
350
4F5
  3
TSTACKSIZE
350
4F6
  3
HYPERLINKBASE
350
4F7
  3
STYLESHEET
350
4F8
  3
LAYOUTDICT
350
4F9
  3
PLOTSETDICT
350
4FA
  3
PLOTSTYLNAMDICT
350
4FB
  3
LWETCUNION
350
4FC
  3
INSUNITS
350
4FD
  3
CEPSNTYPE
350
4FE
  3
FINGERPRINTGUID
350
4FF
  3
VERSIONGUID
350
500
  3
PSVPSCALE
350
501
  3
DIMSTYLEDATA
350
502
  3
PUCSORTHOREF
350
503
  3
PUCSORTHOVIEW
350
504
  3
PUCSBASE
350
505
  3
PUCSORGTOP
350
506
  3
PUCSORGBOTTOM
350
507
  3
PUCSORGLEFT
350
508
  3
PUCSORGRIGHT
350
509
  3
PUCSORGFRONT
350
50A
  3
PUCSORGBACK
350
50B
  3
UCSORTHOREF
350
50C
  3
UCSORTHOVIEW
350
50D
  3
UCSBASE
350
50E
  3
UCSORGTOP
350
50F
  3
UCSORGBOTTOM
350
510
  3
UCSORGLEFT
350
511
  3
UCSORGRIGHT
350
512
  3
UCSORGFRONT
350
513
  3
UCSORGBACK
350
514
  0
XRECORD
  5
516
102
{ACAD_REACTORS
330
36E
102
}
330
36E
100
AcDbXrecord
340
19
  0
XRECORD
  5
515
102
{ACAD_REACTORS
330
36C
102
}
330
36C
100
AcDbXrecord
340
16
  0
MLINESTYLE
  5
1C
102
{ACAD_REACTORS
330
E
102
}
330
E
100
AcDbMlineStyle
  2
STANDARD
 70
     0
  3

 62
     0
 51
90.0
 52
90.0
 71
     2
 49
0.5
 62
   256
  6
BYLAYER
 49
-0.5
 62
   256
  6
BYLAYER
  0
ACDBPLACEHOLDER
  5
33E
102
{ACAD_REACTORS
330
33D
102
}
330
33D
100
AcDbPlaceHolder
280
     0
  0
XRECORD
  5
4F5
102
{ACAD_REACTORS
330
4F4
102
}
330
4F4
100
AcDbXrecord
 90
        1
  0
XRECORD
  5
4F6
102
{ACAD_REACTORS
330
4F4
102
}
330
4F4
100
AcDbXrecord
 90
       70
  0
XRECORD
  5
4F7
102
{ACAD_REACTORS
330
4F4
102
}
330
4F4
100
AcDbXrecord
  1

  0
XRECORD
  5
4F8
102
{ACAD_REACTORS
330
4F4
102
}
330
4F4
100
AcDbXrecord
  1
systemprinter.ctb
  0
XRECORD
  5
4F9
102
{ACAD_REACTORS
330
4F4
102
}
330
4F4
100
AcDbXrecord
340
33F
  0
XRECORD
  5
4FA
102
{ACAD_REACTORS
330
4F4
102
}
330
4F4
100
AcDbXrecord
340
340
  0
XRECORD
  5
4FB
102
{ACAD_REACTORS
330
4F4
102
}
330
4F4
100
AcDbXrecord
340
33D
  0
XRECORD
  5
4FC
102
{ACAD_REACTORS
330
4F4
102
}
330
4F4
100
AcDbXrecord
 90
    10781
  0
XRECORD
  5
4FD
102
{ACAD_REACTORS
330
4F4
102
}
330
4F4
100
AcDbXrecord
 90
        0
  0
XRECORD
  5
4FE
102
{ACAD_REACTORS
330
4F4
102
}
330
4F4
100
AcDbXrecord
 90
        0
  0
XRECORD
  5
4FF
102
{ACAD_REACTORS
330
4F4
102
}
330
4F4
100
AcDbXrecord
  1
{9DF24C4A-85F0-4F29-A67E-5C2B87EF4071}
  0
XRECORD
  5
500
102
{ACAD_REACTORS
330
4F4
102
}
330
4F4
100
AcDbXrecord
  1
{A3835DA0-DE95-4B08-9845-FCF60CC7F481}
  0
XRECORD
  5
501
102
{ACAD_REACTORS
330
4F4
102
}
330
4F4
100
AcDbXrecord
 40
0.0
  0
XRECORD
  5
502
102
{ACAD_REACTORS
330
4F4
102
}
330
4F4
100
AcDbXrecord
1000
DSTYLE
1002
{
1070
   341
340
27
1070
   343
340
27
1070
   344
340
27
1070
   371
 70
    -1
1070
   372
 70
    -1
1002
}
  0
XRECORD
  5
503
102
{ACAD_REACTORS
330
4F4
102
}
330
4F4
100
AcDbXrecord
340
0
  0
XRECORD
  5
504
102
{ACAD_REACTORS
330
4F4
102
}
330
4F4
100
AcDbXrecord
 70
     0
  0
XRECORD
  5
505
102
{ACAD_REACTORS
330
4F4
102
}
330
4F4
100
AcDbXrecord
340
0
  0
XRECORD
  5
506
102
{ACAD_REACTORS
330
4F4
102
}
330
4F4
100
AcDbXrecord
 10
0.0
 20
0.0
 30
0.0
  0
XRECORD
  5
507
102
{ACAD_REACTORS
330
4F4
102
}
330
4F4
100
AcDbXrecord
 10
0.0
 20
0.0
 30
0.0
  0
XRECORD
  5
508
102
{ACAD_REACTORS
330
4F4
102
}
330
4F4
100
AcDbXrecord
 10
0.0
 20
0.0
 30
0.0
  0
XRECORD
  5
509
102
{ACAD_REACTORS
330
4F4
102
}
330
4F4
100
AcDbXrecord
 10
0.0
 20
0.0
 30
0.0
  0
XRECORD
  5
50A
102
{ACAD_REACTORS
330
4F4
102
}
330
4F4
100
AcDbXrecord
 10
0.0
 20
0.0
 30
0.0
  0
XRECORD
  5
50B
102
{ACAD_REACTORS
330
4F4
102
}
330
4F4
100
AcDbXrecord
 10
0.0
 20
0.0
 30
0.0
  0
XRECORD
  5
50C
102
{ACAD_REACTORS
330
4F4
102
}
330
4F4
100
AcDbXrecord
340
0
  0
XRECORD
  5
50D
102
{ACAD_REACTORS
330
4F4
102
}
330
4F4
100
AcDbXrecord
 70
     0
  0
XRECORD
  5
50E
102
{ACAD_REACTORS
330
4F4
102
}
330
4F4
100
AcDbXrecord
340
0
  0
XRECORD
  5
50F
102
{ACAD_REACTORS
330
4F4
102
}
330
4F4
100
AcDbXrecord
 10
0.0
 20
0.0
 30
0.0
  0
XRECORD
  5
510
102
{ACAD_REACTORS
330
4F4
102
}
330
4F4
100
AcDbXrecord
 10
0.0
 20
0.0
 30
0.0
  0
XRECORD
  5
511
102
{ACAD_REACTORS
330
4F4
102
}
330
4F4
100
AcDbXrecord
 10
0.0
 20
0.0
 30
0.0
  0
XRECORD
  5
512
102
{ACAD_REACTORS
330
4F4
102
}
330
4F4
100
AcDbXrecord
 10
0.0
 20
0.0
 30
0.0
  0
XRECORD
  5
513
102
{ACAD_REACTORS
330
4F4
102
}
330
4F4
100
AcDbXrecord
 10
0.0
 20
0.0
 30
0.0
  0
XRECORD
  5
514
102
{ACAD_REACTORS
330
4F4
102
}
330
4F4
100
AcDbXrecord
 10
0.0
 20
0.0
 30
0.0
  0
ENDSEC
  0
EOF
