  0
SECTION
  2
HEADER
  9
$ACADVER
  1
AC1014
  9
$ACADMAINTVER
 70
     9
  9
$DWGCODEPAGE
  3
ANSI_932
  9
$INSBASE
 10
0.0
 20
0.0
 30
0.0
  9
$EXTMIN
 10
-0.05126640194635
 20
-0.0362526699479986
 30
-0.0000000000112498
  9
$EXTMAX
 10
797.6628945888771
 20
551.6439420217511
 30
0.0000000000002956
  9
$LIMMIN
 10
0.0
 20
0.0
  9
$LIMMAX
 10
840.0
 20
594.0
  9
$ORTHOMODE
 70
     0
  9
$REGENMODE
 70
     1
  9
$FILLMODE
 70
     1
  9
$QTEXTMODE
 70
     0
  9
$MIRRTEXT
 70
     1
  9
$DRAGMODE
 70
     2
  9
$LTSCALE
 40
2.0
  9
$OSMODE
 70
    35
  9
$ATTMODE
 70
     1
  9
$TEXTSIZE
 40
5.0
  9
$TRACEWID
 40
1.0
  9
$TEXTSTYLE
  7
STANDARD
  9
$CLAYER
  8
ZUWAKU
  9
$CELTYPE
  6
BYLAYER
  9
$CECOLOR
 62
   256
  9
$CELTSCALE
 40
1.0
  9
$DELOBJ
 70
     1
  9
$DISPSILH
 70
     0
  9
$DIMSCALE
 40
1.0
  9
$DIMASZ
 40
7.0
  9
$DIMEXO
 40
6.0
  9
$DIMDLI
 40
14.0
  9
$DIMRND
 40
0.0
  9
$DIMDLE
 40
0.0
  9
$DIMEXE
 40
3.0
  9
$DIMTP
 40
0.0
  9
$DIMTM
 40
0.0
  9
$DIMTXT
 40
6.0
  9
$DIMCEN
 40
150.0
  9
$DIMTSZ
 40
0.0
  9
$DIMTOL
 70
     0
  9
$DIMLIM
 70
     0
  9
$DIMTIH
 70
     0
  9
$DIMTOH
 70
     0
  9
$DIMSE1
 70
     0
  9
$DIMSE2
 70
     0
  9
$DIMTAD
 70
     3
  9
$DIMZIN
 70
     0
  9
$DIMBLK
  1

  9
$DIMASO
 70
     1
  9
$DIMSHO
 70
     1
  9
$DIMPOST
  1

  9
$DIMAPOST
  1

  9
$DIMALT
 70
     0
  9
$DIMALTD
 70
     2
  9
$DIMALTF
 40
25.4
  9
$DIMLFAC
 40
1.0
  9
$DIMTOFL
 70
     1
  9
$DIMTVP
 40
0.0
  9
$DIMTIX
 70
     0
  9
$DIMSOXD
 70
     0
  9
$DIMSAH
 70
     1
  9
$DIMBLK1
  1
OPEN
  9
$DIMBLK2
  1
OPEN
  9
$DIMSTYLE
  2
STANDARD
  9
$DIMCLRD
 70
   256
  9
$DIMCLRE
 70
   256
  9
$DIMCLRT
 70
   256
  9
$DIMTFAC
 40
1.0
  9
$DIMGAP
 40
2.0
  9
$DIMJUST
 70
     0
  9
$DIMSD1
 70
     0
  9
$DIMSD2
 70
     0
  9
$DIMTOLJ
 70
     1
  9
$DIMTZIN
 70
     0
  9
$DIMALTZ
 70
     0
  9
$DIMALTTZ
 70
     0
  9
$DIMFIT
 70
     3
  9
$DIMUPT
 70
     0
  9
$DIMUNIT
 70
     2
  9
$DIMDEC
 70
     0
  9
$DIMTDEC
 70
     0
  9
$DIMALTU
 70
     2
  9
$DIMALTTD
 70
     2
  9
$DIMTXSTY
  7
STANDARD
  9
$DIMAUNIT
 70
     0
  9
$LUNITS
 70
     2
  9
$LUPREC
 70
     4
  9
$SKETCHINC
 40
1.0
  9
$FILLETRAD
 40
20.0
  9
$AUNITS
 70
     0
  9
$AUPREC
 70
     0
  9
$MENU
  1
.
  9
$ELEVATION
 40
0.0
  9
$PELEVATION
 40
0.0
  9
$THICKNESS
 40
0.0
  9
$LIMCHECK
 70
     0
  9
$BLIPMODE
 70
     0
  9
$CHAMFERA
 40
20.0
  9
$CHAMFERB
 40
20.0
  9
$CHAMFERC
 40
40.0
  9
$CHAMFERD
 40
0.0
  9
$SKPOLY
 70
     0
  9
$TDCREATE
 40
2450994.354346065
  9
$TDUPDATE
 40
2453802.425563692
  9
$TDINDWG
 40
0.0072206713
  9
$TDUSRTIMER
 40
0.0072206713
  9
$USRTIMER
 70
     1
  9
$ANGBASE
 50
0.0
  9
$ANGDIR
 70
     0
  9
$PDMODE
 70
     0
  9
$PDSIZE
 40
0.0
  9
$PLINEWID
 40
0.0
  9
$COORDS
 70
     1
  9
$SPLFRAME
 70
     0
  9
$SPLINETYPE
 70
     6
  9
$SPLINESEGS
 70
     8
  9
$ATTDIA
 70
     0
  9
$ATTREQ
 70
     1
  9
$HANDLING
 70
 10241
  9
$HANDSEED
  5
784
  9
$SURFTAB1
 70
     6
  9
$SURFTAB2
 70
     6
  9
$SURFTYPE
 70
     6
  9
$SURFU
 70
     6
  9
$SURFV
 70
     6
  9
$UCSNAME
  2

  9
$UCSORG
 10
0.0
 20
0.0
 30
0.0
  9
$UCSXDIR
 10
1.0
 20
0.0
 30
0.0
  9
$UCSYDIR
 10
0.0
 20
1.0
 30
0.0
  9
$PUCSNAME
  2

  9
$PUCSORG
 10
0.0
 20
0.0
 30
0.0
  9
$PUCSXDIR
 10
1.0
 20
0.0
 30
0.0
  9
$PUCSYDIR
 10
0.0
 20
1.0
 30
0.0
  9
$USERI1
 70
     0
  9
$USERI2
 70
     0
  9
$USERI3
 70
     0
  9
$USERI4
 70
     0
  9
$USERI5
 70
     0
  9
$USERR1
 40
0.0
  9
$USERR2
 40
0.0
  9
$USERR3
 40
0.0
  9
$USERR4
 40
0.0
  9
$USERR5
 40
0.0
  9
$WORLDVIEW
 70
     1
  9
$SHADEDGE
 70
     3
  9
$SHADEDIF
 70
    70
  9
$TILEMODE
 70
     1
  9
$MAXACTVP
 70
    16
  9
$PINSBASE
 10
0.0
 20
0.0
 30
0.0
  9
$PLIMCHECK
 70
     0
  9
$PEXTMIN
 10
0.0
 20
0.0
 30
0.0
  9
$PEXTMAX
 10
420.0
 20
297.0
 30
0.0
  9
$PLIMMIN
 10
0.0
 20
0.0
  9
$PLIMMAX
 10
420.0
 20
297.0
  9
$UNITMODE
 70
     0
  9
$VISRETAIN
 70
     0
  9
$PLINEGEN
 70
     0
  9
$PSLTSCALE
 70
     1
  9
$TREEDEPTH
 70
  3020
  9
$PICKSTYLE
 70
     1
  9
$CMLSTYLE
  2
STANDARD
  9
$CMLJUST
 70
     0
  9
$CMLSCALE
 40
1.0
  9
$PROXYGRAPHICS
 70
     1
  9
$MEASUREMENT
 70
     1
  0
ENDSEC
  0
SECTION
  2
CLASSES
  0
CLASS
  1
ACDBDICTIONARYWDFLT
  2
AcDbDictionaryWithDefault
  3
AutoCAD 2000
 90
        0
280
     0
281
     0
  0
CLASS
  1
ACDBPLACEHOLDER
  2
AcDbPlaceHolder
  3
AutoCAD 2000
 90
        0
280
     0
281
     0
  0
CLASS
  1
LAYOUT
  2
AcDbLayout
  3
AutoCAD 2000
 90
        0
280
     0
281
     0
  0
CLASS
  1
LONG_TRANSACTION
  2
AcDbLongTransaction
  3
AutoCAD 2000
 90
        0
280
     0
281
     0
  0
CLASS
  1
LWPOLYLINE
  2
AcDbPolyline
  3
AutoCAD 2000
 90
        0
280
     0
281
     1
  0
CLASS
  1
HATCH
  2
AcDbHatch
  3
AutoCAD 2000
 90
        0
280
     0
281
     1
  0
CLASS
  1
XRECORD
  2
AcDbXrecord
  3
AutoCAD 2000
 90
        0
280
     0
281
     0
  0
CLASS
  1
LONG_TRANSACTION
  2
AcDbLongTransaction
  3
AutoCAD 2000
 90
        0
280
     0
281
     0
  0
CLASS
  1
LWPOLYLINE
  2
AcDbPolyline
  3
AutoCAD 2000
 90
        0
280
     0
281
     1
  0
CLASS
  1
HATCH
  2
AcDbHatch
  3
AutoCAD 2000
 90
        0
280
     0
281
     1
  0
CLASS
  1
XRECORD
  2
AcDbXrecord
  3
AutoCAD 2000
 90
        0
280
     0
281
     0
  0
ENDSEC
  0
SECTION
  2
TABLES
  0
TABLE
  2
VPORT
  5
8
330
0
100
AcDbSymbolTable
 70
     2
  0
VPORT
  5
760
330
8
100
AcDbSymbolTableRecord
100
AcDbViewportTableRecord
  2
*ACTIVE
 70
     0
 10
0.0
 20
0.0
 11
1.0
 21
1.0
 12
431.3651276376049
 22
256.2319653239208
 13
0.0
 23
0.0
 14
5.0
 24
5.0
 15
0.0
 25
0.0
 16
0.0
 26
0.0
 36
1.0
 17
0.0
 27
0.0
 37
0.0
 40
660.3241638258646
 41
1.795454545454545
 42
50.0
 43
0.0
 44
0.0
 50
0.0
 51
0.0
 71
     0
 72
   100
 73
     1
 74
     0
 75
     0
 76
     0
 77
     0
 78
     0
  0
ENDTAB
  0
TABLE
  2
LTYPE
  5
5
330
0
100
AcDbSymbolTable
 70
     3
  0
LTYPE
  5
14
330
5
100
AcDbSymbolTableRecord
100
AcDbLinetypeTableRecord
  2
BYBLOCK
 70
     0
  3

 72
    65
 73
     0
 40
0.0
  0
LTYPE
  5
15
330
5
100
AcDbSymbolTableRecord
100
AcDbLinetypeTableRecord
  2
BYLAYER
 70
     0
  3

 72
    65
 73
     0
 40
0.0
  0
LTYPE
  5
16
330
5
100
AcDbSymbolTableRecord
100
AcDbLinetypeTableRecord
  2
CONTINUOUS
 70
     0
  3
Solid line
 72
    65
 73
     0
 40
0.0
  0
LTYPE
  5
115
330
5
100
AcDbSymbolTableRecord
100
AcDbLinetypeTableRecord
  2
PHANTOM
 70
     0
  3
______  __  __  ______  __  __  ______  __  __ 
 72
    65
 73
     6
 40
2.5
 49
1.25
 74
     0
 49
-0.25
 74
     0
 49
0.25
 74
     0
 49
-0.25
 74
     0
 49
0.25
 74
     0
 49
-0.25
 74
     0
  0
LTYPE
  5
135
330
5
100
AcDbSymbolTableRecord
100
AcDbLinetypeTableRecord
  2
CENTER
 70
     0
  3
____ _ ____ _ ____ _ ____ _ ____ _ ____ _ ____ 
 72
    65
 73
     4
 40
2.0
 49
1.25
 74
     0
 49
-0.25
 74
     0
 49
0.25
 74
     0
 49
-0.25
 74
     0
  0
ENDTAB
  0
TABLE
  2
LAYER
  5
2
330
0
100
AcDbSymbolTable
 70
     9
  0
LAYER
  5
F
330
2
100
AcDbSymbolTableRecord
100
AcDbLayerTableRecord
  2
0
 70
     0
 62
     7
  6
CONTINUOUS
  0
LAYER
  5
62
330
2
100
AcDbSymbolTableRecord
100
AcDbLayerTableRecord
  2
VIEWPORT
 70
     0
 62
     7
  6
CONTINUOUS
  0
LAYER
  5
65
330
2
100
AcDbSymbolTableRecord
100
AcDbLayerTableRecord
  2
ZUWAKU
 70
     0
 62
     7
  6
CONTINUOUS
  0
LAYER
  5
1E1
330
2
100
AcDbSymbolTableRecord
100
AcDbLayerTableRecord
  2
DEFPOINTS
 70
     0
 62
     7
  6
CONTINUOUS
  0
LAYER
  5
1E2
330
2
100
AcDbSymbolTableRecord
100
AcDbLayerTableRecord
  2
SEIHIN
 70
     0
 62
     3
  6
CONTINUOUS
  0
LAYER
  5
1E3
330
2
100
AcDbSymbolTableRecord
100
AcDbLayerTableRecord
  2
SUNPOU
 70
     0
 62
     4
  6
CONTINUOUS
  0
LAYER
  5
1E4
330
2
100
AcDbSymbolTableRecord
100
AcDbLayerTableRecord
  2
CENTER_L
 70
     0
 62
     1
  6
CENTER
  0
LAYER
  5
1E5
330
2
100
AcDbSymbolTableRecord
100
AcDbLayerTableRecord
  2
NOKITOI
 70
     0
 62
     8
  6
PHANTOM
  0
LAYER
  5
5E5
330
2
100
AcDbSymbolTableRecord
100
AcDbLayerTableRecord
  2
MOJI
 70
     0
 62
     2
  6
CONTINUOUS
  0
ENDTAB
  0
TABLE
  2
STYLE
  5
3
330
0
100
AcDbSymbolTable
 70
     2
  0
STYLE
  5
10
330
3
100
AcDbSymbolTableRecord
100
AcDbTextStyleTableRecord
  2
STANDARD
 70
     0
 40
0.0
 41
1.0
 50
0.0
 71
     0
 42
5.0
  3
TXT
  4
bigfont.shx
  0
STYLE
  5
5E6
330
3
100
AcDbSymbolTableRecord
100
AcDbTextStyleTableRecord
  2
ｽﾀｲﾙ1
 70
     0
 40
0.0
 41
1.0
 50
0.0
 71
     0
 42
2.5
  3
MS PGothic.ttf
  4

1001
ACAD
1000
MS PGothic
1071
    32818
  0
ENDTAB
  0
TABLE
  2
VIEW
  5
6
330
0
100
AcDbSymbolTable
 70
     0
  0
ENDTAB
  0
TABLE
  2
UCS
  5
7
330
0
100
AcDbSymbolTable
 70
     0
  0
ENDTAB
  0
TABLE
  2
APPID
  5
9
330
0
100
AcDbSymbolTable
 70
     1
  0
APPID
  5
11
330
9
100
AcDbSymbolTableRecord
100
AcDbRegAppTableRecord
  2
ACAD
 70
     0
  0
ENDTAB
  0
TABLE
  2
DIMSTYLE
  5
A
330
0
100
AcDbSymbolTable
 70
     1
  0
DIMSTYLE
105
1D
102
{ACAD_REACTORS
330
311
330
312
330
313
330
322
330
353
330
364
330
38D
330
39A
330
3B9
330
3BF
330
3C0
102
}
330
A
100
AcDbSymbolTableRecord
100
AcDbDimStyleTableRecord
  2
STANDARD
 70
     0
  3

  4

  5

  6

  7

 40
1.0
 41
0.18
 42
0.0625
 43
0.38
 44
0.18
 45
0.0
 46
0.0
 47
0.0
 48
0.0
140
0.18
141
0.09
142
0.0
143
25.4
144
1.0
145
0.0
146
1.0
147
0.09
 71
     0
 72
     0
 73
     1
 74
     1
 75
     0
 76
     0
 77
     0
 78
     0
170
     0
171
     2
172
     0
173
     0
174
     0
175
     0
176
     0
177
     0
178
     0
270
     2
271
     4
272
     4
273
     2
274
     2
340
10
275
     0
280
     0
281
     0
282
     0
283
     1
284
     0
285
     0
286
     0
287
     3
288
     0
  0
ENDTAB
  0
TABLE
  2
BLOCK_RECORD
  5
1
330
0
100
AcDbSymbolTable
 70
    12
  0
BLOCK_RECORD
  5
1A
102
{ACAD_XDICTIONARY
360
5D7
102
}
330
1
100
AcDbSymbolTableRecord
100
AcDbBlockTableRecord
  2
*MODEL_SPACE
  0
BLOCK_RECORD
  5
17
102
{ACAD_XDICTIONARY
360
5D5
102
}
330
1
100
AcDbSymbolTableRecord
100
AcDbBlockTableRecord
  2
*PAPER_SPACE
  0
BLOCK_RECORD
  5
6D
330
1
100
AcDbSymbolTableRecord
100
AcDbBlockTableRecord
  2
_OPEN
  0
BLOCK_RECORD
  5
438
330
1
100
AcDbSymbolTableRecord
100
AcDbBlockTableRecord
  2
*D1
  0
BLOCK_RECORD
  5
444
330
1
100
AcDbSymbolTableRecord
100
AcDbBlockTableRecord
  2
*D2
  0
BLOCK_RECORD
  5
450
330
1
100
AcDbSymbolTableRecord
100
AcDbBlockTableRecord
  2
*D3
  0
BLOCK_RECORD
  5
45C
330
1
100
AcDbSymbolTableRecord
100
AcDbBlockTableRecord
  2
*D4
  0
BLOCK_RECORD
  5
468
330
1
100
AcDbSymbolTableRecord
100
AcDbBlockTableRecord
  2
*D5
  0
BLOCK_RECORD
  5
474
330
1
100
AcDbSymbolTableRecord
100
AcDbBlockTableRecord
  2
*D6
  0
BLOCK_RECORD
  5
480
330
1
100
AcDbSymbolTableRecord
100
AcDbBlockTableRecord
  2
*D7
  0
BLOCK_RECORD
  5
48C
330
1
100
AcDbSymbolTableRecord
100
AcDbBlockTableRecord
  2
*D8
  0
BLOCK_RECORD
  5
498
330
1
100
AcDbSymbolTableRecord
100
AcDbBlockTableRecord
  2
*D9
  0
BLOCK_RECORD
  5
4A6
330
1
100
AcDbSymbolTableRecord
100
AcDbBlockTableRecord
  2
*D10
  0
BLOCK_RECORD
  5
4B2
330
1
100
AcDbSymbolTableRecord
100
AcDbBlockTableRecord
  2
*D11
  0
ENDTAB
  0
ENDSEC
  0
SECTION
  2
BLOCKS
  0
BLOCK
  5
1B
330
1A
100
AcDbEntity
  8
0
100
AcDbBlockBegin
  2
*MODEL_SPACE
 70
     0
 10
0.0
 20
0.0
 30
0.0
  3
*MODEL_SPACE
  1

  0
ENDBLK
  5
1C
330
1A
100
AcDbEntity
  8
0
100
AcDbBlockEnd
  0
BLOCK
  5
18
330
17
100
AcDbEntity
 67
     1
  8
0
100
AcDbBlockBegin
  2
*PAPER_SPACE
 70
     0
 10
0.0
 20
0.0
 30
0.0
  3
*PAPER_SPACE
  1

  0
ENDBLK
  5
19
330
17
100
AcDbEntity
 67
     1
  8
0
100
AcDbBlockEnd
  0
BLOCK
  5
6E
330
6D
100
AcDbEntity
  8
0
100
AcDbBlockBegin
  2
_OPEN
 70
     0
 10
0.0
 20
0.0
 30
0.0
  3
_OPEN
  1

  0
LINE
  5
6F
330
6D
100
AcDbEntity
  8
0
  6
BYBLOCK
 62
     0
100
AcDbLine
 10
-1.0
 20
0.1666666666666666
 30
0.0
 11
0.0
 21
0.0
 31
0.0
  0
LINE
  5
70
330
6D
100
AcDbEntity
  8
0
  6
BYBLOCK
 62
     0
100
AcDbLine
 10
0.0
 20
0.0
 30
0.0
 11
-1.0
 21
-0.1666666666666666
 31
0.0
  0
LINE
  5
71
330
6D
100
AcDbEntity
  8
0
  6
BYBLOCK
 62
     0
100
AcDbLine
 10
0.0
 20
0.0
 30
0.0
 11
-1.0
 21
0.0
 31
0.0
  0
ENDBLK
  5
72
330
6D
100
AcDbEntity
  8
0
100
AcDbBlockEnd
  0
BLOCK
  5
568
330
438
100
AcDbEntity
  8
0
100
AcDbBlockBegin
  2
*D1
 70
     1
 10
0.0
 20
0.0
 30
0.0
  3
*D1
  1

  0
LINE
  5
569
330
438
100
AcDbEntity
  8
0
  6
BYBLOCK
 62
     4
100
AcDbLine
 10
453.2649249805804
 20
370.8538710252525
 30
0.0
 11
397.0520821538756
 21
370.8538710252525
 31
0.0
  0
LINE
  5
56A
330
438
100
AcDbEntity
  8
0
  6
BYBLOCK
 62
     4
100
AcDbLine
 10
514.6423249805807
 20
171.8540710252525
 30
0.0
 11
397.0520821538756
 21
171.8540710252525
 31
0.0
  0
LINE
  5
56B
330
438
100
AcDbEntity
  8
0
  6
BYBLOCK
 62
     4
100
AcDbLine
 10
400.0520821538755
 20
363.8538710252525
 30
0.0
 11
400.0520821538755
 21
178.8540710252525
 31
0.0
  0
INSERT
  5
56C
330
438
100
AcDbEntity
  8
0
  6
BYBLOCK
 62
     4
100
AcDbBlockReference
  2
_OPEN
 10
400.0520821538755
 20
370.8538710252525
 30
0.0
 41
7.0
 42
7.0
 43
7.0
 50
90.0
  0
INSERT
  5
56D
330
438
100
AcDbEntity
  8
0
  6
BYBLOCK
 62
     4
100
AcDbBlockReference
  2
_OPEN
 10
400.0520821538755
 20
171.8540710252525
 30
0.0
 41
7.0
 42
7.0
 43
7.0
 50
270.0
  0
MTEXT
  5
56E
330
438
100
AcDbEntity
  8
0
  6
BYBLOCK
 62
     4
100
AcDbMText
 10
395.0520821538756
 20
271.3539710252525
 30
0.0
 40
6.0
 41
0.0
 71
     5
 72
     5
  1
\A1;199
 11
0.0
 21
1.0
 31
0.0
1001
ACAD
1000
MTEXTBEGIN
1070
    73
1070
     1
1070
    44
1040
1.0
1070
    74
1070
     0
1000
MTEXTEND
1000
MTEXTBEGIN
1070
    73
1070
     1
1070
    44
1040
1.0
1070
    74
1070
     0
1000
MTEXTEND
  0
POINT
  5
56F
330
438
100
AcDbEntity
  8
DEFPOINTS
  6
BYBLOCK
 62
     0
100
AcDbPoint
 10
459.2649249805804
 20
370.8538710252525
 30
0.0
  0
POINT
  5
570
330
438
100
AcDbEntity
  8
DEFPOINTS
  6
BYBLOCK
 62
     0
100
AcDbPoint
 10
520.6423249805807
 20
171.8540710252525
 30
0.0
  0
POINT
  5
571
330
438
100
AcDbEntity
  8
DEFPOINTS
  6
BYBLOCK
 62
     0
100
AcDbPoint
 10
400.0520821538755
 20
171.8540710252525
 30
0.0
  0
ENDBLK
  5
572
330
438
100
AcDbEntity
  8
0
100
AcDbBlockEnd
  0
BLOCK
  5
55D
330
444
100
AcDbEntity
  8
0
100
AcDbBlockBegin
  2
*D2
 70
     1
 10
0.0
 20
0.0
 30
0.0
  3
*D2
  1

  0
LINE
  5
55E
330
444
100
AcDbEntity
  8
0
  6
BYBLOCK
 62
     4
100
AcDbLine
 10
453.2649249805804
 20
370.8538710252525
 30
0.0
 11
414.758114753671
 21
370.8538710252525
 31
0.0
  0
LINE
  5
55F
330
444
100
AcDbEntity
  8
0
  6
BYBLOCK
 62
     4
100
AcDbLine
 10
504.5961249805809
 20
219.8537710252524
 30
0.0
 11
414.758114753671
 21
219.8537710252524
 31
0.0
  0
LINE
  5
560
330
444
100
AcDbEntity
  8
0
  6
BYBLOCK
 62
     4
100
AcDbLine
 10
417.758114753671
 20
363.8538710252525
 30
0.0
 11
417.758114753671
 21
226.8537710252524
 31
0.0
  0
INSERT
  5
561
330
444
100
AcDbEntity
  8
0
  6
BYBLOCK
 62
     4
100
AcDbBlockReference
  2
_OPEN
 10
417.758114753671
 20
370.8538710252525
 30
0.0
 41
7.0
 42
7.0
 43
7.0
 50
90.0
  0
INSERT
  5
562
330
444
100
AcDbEntity
  8
0
  6
BYBLOCK
 62
     4
100
AcDbBlockReference
  2
_OPEN
 10
417.758114753671
 20
219.8537710252524
 30
0.0
 41
7.0
 42
7.0
 43
7.0
 50
270.0
  0
MTEXT
  5
563
330
444
100
AcDbEntity
  8
0
  6
BYBLOCK
 62
     4
100
AcDbMText
 10
412.7581147536711
 20
293.9788942316172
 30
0.0
 40
6.0
 41
0.0
 71
     5
 72
     5
  1
\A1;151
 11
0.0
 21
1.0
 31
0.0
1001
ACAD
1000
MTEXTBEGIN
1070
    73
1070
     1
1070
    44
1040
1.0
1070
    74
1070
     0
1000
MTEXTEND
1000
MTEXTBEGIN
1070
    73
1070
     1
1070
    44
1040
1.0
1070
    74
1070
     0
1000
MTEXTEND
  0
POINT
  5
564
330
444
100
AcDbEntity
  8
DEFPOINTS
  6
BYBLOCK
 62
     0
100
AcDbPoint
 10
459.2649249805804
 20
370.8538710252525
 30
0.0
  0
POINT
  5
565
330
444
100
AcDbEntity
  8
DEFPOINTS
  6
BYBLOCK
 62
     0
100
AcDbPoint
 10
510.5961249805809
 20
219.8537710252524
 30
0.0
  0
POINT
  5
566
330
444
100
AcDbEntity
  8
DEFPOINTS
  6
BYBLOCK
 62
     0
100
AcDbPoint
 10
417.758114753671
 20
219.8537710252524
 30
0.0
  0
ENDBLK
  5
567
330
444
100
AcDbEntity
  8
0
100
AcDbBlockEnd
  0
BLOCK
  5
552
330
450
100
AcDbEntity
  8
0
100
AcDbBlockBegin
  2
*D3
 70
     1
 10
0.0
 20
0.0
 30
0.0
  3
*D3
  1

  0
LINE
  5
553
330
450
100
AcDbEntity
  8
0
  6
BYBLOCK
 62
     4
100
AcDbLine
 10
453.2649249805804
 20
370.8538710252525
 30
0.0
 11
432.6592681529531
 21
370.8538710252525
 31
0.0
  0
LINE
  5
554
330
450
100
AcDbEntity
  8
0
  6
BYBLOCK
 62
     4
100
AcDbLine
 10
506.2414514019805
 20
297.1906746633525
 30
0.0
 11
432.6592681529531
 21
297.1906746633525
 31
0.0
  0
LINE
  5
555
330
450
100
AcDbEntity
  8
0
  6
BYBLOCK
 62
     4
100
AcDbLine
 10
435.6592681529531
 20
363.8538710252525
 30
0.0
 11
435.6592681529531
 21
304.1906746633524
 31
0.0
  0
INSERT
  5
556
330
450
100
AcDbEntity
  8
0
  6
BYBLOCK
 62
     4
100
AcDbBlockReference
  2
_OPEN
 10
435.6592681529531
 20
370.8538710252525
 30
0.0
 41
7.0
 42
7.0
 43
7.0
 50
90.0
  0
INSERT
  5
557
330
450
100
AcDbEntity
  8
0
  6
BYBLOCK
 62
     4
100
AcDbBlockReference
  2
_OPEN
 10
435.6592681529531
 20
297.1906746633525
 30
0.0
 41
7.0
 42
7.0
 43
7.0
 50
270.0
  0
MTEXT
  5
558
330
450
100
AcDbEntity
  8
0
  6
BYBLOCK
 62
     4
100
AcDbMText
 10
430.6592681529531
 20
334.0222728443025
 30
0.0
 40
6.0
 41
0.0
 71
     5
 72
     5
  1
\A1;74
 11
0.0
 21
1.0
 31
0.0
1001
ACAD
1000
MTEXTBEGIN
1070
    73
1070
     1
1070
    44
1040
1.0
1070
    74
1070
     0
1000
MTEXTEND
1000
MTEXTBEGIN
1070
    73
1070
     1
1070
    44
1040
1.0
1070
    74
1070
     0
1000
MTEXTEND
  0
POINT
  5
559
330
450
100
AcDbEntity
  8
DEFPOINTS
  6
BYBLOCK
 62
     0
100
AcDbPoint
 10
459.2649249805804
 20
370.8538710252525
 30
0.0
  0
POINT
  5
55A
330
450
100
AcDbEntity
  8
DEFPOINTS
  6
BYBLOCK
 62
     0
100
AcDbPoint
 10
512.2414514019806
 20
297.1906746633525
 30
0.0
  0
POINT
  5
55B
330
450
100
AcDbEntity
  8
DEFPOINTS
  6
BYBLOCK
 62
     0
100
AcDbPoint
 10
435.6592681529531
 20
297.1906746633525
 30
0.0
  0
ENDBLK
  5
55C
330
450
100
AcDbEntity
  8
0
100
AcDbBlockEnd
  0
BLOCK
  5
573
330
45C
100
AcDbEntity
  8
0
100
AcDbBlockBegin
  2
*D4
 70
     1
 10
0.0
 20
0.0
 30
0.0
  3
*D4
  1

  0
LINE
  5
574
330
45C
100
AcDbEntity
  8
0
  6
BYBLOCK
 62
     4
100
AcDbLine
 10
280.3934888211443
 20
213.8537406971947
 30
0.0
 11
280.3934888211443
 21
134.1173738292239
 31
0.0
  0
LINE
  5
575
330
45C
100
AcDbEntity
  8
0
  6
BYBLOCK
 62
     4
100
AcDbLine
 10
184.3936246035223
 20
213.8537866748606
 30
0.0
 11
184.3936246035223
 21
134.1173738292239
 31
0.0
  0
LINE
  5
576
330
45C
100
AcDbEntity
  8
0
  6
BYBLOCK
 62
     4
100
AcDbLine
 10
273.3934888211444
 20
137.1173738292239
 30
0.0
 11
191.3936246035223
 21
137.1173738292239
 31
0.0
  0
INSERT
  5
577
330
45C
100
AcDbEntity
  8
0
  6
BYBLOCK
 62
     4
100
AcDbBlockReference
  2
_OPEN
 10
280.3934888211443
 20
137.1173738292239
 30
0.0
 41
7.0
 42
7.0
 43
7.0
  0
INSERT
  5
578
330
45C
100
AcDbEntity
  8
0
  6
BYBLOCK
 62
     4
100
AcDbBlockReference
  2
_OPEN
 10
184.3936246035223
 20
137.1173738292239
 30
0.0
 41
7.0
 42
7.0
 43
7.0
 50
180.0
  0
MTEXT
  5
579
330
45C
100
AcDbEntity
  8
0
  6
BYBLOCK
 62
     4
100
AcDbMText
 10
232.3935567123333
 20
142.1173738292239
 30
0.0
 40
6.0
 41
0.0
 71
     5
 72
     5
  1
\A1;96
1001
ACAD
1000
MTEXTBEGIN
1070
    73
1070
     1
1070
    44
1040
1.0
1070
    74
1070
     0
1000
MTEXTEND
1000
MTEXTBEGIN
1070
    73
1070
     1
1070
    44
1040
1.0
1070
    74
1070
     0
1000
MTEXTEND
  0
POINT
  5
57A
330
45C
100
AcDbEntity
  8
DEFPOINTS
  6
BYBLOCK
 62
     0
100
AcDbPoint
 10
280.3934888211443
 20
219.8537406971947
 30
0.0
  0
POINT
  5
57B
330
45C
100
AcDbEntity
  8
DEFPOINTS
  6
BYBLOCK
 62
     0
100
AcDbPoint
 10
184.3936246035223
 20
219.8537866748606
 30
0.0
  0
POINT
  5
57C
330
45C
100
AcDbEntity
  8
DEFPOINTS
  6
BYBLOCK
 62
     0
100
AcDbPoint
 10
184.3936246035223
 20
137.1173738292239
 30
0.0
  0
ENDBLK
  5
57D
330
45C
100
AcDbEntity
  8
0
100
AcDbBlockEnd
  0
BLOCK
  5
594
330
468
100
AcDbEntity
  8
0
100
AcDbBlockBegin
  2
*D5
 70
     1
 10
0.0
 20
0.0
 30
0.0
  3
*D5
  1

  0
LINE
  5
595
330
468
100
AcDbEntity
  8
0
  6
BYBLOCK
 62
     4
100
AcDbLine
 10
320.3936657167978
 20
376.8539710252525
 30
0.0
 11
320.3936657167978
 21
431.5431218271883
 31
0.0
  0
LINE
  5
596
330
468
100
AcDbEntity
  8
0
  6
BYBLOCK
 62
     4
100
AcDbLine
 10
144.3935857167978
 20
376.8539710252525
 30
0.0
 11
144.3935857167978
 21
431.5431218271883
 31
0.0
  0
LINE
  5
597
330
468
100
AcDbEntity
  8
0
  6
BYBLOCK
 62
     4
100
AcDbLine
 10
313.3936657167978
 20
428.5431218271884
 30
0.0
 11
151.3935857167978
 21
428.5431218271884
 31
0.0
  0
INSERT
  5
598
330
468
100
AcDbEntity
  8
0
  6
BYBLOCK
 62
     4
100
AcDbBlockReference
  2
_OPEN
 10
320.3936657167978
 20
428.5431218271884
 30
0.0
 41
7.0
 42
7.0
 43
7.0
  0
INSERT
  5
599
330
468
100
AcDbEntity
  8
0
  6
BYBLOCK
 62
     4
100
AcDbBlockReference
  2
_OPEN
 10
144.3935857167978
 20
428.5431218271884
 30
0.0
 41
7.0
 42
7.0
 43
7.0
 50
180.0
  0
MTEXT
  5
59A
330
468
100
AcDbEntity
  8
0
  6
BYBLOCK
 62
     4
100
AcDbMText
 10
232.3936257167978
 20
433.5431218271883
 30
0.0
 40
6.0
 41
0.0
 71
     5
 72
     5
  1
\A1;176
1001
ACAD
1000
MTEXTBEGIN
1070
    73
1070
     1
1070
    44
1040
1.0
1070
    74
1070
     0
1000
MTEXTEND
1000
MTEXTBEGIN
1070
    73
1070
     1
1070
    44
1040
1.0
1070
    74
1070
     0
1000
MTEXTEND
  0
POINT
  5
59B
330
468
100
AcDbEntity
  8
DEFPOINTS
  6
BYBLOCK
 62
     0
100
AcDbPoint
 10
320.3936657167978
 20
370.8539710252525
 30
0.0
  0
POINT
  5
59C
330
468
100
AcDbEntity
  8
DEFPOINTS
  6
BYBLOCK
 62
     0
100
AcDbPoint
 10
144.3935857167978
 20
370.8539710252525
 30
0.0
  0
POINT
  5
59D
330
468
100
AcDbEntity
  8
DEFPOINTS
  6
BYBLOCK
 62
     0
100
AcDbPoint
 10
144.3935857167978
 20
428.5431218271884
 30
0.0
  0
ENDBLK
  5
59E
330
468
100
AcDbEntity
  8
0
100
AcDbBlockEnd
  0
BLOCK
  5
4F5
330
474
100
AcDbEntity
  8
0
100
AcDbBlockBegin
  2
*D6
 70
     1
 10
0.0
 20
0.0
 30
0.0
  3
*D6
  1

  0
LINE
  5
4F6
330
474
100
AcDbEntity
  8
0
  6
BYBLOCK
 62
     4
100
AcDbLine
 10
263.5278877963041
 20
392.7221371453739
 30
0.0
 11
263.5278877963041
 21
424.4123356083126
 31
0.0
  0
LINE
  5
4F7
330
474
100
AcDbEntity
  8
0
  6
BYBLOCK
 62
     4
100
AcDbLine
 10
203.5278877963042
 20
392.7221371451342
 30
0.0
 11
203.5278877963042
 21
424.4123356083126
 31
0.0
  0
LINE
  5
4F8
330
474
100
AcDbEntity
  8
0
  6
BYBLOCK
 62
     4
100
AcDbLine
 10
256.5278877963041
 20
421.4123356083126
 30
0.0
 11
210.5278877963042
 21
421.4123356083126
 31
0.0
  0
INSERT
  5
4F9
330
474
100
AcDbEntity
  8
0
  6
BYBLOCK
 62
     4
100
AcDbBlockReference
  2
_OPEN
 10
263.5278877963041
 20
421.4123356083126
 30
0.0
 41
7.0
 42
7.0
 43
7.0
  0
INSERT
  5
4FA
330
474
100
AcDbEntity
  8
0
  6
BYBLOCK
 62
     4
100
AcDbBlockReference
  2
_OPEN
 10
203.5278877963042
 20
421.4123356083126
 30
0.0
 41
7.0
 42
7.0
 43
7.0
 50
180.0
  0
MTEXT
  5
4FB
330
474
100
AcDbEntity
  8
0
  6
BYBLOCK
 62
     4
100
AcDbMText
 10
233.5278877963042
 20
426.4123356083126
 30
0.0
 40
6.0
 41
0.0
 71
     5
 72
     5
  1
\A1;※a60
1001
ACAD
1000
MTEXTBEGIN
1070
    73
1070
     1
1070
    44
1040
1.0
1070
    74
1070
     0
1000
MTEXTEND
1000
MTEXTBEGIN
1070
    73
1070
     1
1070
    44
1040
1.0
1070
    74
1070
     0
1000
MTEXTEND
  0
POINT
  5
4FC
330
474
100
AcDbEntity
  8
DEFPOINTS
  6
BYBLOCK
 62
     0
100
AcDbPoint
 10
263.5278877963041
 20
386.7221371453739
 30
0.0
  0
POINT
  5
4FD
330
474
100
AcDbEntity
  8
DEFPOINTS
  6
BYBLOCK
 62
     0
100
AcDbPoint
 10
203.5278877963042
 20
386.7221371451343
 30
0.0
  0
POINT
  5
4FE
330
474
100
AcDbEntity
  8
DEFPOINTS
  6
BYBLOCK
 62
     0
100
AcDbPoint
 10
203.5278877963042
 20
421.4123356083126
 30
0.0
  0
ENDBLK
  5
4FF
330
474
100
AcDbEntity
  8
0
100
AcDbBlockEnd
  0
BLOCK
  5
589
330
480
100
AcDbEntity
  8
0
100
AcDbBlockBegin
  2
*D7
 70
     1
 10
0.0
 20
0.0
 30
0.0
  3
*D7
  1

  0
LINE
  5
58A
330
480
100
AcDbEntity
  8
0
  6
BYBLOCK
 62
     4
100
AcDbLine
 10
621.4648249805809
 20
360.8538710252525
 30
0.0
 11
646.2025445937355
 21
360.8538710252525
 31
0.0
  0
LINE
  5
58B
330
480
100
AcDbEntity
  8
0
  6
BYBLOCK
 62
     4
100
AcDbLine
 10
563.6761514019804
 20
297.1906746633525
 30
0.0
 11
646.2025445937355
 21
297.1906746633525
 31
0.0
  0
LINE
  5
58C
330
480
100
AcDbEntity
  8
0
  6
BYBLOCK
 62
     4
100
AcDbLine
 10
643.2025445937355
 20
353.8538710252525
 30
0.0
 11
643.2025445937355
 21
304.1906746633524
 31
0.0
  0
INSERT
  5
58D
330
480
100
AcDbEntity
  8
0
  6
BYBLOCK
 62
     4
100
AcDbBlockReference
  2
_OPEN
 10
643.2025445937355
 20
360.8538710252525
 30
0.0
 41
7.0
 42
7.0
 43
7.0
 50
90.0
  0
INSERT
  5
58E
330
480
100
AcDbEntity
  8
0
  6
BYBLOCK
 62
     4
100
AcDbBlockReference
  2
_OPEN
 10
643.2025445937355
 20
297.1906746633525
 30
0.0
 41
7.0
 42
7.0
 43
7.0
 50
270.0
  0
MTEXT
  5
58F
330
480
100
AcDbEntity
  8
0
  6
BYBLOCK
 62
     4
100
AcDbMText
 10
638.2025445937355
 20
329.0222728443024
 30
0.0
 40
6.0
 41
0.0
 71
     5
 72
     5
  1
\A1;64
 11
0.0
 21
1.0
 31
0.0
1001
ACAD
1000
MTEXTBEGIN
1070
    73
1070
     1
1070
    44
1040
1.0
1070
    74
1070
     0
1000
MTEXTEND
1000
MTEXTBEGIN
1070
    73
1070
     1
1070
    44
1040
1.0
1070
    74
1070
     0
1000
MTEXTEND
  0
POINT
  5
590
330
480
100
AcDbEntity
  8
DEFPOINTS
  6
BYBLOCK
 62
     0
100
AcDbPoint
 10
615.4648249805809
 20
360.8538710252525
 30
0.0
  0
POINT
  5
591
330
480
100
AcDbEntity
  8
DEFPOINTS
  6
BYBLOCK
 62
     0
100
AcDbPoint
 10
557.6761514019803
 20
297.1906746633525
 30
0.0
  0
POINT
  5
592
330
480
100
AcDbEntity
  8
DEFPOINTS
  6
BYBLOCK
 62
     0
100
AcDbPoint
 10
643.2025445937355
 20
297.1906746633525
 30
0.0
  0
ENDBLK
  5
593
330
480
100
AcDbEntity
  8
0
100
AcDbBlockEnd
  0
BLOCK
  5
57E
330
48C
100
AcDbEntity
  8
0
100
AcDbBlockBegin
  2
*D8
 70
     1
 10
0.0
 20
0.0
 30
0.0
  3
*D8
  1

  0
LINE
  5
57F
330
48C
100
AcDbEntity
  8
0
  6
BYBLOCK
 62
     4
100
AcDbLine
 10
514.392224980537
 20
170.160396286035
 30
0.0
 11
514.392224980537
 21
134.1173738292239
 31
0.0
  0
LINE
  5
580
330
48C
100
AcDbEntity
  8
0
  6
BYBLOCK
 62
     4
100
AcDbLine
 10
597.3922249806244
 20
170.1603962860349
 30
0.0
 11
597.3922249806244
 21
134.1173738292239
 31
0.0
  0
LINE
  5
581
330
48C
100
AcDbEntity
  8
0
  6
BYBLOCK
 62
     4
100
AcDbLine
 10
521.3922249805371
 20
137.1173738292239
 30
0.0
 11
590.3922249806243
 21
137.1173738292239
 31
0.0
  0
INSERT
  5
582
330
48C
100
AcDbEntity
  8
0
  6
BYBLOCK
 62
     4
100
AcDbBlockReference
  2
_OPEN
 10
514.392224980537
 20
137.1173738292239
 30
0.0
 41
7.0
 42
7.0
 43
7.0
 50
180.0
  0
INSERT
  5
583
330
48C
100
AcDbEntity
  8
0
  6
BYBLOCK
 62
     4
100
AcDbBlockReference
  2
_OPEN
 10
597.3922249806244
 20
137.1173738292239
 30
0.0
 41
7.0
 42
7.0
 43
7.0
  0
MTEXT
  5
584
330
48C
100
AcDbEntity
  8
0
  6
BYBLOCK
 62
     4
100
AcDbMText
 10
555.8922249805807
 20
142.1173738292239
 30
0.0
 40
6.0
 41
0.0
 71
     5
 72
     5
  1
\A1;φ83
1001
ACAD
1000
MTEXTBEGIN
1070
    73
1070
     1
1070
    44
1040
1.0
1070
    74
1070
     0
1000
MTEXTEND
1000
MTEXTBEGIN
1070
    73
1070
     1
1070
    44
1040
1.0
1070
    74
1070
     0
1000
MTEXTEND
  0
POINT
  5
585
330
48C
100
AcDbEntity
  8
DEFPOINTS
  6
BYBLOCK
 62
     0
100
AcDbPoint
 10
514.392224980537
 20
176.160396286035
 30
0.0
  0
POINT
  5
586
330
48C
100
AcDbEntity
  8
DEFPOINTS
  6
BYBLOCK
 62
     0
100
AcDbPoint
 10
597.3922249806244
 20
176.1603962860349
 30
0.0
  0
POINT
  5
587
330
48C
100
AcDbEntity
  8
DEFPOINTS
  6
BYBLOCK
 62
     0
100
AcDbPoint
 10
597.3922249806244
 20
137.1173738292239
 30
0.0
  0
ENDBLK
  5
588
330
48C
100
AcDbEntity
  8
0
100
AcDbBlockEnd
  0
BLOCK
  5
516
330
498
100
AcDbEntity
  8
0
100
AcDbBlockBegin
  2
*D9
 70
     1
 10
0.0
 20
0.0
 30
0.0
  3
*D9
  1

  0
LINE
  5
517
330
498
100
AcDbEntity
  8
0
  6
BYBLOCK
 62
     4
100
AcDbLine
 10
605.7011497316941
 20
202.0284964968851
 30
0.0
 11
648.231529618827
 21
202.0284964968851
 31
0.0
  0
LINE
  5
518
330
498
100
AcDbEntity
  8
0
  6
BYBLOCK
 62
     4
100
AcDbLine
 10
604.5265990824307
 20
192.0284964969676
 30
0.0
 11
648.231529618827
 21
192.0284964969676
 31
0.0
  0
LINE
  5
519
330
498
100
AcDbEntity
  8
0
  6
BYBLOCK
 62
     4
100
AcDbLine
 10
645.231529618827
 20
209.0284964968851
 30
0.0
 11
645.231529618827
 21
216.0284964968851
 31
0.0
  0
LINE
  5
51A
330
498
100
AcDbEntity
  8
0
  6
BYBLOCK
 62
     4
100
AcDbLine
 10
645.231529618827
 20
185.0284964969676
 30
0.0
 11
645.231529618827
 21
153.8284964969676
 31
0.0
  0
LINE
  5
51B
330
498
100
AcDbEntity
  8
0
  6
BYBLOCK
 62
     4
100
AcDbLine
 10
645.231529618827
 20
202.0284964968851
 30
0.0
 11
645.231529618827
 21
192.0284964969676
 31
0.0
  0
INSERT
  5
51C
330
498
100
AcDbEntity
  8
0
  6
BYBLOCK
 62
     4
100
AcDbBlockReference
  2
_OPEN
 10
645.231529618827
 20
202.0284964968851
 30
0.0
 41
7.0
 42
7.0
 43
7.0
 50
270.0
  0
INSERT
  5
51D
330
498
100
AcDbEntity
  8
0
  6
BYBLOCK
 62
     4
100
AcDbBlockReference
  2
_OPEN
 10
645.231529618827
 20
192.0284964969676
 30
0.0
 41
7.0
 42
7.0
 43
7.0
 50
90.0
  0
MTEXT
  5
51E
330
498
100
AcDbEntity
  8
0
  6
BYBLOCK
 62
     4
100
AcDbMText
 10
640.231529618827
 20
165.9284964969676
 30
0.0
 40
6.0
 41
0.0
 71
     5
 72
     5
  1
\A1;※b10
 11
0.0
 21
1.0
 31
0.0
1001
ACAD
1000
MTEXTBEGIN
1070
    73
1070
     1
1070
    44
1040
1.0
1070
    74
1070
     0
1000
MTEXTEND
1000
MTEXTBEGIN
1070
    73
1070
     1
1070
    44
1040
1.0
1070
    74
1070
     0
1000
MTEXTEND
  0
POINT
  5
51F
330
498
100
AcDbEntity
  8
DEFPOINTS
  6
BYBLOCK
 62
     0
100
AcDbPoint
 10
599.7011497316941
 20
202.0284964968851
 30
0.0
  0
POINT
  5
520
330
498
100
AcDbEntity
  8
DEFPOINTS
  6
BYBLOCK
 62
     0
100
AcDbPoint
 10
598.5265990824307
 20
192.0284964969676
 30
0.0
  0
POINT
  5
521
330
498
100
AcDbEntity
  8
DEFPOINTS
  6
BYBLOCK
 62
     0
100
AcDbPoint
 10
645.231529618827
 20
192.0284964969676
 30
0.0
  0
ENDBLK
  5
522
330
498
100
AcDbEntity
  8
0
100
AcDbBlockEnd
  0
BLOCK
  5
523
330
4A6
100
AcDbEntity
  8
0
100
AcDbBlockBegin
  2
*D10
 70
     1
 10
0.0
 20
0.0
 30
0.0
  3
*D10
  1

  0
LINE
  5
524
330
4A6
100
AcDbEntity
  8
0
  6
BYBLOCK
 62
     4
100
AcDbLine
 10
460.3992990823867
 20
392.7219712361852
 30
0.0
 11
460.3992990823867
 21
446.4111616105093
 31
0.0
  0
LINE
  5
525
330
4A6
100
AcDbEntity
  8
0
  6
BYBLOCK
 62
     4
100
AcDbLine
 10
616.5991990823872
 20
382.7219712361852
 30
0.0
 11
616.5991990823872
 21
446.4111616105093
 31
0.0
  0
LINE
  5
526
330
4A6
100
AcDbEntity
  8
0
  6
BYBLOCK
 62
     4
100
AcDbLine
 10
467.3992990823867
 20
443.4111616105092
 30
0.0
 11
609.5991990823872
 21
443.4111616105092
 31
0.0
  0
INSERT
  5
527
330
4A6
100
AcDbEntity
  8
0
  6
BYBLOCK
 62
     4
100
AcDbBlockReference
  2
_OPEN
 10
460.3992990823867
 20
443.4111616105092
 30
0.0
 41
7.0
 42
7.0
 43
7.0
 50
180.0
  0
INSERT
  5
528
330
4A6
100
AcDbEntity
  8
0
  6
BYBLOCK
 62
     4
100
AcDbBlockReference
  2
_OPEN
 10
616.5991990823872
 20
443.4111616105092
 30
0.0
 41
7.0
 42
7.0
 43
7.0
  0
MTEXT
  5
529
330
4A6
100
AcDbEntity
  8
0
  6
BYBLOCK
 62
     4
100
AcDbMText
 10
538.4992490823869
 20
448.4111616105092
 30
0.0
 40
6.0
 41
0.0
 71
     5
 72
     5
  1
\A1;156
1001
ACAD
1000
MTEXTBEGIN
1070
    73
1070
     1
1070
    44
1040
1.0
1070
    74
1070
     0
1000
MTEXTEND
1000
MTEXTBEGIN
1070
    73
1070
     1
1070
    44
1040
1.0
1070
    74
1070
     0
1000
MTEXTEND
  0
POINT
  5
52A
330
4A6
100
AcDbEntity
  8
DEFPOINTS
  6
BYBLOCK
 62
     0
100
AcDbPoint
 10
460.3992990823867
 20
386.7219712361852
 30
0.0
  0
POINT
  5
52B
330
4A6
100
AcDbEntity
  8
DEFPOINTS
  6
BYBLOCK
 62
     0
100
AcDbPoint
 10
616.5991990823872
 20
376.7219712361852
 30
0.0
  0
POINT
  5
52C
330
4A6
100
AcDbEntity
  8
DEFPOINTS
  6
BYBLOCK
 62
     0
100
AcDbPoint
 10
616.5991990823872
 20
443.4111616105092
 30
0.0
  0
ENDBLK
  5
52D
330
4A6
100
AcDbEntity
  8
0
100
AcDbBlockEnd
  0
BLOCK
  5
52E
330
4B2
100
AcDbEntity
  8
0
100
AcDbBlockBegin
  2
*D11
 70
     1
 10
0.0
 20
0.0
 30
0.0
  3
*D11
  1

  0
LINE
  5
52F
330
4B2
100
AcDbEntity
  8
0
  6
BYBLOCK
 62
     4
100
AcDbLine
 10
550.0991990823872
 20
347.3843490139851
 30
0.0
 11
550.0991990823872
 21
418.912629781755
 31
0.0
  0
LINE
  5
530
330
4B2
100
AcDbEntity
  8
0
  6
BYBLOCK
 62
     4
100
AcDbLine
 10
616.5991990823872
 20
382.7219712361852
 30
0.0
 11
616.5991990823872
 21
418.912629781755
 31
0.0
  0
LINE
  5
531
330
4B2
100
AcDbEntity
  8
0
  6
BYBLOCK
 62
     4
100
AcDbLine
 10
557.0991990823872
 20
415.9126297817549
 30
0.0
 11
609.5991990823872
 21
415.9126297817549
 31
0.0
  0
INSERT
  5
532
330
4B2
100
AcDbEntity
  8
0
  6
BYBLOCK
 62
     4
100
AcDbBlockReference
  2
_OPEN
 10
550.0991990823872
 20
415.9126297817549
 30
0.0
 41
7.0
 42
7.0
 43
7.0
 50
180.0
  0
INSERT
  5
533
330
4B2
100
AcDbEntity
  8
0
  6
BYBLOCK
 62
     4
100
AcDbBlockReference
  2
_OPEN
 10
616.5991990823872
 20
415.9126297817549
 30
0.0
 41
7.0
 42
7.0
 43
7.0
  0
MTEXT
  5
534
330
4B2
100
AcDbEntity
  8
0
  6
BYBLOCK
 62
     4
100
AcDbMText
 10
583.3491990823872
 20
420.912629781755
 30
0.0
 40
6.0
 41
0.0
 71
     5
 72
     5
  1
\A1;67
1001
ACAD
1000
MTEXTBEGIN
1070
    73
1070
     1
1070
    44
1040
1.0
1070
    74
1070
     0
1000
MTEXTEND
1000
MTEXTBEGIN
1070
    73
1070
     1
1070
    44
1040
1.0
1070
    74
1070
     0
1000
MTEXTEND
  0
POINT
  5
535
330
4B2
100
AcDbEntity
  8
DEFPOINTS
  6
BYBLOCK
 62
     0
100
AcDbPoint
 10
550.0991990823872
 20
341.3843490139851
 30
0.0
  0
POINT
  5
536
330
4B2
100
AcDbEntity
  8
DEFPOINTS
  6
BYBLOCK
 62
     0
100
AcDbPoint
 10
616.5991990823872
 20
376.7219712361852
 30
0.0
  0
POINT
  5
537
330
4B2
100
AcDbEntity
  8
DEFPOINTS
  6
BYBLOCK
 62
     0
100
AcDbPoint
 10
616.5991990823872
 20
415.9126297817549
 30
0.0
  0
ENDBLK
  5
538
330
4B2
100
AcDbEntity
  8
0
100
AcDbBlockEnd
  0
ENDSEC
  0
SECTION
  2
ENTITIES
  0
DIMENSION
  5
311
330
1A
100
AcDbEntity
  8
SUNPOU
100
AcDbDimension
  2
*D1
 10
400.0520821538755
 20
171.8540710252525
 30
0.0
 11
395.0520821538756
 21
271.3539710252525
 31
0.0
 70
    32
  3
STANDARD
100
AcDbAlignedDimension
 13
459.2649249805804
 23
370.8538710252525
 33
0.0
 14
520.6423249805807
 24
171.8540710252525
 34
0.0
 50
90.0
100
AcDbRotatedDimension
1001
ACAD
1000
DSTYLE
1002
{
1070
   140
1040
6.0
1070
    74
1070
     0
1070
   172
1070
     1
1070
    73
1070
     0
1070
   272
1070
     2
1070
    77
1070
     3
1070
   173
1070
     1
1070
   147
1040
2.0
1070
    42
1040
6.0
1070
    44
1040
3.0
1070
    43
1040
14.0
1070
   271
1070
     0
1070
   178
1070
     4
1070
   177
1070
     4
1070
   176
1070
     4
1070
   141
1040
150.0
1070
     7
1000
_OPEN
1070
     6
1000
_OPEN
1070
    41
1040
7.0
1002
}
  0
DIMENSION
  5
312
330
1A
100
AcDbEntity
  8
SUNPOU
100
AcDbDimension
  2
*D2
 10
417.758114753671
 20
219.8537710252524
 30
0.0
 11
417.758114753671
 21
293.9788942316172
 31
0.0
 70
   160
  3
STANDARD
100
AcDbAlignedDimension
 13
459.2649249805804
 23
370.8538710252525
 33
0.0
 14
510.5961249805809
 24
219.8537710252524
 34
0.0
 50
90.0
100
AcDbRotatedDimension
1001
ACAD
1000
DSTYLE
1002
{
1070
   140
1040
6.0
1070
    74
1070
     0
1070
   172
1070
     1
1070
    73
1070
     0
1070
   272
1070
     2
1070
    77
1070
     3
1070
   173
1070
     1
1070
   147
1040
2.0
1070
    42
1040
6.0
1070
    44
1040
3.0
1070
    43
1040
14.0
1070
   271
1070
     0
1070
   178
1070
     4
1070
   177
1070
     4
1070
   176
1070
     4
1070
   141
1040
150.0
1070
     7
1000
_OPEN
1070
     6
1000
_OPEN
1070
    41
1040
7.0
1002
}
  0
DIMENSION
  5
313
330
1A
100
AcDbEntity
  8
SUNPOU
100
AcDbDimension
  2
*D3
 10
435.6592681529531
 20
297.1906746633525
 30
0.0
 11
430.6592681529531
 21
334.0222728443025
 31
0.0
 70
    32
  3
STANDARD
100
AcDbAlignedDimension
 13
459.2649249805804
 23
370.8538710252525
 33
0.0
 14
512.2414514019806
 24
297.1906746633525
 34
0.0
 50
90.0
100
AcDbRotatedDimension
1001
ACAD
1000
DSTYLE
1002
{
1070
   140
1040
6.0
1070
    74
1070
     0
1070
   172
1070
     1
1070
    73
1070
     0
1070
   272
1070
     2
1070
    77
1070
     3
1070
   173
1070
     1
1070
   147
1040
2.0
1070
    42
1040
6.0
1070
    44
1040
3.0
1070
    43
1040
14.0
1070
   271
1070
     0
1070
   178
1070
     4
1070
   177
1070
     4
1070
   176
1070
     4
1070
   141
1040
150.0
1070
     7
1000
_OPEN
1070
     6
1000
_OPEN
1070
    41
1040
7.0
1002
}
  0
LINE
  5
314
330
1A
100
AcDbEntity
  8
SEIHIN
  6
CONTINUOUS
 62
     3
 48
32.0
100
AcDbLine
 10
292.3773657167978
 20
287.8795710252524
 30
0.0
 11
296.5107657167978
 21
327.7110710252524
 31
0.0
  0
LINE
  5
315
330
1A
100
AcDbEntity
  8
SEIHIN
  6
CONTINUOUS
 62
     3
 48
32.0
100
AcDbLine
 10
301.3773657167978
 20
287.8795710252524
 30
0.0
 11
307.3935657167978
 21
345.8538710252525
 31
0.0
  0
LINE
  5
316
330
1A
100
AcDbEntity
  8
SEIHIN
  6
CONTINUOUS
 62
     3
 48
32.0
100
AcDbLine
 10
172.4097657167979
 20
287.8796710252524
 30
0.0
 11
168.2762657167977
 21
327.7111710252524
 31
0.0
  0
LINE
  5
317
330
1A
100
AcDbEntity
  8
SEIHIN
  6
CONTINUOUS
 62
     3
 48
32.0
100
AcDbLine
 10
163.4097657167979
 20
287.8796710252524
 30
0.0
 11
157.3935657167979
 21
345.8539710252525
 31
0.0
  0
LINE
  5
318
330
1A
100
AcDbEntity
  8
SEIHIN
  6
CONTINUOUS
 62
     3
 48
32.0
100
AcDbLine
 10
277.3616047448977
 20
314.9089279517525
 30
0.0
 11
273.4878527950977
 21
260.6741316622524
 31
0.0
  0
LINE
  5
319
330
1A
100
AcDbEntity
  8
SEIHIN
  6
CONTINUOUS
 62
     3
 48
32.0
100
AcDbLine
 10
187.4254657167978
 20
314.9089710252524
 30
0.0
 11
191.2991657167977
 21
260.6741710252524
 31
0.0
  0
LINE
  5
31A
330
1A
100
AcDbEntity
  8
SEIHIN
  6
CONTINUOUS
 62
     3
 48
32.0
100
AcDbLine
 10
198.2361657167978
 20
247.7692710252524
 30
0.0
 11
193.7480657167978
 21
310.6057710252524
 31
0.0
  0
LINE
  5
31B
330
1A
100
AcDbEntity
  8
SEIHIN
  6
CONTINUOUS
 62
     3
 48
32.0
100
AcDbLine
 10
195.8422657167978
 20
309.3589710252524
 30
0.0
 11
200.4138657167978
 21
245.3540710252525
 31
0.0
  0
LINE
  5
31C
330
1A
100
AcDbEntity
  8
SEIHIN
  6
CONTINUOUS
 62
     3
 48
32.0
100
AcDbLine
 10
266.5508657167979
 20
247.7692710252524
 30
0.0
 11
271.0390657167977
 21
310.6057710252524
 31
0.0
  0
LINE
  5
31D
330
1A
100
AcDbEntity
  8
SEIHIN
  6
CONTINUOUS
 62
     3
 48
32.0
100
AcDbLine
 10
268.9448657167977
 20
309.3589710252524
 30
0.0
 11
264.3732657167979
 21
245.3539710252524
 31
0.0
  0
LINE
  5
31E
330
1A
100
AcDbEntity
  8
CENTER_L
  6
CENTER
 62
     1
 48
5.0
100
AcDbLine
 10
232.3935136944978
 20
160.8361262198523
 30
0.0
 11
232.3935136944978
 21
377.8540710250843
 31
0.0
  0
ARC
  5
31F
330
1A
100
AcDbEntity
  8
SEIHIN
  6
CONTINUOUS
 62
     3
 48
32.0
100
AcDbCircle
 10
267.3066657167978
 20
263.7884710252524
 30
0.0
 40
30.00006086289999
100
AcDbArc
 50
307.5462693483
 51
348.2339313505999
  0
ARC
  5
320
330
1A
100
AcDbEntity
  8
SEIHIN
  6
CONTINUOUS
 62
     3
 48
32.0
100
AcDbCircle
 10
258.3066657167978
 20
263.7884710252524
 30
0.0
 40
30.00006086289999
100
AcDbArc
 50
307.5462693483
 51
348.2339313505999
  0
ARC
  5
321
330
1A
100
AcDbEntity
  8
SEIHIN
  6
CONTINUOUS
 62
     3
 48
32.0
100
AcDbCircle
 10
-6.020204283202019
 20
318.8455710252524
 30
0.0
 40
300.0000068307
100
AcDbArc
 50
348.2338733151
 51
354.0752423355
  0
DIMENSION
  5
322
330
1A
100
AcDbEntity
  8
SUNPOU
100
AcDbDimension
  2
*D4
 10
184.3936246035223
 20
137.1173738292239
 30
0.0
 11
232.3935567123333
 21
142.1173738292239
 31
0.0
 70
    32
  3
STANDARD
100
AcDbAlignedDimension
 13
280.3934888211443
 23
219.8537406971947
 33
0.0
 14
184.3936246035223
 24
219.8537866748606
 34
0.0
100
AcDbRotatedDimension
1001
ACAD
1000
DSTYLE
1002
{
1070
   140
1040
6.0
1070
    74
1070
     0
1070
   172
1070
     1
1070
    73
1070
     0
1070
   272
1070
     2
1070
    77
1070
     3
1070
   173
1070
     1
1070
   147
1040
2.0
1070
    42
1040
6.0
1070
    44
1040
3.0
1070
    43
1040
14.0
1070
   271
1070
     0
1070
   178
1070
     4
1070
   177
1070
     4
1070
   176
1070
     4
1070
   141
1040
150.0
1070
     7
1000
_OPEN
1070
     6
1000
_OPEN
1070
    41
1040
7.0
1002
}
  0
LINE
  5
323
330
1A
100
AcDbEntity
  8
SEIHIN
  6
CONTINUOUS
 62
     3
 48
32.0
100
AcDbLine
 10
275.110738726798
 20
188.6079586909524
 30
0.0
 11
275.6561364097979
 21
219.8537710252524
 31
0.0
  0
LINE
  5
324
330
1A
100
AcDbEntity
  8
SEIHIN
  6
CONTINUOUS
 62
     3
 48
32.0
100
AcDbLine
 10
189.6761927067978
 20
188.6079586909524
 30
0.0
 11
189.1307950237979
 21
219.8537710252524
 31
0.0
  0
LINE
  5
325
330
1A
100
AcDbEntity
  8
SEIHIN
  6
CONTINUOUS
 62
     3
 48
32.0
100
AcDbLine
 10
232.3933657167977
 20
171.8541710252524
 30
0.0
 11
197.1435657167979
 21
171.8540710252525
 31
0.0
  0
LINE
  5
326
330
1A
100
AcDbEntity
  8
SEIHIN
  6
CONTINUOUS
 62
     3
 48
32.0
100
AcDbLine
 10
190.8934657167979
 20
176.1603962859524
 30
0.0
 11
232.3934657167979
 21
176.1603962859524
 31
0.0
  0
ARC
  5
327
330
1A
100
AcDbEntity
  8
SEIHIN
  6
CONTINUOUS
 62
     3
 48
32.0
100
AcDbCircle
 10
289.6152754086979
 20
192.0979083612524
 30
0.0
 40
100.0
100
AcDbArc
 50
182.0
 51
189.1706278673
  0
LINE
  5
328
330
1A
100
AcDbEntity
  8
SEIHIN
  6
CONTINUOUS
 62
     3
 48
32.0
100
AcDbLine
 10
196.2823406646978
 20
176.1603962859524
 30
0.0
 11
197.1435657167979
 21
171.8542710252524
 31
0.0
  0
LINE
  5
329
330
1A
100
AcDbEntity
  8
SEIHIN
  6
CONTINUOUS
 62
     3
 48
32.0
100
AcDbLine
 10
232.3936657167978
 20
171.8541710252524
 30
0.0
 11
267.6435657167978
 21
171.8540710252525
 31
0.0
  0
LINE
  5
32A
330
1A
100
AcDbEntity
  8
SEIHIN
  6
CONTINUOUS
 62
     3
 48
32.0
100
AcDbLine
 10
273.8934657167979
 20
176.1603962859524
 30
0.0
 11
232.3934657167979
 21
176.1603962859524
 31
0.0
  0
ARC
  5
32B
330
1A
100
AcDbEntity
  8
SEIHIN
  6
CONTINUOUS
 62
     3
 48
32.0
100
AcDbCircle
 10
175.1716560248978
 20
192.0979083612524
 30
0.0
 40
100.0
100
AcDbArc
 50
350.8293721327
 51
358.0
  0
LINE
  5
32C
330
1A
100
AcDbEntity
  8
SEIHIN
  6
CONTINUOUS
 62
     3
 48
32.0
100
AcDbLine
 10
268.5048107688978
 20
176.1603962859524
 30
0.0
 11
267.6435657167978
 21
171.8541710252524
 31
0.0
  0
LINE
  5
32D
330
1A
100
AcDbEntity
  8
SEIHIN
  6
CONTINUOUS
 62
     3
 48
32.0
100
AcDbLine
 10
232.3936657167978
 20
245.3540710252525
 30
0.0
 11
200.4138657167978
 21
245.3540710252525
 31
0.0
  0
LINE
  5
32E
330
1A
100
AcDbEntity
  8
SEIHIN
  6
CONTINUOUS
 62
     3
 48
32.0
100
AcDbLine
 10
187.0249657167978
 20
219.8537858169524
 30
0.0
 11
232.3934657167979
 21
219.8537710252524
 31
0.0
  0
LINE
  5
32F
330
1A
100
AcDbEntity
  8
SEIHIN
  6
CONTINUOUS
 62
     3
 48
32.0
100
AcDbLine
 10
179.9648657167977
 20
234.8538710252524
 30
0.0
 11
232.3934657167979
 21
234.8537710252524
 31
0.0
  0
LINE
  5
330
330
1A
100
AcDbEntity
  8
SEIHIN
  6
CONTINUOUS
 62
     3
 48
32.0
100
AcDbLine
 10
179.3935657167978
 20
239.8538710252524
 30
0.0
 11
232.3934657167979
 21
239.8537710252524
 31
0.0
  0
ARC
  5
331
330
1A
100
AcDbEntity
  8
SEIHIN
  6
CONTINUOUS
 62
     3
 48
32.0
100
AcDbCircle
 10
220.3919657167978
 20
267.9960710252524
 30
0.0
 40
30.0000345277
100
AcDbArc
 50
194.1264765417
 51
222.3940405705
  0
ARC
  5
332
330
1A
100
AcDbEntity
  8
SEIHIN
  6
CONTINUOUS
 62
     3
 48
32.0
100
AcDbCircle
 10
197.4803657167979
 20
263.7884710252524
 30
0.0
 40
29.99996207469999
100
AcDbArc
 50
191.7659206212
 51
232.4536142644999
  0
ARC
  5
333
330
1A
100
AcDbEntity
  8
SEIHIN
  6
CONTINUOUS
 62
     3
 48
32.0
100
AcDbCircle
 10
206.4803657167979
 20
263.7884710252524
 30
0.0
 40
29.99996207469999
100
AcDbArc
 50
191.7659206212
 51
232.4536142644999
  0
ARC
  5
334
330
1A
100
AcDbEntity
  8
SEIHIN
  6
CONTINUOUS
 62
     3
 48
32.0
100
AcDbCircle
 10
158.5477657167978
 20
216.5719710252524
 30
0.0
 40
35.0000244179
100
AcDbArc
 50
9.515312814099999
 51
30.1899661743
  0
ARC
  5
335
330
1A
100
AcDbEntity
  8
SEIHIN
  6
CONTINUOUS
 62
     3
 48
32.0
100
AcDbCircle
 10
149.5477957167977
 20
216.5719710252524
 30
0.0
 40
35.000030068
100
AcDbArc
 50
9.5154823824
 51
30.1901323686
  0
ARC
  5
336
330
1A
100
AcDbEntity
  8
SEIHIN
  6
CONTINUOUS
 62
     3
 48
32.0
100
AcDbCircle
 10
187.0249657167978
 20
222.8537710252524
 30
0.0
 40
2.9999852083
100
AcDbArc
 50
189.5147572149999
 51
270.0
  0
ARC
  5
337
330
1A
100
AcDbEntity
  8
SEIHIN
  6
CONTINUOUS
 62
     3
 48
32.0
100
AcDbCircle
 10
178.8935657167979
 20
239.6062710252524
 30
0.0
 40
0.4999875247
100
AcDbArc
 50
0.0
 51
52.45167061770001
  0
LINE
  5
338
330
1A
100
AcDbEntity
  8
SEIHIN
  6
CONTINUOUS
 62
     3
 48
32.0
100
AcDbLine
 10
179.3935657167978
 20
239.6062710252524
 30
0.0
 11
179.3935657167978
 21
235.6810710252525
 31
0.0
  0
ARC
  5
339
330
1A
100
AcDbEntity
  8
SEIHIN
  6
CONTINUOUS
 62
     3
 48
32.0
100
AcDbCircle
 10
182.3935657167979
 20
235.6810710252525
 30
0.0
 40
3.0000034642
100
AcDbArc
 50
180.0
 51
210.1897620818
  0
ARC
  5
33A
330
1A
100
AcDbEntity
  8
SEIHIN
  6
CONTINUOUS
 62
     3
 48
32.0
100
AcDbCircle
 10
187.8935657167978
 20
239.6062710252524
 30
0.0
 40
0.4999875247
100
AcDbArc
 50
0.0
 51
52.45167061770001
  0
LINE
  5
33B
330
1A
100
AcDbEntity
  8
SEIHIN
  6
CONTINUOUS
 62
     3
 48
32.0
100
AcDbLine
 10
188.3935657167979
 20
239.6062710252524
 30
0.0
 11
188.3935657167979
 21
235.6810710252525
 31
0.0
  0
ARC
  5
33C
330
1A
100
AcDbEntity
  8
SEIHIN
  6
CONTINUOUS
 62
     3
 48
32.0
100
AcDbCircle
 10
191.3935657167979
 20
235.6810710252525
 30
0.0
 40
3.0000286081
100
AcDbArc
 50
180.0
 51
210.1914128652
  0
ARC
  5
33D
330
1A
100
AcDbEntity
  8
SEIHIN
  6
CONTINUOUS
 62
     3
 48
32.0
100
AcDbCircle
 10
196.0249657167978
 20
222.8537710252524
 30
0.0
 40
2.9999852083
100
AcDbArc
 50
189.5147572149999
 51
270.0
  0
LINE
  5
33E
330
1A
100
AcDbEntity
  8
SEIHIN
  6
CONTINUOUS
 62
     3
 48
32.0
100
AcDbLine
 10
198.2361657167978
 20
247.7692710252524
 30
0.0
 11
200.2412657167979
 21
247.7692710252524
 31
0.0
  0
ARC
  5
33F
330
1A
100
AcDbEntity
  8
SEIHIN
  6
CONTINUOUS
 62
     3
 48
32.0
100
AcDbCircle
 10
470.8073657167979
 20
318.8452710252525
 30
0.0
 40
299.9999661928999
100
AcDbArc
 50
185.9245461394
 51
191.7659159516999
  0
ARC
  5
340
330
1A
100
AcDbEntity
  8
SEIHIN
  6
CONTINUOUS
 62
     3
 48
32.0
100
AcDbCircle
 10
461.8073657167979
 20
318.8453710252524
 30
0.0
 40
299.9999763886
100
AcDbArc
 50
185.9245461394
 51
191.7659346490999
  0
ARC
  5
341
330
1A
100
AcDbEntity
  8
SEIHIN
  6
CONTINUOUS
 62
     3
 48
32.0
100
AcDbCircle
 10
244.3950657167979
 20
267.9960710252524
 30
0.0
 40
30.0000682391
100
AcDbArc
 50
317.6058183821
 51
345.8735234583
  0
LINE
  5
342
330
1A
100
AcDbEntity
  8
SEIHIN
  6
CONTINUOUS
 62
     3
 48
32.0
100
AcDbLine
 10
232.3933657167977
 20
245.3540710252525
 30
0.0
 11
264.3732657167979
 21
245.3539710252524
 31
0.0
  0
LINE
  5
343
330
1A
100
AcDbEntity
  8
SEIHIN
  6
CONTINUOUS
 62
     3
 48
32.0
100
AcDbLine
 10
277.7620136944979
 20
219.8537423598524
 30
0.0
 11
232.3935136944978
 21
219.8537710252524
 31
0.0
  0
LINE
  5
344
330
1A
100
AcDbEntity
  8
SEIHIN
  6
CONTINUOUS
 62
     3
 48
32.0
100
AcDbLine
 10
285.3934657167978
 20
239.8537710252524
 30
0.0
 11
232.3935657167978
 21
239.8537710252524
 31
0.0
  0
LINE
  5
345
330
1A
100
AcDbEntity
  8
SEIHIN
  6
CONTINUOUS
 62
     3
 48
32.0
100
AcDbLine
 10
284.0711657167978
 20
234.8537710252524
 30
0.0
 11
232.3935657167978
 21
234.8537710252524
 31
0.0
  0
ARC
  5
346
330
1A
100
AcDbEntity
  8
SEIHIN
  6
CONTINUOUS
 62
     3
 48
32.0
100
AcDbCircle
 10
306.2392657167979
 20
216.5718710252525
 30
0.0
 40
34.9999833715
100
AcDbArc
 50
149.8100338257
 51
170.484498674
  0
ARC
  5
347
330
1A
100
AcDbEntity
  8
SEIHIN
  6
CONTINUOUS
 62
     3
 48
32.0
100
AcDbCircle
 10
315.2392657167979
 20
216.5718710252525
 30
0.0
 40
34.9999833715
100
AcDbArc
 50
149.8100338257
 51
170.484498674
  0
ARC
  5
348
330
1A
100
AcDbEntity
  8
SEIHIN
  6
CONTINUOUS
 62
     3
 48
32.0
100
AcDbCircle
 10
268.7621657167978
 20
222.8537710252524
 30
0.0
 40
2.9999852083
100
AcDbArc
 50
270.0
 51
350.485242785
  0
ARC
  5
349
330
1A
100
AcDbEntity
  8
SEIHIN
  6
CONTINUOUS
 62
     3
 48
32.0
100
AcDbCircle
 10
277.7621657167979
 20
222.8537710252524
 30
0.0
 40
2.9999852083
100
AcDbArc
 50
270.0
 51
350.485242785
  0
LINE
  5
34A
330
1A
100
AcDbEntity
  8
SEIHIN
  6
CONTINUOUS
 62
     3
 48
32.0
100
AcDbLine
 10
266.5508657167979
 20
247.7692710252524
 30
0.0
 11
264.5457657167978
 21
247.7692710252524
 31
0.0
  0
ARC
  5
34B
330
1A
100
AcDbEntity
  8
SEIHIN
  6
CONTINUOUS
 62
     3
 48
32.0
100
AcDbCircle
 10
276.8934657167978
 20
239.6061710252524
 30
0.0
 40
0.4999875247
100
AcDbArc
 50
127.5483293824
 51
180.0
  0
LINE
  5
34C
330
1A
100
AcDbEntity
  8
SEIHIN
  6
CONTINUOUS
 62
     3
 48
32.0
100
AcDbLine
 10
276.3934657167979
 20
239.6061710252524
 30
0.0
 11
276.3934657167979
 21
235.6808710252524
 31
0.0
  0
ARC
  5
34D
330
1A
100
AcDbEntity
  8
SEIHIN
  6
CONTINUOUS
 62
     3
 48
32.0
100
AcDbCircle
 10
273.3934657167978
 20
235.6808710252524
 30
0.0
 40
3.0000034642
100
AcDbArc
 50
329.8102379182
 51
0.0
  0
ARC
  5
34E
330
1A
100
AcDbEntity
  8
SEIHIN
  6
CONTINUOUS
 62
     3
 48
32.0
100
AcDbCircle
 10
285.8934657167978
 20
239.6061710252524
 30
0.0
 40
0.4999875247
100
AcDbArc
 50
127.5483293824
 51
180.0
  0
LINE
  5
34F
330
1A
100
AcDbEntity
  8
SEIHIN
  6
CONTINUOUS
 62
     3
 48
32.0
100
AcDbLine
 10
285.3934657167978
 20
239.6061710252524
 30
0.0
 11
285.3934657167978
 21
235.6808710252524
 31
0.0
  0
ARC
  5
350
330
1A
100
AcDbEntity
  8
SEIHIN
  6
CONTINUOUS
 62
     3
 48
32.0
100
AcDbCircle
 10
282.3934657167979
 20
235.6808710252524
 30
0.0
 40
3.0000034642
100
AcDbArc
 50
329.8102379182
 51
0.0
  0
LINE
  5
351
330
1A
100
AcDbEntity
  8
SEIHIN
  6
CONTINUOUS
 62
     3
 48
32.0
100
AcDbLine
 10
274.1868657167979
 20
270.4598710252524
 30
0.0
 11
273.4878657167978
 21
260.6741710252524
 31
0.0
  0
ARC
  5
352
330
1A
100
AcDbEntity
  8
SEIHIN
  6
CONTINUOUS
 62
     3
 48
32.0
100
AcDbCircle
 10
2.97979571679798
 20
318.8455710252524
 30
0.0
 40
300.0000068307
100
AcDbArc
 50
348.2338733151
 51
354.0752423355
  0
DIMENSION
  5
353
330
1A
100
AcDbEntity
  8
SUNPOU
100
AcDbDimension
  2
*D5
 10
144.3935857167978
 20
428.5431218271884
 30
0.0
 11
232.3936257167978
 21
433.5431218271883
 31
0.0
 70
    32
  3
STANDARD
100
AcDbAlignedDimension
 13
320.3936657167978
 23
370.8539710252525
 33
0.0
 14
144.3935857167978
 24
370.8539710252525
 34
0.0
100
AcDbRotatedDimension
1001
ACAD
1000
DSTYLE
1002
{
1070
   140
1040
6.0
1070
    74
1070
     0
1070
   172
1070
     1
1070
    73
1070
     0
1070
   272
1070
     2
1070
    77
1070
     3
1070
   173
1070
     1
1070
   147
1040
2.0
1070
    42
1040
6.0
1070
    44
1040
3.0
1070
    43
1040
14.0
1070
   271
1070
     0
1070
   178
1070
     4
1070
   177
1070
     4
1070
   176
1070
     4
1070
   141
1040
150.0
1070
     7
1000
_OPEN
1070
     6
1000
_OPEN
1070
    41
1040
7.0
1002
}
  0
LINE
  5
354
330
1A
100
AcDbEntity
  8
SEIHIN
  6
CONTINUOUS
 62
     3
 48
32.0
100
AcDbLine
 10
155.4878657167978
 20
335.1541710252524
 30
0.0
 11
158.5038657167979
 21
335.1541710252524
 31
0.0
  0
LINE
  5
355
330
1A
100
AcDbEntity
  8
SEIHIN
  6
CONTINUOUS
 62
     3
 48
32.0
100
AcDbLine
 10
148.6949557167977
 20
348.7535710252525
 30
0.0
 11
157.3935657167979
 21
345.8539710252525
 31
0.0
  0
LINE
  5
356
330
1A
100
AcDbEntity
  8
SEIHIN
  6
CONTINUOUS
 62
     3
 48
32.0
100
AcDbLine
 10
155.8302657167978
 20
331.8541710252524
 30
0.0
 11
158.8463657167979
 21
331.8541710252524
 31
0.0
  0
LINE
  5
357
330
1A
100
AcDbEntity
  8
SEIHIN
  6
CONTINUOUS
 62
     3
 48
32.0
100
AcDbLine
 10
144.3935857167978
 20
370.8539710252525
 30
0.0
 11
232.3936657167978
 21
370.8540710252524
 31
0.0
  0
LINE
  5
358
330
1A
100
AcDbEntity
  8
SEIHIN
  6
CONTINUOUS
 62
     3
 48
32.0
100
AcDbLine
 10
145.3460457167978
 20
365.8539710252525
 30
0.0
 11
232.3935657167978
 21
365.8539710252525
 31
0.0
  0
LINE
  5
359
330
1A
100
AcDbEntity
  8
SEIHIN
  6
CONTINUOUS
 62
     3
 48
32.0
100
AcDbLine
 10
148.3936157167977
 20
348.8540710252525
 30
0.0
 11
232.3936657167978
 21
348.8540710252525
 31
0.0
  0
LINE
  5
35A
330
1A
100
AcDbEntity
  8
SEIHIN
  6
CONTINUOUS
 62
     3
 48
32.0
100
AcDbLine
 10
155.8302657167978
 20
331.8541710252524
 30
0.0
 11
154.2693657167979
 21
346.8953710252524
 31
0.0
  0
LINE
  5
35B
330
1A
100
AcDbEntity
  8
SEIHIN
  6
CONTINUOUS
 62
     3
 48
32.0
100
AcDbLine
 10
144.3935857167978
 20
370.8539710252525
 30
0.0
 11
144.8485257167979
 21
366.3042710252525
 31
0.0
  0
LINE
  5
35C
330
1A
100
AcDbEntity
  8
SEIHIN
  6
CONTINUOUS
 62
     3
 48
32.0
100
AcDbLine
 10
146.4455257167978
 20
365.4124710252523
 30
0.0
 11
148.356505716798
 21
349.1694710252524
 31
0.0
  0
ARC
  5
35D
330
1A
100
AcDbEntity
  8
SEIHIN
  6
CONTINUOUS
 62
     3
 48
32.0
100
AcDbCircle
 10
148.8530757167978
 20
349.2279710252525
 30
0.0
 40
0.500030653
100
AcDbArc
 50
186.7189412688
 51
251.5665004923
  0
ARC
  5
35E
330
1A
100
AcDbEntity
  8
SEIHIN
  6
CONTINUOUS
 62
     3
 48
32.0
100
AcDbCircle
 10
145.3460457167978
 20
366.3539710252525
 30
0.0
 40
0.4999981202
100
AcDbArc
 50
185.704663904
 51
270.0
  0
ARC
  5
35F
330
1A
100
AcDbEntity
  8
SEIHIN
  6
CONTINUOUS
 62
     3
 48
32.0
100
AcDbCircle
 10
145.9489457167979
 20
365.3539710252525
 30
0.0
 40
0.5000069731
100
AcDbArc
 50
6.718807201499999
 51
90.0
  0
LINE
  5
360
330
1A
100
AcDbEntity
  8
SEIHIN
  6
CONTINUOUS
 62
     3
 48
32.0
100
AcDbLine
 10
320.3936657167978
 20
370.8539710252525
 30
0.0
 11
232.3935657167978
 21
370.8540710252524
 31
0.0
  0
LINE
  5
361
330
1A
100
AcDbEntity
  8
SEIHIN
  6
CONTINUOUS
 62
     3
 48
32.0
100
AcDbLine
 10
319.4411657167979
 20
365.8539710252525
 30
0.0
 11
232.3935657167978
 21
365.8539710252525
 31
0.0
  0
LINE
  5
362
330
1A
100
AcDbEntity
  8
SEIHIN
  6
CONTINUOUS
 62
     3
 48
32.0
100
AcDbLine
 10
316.3935657167978
 20
348.8539710252525
 30
0.0
 11
232.3935657167978
 21
348.8540710252525
 31
0.0
  0
LINE
  5
363
330
1A
100
AcDbEntity
  8
SEIHIN
  6
CONTINUOUS
 62
     3
 48
32.0
100
AcDbLine
 10
307.3938657167977
 20
345.8539710252525
 30
0.0
 11
232.3935657167978
 21
345.8540710252524
 31
0.0
  0
DIMENSION
  5
364
330
1A
100
AcDbEntity
  8
SUNPOU
100
AcDbDimension
  2
*D6
 10
202.3935136944979
 20
405.5442353973799
 30
0.0
 11
232.3935136944978
 21
410.5442353973799
 31
0.0
 12
-1.134374101806315
 22
-15.86810021093265
 32
0.0
 70
    32
  1
※a<>
  3
STANDARD
100
AcDbAlignedDimension
 13
262.3935136944978
 23
370.8540369344412
 33
0.0
 14
202.3935136944979
 24
370.8540369342016
 34
0.0
100
AcDbRotatedDimension
1001
ACAD
1000
DSTYLE
1002
{
1070
   140
1040
6.0
1070
    74
1070
     0
1070
   172
1070
     1
1070
    73
1070
     0
1070
   272
1070
     2
1070
    77
1070
     3
1070
   173
1070
     1
1070
   147
1040
2.0
1070
    42
1040
6.0
1070
    44
1040
3.0
1070
    43
1040
14.0
1070
   271
1070
     0
1070
   178
1070
     4
1070
   177
1070
     4
1070
   176
1070
     4
1070
   141
1040
150.0
1070
     7
1000
_OPEN
1070
     6
1000
_OPEN
1070
    41
1040
7.0
1002
}
  0
ARC
  5
365
330
1A
100
AcDbEntity
  8
SEIHIN
  6
CONTINUOUS
 62
     3
 48
32.0
100
AcDbCircle
 10
232.3935657167978
 20
178.8540710252525
 30
0.0
 40
145.4999888556999
100
AcDbArc
 50
90.00003937850001
 51
100.1876265625999
  0
ARC
  5
366
330
1A
100
AcDbEntity
  8
SEIHIN
  6
CONTINUOUS
 62
     3
 48
32.0
100
AcDbCircle
 10
232.3935657167978
 20
178.8540710252525
 30
0.0
 40
143.4999954600999
100
AcDbArc
 50
90.00003992739999
 51
99.8309732438
  0
LINE
  5
367
330
1A
100
AcDbEntity
  8
SEIHIN
  6
CONTINUOUS
 62
     3
 48
32.0
100
AcDbLine
 10
157.3932657167979
 20
345.8540710252524
 30
0.0
 11
232.3936657167978
 21
345.8540710252524
 31
0.0
  0
ARC
  5
368
330
1A
100
AcDbEntity
  8
SEIHIN
  6
CONTINUOUS
 62
     3
 48
32.0
100
AcDbCircle
 10
232.3935657167978
 20
178.8540710252525
 30
0.0
 40
151.499976372
100
AcDbArc
 50
90.00003781899998
 51
101.3213545274
  0
LINE
  5
369
330
1A
100
AcDbEntity
  8
SEIHIN
  6
CONTINUOUS
 62
     3
 48
32.0
100
AcDbLine
 10
193.7223657167979
 20
310.9652710252524
 30
0.0
 11
187.3936657167978
 21
315.3540710252524
 31
0.0
  0
ARC
  5
36A
330
1A
100
AcDbEntity
  8
SEIHIN
  6
CONTINUOUS
 62
     3
 48
32.0
100
AcDbCircle
 10
183.9345657167978
 20
335.0526710252524
 30
0.0
 40
19.9999994544
100
AcDbArc
 50
281.2222305924
 51
336.6145302093999
  0
ARC
  5
36B
330
1A
100
AcDbEntity
  8
SEIHIN
  6
CONTINUOUS
 62
     3
 48
32.0
100
AcDbCircle
 10
187.9241657167977
 20
314.9445710252524
 30
0.0
 40
0.5000132929
100
AcDbArc
 50
101.2200497655999
 51
184.0831673352
  0
ARC
  5
36C
330
1A
100
AcDbEntity
  8
SEIHIN
  6
CONTINUOUS
 62
     3
 48
32.0
100
AcDbCircle
 10
143.4098557167979
 20
325.1306710252524
 30
0.0
 40
25.00001608079999
100
AcDbArc
 50
5.9246118747
 51
55.98923137319999
  0
LINE
  5
36D
330
1A
100
AcDbEntity
  8
SEIHIN
  6
CONTINUOUS
 62
     3
 48
32.0
100
AcDbLine
 10
206.4319657167978
 20
322.0191710252525
 30
0.0
 11
202.3935657167978
 21
327.3541710252524
 31
0.0
  0
ARC
  5
36E
330
1A
100
AcDbEntity
  8
SEIHIN
  6
CONTINUOUS
 62
     3
 48
32.0
100
AcDbCircle
 10
183.9345657167978
 20
335.0526710252524
 30
0.0
 40
28.0000222742
100
AcDbArc
 50
295.8050202868999
 51
327.5363566366999
  0
ARC
  5
36F
330
1A
100
AcDbEntity
  8
SEIHIN
  6
CONTINUOUS
 62
     3
 48
32.0
100
AcDbCircle
 10
183.9345657167978
 20
335.0526710252524
 30
0.0
 40
25.9999821057
100
AcDbArc
 50
292.9009550326
 51
329.4125116474
  0
ARC
  5
370
330
1A
100
AcDbEntity
  8
SEIHIN
  6
CONTINUOUS
 62
     3
 48
32.0
100
AcDbCircle
 10
196.3409657167979
 20
309.3946710252524
 30
0.0
 40
0.4999579729
100
AcDbArc
 50
115.8013577103
 51
184.0945979495
  0
ARC
  5
371
330
1A
100
AcDbEntity
  8
SEIHIN
  6
CONTINUOUS
 62
     3
 48
32.0
100
AcDbCircle
 10
194.2468657167978
 20
310.6413710252524
 30
0.0
 40
0.5000451574
100
AcDbArc
 50
112.9036883703
 51
184.0823515050999
  0
ARC
  5
372
330
1A
100
AcDbEntity
  8
SEIHIN
  6
CONTINUOUS
 62
     3
 48
32.0
100
AcDbCircle
 10
207.980965716798
 20
319.7548710252524
 30
0.0
 40
0.4999423215000001
100
AcDbArc
 50
99.8240783818
 51
147.5305656258
  0
ARC
  5
373
330
1A
100
AcDbEntity
  8
SEIHIN
  6
CONTINUOUS
 62
     3
 48
32.0
100
AcDbCircle
 10
206.7472657167977
 20
321.5680710252525
 30
0.0
 40
0.5000221338000001
100
AcDbArc
 50
100.1951768579
 51
149.4194279667
  0
ARC
  5
374
330
1A
100
AcDbEntity
  8
SEIHIN
  6
CONTINUOUS
 62
     3
 48
32.0
100
AcDbCircle
 10
202.7506657167978
 20
326.9159710252524
 30
0.0
 40
0.4999945481000001
100
AcDbArc
 50
101.3256625774999
 51
156.6193276483
  0
ARC
  5
375
330
1A
100
AcDbEntity
  8
SEIHIN
  6
CONTINUOUS
 62
     3
 48
32.0
100
AcDbCircle
 10
232.3934657167979
 20
178.8540710252525
 30
0.0
 40
151.4999763720999
100
AcDbArc
 50
78.67864547259999
 51
89.99992436200001
  0
ARC
  5
376
330
1A
100
AcDbEntity
  8
SEIHIN
  6
CONTINUOUS
 62
     3
 48
32.0
100
AcDbCircle
 10
232.3934657167979
 20
178.8540710252525
 30
0.0
 40
143.500000814
100
AcDbArc
 50
80.1704052562
 51
89.9999201453
  0
ARC
  5
377
330
1A
100
AcDbEntity
  8
SEIHIN
  6
CONTINUOUS
 62
     3
 48
32.0
100
AcDbCircle
 10
232.3934657167979
 20
178.8540710252525
 30
0.0
 40
145.4999976994
100
AcDbArc
 50
79.8123346797
 51
89.99992124290001
  0
LINE
  5
378
330
1A
100
AcDbEntity
  8
SEIHIN
  6
CONTINUOUS
 62
     3
 48
32.0
100
AcDbLine
 10
258.3551657167977
 20
322.0191710252525
 30
0.0
 11
262.3935657167978
 21
327.3540710252524
 31
0.0
  0
ARC
  5
379
330
1A
100
AcDbEntity
  8
SEIHIN
  6
CONTINUOUS
 62
     3
 48
32.0
100
AcDbCircle
 10
280.8524657167977
 20
335.0525710252524
 30
0.0
 40
19.99992083409999
100
AcDbArc
 50
203.3852068438
 51
258.7779946571
  0
LINE
  5
37A
330
1A
100
AcDbEntity
  8
SEIHIN
  6
CONTINUOUS
 62
     3
 48
32.0
100
AcDbLine
 10
271.0647657167978
 20
310.9652710252524
 30
0.0
 11
277.3934657167978
 21
315.3539710252524
 31
0.0
  0
ARC
  5
37B
330
1A
100
AcDbEntity
  8
SEIHIN
  6
CONTINUOUS
 62
     3
 48
32.0
100
AcDbCircle
 10
280.8524657167977
 20
335.0525710252524
 30
0.0
 40
27.99995042199999
100
AcDbArc
 50
212.4634707118999
 51
244.1948906364
  0
ARC
  5
37C
330
1A
100
AcDbEntity
  8
SEIHIN
  6
CONTINUOUS
 62
     3
 48
32.0
100
AcDbCircle
 10
280.8524657167977
 20
335.0525710252524
 30
0.0
 40
25.9999566631
100
AcDbArc
 50
210.5872986475
 51
247.0990449673999
  0
ARC
  5
37D
330
1A
100
AcDbEntity
  8
SEIHIN
  6
CONTINUOUS
 62
     3
 48
32.0
100
AcDbCircle
 10
268.4461657167978
 20
309.3945710252524
 30
0.0
 40
0.5000211868
100
AcDbArc
 50
355.9168326648
 51
64.1933139216
  0
ARC
  5
37E
330
1A
100
AcDbEntity
  8
SEIHIN
  6
CONTINUOUS
 62
     3
 48
32.0
100
AcDbCircle
 10
270.5403657167978
 20
310.6413710252524
 30
0.0
 40
0.4999758294
100
AcDbArc
 50
355.9168326648
 51
67.106867717
  0
ARC
  5
37F
330
1A
100
AcDbEntity
  8
SEIHIN
  6
CONTINUOUS
 62
     3
 48
32.0
100
AcDbCircle
 10
258.0398657167979
 20
321.5680710252525
 30
0.0
 40
0.4999790893000001
100
AcDbArc
 50
30.58640229869999
 51
79.80482314220002
  0
ARC
  5
380
330
1A
100
AcDbEntity
  8
SEIHIN
  6
CONTINUOUS
 62
     3
 48
32.0
100
AcDbCircle
 10
256.8061657167977
 20
319.7548710252524
 30
0.0
 40
0.4999423215000001
100
AcDbArc
 50
32.46943437409999
 51
80.1759216183
  0
ARC
  5
381
330
1A
100
AcDbEntity
  8
SEIHIN
  6
CONTINUOUS
 62
     3
 48
32.0
100
AcDbCircle
 10
276.8629657167978
 20
314.9445710252524
 30
0.0
 40
0.4999642487
100
AcDbArc
 50
355.9168326648999
 51
78.7777203584
  0
ARC
  5
382
330
1A
100
AcDbEntity
  8
SEIHIN
  6
CONTINUOUS
 62
     3
 48
32.0
100
AcDbCircle
 10
262.0364657167979
 20
326.9158710252524
 30
0.0
 40
0.5000143943
100
AcDbArc
 50
23.3911907592
 51
78.67433742260002
  0
LINE
  5
383
330
1A
100
AcDbEntity
  8
SEIHIN
  6
CONTINUOUS
 62
     3
 48
32.0
100
AcDbLine
 10
316.0922657167978
 20
348.7534710252525
 30
0.0
 11
307.3935657167978
 21
345.8538710252525
 31
0.0
  0
ARC
  5
384
330
1A
100
AcDbEntity
  8
SEIHIN
  6
CONTINUOUS
 62
     3
 48
32.0
100
AcDbCircle
 10
321.3772657167978
 20
325.1305710252525
 30
0.0
 40
24.9999306105
100
AcDbArc
 50
124.0105596511
 51
174.0753621034
  0
LINE
  5
385
330
1A
100
AcDbEntity
  8
SEIHIN
  6
CONTINUOUS
 62
     3
 48
32.0
100
AcDbLine
 10
308.9568657167979
 20
331.8541710252524
 30
0.0
 11
310.5177657167978
 21
346.8953710252524
 31
0.0
  0
LINE
  5
386
330
1A
100
AcDbEntity
  8
SEIHIN
  6
CONTINUOUS
 62
     3
 48
32.0
100
AcDbLine
 10
309.2993657167978
 20
335.1540710252524
 30
0.0
 11
306.2832657167978
 21
335.1540710252524
 31
0.0
  0
LINE
  5
387
330
1A
100
AcDbEntity
  8
SEIHIN
  6
CONTINUOUS
 62
     3
 48
32.0
100
AcDbLine
 10
308.9568657167979
 20
331.8541710252524
 30
0.0
 11
305.9407657167978
 21
331.8541710252524
 31
0.0
  0
LINE
  5
388
330
1A
100
AcDbEntity
  8
SEIHIN
  6
CONTINUOUS
 62
     3
 48
32.0
100
AcDbLine
 10
320.3936657167978
 20
370.8538710252525
 30
0.0
 11
319.9386657167979
 21
366.3041710252525
 31
0.0
  0
LINE
  5
389
330
1A
100
AcDbEntity
  8
SEIHIN
  6
CONTINUOUS
 62
     3
 48
32.0
100
AcDbLine
 10
318.3416657167977
 20
365.4123710252524
 30
0.0
 11
316.4306657167978
 21
349.1694710252524
 31
0.0
  0
ARC
  5
38A
330
1A
100
AcDbEntity
  8
SEIHIN
  6
CONTINUOUS
 62
     3
 48
32.0
100
AcDbCircle
 10
315.9340657167977
 20
349.2278710252524
 30
0.0
 40
0.4999891088
100
AcDbArc
 50
288.4349488229
 51
353.2928408779
  0
ARC
  5
38B
330
1A
100
AcDbEntity
  8
SEIHIN
  6
CONTINUOUS
 62
     3
 48
32.0
100
AcDbCircle
 10
318.8381657167979
 20
365.3539710252525
 30
0.0
 40
0.4999614020000001
100
AcDbArc
 50
90.0
 51
173.2915023010999
  0
ARC
  5
38C
330
1A
100
AcDbEntity
  8
SEIHIN
  6
CONTINUOUS
 62
     3
 48
32.0
100
AcDbCircle
 10
319.4411657167979
 20
366.3539710252525
 30
0.0
 40
0.4999931449
100
AcDbArc
 50
270.0
 51
354.283705563
  0
DIMENSION
  5
38D
330
1A
100
AcDbEntity
  8
SUNPOU
100
AcDbDimension
  2
*D7
 10
643.2025445937355
 20
297.1906746633525
 30
0.0
 11
638.2025445937355
 21
329.0222728443024
 31
0.0
 70
    32
  3
STANDARD
100
AcDbAlignedDimension
 13
615.4648249805809
 23
360.8538710252525
 33
0.0
 14
557.6761514019803
 24
297.1906746633525
 34
0.0
 50
90.0
100
AcDbRotatedDimension
1001
ACAD
1000
DSTYLE
1002
{
1070
   140
1040
6.0
1070
    74
1070
     0
1070
   172
1070
     1
1070
    73
1070
     0
1070
   272
1070
     2
1070
    77
1070
     3
1070
   173
1070
     1
1070
   147
1040
2.0
1070
    42
1040
6.0
1070
    44
1040
3.0
1070
    43
1040
14.0
1070
   271
1070
     0
1070
   178
1070
     4
1070
   177
1070
     4
1070
   176
1070
     4
1070
   141
1040
150.0
1070
     7
1000
_OPEN
1070
     6
1000
_OPEN
1070
    41
1040
7.0
1002
}
  0
ARC
  5
38E
330
1A
100
AcDbEntity
  8
SEIHIN
  6
CONTINUOUS
 62
     3
 48
32.0
100
AcDbCircle
 10
557.6761514019803
 20
340.1906746633524
 30
0.0
 40
43.00002508609999
100
AcDbArc
 50
270.0001332459999
 51
352.1627128512
  0
ARC
  5
38F
330
1A
100
AcDbEntity
  8
NOKITOI
  6
PHANTOM
 62
     8
 48
3.5
100
AcDbCircle
 10
557.0710804994437
 20
340.1905738670439
 30
0.0
 40
41.800002
100
AcDbArc
 50
270.0
 51
355.525423
  0
ARC
  5
390
330
1A
100
AcDbEntity
  8
NOKITOI
  6
PHANTOM
 62
     8
 48
3.5
100
AcDbCircle
 10
557.0710804994437
 20
340.1905738670439
 30
0.0
 40
43.00002
100
AcDbArc
 50
270.0
 51
353.474979
  0
LINE
  5
391
330
1A
100
AcDbEntity
  8
SEIHIN
  6
CONTINUOUS
 62
     3
 48
32.0
100
AcDbLine
 10
511.6082514019804
 20
297.4167746633524
 30
0.0
 11
501.2050514019806
 21
305.9283746633524
 31
0.0
  0
LINE
  5
392
330
1A
100
AcDbEntity
  8
NOKITOI
  6
PHANTOM
 62
     8
 48
3.5
100
AcDbLine
 10
501.2052804994432
 20
305.9283738670438
 30
0.0
 11
511.6083804994432
 21
297.4166738670439
 31
0.0
  0
LINE
  5
393
330
1A
100
AcDbEntity
  8
NOKITOI
  6
PHANTOM
 62
     8
 48
3.5
100
AcDbLine
 10
502.1894804994436
 20
306.6734738670438
 30
0.0
 11
512.1748804994435
 21
298.5036738670439
 31
0.0
  0
LINE
  5
394
330
1A
100
AcDbEntity
  8
SEIHIN
  6
CONTINUOUS
 62
     3
 48
32.0
100
AcDbLine
 10
489.4219249805805
 20
287.4317710252524
 30
0.0
 11
483.7390249805808
 21
328.1331710252524
 31
0.0
  0
LINE
  5
395
330
1A
100
AcDbEntity
  8
SEIHIN
  6
CONTINUOUS
 62
     3
 48
32.0
100
AcDbLine
 10
480.4219249805806
 20
287.4318710252524
 30
0.0
 11
472.3506249805809
 21
345.2395710252524
 31
0.0
  0
LINE
  5
396
330
1A
100
AcDbEntity
  8
SEIHIN
  6
CONTINUOUS
 62
     3
 48
32.0
100
AcDbLine
 10
612.5109249805805
 20
330.1258710252525
 30
0.0
 11
604.1793249805805
 21
222.6219710252524
 31
0.0
  0
LINE
  5
397
330
1A
100
AcDbEntity
  8
CENTER_L
  6
CENTER
 62
     1
 48
5.0
100
AcDbLine
 10
548.9648249805809
 20
283.7731932474524
 30
0.0
 11
548.9648249805809
 21
325.5162488030524
 31
0.0
  0
DIMENSION
  5
39A
330
1A
100
AcDbEntity
  8
SUNPOU
100
AcDbDimension
  2
*D8
 10
597.3922249806244
 20
137.1173738292239
 30
0.0
 11
555.8922249805807
 21
142.1173738292239
 31
0.0
 70
    32
  1
φ<>
  3
STANDARD
100
AcDbAlignedDimension
 13
514.392224980537
 23
176.160396286035
 33
0.0
 14
597.3922249806244
 24
176.1603962860349
 34
0.0
100
AcDbRotatedDimension
1001
ACAD
1000
DSTYLE
1002
{
1070
   140
1040
6.0
1070
    74
1070
     0
1070
   172
1070
     1
1070
    73
1070
     0
1070
   272
1070
     2
1070
    77
1070
     3
1070
   173
1070
     1
1070
   147
1040
2.0
1070
    42
1040
6.0
1070
    44
1040
3.0
1070
    43
1040
14.0
1070
   271
1070
     0
1070
   178
1070
     4
1070
   177
1070
     4
1070
   176
1070
     4
1070
   141
1040
150.0
1070
     7
1000
_OPEN
1070
     6
1000
_OPEN
1070
    41
1040
7.0
1002
}
  0
LINE
  5
39B
330
1A
100
AcDbEntity
  8
SEIHIN
  6
CONTINUOUS
 62
     3
 48
32.0
100
AcDbLine
 10
557.6761514019803
 20
297.1906746633525
 30
0.0
 11
512.2414514019806
 21
297.1906746633525
 31
0.0
  0
LINE
  5
39C
330
1A
100
AcDbEntity
  8
NOKITOI
  6
PHANTOM
 62
     8
 48
3.5
100
AcDbLine
 10
557.0710804994437
 20
298.3905738670439
 30
0.0
 11
512.4914804994432
 21
298.3906738670439
 31
0.0
  0
LINE
  5
39D
330
1A
100
AcDbEntity
  8
NOKITOI
  6
PHANTOM
 62
     8
 48
3.5
100
AcDbLine
 10
512.2415804994434
 20
297.190673867044
 30
0.0
 11
557.0710804994437
 21
297.1905738670439
 31
0.0
  0
LINE
  5
39E
330
1A
100
AcDbEntity
  8
SEIHIN
  6
CONTINUOUS
 62
     3
 48
32.0
100
AcDbLine
 10
555.8921249805807
 20
171.8541710252524
 30
0.0
 11
520.6423249805807
 21
171.8540710252525
 31
0.0
  0
LINE
  5
39F
330
1A
100
AcDbEntity
  8
SEIHIN
  6
CONTINUOUS
 62
     3
 48
32.0
100
AcDbLine
 10
514.3922249805805
 20
176.1603962859524
 30
0.0
 11
555.8922249805805
 21
176.1603962859524
 31
0.0
  0
LINE
  5
3A0
330
1A
100
AcDbEntity
  8
SEIHIN
  6
CONTINUOUS
 62
     3
 48
32.0
100
AcDbLine
 10
601.1883249805805
 20
219.8537710252524
 30
0.0
 11
510.5961249805809
 21
219.8537710252524
 31
0.0
  0
LINE
  5
3A1
330
1A
100
AcDbEntity
  8
SEIHIN
  6
CONTINUOUS
 62
     3
 48
32.0
100
AcDbLine
 10
605.1273249805809
 20
234.8537710252524
 30
0.0
 11
504.7096249805804
 21
234.8537710252524
 31
0.0
  0
LINE
  5
3A2
330
1A
100
AcDbEntity
  8
SEIHIN
  6
CONTINUOUS
 62
     3
 48
32.0
100
AcDbLine
 10
605.5148249805807
 20
239.8537710252524
 30
0.0
 11
502.9647249805807
 21
239.8537710252524
 31
0.0
  0
LINE
  5
3A3
330
1A
100
AcDbEntity
  8
SEIHIN
  6
CONTINUOUS
 62
     3
 48
32.0
100
AcDbLine
 10
513.1749519705804
 20
188.6079586909524
 30
0.0
 11
512.6295542875809
 21
219.8537710252524
 31
0.0
  0
ARC
  5
3A4
330
1A
100
AcDbEntity
  8
SEIHIN
  6
CONTINUOUS
 62
     3
 48
32.0
100
AcDbCircle
 10
613.1140346724805
 20
192.0979083612524
 30
0.0
 40
100.0
100
AcDbArc
 50
182.0
 51
189.1706278673
  0
LINE
  5
3A5
330
1A
100
AcDbEntity
  8
SEIHIN
  6
CONTINUOUS
 62
     3
 48
32.0
100
AcDbLine
 10
519.7810999284806
 20
176.1603962859524
 30
0.0
 11
520.6423249805807
 21
171.8542710252524
 31
0.0
  0
ARC
  5
3A6
330
1A
100
AcDbEntity
  8
SEIHIN
  6
CONTINUOUS
 62
     3
 48
32.0
100
AcDbCircle
 10
514.6181249805809
 20
267.4979710252524
 30
0.0
 40
29.9999868557
100
AcDbArc
 50
193.1483745463
 51
246.5172280566
  0
ARC
  5
3A7
330
1A
100
AcDbEntity
  8
SEIHIN
  6
CONTINUOUS
 62
     3
 48
32.0
100
AcDbCircle
 10
777.5397249805804
 20
328.9162710252524
 30
0.0
 40
299.9999738257999
100
AcDbArc
 50
187.9483497695
 51
193.1537167857
  0
ARC
  5
3A8
330
1A
100
AcDbEntity
  8
SEIHIN
  6
CONTINUOUS
 62
     3
 48
32.0
100
AcDbCircle
 10
523.6181249805809
 20
267.4979710252524
 30
0.0
 40
29.9999868557
100
AcDbArc
 50
193.1483745463
 51
246.5172280566
  0
ARC
  5
3A9
330
1A
100
AcDbEntity
  8
SEIHIN
  6
CONTINUOUS
 62
     3
 48
32.0
100
AcDbCircle
 10
519.5961249805809
 20
222.8537710252524
 30
0.0
 40
2.9999852083
100
AcDbArc
 50
189.5147572149999
 51
270.0
  0
ARC
  5
3AA
330
1A
100
AcDbEntity
  8
SEIHIN
  6
CONTINUOUS
 62
     3
 48
32.0
100
AcDbCircle
 10
482.1189249805806
 20
216.5718710252525
 30
0.0
 40
35.0000759017
100
AcDbArc
 50
9.515474263799999
 51
30.1898838538
  0
ARC
  5
3AB
330
1A
100
AcDbEntity
  8
SEIHIN
  6
CONTINUOUS
 62
     3
 48
32.0
100
AcDbCircle
 10
473.1189249805806
 20
216.5718710252525
 30
0.0
 40
35.0000759017
100
AcDbArc
 50
9.515474263799999
 51
30.1898838538
  0
ARC
  5
3AC
330
1A
100
AcDbEntity
  8
SEIHIN
  6
CONTINUOUS
 62
     3
 48
32.0
100
AcDbCircle
 10
510.5961249805809
 20
222.8537710252524
 30
0.0
 40
2.9999852083
100
AcDbArc
 50
189.5147572149999
 51
270.0
  0
ARC
  5
3AD
330
1A
100
AcDbEntity
  8
SEIHIN
  6
CONTINUOUS
 62
     3
 48
32.0
100
AcDbCircle
 10
502.4647249805807
 20
239.5238710252525
 30
0.0
 40
0.5000172244
100
AcDbArc
 50
0.0
 51
66.51102869890002
  0
LINE
  5
3AE
330
1A
100
AcDbEntity
  8
SEIHIN
  6
CONTINUOUS
 62
     3
 48
32.0
100
AcDbLine
 10
502.9647249805807
 20
239.5238710252525
 30
0.0
 11
502.9647249805807
 21
235.6808710252524
 31
0.0
  0
ARC
  5
3AF
330
1A
100
AcDbEntity
  8
SEIHIN
  6
CONTINUOUS
 62
     3
 48
32.0
100
AcDbCircle
 10
505.9647249805807
 20
235.6808710252524
 30
0.0
 40
2.9999602461
100
AcDbArc
 50
180.0
 51
210.1907225095999
  0
ARC
  5
3B0
330
1A
100
AcDbEntity
  8
SEIHIN
  6
CONTINUOUS
 62
     3
 48
32.0
100
AcDbCircle
 10
511.4647249805807
 20
239.5238710252525
 30
0.0
 40
0.5000172244
100
AcDbArc
 50
0.0
 51
66.51102869890002
  0
LINE
  5
3B1
330
1A
100
AcDbEntity
  8
SEIHIN
  6
CONTINUOUS
 62
     3
 48
32.0
100
AcDbLine
 10
511.9647249805807
 20
239.5238710252525
 30
0.0
 11
511.9647249805807
 21
235.6808710252524
 31
0.0
  0
ARC
  5
3B2
330
1A
100
AcDbEntity
  8
SEIHIN
  6
CONTINUOUS
 62
     3
 48
32.0
100
AcDbCircle
 10
514.9647249805807
 20
235.6808710252524
 30
0.0
 40
2.9999602461
100
AcDbArc
 50
180.0
 51
210.1907225095999
  0
ARC
  5
3B3
330
1A
100
AcDbEntity
  8
SEIHIN
  6
CONTINUOUS
 62
     3
 48
32.0
100
AcDbCircle
 10
786.5397249805804
 20
328.9162710252524
 30
0.0
 40
299.9999469539
100
AcDbArc
 50
187.9483497695
 51
193.1483844553
  0
ARC
  5
3B4
330
1A
100
AcDbEntity
  8
SEIHIN
  6
CONTINUOUS
 62
     3
 48
32.0
100
AcDbCircle
 10
512.2414514019806
 20
298.1906746633524
 30
0.0
 40
0.9999658612999999
100
AcDbArc
 50
230.7101899782999
 51
270.0
  0
ARC
  5
3B5
330
1A
100
AcDbEntity
  8
NOKITOI
  6
PHANTOM
 62
     8
 48
3.5
100
AcDbCircle
 10
512.4914804994432
 20
298.8906738670439
 30
0.0
 40
0.5000020000000001
100
AcDbArc
 50
230.7138179999999
 51
270.0
  0
ARC
  5
3B6
330
1A
100
AcDbEntity
  8
NOKITOI
  6
PHANTOM
 62
     8
 48
3.5
100
AcDbCircle
 10
512.2415804994434
 20
298.1906738670439
 30
0.0
 40
1.000005
100
AcDbArc
 50
230.7138179999999
 51
270.0
  0
LINE
  5
3B7
330
1A
100
AcDbEntity
  8
CENTER_L
  6
CENTER
 62
     1
 48
5.0
100
AcDbLine
 10
556.9648456080808
 20
249.6690334262524
 30
0.0
 11
556.9647084690809
 21
158.8287516543524
 31
0.0
  0
LINE
  5
3B8
330
1A
100
AcDbEntity
  8
SEIHIN
  6
CONTINUOUS
 62
     3
 48
32.0
100
AcDbLine
 10
598.6094979905806
 20
188.6079586909524
 30
0.0
 11
599.154895673581
 21
219.8537710252524
 31
0.0
  0
DIMENSION
  5
3B9
330
1A
100
AcDbEntity
  8
SUNPOU
100
AcDbDimension
  2
*D9
 10
644.0971555170207
 20
176.1603962860349
 30
0.0
 11
639.0971555170207
 21
150.0603962860349
 31
0.0
 12
-1.134374101806315
 22
-15.86810021093265
 32
0.0
 70
    32
  1
※b<>
  3
STANDARD
100
AcDbAlignedDimension
 13
598.5667756298878
 23
186.1603962859524
 33
0.0
 14
597.3922249806244
 24
176.1603962860349
 34
0.0
 50
90.0
100
AcDbRotatedDimension
1001
ACAD
1000
DSTYLE
1002
{
1070
   140
1040
6.0
1070
    74
1070
     0
1070
   172
1070
     1
1070
    73
1070
     0
1070
   272
1070
     2
1070
    77
1070
     3
1070
   173
1070
     1
1070
   147
1040
2.0
1070
    42
1040
6.0
1070
    44
1040
3.0
1070
    43
1040
14.0
1070
   271
1070
     0
1070
   178
1070
     4
1070
   177
1070
     4
1070
   176
1070
     4
1070
   141
1040
150.0
1070
     7
1000
_OPEN
1070
     6
1000
_OPEN
1070
    41
1040
7.0
1002
}
  0
LINE
  5
3BA
330
1A
100
AcDbEntity
  8
SEIHIN
  6
CONTINUOUS
 62
     3
 48
32.0
100
AcDbLine
 10
555.8924249805809
 20
171.8541710252524
 30
0.0
 11
591.1423249805807
 21
171.8540710252525
 31
0.0
  0
LINE
  5
3BB
330
1A
100
AcDbEntity
  8
SEIHIN
  6
CONTINUOUS
 62
     3
 48
32.0
100
AcDbLine
 10
597.3922249805805
 20
176.1603962859524
 30
0.0
 11
555.8922249805805
 21
176.1603962859524
 31
0.0
  0
ARC
  5
3BC
330
1A
100
AcDbEntity
  8
SEIHIN
  6
CONTINUOUS
 62
     3
 48
32.0
100
AcDbCircle
 10
498.6704152886809
 20
192.0979083612524
 30
0.0
 40
100.0
100
AcDbArc
 50
350.8293721327
 51
358.0
  0
LINE
  5
3BD
330
1A
100
AcDbEntity
  8
SEIHIN
  6
CONTINUOUS
 62
     3
 48
32.0
100
AcDbLine
 10
592.0035700326807
 20
176.1603962859524
 30
0.0
 11
591.1423249805807
 21
171.8541710252524
 31
0.0
  0
ARC
  5
3BE
330
1A
100
AcDbEntity
  8
SEIHIN
  6
CONTINUOUS
 62
     3
 48
32.0
100
AcDbCircle
 10
601.1883249805805
 20
222.8537710252524
 30
0.0
 40
2.999984353299999
100
AcDbArc
 50
270.0
 51
355.5684828877999
  0
DIMENSION
  5
3BF
330
1A
100
AcDbEntity
  8
SUNPOU
100
AcDbDimension
  2
*D10
 10
615.4648249805809
 20
427.5430613995766
 30
0.0
 11
537.3648749805806
 21
432.5430613995766
 31
0.0
 12
-1.134374101806315
 22
-15.86810021093265
 32
0.0
 70
    32
  3
STANDARD
100
AcDbAlignedDimension
 13
459.2649249805804
 23
370.8538710252525
 33
0.0
 14
615.4648249805809
 24
360.8538710252525
 34
0.0
100
AcDbRotatedDimension
1001
ACAD
1000
DSTYLE
1002
{
1070
   140
1040
6.0
1070
    74
1070
     0
1070
   172
1070
     1
1070
    73
1070
     0
1070
   272
1070
     2
1070
    77
1070
     3
1070
   173
1070
     1
1070
   147
1040
2.0
1070
    42
1040
6.0
1070
    44
1040
3.0
1070
    43
1040
14.0
1070
   271
1070
     0
1070
   178
1070
     4
1070
   177
1070
     4
1070
   176
1070
     4
1070
   141
1040
150.0
1070
     7
1000
_OPEN
1070
     6
1000
_OPEN
1070
    41
1040
7.0
1002
}
  0
DIMENSION
  5
3C0
330
1A
100
AcDbEntity
  8
SUNPOU
100
AcDbDimension
  2
*D11
 10
615.4648249805809
 20
400.0445295708223
 30
0.0
 11
582.2148249805809
 21
405.0445295708223
 31
0.0
 12
-1.134374101806315
 22
-15.86810021093265
 32
0.0
 70
    32
  3
STANDARD
100
AcDbAlignedDimension
 13
548.9648249805809
 23
325.5162488030524
 33
0.0
 14
615.4648249805809
 24
360.8538710252525
 34
0.0
100
AcDbRotatedDimension
1001
ACAD
1000
DSTYLE
1002
{
1070
   140
1040
6.0
1070
    74
1070
     0
1070
   172
1070
     1
1070
    73
1070
     0
1070
   272
1070
     2
1070
    77
1070
     3
1070
   173
1070
     1
1070
   147
1040
2.0
1070
    42
1040
6.0
1070
    44
1040
3.0
1070
    43
1040
14.0
1070
   271
1070
     0
1070
   178
1070
     4
1070
   177
1070
     4
1070
   176
1070
     4
1070
   141
1040
150.0
1070
     7
1000
_OPEN
1070
     6
1000
_OPEN
1070
    41
1040
7.0
1002
}
  0
LINE
  5
3C2
330
1A
100
AcDbEntity
  8
SEIHIN
  6
CONTINUOUS
 62
     3
 48
32.0
100
AcDbLine
 10
489.1625249805806
 20
345.8538710252525
 30
0.0
 11
472.2648249805806
 21
345.8538710252525
 31
0.0
  0
LINE
  5
3C3
330
1A
100
AcDbEntity
  8
SEIHIN
  6
CONTINUOUS
 62
     3
 48
32.0
100
AcDbLine
 10
489.0777249805806
 20
348.8538710252525
 30
0.0
 11
463.2648249805806
 21
348.8538710252525
 31
0.0
  0
ARC
  5
3C4
330
1A
100
AcDbEntity
  8
SEIHIN
  6
CONTINUOUS
 62
     3
 48
32.0
100
AcDbCircle
 10
458.9792249805809
 20
324.6761710252524
 30
0.0
 40
25.0000068969
100
AcDbArc
 50
7.948338777299999
 51
57.89834231850001
  0
LINE
  5
3C5
330
1A
100
AcDbEntity
  8
SEIHIN
  6
CONTINUOUS
 62
     3
 48
32.0
100
AcDbLine
 10
504.7454249805809
 20
365.8538710252525
 30
0.0
 11
460.2173249805805
 21
365.8538710252525
 31
0.0
  0
LINE
  5
3C6
330
1A
100
AcDbEntity
  8
SEIHIN
  6
CONTINUOUS
 62
     3
 48
32.0
100
AcDbLine
 10
499.1639249805807
 20
370.8538710252525
 30
0.0
 11
459.2649249805804
 21
370.8538710252525
 31
0.0
  0
LINE
  5
3C7
330
1A
100
AcDbEntity
  8
SEIHIN
  6
CONTINUOUS
 62
     3
 48
32.0
100
AcDbLine
 10
463.5662249805805
 20
348.7533710252525
 30
0.0
 11
471.6764249805805
 21
346.0499710252524
 31
0.0
  0
ARC
  5
3C8
330
1A
100
AcDbEntity
  8
SEIHIN
  6
CONTINUOUS
 62
     3
 48
32.0
100
AcDbCircle
 10
471.3602249805808
 20
345.1012710252525
 30
0.0
 40
1.000008294999999
100
AcDbArc
 50
7.9494102911
 51
71.56686301589999
  0
LINE
  5
3C9
330
1A
100
AcDbEntity
  8
SEIHIN
  6
CONTINUOUS
 62
     3
 48
32.0
100
AcDbLine
 10
459.2649249805804
 20
370.8538710252525
 30
0.0
 11
459.7198249805805
 21
366.3040710252525
 31
0.0
  0
LINE
  5
3CA
330
1A
100
AcDbEntity
  8
SEIHIN
  6
CONTINUOUS
 62
     3
 48
32.0
100
AcDbLine
 10
461.3167249805806
 20
365.4122710252524
 30
0.0
 11
463.2277249805806
 21
349.1692710252525
 31
0.0
  0
ARC
  5
3CB
330
1A
100
AcDbEntity
  8
SEIHIN
  6
CONTINUOUS
 62
     3
 48
32.0
100
AcDbCircle
 10
463.7243249805806
 20
349.2277710252524
 30
0.0
 40
0.5000423881
100
AcDbArc
 50
186.7185390828
 51
251.5686745111
  0
ARC
  5
3CC
330
1A
100
AcDbEntity
  8
SEIHIN
  6
CONTINUOUS
 62
     3
 48
32.0
100
AcDbCircle
 10
463.7243249805806
 20
349.2276710252523
 30
0.0
 40
0.4999891088
100
AcDbArc
 50
186.7071591221
 51
251.5650511771
  0
ARC
  5
3CD
330
1A
100
AcDbEntity
  8
SEIHIN
  6
CONTINUOUS
 62
     3
 48
32.0
100
AcDbCircle
 10
460.2173249805805
 20
366.3538710252525
 30
0.0
 40
0.4999931449
100
AcDbArc
 50
185.716294437
 51
270.0
  0
ARC
  5
3CE
330
1A
100
AcDbEntity
  8
SEIHIN
  6
CONTINUOUS
 62
     3
 48
32.0
100
AcDbCircle
 10
460.8202249805803
 20
365.3538710252525
 30
0.0
 40
0.5000110598
100
AcDbArc
 50
6.7071591221
 51
90.0
  0
ARC
  5
3CF
330
1A
100
AcDbEntity
  8
NOKITOI
  6
PHANTOM
 62
     8
 48
3.5
100
AcDbCircle
 10
494.3997804994433
 20
342.1907738670439
 30
0.0
 40
5.199961
100
AcDbArc
 50
90.0
 51
142.075344
  0
LINE
  5
3D0
330
1A
100
AcDbEntity
  8
NOKITOI
  6
PHANTOM
 62
     8
 48
3.5
100
AcDbLine
 10
490.1485804994435
 20
350.1657738670439
 30
0.0
 11
490.2979804994433
 21
345.3868738670439
 31
0.0
  0
LINE
  5
3D1
330
1A
100
AcDbEntity
  8
NOKITOI
  6
PHANTOM
 62
     8
 48
3.5
100
AcDbLine
 10
497.4096804994433
 20
343.1644738670439
 30
0.0
 11
497.7254804994436
 21
349.1645738670439
 31
0.0
  0
LINE
  5
3D2
330
1A
100
AcDbEntity
  8
SEIHIN
  6
CONTINUOUS
 62
     3
 48
32.0
100
AcDbLine
 10
489.4098249805806
 20
337.0973710252524
 30
0.0
 11
489.0229249805806
 21
350.7973710252524
 31
0.0
  0
LINE
  5
3D3
330
1A
100
AcDbEntity
  8
NOKITOI
  6
PHANTOM
 62
     8
 48
3.5
100
AcDbLine
 10
488.9491804994436
 20
350.1283738670439
 30
0.0
 11
489.3393804994434
 21
337.6439738670439
 31
0.0
  0
LINE
  5
3D4
330
1A
100
AcDbEntity
  8
SEIHIN
  6
CONTINUOUS
 62
     3
 48
32.0
100
AcDbLine
 10
500.8432514019809
 20
306.6028746633524
 30
0.0
 11
498.0747514019808
 21
334.2901746633525
 31
0.0
  0
LINE
  5
3D5
330
1A
100
AcDbEntity
  8
NOKITOI
  6
PHANTOM
 62
     8
 48
3.5
100
AcDbLine
 10
499.0156804994435
 20
336.9405738670439
 30
0.0
 11
502.0085804994432
 21
307.0107738670439
 31
0.0
  0
LINE
  5
3D6
330
1A
100
AcDbEntity
  8
NOKITOI
  6
PHANTOM
 62
     8
 48
3.5
100
AcDbLine
 10
497.9747804994436
 20
335.2902738670438
 30
0.0
 11
500.8433804994433
 21
306.6027738670438
 31
0.0
  0
ARC
  5
3D7
330
1A
100
AcDbEntity
  8
SEIHIN
  6
CONTINUOUS
 62
     3
 48
32.0
100
AcDbCircle
 10
501.8383514019806
 20
306.7023746633525
 30
0.0
 40
1.000067285199999
100
AcDbArc
 50
185.7100230585999
 51
230.70938383
  0
ARC
  5
3D8
330
1A
100
AcDbEntity
  8
NOKITOI
  6
PHANTOM
 62
     8
 48
3.5
100
AcDbCircle
 10
501.8384804994434
 20
306.7022738670439
 30
0.0
 40
0.9999469999999998
100
AcDbArc
 50
185.710593
 51
230.7101899999999
  0
ARC
  5
3D9
330
1A
100
AcDbEntity
  8
NOKITOI
  6
PHANTOM
 62
     8
 48
3.5
100
AcDbCircle
 10
502.5061804994434
 20
307.0604738670439
 30
0.0
 40
0.5000770000000001
100
AcDbArc
 50
185.715153
 51
230.7049499999999
  0
ARC
  5
3DA
330
1A
100
AcDbEntity
  8
NOKITOI
  6
PHANTOM
 62
     8
 48
3.5
100
AcDbCircle
 10
496.9796804994435
 20
335.1907738670439
 30
0.0
 40
1.000030999999999
100
AcDbArc
 50
5.710023
 51
90.0
  0
ARC
  5
3DB
330
1A
100
AcDbEntity
  8
SEIHIN
  6
CONTINUOUS
 62
     3
 48
32.0
100
AcDbCircle
 10
491.4090249805808
 20
337.1537710252525
 30
0.0
 40
1.999997699999999
100
AcDbArc
 50
181.6159589268999
 51
270.0
  0
LINE
  5
3DC
330
1A
100
AcDbEntity
  8
SEIHIN
  6
CONTINUOUS
 62
     3
 48
32.0
100
AcDbLine
 10
497.0841249805808
 20
335.1537710252525
 30
0.0
 11
491.4090249805808
 21
335.1537710252525
 31
0.0
  0
ARC
  5
3DD
330
1A
100
AcDbEntity
  8
SEIHIN
  6
CONTINUOUS
 62
     3
 48
32.0
100
AcDbCircle
 10
497.0841249805808
 20
334.1537710252525
 30
0.0
 40
0.9999733293
100
AcDbArc
 50
7.840003723400001
 51
90.0
  0
LINE
  5
3DE
330
1A
100
AcDbEntity
  8
NOKITOI
  6
PHANTOM
 62
     8
 48
3.5
100
AcDbLine
 10
498.5181804994436
 20
337.3907738670439
 30
0.0
 11
492.4862804994436
 21
337.3907738670439
 31
0.0
  0
LINE
  5
3DF
330
1A
100
AcDbEntity
  8
NOKITOI
  6
PHANTOM
 62
     8
 48
3.5
100
AcDbLine
 10
490.8385804994436
 20
336.1906738670438
 30
0.0
 11
496.9796804994435
 21
336.1907738670439
 31
0.0
  0
ARC
  5
3E0
330
1A
100
AcDbEntity
  8
NOKITOI
  6
PHANTOM
 62
     8
 48
3.5
100
AcDbCircle
 10
494.3997804994433
 20
342.1907738670439
 30
0.0
 40
3.999983999999999
100
AcDbArc
 50
96.475278
 51
181.789374
  0
ARC
  5
3E1
330
1A
100
AcDbEntity
  8
NOKITOI
  6
PHANTOM
 62
     8
 48
3.5
100
AcDbCircle
 10
492.4862804994436
 20
339.3907738670439
 30
0.0
 40
1.999988
100
AcDbArc
 50
181.790805
 51
270.0
  0
LINE
  5
3E2
330
1A
100
AcDbEntity
  8
NOKITOI
  6
PHANTOM
 62
     8
 48
3.5
100
AcDbLine
 10
490.4872804994433
 20
339.3282738670439
 30
0.0
 11
490.4017804994432
 21
342.0658738670439
 31
0.0
  0
ARC
  5
3E3
330
1A
100
AcDbEntity
  8
NOKITOI
  6
PHANTOM
 62
     8
 48
3.5
100
AcDbCircle
 10
490.8385804994436
 20
337.6906738670438
 30
0.0
 40
1.499964999999999
100
AcDbArc
 50
181.788002
 51
270.0
  0
LINE
  5
3E4
330
1A
100
AcDbEntity
  8
NOKITOI
  6
PHANTOM
 62
     8
 48
3.5
100
AcDbLine
 10
496.9103804994433
 20
342.6906738670438
 30
0.0
 11
494.6612804994433
 21
342.6906738670438
 31
0.0
  0
LINE
  5
3E5
330
1A
100
AcDbEntity
  8
NOKITOI
  6
PHANTOM
 62
     8
 48
3.5
100
AcDbLine
 10
494.1662804994434
 20
343.2614738670439
 30
0.0
 11
494.5000804994434
 21
345.597673867044
 31
0.0
  0
ARC
  5
3E6
330
1A
100
AcDbEntity
  8
NOKITOI
  6
PHANTOM
 62
     8
 48
3.5
100
AcDbCircle
 10
494.6612804994433
 20
343.1907738670439
 30
0.0
 40
0.500012
100
AcDbArc
 50
171.8715179999999
 51
270.0
  0
ARC
  5
3E7
330
1A
100
AcDbEntity
  8
NOKITOI
  6
PHANTOM
 62
     8
 48
3.5
100
AcDbCircle
 10
494.0050804994434
 20
345.668473867044
 30
0.0
 40
0.499958
100
AcDbArc
 50
351.8698979999999
 51
96.47686300000001
  0
ARC
  5
3E8
330
1A
100
AcDbEntity
  8
NOKITOI
  6
PHANTOM
 62
     8
 48
3.5
100
AcDbCircle
 10
498.5181804994436
 20
336.8907738670439
 30
0.0
 40
0.499988
100
AcDbArc
 50
5.704892
 51
90.0
  0
ARC
  5
3E9
330
1A
100
AcDbEntity
  8
NOKITOI
  6
PHANTOM
 62
     8
 48
3.5
100
AcDbCircle
 10
496.9103804994433
 20
343.1907738670439
 30
0.0
 40
0.499993
100
AcDbArc
 50
270.0
 51
356.996247
  0
LINE
  5
3EA
330
1A
100
AcDbEntity
  8
NOKITOI
  6
PHANTOM
 62
     8
 48
3.5
100
AcDbLine
 10
496.2462804994434
 20
343.8907738670438
 30
0.0
 11
495.4683804994433
 21
343.8907738670438
 31
0.0
  0
LINE
  5
3EB
330
1A
100
AcDbEntity
  8
NOKITOI
  6
PHANTOM
 62
     8
 48
3.5
100
AcDbLine
 10
495.4683804994433
 20
343.8907738670438
 30
0.0
 11
495.8723804994433
 21
346.719173867044
 31
0.0
  0
LINE
  5
3EC
330
1A
100
AcDbEntity
  8
NOKITOI
  6
PHANTOM
 62
     8
 48
3.5
100
AcDbLine
 10
495.8723804994433
 20
346.7192738670439
 30
0.0
 11
496.4273804994436
 21
347.332273867044
 31
0.0
  0
LINE
  5
3ED
330
1A
100
AcDbEntity
  8
NOKITOI
  6
PHANTOM
 62
     8
 48
3.5
100
AcDbLine
 10
496.2462804994434
 20
343.8907738670438
 30
0.0
 11
496.4273804994436
 21
347.332273867044
 31
0.0
  0
ARC
  5
3EF
330
1A
100
AcDbEntity
  8
SEIHIN
  6
CONTINUOUS
 62
     3
 48
32.0
100
AcDbCircle
 10
499.1639249805807
 20
365.8538710252525
 30
0.0
 40
5.000003260999999
100
AcDbArc
 50
26.386199428
 51
90.0
  0
ARC
  5
3F0
330
1A
100
AcDbEntity
  8
SEIHIN
  6
CONTINUOUS
 62
     3
 48
32.0
100
AcDbCircle
 10
497.2648249805806
 20
360.7753710252524
 30
0.0
 40
9.9999728064
100
AcDbArc
 50
262.8186274677
 51
0.0
  0
LINE
  5
3F1
330
1A
100
AcDbEntity
  8
CENTER_L
  6
CENTER
 62
     1
 48
3.5
100
AcDbLine
 10
491.0148249805806
 20
359.3538710252524
 30
0.0
 11
503.5148249805806
 21
359.3538710252524
 31
0.0
  0
CIRCLE
  5
3F2
330
1A
100
AcDbEntity
  8
SEIHIN
  6
CONTINUOUS
 62
     3
 48
32.0
100
AcDbCircle
 10
497.2648249805806
 20
359.3538710252525
 30
0.0
 40
1.25
  0
LINE
  5
3F3
330
1A
100
AcDbEntity
  8
CENTER_L
  6
CENTER
 62
     1
 48
3.5
100
AcDbLine
 10
497.2648249805806
 20
353.1038710252525
 30
0.0
 11
497.2648249805806
 21
365.6038710252525
 31
0.0
  0
LINE
  5
3F4
330
1A
100
AcDbEntity
  8
SEIHIN
  6
CONTINUOUS
 62
     3
 48
32.0
100
AcDbLine
 10
496.0147249805809
 20
352.8538710252525
 30
0.0
 11
491.0220249805806
 21
352.8538710252525
 31
0.0
  0
LINE
  5
3F5
330
1A
100
AcDbEntity
  8
NOKITOI
  6
PHANTOM
 62
     8
 48
3.5
100
AcDbLine
 10
492.9209804994434
 20
348.490773867044
 30
0.0
 11
495.8574804994436
 21
348.490773867044
 31
0.0
  0
LINE
  5
3F6
330
1A
100
AcDbEntity
  8
NOKITOI
  6
PHANTOM
 62
     8
 48
3.5
100
AcDbLine
 10
490.9482804994436
 20
350.990773867044
 30
0.0
 11
493.4209804994434
 21
350.990773867044
 31
0.0
  0
LINE
  5
3F7
330
1A
100
AcDbEntity
  8
NOKITOI
  6
PHANTOM
 62
     8
 48
3.5
100
AcDbLine
 10
493.4209804994434
 20
350.990773867044
 30
0.0
 11
492.9209804994434
 21
348.490773867044
 31
0.0
  0
LINE
  5
3F8
330
1A
100
AcDbEntity
  8
NOKITOI
  6
PHANTOM
 62
     8
 48
3.5
100
AcDbLine
 10
490.9482804994436
 20
352.1907738670439
 30
0.0
 11
494.2748804994435
 21
352.1907738670439
 31
0.0
  0
ARC
  5
3F9
330
1A
100
AcDbEntity
  8
NOKITOI
  6
PHANTOM
 62
     8
 48
3.5
100
AcDbCircle
 10
490.9482804994436
 20
350.1906738670438
 30
0.0
 40
0.800045
100
AcDbArc
 50
90.0
 51
181.790582
  0
ARC
  5
3FA
330
1A
100
AcDbEntity
  8
SEIHIN
  6
CONTINUOUS
 62
     3
 48
32.0
100
AcDbCircle
 10
491.0220249805806
 20
350.8538710252525
 30
0.0
 40
1.9999991112
100
AcDbArc
 50
90.0
 51
181.6188225791
  0
ARC
  5
3FB
330
1A
100
AcDbEntity
  8
NOKITOI
  6
PHANTOM
 62
     8
 48
3.5
100
AcDbCircle
 10
490.9482804994436
 20
350.1906738670438
 30
0.0
 40
2.000036999999999
100
AcDbArc
 50
90.0
 51
181.787853
  0
LINE
  5
3FC
330
1A
100
AcDbEntity
  8
SEIHIN
  6
CONTINUOUS
 62
     3
 48
32.0
100
AcDbLine
 10
496.0147249805809
 20
352.8538710252525
 30
0.0
 11
496.0147249805809
 21
350.8538710252525
 31
0.0
  0
ARC
  5
3FD
330
1A
100
AcDbEntity
  8
NOKITOI
  6
PHANTOM
 62
     8
 48
3.5
100
AcDbCircle
 10
494.2748804994435
 20
351.6907738670439
 30
0.0
 40
0.499999
100
AcDbArc
 50
348.69681
 51
90.0
  0
LINE
  5
3FE
330
1A
100
AcDbEntity
  8
NOKITOI
  6
PHANTOM
 62
     8
 48
3.5
100
AcDbLine
 10
497.2261804994436
 20
349.6906738670438
 30
0.0
 11
494.9946804994433
 21
349.6906738670438
 31
0.0
  0
LINE
  5
3FF
330
1A
100
AcDbEntity
  8
NOKITOI
  6
PHANTOM
 62
     8
 48
3.5
100
AcDbLine
 10
494.8617804994433
 20
347.3907738670439
 30
0.0
 11
495.8574804994436
 21
348.490773867044
 31
0.0
  0
LINE
  5
400
330
1A
100
AcDbEntity
  8
NOKITOI
  6
PHANTOM
 62
     8
 48
3.5
100
AcDbLine
 10
494.5043804994433
 20
350.2888738670439
 30
0.0
 11
494.7651804994434
 21
351.5927738670439
 31
0.0
  0
ARC
  5
401
330
1A
100
AcDbEntity
  8
NOKITOI
  6
PHANTOM
 62
     8
 48
3.5
100
AcDbCircle
 10
494.9946804994433
 20
350.1907738670439
 30
0.0
 40
0.5000090000000001
100
AcDbArc
 50
168.6855729999999
 51
270.0
  0
LINE
  5
402
330
1A
100
AcDbEntity
  8
NOKITOI
  6
PHANTOM
 62
     8
 48
3.5
100
AcDbLine
 10
494.8617804994433
 20
347.3907738670439
 30
0.0
 11
494.3997804994433
 21
347.3907738670439
 31
0.0
  0
ARC
  5
403
330
1A
100
AcDbEntity
  8
NOKITOI
  6
PHANTOM
 62
     8
 48
3.5
100
AcDbCircle
 10
497.2261804994436
 20
349.1907738670439
 30
0.0
 40
0.499993
100
AcDbArc
 50
356.996247
 51
90.0
  0
LINE
  5
404
330
1A
100
AcDbEntity
  8
SEIHIN
  6
CONTINUOUS
 62
     3
 48
32.0
100
AcDbLine
 10
507.2648249805807
 20
360.7753710252524
 30
0.0
 11
503.6430249805808
 21
368.0759710252524
 31
0.0
  0
LINE
  5
405
330
1A
100
AcDbEntity
  8
SEIHIN
  6
CONTINUOUS
 62
     3
 48
32.0
100
AcDbLine
 10
609.3064249805807
 20
350.7973710252524
 30
0.0
 11
608.9194249805805
 21
337.0973710252524
 31
0.0
  0
LINE
  5
406
330
1A
100
AcDbEntity
  8
NOKITOI
  6
PHANTOM
 62
     8
 48
3.5
100
AcDbLine
 10
608.8202804994434
 20
350.1279738670439
 30
0.0
 11
608.4300804994436
 21
337.6436738670439
 31
0.0
  0
LINE
  5
407
330
1A
100
AcDbEntity
  8
NOKITOI
  6
PHANTOM
 62
     8
 48
3.5
100
AcDbLine
 10
607.6208804994434
 20
350.1654738670439
 30
0.0
 11
607.4714804994433
 21
345.3865738670439
 31
0.0
  0
LINE
  5
408
330
1A
100
AcDbEntity
  8
NOKITOI
  6
PHANTOM
 62
     8
 48
3.5
100
AcDbLine
 10
600.3597804994433
 20
343.1642738670439
 30
0.0
 11
600.0439804994434
 21
349.1641738670439
 31
0.0
  0
ARC
  5
409
330
1A
100
AcDbEntity
  8
NOKITOI
  6
PHANTOM
 62
     8
 48
3.5
100
AcDbCircle
 10
603.3696804994433
 20
342.1904738670439
 30
0.0
 40
5.199991
100
AcDbArc
 50
37.925525
 51
90.0
  0
LINE
  5
40A
330
1A
100
AcDbEntity
  8
SEIHIN
  6
CONTINUOUS
 62
     3
 48
32.0
100
AcDbLine
 10
615.4648249805809
 20
360.8538710252525
 30
0.0
 11
614.6731249805807
 21
332.8255710252524
 31
0.0
  0
ARC
  5
40B
330
1A
100
AcDbEntity
  8
NOKITOI
  6
PHANTOM
 62
     8
 48
3.5
100
AcDbCircle
 10
600.7860804994434
 20
335.1905738670438
 30
0.0
 40
0.9999870000000001
100
AcDbArc
 50
90.0
 51
173.4769449999999
  0
LINE
  5
40C
330
1A
100
AcDbEntity
  8
NOKITOI
  6
PHANTOM
 62
     8
 48
3.5
100
AcDbLine
 10
599.2421804994433
 20
337.3904738670439
 30
0.0
 11
605.2830804994433
 21
337.3904738670439
 31
0.0
  0
ARC
  5
40D
330
1A
100
AcDbEntity
  8
NOKITOI
  6
PHANTOM
 62
     8
 48
3.5
100
AcDbCircle
 10
599.2421804994433
 20
336.8905738670439
 30
0.0
 40
0.500012
100
AcDbArc
 50
90.0
 51
175.5265939999999
  0
ARC
  5
40E
330
1A
100
AcDbEntity
  8
SEIHIN
  6
CONTINUOUS
 62
     3
 48
32.0
100
AcDbCircle
 10
606.9202249805807
 20
337.1537710252525
 30
0.0
 40
1.999997699999999
100
AcDbArc
 50
270.0
 51
358.3840410731
  0
LINE
  5
40F
330
1A
100
AcDbEntity
  8
SEIHIN
  6
CONTINUOUS
 62
     3
 48
32.0
100
AcDbLine
 10
613.6735249805806
 20
331.8538710252525
 30
0.0
 11
600.0346249805807
 21
331.8538710252525
 31
0.0
  0
ARC
  5
410
330
1A
100
AcDbEntity
  8
SEIHIN
  6
CONTINUOUS
 62
     3
 48
32.0
100
AcDbCircle
 10
601.2695249805806
 20
334.1537710252525
 30
0.0
 40
0.9999813121999999
100
AcDbArc
 50
90.0
 51
174.2894068624999
  0
LINE
  5
411
330
1A
100
AcDbEntity
  8
SEIHIN
  6
CONTINUOUS
 62
     3
 48
32.0
100
AcDbLine
 10
606.9202249805807
 20
335.1537710252525
 30
0.0
 11
601.2695249805806
 21
335.1537710252525
 31
0.0
  0
ARC
  5
412
330
1A
100
AcDbEntity
  8
SEIHIN
  6
CONTINUOUS
 62
     3
 48
32.0
100
AcDbCircle
 10
613.6735249805806
 20
332.8538710252525
 30
0.0
 40
0.9999502825
100
AcDbArc
 50
270.0
 51
358.3781516137
  0
ARC
  5
413
330
1A
100
AcDbEntity
  8
SEIHIN
  6
CONTINUOUS
 62
     3
 48
32.0
100
AcDbCircle
 10
614.5050249805803
 20
329.9713710252524
 30
0.0
 40
2.000026371699999
100
AcDbArc
 50
106.0933572004
 51
175.5696562728999
  0
ARC
  5
414
330
1A
100
AcDbEntity
  8
SEIHIN
  6
CONTINUOUS
 62
     3
 48
32.0
100
AcDbCircle
 10
616.4100249805805
 20
328.6691710252524
 30
0.0
 40
3.9999611711
100
AcDbArc
 50
123.1823388602999
 51
175.5680068456999
  0
ARC
  5
415
330
1A
100
AcDbEntity
  8
NOKITOI
  6
PHANTOM
 62
     8
 48
3.5
100
AcDbCircle
 10
606.9307804994432
 20
337.6904738670439
 30
0.0
 40
1.500014999999999
100
AcDbArc
 50
270.0
 51
358.212118
  0
ARC
  5
416
330
1A
100
AcDbEntity
  8
NOKITOI
  6
PHANTOM
 62
     8
 48
3.5
100
AcDbCircle
 10
603.3696804994433
 20
342.1904738670439
 30
0.0
 40
3.99999
100
AcDbArc
 50
358.2106259999999
 51
83.52329799999999
  0
ARC
  5
417
330
1A
100
AcDbEntity
  8
NOKITOI
  6
PHANTOM
 62
     8
 48
3.5
100
AcDbCircle
 10
605.2830804994433
 20
339.3904738670439
 30
0.0
 40
1.999988
100
AcDbArc
 50
270.0
 51
358.209195
  0
LINE
  5
418
330
1A
100
AcDbEntity
  8
NOKITOI
  6
PHANTOM
 62
     8
 48
3.5
100
AcDbLine
 10
607.2820804994435
 20
339.3279738670439
 30
0.0
 11
607.3676804994434
 21
342.0655738670439
 31
0.0
  0
ARC
  5
419
330
1A
100
AcDbEntity
  8
NOKITOI
  6
PHANTOM
 62
     8
 48
3.5
100
AcDbCircle
 10
603.1082804994435
 20
343.1904738670439
 30
0.0
 40
0.499962
100
AcDbArc
 50
270.0
 51
8.130102
  0
ARC
  5
41A
330
1A
100
AcDbEntity
  8
NOKITOI
  6
PHANTOM
 62
     8
 48
3.5
100
AcDbCircle
 10
603.7644804994434
 20
345.6681738670439
 30
0.0
 40
0.500007
100
AcDbArc
 50
83.52313700000001
 51
188.128482
  0
LINE
  5
41B
330
1A
100
AcDbEntity
  8
NOKITOI
  6
PHANTOM
 62
     8
 48
3.5
100
AcDbLine
 10
600.8591804994434
 20
342.6903738670439
 30
0.0
 11
603.1082804994435
 21
342.6903738670439
 31
0.0
  0
LINE
  5
41C
330
1A
100
AcDbEntity
  8
NOKITOI
  6
PHANTOM
 62
     8
 48
3.5
100
AcDbLine
 10
601.5232804994434
 20
343.8904738670439
 30
0.0
 11
602.3010804994433
 21
343.8904738670439
 31
0.0
  0
LINE
  5
41D
330
1A
100
AcDbEntity
  8
NOKITOI
  6
PHANTOM
 62
     8
 48
3.5
100
AcDbLine
 10
602.3010804994433
 20
343.8904738670439
 30
0.0
 11
601.8970804994433
 21
346.7188738670439
 31
0.0
  0
ARC
  5
41E
330
1A
100
AcDbEntity
  8
NOKITOI
  6
PHANTOM
 62
     8
 48
3.5
100
AcDbCircle
 10
600.8591804994434
 20
343.1904738670439
 30
0.0
 40
0.499993
100
AcDbArc
 50
183.003753
 51
270.0
  0
LINE
  5
41F
330
1A
100
AcDbEntity
  8
NOKITOI
  6
PHANTOM
 62
     8
 48
3.5
100
AcDbLine
 10
601.8970804994433
 20
346.7188738670439
 30
0.0
 11
601.3420804994434
 21
347.3318738670438
 31
0.0
  0
LINE
  5
420
330
1A
100
AcDbEntity
  8
NOKITOI
  6
PHANTOM
 62
     8
 48
3.5
100
AcDbLine
 10
601.5232804994434
 20
343.8904738670439
 30
0.0
 11
601.3420804994434
 21
347.3318738670438
 31
0.0
  0
LINE
  5
421
330
1A
100
AcDbEntity
  8
NOKITOI
  6
PHANTOM
 62
     8
 48
3.5
100
AcDbLine
 10
603.6031804994436
 20
343.2611738670439
 30
0.0
 11
603.2694804994434
 21
345.5973738670438
 31
0.0
  0
LINE
  5
422
330
1A
100
AcDbEntity
  8
NOKITOI
  6
PHANTOM
 62
     8
 48
3.5
100
AcDbLine
 10
606.9307804994432
 20
336.1904738670439
 30
0.0
 11
600.7860804994434
 21
336.1905738670439
 31
0.0
  0
ARC
  5
423
330
1A
100
AcDbEntity
  8
SEIHIN
  6
CONTINUOUS
 62
     3
 48
32.0
100
AcDbCircle
 10
602.3145249805807
 20
355.8538710252525
 30
0.0
 40
5.0
100
AcDbArc
 50
90.0
 51
270.0
  0
ARC
  5
424
330
1A
100
AcDbEntity
  8
SEIHIN
  6
CONTINUOUS
 62
     3
 48
32.0
100
AcDbCircle
 10
607.3072249805805
 20
350.8538710252525
 30
0.0
 40
1.9999991112
100
AcDbArc
 50
358.3811774208999
 51
90.0
  0
ARC
  5
425
330
1A
100
AcDbEntity
  8
NOKITOI
  6
PHANTOM
 62
     8
 48
3.5
100
AcDbCircle
 10
606.8212804994437
 20
350.1904738670439
 30
0.0
 40
1.999986999999999
100
AcDbArc
 50
358.212058
 51
90.0
  0
ARC
  5
426
330
1A
100
AcDbEntity
  8
NOKITOI
  6
PHANTOM
 62
     8
 48
3.5
100
AcDbCircle
 10
606.8212804994437
 20
350.1904738670439
 30
0.0
 40
0.7999950000000001
100
AcDbArc
 50
358.209195
 51
90.0
  0
LINE
  5
427
330
1A
100
AcDbEntity
  8
SEIHIN
  6
CONTINUOUS
 62
     3
 48
32.0
100
AcDbLine
 10
602.3145249805807
 20
352.8538710252525
 30
0.0
 11
602.3145249805807
 21
350.8538710252525
 31
0.0
  0
ARC
  5
428
330
1A
100
AcDbEntity
  8
NOKITOI
  6
PHANTOM
 62
     8
 48
3.5
100
AcDbCircle
 10
603.4946804994433
 20
351.6904738670439
 30
0.0
 40
0.499999
100
AcDbArc
 50
90.0
 51
191.30319
  0
LINE
  5
429
330
1A
100
AcDbEntity
  8
NOKITOI
  6
PHANTOM
 62
     8
 48
3.5
100
AcDbLine
 10
600.5433804994436
 20
349.6905738670438
 30
0.0
 11
602.7748804994435
 21
349.6903738670439
 31
0.0
  0
ARC
  5
42A
330
1A
100
AcDbEntity
  8
NOKITOI
  6
PHANTOM
 62
     8
 48
3.5
100
AcDbCircle
 10
600.5433804994436
 20
349.1905738670439
 30
0.0
 40
0.499996
100
AcDbArc
 50
90.0
 51
183.015197
  0
ARC
  5
42B
330
1A
100
AcDbEntity
  8
NOKITOI
  6
PHANTOM
 62
     8
 48
3.5
100
AcDbCircle
 10
602.7748804994435
 20
350.1904738670439
 30
0.0
 40
0.5000090000000001
100
AcDbArc
 50
270.0
 51
11.314427
  0
LINE
  5
42C
330
1A
100
AcDbEntity
  8
NOKITOI
  6
PHANTOM
 62
     8
 48
3.5
100
AcDbLine
 10
603.2651804994434
 20
350.2885738670439
 30
0.0
 11
603.0043804994434
 21
351.5923738670439
 31
0.0
  0
LINE
  5
42D
330
1A
100
AcDbEntity
  8
NOKITOI
  6
PHANTOM
 62
     8
 48
3.5
100
AcDbLine
 10
602.9077804994435
 20
347.3904738670439
 30
0.0
 11
603.3696804994433
 21
347.3904738670439
 31
0.0
  0
LINE
  5
42E
330
1A
100
AcDbEntity
  8
NOKITOI
  6
PHANTOM
 62
     8
 48
3.5
100
AcDbLine
 10
602.9077804994435
 20
347.3904738670439
 30
0.0
 11
601.9119804994434
 21
348.4904738670438
 31
0.0
  0
LINE
  5
42F
330
1A
100
AcDbEntity
  8
SEIHIN
  6
CONTINUOUS
 62
     3
 48
32.0
100
AcDbLine
 10
607.3072249805805
 20
352.8538710252525
 30
0.0
 11
602.3145249805807
 21
352.8538710252525
 31
0.0
  0
LINE
  5
430
330
1A
100
AcDbEntity
  8
NOKITOI
  6
PHANTOM
 62
     8
 48
3.5
100
AcDbLine
 10
604.8484804994436
 20
348.4904738670438
 30
0.0
 11
601.9119804994434
 21
348.4904738670438
 31
0.0
  0
LINE
  5
431
330
1A
100
AcDbEntity
  8
NOKITOI
  6
PHANTOM
 62
     8
 48
3.5
100
AcDbLine
 10
604.3484804994436
 20
350.9904738670438
 30
0.0
 11
604.8484804994436
 21
348.4904738670438
 31
0.0
  0
LINE
  5
432
330
1A
100
AcDbEntity
  8
NOKITOI
  6
PHANTOM
 62
     8
 48
3.5
100
AcDbLine
 10
606.8212804994437
 20
350.9904738670438
 30
0.0
 11
604.3484804994436
 21
350.9904738670438
 31
0.0
  0
LINE
  5
433
330
1A
100
AcDbEntity
  8
NOKITOI
  6
PHANTOM
 62
     8
 48
3.5
100
AcDbLine
 10
606.8212804994437
 20
352.1904738670439
 30
0.0
 11
603.4946804994433
 21
352.1904738670439
 31
0.0
  0
LINE
  5
434
330
1A
100
AcDbEntity
  8
SEIHIN
  6
CONTINUOUS
 62
     3
 48
32.0
100
AcDbLine
 10
615.4648249805809
 20
360.8538710252525
 30
0.0
 11
602.3145249805807
 21
360.8538710252525
 31
0.0
  0
LEADER
  5
544
330
1A
100
AcDbEntity
  8
SUNPOU
  6
CONTINUOUS
 62
     4
100
AcDbLeader
  3
STANDARD
 73
     0
 74
     0
 40
6.0
 41
30.19999999999999
 76
     3
 10
498.1390259842773
 20
360.3497689058611
 30
0.0
 10
505.5860148324809
 20
382.6103795342364
 30
0.0
 10
506.7050600072434
 20
382.6103795342364
 30
0.0
1001
ACAD
1000
DSTYLE
1002
{
1070
     6
1000
OPEN
1070
    41
1040
7.0
1070
    42
1040
6.0
1070
    43
1040
14.0
1070
    44
1040
3.0
1070
    73
1070
     0
1070
    74
1070
     0
1070
    77
1070
     3
1070
   140
1040
6.0
1070
   141
1040
150.0
1070
   147
1040
2.0
1070
   172
1070
     1
1070
   173
1070
     1
1070
   176
1070
     4
1070
   177
1070
     4
1070
   178
1070
     4
1070
   271
1070
     0
1070
   272
1070
     2
1070
   341
1005
6D
1070
   343
1005
6D
1070
   344
1005
6D
1002
}
  0
MTEXT
  5
545
330
1A
100
AcDbEntity
  8
SUNPOU
  6
CONTINUOUS
 62
     4
100
AcDbMText
 10
508.7050600072434
 20
384.6103795342364
 30
0.0
 40
6.0
 41
0.0
 71
     7
 72
     5
  1
2-φ2.0
1001
ACAD
1000
MTEXTBEGIN
1070
    73
1070
     1
1070
    44
1040
1.0
1070
    74
1070
     0
1000
MTEXTEND
1000
MTEXTBEGIN
1070
    73
1070
     1
1070
    44
1040
1.0
1070
    74
1070
     0
1000
MTEXTEND
  0
LWPOLYLINE
  5
6A3
330
1A
100
AcDbEntity
  8
ZUWAKU
100
AcDbPolyline
 90
        4
 70
     1
 43
0.0
 10
0.800000031437321
 20
550.7999994005872
 10
0.800000031437321
 20
0.7999994005872395
 10
796.8000000314373
 20
0.7999994005872395
 10
796.8000000314373
 20
550.7999994005872
  0
LWPOLYLINE
  5
6A4
330
1A
100
AcDbEntity
  8
ZUWAKU
100
AcDbPolyline
 90
        4
 70
     1
 43
0.0
 10
0.4000000314373438
 20
551.1999994005872
 10
0.4000000314373438
 20
0.3999994005872622
 10
797.2000000314374
 20
0.3999994005872391
 10
797.2000000314374
 20
551.1999994005872
  0
LWPOLYLINE
  5
6A5
330
1A
100
AcDbEntity
  8
ZUWAKU
100
AcDbPolyline
 90
        4
 70
     1
 43
0.0
 10
0.0000000314373665
 20
551.5999994005872
 10
0.0000000314373665
 20
-0.0000005994128287
 10
797.6000000314375
 20
-0.0000005994127612
 10
797.6000000314375
 20
551.5999994005873
  0
LWPOLYLINE
  5
6A6
330
1A
100
AcDbEntity
  8
ZUWAKU
100
AcDbPolyline
 90
        4
 70
     1
 43
0.0
 10
0.6000000314372756
 20
550.9999994005872
 10
0.6000000314372756
 20
0.5999994005871941
 10
797.0000000314375
 20
0.5999994005872403
 10
797.0000000314374
 20
550.9999994005872
  0
LWPOLYLINE
  5
6A7
330
1A
100
AcDbEntity
  8
ZUWAKU
100
AcDbPolyline
 90
        4
 70
     1
 43
0.0
 10
0.2000000314372983
 20
551.3999994005872
 10
0.2000000314372983
 20
0.1999994005872168
 10
797.4000000314372
 20
0.1999994005872398
 10
797.4000000314374
 20
551.3999994005872
  0
LINE
  5
6A8
330
1A
100
AcDbEntity
  8
ZUWAKU
100
AcDbLine
 10
0.0000000314373665
 20
29.99999940058717
 30
0.0
 11
797.4000000314372
 21
29.99999940058717
 31
0.0
  0
LINE
  5
6A9
330
1A
100
AcDbEntity
  8
ZUWAKU
100
AcDbLine
 10
0.0000000314373665
 20
30.19999940058717
 30
0.0
 11
797.4000000314372
 21
30.19999940058717
 31
0.0
  0
LINE
  5
6AA
330
1A
100
AcDbEntity
  8
ZUWAKU
100
AcDbLine
 10
0.0000000314373665
 20
30.39999940058717
 30
0.0
 11
797.4000000314372
 21
30.39999940058717
 31
0.0
  0
LINE
  5
6AB
330
1A
100
AcDbEntity
  8
ZUWAKU
100
AcDbLine
 10
0.0000000314373665
 20
30.59999940058718
 30
0.0
 11
797.4000000314372
 21
30.59999940058718
 31
0.0
  0
LINE
  5
6AC
330
1A
100
AcDbEntity
  8
ZUWAKU
100
AcDbLine
 10
0.0000000314373665
 20
30.79999940058718
 30
0.0
 11
797.4000000314372
 21
30.79999940058718
 31
0.0
  0
LINE
  5
6AD
330
1A
100
AcDbEntity
  8
ZUWAKU
100
AcDbLine
 10
208.6466013215054
 20
15.3999994005872
 30
0.0
 11
447.4243640024288
 21
15.3999994005872
 31
0.0
  0
LINE
  5
6AE
330
1A
100
AcDbEntity
  8
ZUWAKU
100
AcDbLine
 10
208.6466013215054
 20
15.5999994005872
 30
0.0
 11
447.4243640024288
 21
15.59999940058721
 31
0.0
  0
LINE
  5
6AF
330
1A
100
AcDbEntity
  8
ZUWAKU
100
AcDbLine
 10
208.6466013215054
 20
15.1999994005872
 30
0.0
 11
447.4243640024288
 21
15.1999994005872
 31
0.0
  0
TEXT
  5
6B0
330
1A
100
AcDbEntity
  8
MOJI
100
AcDbText
 10
92.9577896196065
 20
12.74117753086193
 30
0.0
 40
6.0
  1
新・丸トップＲＶ１０５
 41
0.9
  7
ｽﾀｲﾙ1
100
AcDbText
  0
CIRCLE
  5
6B1
330
1A
100
AcDbEntity
  8
ZUWAKU
100
AcDbCircle
 10
25.99221218621846
 20
15.19999940058717
 30
0.0
 40
1.75
  0
LINE
  5
6B2
330
1A
100
AcDbEntity
  8
ZUWAKU
100
AcDbLine
 10
26.86721218621846
 20
7.149999400587176
 30
0.0
 11
24.94221218621851
 21
7.149999400587176
 31
0.0
  0
LINE
  5
6B3
330
1A
100
AcDbEntity
  8
ZUWAKU
100
AcDbLine
 10
24.94221218621851
 20
9.949999400587174
 30
0.0
 11
26.86721218621846
 21
9.949999400587174
 31
0.0
  0
LINE
  5
6B4
330
1A
100
AcDbEntity
  8
ZUWAKU
100
AcDbLine
 10
26.86721218621846
 20
20.44999940058717
 30
0.0
 11
24.94221218621851
 21
20.44999940058717
 31
0.0
  0
LINE
  5
6B5
330
1A
100
AcDbEntity
  8
ZUWAKU
100
AcDbLine
 10
24.94221218621851
 20
23.24999940058713
 30
0.0
 11
26.86721218621846
 21
23.24999940058718
 31
0.0
  0
HATCH
  5
6B6
330
1A
100
AcDbEntity
  8
ZUWAKU
100
AcDbHatch
 10
0.0
 20
0.0
 30
0.0
210
0.0
220
0.0
230
1.0
  2
ANSI37
 70
     0
 71
     0
 91
        8
 92
        7
 72
     1
 73
     1
 93
       24
 10
14.50226269255722
 20
17.64484788157075
 42
-0.1989123673796348
 10
14.09221218621849
 20
18.6347973752318
 42
0.0
 10
14.09221218621849
 20
19.92499940058718
 42
-0.4142135623730912
 10
14.61721218621846
 20
20.44999940058717
 42
0.0
 10
17.59221218621837
 20
20.44999940058717
 42
0.4142135623731546
 10
18.11721218621846
 20
20.97499940058716
 42
0.0
 10
18.11721218621846
 20
22.72499940058718
 42
0.4142135623731586
 10
17.59221218621837
 20
23.24999940058718
 42
0.0
 10
14.09221218621849
 20
23.24999940058718
 42
0.4142135623730928
 10
11.29221218621853
 20
20.4499994005872
 42
0.0
 10
11.29221218621853
 20
18.63479737523193
 42
0.1989123673796619
 10
12.52236370523496
 20
15.66494889424832
 42
0.0
 10
15.43216167987964
 20
12.75515091960366
 42
-0.1989123673796613
 10
15.84221218621848
 20
11.76520142594248
 42
0.0
 10
15.84221218621848
 20
10.47499940058716
 42
-0.4142135623730911
 10
15.31721218621851
 20
9.949999400587174
 42
0.0
 10
12.3422121862186
 20
9.949999400587174
 42
0.4142135623731526
 10
11.81721218621851
 20
9.424999400587186
 42
0.0
 10
11.81721218621851
 20
7.674999400587164
 42
0.4142135623731526
 10
12.3422121862186
 20
7.149999400587176
 42
0.0
 10
15.84221218621848
 20
7.149999400587176
 42
0.4142135623731044
 10
18.64221218621855
 20
9.949999400587152
 42
0.0
 10
18.64221218621855
 20
11.76520142594242
 42
0.1989123673796604
 10
17.41206066720201
 20
14.73504990692596
 42
0.0
 97
        0
 92
        7
 72
     1
 73
     1
 93
       16
 10
23.54221218621853
 20
19.04999940058718
 42
-0.4142135623730935
 10
24.94221218621851
 20
20.44999940058717
 42
0.0
 10
26.86721218621846
 20
20.44999940058717
 42
0.4142135623731546
 10
27.39221218621855
 20
20.97499940058716
 42
0.0
 10
27.39221218621855
 20
22.72499940058718
 42
0.4142135623730951
 10
26.86721218621858
 20
23.24999940058718
 42
0.0
 10
24.9422121862184
 20
23.24999940058713
 42
0.4142135623730892
 10
20.74221218621846
 20
19.04999940058711
 42
0.0
 10
20.74221218621846
 20
11.3499994005872
 42
0.4142135623730969
 10
24.94221218621851
 20
7.149999400587176
 42
0.0
 10
26.86721218621846
 20
7.149999400587176
 42
0.4142135623731526
 10
27.39221218621855
 20
7.674999400587164
 42
0.0
 10
27.39221218621855
 20
9.424999400587186
 42
0.4142135623730891
 10
26.86721218621858
 20
9.949999400587174
 42
0.0
 10
24.94221218621851
 20
9.949999400587174
 42
-0.4142135623730928
 10
23.54221218621853
 20
11.34999940058716
 42
0.0
 97
        0
 92
        7
 72
     1
 73
     1
 93
        2
 10
24.24221218621847
 20
15.19999940058717
 42
1.0
 10
27.74221218621846
 20
15.19999940058717
 42
1.0
 97
        0
 92
        7
 72
     1
 73
     1
 93
       26
 10
37.31485866839648
 20
19.2050465941506
 42
0.0
 10
38.37649830153429
 20
22.56690543242019
 42
0.5069206636600134
 10
37.87586740233894
 20
23.24999940058718
 42
0.0
 10
36.17697802272971
 20
23.24999940058718
 42
0.3272098845218764
 10
35.67634712353435
 20
22.88309336875414
 42
0.0
 10
33.80807724890257
 20
16.96690543242025
 42
-0.3272098845219541
 10
33.3074463497071
 20
16.59999940058717
 42
0.0
 10
33.16721218621864
 20
16.59999940058717
 42
-0.4142135623731526
 10
32.64221218621855
 20
17.12499940058716
 42
0.0
 10
32.64221218621855
 20
22.72499940058718
 42
0.4142135623730951
 10
32.11721218621858
 20
23.24999940058718
 42
0.0
 10
30.36721218621846
 20
23.24999940058718
 42
0.4142135623730871
 10
29.84221218621849
 20
22.72499940058719
 42
0.0
 10
29.84221218621849
 20
7.674999400587164
 42
0.4142135623730891
 10
30.36721218621846
 20
7.149999400587176
 42
0.0
 10
32.11721218621846
 20
7.149999400587176
 42
0.4142135623731526
 10
32.64221218621855
 20
7.674999400587164
 42
0.0
 10
32.64221218621855
 20
13.27499940058718
 42
-0.4142135623731526
 10
33.16721218621864
 20
13.79999940058717
 42
0.0
 10
33.30744634970722
 20
13.79999940058717
 42
-0.3272098845218915
 10
33.80807724890257
 20
13.4330933687541
 42
0.0
 10
35.67634712353435
 20
7.516905432420248
 42
0.3272098845218902
 10
36.17697802272971
 20
7.149999400587176
 42
0.0
 10
37.87586740233894
 20
7.149999400587176
 42
0.5069206636600335
 10
38.37649830153429
 20
7.833093368754184
 42
0.0
 10
36.05010692306064
 20
15.19999940058731
 42
0.0
 97
        0
 92
        7
 72
     1
 73
     1
 93
        8
 10
43.49221218621846
 20
22.72499940058718
 42
0.4142135623731546
 10
42.96721218621837
 20
23.24999940058718
 42
0.0
 10
41.2172121862186
 20
23.24999940058718
 42
0.4142135623731507
 10
40.69221218621851
 20
22.72499940058719
 42
0.0
 10
40.69221218621851
 20
7.674999400587164
 42
0.4142135623731526
 10
41.2172121862186
 20
7.149999400587176
 42
0.0
 10
42.96721218621837
 20
7.149999400587176
 42
0.4142135623731526
 10
43.49221218621846
 20
7.674999400587164
 42
0.0
 97
        0
 92
        7
 72
     1
 73
     1
 93
       24
 10
48.39221218621855
 20
19.92499940058718
 42
-0.4142135623731546
 10
48.91721218621865
 20
20.44999940058717
 42
0.0
 10
51.89221218621856
 20
20.44999940058717
 42
0.4142135623730911
 10
52.41721218621854
 20
20.97499940058716
 42
0.0
 10
52.41721218621854
 20
22.72499940058718
 42
0.4142135623730952
 10
51.89221218621856
 20
23.24999940058718
 42
0.0
 10
48.39221218621855
 20
23.24999940058718
 42
0.4142135623731048
 10
45.59221218621849
 20
20.4499994005872
 42
0.0
 10
45.59221218621849
 20
18.63479737523193
 42
0.1989123673796613
 10
46.82236370523503
 20
15.66494889424838
 42
0.0
 10
49.7321616798797
 20
12.75515091960371
 42
-0.1989123673796402
 10
50.14221218621855
 20
11.76520142594264
 42
0.0
 10
50.14221218621855
 20
10.47499940058716
 42
-0.4142135623730911
 10
49.61721218621858
 20
9.949999400587174
 42
0.0
 10
46.64221218621856
 20
9.949999400587174
 42
0.4142135623731526
 10
46.11721218621847
 20
9.424999400587186
 42
0.0
 10
46.11721218621847
 20
7.674999400587164
 42
0.4142135623730891
 10
46.64221218621844
 20
7.149999400587176
 42
0.0
 10
50.14221218621855
 20
7.149999400587176
 42
0.4142135623730925
 10
52.94221218621851
 20
9.949999400587152
 42
0.0
 10
52.94221218621851
 20
11.76520142594242
 42
0.1989123673796675
 10
51.71206066720197
 20
14.73504990692608
 42
0.0
 10
48.8022626925574
 20
17.64484788157059
 42
-0.1989123673796652
 10
48.39221218621855
 20
18.63479737523176
 42
0.0
 97
        0
 92
        7
 72
     1
 73
     1
 93
       16
 10
57.84221218621849
 20
22.72499940058716
 42
0.414213562373103
 10
57.31721218621851
 20
23.24999940058718
 42
0.0
 10
55.56721218621851
 20
23.24999940058718
 42
0.4142135623730871
 10
55.04221218621854
 20
22.72499940058719
 42
0.0
 10
55.04221218621854
 20
9.949999400587152
 42
0.4142135623730926
 10
57.84221218621849
 20
7.149999400587176
 42
0.0
 10
61.34221218621849
 20
7.149999400587176
 42
0.4142135623731044
 10
64.14221218621856
 20
9.949999400587152
 42
0.0
 10
64.14221218621856
 20
22.72499940058718
 42
0.4142135623730951
 10
63.61721218621858
 20
23.24999940058718
 42
0.0
 10
61.86721218621847
 20
23.24999940058718
 42
0.4142135623730871
 10
61.34221218621849
 20
22.72499940058719
 42
0.0
 10
61.34221218621849
 20
10.99999940058715
 42
-0.414213562373088
 10
60.29221218621853
 20
9.949999400587174
 42
0.0
 10
58.89221218621855
 20
9.949999400587174
 42
-0.4142135623731197
 10
57.84221218621849
 20
10.99999940058715
 42
0.0
 97
        0
 92
        7
 72
     1
 73
     1
 93
        8
 10
69.04221218621853
 20
22.72499940058719
 42
0.4142135623730871
 10
68.51721218621856
 20
23.24999940058718
 42
0.0
 10
66.76721218621856
 20
23.24999940058718
 42
0.4142135623731507
 10
66.24221218621847
 20
22.72499940058719
 42
0.0
 10
66.24221218621847
 20
7.674999400587164
 42
0.4142135623730891
 10
66.76721218621844
 20
7.149999400587176
 42
0.0
 10
68.51721218621856
 20
7.149999400587176
 42
0.4142135623730891
 10
69.04221218621853
 20
7.674999400587164
 42
0.0
 97
        0
 75
     0
 76
     1
 52
0.0
 41
0.2
 77
     0
 78
     2
 53
45.0
 43
-900.9423043032416
 44
-13.20000059941276
 45
-0.4490128060534576
 46
0.4490128060534577
 79
     0
 53
135.0
 43
-900.9423043032416
 44
-13.20000059941276
 45
-0.4490128060534577
 46
-0.4490128060534576
 79
     0
 47
0.057451373970553
 98
        8
 10
16.07985499446067
 20
15.16717304647272
 10
22.40451503787653
 20
18.84406158303818
 10
25.16436791709702
 20
15.51188104665789
 10
30.9140600130745
 20
16.20129704702867
 10
41.8384720503941
 20
16.66090931457029
 10
46.89820092656691
 20
19.41857571699438
 10
56.55768600383772
 20
18.72915731568218
 10
67.8270796510601
 20
19.1887695832238
  0
ARC
  5
6B7
330
1A
100
AcDbEntity
  8
ZUWAKU
100
AcDbCircle
 10
15.49221218621846
 20
18.63479737523187
 30
0.0
 40
4.199999999999999
100
AcDbArc
 50
180.0
 51
225.0
  0
LINE
  5
6B8
330
1A
100
AcDbEntity
  8
ZUWAKU
100
AcDbLine
 10
20.74221218621846
 20
11.34999940058718
 30
0.0
 11
20.74221218621846
 21
19.04999940058713
 31
0.0
  0
LINE
  5
6B9
330
1A
100
AcDbEntity
  8
ZUWAKU
100
AcDbLine
 10
23.54221218621853
 20
19.04999940058717
 30
0.0
 11
23.54221218621853
 21
11.34999940058718
 31
0.0
  0
ARC
  5
6BA
330
1A
100
AcDbEntity
  8
ZUWAKU
100
AcDbCircle
 10
15.49221218621846
 20
18.63479737523187
 30
0.0
 40
1.399999999999999
100
AcDbArc
 50
180.0000000000016
 51
224.9999999999988
  0
ARC
  5
6BB
330
1A
100
AcDbEntity
  8
ZUWAKU
100
AcDbCircle
 10
24.94221218621851
 20
11.34999940058718
 30
0.0
 40
4.199999999999999
100
AcDbArc
 50
180.0
 51
270.0
  0
ARC
  5
6BC
330
1A
100
AcDbEntity
  8
ZUWAKU
100
AcDbCircle
 10
15.84221218621848
 20
9.949999400587174
 30
0.0
 40
2.799999999999999
100
AcDbArc
 50
270.0
 51
0.0
  0
ARC
  5
6BD
330
1A
100
AcDbEntity
  8
ZUWAKU
100
AcDbCircle
 10
14.44221218621851
 20
11.76520142594247
 30
0.0
 40
4.199999999999999
100
AcDbArc
 50
0.0
 51
45.0
  0
LINE
  5
6BE
330
1A
100
AcDbEntity
  8
ZUWAKU
100
AcDbLine
 10
12.52236370523496
 20
15.66494889424835
 30
0.0
 11
15.43216167987964
 21
12.75515091960369
 31
0.0
  0
LINE
  5
6BF
330
1A
100
AcDbEntity
  8
ZUWAKU
100
AcDbLine
 10
12.34221218621849
 20
9.949999400587174
 30
0.0
 11
15.31721218621851
 21
9.949999400587174
 31
0.0
  0
LINE
  5
6C0
330
1A
100
AcDbEntity
  8
ZUWAKU
100
AcDbLine
 10
12.34221218621849
 20
7.149999400587176
 30
0.0
 11
15.84221218621848
 21
7.149999400587176
 31
0.0
  0
ARC
  5
6C1
330
1A
100
AcDbEntity
  8
ZUWAKU
100
AcDbCircle
 10
12.34221218621849
 20
9.424999400587175
 30
0.0
 40
0.525
100
AcDbArc
 50
90.0
 51
180.0
  0
ARC
  5
6C2
330
1A
100
AcDbEntity
  8
ZUWAKU
100
AcDbCircle
 10
12.34221218621849
 20
7.674999400587175
 30
0.0
 40
0.525
100
AcDbArc
 50
180.0
 51
270.0
  0
LINE
  5
6C3
330
1A
100
AcDbEntity
  8
ZUWAKU
100
AcDbLine
 10
11.81721218621851
 20
7.674999400587175
 30
0.0
 11
11.81721218621851
 21
9.424999400587175
 31
0.0
  0
ARC
  5
6C4
330
1A
100
AcDbEntity
  8
ZUWAKU
100
AcDbCircle
 10
14.44221218621851
 20
11.76520142594252
 30
0.0
 40
1.399999999999999
100
AcDbArc
 50
0.0
 51
45.0
  0
ARC
  5
6C5
330
1A
100
AcDbEntity
  8
ZUWAKU
100
AcDbCircle
 10
15.31721218621851
 20
10.47499940058717
 30
0.0
 40
0.525
100
AcDbArc
 50
270.0
 51
0.0
  0
LINE
  5
6C6
330
1A
100
AcDbEntity
  8
ZUWAKU
100
AcDbLine
 10
15.84221218621848
 20
10.47499940058717
 30
0.0
 11
15.84221218621848
 21
11.76520142594252
 31
0.0
  0
LINE
  5
6C7
330
1A
100
AcDbEntity
  8
ZUWAKU
100
AcDbLine
 10
17.41206066720201
 20
14.735049906926
 30
0.0
 11
14.50226269255733
 21
17.64484788157067
 31
0.0
  0
ARC
  5
6C8
330
1A
100
AcDbEntity
  8
ZUWAKU
100
AcDbCircle
 10
24.94221218621851
 20
11.34999940058718
 30
0.0
 40
1.399999999999999
100
AcDbArc
 50
180.0
 51
270.0
  0
LINE
  5
6C9
330
1A
100
AcDbEntity
  8
ZUWAKU
100
AcDbLine
 10
18.64221218621855
 20
9.949999400587174
 30
0.0
 11
18.64221218621855
 21
11.76520142594252
 31
0.0
  0
ARC
  5
6CA
330
1A
100
AcDbEntity
  8
ZUWAKU
100
AcDbCircle
 10
17.59221218621848
 20
20.97499940058717
 30
0.0
 40
0.525
100
AcDbArc
 50
270.0
 51
0.0
  0
ARC
  5
6CB
330
1A
100
AcDbEntity
  8
ZUWAKU
100
AcDbCircle
 10
17.59221218621848
 20
22.72499940058717
 30
0.0
 40
0.525
100
AcDbArc
 50
0.0
 51
90.0
  0
ARC
  5
6CC
330
1A
100
AcDbEntity
  8
ZUWAKU
100
AcDbCircle
 10
14.09221218621849
 20
20.44999940058717
 30
0.0
 40
2.799999999999999
100
AcDbArc
 50
90.0
 51
180.0
  0
LINE
  5
6CD
330
1A
100
AcDbEntity
  8
ZUWAKU
100
AcDbLine
 10
11.29221218621853
 20
20.44999940058717
 30
0.0
 11
11.29221218621853
 21
18.63479737523183
 31
0.0
  0
LINE
  5
6CE
330
1A
100
AcDbEntity
  8
ZUWAKU
100
AcDbLine
 10
17.59221218621848
 20
20.44999940058717
 30
0.0
 11
14.61721218621846
 21
20.44999940058717
 31
0.0
  0
LINE
  5
6CF
330
1A
100
AcDbEntity
  8
ZUWAKU
100
AcDbLine
 10
14.09221218621849
 20
19.92499940058717
 30
0.0
 11
14.09221218621849
 21
18.63479737523183
 31
0.0
  0
ARC
  5
6D0
330
1A
100
AcDbEntity
  8
ZUWAKU
100
AcDbCircle
 10
14.61721218621846
 20
19.92499940058717
 30
0.0
 40
0.525
100
AcDbArc
 50
90.0
 51
180.0
  0
LINE
  5
6D1
330
1A
100
AcDbEntity
  8
ZUWAKU
100
AcDbLine
 10
14.09221218621849
 20
23.24999940058718
 30
0.0
 11
17.59221218621848
 21
23.24999940058718
 31
0.0
  0
ARC
  5
6D2
330
1A
100
AcDbEntity
  8
ZUWAKU
100
AcDbCircle
 10
24.94221218621851
 20
19.04999940058713
 30
0.0
 40
4.199999999999999
100
AcDbArc
 50
90.0
 51
180.0
  0
ARC
  5
6D3
330
1A
100
AcDbEntity
  8
ZUWAKU
100
AcDbCircle
 10
24.94221218621851
 20
19.04999940058717
 30
0.0
 40
1.399999999999999
100
AcDbArc
 50
90.0
 51
180.0
  0
LINE
  5
6D4
330
1A
100
AcDbEntity
  8
ZUWAKU
100
AcDbLine
 10
18.11721218621846
 20
22.72499940058717
 30
0.0
 11
18.11721218621846
 21
20.97499940058717
 31
0.0
  0
LINE
  5
6D5
330
1A
100
AcDbEntity
  8
ZUWAKU
100
AcDbLine
 10
35.67634712353435
 20
22.88309336875414
 30
0.0
 11
33.80807724890257
 21
16.9669054324202
 31
0.0
  0
LINE
  5
6D6
330
1A
100
AcDbEntity
  8
ZUWAKU
100
AcDbLine
 10
29.84221218621849
 20
22.72499940058717
 30
0.0
 11
29.84221218621849
 21
7.674999400587175
 31
0.0
  0
LINE
  5
6D7
330
1A
100
AcDbEntity
  8
ZUWAKU
100
AcDbLine
 10
32.64221218621855
 20
17.12499940058718
 30
0.0
 11
32.64221218621855
 21
22.72499940058717
 31
0.0
  0
LINE
  5
6D8
330
1A
100
AcDbEntity
  8
ZUWAKU
100
AcDbLine
 10
57.84221218621849
 20
10.99999940058717
 30
0.0
 11
57.84221218621849
 21
22.72499940058717
 31
0.0
  0
LINE
  5
6D9
330
1A
100
AcDbEntity
  8
ZUWAKU
100
AcDbLine
 10
55.04221218621854
 20
22.72499940058717
 30
0.0
 11
55.04221218621854
 21
9.949999400587174
 31
0.0
  0
LINE
  5
6DA
330
1A
100
AcDbEntity
  8
ZUWAKU
100
AcDbLine
 10
43.49221218621846
 20
7.674999400587175
 30
0.0
 11
43.49221218621846
 21
22.72499940058717
 31
0.0
  0
LINE
  5
6DB
330
1A
100
AcDbEntity
  8
ZUWAKU
100
AcDbLine
 10
40.69221218621851
 20
22.72499940058717
 30
0.0
 11
40.69221218621851
 21
7.674999400587175
 31
0.0
  0
LINE
  5
6DC
330
1A
100
AcDbEntity
  8
ZUWAKU
100
AcDbLine
 10
37.31485866839648
 20
19.2050465941506
 30
0.0
 11
36.05010692306064
 21
15.19999940058719
 31
0.0
  0
ARC
  5
6DD
330
1A
100
AcDbEntity
  8
ZUWAKU
100
AcDbCircle
 10
49.79221218621853
 20
18.63479737523187
 30
0.0
 40
4.199999999999999
100
AcDbArc
 50
180.0
 51
225.0
  0
ARC
  5
6DE
330
1A
100
AcDbEntity
  8
ZUWAKU
100
AcDbCircle
 10
49.79221218621853
 20
18.63479737523187
 30
0.0
 40
1.399999999999999
100
AcDbArc
 50
180.0000000000016
 51
224.9999999999988
  0
LINE
  5
6DF
330
1A
100
AcDbEntity
  8
ZUWAKU
100
AcDbLine
 10
66.24221218621847
 20
22.72499940058717
 30
0.0
 11
66.24221218621847
 21
7.674999400587175
 31
0.0
  0
LINE
  5
6E0
330
1A
100
AcDbEntity
  8
ZUWAKU
100
AcDbLine
 10
69.04221218621853
 20
7.674999400587175
 30
0.0
 11
69.04221218621853
 21
22.72499940058717
 31
0.0
  0
LINE
  5
6E1
330
1A
100
AcDbEntity
  8
ZUWAKU
100
AcDbLine
 10
61.34221218621849
 20
22.72499940058717
 30
0.0
 11
61.34221218621849
 21
10.99999940058717
 31
0.0
  0
LINE
  5
6E2
330
1A
100
AcDbEntity
  8
ZUWAKU
100
AcDbLine
 10
64.14221218621856
 20
9.949999400587174
 30
0.0
 11
64.14221218621856
 21
22.72499940058717
 31
0.0
  0
LINE
  5
6E3
330
1A
100
AcDbEntity
  8
ZUWAKU
100
AcDbLine
 10
79.12662957942576
 20
29.99999940058717
 30
0.0
 11
79.12662957942576
 21
0.7999994005872395
 31
0.0
  0
LINE
  5
6E4
330
1A
100
AcDbEntity
  8
ZUWAKU
100
AcDbLine
 10
79.52662957942561
 20
29.99999940058717
 30
0.0
 11
79.52662957942584
 21
0.7999994005872395
 31
0.0
  0
LINE
  5
6E5
330
1A
100
AcDbEntity
  8
ZUWAKU
100
AcDbLine
 10
79.32662957942557
 20
29.99999940058717
 30
0.0
 11
79.3266295794258
 21
0.7999994005872395
 31
0.0
  0
LINE
  5
6E6
330
1A
100
AcDbEntity
  8
ZUWAKU
100
AcDbLine
 10
57.84221218621849
 20
7.149999400587176
 30
0.0
 11
61.34221218621849
 21
7.149999400587176
 31
0.0
  0
LINE
  5
6E7
330
1A
100
AcDbEntity
  8
ZUWAKU
100
AcDbLine
 10
60.29221218621853
 20
9.949999400587174
 30
0.0
 11
58.89221218621855
 21
9.949999400587174
 31
0.0
  0
LINE
  5
6E8
330
1A
100
AcDbEntity
  8
ZUWAKU
100
AcDbLine
 10
41.21721218621849
 20
7.149999400587176
 30
0.0
 11
42.96721218621849
 21
7.149999400587176
 31
0.0
  0
LINE
  5
6E9
330
1A
100
AcDbEntity
  8
ZUWAKU
100
AcDbLine
 10
35.67634712353435
 20
7.516905432420202
 30
0.0
 11
33.80807724890257
 21
13.43309336875414
 31
0.0
  0
ARC
  5
6EA
330
1A
100
AcDbEntity
  8
ZUWAKU
100
AcDbCircle
 10
33.16721218621853
 20
13.27499940058717
 30
0.0
 40
0.525
100
AcDbArc
 50
90.0
 51
180.0
  0
ARC
  5
6EB
330
1A
100
AcDbEntity
  8
ZUWAKU
100
AcDbCircle
 10
33.30744634970722
 20
13.27499940058717
 30
0.0
 40
0.525
100
AcDbArc
 50
17.52556837372303
 51
90.0
  0
ARC
  5
6EC
330
1A
100
AcDbEntity
  8
ZUWAKU
100
AcDbCircle
 10
30.36721218621846
 20
7.674999400587175
 30
0.0
 40
0.525
100
AcDbArc
 50
180.0
 51
270.0
  0
ARC
  5
6ED
330
1A
100
AcDbEntity
  8
ZUWAKU
100
AcDbCircle
 10
26.86721218621846
 20
9.424999400587175
 30
0.0
 40
0.525
100
AcDbArc
 50
0.0
 51
90.0
  0
ARC
  5
6EE
330
1A
100
AcDbEntity
  8
ZUWAKU
100
AcDbCircle
 10
26.86721218621846
 20
7.674999400587175
 30
0.0
 40
0.525
100
AcDbArc
 50
270.0
 51
0.0
  0
LINE
  5
6EF
330
1A
100
AcDbEntity
  8
ZUWAKU
100
AcDbLine
 10
27.39221218621855
 20
9.424999400587175
 30
0.0
 11
27.39221218621855
 21
7.674999400587175
 31
0.0
  0
LINE
  5
6F0
330
1A
100
AcDbEntity
  8
ZUWAKU
100
AcDbLine
 10
32.64221218621855
 20
7.674999400587175
 30
0.0
 11
32.64221218621855
 21
13.27499940058717
 31
0.0
  0
ARC
  5
6F1
330
1A
100
AcDbEntity
  8
ZUWAKU
100
AcDbCircle
 10
32.11721218621846
 20
7.674999400587175
 30
0.0
 40
0.525
100
AcDbArc
 50
270.0
 51
0.0
  0
LINE
  5
6F2
330
1A
100
AcDbEntity
  8
ZUWAKU
100
AcDbLine
 10
30.36721218621846
 20
7.149999400587176
 30
0.0
 11
32.11721218621846
 21
7.149999400587176
 31
0.0
  0
ARC
  5
6F3
330
1A
100
AcDbEntity
  8
ZUWAKU
100
AcDbCircle
 10
33.16721218621853
 20
17.12499940058718
 30
0.0
 40
0.525
100
AcDbArc
 50
180.0
 51
270.0
  0
LINE
  5
6F4
330
1A
100
AcDbEntity
  8
ZUWAKU
100
AcDbLine
 10
33.16721218621853
 20
13.79999940058717
 30
0.0
 11
33.30744634970722
 21
13.79999940058717
 31
0.0
  0
LINE
  5
6F5
330
1A
100
AcDbEntity
  8
ZUWAKU
100
AcDbLine
 10
33.30744634970722
 20
16.59999940058717
 30
0.0
 11
33.16721218621853
 21
16.59999940058717
 31
0.0
  0
ARC
  5
6F6
330
1A
100
AcDbEntity
  8
ZUWAKU
100
AcDbCircle
 10
33.30744634970722
 20
17.12499940058718
 30
0.0
 40
0.525
100
AcDbArc
 50
270.0
 51
342.4744316262769
  0
ARC
  5
6F7
330
1A
100
AcDbEntity
  8
ZUWAKU
100
AcDbCircle
 10
36.17697802272982
 20
7.674999400587175
 30
0.0
 40
0.525
100
AcDbArc
 50
197.525568373723
 51
270.0
  0
LINE
  5
6F8
330
1A
100
AcDbEntity
  8
ZUWAKU
100
AcDbLine
 10
38.37649830153429
 20
7.833093368754148
 30
0.0
 11
36.05010692306064
 21
15.19999940058719
 31
0.0
  0
ARC
  5
6F9
330
1A
100
AcDbEntity
  8
ZUWAKU
100
AcDbCircle
 10
37.87586740233882
 20
7.674999400587175
 30
0.0
 40
0.525
100
AcDbArc
 50
270.0
 51
17.52556837372303
  0
LINE
  5
6FA
330
1A
100
AcDbEntity
  8
ZUWAKU
100
AcDbLine
 10
36.17697802272982
 20
7.149999400587176
 30
0.0
 11
37.87586740233882
 21
7.149999400587176
 31
0.0
  0
ARC
  5
6FB
330
1A
100
AcDbEntity
  8
ZUWAKU
100
AcDbCircle
 10
41.21721218621849
 20
7.674999400587175
 30
0.0
 40
0.525
100
AcDbArc
 50
180.0
 51
270.0
  0
ARC
  5
6FC
330
1A
100
AcDbEntity
  8
ZUWAKU
100
AcDbCircle
 10
50.14221218621855
 20
9.949999400587174
 30
0.0
 40
2.799999999999999
100
AcDbArc
 50
270.0
 51
0.0
  0
ARC
  5
6FD
330
1A
100
AcDbEntity
  8
ZUWAKU
100
AcDbCircle
 10
57.84221218621849
 20
9.949999400587174
 30
0.0
 40
2.799999999999999
100
AcDbArc
 50
180.0
 51
270.0
  0
LINE
  5
6FE
330
1A
100
AcDbEntity
  8
ZUWAKU
100
AcDbLine
 10
51.71206066720208
 20
14.735049906926
 30
0.0
 11
48.80226269255729
 21
17.64484788157067
 31
0.0
  0
LINE
  5
6FF
330
1A
100
AcDbEntity
  8
ZUWAKU
100
AcDbLine
 10
46.82236370523503
 20
15.66494889424835
 30
0.0
 11
49.7321616798797
 21
12.75515091960369
 31
0.0
  0
LINE
  5
700
330
1A
100
AcDbEntity
  8
ZUWAKU
100
AcDbLine
 10
46.64221218621856
 20
7.149999400587176
 30
0.0
 11
50.14221218621855
 21
7.149999400587176
 31
0.0
  0
LINE
  5
701
330
1A
100
AcDbEntity
  8
ZUWAKU
100
AcDbLine
 10
46.64221218621856
 20
9.949999400587174
 30
0.0
 11
49.61721218621846
 21
9.949999400587174
 31
0.0
  0
ARC
  5
702
330
1A
100
AcDbEntity
  8
ZUWAKU
100
AcDbCircle
 10
46.64221218621856
 20
9.424999400587175
 30
0.0
 40
0.525
100
AcDbArc
 50
90.0
 51
180.0
  0
ARC
  5
703
330
1A
100
AcDbEntity
  8
ZUWAKU
100
AcDbCircle
 10
42.96721218621849
 20
7.674999400587175
 30
0.0
 40
0.525
100
AcDbArc
 50
270.0
 51
0.0
  0
ARC
  5
704
330
1A
100
AcDbEntity
  8
ZUWAKU
100
AcDbCircle
 10
46.64221218621856
 20
7.674999400587175
 30
0.0
 40
0.525
100
AcDbArc
 50
180.0
 51
270.0
  0
LINE
  5
705
330
1A
100
AcDbEntity
  8
ZUWAKU
100
AcDbLine
 10
46.11721218621847
 20
7.674999400587175
 30
0.0
 11
46.11721218621847
 21
9.424999400587175
 31
0.0
  0
ARC
  5
706
330
1A
100
AcDbEntity
  8
ZUWAKU
100
AcDbCircle
 10
49.61721218621846
 20
10.47499940058717
 30
0.0
 40
0.525
100
AcDbArc
 50
270.0
 51
0.0
  0
ARC
  5
707
330
1A
100
AcDbEntity
  8
ZUWAKU
100
AcDbCircle
 10
48.74221218621847
 20
11.76520142594252
 30
0.0
 40
1.399999999999999
100
AcDbArc
 50
0.0
 51
45.0
  0
LINE
  5
708
330
1A
100
AcDbEntity
  8
ZUWAKU
100
AcDbLine
 10
50.14221218621855
 20
10.47499940058717
 30
0.0
 11
50.14221218621855
 21
11.76520142594252
 31
0.0
  0
ARC
  5
709
330
1A
100
AcDbEntity
  8
ZUWAKU
100
AcDbCircle
 10
58.89221218621855
 20
10.99999940058717
 30
0.0
 40
1.049999999999999
100
AcDbArc
 50
180.0
 51
270.0
  0
ARC
  5
70A
330
1A
100
AcDbEntity
  8
ZUWAKU
100
AcDbCircle
 10
48.74221218621847
 20
11.76520142594247
 30
0.0
 40
4.199999999999999
100
AcDbArc
 50
0.0
 51
45.0
  0
LINE
  5
70B
330
1A
100
AcDbEntity
  8
ZUWAKU
100
AcDbLine
 10
52.94221218621851
 20
9.949999400587174
 30
0.0
 11
52.94221218621851
 21
11.76520142594252
 31
0.0
  0
ARC
  5
70C
330
1A
100
AcDbEntity
  8
ZUWAKU
100
AcDbCircle
 10
61.34221218621849
 20
9.949999400587174
 30
0.0
 40
2.799999999999999
100
AcDbArc
 50
270.0
 51
0.0
  0
LINE
  5
70D
330
1A
100
AcDbEntity
  8
ZUWAKU
100
AcDbLine
 10
66.76721218621856
 20
7.149999400587176
 30
0.0
 11
68.51721218621856
 21
7.149999400587176
 31
0.0
  0
ARC
  5
70E
330
1A
100
AcDbEntity
  8
ZUWAKU
100
AcDbCircle
 10
60.29221218621853
 20
10.99999940058717
 30
0.0
 40
1.049999999999999
100
AcDbArc
 50
270.0
 51
0.0
  0
ARC
  5
70F
330
1A
100
AcDbEntity
  8
ZUWAKU
100
AcDbCircle
 10
66.76721218621856
 20
7.674999400587175
 30
0.0
 40
0.525
100
AcDbArc
 50
180.0
 51
270.0
  0
ARC
  5
710
330
1A
100
AcDbEntity
  8
ZUWAKU
100
AcDbCircle
 10
68.51721218621856
 20
7.674999400587175
 30
0.0
 40
0.525
100
AcDbArc
 50
270.0
 51
0.0
  0
LINE
  5
711
330
1A
100
AcDbEntity
  8
ZUWAKU
100
AcDbLine
 10
42.96721218621849
 20
23.24999940058718
 30
0.0
 11
41.21721218621849
 21
23.24999940058718
 31
0.0
  0
LINE
  5
712
330
1A
100
AcDbEntity
  8
ZUWAKU
100
AcDbLine
 10
27.39221218621855
 20
22.72499940058717
 30
0.0
 11
27.39221218621855
 21
20.97499940058717
 31
0.0
  0
ARC
  5
713
330
1A
100
AcDbEntity
  8
ZUWAKU
100
AcDbCircle
 10
26.86721218621846
 20
20.97499940058717
 30
0.0
 40
0.525
100
AcDbArc
 50
270.0
 51
0.0
  0
ARC
  5
714
330
1A
100
AcDbEntity
  8
ZUWAKU
100
AcDbCircle
 10
30.36721218621846
 20
22.72499940058717
 30
0.0
 40
0.525
100
AcDbArc
 50
90.0
 51
180.0
  0
ARC
  5
715
330
1A
100
AcDbEntity
  8
ZUWAKU
100
AcDbCircle
 10
26.86721218621846
 20
22.72499940058717
 30
0.0
 40
0.525
100
AcDbArc
 50
0.0
 51
90.0
  0
LINE
  5
716
330
1A
100
AcDbEntity
  8
ZUWAKU
100
AcDbLine
 10
32.11721218621846
 20
23.24999940058718
 30
0.0
 11
30.36721218621846
 21
23.24999940058718
 31
0.0
  0
ARC
  5
717
330
1A
100
AcDbEntity
  8
ZUWAKU
100
AcDbCircle
 10
32.11721218621846
 20
22.72499940058717
 30
0.0
 40
0.525
100
AcDbArc
 50
0.0
 51
90.0
  0
ARC
  5
718
330
1A
100
AcDbEntity
  8
ZUWAKU
100
AcDbCircle
 10
36.17697802272982
 20
22.72499940058717
 30
0.0
 40
0.525
100
AcDbArc
 50
90.0
 51
162.4744316262769
  0
LINE
  5
719
330
1A
100
AcDbEntity
  8
ZUWAKU
100
AcDbLine
 10
38.37649830153429
 20
22.5669054324202
 30
0.0
 11
37.31485866839648
 21
19.2050465941506
 31
0.0
  0
ARC
  5
71A
330
1A
100
AcDbEntity
  8
ZUWAKU
100
AcDbCircle
 10
37.87586740233882
 20
22.72499940058717
 30
0.0
 40
0.525
100
AcDbArc
 50
342.4744316262769
 51
90.0
  0
LINE
  5
71B
330
1A
100
AcDbEntity
  8
ZUWAKU
100
AcDbLine
 10
36.17697802272982
 20
23.24999940058718
 30
0.0
 11
37.87586740233882
 21
23.24999940058718
 31
0.0
  0
ARC
  5
71C
330
1A
100
AcDbEntity
  8
ZUWAKU
100
AcDbCircle
 10
41.21721218621849
 20
22.72499940058717
 30
0.0
 40
0.525
100
AcDbArc
 50
90.0
 51
180.0
  0
LINE
  5
71D
330
1A
100
AcDbEntity
  8
ZUWAKU
100
AcDbLine
 10
51.89221218621856
 20
20.44999940058717
 30
0.0
 11
48.91721218621853
 21
20.44999940058717
 31
0.0
  0
LINE
  5
71E
330
1A
100
AcDbEntity
  8
ZUWAKU
100
AcDbLine
 10
48.39221218621855
 20
23.24999940058718
 30
0.0
 11
51.89221218621856
 21
23.24999940058718
 31
0.0
  0
ARC
  5
71F
330
1A
100
AcDbEntity
  8
ZUWAKU
100
AcDbCircle
 10
48.39221218621855
 20
20.44999940058717
 30
0.0
 40
2.799999999999999
100
AcDbArc
 50
90.0
 51
180.0
  0
LINE
  5
720
330
1A
100
AcDbEntity
  8
ZUWAKU
100
AcDbLine
 10
45.59221218621849
 20
20.44999940058717
 30
0.0
 11
45.59221218621849
 21
18.63479737523183
 31
0.0
  0
ARC
  5
721
330
1A
100
AcDbEntity
  8
ZUWAKU
100
AcDbCircle
 10
42.96721218621849
 20
22.72499940058717
 30
0.0
 40
0.525
100
AcDbArc
 50
0.0
 51
90.0
  0
LINE
  5
722
330
1A
100
AcDbEntity
  8
ZUWAKU
100
AcDbLine
 10
48.39221218621855
 20
19.92499940058717
 30
0.0
 11
48.39221218621855
 21
18.63479737523183
 31
0.0
  0
ARC
  5
723
330
1A
100
AcDbEntity
  8
ZUWAKU
100
AcDbCircle
 10
48.91721218621853
 20
19.92499940058717
 30
0.0
 40
0.525
100
AcDbArc
 50
90.0
 51
180.0
  0
LINE
  5
724
330
1A
100
AcDbEntity
  8
ZUWAKU
100
AcDbLine
 10
52.41721218621854
 20
22.72499940058717
 30
0.0
 11
52.41721218621854
 21
20.97499940058717
 31
0.0
  0
ARC
  5
725
330
1A
100
AcDbEntity
  8
ZUWAKU
100
AcDbCircle
 10
51.89221218621856
 20
20.97499940058717
 30
0.0
 40
0.525
100
AcDbArc
 50
270.0
 51
0.0
  0
ARC
  5
726
330
1A
100
AcDbEntity
  8
ZUWAKU
100
AcDbCircle
 10
51.89221218621856
 20
22.72499940058717
 30
0.0
 40
0.525
100
AcDbArc
 50
0.0
 51
90.0
  0
LINE
  5
727
330
1A
100
AcDbEntity
  8
ZUWAKU
100
AcDbLine
 10
57.31721218621851
 20
23.24999940058718
 30
0.0
 11
55.56721218621851
 21
23.24999940058718
 31
0.0
  0
ARC
  5
728
330
1A
100
AcDbEntity
  8
ZUWAKU
100
AcDbCircle
 10
55.56721218621851
 20
22.72499940058717
 30
0.0
 40
0.525
100
AcDbArc
 50
90.0
 51
180.0
  0
ARC
  5
729
330
1A
100
AcDbEntity
  8
ZUWAKU
100
AcDbCircle
 10
57.31721218621851
 20
22.72499940058717
 30
0.0
 40
0.525
100
AcDbArc
 50
0.0
 51
90.0
  0
LINE
  5
72A
330
1A
100
AcDbEntity
  8
ZUWAKU
100
AcDbLine
 10
68.51721218621856
 20
23.24999940058718
 30
0.0
 11
66.76721218621856
 21
23.24999940058718
 31
0.0
  0
ARC
  5
72B
330
1A
100
AcDbEntity
  8
ZUWAKU
100
AcDbCircle
 10
61.86721218621847
 20
22.72499940058717
 30
0.0
 40
0.525
100
AcDbArc
 50
90.0
 51
180.0
  0
LINE
  5
72C
330
1A
100
AcDbEntity
  8
ZUWAKU
100
AcDbLine
 10
63.61721218621847
 20
23.24999940058718
 30
0.0
 11
61.86721218621847
 21
23.24999940058718
 31
0.0
  0
ARC
  5
72D
330
1A
100
AcDbEntity
  8
ZUWAKU
100
AcDbCircle
 10
63.61721218621847
 20
22.72499940058717
 30
0.0
 40
0.525
100
AcDbArc
 50
0.0
 51
90.0
  0
ARC
  5
72E
330
1A
100
AcDbEntity
  8
ZUWAKU
100
AcDbCircle
 10
66.76721218621856
 20
22.72499940058717
 30
0.0
 40
0.525
100
AcDbArc
 50
90.0
 51
180.0
  0
ARC
  5
72F
330
1A
100
AcDbEntity
  8
ZUWAKU
100
AcDbCircle
 10
68.51721218621856
 20
22.72499940058717
 30
0.0
 40
0.525
100
AcDbArc
 50
0.0
 51
90.0
  0
TEXT
  5
730
330
1A
100
AcDbEntity
  8
MOJI
100
AcDbText
 10
239.8272027122884
 20
3.204920457994592
 30
0.0
 40
5.599999999999999
  1
ＲＶ１０５－ＵＴ７５
 41
0.9
  7
ｽﾀｲﾙ1
100
AcDbText
  0
TEXT
  5
731
330
1A
100
AcDbEntity
  8
MOJI
100
AcDbText
 10
239.8272027122884
 20
18.00492045799455
 30
0.0
 40
5.599999999999999
  1
じょうご（角）
 41
0.9
  7
ｽﾀｲﾙ1
100
AcDbText
  0
LINE
  5
732
330
1A
100
AcDbEntity
  8
ZUWAKU
100
AcDbLine
 10
208.4466013215051
 20
29.99999940058717
 30
0.0
 11
208.4466013215053
 21
0.7999994005872395
 31
0.0
  0
LINE
  5
733
330
1A
100
AcDbEntity
  8
ZUWAKU
100
AcDbLine
 10
208.6466013215051
 20
29.99999940058717
 30
0.0
 11
208.6466013215054
 21
0.7999994005872395
 31
0.0
  0
LINE
  5
734
330
1A
100
AcDbEntity
  8
ZUWAKU
100
AcDbLine
 10
208.2466013215053
 20
29.99999940058717
 30
0.0
 11
208.2466013215053
 21
0.7999994005872395
 31
0.0
  0
TEXT
  5
735
330
1A
100
AcDbEntity
  8
ZUWAKU
100
AcDbText
 10
209.7240463437149
 20
9.655355938972789
 30
0.0
 40
4.0
  1
サイズ
 41
0.9
  7
ｽﾀｲﾙ1
100
AcDbText
  0
TEXT
  5
736
330
1A
100
AcDbEntity
  8
ZUWAKU
100
AcDbText
 10
209.7240463437147
 20
24.05535593897275
 30
0.0
 40
4.0
  1
品名
 41
0.9
  7
ｽﾀｲﾙ1
100
AcDbText
  0
TEXT
  5
737
330
1A
100
AcDbEntity
  8
SUNPOU
100
AcDbText
 10
661.9071645163821
 20
46.25388893332069
 30
0.0
 40
6.0
  1
※a　のきといの縁切り間隔寸法を示す
100
AcDbText
  0
TEXT
  5
738
330
1A
100
AcDbEntity
  8
SUNPOU
100
AcDbText
 10
661.9071645163821
 20
36.65388893332067
 30
0.0
 40
6.0
  1
※b　エルボの差込み寸法を示す
100
AcDbText
  0
TEXT
  5
739
330
1A
100
AcDbEntity
  8
ZUWAKU
100
AcDbText
 10
658.2039377187397
 20
18.00492045799455
 30
0.0
 40
5.599999999999999
  1
　　．　　．　　
 41
0.9
  7
ｽﾀｲﾙ1
100
AcDbText
  0
LINE
  5
73A
330
1A
100
AcDbEntity
  8
ZUWAKU
100
AcDbLine
 10
648.8172025416416
 20
15.5999994005872
 30
0.0
 11
697.2490105799786
 21
15.5999994005872
 31
0.0
  0
LINE
  5
73B
330
1A
100
AcDbEntity
  8
ZUWAKU
100
AcDbLine
 10
648.8172025416417
 20
15.3999994005872
 30
0.0
 11
697.2490105799786
 21
15.3999994005872
 31
0.0
  0
LINE
  5
73C
330
1A
100
AcDbEntity
  8
ZUWAKU
100
AcDbLine
 10
648.8172025416416
 20
15.1999994005872
 30
0.0
 11
697.2490105799786
 21
15.1999994005872
 31
0.0
  0
LINE
  5
73D
330
1A
100
AcDbEntity
  8
ZUWAKU
100
AcDbLine
 10
505.1991795295783
 20
15.5999994005872
 30
0.0
 11
552.5269557975498
 21
15.5999994005872
 31
0.0
  0
LINE
  5
73E
330
1A
100
AcDbEntity
  8
ZUWAKU
100
AcDbLine
 10
505.1991795295783
 20
15.3999994005872
 30
0.0
 11
552.5269557975498
 21
15.3999994005872
 31
0.0
  0
LINE
  5
73F
330
1A
100
AcDbEntity
  8
ZUWAKU
100
AcDbLine
 10
505.1991795295783
 20
15.1999994005872
 30
0.0
 11
552.5269557975498
 21
15.1999994005872
 31
0.0
  0
LINE
  5
740
330
1A
100
AcDbEntity
  8
ZUWAKU
100
AcDbLine
 10
504.7991795295784
 20
29.99999940058717
 30
0.0
 11
504.7991795295784
 21
0.7999994005872395
 31
0.0
  0
LINE
  5
741
330
1A
100
AcDbEntity
  8
ZUWAKU
100
AcDbLine
 10
505.1991795295783
 20
29.99999940058717
 30
0.0
 11
505.1991795295784
 21
0.7999994005872395
 31
0.0
  0
LINE
  5
742
330
1A
100
AcDbEntity
  8
ZUWAKU
100
AcDbLine
 10
504.9991795295782
 20
29.99999940058717
 30
0.0
 11
504.9991795295784
 21
0.7999994005872395
 31
0.0
  0
TEXT
  5
743
330
1A
100
AcDbEntity
  8
MOJI
100
AcDbText
 10
528.0409080037502
 20
18.00492045799455
 30
0.0
 40
5.599999999999999
  1
Ａ３
 41
0.9
  7
ｽﾀｲﾙ1
100
AcDbText
  0
LINE
  5
744
330
1A
100
AcDbEntity
  8
ZUWAKU
100
AcDbLine
 10
447.4243640024288
 20
29.99999940058717
 30
0.0
 11
447.4243640024288
 21
0.7999994005872395
 31
0.0
  0
LINE
  5
745
330
1A
100
AcDbEntity
  8
ZUWAKU
100
AcDbLine
 10
447.8243640024286
 20
29.99999940058717
 30
0.0
 11
447.8243640024288
 21
0.7999994005872395
 31
0.0
  0
LINE
  5
746
330
1A
100
AcDbEntity
  8
ZUWAKU
100
AcDbLine
 10
447.6243640024286
 20
29.99999940058717
 30
0.0
 11
447.6243640024287
 21
0.7999994005872395
 31
0.0
  0
TEXT
  5
747
330
1A
100
AcDbEntity
  8
MOJI
100
AcDbText
 10
464.5946260346764
 20
11.94261712224715
 30
0.0
 40
5.599999999999999
  1
ＧＱ３０□
 41
0.9
  7
ｽﾀｲﾙ1
100
AcDbText
  0
TEXT
  5
748
330
1A
100
AcDbEntity
  8
ZUWAKU
100
AcDbText
 10
462.6937616869445
 20
2.614070311726663
 30
0.0
 40
3.0
  1
□には色品番が入ります
 41
0.9
  7
ｽﾀｲﾙ1
100
AcDbText
  0
TEXT
  5
749
330
1A
100
AcDbEntity
  8
ZUWAKU
100
AcDbText
 10
506.6766245517881
 20
9.655355938972789
 30
0.0
 40
4.0
  1
縮尺
 41
0.9
  7
ｽﾀｲﾙ1
100
AcDbText
  0
TEXT
  5
74A
330
1A
100
AcDbEntity
  8
MOJI
100
AcDbText
 10
528.0409080037502
 20
3.204920457994592
 30
0.0
 40
5.599999999999999
  1
１/２
 41
0.9
  7
ｽﾀｲﾙ1
100
AcDbText
  0
TEXT
  5
74B
330
1A
100
AcDbEntity
  8
ZUWAKU
100
AcDbText
 10
449.3018090246382
 20
24.05535593897275
 30
0.0
 40
4.0
  1
品番
 41
0.9
  7
ｽﾀｲﾙ1
100
AcDbText
  0
TEXT
  5
74C
330
1A
100
AcDbEntity
  8
ZUWAKU
100
AcDbText
 10
506.6766245517879
 20
24.05535593897275
 30
0.0
 40
4.0
  1
用紙
 41
0.9
  7
ｽﾀｲﾙ1
100
AcDbText
  0
LINE
  5
74D
330
1A
100
AcDbEntity
  8
ZUWAKU
100
AcDbLine
 10
552.5269557975498
 20
29.99999940058717
 30
0.0
 11
552.5269557975498
 21
0.7999994005872395
 31
0.0
  0
LINE
  5
74E
330
1A
100
AcDbEntity
  8
ZUWAKU
100
AcDbLine
 10
552.9269557975497
 20
29.99999940058717
 30
0.0
 11
552.9269557975498
 21
0.7999994005872395
 31
0.0
  0
LINE
  5
74F
330
1A
100
AcDbEntity
  8
ZUWAKU
100
AcDbLine
 10
552.7269557975496
 20
29.99999940058717
 30
0.0
 11
552.7269557975499
 21
0.7999994005872395
 31
0.0
  0
LINE
  5
750
330
1A
100
AcDbEntity
  8
ZUWAKU
100
AcDbLine
 10
648.4172025416419
 20
29.99999940058717
 30
0.0
 11
648.4172025416419
 21
0.7999994005872395
 31
0.0
  0
LINE
  5
751
330
1A
100
AcDbEntity
  8
ZUWAKU
100
AcDbLine
 10
648.8172025416417
 20
29.99999940058717
 30
0.0
 11
648.817202541642
 21
0.7999994005872395
 31
0.0
  0
LINE
  5
752
330
1A
100
AcDbEntity
  8
ZUWAKU
100
AcDbLine
 10
648.6172025416417
 20
29.99999940058717
 30
0.0
 11
648.6172025416419
 21
0.7999994005872395
 31
0.0
  0
TEXT
  5
753
330
1A
100
AcDbEntity
  8
ZUWAKU
100
AcDbText
 10
650.2946475638514
 20
24.05535593897275
 30
0.0
 40
4.0
  1
DATE
 41
0.9
  7
ｽﾀｲﾙ1
100
AcDbText
  0
TEXT
  5
754
330
1A
100
AcDbEntity
  8
ZUWAKU
100
AcDbText
 10
708.5280842236811
 20
17.55383873627397
 30
0.0
 40
6.0
  1
積水化学工業株式会社
 41
0.9
  7
ｽﾀｲﾙ1
100
AcDbText
  0
LINE
  5
755
330
1A
100
AcDbEntity
  8
ZUWAKU
100
AcDbLine
 10
697.8490105799785
 20
29.99999940058717
 30
0.0
 11
697.8490105799787
 21
0.7999994005872395
 31
0.0
  0
LINE
  5
756
330
1A
100
AcDbEntity
  8
ZUWAKU
100
AcDbLine
 10
697.6490105799785
 20
29.99999940058717
 30
0.0
 11
697.6490105799787
 21
0.7999994005872395
 31
0.0
  0
LINE
  5
757
330
1A
100
AcDbEntity
  8
ZUWAKU
100
AcDbLine
 10
697.4490105799787
 20
29.99999940058717
 30
0.0
 11
697.4490105799787
 21
0.7999994005872395
 31
0.0
  0
LINE
  5
758
330
1A
100
AcDbEntity
  8
ZUWAKU
100
AcDbLine
 10
697.2490105799786
 20
29.99999940058717
 30
0.0
 11
697.2490105799786
 21
0.7999994005872395
 31
0.0
  0
TEXT
  5
759
330
1A
100
AcDbEntity
  8
ZUWAKU
100
AcDbText
 10
708.5280842236811
 20
6.648839714441237
 30
0.0
 40
6.0
  1
建材事業部
 41
0.9
  7
ｽﾀｲﾙ1
100
AcDbText
  0
VIEWPORT
  5
22
330
17
100
AcDbEntity
 67
     1
  8
0
100
AcDbViewport
 10
313.6808219178082
 20
148.5
 30
0.0
 40
627.3616438356165
 41
297.0
 68
     2
 69
     1
1001
ACAD
1000
MVIEW
1002
{
1070
    16
1010
0.0
1020
0.0
1030
0.0
1010
0.0
1020
0.0
1030
1.0
1040
0.0
1040
297.0
1040
313.6808219178082
1040
148.5
1040
50.0
1040
0.0
1040
0.0
1070
     0
1070
   100
1070
     1
1070
     0
1070
     0
1070
     0
1070
     0
1070
     0
1040
0.0
1040
0.0
1040
0.0
1040
1.0
1040
1.0
1040
10.0
1040
10.0
1070
     0
1002
{
1002
}
1002
}
  0
VIEWPORT
  5
64
330
17
100
AcDbEntity
 67
     1
  8
VIEWPORT
100
AcDbViewport
 10
210.0
 20
148.5
 30
0.0
 40
420.0
 41
297.0
 68
     1
 69
     2
1001
ACAD
1000
MVIEW
1002
{
1070
    16
1010
0.0
1020
0.0
1030
0.0
1010
0.0
1020
0.0
1030
1.0
1040
0.0
1040
605.8799999999998
1040
420.0
1040
297.0
1040
50.0
1040
0.0
1040
0.0
1070
     0
1070
   100
1070
     1
1070
     0
1070
     0
1070
     0
1070
     0
1070
     0
1040
0.0
1040
0.0
1040
0.0
1040
10.0
1040
10.0
1040
0.0
1040
0.0
1070
     0
1002
{
1002
}
1002
}
  0
ENDSEC
  0
SECTION
  2
OBJECTS
  0
DICTIONARY
  5
C
330
0
100
AcDbDictionary
  3
ACAD_GROUP
350
D
  3
ACAD_LAYOUT
350
5A3
  3
ACAD_MLINESTYLE
350
E
  3
ACAD_PLOTSETTINGS
350
5A4
  3
ACAD_PLOTSTYLENAME
350
5A1
  3
ACDBHEADERROUNDTRIPXREC
350
761
  0
DICTIONARY
  5
5D7
330
1A
100
AcDbDictionary
280
     1
  3
ACAD_LAYOUTSELFREF
360
783
  0
DICTIONARY
  5
5D5
330
17
100
AcDbDictionary
280
     1
  3
ACAD_LAYOUTSELFREF
360
782
  0
DICTIONARY
  5
D
102
{ACAD_REACTORS
330
C
102
}
330
C
100
AcDbDictionary
  0
DICTIONARY
  5
5A3
102
{ACAD_REACTORS
330
C
102
}
330
C
100
AcDbDictionary
  0
DICTIONARY
  5
E
102
{ACAD_REACTORS
330
C
102
}
330
C
100
AcDbDictionary
  3
STANDARD
350
13
  0
DICTIONARY
  5
5A4
102
{ACAD_REACTORS
330
C
102
}
330
C
100
AcDbDictionary
  0
ACDBDICTIONARYWDFLT
  5
5A1
102
{ACAD_REACTORS
330
C
102
}
330
C
100
AcDbDictionary
281
     1
  3
Normal
350
5A2
100
AcDbDictionaryWithDefault
340
5A2
1001
ACAD
1000
TREAT_AS_HARD
1070
     0
  0
DICTIONARY
  5
761
102
{ACAD_REACTORS
330
C
102
}
330
C
100
AcDbDictionary
  3
TSTACKALIGN
350
762
  3
TSTACKSIZE
350
763
  3
HYPERLINKBASE
350
764
  3
STYLESHEET
350
765
  3
LAYOUTDICT
350
766
  3
PLOTSETDICT
350
767
  3
PLOTSTYLNAMDICT
350
768
  3
LWETCUNION
350
769
  3
INSUNITS
350
76A
  3
CEPSNTYPE
350
76B
  3
FINGERPRINTGUID
350
76C
  3
VERSIONGUID
350
76D
  3
PSVPSCALE
350
76E
  3
DIMSTYLEDATA
350
76F
  3
PUCSORTHOREF
350
770
  3
PUCSORTHOVIEW
350
771
  3
PUCSBASE
350
772
  3
PUCSORGTOP
350
773
  3
PUCSORGBOTTOM
350
774
  3
PUCSORGLEFT
350
775
  3
PUCSORGRIGHT
350
776
  3
PUCSORGFRONT
350
777
  3
PUCSORGBACK
350
778
  3
UCSORTHOREF
350
779
  3
UCSORTHOVIEW
350
77A
  3
UCSBASE
350
77B
  3
UCSORGTOP
350
77C
  3
UCSORGBOTTOM
350
77D
  3
UCSORGLEFT
350
77E
  3
UCSORGRIGHT
350
77F
  3
UCSORGFRONT
350
780
  3
UCSORGBACK
350
781
  0
XRECORD
  5
783
102
{ACAD_REACTORS
330
5D7
102
}
330
5D7
100
AcDbXrecord
340
1A
  0
XRECORD
  5
782
102
{ACAD_REACTORS
330
5D5
102
}
330
5D5
100
AcDbXrecord
340
17
  0
MLINESTYLE
  5
13
102
{ACAD_REACTORS
330
E
102
}
330
E
100
AcDbMlineStyle
  2
STANDARD
 70
     0
  3

 62
     0
 51
90.0
 52
90.0
 71
     2
 49
0.5
 62
   256
  6
BYLAYER
 49
-0.5
 62
   256
  6
BYLAYER
  0
ACDBPLACEHOLDER
  5
5A2
102
{ACAD_REACTORS
330
5A1
102
}
330
5A1
100
AcDbPlaceHolder
280
     0
  0
XRECORD
  5
762
102
{ACAD_REACTORS
330
761
102
}
330
761
100
AcDbXrecord
 90
        1
  0
XRECORD
  5
763
102
{ACAD_REACTORS
330
761
102
}
330
761
100
AcDbXrecord
 90
       70
  0
XRECORD
  5
764
102
{ACAD_REACTORS
330
761
102
}
330
761
100
AcDbXrecord
  1

  0
XRECORD
  5
765
102
{ACAD_REACTORS
330
761
102
}
330
761
100
AcDbXrecord
  1
systemprinter.ctb
  0
XRECORD
  5
766
102
{ACAD_REACTORS
330
761
102
}
330
761
100
AcDbXrecord
340
5A3
  0
XRECORD
  5
767
102
{ACAD_REACTORS
330
761
102
}
330
761
100
AcDbXrecord
340
5A4
  0
XRECORD
  5
768
102
{ACAD_REACTORS
330
761
102
}
330
761
100
AcDbXrecord
340
5A1
  0
XRECORD
  5
769
102
{ACAD_REACTORS
330
761
102
}
330
761
100
AcDbXrecord
 90
    10781
  0
XRECORD
  5
76A
102
{ACAD_REACTORS
330
761
102
}
330
761
100
AcDbXrecord
 90
        0
  0
XRECORD
  5
76B
102
{ACAD_REACTORS
330
761
102
}
330
761
100
AcDbXrecord
 90
        0
  0
XRECORD
  5
76C
102
{ACAD_REACTORS
330
761
102
}
330
761
100
AcDbXrecord
  1
{938E1432-7A63-11D4-932C-0050DA99388B}
  0
XRECORD
  5
76D
102
{ACAD_REACTORS
330
761
102
}
330
761
100
AcDbXrecord
  1
{4AE050ED-CB37-49B5-8557-CAF0F2B55358}
  0
XRECORD
  5
76E
102
{ACAD_REACTORS
330
761
102
}
330
761
100
AcDbXrecord
 40
0.0
  0
XRECORD
  5
76F
102
{ACAD_REACTORS
330
761
102
}
330
761
100
AcDbXrecord
1000
DSTYLE
1002
{
1070
   341
340
6D
1070
   343
340
6D
1070
   344
340
6D
1070
   371
 70
    -1
1070
   372
 70
    -1
1002
}
  0
XRECORD
  5
770
102
{ACAD_REACTORS
330
761
102
}
330
761
100
AcDbXrecord
340
0
  0
XRECORD
  5
771
102
{ACAD_REACTORS
330
761
102
}
330
761
100
AcDbXrecord
 70
     0
  0
XRECORD
  5
772
102
{ACAD_REACTORS
330
761
102
}
330
761
100
AcDbXrecord
340
0
  0
XRECORD
  5
773
102
{ACAD_REACTORS
330
761
102
}
330
761
100
AcDbXrecord
 10
0.0
 20
0.0
 30
0.0
  0
XRECORD
  5
774
102
{ACAD_REACTORS
330
761
102
}
330
761
100
AcDbXrecord
 10
0.0
 20
0.0
 30
0.0
  0
XRECORD
  5
775
102
{ACAD_REACTORS
330
761
102
}
330
761
100
AcDbXrecord
 10
0.0
 20
0.0
 30
0.0
  0
XRECORD
  5
776
102
{ACAD_REACTORS
330
761
102
}
330
761
100
AcDbXrecord
 10
0.0
 20
0.0
 30
0.0
  0
XRECORD
  5
777
102
{ACAD_REACTORS
330
761
102
}
330
761
100
AcDbXrecord
 10
0.0
 20
0.0
 30
0.0
  0
XRECORD
  5
778
102
{ACAD_REACTORS
330
761
102
}
330
761
100
AcDbXrecord
 10
0.0
 20
0.0
 30
0.0
  0
XRECORD
  5
779
102
{ACAD_REACTORS
330
761
102
}
330
761
100
AcDbXrecord
340
0
  0
XRECORD
  5
77A
102
{ACAD_REACTORS
330
761
102
}
330
761
100
AcDbXrecord
 70
     0
  0
XRECORD
  5
77B
102
{ACAD_REACTORS
330
761
102
}
330
761
100
AcDbXrecord
340
0
  0
XRECORD
  5
77C
102
{ACAD_REACTORS
330
761
102
}
330
761
100
AcDbXrecord
 10
0.0
 20
0.0
 30
0.0
  0
XRECORD
  5
77D
102
{ACAD_REACTORS
330
761
102
}
330
761
100
AcDbXrecord
 10
0.0
 20
0.0
 30
0.0
  0
XRECORD
  5
77E
102
{ACAD_REACTORS
330
761
102
}
330
761
100
AcDbXrecord
 10
0.0
 20
0.0
 30
0.0
  0
XRECORD
  5
77F
102
{ACAD_REACTORS
330
761
102
}
330
761
100
AcDbXrecord
 10
0.0
 20
0.0
 30
0.0
  0
XRECORD
  5
780
102
{ACAD_REACTORS
330
761
102
}
330
761
100
AcDbXrecord
 10
0.0
 20
0.0
 30
0.0
  0
XRECORD
  5
781
102
{ACAD_REACTORS
330
761
102
}
330
761
100
AcDbXrecord
 10
0.0
 20
0.0
 30
0.0
  0
ENDSEC
  0
EOF
