  0
SECTION
  2
HEADER
  9
$ACADVER
  1
AC1014
  9
$ACADMAINTVER
 70
     9
  9
$DWGCODEPAGE
  3
ANSI_932
  9
$INSBASE
 10
0.0
 20
0.0
 30
0.0
  9
$EXTMIN
 10
-0.05126640194635
 20
-0.0362526699479986
 30
-0.0000000000112498
  9
$EXTMAX
 10
797.6628945888771
 20
551.6439420217511
 30
0.0000000000002956
  9
$LIMMIN
 10
0.0
 20
0.0
  9
$LIMMAX
 10
840.0
 20
594.0
  9
$ORTHOMODE
 70
     0
  9
$REGENMODE
 70
     1
  9
$FILLMODE
 70
     1
  9
$QTEXTMODE
 70
     0
  9
$MIRRTEXT
 70
     1
  9
$DRAGMODE
 70
     2
  9
$LTSCALE
 40
2.0
  9
$OSMODE
 70
    35
  9
$ATTMODE
 70
     1
  9
$TEXTSIZE
 40
5.0
  9
$TRACEWID
 40
1.0
  9
$TEXTSTYLE
  7
STANDARD
  9
$CLAYER
  8
ZUWAKU
  9
$CELTYPE
  6
BYLAYER
  9
$CECOLOR
 62
   256
  9
$CELTSCALE
 40
1.0
  9
$DELOBJ
 70
     1
  9
$DISPSILH
 70
     0
  9
$DIMSCALE
 40
1.0
  9
$DIMASZ
 40
7.0
  9
$DIMEXO
 40
6.0
  9
$DIMDLI
 40
14.0
  9
$DIMRND
 40
0.0
  9
$DIMDLE
 40
0.0
  9
$DIMEXE
 40
3.0
  9
$DIMTP
 40
0.0
  9
$DIMTM
 40
0.0
  9
$DIMTXT
 40
6.0
  9
$DIMCEN
 40
150.0
  9
$DIMTSZ
 40
0.0
  9
$DIMTOL
 70
     0
  9
$DIMLIM
 70
     0
  9
$DIMTIH
 70
     0
  9
$DIMTOH
 70
     0
  9
$DIMSE1
 70
     0
  9
$DIMSE2
 70
     0
  9
$DIMTAD
 70
     3
  9
$DIMZIN
 70
     0
  9
$DIMBLK
  1

  9
$DIMASO
 70
     1
  9
$DIMSHO
 70
     1
  9
$DIMPOST
  1

  9
$DIMAPOST
  1

  9
$DIMALT
 70
     0
  9
$DIMALTD
 70
     2
  9
$DIMALTF
 40
25.4
  9
$DIMLFAC
 40
1.0
  9
$DIMTOFL
 70
     1
  9
$DIMTVP
 40
0.0
  9
$DIMTIX
 70
     0
  9
$DIMSOXD
 70
     0
  9
$DIMSAH
 70
     1
  9
$DIMBLK1
  1
OPEN
  9
$DIMBLK2
  1
OPEN
  9
$DIMSTYLE
  2
STANDARD
  9
$DIMCLRD
 70
   256
  9
$DIMCLRE
 70
   256
  9
$DIMCLRT
 70
   256
  9
$DIMTFAC
 40
1.0
  9
$DIMGAP
 40
2.0
  9
$DIMJUST
 70
     0
  9
$DIMSD1
 70
     0
  9
$DIMSD2
 70
     0
  9
$DIMTOLJ
 70
     1
  9
$DIMTZIN
 70
     0
  9
$DIMALTZ
 70
     0
  9
$DIMALTTZ
 70
     0
  9
$DIMFIT
 70
     3
  9
$DIMUPT
 70
     0
  9
$DIMUNIT
 70
     2
  9
$DIMDEC
 70
     0
  9
$DIMTDEC
 70
     0
  9
$DIMALTU
 70
     2
  9
$DIMALTTD
 70
     2
  9
$DIMTXSTY
  7
STANDARD
  9
$DIMAUNIT
 70
     0
  9
$LUNITS
 70
     2
  9
$LUPREC
 70
     4
  9
$SKETCHINC
 40
1.0
  9
$FILLETRAD
 40
20.0
  9
$AUNITS
 70
     0
  9
$AUPREC
 70
     0
  9
$MENU
  1
.
  9
$ELEVATION
 40
0.0
  9
$PELEVATION
 40
0.0
  9
$THICKNESS
 40
0.0
  9
$LIMCHECK
 70
     0
  9
$BLIPMODE
 70
     0
  9
$CHAMFERA
 40
20.0
  9
$CHAMFERB
 40
20.0
  9
$CHAMFERC
 40
40.0
  9
$CHAMFERD
 40
0.0
  9
$SKPOLY
 70
     0
  9
$TDCREATE
 40
2450994.354346065
  9
$TDUPDATE
 40
2453802.426213286
  9
$TDINDWG
 40
0.0085780440
  9
$TDUSRTIMER
 40
0.0085780440
  9
$USRTIMER
 70
     1
  9
$ANGBASE
 50
0.0
  9
$ANGDIR
 70
     0
  9
$PDMODE
 70
     0
  9
$PDSIZE
 40
0.0
  9
$PLINEWID
 40
0.0
  9
$COORDS
 70
     1
  9
$SPLFRAME
 70
     0
  9
$SPLINETYPE
 70
     6
  9
$SPLINESEGS
 70
     8
  9
$ATTDIA
 70
     0
  9
$ATTREQ
 70
     1
  9
$HANDLING
 70
 10241
  9
$HANDSEED
  5
7EF
  9
$SURFTAB1
 70
     6
  9
$SURFTAB2
 70
     6
  9
$SURFTYPE
 70
     6
  9
$SURFU
 70
     6
  9
$SURFV
 70
     6
  9
$UCSNAME
  2

  9
$UCSORG
 10
0.0
 20
0.0
 30
0.0
  9
$UCSXDIR
 10
1.0
 20
0.0
 30
0.0
  9
$UCSYDIR
 10
0.0
 20
1.0
 30
0.0
  9
$PUCSNAME
  2

  9
$PUCSORG
 10
0.0
 20
0.0
 30
0.0
  9
$PUCSXDIR
 10
1.0
 20
0.0
 30
0.0
  9
$PUCSYDIR
 10
0.0
 20
1.0
 30
0.0
  9
$USERI1
 70
     0
  9
$USERI2
 70
     0
  9
$USERI3
 70
     0
  9
$USERI4
 70
     0
  9
$USERI5
 70
     0
  9
$USERR1
 40
0.0
  9
$USERR2
 40
0.0
  9
$USERR3
 40
0.0
  9
$USERR4
 40
0.0
  9
$USERR5
 40
0.0
  9
$WORLDVIEW
 70
     1
  9
$SHADEDGE
 70
     3
  9
$SHADEDIF
 70
    70
  9
$TILEMODE
 70
     1
  9
$MAXACTVP
 70
    16
  9
$PINSBASE
 10
0.0
 20
0.0
 30
0.0
  9
$PLIMCHECK
 70
     0
  9
$PEXTMIN
 10
0.0
 20
0.0
 30
0.0
  9
$PEXTMAX
 10
420.0
 20
297.0
 30
0.0
  9
$PLIMMIN
 10
0.0
 20
0.0
  9
$PLIMMAX
 10
420.0
 20
297.0
  9
$UNITMODE
 70
     0
  9
$VISRETAIN
 70
     0
  9
$PLINEGEN
 70
     0
  9
$PSLTSCALE
 70
     1
  9
$TREEDEPTH
 70
  3020
  9
$PICKSTYLE
 70
     1
  9
$CMLSTYLE
  2
STANDARD
  9
$CMLJUST
 70
     0
  9
$CMLSCALE
 40
1.0
  9
$PROXYGRAPHICS
 70
     1
  9
$MEASUREMENT
 70
     1
  0
ENDSEC
  0
SECTION
  2
CLASSES
  0
CLASS
  1
ACDBDICTIONARYWDFLT
  2
AcDbDictionaryWithDefault
  3
AutoCAD 2000
 90
        0
280
     0
281
     0
  0
CLASS
  1
ACDBPLACEHOLDER
  2
AcDbPlaceHolder
  3
AutoCAD 2000
 90
        0
280
     0
281
     0
  0
CLASS
  1
LAYOUT
  2
AcDbLayout
  3
AutoCAD 2000
 90
        0
280
     0
281
     0
  0
CLASS
  1
LONG_TRANSACTION
  2
AcDbLongTransaction
  3
AutoCAD 2000
 90
        0
280
     0
281
     0
  0
CLASS
  1
LWPOLYLINE
  2
AcDbPolyline
  3
AutoCAD 2000
 90
        0
280
     0
281
     1
  0
CLASS
  1
HATCH
  2
AcDbHatch
  3
AutoCAD 2000
 90
        0
280
     0
281
     1
  0
CLASS
  1
XRECORD
  2
AcDbXrecord
  3
AutoCAD 2000
 90
        0
280
     0
281
     0
  0
CLASS
  1
LONG_TRANSACTION
  2
AcDbLongTransaction
  3
AutoCAD 2000
 90
        0
280
     0
281
     0
  0
CLASS
  1
LWPOLYLINE
  2
AcDbPolyline
  3
AutoCAD 2000
 90
        0
280
     0
281
     1
  0
CLASS
  1
HATCH
  2
AcDbHatch
  3
AutoCAD 2000
 90
        0
280
     0
281
     1
  0
CLASS
  1
XRECORD
  2
AcDbXrecord
  3
AutoCAD 2000
 90
        0
280
     0
281
     0
  0
ENDSEC
  0
SECTION
  2
TABLES
  0
TABLE
  2
VPORT
  5
8
330
0
100
AcDbSymbolTable
 70
     2
  0
VPORT
  5
7CB
330
8
100
AcDbSymbolTableRecord
100
AcDbViewportTableRecord
  2
*ACTIVE
 70
     0
 10
0.0
 20
0.0
 11
1.0
 21
1.0
 12
440.4674880384327
 22
271.0232942522107
 13
0.0
 23
0.0
 14
5.0
 24
5.0
 15
0.0
 25
0.0
 16
0.0
 26
0.0
 36
1.0
 17
0.0
 27
0.0
 37
0.0
 40
660.3241610474549
 41
1.795454545454545
 42
50.0
 43
0.0
 44
0.0
 50
0.0
 51
0.0
 71
     0
 72
   100
 73
     1
 74
     0
 75
     0
 76
     0
 77
     0
 78
     0
  0
ENDTAB
  0
TABLE
  2
LTYPE
  5
5
330
0
100
AcDbSymbolTable
 70
     3
  0
LTYPE
  5
14
330
5
100
AcDbSymbolTableRecord
100
AcDbLinetypeTableRecord
  2
BYBLOCK
 70
     0
  3

 72
    65
 73
     0
 40
0.0
  0
LTYPE
  5
15
330
5
100
AcDbSymbolTableRecord
100
AcDbLinetypeTableRecord
  2
BYLAYER
 70
     0
  3

 72
    65
 73
     0
 40
0.0
  0
LTYPE
  5
16
330
5
100
AcDbSymbolTableRecord
100
AcDbLinetypeTableRecord
  2
CONTINUOUS
 70
     0
  3
Solid line
 72
    65
 73
     0
 40
0.0
  0
LTYPE
  5
115
330
5
100
AcDbSymbolTableRecord
100
AcDbLinetypeTableRecord
  2
PHANTOM
 70
     0
  3
______  __  __  ______  __  __  ______  __  __ 
 72
    65
 73
     6
 40
2.5
 49
1.25
 74
     0
 49
-0.25
 74
     0
 49
0.25
 74
     0
 49
-0.25
 74
     0
 49
0.25
 74
     0
 49
-0.25
 74
     0
  0
LTYPE
  5
135
330
5
100
AcDbSymbolTableRecord
100
AcDbLinetypeTableRecord
  2
CENTER
 70
     0
  3
____ _ ____ _ ____ _ ____ _ ____ _ ____ _ ____ 
 72
    65
 73
     4
 40
2.0
 49
1.25
 74
     0
 49
-0.25
 74
     0
 49
0.25
 74
     0
 49
-0.25
 74
     0
  0
ENDTAB
  0
TABLE
  2
LAYER
  5
2
330
0
100
AcDbSymbolTable
 70
     9
  0
LAYER
  5
F
330
2
100
AcDbSymbolTableRecord
100
AcDbLayerTableRecord
  2
0
 70
     0
 62
     7
  6
CONTINUOUS
  0
LAYER
  5
62
330
2
100
AcDbSymbolTableRecord
100
AcDbLayerTableRecord
  2
VIEWPORT
 70
     0
 62
     7
  6
CONTINUOUS
  0
LAYER
  5
65
330
2
100
AcDbSymbolTableRecord
100
AcDbLayerTableRecord
  2
ZUWAKU
 70
     0
 62
     7
  6
CONTINUOUS
  0
LAYER
  5
1F4
330
2
100
AcDbSymbolTableRecord
100
AcDbLayerTableRecord
  2
SEIHIN
 70
     0
 62
     3
  6
CONTINUOUS
  0
LAYER
  5
1F5
330
2
100
AcDbSymbolTableRecord
100
AcDbLayerTableRecord
  2
SUNPOU
 70
     0
 62
     4
  6
CONTINUOUS
  0
LAYER
  5
1F6
330
2
100
AcDbSymbolTableRecord
100
AcDbLayerTableRecord
  2
CENTER_L
 70
     0
 62
     1
  6
CENTER
  0
LAYER
  5
1F7
330
2
100
AcDbSymbolTableRecord
100
AcDbLayerTableRecord
  2
NOKITOI
 70
     0
 62
     8
  6
PHANTOM
  0
LAYER
  5
1F8
330
2
100
AcDbSymbolTableRecord
100
AcDbLayerTableRecord
  2
DEFPOINTS
 70
     0
 62
     7
  6
CONTINUOUS
  0
LAYER
  5
650
330
2
100
AcDbSymbolTableRecord
100
AcDbLayerTableRecord
  2
MOJI
 70
     0
 62
     2
  6
CONTINUOUS
  0
ENDTAB
  0
TABLE
  2
STYLE
  5
3
330
0
100
AcDbSymbolTable
 70
     2
  0
STYLE
  5
10
330
3
100
AcDbSymbolTableRecord
100
AcDbTextStyleTableRecord
  2
STANDARD
 70
     0
 40
0.0
 41
1.0
 50
0.0
 71
     0
 42
5.0
  3
TXT
  4
bigfont.shx
  0
STYLE
  5
651
330
3
100
AcDbSymbolTableRecord
100
AcDbTextStyleTableRecord
  2
ｽﾀｲﾙ1
 70
     0
 40
0.0
 41
1.0
 50
0.0
 71
     0
 42
2.5
  3
MS PGothic.ttf
  4

1001
ACAD
1000
MS PGothic
1071
    32818
  0
ENDTAB
  0
TABLE
  2
VIEW
  5
6
330
0
100
AcDbSymbolTable
 70
     0
  0
ENDTAB
  0
TABLE
  2
UCS
  5
7
330
0
100
AcDbSymbolTable
 70
     0
  0
ENDTAB
  0
TABLE
  2
APPID
  5
9
330
0
100
AcDbSymbolTable
 70
     1
  0
APPID
  5
11
330
9
100
AcDbSymbolTableRecord
100
AcDbRegAppTableRecord
  2
ACAD
 70
     0
  0
ENDTAB
  0
TABLE
  2
DIMSTYLE
  5
A
330
0
100
AcDbSymbolTable
 70
     1
  0
DIMSTYLE
105
1D
102
{ACAD_REACTORS
330
32A
330
32B
330
32C
330
32D
330
33F
330
376
330
3AE
330
3AF
330
3C6
330
3D0
330
3D1
330
421
102
}
330
A
100
AcDbSymbolTableRecord
100
AcDbDimStyleTableRecord
  2
STANDARD
 70
     0
  3

  4

  5

  6

  7

 40
1.0
 41
0.18
 42
0.0625
 43
0.38
 44
0.18
 45
0.0
 46
0.0
 47
0.0
 48
0.0
140
0.18
141
0.09
142
0.0
143
25.4
144
1.0
145
0.0
146
1.0
147
0.09
 71
     0
 72
     0
 73
     1
 74
     1
 75
     0
 76
     0
 77
     0
 78
     0
170
     0
171
     2
172
     0
173
     0
174
     0
175
     0
176
     0
177
     0
178
     0
270
     2
271
     4
272
     4
273
     2
274
     2
340
10
275
     0
280
     0
281
     0
282
     0
283
     1
284
     0
285
     0
286
     0
287
     3
288
     0
  0
ENDTAB
  0
TABLE
  2
BLOCK_RECORD
  5
1
330
0
100
AcDbSymbolTable
 70
    13
  0
BLOCK_RECORD
  5
1A
102
{ACAD_XDICTIONARY
360
642
102
}
330
1
100
AcDbSymbolTableRecord
100
AcDbBlockTableRecord
  2
*MODEL_SPACE
  0
BLOCK_RECORD
  5
17
102
{ACAD_XDICTIONARY
360
640
102
}
330
1
100
AcDbSymbolTableRecord
100
AcDbBlockTableRecord
  2
*PAPER_SPACE
  0
BLOCK_RECORD
  5
6D
330
1
100
AcDbSymbolTableRecord
100
AcDbBlockTableRecord
  2
_OPEN
  0
BLOCK_RECORD
  5
457
330
1
100
AcDbSymbolTableRecord
100
AcDbBlockTableRecord
  2
*D1
  0
BLOCK_RECORD
  5
463
330
1
100
AcDbSymbolTableRecord
100
AcDbBlockTableRecord
  2
*D2
  0
BLOCK_RECORD
  5
46F
330
1
100
AcDbSymbolTableRecord
100
AcDbBlockTableRecord
  2
*D3
  0
BLOCK_RECORD
  5
47B
330
1
100
AcDbSymbolTableRecord
100
AcDbBlockTableRecord
  2
*D4
  0
BLOCK_RECORD
  5
487
330
1
100
AcDbSymbolTableRecord
100
AcDbBlockTableRecord
  2
*D5
  0
BLOCK_RECORD
  5
493
330
1
100
AcDbSymbolTableRecord
100
AcDbBlockTableRecord
  2
*D6
  0
BLOCK_RECORD
  5
49F
330
1
100
AcDbSymbolTableRecord
100
AcDbBlockTableRecord
  2
*D7
  0
BLOCK_RECORD
  5
4AB
330
1
100
AcDbSymbolTableRecord
100
AcDbBlockTableRecord
  2
*D8
  0
BLOCK_RECORD
  5
4B9
330
1
100
AcDbSymbolTableRecord
100
AcDbBlockTableRecord
  2
*D9
  0
BLOCK_RECORD
  5
4C7
330
1
100
AcDbSymbolTableRecord
100
AcDbBlockTableRecord
  2
*D10
  0
BLOCK_RECORD
  5
4D3
330
1
100
AcDbSymbolTableRecord
100
AcDbBlockTableRecord
  2
*D11
  0
BLOCK_RECORD
  5
4DF
330
1
100
AcDbSymbolTableRecord
100
AcDbBlockTableRecord
  2
*D12
  0
ENDTAB
  0
ENDSEC
  0
SECTION
  2
BLOCKS
  0
BLOCK
  5
1B
330
1A
100
AcDbEntity
  8
0
100
AcDbBlockBegin
  2
*MODEL_SPACE
 70
     0
 10
0.0
 20
0.0
 30
0.0
  3
*MODEL_SPACE
  1

  0
ENDBLK
  5
1C
330
1A
100
AcDbEntity
  8
0
100
AcDbBlockEnd
  0
BLOCK
  5
18
330
17
100
AcDbEntity
 67
     1
  8
0
100
AcDbBlockBegin
  2
*PAPER_SPACE
 70
     0
 10
0.0
 20
0.0
 30
0.0
  3
*PAPER_SPACE
  1

  0
ENDBLK
  5
19
330
17
100
AcDbEntity
 67
     1
  8
0
100
AcDbBlockEnd
  0
BLOCK
  5
6E
330
6D
100
AcDbEntity
  8
0
100
AcDbBlockBegin
  2
_OPEN
 70
     0
 10
0.0
 20
0.0
 30
0.0
  3
_OPEN
  1

  0
LINE
  5
6F
330
6D
100
AcDbEntity
  8
0
  6
BYBLOCK
 62
     0
100
AcDbLine
 10
-1.0
 20
0.1666666666666666
 30
0.0
 11
0.0
 21
0.0
 31
0.0
  0
LINE
  5
70
330
6D
100
AcDbEntity
  8
0
  6
BYBLOCK
 62
     0
100
AcDbLine
 10
0.0
 20
0.0
 30
0.0
 11
-1.0
 21
-0.1666666666666666
 31
0.0
  0
LINE
  5
71
330
6D
100
AcDbEntity
  8
0
  6
BYBLOCK
 62
     0
100
AcDbLine
 10
0.0
 20
0.0
 30
0.0
 11
-1.0
 21
0.0
 31
0.0
  0
ENDBLK
  5
72
330
6D
100
AcDbEntity
  8
0
100
AcDbBlockEnd
  0
BLOCK
  5
5F9
330
457
100
AcDbEntity
  8
0
100
AcDbBlockBegin
  2
*D1
 70
     1
 10
0.0
 20
0.0
 30
0.0
  3
*D1
  1

  0
LINE
  5
5FA
330
457
100
AcDbEntity
  8
0
  6
BYBLOCK
 62
     4
100
AcDbLine
 10
457.1471455709026
 20
373.33063021424
 30
0.0
 11
393.2759053923153
 21
373.33063021424
 31
0.0
  0
LINE
  5
5FB
330
457
100
AcDbEntity
  8
0
  6
BYBLOCK
 62
     4
100
AcDbLine
 10
525.6468455709026
 20
178.63064021424
 30
0.0
 11
393.2759053923153
 21
178.63064021424
 31
0.0
  0
LINE
  5
5FC
330
457
100
AcDbEntity
  8
0
  6
BYBLOCK
 62
     4
100
AcDbLine
 10
396.2759053923154
 20
366.33063021424
 30
0.0
 11
396.2759053923154
 21
185.63064021424
 31
0.0
  0
INSERT
  5
5FD
330
457
100
AcDbEntity
  8
0
  6
BYBLOCK
 62
     4
100
AcDbBlockReference
  2
_OPEN
 10
396.2759053923154
 20
373.33063021424
 30
0.0
 41
7.0
 42
7.0
 43
7.0
 50
90.0
  0
INSERT
  5
5FE
330
457
100
AcDbEntity
  8
0
  6
BYBLOCK
 62
     4
100
AcDbBlockReference
  2
_OPEN
 10
396.2759053923154
 20
178.63064021424
 30
0.0
 41
7.0
 42
7.0
 43
7.0
 50
270.0
  0
MTEXT
  5
5FF
330
457
100
AcDbEntity
  8
0
  6
BYBLOCK
 62
     4
100
AcDbMText
 10
391.2759053923153
 20
275.98063521424
 30
0.0
 40
6.0
 41
0.0
 71
     5
 72
     5
  1
\A1;195
 11
0.0
 21
1.0
 31
0.0
1001
ACAD
1000
MTEXTBEGIN
1070
    73
1070
     1
1070
    44
1040
1.0
1070
    74
1070
     0
1000
MTEXTEND
1000
MTEXTBEGIN
1070
    73
1070
     1
1070
    44
1040
1.0
1070
    74
1070
     0
1000
MTEXTEND
  0
POINT
  5
600
330
457
100
AcDbEntity
  8
DEFPOINTS
  6
BYBLOCK
 62
     0
100
AcDbPoint
 10
463.1471455709027
 20
373.33063021424
 30
0.0
  0
POINT
  5
601
330
457
100
AcDbEntity
  8
DEFPOINTS
  6
BYBLOCK
 62
     0
100
AcDbPoint
 10
531.6468455709026
 20
178.63064021424
 30
0.0
  0
POINT
  5
602
330
457
100
AcDbEntity
  8
DEFPOINTS
  6
BYBLOCK
 62
     0
100
AcDbPoint
 10
396.2759053923154
 20
178.63064021424
 30
0.0
  0
ENDBLK
  5
603
330
457
100
AcDbEntity
  8
0
100
AcDbBlockEnd
  0
BLOCK
  5
5EE
330
463
100
AcDbEntity
  8
0
100
AcDbBlockBegin
  2
*D2
 70
     1
 10
0.0
 20
0.0
 30
0.0
  3
*D2
  1

  0
LINE
  5
5EF
330
463
100
AcDbEntity
  8
0
  6
BYBLOCK
 62
     4
100
AcDbLine
 10
457.1471455709026
 20
373.33063021424
 30
0.0
 11
413.1768104103247
 21
373.33063021424
 31
0.0
  0
LINE
  5
5F0
330
463
100
AcDbEntity
  8
0
  6
BYBLOCK
 62
     4
100
AcDbLine
 10
510.2228455709027
 20
222.33053021424
 30
0.0
 11
413.1768104103247
 21
222.33053021424
 31
0.0
  0
LINE
  5
5F1
330
463
100
AcDbEntity
  8
0
  6
BYBLOCK
 62
     4
100
AcDbLine
 10
416.1768104103247
 20
366.33063021424
 30
0.0
 11
416.1768104103247
 21
229.33053021424
 31
0.0
  0
INSERT
  5
5F2
330
463
100
AcDbEntity
  8
0
  6
BYBLOCK
 62
     4
100
AcDbBlockReference
  2
_OPEN
 10
416.1768104103247
 20
373.33063021424
 30
0.0
 41
7.0
 42
7.0
 43
7.0
 50
90.0
  0
INSERT
  5
5F3
330
463
100
AcDbEntity
  8
0
  6
BYBLOCK
 62
     4
100
AcDbBlockReference
  2
_OPEN
 10
416.1768104103247
 20
222.33053021424
 30
0.0
 41
7.0
 42
7.0
 43
7.0
 50
270.0
  0
MTEXT
  5
5F4
330
463
100
AcDbEntity
  8
0
  6
BYBLOCK
 62
     4
100
AcDbMText
 10
411.1768104103247
 20
297.83058021424
 30
0.0
 40
6.0
 41
0.0
 71
     5
 72
     5
  1
\A1;151
 11
0.0
 21
1.0
 31
0.0
1001
ACAD
1000
MTEXTBEGIN
1070
    73
1070
     1
1070
    44
1040
1.0
1070
    74
1070
     0
1000
MTEXTEND
1000
MTEXTBEGIN
1070
    73
1070
     1
1070
    44
1040
1.0
1070
    74
1070
     0
1000
MTEXTEND
  0
POINT
  5
5F5
330
463
100
AcDbEntity
  8
DEFPOINTS
  6
BYBLOCK
 62
     0
100
AcDbPoint
 10
463.1471455709027
 20
373.33063021424
 30
0.0
  0
POINT
  5
5F6
330
463
100
AcDbEntity
  8
DEFPOINTS
  6
BYBLOCK
 62
     0
100
AcDbPoint
 10
516.2228455709026
 20
222.33053021424
 30
0.0
  0
POINT
  5
5F7
330
463
100
AcDbEntity
  8
DEFPOINTS
  6
BYBLOCK
 62
     0
100
AcDbPoint
 10
416.1768104103247
 20
222.33053021424
 30
0.0
  0
ENDBLK
  5
5F8
330
463
100
AcDbEntity
  8
0
100
AcDbBlockEnd
  0
BLOCK
  5
604
330
46F
100
AcDbEntity
  8
0
100
AcDbBlockBegin
  2
*D3
 70
     1
 10
0.0
 20
0.0
 30
0.0
  3
*D3
  1

  0
LINE
  5
605
330
46F
100
AcDbEntity
  8
0
  6
BYBLOCK
 62
     4
100
AcDbLine
 10
457.1471455709026
 20
373.33063021424
 30
0.0
 11
432.3122935680316
 21
373.33063021424
 31
0.0
  0
LINE
  5
606
330
46F
100
AcDbEntity
  8
0
  6
BYBLOCK
 62
     4
100
AcDbLine
 10
509.7040455709026
 20
299.63053021424
 30
0.0
 11
432.3122935680316
 21
299.63053021424
 31
0.0
  0
LINE
  5
607
330
46F
100
AcDbEntity
  8
0
  6
BYBLOCK
 62
     4
100
AcDbLine
 10
435.3122935680316
 20
366.33063021424
 30
0.0
 11
435.3122935680316
 21
306.63053021424
 31
0.0
  0
INSERT
  5
608
330
46F
100
AcDbEntity
  8
0
  6
BYBLOCK
 62
     4
100
AcDbBlockReference
  2
_OPEN
 10
435.3122935680316
 20
373.33063021424
 30
0.0
 41
7.0
 42
7.0
 43
7.0
 50
90.0
  0
INSERT
  5
609
330
46F
100
AcDbEntity
  8
0
  6
BYBLOCK
 62
     4
100
AcDbBlockReference
  2
_OPEN
 10
435.3122935680316
 20
299.63053021424
 30
0.0
 41
7.0
 42
7.0
 43
7.0
 50
270.0
  0
MTEXT
  5
60A
330
46F
100
AcDbEntity
  8
0
  6
BYBLOCK
 62
     4
100
AcDbMText
 10
430.3122935680315
 20
336.48058021424
 30
0.0
 40
6.0
 41
0.0
 71
     5
 72
     5
  1
\A1;74
 11
0.0
 21
1.0
 31
0.0
1001
ACAD
1000
MTEXTBEGIN
1070
    73
1070
     1
1070
    44
1040
1.0
1070
    74
1070
     0
1000
MTEXTEND
1000
MTEXTBEGIN
1070
    73
1070
     1
1070
    44
1040
1.0
1070
    74
1070
     0
1000
MTEXTEND
  0
POINT
  5
60B
330
46F
100
AcDbEntity
  8
DEFPOINTS
  6
BYBLOCK
 62
     0
100
AcDbPoint
 10
463.1471455709027
 20
373.33063021424
 30
0.0
  0
POINT
  5
60C
330
46F
100
AcDbEntity
  8
DEFPOINTS
  6
BYBLOCK
 62
     0
100
AcDbPoint
 10
515.7040455709026
 20
299.63053021424
 30
0.0
  0
POINT
  5
60D
330
46F
100
AcDbEntity
  8
DEFPOINTS
  6
BYBLOCK
 62
     0
100
AcDbPoint
 10
435.3122935680316
 20
299.63053021424
 30
0.0
  0
ENDBLK
  5
60E
330
46F
100
AcDbEntity
  8
0
100
AcDbBlockEnd
  0
BLOCK
  5
5C2
330
47B
100
AcDbEntity
  8
0
100
AcDbBlockBegin
  2
*D4
 70
     1
 10
0.0
 20
0.0
 30
0.0
  3
*D4
  1

  0
LINE
  5
5C3
330
47B
100
AcDbEntity
  8
0
  6
BYBLOCK
 62
     4
100
AcDbLine
 10
156.8470455709026
 20
379.33073021424
 30
0.0
 11
156.8470455709026
 21
421.6578962104597
 31
0.0
  0
LINE
  5
5C4
330
47B
100
AcDbEntity
  8
0
  6
BYBLOCK
 62
     4
100
AcDbLine
 10
332.8471455709026
 20
379.33063021424
 30
0.0
 11
332.8471455709026
 21
421.6578962104597
 31
0.0
  0
LINE
  5
5C5
330
47B
100
AcDbEntity
  8
0
  6
BYBLOCK
 62
     4
100
AcDbLine
 10
163.8470455709026
 20
418.6578962104596
 30
0.0
 11
325.8471455709026
 21
418.6578962104596
 31
0.0
  0
INSERT
  5
5C6
330
47B
100
AcDbEntity
  8
0
  6
BYBLOCK
 62
     4
100
AcDbBlockReference
  2
_OPEN
 10
156.8470455709026
 20
418.6578962104596
 30
0.0
 41
7.0
 42
7.0
 43
7.0
 50
180.0
  0
INSERT
  5
5C7
330
47B
100
AcDbEntity
  8
0
  6
BYBLOCK
 62
     4
100
AcDbBlockReference
  2
_OPEN
 10
332.8471455709026
 20
418.6578962104596
 30
0.0
 41
7.0
 42
7.0
 43
7.0
  0
MTEXT
  5
5C8
330
47B
100
AcDbEntity
  8
0
  6
BYBLOCK
 62
     4
100
AcDbMText
 10
244.8470955709026
 20
423.6578962104596
 30
0.0
 40
6.0
 41
0.0
 71
     5
 72
     5
  1
\A1;176
1001
ACAD
1000
MTEXTBEGIN
1070
    73
1070
     1
1070
    44
1040
1.0
1070
    74
1070
     0
1000
MTEXTEND
1000
MTEXTBEGIN
1070
    73
1070
     1
1070
    44
1040
1.0
1070
    74
1070
     0
1000
MTEXTEND
  0
POINT
  5
5C9
330
47B
100
AcDbEntity
  8
DEFPOINTS
  6
BYBLOCK
 62
     0
100
AcDbPoint
 10
156.8470455709026
 20
373.33073021424
 30
0.0
  0
POINT
  5
5CA
330
47B
100
AcDbEntity
  8
DEFPOINTS
  6
BYBLOCK
 62
     0
100
AcDbPoint
 10
332.8471455709026
 20
373.33063021424
 30
0.0
  0
POINT
  5
5CB
330
47B
100
AcDbEntity
  8
DEFPOINTS
  6
BYBLOCK
 62
     0
100
AcDbPoint
 10
332.8471455709026
 20
418.6578962104596
 30
0.0
  0
ENDBLK
  5
5CC
330
47B
100
AcDbEntity
  8
0
100
AcDbBlockEnd
  0
BLOCK
  5
58B
330
487
100
AcDbEntity
  8
0
100
AcDbBlockBegin
  2
*D5
 70
     1
 10
0.0
 20
0.0
 30
0.0
  3
*D5
  1

  0
LINE
  5
58C
330
487
100
AcDbEntity
  8
0
  6
BYBLOCK
 62
     4
100
AcDbLine
 10
290.8469575045291
 20
216.33053021424
 30
0.0
 11
290.8469575045291
 21
144.7542028308679
 31
0.0
  0
LINE
  5
58D
330
487
100
AcDbEntity
  8
0
  6
BYBLOCK
 62
     4
100
AcDbLine
 10
198.8470373705746
 20
216.33053021424
 30
0.0
 11
198.8470373705746
 21
144.7542028308679
 31
0.0
  0
LINE
  5
58E
330
487
100
AcDbEntity
  8
0
  6
BYBLOCK
 62
     4
100
AcDbLine
 10
283.846957504529
 20
147.7542028308679
 30
0.0
 11
205.8470373705746
 21
147.7542028308679
 31
0.0
  0
INSERT
  5
58F
330
487
100
AcDbEntity
  8
0
  6
BYBLOCK
 62
     4
100
AcDbBlockReference
  2
_OPEN
 10
290.8469575045291
 20
147.7542028308679
 30
0.0
 41
7.0
 42
7.0
 43
7.0
  0
INSERT
  5
590
330
487
100
AcDbEntity
  8
0
  6
BYBLOCK
 62
     4
100
AcDbBlockReference
  2
_OPEN
 10
198.8470373705746
 20
147.7542028308679
 30
0.0
 41
7.0
 42
7.0
 43
7.0
 50
180.0
  0
MTEXT
  5
591
330
487
100
AcDbEntity
  8
0
  6
BYBLOCK
 62
     4
100
AcDbMText
 10
244.8469974375518
 20
152.754202830868
 30
0.0
 40
6.0
 41
0.0
 71
     5
 72
     5
  1
\A1;92
1001
ACAD
1000
MTEXTBEGIN
1070
    73
1070
     1
1070
    44
1040
1.0
1070
    74
1070
     0
1000
MTEXTEND
1000
MTEXTBEGIN
1070
    73
1070
     1
1070
    44
1040
1.0
1070
    74
1070
     0
1000
MTEXTEND
  0
POINT
  5
592
330
487
100
AcDbEntity
  8
DEFPOINTS
  6
BYBLOCK
 62
     0
100
AcDbPoint
 10
290.8469575045291
 20
222.33053021424
 30
0.0
  0
POINT
  5
593
330
487
100
AcDbEntity
  8
DEFPOINTS
  6
BYBLOCK
 62
     0
100
AcDbPoint
 10
198.8470373705746
 20
222.33053021424
 30
0.0
  0
POINT
  5
594
330
487
100
AcDbEntity
  8
DEFPOINTS
  6
BYBLOCK
 62
     0
100
AcDbPoint
 10
198.8470373705746
 20
147.7542028308679
 30
0.0
  0
ENDBLK
  5
595
330
487
100
AcDbEntity
  8
0
100
AcDbBlockEnd
  0
BLOCK
  5
5CD
330
493
100
AcDbEntity
  8
0
100
AcDbBlockBegin
  2
*D6
 70
     1
 10
0.0
 20
0.0
 30
0.0
  3
*D6
  1

  0
LINE
  5
5CE
330
493
100
AcDbEntity
  8
0
  6
BYBLOCK
 62
     4
100
AcDbLine
 10
214.8470418790148
 20
379.3307961232518
 30
0.0
 11
214.8470418790148
 21
401.4809017505169
 31
0.0
  0
LINE
  5
5CF
330
493
100
AcDbEntity
  8
0
  6
BYBLOCK
 62
     4
100
AcDbLine
 10
274.8470418790217
 20
379.3307961233738
 30
0.0
 11
274.8470418790217
 21
401.4809017505169
 31
0.0
  0
LINE
  5
5D0
330
493
100
AcDbEntity
  8
0
  6
BYBLOCK
 62
     4
100
AcDbLine
 10
221.8470418790148
 20
398.4809017505169
 30
0.0
 11
267.8470418790217
 21
398.4809017505169
 31
0.0
  0
INSERT
  5
5D1
330
493
100
AcDbEntity
  8
0
  6
BYBLOCK
 62
     4
100
AcDbBlockReference
  2
_OPEN
 10
214.8470418790148
 20
398.4809017505169
 30
0.0
 41
7.0
 42
7.0
 43
7.0
 50
180.0
  0
INSERT
  5
5D2
330
493
100
AcDbEntity
  8
0
  6
BYBLOCK
 62
     4
100
AcDbBlockReference
  2
_OPEN
 10
274.8470418790217
 20
398.4809017505169
 30
0.0
 41
7.0
 42
7.0
 43
7.0
  0
MTEXT
  5
5D3
330
493
100
AcDbEntity
  8
0
  6
BYBLOCK
 62
     4
100
AcDbMText
 10
244.8470418790183
 20
403.4809017505168
 30
0.0
 40
6.0
 41
0.0
 71
     5
 72
     5
  1
\A1;※a60
1001
ACAD
1000
MTEXTBEGIN
1070
    73
1070
     1
1070
    44
1040
1.0
1070
    74
1070
     0
1000
MTEXTEND
1000
MTEXTBEGIN
1070
    73
1070
     1
1070
    44
1040
1.0
1070
    74
1070
     0
1000
MTEXTEND
  0
POINT
  5
5D4
330
493
100
AcDbEntity
  8
DEFPOINTS
  6
BYBLOCK
 62
     0
100
AcDbPoint
 10
214.8470418790148
 20
373.3307961232517
 30
0.0
  0
POINT
  5
5D5
330
493
100
AcDbEntity
  8
DEFPOINTS
  6
BYBLOCK
 62
     0
100
AcDbPoint
 10
274.8470418790217
 20
373.3307961233738
 30
0.0
  0
POINT
  5
5D6
330
493
100
AcDbEntity
  8
DEFPOINTS
  6
BYBLOCK
 62
     0
100
AcDbPoint
 10
274.8470418790217
 20
398.4809017505169
 30
0.0
  0
ENDBLK
  5
5D7
330
493
100
AcDbEntity
  8
0
100
AcDbBlockEnd
  0
BLOCK
  5
596
330
49F
100
AcDbEntity
  8
0
100
AcDbBlockBegin
  2
*D7
 70
     1
 10
0.0
 20
0.0
 30
0.0
  3
*D7
  1

  0
LINE
  5
597
330
49F
100
AcDbEntity
  8
0
  6
BYBLOCK
 62
     4
100
AcDbLine
 10
595.8469455709026
 20
178.93052021424
 30
0.0
 11
595.8469455709026
 21
144.7542028308679
 31
0.0
  0
LINE
  5
598
330
49F
100
AcDbEntity
  8
0
  6
BYBLOCK
 62
     4
100
AcDbLine
 10
525.8470591768851
 20
178.9307027668564
 30
0.0
 11
525.8470591768851
 21
144.7542028308679
 31
0.0
  0
LINE
  5
599
330
49F
100
AcDbEntity
  8
0
  6
BYBLOCK
 62
     4
100
AcDbLine
 10
588.8469455709026
 20
147.7542028308679
 30
0.0
 11
532.8470591768851
 21
147.7542028308679
 31
0.0
  0
INSERT
  5
59A
330
49F
100
AcDbEntity
  8
0
  6
BYBLOCK
 62
     4
100
AcDbBlockReference
  2
_OPEN
 10
595.8469455709026
 20
147.7542028308679
 30
0.0
 41
7.0
 42
7.0
 43
7.0
  0
INSERT
  5
59B
330
49F
100
AcDbEntity
  8
0
  6
BYBLOCK
 62
     4
100
AcDbBlockReference
  2
_OPEN
 10
525.8470591768851
 20
147.7542028308679
 30
0.0
 41
7.0
 42
7.0
 43
7.0
 50
180.0
  0
MTEXT
  5
59C
330
49F
100
AcDbEntity
  8
0
  6
BYBLOCK
 62
     4
100
AcDbMText
 10
560.8470023738939
 20
152.754202830868
 30
0.0
 40
6.0
 41
0.0
 71
     5
 72
     5
  1
\A1;70
1001
ACAD
1000
MTEXTBEGIN
1070
    73
1070
     1
1070
    44
1040
1.0
1070
    74
1070
     0
1000
MTEXTEND
1000
MTEXTBEGIN
1070
    73
1070
     1
1070
    44
1040
1.0
1070
    74
1070
     0
1000
MTEXTEND
  0
POINT
  5
59D
330
49F
100
AcDbEntity
  8
DEFPOINTS
  6
BYBLOCK
 62
     0
100
AcDbPoint
 10
595.8469455709026
 20
184.93052021424
 30
0.0
  0
POINT
  5
59E
330
49F
100
AcDbEntity
  8
DEFPOINTS
  6
BYBLOCK
 62
     0
100
AcDbPoint
 10
525.8470591768851
 20
184.9307027668564
 30
0.0
  0
POINT
  5
59F
330
49F
100
AcDbEntity
  8
DEFPOINTS
  6
BYBLOCK
 62
     0
100
AcDbPoint
 10
525.8470591768851
 20
147.7542028308679
 30
0.0
  0
ENDBLK
  5
5A0
330
49F
100
AcDbEntity
  8
0
100
AcDbBlockEnd
  0
BLOCK
  5
538
330
4AB
100
AcDbEntity
  8
0
100
AcDbBlockBegin
  2
*D8
 70
     1
 10
0.0
 20
0.0
 30
0.0
  3
*D8
  1

  0
LINE
  5
539
330
4AB
100
AcDbEntity
  8
0
  6
BYBLOCK
 62
     4
100
AcDbLine
 10
552.8470455709026
 20
320.5069722021676
 30
0.0
 11
552.8470455709026
 21
312.6862367522669
 31
0.0
  0
LINE
  5
53A
330
4AB
100
AcDbEntity
  8
0
  6
BYBLOCK
 62
     4
100
AcDbLine
 10
560.8470455709026
 20
315.4191722021676
 30
0.0
 11
560.8470455709026
 21
318.6862367522668
 31
0.0
  0
LINE
  5
53B
330
4AB
100
AcDbEntity
  8
0
  6
BYBLOCK
 62
     4
100
AcDbLine
 10
545.8470455709026
 20
315.6862367522669
 30
0.0
 11
538.8470455709026
 21
315.6862367522669
 31
0.0
  0
LINE
  5
53C
330
4AB
100
AcDbEntity
  8
0
  6
BYBLOCK
 62
     4
100
AcDbLine
 10
567.8470455709026
 20
315.6862367522669
 30
0.0
 11
582.8470455709026
 21
315.6862367522669
 31
0.0
  0
LINE
  5
53D
330
4AB
100
AcDbEntity
  8
0
  6
BYBLOCK
 62
     4
100
AcDbLine
 10
552.8470455709026
 20
315.6862367522669
 30
0.0
 11
560.8470455709026
 21
315.6862367522669
 31
0.0
  0
INSERT
  5
53E
330
4AB
100
AcDbEntity
  8
0
  6
BYBLOCK
 62
     4
100
AcDbBlockReference
  2
_OPEN
 10
552.8470455709026
 20
315.6862367522669
 30
0.0
 41
7.0
 42
7.0
 43
7.0
  0
INSERT
  5
53F
330
4AB
100
AcDbEntity
  8
0
  6
BYBLOCK
 62
     4
100
AcDbBlockReference
  2
_OPEN
 10
560.8470455709026
 20
315.6862367522669
 30
0.0
 41
7.0
 42
7.0
 43
7.0
 50
180.0
  0
MTEXT
  5
540
330
4AB
100
AcDbEntity
  8
0
  6
BYBLOCK
 62
     4
100
AcDbMText
 10
578.8470455709026
 20
320.6862367522668
 30
0.0
 40
6.0
 41
0.0
 71
     5
 72
     5
  1
\A1;8
1001
ACAD
1000
MTEXTBEGIN
1070
    73
1070
     1
1070
    44
1040
1.0
1070
    74
1070
     0
1000
MTEXTEND
1000
MTEXTBEGIN
1070
    73
1070
     1
1070
    44
1040
1.0
1070
    74
1070
     0
1000
MTEXTEND
  0
POINT
  5
541
330
4AB
100
AcDbEntity
  8
DEFPOINTS
  6
BYBLOCK
 62
     0
100
AcDbPoint
 10
552.8470455709026
 20
326.5069722021676
 30
0.0
  0
POINT
  5
542
330
4AB
100
AcDbEntity
  8
DEFPOINTS
  6
BYBLOCK
 62
     0
100
AcDbPoint
 10
560.8470455709026
 20
309.4191722021676
 30
0.0
  0
POINT
  5
543
330
4AB
100
AcDbEntity
  8
DEFPOINTS
  6
BYBLOCK
 62
     0
100
AcDbPoint
 10
560.8470455709026
 20
315.6862367522669
 30
0.0
  0
ENDBLK
  5
544
330
4AB
100
AcDbEntity
  8
0
100
AcDbBlockEnd
  0
BLOCK
  5
545
330
4B9
100
AcDbEntity
  8
0
100
AcDbBlockBegin
  2
*D9
 70
     1
 10
0.0
 20
0.0
 30
0.0
  3
*D9
  1

  0
LINE
  5
546
330
4B9
100
AcDbEntity
  8
0
  6
BYBLOCK
 62
     4
100
AcDbLine
 10
603.3406499743833
 20
247.0685609218532
 30
0.0
 11
650.5084503091492
 21
247.0685609218532
 31
0.0
  0
LINE
  5
547
330
4B9
100
AcDbEntity
  8
0
  6
BYBLOCK
 62
     4
100
AcDbLine
 10
601.8469455709026
 20
237.0685622021676
 30
0.0
 11
650.5084503091492
 21
237.0685622021676
 31
0.0
  0
LINE
  5
548
330
4B9
100
AcDbEntity
  8
0
  6
BYBLOCK
 62
     4
100
AcDbLine
 10
647.5084503091492
 20
254.0685609218532
 30
0.0
 11
647.5084503091492
 21
261.0685609218532
 31
0.0
  0
LINE
  5
549
330
4B9
100
AcDbEntity
  8
0
  6
BYBLOCK
 62
     4
100
AcDbLine
 10
647.5084503091492
 20
230.0685622021676
 30
0.0
 11
647.5084503091492
 21
198.8685622021676
 31
0.0
  0
LINE
  5
54A
330
4B9
100
AcDbEntity
  8
0
  6
BYBLOCK
 62
     4
100
AcDbLine
 10
647.5084503091492
 20
247.0685609218532
 30
0.0
 11
647.5084503091492
 21
237.0685622021676
 31
0.0
  0
INSERT
  5
54B
330
4B9
100
AcDbEntity
  8
0
  6
BYBLOCK
 62
     4
100
AcDbBlockReference
  2
_OPEN
 10
647.5084503091492
 20
247.0685609218532
 30
0.0
 41
7.0
 42
7.0
 43
7.0
 50
270.0
  0
INSERT
  5
54C
330
4B9
100
AcDbEntity
  8
0
  6
BYBLOCK
 62
     4
100
AcDbBlockReference
  2
_OPEN
 10
647.5084503091492
 20
237.0685622021676
 30
0.0
 41
7.0
 42
7.0
 43
7.0
 50
90.0
  0
MTEXT
  5
54D
330
4B9
100
AcDbEntity
  8
0
  6
BYBLOCK
 62
     4
100
AcDbMText
 10
642.5084503091492
 20
210.9685622021676
 30
0.0
 40
6.0
 41
0.0
 71
     5
 72
     5
  1
\A1;※b10
 11
0.0
 21
1.0
 31
0.0
1001
ACAD
1000
MTEXTBEGIN
1070
    73
1070
     1
1070
    44
1040
1.0
1070
    74
1070
     0
1000
MTEXTEND
1000
MTEXTBEGIN
1070
    73
1070
     1
1070
    44
1040
1.0
1070
    74
1070
     0
1000
MTEXTEND
  0
POINT
  5
54E
330
4B9
100
AcDbEntity
  8
DEFPOINTS
  6
BYBLOCK
 62
     0
100
AcDbPoint
 10
597.3406499743832
 20
247.0685609218532
 30
0.0
  0
POINT
  5
54F
330
4B9
100
AcDbEntity
  8
DEFPOINTS
  6
BYBLOCK
 62
     0
100
AcDbPoint
 10
595.8469455709026
 20
237.0685622021676
 30
0.0
  0
POINT
  5
550
330
4B9
100
AcDbEntity
  8
DEFPOINTS
  6
BYBLOCK
 62
     0
100
AcDbPoint
 10
647.5084503091492
 20
237.0685622021676
 30
0.0
  0
ENDBLK
  5
551
330
4B9
100
AcDbEntity
  8
0
100
AcDbBlockEnd
  0
BLOCK
  5
5D8
330
4C7
100
AcDbEntity
  8
0
100
AcDbBlockBegin
  2
*D10
 70
     1
 10
0.0
 20
0.0
 30
0.0
  3
*D10
  1

  0
LINE
  5
5D9
330
4C7
100
AcDbEntity
  8
0
  6
BYBLOCK
 62
     4
100
AcDbLine
 10
619.3470455709026
 20
369.33063021424
 30
0.0
 11
619.3470455709026
 21
422.241229543793
 31
0.0
  0
LINE
  5
5DA
330
4C7
100
AcDbEntity
  8
0
  6
BYBLOCK
 62
     4
100
AcDbLine
 10
463.1471455709027
 20
379.33063021424
 30
0.0
 11
463.1471455709027
 21
422.241229543793
 31
0.0
  0
LINE
  5
5DB
330
4C7
100
AcDbEntity
  8
0
  6
BYBLOCK
 62
     4
100
AcDbLine
 10
612.3470455709026
 20
419.2412295437931
 30
0.0
 11
470.1471455709026
 21
419.2412295437931
 31
0.0
  0
INSERT
  5
5DC
330
4C7
100
AcDbEntity
  8
0
  6
BYBLOCK
 62
     4
100
AcDbBlockReference
  2
_OPEN
 10
619.3470455709026
 20
419.2412295437931
 30
0.0
 41
7.0
 42
7.0
 43
7.0
  0
INSERT
  5
5DD
330
4C7
100
AcDbEntity
  8
0
  6
BYBLOCK
 62
     4
100
AcDbBlockReference
  2
_OPEN
 10
463.1471455709027
 20
419.2412295437931
 30
0.0
 41
7.0
 42
7.0
 43
7.0
 50
180.0
  0
MTEXT
  5
5DE
330
4C7
100
AcDbEntity
  8
0
  6
BYBLOCK
 62
     4
100
AcDbMText
 10
541.2470955709027
 20
424.241229543793
 30
0.0
 40
6.0
 41
0.0
 71
     5
 72
     5
  1
\A1;156
1001
ACAD
1000
MTEXTBEGIN
1070
    73
1070
     1
1070
    44
1040
1.0
1070
    74
1070
     0
1000
MTEXTEND
1000
MTEXTBEGIN
1070
    73
1070
     1
1070
    44
1040
1.0
1070
    74
1070
     0
1000
MTEXTEND
  0
POINT
  5
5DF
330
4C7
100
AcDbEntity
  8
DEFPOINTS
  6
BYBLOCK
 62
     0
100
AcDbPoint
 10
619.3470455709026
 20
363.33063021424
 30
0.0
  0
POINT
  5
5E0
330
4C7
100
AcDbEntity
  8
DEFPOINTS
  6
BYBLOCK
 62
     0
100
AcDbPoint
 10
463.1471455709027
 20
373.33063021424
 30
0.0
  0
POINT
  5
5E1
330
4C7
100
AcDbEntity
  8
DEFPOINTS
  6
BYBLOCK
 62
     0
100
AcDbPoint
 10
463.1471455709027
 20
419.2412295437931
 30
0.0
  0
ENDBLK
  5
5E2
330
4C7
100
AcDbEntity
  8
0
100
AcDbBlockEnd
  0
BLOCK
  5
5E3
330
4D3
100
AcDbEntity
  8
0
100
AcDbBlockBegin
  2
*D11
 70
     1
 10
0.0
 20
0.0
 30
0.0
  3
*D11
  1

  0
LINE
  5
5E4
330
4D3
100
AcDbEntity
  8
0
  6
BYBLOCK
 62
     4
100
AcDbLine
 10
619.3470455709026
 20
369.33063021424
 30
0.0
 11
619.3470455709026
 21
401.0657121092135
 31
0.0
  0
LINE
  5
5E5
330
4D3
100
AcDbEntity
  8
0
  6
BYBLOCK
 62
     4
100
AcDbLine
 10
552.8470455709026
 20
333.97513021424
 30
0.0
 11
552.8470455709026
 21
401.0657121092135
 31
0.0
  0
LINE
  5
5E6
330
4D3
100
AcDbEntity
  8
0
  6
BYBLOCK
 62
     4
100
AcDbLine
 10
612.3470455709026
 20
398.0657121092135
 30
0.0
 11
559.8470455709026
 21
398.0657121092135
 31
0.0
  0
INSERT
  5
5E7
330
4D3
100
AcDbEntity
  8
0
  6
BYBLOCK
 62
     4
100
AcDbBlockReference
  2
_OPEN
 10
619.3470455709026
 20
398.0657121092135
 30
0.0
 41
7.0
 42
7.0
 43
7.0
  0
INSERT
  5
5E8
330
4D3
100
AcDbEntity
  8
0
  6
BYBLOCK
 62
     4
100
AcDbBlockReference
  2
_OPEN
 10
552.8470455709026
 20
398.0657121092135
 30
0.0
 41
7.0
 42
7.0
 43
7.0
 50
180.0
  0
MTEXT
  5
5E9
330
4D3
100
AcDbEntity
  8
0
  6
BYBLOCK
 62
     4
100
AcDbMText
 10
586.0970455709026
 20
403.0657121092135
 30
0.0
 40
6.0
 41
0.0
 71
     5
 72
     5
  1
\A1;67
1001
ACAD
1000
MTEXTBEGIN
1070
    73
1070
     1
1070
    44
1040
1.0
1070
    74
1070
     0
1000
MTEXTEND
1000
MTEXTBEGIN
1070
    73
1070
     1
1070
    44
1040
1.0
1070
    74
1070
     0
1000
MTEXTEND
  0
POINT
  5
5EA
330
4D3
100
AcDbEntity
  8
DEFPOINTS
  6
BYBLOCK
 62
     0
100
AcDbPoint
 10
619.3470455709026
 20
363.33063021424
 30
0.0
  0
POINT
  5
5EB
330
4D3
100
AcDbEntity
  8
DEFPOINTS
  6
BYBLOCK
 62
     0
100
AcDbPoint
 10
552.8470455709026
 20
327.97513021424
 30
0.0
  0
POINT
  5
5EC
330
4D3
100
AcDbEntity
  8
DEFPOINTS
  6
BYBLOCK
 62
     0
100
AcDbPoint
 10
552.8470455709026
 20
398.0657121092135
 30
0.0
  0
ENDBLK
  5
5ED
330
4D3
100
AcDbEntity
  8
0
100
AcDbBlockEnd
  0
BLOCK
  5
5A1
330
4DF
100
AcDbEntity
  8
0
100
AcDbBlockBegin
  2
*D12
 70
     1
 10
0.0
 20
0.0
 30
0.0
  3
*D12
  1

  0
LINE
  5
5A2
330
4DF
100
AcDbEntity
  8
0
  6
BYBLOCK
 62
     4
100
AcDbLine
 10
625.3470455709027
 20
363.33063021424
 30
0.0
 11
650.2732452107351
 21
363.33063021424
 31
0.0
  0
LINE
  5
5A3
330
4DF
100
AcDbEntity
  8
0
  6
BYBLOCK
 62
     4
100
AcDbLine
 10
567.1387455709026
 20
299.63049121424
 30
0.0
 11
650.2732452107351
 21
299.63049121424
 31
0.0
  0
LINE
  5
5A4
330
4DF
100
AcDbEntity
  8
0
  6
BYBLOCK
 62
     4
100
AcDbLine
 10
647.2732452107351
 20
356.33063021424
 30
0.0
 11
647.2732452107351
 21
306.6304912142399
 31
0.0
  0
INSERT
  5
5A5
330
4DF
100
AcDbEntity
  8
0
  6
BYBLOCK
 62
     4
100
AcDbBlockReference
  2
_OPEN
 10
647.2732452107351
 20
363.33063021424
 30
0.0
 41
7.0
 42
7.0
 43
7.0
 50
90.0
  0
INSERT
  5
5A6
330
4DF
100
AcDbEntity
  8
0
  6
BYBLOCK
 62
     4
100
AcDbBlockReference
  2
_OPEN
 10
647.2732452107351
 20
299.63049121424
 30
0.0
 41
7.0
 42
7.0
 43
7.0
 50
270.0
  0
MTEXT
  5
5A7
330
4DF
100
AcDbEntity
  8
0
  6
BYBLOCK
 62
     4
100
AcDbMText
 10
642.2732452107351
 20
331.48056071424
 30
0.0
 40
6.0
 41
0.0
 71
     5
 72
     5
  1
\A1;64
 11
0.0
 21
1.0
 31
0.0
1001
ACAD
1000
MTEXTBEGIN
1070
    73
1070
     1
1070
    44
1040
1.0
1070
    74
1070
     0
1000
MTEXTEND
1000
MTEXTBEGIN
1070
    73
1070
     1
1070
    44
1040
1.0
1070
    74
1070
     0
1000
MTEXTEND
  0
POINT
  5
5A8
330
4DF
100
AcDbEntity
  8
DEFPOINTS
  6
BYBLOCK
 62
     0
100
AcDbPoint
 10
619.3470455709026
 20
363.33063021424
 30
0.0
  0
POINT
  5
5A9
330
4DF
100
AcDbEntity
  8
DEFPOINTS
  6
BYBLOCK
 62
     0
100
AcDbPoint
 10
561.1387455709026
 20
299.63049121424
 30
0.0
  0
POINT
  5
5AA
330
4DF
100
AcDbEntity
  8
DEFPOINTS
  6
BYBLOCK
 62
     0
100
AcDbPoint
 10
647.2732452107351
 20
299.63049121424
 30
0.0
  0
ENDBLK
  5
5AB
330
4DF
100
AcDbEntity
  8
0
100
AcDbBlockEnd
  0
ENDSEC
  0
SECTION
  2
ENTITIES
  0
DIMENSION
  5
32A
330
1A
100
AcDbEntity
  8
ZUWAKU
100
AcDbDimension
  2
*D1
 10
396.2759053923154
 20
178.63064021424
 30
0.0
 11
391.2759053923153
 21
275.98063521424
 31
0.0
 70
    32
  3
STANDARD
100
AcDbAlignedDimension
 13
463.1471455709027
 23
373.33063021424
 33
0.0
 14
531.6468455709026
 24
178.63064021424
 34
0.0
 50
90.0
100
AcDbRotatedDimension
1001
ACAD
1000
DSTYLE
1002
{
1070
   140
1040
6.0
1070
    74
1070
     0
1070
   172
1070
     1
1070
    73
1070
     0
1070
   272
1070
     2
1070
    77
1070
     3
1070
   173
1070
     1
1070
   147
1040
2.0
1070
    42
1040
6.0
1070
    44
1040
3.0
1070
    43
1040
14.0
1070
   271
1070
     0
1070
   178
1070
     4
1070
   177
1070
     4
1070
   176
1070
     4
1070
   141
1040
150.0
1070
     7
1000
_OPEN
1070
     6
1000
_OPEN
1070
    41
1040
7.0
1002
}
  0
DIMENSION
  5
32B
330
1A
100
AcDbEntity
  8
ZUWAKU
100
AcDbDimension
  2
*D2
 10
416.1768104103247
 20
222.33053021424
 30
0.0
 11
411.1768104103247
 21
297.83058021424
 31
0.0
 70
    32
  3
STANDARD
100
AcDbAlignedDimension
 13
463.1471455709027
 23
373.33063021424
 33
0.0
 14
516.2228455709026
 24
222.33053021424
 34
0.0
 50
90.0
100
AcDbRotatedDimension
1001
ACAD
1000
DSTYLE
1002
{
1070
   140
1040
6.0
1070
    74
1070
     0
1070
   172
1070
     1
1070
    73
1070
     0
1070
   272
1070
     2
1070
    77
1070
     3
1070
   173
1070
     1
1070
   147
1040
2.0
1070
    42
1040
6.0
1070
    44
1040
3.0
1070
    43
1040
14.0
1070
   271
1070
     0
1070
   178
1070
     4
1070
   177
1070
     4
1070
   176
1070
     4
1070
   141
1040
150.0
1070
     7
1000
_OPEN
1070
     6
1000
_OPEN
1070
    41
1040
7.0
1002
}
  0
DIMENSION
  5
32C
330
1A
100
AcDbEntity
  8
ZUWAKU
100
AcDbDimension
  2
*D3
 10
435.3122935680316
 20
299.63053021424
 30
0.0
 11
430.3122935680315
 21
336.48058021424
 31
0.0
 70
    32
  3
STANDARD
100
AcDbAlignedDimension
 13
463.1471455709027
 23
373.33063021424
 33
0.0
 14
515.7040455709026
 24
299.63053021424
 34
0.0
 50
90.0
100
AcDbRotatedDimension
1001
ACAD
1000
DSTYLE
1002
{
1070
   140
1040
6.0
1070
    74
1070
     0
1070
   172
1070
     1
1070
    73
1070
     0
1070
   272
1070
     2
1070
    77
1070
     3
1070
   173
1070
     1
1070
   147
1040
2.0
1070
    42
1040
6.0
1070
    44
1040
3.0
1070
    43
1040
14.0
1070
   271
1070
     0
1070
   178
1070
     4
1070
   177
1070
     4
1070
   176
1070
     4
1070
   141
1040
150.0
1070
     7
1000
_OPEN
1070
     6
1000
_OPEN
1070
    41
1040
7.0
1002
}
  0
DIMENSION
  5
32D
330
1A
100
AcDbEntity
  8
ZUWAKU
100
AcDbDimension
  2
*D4
 10
332.8471455709026
 20
418.6578962104596
 30
0.0
 11
244.8470955709026
 21
423.6578962104596
 31
0.0
 70
    32
  3
STANDARD
100
AcDbAlignedDimension
 13
156.8470455709026
 23
373.33073021424
 33
0.0
 14
332.8471455709026
 24
373.33063021424
 34
0.0
100
AcDbRotatedDimension
1001
ACAD
1000
DSTYLE
1002
{
1070
   140
1040
6.0
1070
    74
1070
     0
1070
   172
1070
     1
1070
    73
1070
     0
1070
   272
1070
     2
1070
    77
1070
     3
1070
   173
1070
     1
1070
   147
1040
2.0
1070
    42
1040
6.0
1070
    44
1040
3.0
1070
    43
1040
14.0
1070
   271
1070
     0
1070
   178
1070
     4
1070
   177
1070
     4
1070
   176
1070
     4
1070
   141
1040
150.0
1070
     7
1000
_OPEN
1070
     6
1000
_OPEN
1070
    41
1040
7.0
1002
}
  0
LINE
  5
32E
330
1A
100
AcDbEntity
  8
SEIHIN
 62
     3
100
AcDbLine
 10
158.8990455709026
 20
367.88923021424
 30
0.0
 11
160.8099455709026
 21
351.64623021424
 31
0.0
  0
LINE
  5
32F
330
1A
100
AcDbEntity
  8
SEIHIN
 62
     3
100
AcDbLine
 10
157.7995455709027
 20
368.33073021424
 30
0.0
 11
244.8470455709026
 21
368.33073021424
 31
0.0
  0
LINE
  5
330
330
1A
100
AcDbEntity
  8
SEIHIN
 62
     3
100
AcDbLine
 10
156.8470455709026
 20
373.33073021424
 30
0.0
 11
244.8471455709026
 21
373.33083021424
 31
0.0
  0
ARC
  5
331
330
1A
100
AcDbEntity
  8
SEIHIN
 62
     3
100
AcDbCircle
 10
158.4024455709026
 20
367.83073021424
 30
0.0
 40
0.5000170000000001
100
AcDbArc
 50
6.718538999999999
 51
90.0
  0
ARC
  5
332
330
1A
100
AcDbEntity
  8
SEIHIN
 62
     3
100
AcDbCircle
 10
157.7995455709027
 20
368.83073021424
 30
0.0
 40
0.499988
100
AcDbArc
 50
185.704892
 51
270.0
  0
LINE
  5
333
330
1A
100
AcDbEntity
  8
SEIHIN
 62
     3
100
AcDbLine
 10
156.8470455709026
 20
373.33073021424
 30
0.0
 11
157.3019455709026
 21
368.78103021424
 31
0.0
  0
ARC
  5
334
330
1A
100
AcDbEntity
  8
SEIHIN
 62
     3
100
AcDbCircle
 10
6.433275570902651
 20
321.32233021424
 30
0.0
 40
300.000007
100
AcDbArc
 50
348.233873
 51
354.075242
  0
ARC
  5
335
330
1A
100
AcDbEntity
  8
SEIHIN
 62
     3
100
AcDbCircle
 10
483.2608455709027
 20
321.32203021424
 30
0.0
 40
299.999966
100
AcDbArc
 50
185.924546
 51
191.765916
  0
LINE
  5
336
330
1A
100
AcDbEntity
  8
SEIHIN
 62
     3
100
AcDbLine
 10
208.2957455709026
 20
311.83573021424
 30
0.0
 11
212.8673455709026
 21
247.83083021424
 31
0.0
  0
LINE
  5
337
330
1A
100
AcDbEntity
  8
SEIHIN
 62
     3
100
AcDbLine
 10
210.6896455709026
 20
250.24603021424
 30
0.0
 11
206.2015455709026
 21
313.08253021424
 31
0.0
  0
LINE
  5
338
330
1A
100
AcDbEntity
  8
SEIHIN
 62
     3
100
AcDbLine
 10
289.8152455709027
 20
317.38573021424
 30
0.0
 11
285.9414455709027
 21
263.15083021424
 31
0.0
  0
LINE
  5
339
330
1A
100
AcDbEntity
  8
SEIHIN
 62
     3
100
AcDbLine
 10
281.3983455709027
 20
311.83573021424
 30
0.0
 11
276.8267455709027
 21
247.83073021424
 31
0.0
  0
LINE
  5
33A
330
1A
100
AcDbEntity
  8
SEIHIN
 62
     3
100
AcDbLine
 10
199.8789455709027
 20
317.38573021424
 30
0.0
 11
203.7526455709026
 21
263.15093021424
 31
0.0
  0
LINE
  5
33B
330
1A
100
AcDbEntity
  8
SEIHIN
 62
     3
100
AcDbLine
 10
279.0043455709027
 20
250.24603021424
 30
0.0
 11
283.4925455709027
 21
313.08253021424
 31
0.0
  0
ARC
  5
33C
330
1A
100
AcDbEntity
  8
SEIHIN
 62
     3
100
AcDbCircle
 10
15.43327557090265
 20
321.32233021424
 30
0.0
 40
300.000007
100
AcDbArc
 50
348.233873
 51
354.075242
  0
LINE
  5
33D
330
1A
100
AcDbEntity
  8
CENTER_L
 62
     1
 48
5.0
100
AcDbLine
 10
244.8470455709026
 20
381.03933021424
 30
0.0
 11
244.8469455709026
 21
172.24259021424
 31
0.0
  0
ARC
  5
33E
330
1A
100
AcDbEntity
  8
SEIHIN
 62
     3
100
AcDbCircle
 10
474.2608455709026
 20
321.32213021424
 30
0.0
 40
299.999976
100
AcDbArc
 50
185.924546
 51
191.7659349999999
  0
DIMENSION
  5
33F
330
1A
100
AcDbEntity
  8
ZUWAKU
100
AcDbDimension
  2
*D5
 10
198.8470373705746
 20
147.7542028308679
 30
0.0
 11
244.8469974375518
 21
152.754202830868
 31
0.0
 70
    32
  3
STANDARD
100
AcDbAlignedDimension
 13
290.8469575045291
 23
222.33053021424
 33
0.0
 14
198.8470373705746
 24
222.33053021424
 34
0.0
100
AcDbRotatedDimension
1001
ACAD
1000
DSTYLE
1002
{
1070
   140
1040
6.0
1070
    74
1070
     0
1070
   172
1070
     1
1070
    73
1070
     0
1070
   272
1070
     2
1070
    77
1070
     3
1070
   173
1070
     1
1070
   147
1040
2.0
1070
    42
1040
6.0
1070
    44
1040
3.0
1070
    43
1040
14.0
1070
   271
1070
     0
1070
   178
1070
     4
1070
   177
1070
     4
1070
   176
1070
     4
1070
   141
1040
150.0
1070
     7
1000
_OPEN
1070
     6
1000
_OPEN
1070
    41
1040
7.0
1002
}
  0
ARC
  5
340
330
1A
100
AcDbEntity
  8
SEIHIN
 62
     3
100
AcDbCircle
 10
288.4710465709026
 20
225.33053121424
 30
0.0
 40
3.000000999999999
100
AcDbArc
 50
269.999987
 51
344.927952
  0
ARC
  5
341
330
1A
100
AcDbEntity
  8
SEIHIN
 62
     3
100
AcDbCircle
 10
270.7601455709026
 20
266.26523021424
 30
0.0
 40
30.000061
100
AcDbArc
 50
307.546269
 51
348.233931
  0
LINE
  5
342
330
1A
100
AcDbEntity
  8
SEIHIN
 62
     3
100
AcDbLine
 10
297.8469455709026
 20
242.33053021424
 30
0.0
 11
244.8470455709026
 21
242.33053021424
 31
0.0
  0
LINE
  5
343
330
1A
100
AcDbEntity
  8
SEIHIN
 62
     3
100
AcDbLine
 10
297.8469455709026
 20
237.33053021424
 30
0.0
 11
244.8470455709026
 21
237.33053021424
 31
0.0
  0
LINE
  5
344
330
1A
100
AcDbEntity
  8
SEIHIN
 62
     3
100
AcDbLine
 10
244.8471455709026
 20
247.83083021424
 30
0.0
 11
212.8673455709026
 21
247.83083021424
 31
0.0
  0
LINE
  5
345
330
1A
100
AcDbEntity
  8
SEIHIN
 62
     3
100
AcDbLine
 10
191.8470455709026
 20
237.33063021424
 30
0.0
 11
244.8469455709026
 21
237.33053021424
 31
0.0
  0
LINE
  5
346
330
1A
100
AcDbEntity
  8
SEIHIN
 62
     3
100
AcDbLine
 10
191.8470455709026
 20
242.33063021424
 30
0.0
 11
244.8469455709026
 21
242.33053021424
 31
0.0
  0
LINE
  5
347
330
1A
100
AcDbEntity
  8
SEIHIN
 62
     3
100
AcDbLine
 10
201.2229455709026
 20
222.33053021424
 30
0.0
 11
244.8469455709026
 21
222.33053021424
 31
0.0
  0
LINE
  5
348
330
1A
100
AcDbEntity
  8
SEIHIN
 62
     3
100
AcDbLine
 10
215.6467455709026
 20
178.63064021424
 30
0.0
 11
244.8467455709026
 21
178.63081021424
 31
0.0
  0
LINE
  5
349
330
1A
100
AcDbEntity
  8
SEIHIN
 62
     3
100
AcDbLine
 10
209.8470455709026
 20
184.93055021424
 30
0.0
 11
244.8470455709026
 21
184.93055021424
 31
0.0
  0
ARC
  5
34A
330
1A
100
AcDbEntity
  8
SEIHIN
 62
     3
100
AcDbCircle
 10
194.8470455709026
 20
238.35973021424
 30
0.0
 40
3.00002
100
AcDbArc
 50
179.9980899999999
 51
217.077306
  0
ARC
  5
34B
330
1A
100
AcDbEntity
  8
SEIHIN
 62
     3
100
AcDbCircle
 10
218.9338455709026
 20
266.26523021424
 30
0.0
 40
29.999962
100
AcDbArc
 50
191.765921
 51
232.453614
  0
ARC
  5
34C
330
1A
100
AcDbEntity
  8
SEIHIN
 62
     3
100
AcDbCircle
 10
209.9338455709026
 20
266.26523021424
 30
0.0
 40
29.999962
100
AcDbArc
 50
191.765921
 51
232.453614
  0
ARC
  5
34D
330
1A
100
AcDbEntity
  8
SEIHIN
 62
     3
100
AcDbCircle
 10
191.3470455709026
 20
242.08303021424
 30
0.0
 40
0.499988
100
AcDbArc
 50
0.0
 51
52.45167099999999
  0
LINE
  5
34E
330
1A
100
AcDbEntity
  8
SEIHIN
 62
     3
100
AcDbLine
 10
191.8470455709026
 20
242.08303021424
 30
0.0
 11
191.8470455709026
 21
238.35983021424
 31
0.0
  0
ARC
  5
34F
330
1A
100
AcDbEntity
  8
SEIHIN
 62
     3
100
AcDbCircle
 10
210.2229445709026
 20
225.33053121424
 30
0.0
 40
3.000000999999999
100
AcDbArc
 50
195.072048
 51
270.0000129999999
  0
ARC
  5
350
330
1A
100
AcDbEntity
  8
SEIHIN
 62
     3
100
AcDbCircle
 10
201.2229445709026
 20
225.33053121424
 30
0.0
 40
3.000000999999999
100
AcDbArc
 50
195.072048
 51
270.0000129999999
  0
LINE
  5
351
330
1A
100
AcDbEntity
  8
SEIHIN
 62
     3
100
AcDbLine
 10
217.0265455709025
 20
199.46173021424
 30
0.0
 11
215.7119455709026
 21
222.33053021424
 31
0.0
  0
LINE
  5
352
330
1A
100
AcDbEntity
  8
SEIHIN
 62
     3
100
AcDbLine
 10
206.6970455709026
 20
222.33053021424
 30
0.0
 11
208.0413455709026
 21
198.94513021424
 31
0.0
  0
ARC
  5
353
330
1A
100
AcDbEntity
  8
SEIHIN
 62
     3
100
AcDbCircle
 10
307.8765455709027
 20
204.68433021424
 30
0.0
 40
99.99993000000001
100
AcDbArc
 50
183.290015
 51
191.392932
  0
ARC
  5
354
330
1A
100
AcDbEntity
  8
SEIHIN
 62
     3
100
AcDbCircle
 10
307.8765455709027
 20
204.68433021424
 30
0.0
 40
90.99997700000001
100
AcDbArc
 50
183.2900189999999
 51
192.537202
  0
LINE
  5
355
330
1A
100
AcDbEntity
  8
SEIHIN
 62
     3
100
AcDbLine
 10
215.6469455709026
 20
178.63064021424
 30
0.0
 11
215.6469455709026
 21
184.93078021424
 31
0.0
  0
ARC
  5
356
330
1A
100
AcDbEntity
  8
SEIHIN
 62
     3
100
AcDbCircle
 10
232.8454455709026
 20
270.47283021424
 30
0.0
 40
30.000035
100
AcDbArc
 50
194.126477
 51
222.3940409999999
  0
ARC
  5
357
330
1A
100
AcDbEntity
  8
SEIHIN
 62
     3
100
AcDbCircle
 10
164.5301455709026
 20
215.44943021424
 30
0.0
 40
34.99998
100
AcDbArc
 50
15.071771
 51
37.078095
  0
ARC
  5
358
330
1A
100
AcDbEntity
  8
SEIHIN
 62
     3
100
AcDbCircle
 10
200.3470455709026
 20
242.08303021424
 30
0.0
 40
0.499988
100
AcDbArc
 50
0.0
 51
52.45167099999999
  0
ARC
  5
359
330
1A
100
AcDbEntity
  8
SEIHIN
 62
     3
100
AcDbCircle
 10
203.8470455709026
 20
238.35973021424
 30
0.0
 40
3.00002
100
AcDbArc
 50
179.9980899999999
 51
217.077306
  0
LINE
  5
35A
330
1A
100
AcDbEntity
  8
SEIHIN
 62
     3
100
AcDbLine
 10
200.8470455709026
 20
242.08303021424
 30
0.0
 11
200.8470455709026
 21
238.35983021424
 31
0.0
  0
ARC
  5
35B
330
1A
100
AcDbEntity
  8
SEIHIN
 62
     3
100
AcDbCircle
 10
173.5301455709026
 20
215.44943021424
 30
0.0
 40
34.99998
100
AcDbArc
 50
15.071771
 51
37.078095
  0
LINE
  5
35C
330
1A
100
AcDbEntity
  8
SEIHIN
 62
     3
100
AcDbLine
 10
210.6896455709026
 20
250.24603021424
 30
0.0
 11
212.6947455709026
 21
250.24603021424
 31
0.0
  0
LINE
  5
35D
330
1A
100
AcDbEntity
  8
SEIHIN
 62
     3
100
AcDbLine
 10
244.8468455709026
 20
247.83083021424
 30
0.0
 11
276.8267455709027
 21
247.83073021424
 31
0.0
  0
LINE
  5
35E
330
1A
100
AcDbEntity
  8
SEIHIN
 62
     3
100
AcDbLine
 10
288.4710455709026
 20
222.33053021424
 30
0.0
 11
244.8470455709026
 21
222.33053021424
 31
0.0
  0
LINE
  5
35F
330
1A
100
AcDbEntity
  8
SEIHIN
 62
     3
100
AcDbLine
 10
274.0472455709026
 20
178.63061021424
 30
0.0
 11
244.8472455709026
 21
178.6308302142399
 31
0.0
  0
LINE
  5
360
330
1A
100
AcDbEntity
  8
SEIHIN
 62
     3
100
AcDbLine
 10
279.8469455709026
 20
184.93052021424
 30
0.0
 11
244.8469455709026
 21
184.93055021424
 31
0.0
  0
ARC
  5
361
330
1A
100
AcDbEntity
  8
SEIHIN
 62
     3
100
AcDbCircle
 10
279.4710465709026
 20
225.33053121424
 30
0.0
 40
3.000000999999999
100
AcDbArc
 50
269.999987
 51
344.927952
  0
LINE
  5
362
330
1A
100
AcDbEntity
  8
SEIHIN
 62
     3
100
AcDbLine
 10
272.6675455709027
 20
199.46173021424
 30
0.0
 11
273.9821455709026
 21
222.33053021424
 31
0.0
  0
LINE
  5
363
330
1A
100
AcDbEntity
  8
SEIHIN
 62
     3
100
AcDbLine
 10
282.9970455709027
 20
222.33053021424
 30
0.0
 11
281.6527455709026
 21
198.94513021424
 31
0.0
  0
ARC
  5
364
330
1A
100
AcDbEntity
  8
SEIHIN
 62
     3
100
AcDbCircle
 10
181.8175455709026
 20
204.68443021424
 30
0.0
 40
90.99990899999999
100
AcDbArc
 50
347.4626549999999
 51
356.7097879999999
  0
LINE
  5
365
330
1A
100
AcDbEntity
  8
SEIHIN
 62
     3
100
AcDbLine
 10
274.0471455709026
 20
178.63061021424
 30
0.0
 11
274.0471455709026
 21
184.93074021424
 31
0.0
  0
ARC
  5
366
330
1A
100
AcDbEntity
  8
SEIHIN
 62
     3
100
AcDbCircle
 10
181.8175455709026
 20
204.68443021424
 30
0.0
 40
99.99993600000001
100
AcDbArc
 50
348.606827
 51
356.709699
  0
ARC
  5
367
330
1A
100
AcDbEntity
  8
SEIHIN
 62
     3
100
AcDbCircle
 10
256.8486455709027
 20
270.47283021424
 30
0.0
 40
30.000031
100
AcDbArc
 50
317.6056899999999
 51
345.8735229999999
  0
ARC
  5
368
330
1A
100
AcDbEntity
  8
SEIHIN
 62
     3
100
AcDbCircle
 10
316.1638455709027
 20
215.44933021424
 30
0.0
 40
34.999996
100
AcDbArc
 50
142.9216759999999
 51
164.927913
  0
LINE
  5
369
330
1A
100
AcDbEntity
  8
SEIHIN
 62
     3
100
AcDbLine
 10
279.0043455709027
 20
250.24603021424
 30
0.0
 11
276.9992455709026
 21
250.24603021424
 31
0.0
  0
ARC
  5
36A
330
1A
100
AcDbEntity
  8
SEIHIN
 62
     3
100
AcDbCircle
 10
289.3469455709027
 20
242.08293021424
 30
0.0
 40
0.499988
100
AcDbArc
 50
127.548329
 51
180.0
  0
ARC
  5
36B
330
1A
100
AcDbEntity
  8
SEIHIN
 62
     3
100
AcDbCircle
 10
285.8469455709026
 20
238.35973021424
 30
0.0
 40
2.999979999999999
100
AcDbArc
 50
322.921542
 51
0.0
  0
LINE
  5
36C
330
1A
100
AcDbEntity
  8
SEIHIN
 62
     3
100
AcDbLine
 10
288.8469455709026
 20
242.08293021424
 30
0.0
 11
288.8469455709026
 21
238.35973021424
 31
0.0
  0
ARC
  5
36D
330
1A
100
AcDbEntity
  8
SEIHIN
 62
     3
100
AcDbCircle
 10
279.7601455709026
 20
266.26523021424
 30
0.0
 40
30.000061
100
AcDbArc
 50
307.546269
 51
348.233931
  0
ARC
  5
36E
330
1A
100
AcDbEntity
  8
SEIHIN
 62
     3
100
AcDbCircle
 10
298.3469455709026
 20
242.08293021424
 30
0.0
 40
0.499988
100
AcDbArc
 50
127.548329
 51
180.0
  0
ARC
  5
36F
330
1A
100
AcDbEntity
  8
SEIHIN
 62
     3
100
AcDbCircle
 10
294.8469455709026
 20
238.35973021424
 30
0.0
 40
2.999979999999999
100
AcDbArc
 50
322.921542
 51
0.0
  0
LINE
  5
370
330
1A
100
AcDbEntity
  8
SEIHIN
 62
     3
100
AcDbLine
 10
297.8469455709026
 20
242.08293021424
 30
0.0
 11
297.8469455709026
 21
238.35973021424
 31
0.0
  0
ARC
  5
371
330
1A
100
AcDbEntity
  8
SEIHIN
 62
     3
100
AcDbCircle
 10
325.1638455709027
 20
215.44933021424
 30
0.0
 40
34.999996
100
AcDbArc
 50
142.9216759999999
 51
164.927913
  0
LINE
  5
372
330
1A
100
AcDbEntity
  8
SEIHIN
 62
     3
100
AcDbLine
 10
328.8470455709026
 20
351.33073021424
 30
0.0
 11
244.8470455709026
 21
351.3308302142399
 31
0.0
  0
LINE
  5
373
330
1A
100
AcDbEntity
  8
SEIHIN
 62
     3
100
AcDbLine
 10
319.8473455709026
 20
348.33073021424
 30
0.0
 11
244.8470455709026
 21
348.33083021424
 31
0.0
  0
LINE
  5
374
330
1A
100
AcDbEntity
  8
SEIHIN
 62
     3
100
AcDbLine
 10
332.8471455709026
 20
373.33073021424
 30
0.0
 11
244.8470455709026
 21
373.33083021424
 31
0.0
  0
LINE
  5
375
330
1A
100
AcDbEntity
  8
SEIHIN
 62
     3
100
AcDbLine
 10
331.8946455709027
 20
368.33073021424
 30
0.0
 11
244.8470455709026
 21
368.33073021424
 31
0.0
  0
DIMENSION
  5
376
330
1A
100
AcDbEntity
  8
ZUWAKU
100
AcDbDimension
  2
*D6
 10
274.8470418790217
 20
398.4809017505169
 30
0.0
 11
244.8470418790183
 21
403.4809017505168
 31
0.0
 70
    32
  1
※a<>
  3
STANDARD
100
AcDbAlignedDimension
 13
214.8470418790148
 23
373.3307961232517
 33
0.0
 14
274.8470418790217
 24
373.3307961233738
 34
0.0
100
AcDbRotatedDimension
1001
ACAD
1000
DSTYLE
1002
{
1070
   140
1040
6.0
1070
    74
1070
     0
1070
   172
1070
     1
1070
    73
1070
     0
1070
   272
1070
     2
1070
    77
1070
     3
1070
   173
1070
     1
1070
   147
1040
2.0
1070
    42
1040
6.0
1070
    44
1040
3.0
1070
    43
1040
14.0
1070
   271
1070
     0
1070
   178
1070
     4
1070
   177
1070
     4
1070
   176
1070
     4
1070
   141
1040
150.0
1070
     7
1000
_OPEN
1070
     6
1000
_OPEN
1070
    41
1040
7.0
1002
}
  0
ARC
  5
377
330
1A
100
AcDbEntity
  8
SEIHIN
 62
     3
100
AcDbCircle
 10
244.8470455709026
 20
181.33082021424
 30
0.0
 40
145.499999
100
AcDbArc
 50
90.00003900000001
 51
100.1876259999999
  0
ARC
  5
378
330
1A
100
AcDbEntity
  8
SEIHIN
 62
     3
100
AcDbCircle
 10
244.8470455709026
 20
181.33082021424
 30
0.0
 40
143.500005
100
AcDbArc
 50
90.00004000000002
 51
99.830973
  0
ARC
  5
379
330
1A
100
AcDbEntity
  8
SEIHIN
 62
     3
100
AcDbCircle
 10
244.8470455709026
 20
181.33082021424
 30
0.0
 40
151.499986
100
AcDbArc
 50
90.00003799999999
 51
101.3213539999999
  0
LINE
  5
37A
330
1A
100
AcDbEntity
  8
SEIHIN
 62
     3
100
AcDbLine
 10
169.8467455709027
 20
348.33083021424
 30
0.0
 11
244.8471455709026
 21
348.33083021424
 31
0.0
  0
LINE
  5
37B
330
1A
100
AcDbEntity
  8
SEIHIN
 62
     3
100
AcDbLine
 10
160.8471455709026
 20
351.3308302142399
 30
0.0
 11
244.8471455709026
 21
351.3308302142399
 31
0.0
  0
ARC
  5
37C
330
1A
100
AcDbEntity
  8
SEIHIN
 62
     3
100
AcDbCircle
 10
155.8633455709026
 20
327.60743021424
 30
0.0
 40
25.000008
100
AcDbArc
 50
5.924614
 51
55.98925000000001
  0
LINE
  5
37D
330
1A
100
AcDbEntity
  8
SEIHIN
 62
     3
100
AcDbLine
 10
168.2837455709026
 20
334.33093021424
 30
0.0
 11
166.7228455709026
 21
349.37213021424
 31
0.0
  0
LINE
  5
37E
330
1A
100
AcDbEntity
  8
SEIHIN
 62
     3
100
AcDbLine
 10
175.8632455709026
 20
290.35643021424
 30
0.0
 11
169.8470455709026
 21
348.33073021424
 31
0.0
  0
LINE
  5
37F
330
1A
100
AcDbEntity
  8
SEIHIN
 62
     3
100
AcDbLine
 10
167.9413455709026
 20
337.63093021424
 30
0.0
 11
170.9573455709026
 21
337.63093021424
 31
0.0
  0
LINE
  5
380
330
1A
100
AcDbEntity
  8
SEIHIN
 62
     3
100
AcDbLine
 10
168.2837455709026
 20
334.33093021424
 30
0.0
 11
171.2998455709026
 21
334.33093021424
 31
0.0
  0
LINE
  5
381
330
1A
100
AcDbEntity
  8
SEIHIN
 62
     3
100
AcDbLine
 10
184.8632455709026
 20
290.35643021424
 30
0.0
 11
180.7297455709026
 21
330.18793021424
 31
0.0
  0
LINE
  5
382
330
1A
100
AcDbEntity
  8
SEIHIN
 62
     3
100
AcDbLine
 10
161.1484455709027
 20
351.23033021424
 30
0.0
 11
169.8470455709026
 21
348.33073021424
 31
0.0
  0
ARC
  5
383
330
1A
100
AcDbEntity
  8
SEIHIN
 62
     3
100
AcDbCircle
 10
161.3065455709026
 20
351.70473021424
 30
0.0
 40
0.500042
100
AcDbArc
 50
186.7185389999999
 51
251.5686749999999
  0
ARC
  5
384
330
1A
100
AcDbEntity
  8
SEIHIN
 62
     3
100
AcDbCircle
 10
196.3880455709027
 20
337.52943021424
 30
0.0
 40
28.00002199999999
100
AcDbArc
 50
295.80502
 51
327.536357
  0
ARC
  5
385
330
1A
100
AcDbEntity
  8
SEIHIN
 62
     3
100
AcDbCircle
 10
196.3880455709027
 20
337.52943021424
 30
0.0
 40
26.000028
100
AcDbArc
 50
292.9008689999999
 51
329.4125119999999
  0
ARC
  5
386
330
1A
100
AcDbEntity
  8
SEIHIN
 62
     3
100
AcDbCircle
 10
196.3880455709027
 20
337.52943021424
 30
0.0
 40
19.99999899999999
100
AcDbArc
 50
281.222231
 51
336.6145299999999
  0
LINE
  5
387
330
1A
100
AcDbEntity
  8
SEIHIN
 62
     3
100
AcDbLine
 10
206.1758455709026
 20
313.44203021424
 30
0.0
 11
199.8471455709026
 21
317.8308302142399
 31
0.0
  0
ARC
  5
388
330
1A
100
AcDbEntity
  8
SEIHIN
 62
     3
100
AcDbCircle
 10
200.3776455709027
 20
317.42133021424
 30
0.0
 40
0.4999640000000001
100
AcDbArc
 50
101.2222799999999
 51
184.083167
  0
ARC
  5
389
330
1A
100
AcDbEntity
  8
SEIHIN
 62
     3
100
AcDbCircle
 10
208.7944455709026
 20
311.87143021424
 30
0.0
 40
0.499958
100
AcDbArc
 50
115.8013579999999
 51
184.0945979999999
  0
ARC
  5
38A
330
1A
100
AcDbEntity
  8
SEIHIN
 62
     3
100
AcDbCircle
 10
206.7003455709026
 20
313.11813021424
 30
0.0
 40
0.500045
100
AcDbArc
 50
112.9036879999999
 51
184.082352
  0
LINE
  5
38B
330
1A
100
AcDbEntity
  8
SEIHIN
 62
     3
100
AcDbLine
 10
218.8854455709026
 20
324.49593021424
 30
0.0
 11
214.8470455709026
 21
329.83093021424
 31
0.0
  0
ARC
  5
38C
330
1A
100
AcDbEntity
  8
SEIHIN
 62
     3
100
AcDbCircle
 10
215.2041455709027
 20
329.39273021424
 30
0.0
 40
0.4999950000000001
100
AcDbArc
 50
101.325663
 51
156.619328
  0
ARC
  5
38D
330
1A
100
AcDbEntity
  8
SEIHIN
 62
     3
100
AcDbCircle
 10
219.2007455709026
 20
324.04483021424
 30
0.0
 40
0.5000220000000001
100
AcDbArc
 50
100.195177
 51
149.419428
  0
ARC
  5
38E
330
1A
100
AcDbEntity
  8
SEIHIN
 62
     3
100
AcDbCircle
 10
220.4344455709026
 20
322.23163021424
 30
0.0
 40
0.499942
100
AcDbArc
 50
99.824078
 51
147.530566
  0
ARC
  5
38F
330
1A
100
AcDbEntity
  8
SEIHIN
 62
     3
100
AcDbCircle
 10
244.8469455709026
 20
181.33082021424
 30
0.0
 40
143.500011
100
AcDbArc
 50
80.17040599999999
 51
89.99991999999998
  0
ARC
  5
390
330
1A
100
AcDbEntity
  8
SEIHIN
 62
     3
100
AcDbCircle
 10
244.8469455709026
 20
181.33082021424
 30
0.0
 40
145.500008
100
AcDbArc
 50
79.812335
 51
89.999921
  0
ARC
  5
391
330
1A
100
AcDbEntity
  8
SEIHIN
 62
     3
100
AcDbCircle
 10
244.8469455709026
 20
181.33082021424
 30
0.0
 40
151.499986
100
AcDbArc
 50
78.678646
 51
89.999924
  0
LINE
  5
392
330
1A
100
AcDbEntity
  8
SEIHIN
 62
     3
100
AcDbLine
 10
270.8086455709027
 20
324.49593021424
 30
0.0
 11
274.8470455709026
 21
329.83083021424
 31
0.0
  0
ARC
  5
393
330
1A
100
AcDbEntity
  8
SEIHIN
 62
     3
100
AcDbCircle
 10
293.3059455709027
 20
337.52933021424
 30
0.0
 40
27.99995
100
AcDbArc
 50
212.463471
 51
244.194891
  0
ARC
  5
394
330
1A
100
AcDbEntity
  8
SEIHIN
 62
     3
100
AcDbCircle
 10
293.3059455709027
 20
337.52933021424
 30
0.0
 40
25.999957
100
AcDbArc
 50
210.5872989999999
 51
247.099045
  0
ARC
  5
395
330
1A
100
AcDbEntity
  8
SEIHIN
 62
     3
100
AcDbCircle
 10
293.3059455709027
 20
337.52933021424
 30
0.0
 40
19.99997
100
AcDbArc
 50
203.385207
 51
258.77805
  0
ARC
  5
396
330
1A
100
AcDbEntity
  8
SEIHIN
 62
     3
100
AcDbCircle
 10
270.4933455709026
 20
324.04483021424
 30
0.0
 40
0.499979
100
AcDbArc
 50
30.586402
 51
79.804823
  0
ARC
  5
397
330
1A
100
AcDbEntity
  8
SEIHIN
 62
     3
100
AcDbCircle
 10
269.2596455709026
 20
322.23163021424
 30
0.0
 40
0.499942
100
AcDbArc
 50
32.469434
 51
80.17592200000001
  0
ARC
  5
398
330
1A
100
AcDbEntity
  8
SEIHIN
 62
     3
100
AcDbCircle
 10
280.8996455709026
 20
311.87133021424
 30
0.0
 40
0.5000210000000001
100
AcDbArc
 50
355.9168329999999
 51
64.193314
  0
ARC
  5
399
330
1A
100
AcDbEntity
  8
SEIHIN
 62
     3
100
AcDbCircle
 10
274.4899455709027
 20
329.39263021424
 30
0.0
 40
0.5000140000000001
100
AcDbArc
 50
23.391191
 51
78.67433699999999
  0
ARC
  5
39A
330
1A
100
AcDbEntity
  8
SEIHIN
 62
     3
100
AcDbCircle
 10
282.9938455709026
 20
313.11813021424
 30
0.0
 40
0.4999760000000001
100
AcDbArc
 50
355.9168329999999
 51
67.10686800000001
  0
ARC
  5
39B
330
1A
100
AcDbEntity
  8
SEIHIN
 62
     3
100
AcDbCircle
 10
289.3164455709026
 20
317.42133021424
 30
0.0
 40
0.4999640000000001
100
AcDbArc
 50
355.9168329999999
 51
78.77772
  0
LINE
  5
39C
330
1A
100
AcDbEntity
  8
SEIHIN
 62
     3
100
AcDbLine
 10
283.5182455709026
 20
313.44203021424
 30
0.0
 11
289.8469455709026
 21
317.83073021424
 31
0.0
  0
LINE
  5
39D
330
1A
100
AcDbEntity
  8
SEIHIN
 62
     3
100
AcDbLine
 10
328.5457455709027
 20
351.23023021424
 30
0.0
 11
319.8470455709026
 21
348.33063021424
 31
0.0
  0
LINE
  5
39E
330
1A
100
AcDbEntity
  8
SEIHIN
 62
     3
100
AcDbLine
 10
321.4103455709026
 20
334.33093021424
 30
0.0
 11
322.9712455709026
 21
349.37213021424
 31
0.0
  0
LINE
  5
39F
330
1A
100
AcDbEntity
  8
SEIHIN
 62
     3
100
AcDbLine
 10
313.8308455709026
 20
290.35633021424
 30
0.0
 11
319.8470455709026
 21
348.33063021424
 31
0.0
  0
ARC
  5
3A0
330
1A
100
AcDbEntity
  8
SEIHIN
 62
     3
100
AcDbCircle
 10
333.8307455709026
 20
327.60733021424
 30
0.0
 40
24.999931
100
AcDbArc
 50
124.01056
 51
174.075362
  0
LINE
  5
3A1
330
1A
100
AcDbEntity
  8
SEIHIN
 62
     3
100
AcDbLine
 10
304.8308455709026
 20
290.35633021424
 30
0.0
 11
308.9642455709026
 21
330.18783021424
 31
0.0
  0
LINE
  5
3A2
330
1A
100
AcDbEntity
  8
SEIHIN
 62
     3
100
AcDbLine
 10
321.4103455709026
 20
334.33093021424
 30
0.0
 11
318.3942455709026
 21
334.33093021424
 31
0.0
  0
LINE
  5
3A3
330
1A
100
AcDbEntity
  8
SEIHIN
 62
     3
100
AcDbLine
 10
321.7528455709026
 20
337.63083021424
 30
0.0
 11
318.7367455709026
 21
337.63083021424
 31
0.0
  0
ARC
  5
3A4
330
1A
100
AcDbEntity
  8
SEIHIN
 62
     3
100
AcDbCircle
 10
331.2916455709026
 20
367.83073021424
 30
0.0
 40
0.499961
100
AcDbArc
 50
90.0
 51
173.291502
  0
ARC
  5
3A5
330
1A
100
AcDbEntity
  8
SEIHIN
 62
     3
100
AcDbCircle
 10
328.3875455709027
 20
351.70463021424
 30
0.0
 40
0.4999890000000001
100
AcDbArc
 50
288.434949
 51
353.292841
  0
LINE
  5
3A6
330
1A
100
AcDbEntity
  8
SEIHIN
 62
     3
100
AcDbLine
 10
330.7951455709027
 20
367.88913021424
 30
0.0
 11
328.8841455709026
 21
351.64623021424
 31
0.0
  0
ARC
  5
3A7
330
1A
100
AcDbEntity
  8
SEIHIN
 62
     3
100
AcDbCircle
 10
331.8946455709027
 20
368.83073021424
 30
0.0
 40
0.499993
100
AcDbArc
 50
270.0
 51
354.283706
  0
LINE
  5
3A8
330
1A
100
AcDbEntity
  8
SEIHIN
 62
     3
100
AcDbLine
 10
332.8471455709026
 20
373.33063021424
 30
0.0
 11
332.3921455709026
 21
368.78093021424
 31
0.0
  0
LINE
  5
3AA
330
1A
100
AcDbEntity
  8
SEIHIN
 62
     3
100
AcDbLine
 10
616.3931455709026
 20
332.60263021424
 30
0.0
 11
608.0615455709026
 21
225.09873021424
 31
0.0
  0
ARC
  5
3AB
330
1A
100
AcDbEntity
  8
SEIHIN
 62
     3
100
AcDbCircle
 10
781.4219455709027
 20
331.39303021424
 30
0.0
 40
299.999974
100
AcDbArc
 50
187.94835
 51
193.153717
  0
ARC
  5
3AC
330
1A
100
AcDbEntity
  8
SEIHIN
 62
     3
100
AcDbCircle
 10
790.4219455709027
 20
331.39303021424
 30
0.0
 40
299.999947
100
AcDbArc
 50
187.94835
 51
193.148384
  0
LINE
  5
3AD
330
1A
100
AcDbEntity
  8
CENTER_L
 62
     1
 48
5.0
100
AcDbLine
 10
552.8470455709026
 20
274.3689302142399
 30
0.0
 11
552.8470455709026
 21
327.97513021424
 31
0.0
  0
DIMENSION
  5
3AE
330
1A
100
AcDbEntity
  8
ZUWAKU
100
AcDbDimension
  2
*D7
 10
525.8470591768851
 20
147.7542028308679
 30
0.0
 11
560.8470023738939
 21
152.754202830868
 31
0.0
 70
    32
  3
STANDARD
100
AcDbAlignedDimension
 13
595.8469455709026
 23
184.93052021424
 33
0.0
 14
525.8470591768851
 24
184.9307027668564
 34
0.0
100
AcDbRotatedDimension
1001
ACAD
1000
DSTYLE
1002
{
1070
   140
1040
6.0
1070
    74
1070
     0
1070
   172
1070
     1
1070
    73
1070
     0
1070
   272
1070
     2
1070
    77
1070
     3
1070
   173
1070
     1
1070
   147
1040
2.0
1070
    42
1040
6.0
1070
    44
1040
3.0
1070
    43
1040
14.0
1070
   271
1070
     0
1070
   178
1070
     4
1070
   177
1070
     4
1070
   176
1070
     4
1070
   141
1040
150.0
1070
     7
1000
_OPEN
1070
     6
1000
_OPEN
1070
    41
1040
7.0
1002
}
  0
DIMENSION
  5
3AF
330
1A
100
AcDbEntity
  8
ZUWAKU
100
AcDbDimension
  2
*D8
 10
560.8470455709026
 20
263.5481947643392
 30
0.0
 11
578.8470455709026
 21
268.5481947643392
 31
0.0
 12
0.0
 22
-52.13804198792764
 32
0.0
 70
    32
  3
STANDARD
100
AcDbAlignedDimension
 13
552.8470455709026
 23
274.3689302142399
 33
0.0
 14
560.8470455709026
 24
257.28113021424
 34
0.0
100
AcDbRotatedDimension
1001
ACAD
1000
DSTYLE
1002
{
1070
   140
1040
6.0
1070
    74
1070
     0
1070
   172
1070
     1
1070
    73
1070
     0
1070
   272
1070
     2
1070
    77
1070
     3
1070
   173
1070
     1
1070
   147
1040
2.0
1070
    42
1040
6.0
1070
    44
1040
3.0
1070
    43
1040
14.0
1070
   271
1070
     0
1070
   178
1070
     4
1070
   177
1070
     4
1070
   176
1070
     4
1070
   141
1040
150.0
1070
     7
1000
_OPEN
1070
     6
1000
_OPEN
1070
    41
1040
7.0
1002
}
  0
LINE
  5
3B0
330
1A
100
AcDbEntity
  8
SEIHIN
 62
     3
100
AcDbLine
 10
609.0095455709027
 20
237.33053021424
 30
0.0
 11
506.8469455709027
 21
237.33053021424
 31
0.0
  0
LINE
  5
3B1
330
1A
100
AcDbEntity
  8
SEIHIN
 62
     3
100
AcDbLine
 10
609.3970455709026
 20
242.33053021424
 30
0.0
 11
506.8469455709027
 21
242.33053021424
 31
0.0
  0
LINE
  5
3B2
330
1A
100
AcDbEntity
  8
SEIHIN
 62
     3
100
AcDbLine
 10
605.0705455709027
 20
222.33053021424
 30
0.0
 11
516.2228455709026
 21
222.33053021424
 31
0.0
  0
LINE
  5
3B3
330
1A
100
AcDbEntity
  8
SEIHIN
 62
     3
100
AcDbLine
 10
525.8470455709026
 20
184.93055021424
 30
0.0
 11
560.8470455709026
 21
184.93055021424
 31
0.0
  0
LINE
  5
3B4
330
1A
100
AcDbEntity
  8
SEIHIN
 62
     3
100
AcDbLine
 10
531.6466455709027
 20
178.63064021424
 30
0.0
 11
560.8467455709027
 21
178.63080021424
 31
0.0
  0
ARC
  5
3B5
330
1A
100
AcDbEntity
  8
SEIHIN
 62
     3
100
AcDbCircle
 10
518.5003455709026
 20
269.97473021424
 30
0.0
 40
29.999987
100
AcDbArc
 50
193.1483749999999
 51
246.517228
  0
ARC
  5
3B6
330
1A
100
AcDbEntity
  8
SEIHIN
 62
     3
100
AcDbCircle
 10
488.5300455709026
 20
215.44933021424
 30
0.0
 40
35.000023
100
AcDbArc
 50
15.071929
 51
37.07822500000001
  0
ARC
  5
3B7
330
1A
100
AcDbEntity
  8
SEIHIN
 62
     3
100
AcDbCircle
 10
516.2228455709026
 20
225.33053021424
 30
0.0
 40
2.999952
100
AcDbArc
 50
195.072531
 51
270.0
  0
ARC
  5
3B8
330
1A
100
AcDbEntity
  8
SEIHIN
 62
     3
100
AcDbCircle
 10
527.5003455709025
 20
269.97473021424
 30
0.0
 40
29.999987
100
AcDbArc
 50
193.1483749999999
 51
246.517228
  0
ARC
  5
3B9
330
1A
100
AcDbEntity
  8
SEIHIN
 62
     3
100
AcDbCircle
 10
479.5300455709026
 20
215.44933021424
 30
0.0
 40
35.000023
100
AcDbArc
 50
15.071929
 51
37.07822500000001
  0
ARC
  5
3BA
330
1A
100
AcDbEntity
  8
SEIHIN
 62
     3
100
AcDbCircle
 10
506.3469455709026
 20
242.00063021424
 30
0.0
 40
0.5000170000000001
100
AcDbArc
 50
0.0
 51
66.51102900000001
  0
ARC
  5
3BB
330
1A
100
AcDbEntity
  8
SEIHIN
 62
     3
100
AcDbCircle
 10
509.8469455709026
 20
238.35973021424
 30
0.0
 40
2.999979999999999
100
AcDbArc
 50
180.0
 51
217.078458
  0
LINE
  5
3BC
330
1A
100
AcDbEntity
  8
SEIHIN
 62
     3
100
AcDbLine
 10
506.8469455709027
 20
242.00063021424
 30
0.0
 11
506.8469455709027
 21
238.35973021424
 31
0.0
  0
ARC
  5
3BD
330
1A
100
AcDbEntity
  8
SEIHIN
 62
     3
100
AcDbCircle
 10
515.3469455709027
 20
242.00063021424
 30
0.0
 40
0.5000170000000001
100
AcDbArc
 50
0.0
 51
66.51102900000001
  0
ARC
  5
3BE
330
1A
100
AcDbEntity
  8
SEIHIN
 62
     3
100
AcDbCircle
 10
518.8469455709026
 20
238.35973021424
 30
0.0
 40
2.999979999999999
100
AcDbArc
 50
180.0
 51
217.078458
  0
LINE
  5
3BF
330
1A
100
AcDbEntity
  8
SEIHIN
 62
     3
100
AcDbLine
 10
515.8469455709027
 20
242.00063021424
 30
0.0
 11
515.8469455709027
 21
238.35973021424
 31
0.0
  0
ARC
  5
3C0
330
1A
100
AcDbEntity
  8
SEIHIN
 62
     3
100
AcDbCircle
 10
525.2228455709026
 20
225.33053021424
 30
0.0
 40
2.999952
100
AcDbArc
 50
195.072531
 51
270.0
  0
LINE
  5
3C1
330
1A
100
AcDbEntity
  8
SEIHIN
 62
     3
100
AcDbLine
 10
533.0265455709025
 20
199.46173021424
 30
0.0
 11
531.7118455709027
 21
222.33053021424
 31
0.0
  0
LINE
  5
3C2
330
1A
100
AcDbEntity
  8
SEIHIN
 62
     3
100
AcDbLine
 10
522.6969455709027
 20
222.33053021424
 30
0.0
 11
524.0413455709028
 21
198.94513021424
 31
0.0
  0
ARC
  5
3C3
330
1A
100
AcDbEntity
  8
SEIHIN
 62
     3
100
AcDbCircle
 10
623.8765455709027
 20
204.68433021424
 30
0.0
 40
90.99997700000001
100
AcDbArc
 50
183.2900189999999
 51
192.537202
  0
ARC
  5
3C4
330
1A
100
AcDbEntity
  8
SEIHIN
 62
     3
100
AcDbCircle
 10
623.8765455709027
 20
204.68433021424
 30
0.0
 40
99.99993000000001
100
AcDbArc
 50
183.290015
 51
191.392932
  0
LINE
  5
3C5
330
1A
100
AcDbEntity
  8
SEIHIN
 62
     3
100
AcDbLine
 10
531.6468455709026
 20
178.63064021424
 30
0.0
 11
531.6468455709026
 21
184.93078021424
 31
0.0
  0
DIMENSION
  5
3C6
330
1A
100
AcDbEntity
  8
ZUWAKU
100
AcDbDimension
  2
*D9
 10
647.5084503091492
 20
184.93052021424
 30
0.0
 11
642.5084503091492
 21
158.83052021424
 31
0.0
 12
0.0
 22
-52.13804198792764
 32
0.0
 70
    32
  1
※b<>
  3
STANDARD
100
AcDbAlignedDimension
 13
597.3406499743832
 23
194.9305189339256
 33
0.0
 14
595.8469455709026
 24
184.93052021424
 34
0.0
 50
90.0
100
AcDbRotatedDimension
1001
ACAD
1000
DSTYLE
1002
{
1070
   140
1040
6.0
1070
    74
1070
     0
1070
   172
1070
     1
1070
    73
1070
     0
1070
   272
1070
     2
1070
    77
1070
     3
1070
   173
1070
     1
1070
   147
1040
2.0
1070
    42
1040
6.0
1070
    44
1040
3.0
1070
    43
1040
14.0
1070
   271
1070
     0
1070
   178
1070
     4
1070
   177
1070
     4
1070
   176
1070
     4
1070
   141
1040
150.0
1070
     7
1000
_OPEN
1070
     6
1000
_OPEN
1070
    41
1040
7.0
1002
}
  0
LINE
  5
3C7
330
1A
100
AcDbEntity
  8
SEIHIN
 62
     3
100
AcDbLine
 10
590.0472455709026
 20
178.63060021424
 30
0.0
 11
560.8472455709025
 21
178.63082021424
 31
0.0
  0
LINE
  5
3C8
330
1A
100
AcDbEntity
  8
SEIHIN
 62
     3
100
AcDbLine
 10
595.8469455709026
 20
184.93052021424
 30
0.0
 11
560.8469455709026
 21
184.93055021424
 31
0.0
  0
LINE
  5
3C9
330
1A
100
AcDbEntity
  8
CENTER_L
 62
     1
 48
5.0
100
AcDbLine
 10
560.8470455709026
 20
257.28113021424
 30
0.0
 11
560.8470455709026
 21
172.24259021424
 31
0.0
  0
ARC
  5
3CA
330
1A
100
AcDbEntity
  8
SEIHIN
 62
     3
100
AcDbCircle
 10
605.0705455709027
 20
225.33053021424
 30
0.0
 40
2.999983999999999
100
AcDbArc
 50
270.0
 51
355.568483
  0
LINE
  5
3CB
330
1A
100
AcDbEntity
  8
SEIHIN
 62
     3
100
AcDbLine
 10
598.9970455709027
 20
222.33053021424
 30
0.0
 11
597.6527455709027
 21
198.94513021424
 31
0.0
  0
LINE
  5
3CC
330
1A
100
AcDbEntity
  8
SEIHIN
 62
     3
100
AcDbLine
 10
588.6675455709027
 20
199.46173021424
 30
0.0
 11
589.9821455709026
 21
222.33053021424
 31
0.0
  0
ARC
  5
3CD
330
1A
100
AcDbEntity
  8
SEIHIN
 62
     3
100
AcDbCircle
 10
497.8174455709027
 20
204.68443021424
 30
0.0
 40
100.000035
100
AcDbArc
 50
348.606838
 51
356.7097019999999
  0
ARC
  5
3CE
330
1A
100
AcDbEntity
  8
SEIHIN
 62
     3
100
AcDbCircle
 10
497.8174455709027
 20
204.68443021424
 30
0.0
 40
91.000008
100
AcDbArc
 50
347.462669
 51
356.709792
  0
LINE
  5
3CF
330
1A
100
AcDbEntity
  8
SEIHIN
 62
     3
100
AcDbLine
 10
590.0471455709026
 20
178.63060021424
 30
0.0
 11
590.0471455709026
 21
184.93073021424
 31
0.0
  0
DIMENSION
  5
3D0
330
1A
100
AcDbEntity
  8
ZUWAKU
100
AcDbDimension
  2
*D10
 10
463.1471455709027
 20
419.2412295437931
 30
0.0
 11
541.2470955709027
 21
424.241229543793
 31
0.0
 70
    32
  3
STANDARD
100
AcDbAlignedDimension
 13
619.3470455709026
 23
363.33063021424
 33
0.0
 14
463.1471455709027
 24
373.33063021424
 34
0.0
100
AcDbRotatedDimension
1001
ACAD
1000
DSTYLE
1002
{
1070
   140
1040
6.0
1070
    74
1070
     0
1070
   172
1070
     1
1070
    73
1070
     0
1070
   272
1070
     2
1070
    77
1070
     3
1070
   173
1070
     1
1070
   147
1040
2.0
1070
    42
1040
6.0
1070
    44
1040
3.0
1070
    43
1040
14.0
1070
   271
1070
     0
1070
   178
1070
     4
1070
   177
1070
     4
1070
   176
1070
     4
1070
   141
1040
150.0
1070
     7
1000
_OPEN
1070
     6
1000
_OPEN
1070
    41
1040
7.0
1002
}
  0
DIMENSION
  5
3D1
330
1A
100
AcDbEntity
  8
ZUWAKU
100
AcDbDimension
  2
*D11
 10
552.8470455709026
 20
398.0657121092135
 30
0.0
 11
586.0970455709026
 21
403.0657121092135
 31
0.0
 70
    32
  3
STANDARD
100
AcDbAlignedDimension
 13
619.3470455709026
 23
363.33063021424
 33
0.0
 14
552.8470455709026
 24
327.97513021424
 34
0.0
100
AcDbRotatedDimension
1001
ACAD
1000
DSTYLE
1002
{
1070
   140
1040
6.0
1070
    74
1070
     0
1070
   172
1070
     1
1070
    73
1070
     0
1070
   272
1070
     2
1070
    77
1070
     3
1070
   173
1070
     1
1070
   147
1040
2.0
1070
    42
1040
6.0
1070
    44
1040
3.0
1070
    43
1040
14.0
1070
   271
1070
     0
1070
   178
1070
     4
1070
   177
1070
     4
1070
   176
1070
     4
1070
   141
1040
150.0
1070
     7
1000
_OPEN
1070
     6
1000
_OPEN
1070
    41
1040
7.0
1002
}
  0
LINE
  5
3D2
330
1A
100
AcDbEntity
  8
NOKITOI
  6
PHANTOM
 62
     8
 48
3.5
100
AcDbLine
 10
516.4040455709028
 20
299.63053021424
 30
0.0
 11
561.2335455709032
 21
299.6304302142399
 31
0.0
  0
LINE
  5
3D3
330
1A
100
AcDbEntity
  8
NOKITOI
  6
PHANTOM
 62
     8
 48
3.5
100
AcDbLine
 10
561.2335455709032
 20
300.8304302142399
 30
0.0
 11
516.6539455709027
 21
300.8305302142399
 31
0.0
  0
LINE
  5
3D4
330
1A
100
AcDbEntity
  8
SEIHIN
 62
     3
100
AcDbLine
 10
561.1387455709026
 20
299.63053021424
 30
0.0
 11
515.7040455709026
 21
299.63053021424
 31
0.0
  0
LINE
  5
3D5
330
1A
100
AcDbEntity
  8
SEIHIN
 62
     3
100
AcDbLine
 10
493.0447455709026
 20
348.33063021424
 30
0.0
 11
476.1470455709026
 21
348.33063021424
 31
0.0
  0
LINE
  5
3D6
330
1A
100
AcDbEntity
  8
SEIHIN
 62
     3
100
AcDbLine
 10
492.9599455709027
 20
351.33063021424
 30
0.0
 11
467.1470455709026
 21
351.33063021424
 31
0.0
  0
ARC
  5
3D7
330
1A
100
AcDbEntity
  8
SEIHIN
 62
     3
100
AcDbCircle
 10
462.8614455709026
 20
327.15293021424
 30
0.0
 40
25.000007
100
AcDbArc
 50
7.948339
 51
57.89834200000001
  0
LINE
  5
3D8
330
1A
100
AcDbEntity
  8
SEIHIN
 62
     3
100
AcDbLine
 10
503.0461455709026
 20
373.33063021424
 30
0.0
 11
463.1471455709027
 21
373.33063021424
 31
0.0
  0
LINE
  5
3D9
330
1A
100
AcDbEntity
  8
SEIHIN
 62
     3
100
AcDbLine
 10
508.6276455709026
 20
368.33063021424
 30
0.0
 11
464.0995455709027
 21
368.33063021424
 31
0.0
  0
LINE
  5
3DA
330
1A
100
AcDbEntity
  8
SEIHIN
 62
     3
100
AcDbLine
 10
484.3041455709027
 20
289.90863021424
 30
0.0
 11
476.1899455709027
 21
348.02343021424
 31
0.0
  0
LINE
  5
3DB
330
1A
100
AcDbEntity
  8
SEIHIN
 62
     3
100
AcDbLine
 10
467.4484455709026
 20
351.23013021424
 30
0.0
 11
475.8528455709027
 21
348.4286302142399
 31
0.0
  0
ARC
  5
3DC
330
1A
100
AcDbEntity
  8
SEIHIN
 62
     3
100
AcDbCircle
 10
464.7024455709027
 20
367.83063021424
 30
0.0
 40
0.500011
100
AcDbArc
 50
6.707159
 51
90.0
  0
ARC
  5
3DD
330
1A
100
AcDbEntity
  8
SEIHIN
 62
     3
100
AcDbCircle
 10
467.6065455709026
 20
351.70443021424
 30
0.0
 40
0.4999890000000001
100
AcDbArc
 50
186.707159
 51
251.5650509999999
  0
ARC
  5
3DE
330
1A
100
AcDbEntity
  8
SEIHIN
 62
     3
100
AcDbCircle
 10
467.6065455709026
 20
351.70453021424
 30
0.0
 40
0.500042
100
AcDbArc
 50
186.7185389999999
 51
251.5686749999999
  0
LINE
  5
3DF
330
1A
100
AcDbEntity
  8
SEIHIN
 62
     3
100
AcDbLine
 10
465.1989455709026
 20
367.88903021424
 30
0.0
 11
467.1099455709025
 21
351.6460302142399
 31
0.0
  0
ARC
  5
3E0
330
1A
100
AcDbEntity
  8
SEIHIN
 62
     3
100
AcDbCircle
 10
464.0995455709027
 20
368.83063021424
 30
0.0
 40
0.499993
100
AcDbArc
 50
185.716294
 51
270.0
  0
LINE
  5
3E1
330
1A
100
AcDbEntity
  8
SEIHIN
 62
     3
100
AcDbLine
 10
463.1471455709027
 20
373.33063021424
 30
0.0
 11
463.6020455709026
 21
368.78083021424
 31
0.0
  0
ARC
  5
3E2
330
1A
100
AcDbEntity
  8
SEIHIN
 62
     3
100
AcDbCircle
 10
475.6947455709027
 20
347.95433021424
 30
0.0
 40
0.4999770000000001
100
AcDbArc
 50
7.943736
 51
71.565051
  0
ARC
  5
3E5
330
1A
100
AcDbEntity
  8
NOKITOI
  6
PHANTOM
 62
     8
 48
3.5
100
AcDbCircle
 10
501.1421455709029
 20
337.63063021424
 30
0.0
 40
1.000030999999999
100
AcDbArc
 50
5.710023
 51
90.0
  0
ARC
  5
3E6
330
1A
100
AcDbEntity
  8
NOKITOI
  6
PHANTOM
 62
     8
 48
3.5
100
AcDbCircle
 10
495.0010455709031
 20
340.1305302142399
 30
0.0
 40
1.499964999999999
100
AcDbArc
 50
181.788002
 51
270.0
  0
LINE
  5
3E7
330
1A
100
AcDbEntity
  8
NOKITOI
  6
PHANTOM
 62
     8
 48
3.5
100
AcDbLine
 10
503.178145570903
 20
339.3804302142399
 30
0.0
 11
506.1710455709027
 21
309.4506302142399
 31
0.0
  0
ARC
  5
3E8
330
1A
100
AcDbEntity
  8
SEIHIN
 62
     3
100
AcDbCircle
 10
495.2912455709026
 20
339.63053021424
 30
0.0
 40
1.999997999999999
100
AcDbArc
 50
181.615959
 51
270.0
  0
LINE
  5
3E9
330
1A
100
AcDbEntity
  8
NOKITOI
  6
PHANTOM
 62
     8
 48
3.5
100
AcDbLine
 10
502.137245570903
 20
337.7301302142399
 30
0.0
 11
505.0058455709027
 21
309.0426302142399
 31
0.0
  0
LINE
  5
3EA
330
1A
100
AcDbEntity
  8
SEIHIN
 62
     3
100
AcDbLine
 10
504.3058455709028
 20
309.04273021424
 30
0.0
 11
501.5373455709026
 21
336.73003021424
 31
0.0
  0
LINE
  5
3EB
330
1A
100
AcDbEntity
  8
SEIHIN
 62
     3
100
AcDbLine
 10
493.3041455709027
 20
289.90853021424
 30
0.0
 11
487.6212455709027
 21
330.60993021424
 31
0.0
  0
LINE
  5
3EC
330
1A
100
AcDbEntity
  8
NOKITOI
  6
PHANTOM
 62
     8
 48
3.5
100
AcDbLine
 10
495.0010455709031
 20
338.6305302142399
 30
0.0
 11
501.1421455709029
 21
338.63063021424
 31
0.0
  0
LINE
  5
3ED
330
1A
100
AcDbEntity
  8
SEIHIN
 62
     3
100
AcDbLine
 10
500.5423455709027
 20
337.63053021424
 30
0.0
 11
495.2912455709026
 21
337.63053021424
 31
0.0
  0
ARC
  5
3EE
330
1A
100
AcDbEntity
  8
SEIHIN
 62
     3
100
AcDbCircle
 10
500.5423455709027
 20
336.63053021424
 30
0.0
 40
0.9999809999999998
100
AcDbArc
 50
5.710593
 51
90.0
  0
LINE
  5
3EF
330
1A
100
AcDbEntity
  8
NOKITOI
  6
PHANTOM
 62
     8
 48
3.5
100
AcDbLine
 10
506.3519455709029
 20
309.1133302142399
 30
0.0
 11
516.337345570903
 21
300.94353021424
 31
0.0
  0
LINE
  5
3F0
330
1A
100
AcDbEntity
  8
NOKITOI
  6
PHANTOM
 62
     8
 48
3.5
100
AcDbLine
 10
505.3677455709027
 20
308.3682302142399
 30
0.0
 11
515.7708455709026
 21
299.85653021424
 31
0.0
  0
LINE
  5
3F1
330
1A
100
AcDbEntity
  8
SEIHIN
 62
     3
100
AcDbLine
 10
515.0707455709026
 20
299.85663021424
 30
0.0
 11
504.6676455709026
 21
308.36823021424
 31
0.0
  0
ARC
  5
3F2
330
1A
100
AcDbEntity
  8
NOKITOI
  6
PHANTOM
 62
     8
 48
3.5
100
AcDbCircle
 10
506.0009455709028
 20
309.1421302142399
 30
0.0
 40
0.9999469999999998
100
AcDbArc
 50
185.710593
 51
230.7101899999999
  0
ARC
  5
3F3
330
1A
100
AcDbEntity
  8
NOKITOI
  6
PHANTOM
 62
     8
 48
3.5
100
AcDbCircle
 10
506.6686455709028
 20
309.5003302142399
 30
0.0
 40
0.5000770000000001
100
AcDbArc
 50
185.715153
 51
230.7049499999999
  0
ARC
  5
3F4
330
1A
100
AcDbEntity
  8
SEIHIN
 62
     3
100
AcDbCircle
 10
505.3008455709026
 20
309.14223021424
 30
0.0
 40
0.9999859999999999
100
AcDbArc
 50
185.710593
 51
230.7138179999999
  0
ARC
  5
3F5
330
1A
100
AcDbEntity
  8
NOKITOI
  6
PHANTOM
 62
     8
 48
3.5
100
AcDbCircle
 10
516.4040455709028
 20
300.63053021424
 30
0.0
 40
1.000005
100
AcDbArc
 50
230.7138179999999
 51
270.0
  0
ARC
  5
3F6
330
1A
100
AcDbEntity
  8
NOKITOI
  6
PHANTOM
 62
     8
 48
3.5
100
AcDbCircle
 10
516.6539455709027
 20
301.3305302142399
 30
0.0
 40
0.5000020000000001
100
AcDbArc
 50
230.7138179999999
 51
270.0
  0
ARC
  5
3F7
330
1A
100
AcDbEntity
  8
SEIHIN
 62
     3
100
AcDbCircle
 10
515.7040455709026
 20
300.63053021424
 30
0.0
 40
0.999966
100
AcDbArc
 50
230.7101899999999
 51
270.0
  0
ARC
  5
3F8
330
1A
100
AcDbEntity
  8
SEIHIN
 62
     3
100
AcDbCircle
 10
503.0461455709026
 20
368.33063021424
 30
0.0
 40
5.000002999999999
100
AcDbArc
 50
26.38619899999999
 51
90.0
  0
LINE
  5
3F9
330
1A
100
AcDbEntity
  8
CENTER_L
 62
     1
 48
5.0
100
AcDbLine
 10
507.1470455709025
 20
361.83063021424
 30
0.0
 11
495.1470455709026
 21
361.83063021424
 31
0.0
  0
ARC
  5
3FA
330
1A
100
AcDbEntity
  8
SEIHIN
 62
     3
100
AcDbCircle
 10
501.1470455709026
 20
363.25213021424
 30
0.0
 40
9.999972999999998
100
AcDbArc
 50
262.818627
 51
0.0
  0
LINE
  5
3FB
330
1A
100
AcDbEntity
  8
NOKITOI
  6
PHANTOM
 62
     8
 48
3.5
100
AcDbLine
 10
495.110745570903
 20
354.6306302142399
 30
0.0
 11
498.4373455709029
 21
354.6306302142399
 31
0.0
  0
ARC
  5
3FC
330
1A
100
AcDbEntity
  8
NOKITOI
  6
PHANTOM
 62
     8
 48
3.5
100
AcDbCircle
 10
498.5622455709027
 20
344.6306302142399
 30
0.0
 40
5.199961
100
AcDbArc
 50
90.0
 51
142.075344
  0
ARC
  5
3FD
330
1A
100
AcDbEntity
  8
NOKITOI
  6
PHANTOM
 62
     8
 48
3.5
100
AcDbCircle
 10
498.5622455709027
 20
344.6306302142399
 30
0.0
 40
3.999983999999999
100
AcDbArc
 50
96.475278
 51
181.789374
  0
LINE
  5
3FE
330
1A
100
AcDbEntity
  8
NOKITOI
  6
PHANTOM
 62
     8
 48
3.5
100
AcDbLine
 10
495.110745570903
 20
353.43063021424
 30
0.0
 11
497.5834455709028
 21
353.43063021424
 31
0.0
  0
ARC
  5
3FF
330
1A
100
AcDbEntity
  8
NOKITOI
  6
PHANTOM
 62
     8
 48
3.5
100
AcDbCircle
 10
496.6487455709031
 20
341.8306302142399
 30
0.0
 40
1.999988
100
AcDbArc
 50
181.790805
 51
270.0
  0
LINE
  5
400
330
1A
100
AcDbEntity
  8
SEIHIN
 62
     3
100
AcDbLine
 10
499.8969455709026
 20
355.33063021424
 30
0.0
 11
494.9042455709026
 21
355.33063021424
 31
0.0
  0
LINE
  5
401
330
1A
100
AcDbEntity
  8
NOKITOI
  6
PHANTOM
 62
     8
 48
3.5
100
AcDbLine
 10
494.311045570903
 20
352.60563021424
 30
0.0
 11
494.4604455709028
 21
347.82673021424
 31
0.0
  0
LINE
  5
402
330
1A
100
AcDbEntity
  8
NOKITOI
  6
PHANTOM
 62
     8
 48
3.5
100
AcDbLine
 10
494.6497455709028
 20
341.7681302142399
 30
0.0
 11
494.5642455709027
 21
344.5057302142399
 31
0.0
  0
ARC
  5
403
330
1A
100
AcDbEntity
  8
NOKITOI
  6
PHANTOM
 62
     8
 48
3.5
100
AcDbCircle
 10
495.110745570903
 20
352.6305302142399
 30
0.0
 40
0.800045
100
AcDbArc
 50
90.0
 51
181.790582
  0
LINE
  5
404
330
1A
100
AcDbEntity
  8
NOKITOI
  6
PHANTOM
 62
     8
 48
3.5
100
AcDbLine
 10
493.111645570903
 20
352.5682302142399
 30
0.0
 11
493.5018455709029
 21
340.08383021424
 31
0.0
  0
ARC
  5
405
330
1A
100
AcDbEntity
  8
NOKITOI
  6
PHANTOM
 62
     8
 48
3.5
100
AcDbCircle
 10
495.110745570903
 20
352.6305302142399
 30
0.0
 40
2.000036999999999
100
AcDbArc
 50
90.0
 51
181.787853
  0
ARC
  5
406
330
1A
100
AcDbEntity
  8
SEIHIN
 62
     3
100
AcDbCircle
 10
494.9042455709026
 20
353.33063021424
 30
0.0
 40
1.999999
100
AcDbArc
 50
90.0
 51
181.6188229999999
  0
LINE
  5
407
330
1A
100
AcDbEntity
  8
SEIHIN
 62
     3
100
AcDbLine
 10
493.2920455709026
 20
339.57413021424
 30
0.0
 11
492.9051455709026
 21
353.27413021424
 31
0.0
  0
LINE
  5
408
330
1A
100
AcDbEntity
  8
NOKITOI
  6
PHANTOM
 62
     8
 48
3.5
100
AcDbLine
 10
501.5721455709027
 20
345.60433021424
 30
0.0
 11
501.887945570903
 21
351.6044302142399
 31
0.0
  0
LINE
  5
409
330
1A
100
AcDbEntity
  8
NOKITOI
  6
PHANTOM
 62
     8
 48
3.5
100
AcDbLine
 10
500.4087455709028
 20
346.3306302142399
 30
0.0
 11
500.589845570903
 21
349.77213021424
 31
0.0
  0
LINE
  5
40A
330
1A
100
AcDbEntity
  8
NOKITOI
  6
PHANTOM
 62
     8
 48
3.5
100
AcDbLine
 10
500.0348455709028
 20
349.15913021424
 30
0.0
 11
500.589845570903
 21
349.77213021424
 31
0.0
  0
LINE
  5
40B
330
1A
100
AcDbEntity
  8
NOKITOI
  6
PHANTOM
 62
     8
 48
3.5
100
AcDbLine
 10
499.6308455709027
 20
346.3306302142399
 30
0.0
 11
500.0348455709028
 21
349.15903021424
 31
0.0
  0
LINE
  5
40C
330
1A
100
AcDbEntity
  8
NOKITOI
  6
PHANTOM
 62
     8
 48
3.5
100
AcDbLine
 10
500.4087455709028
 20
346.3306302142399
 30
0.0
 11
499.6308455709027
 21
346.3306302142399
 31
0.0
  0
ARC
  5
40D
330
1A
100
AcDbEntity
  8
NOKITOI
  6
PHANTOM
 62
     8
 48
3.5
100
AcDbCircle
 10
501.0728455709028
 20
345.63063021424
 30
0.0
 40
0.499993
100
AcDbArc
 50
270.0
 51
356.996247
  0
ARC
  5
40E
330
1A
100
AcDbEntity
  8
NOKITOI
  6
PHANTOM
 62
     8
 48
3.5
100
AcDbCircle
 10
501.3886455709031
 20
351.63063021424
 30
0.0
 40
0.499993
100
AcDbArc
 50
356.996247
 51
90.0
  0
ARC
  5
40F
330
1A
100
AcDbEntity
  8
NOKITOI
  6
PHANTOM
 62
     8
 48
3.5
100
AcDbCircle
 10
502.680645570903
 20
339.3306302142399
 30
0.0
 40
0.499988
100
AcDbArc
 50
5.704892
 51
90.0
  0
ARC
  5
410
330
1A
100
AcDbEntity
  8
NOKITOI
  6
PHANTOM
 62
     8
 48
3.5
100
AcDbCircle
 10
498.1675455709029
 20
348.10833021424
 30
0.0
 40
0.499958
100
AcDbArc
 50
351.8698979999999
 51
96.47686300000001
  0
ARC
  5
411
330
1A
100
AcDbEntity
  8
NOKITOI
  6
PHANTOM
 62
     8
 48
3.5
100
AcDbCircle
 10
498.8237455709028
 20
345.63063021424
 30
0.0
 40
0.500012
100
AcDbArc
 50
171.8715179999999
 51
270.0
  0
LINE
  5
412
330
1A
100
AcDbEntity
  8
NOKITOI
  6
PHANTOM
 62
     8
 48
3.5
100
AcDbLine
 10
498.3287455709029
 20
345.7013302142399
 30
0.0
 11
498.6625455709027
 21
348.03753021424
 31
0.0
  0
LINE
  5
413
330
1A
100
AcDbEntity
  8
NOKITOI
  6
PHANTOM
 62
     8
 48
3.5
100
AcDbLine
 10
499.0242455709027
 20
349.8306302142399
 30
0.0
 11
498.5622455709027
 21
349.8306302142399
 31
0.0
  0
ARC
  5
414
330
1A
100
AcDbEntity
  8
NOKITOI
  6
PHANTOM
 62
     8
 48
3.5
100
AcDbCircle
 10
499.1571455709028
 20
352.6306302142399
 30
0.0
 40
0.5000090000000001
100
AcDbArc
 50
168.6855729999999
 51
270.0
  0
LINE
  5
415
330
1A
100
AcDbEntity
  8
NOKITOI
  6
PHANTOM
 62
     8
 48
3.5
100
AcDbLine
 10
498.6668455709028
 20
352.72873021424
 30
0.0
 11
498.9276455709029
 21
354.0326302142399
 31
0.0
  0
LINE
  5
416
330
1A
100
AcDbEntity
  8
NOKITOI
  6
PHANTOM
 62
     8
 48
3.5
100
AcDbLine
 10
497.5834455709028
 20
353.43063021424
 30
0.0
 11
497.0834455709028
 21
350.93063021424
 31
0.0
  0
LINE
  5
417
330
1A
100
AcDbEntity
  8
NOKITOI
  6
PHANTOM
 62
     8
 48
3.5
100
AcDbLine
 10
499.0242455709027
 20
349.8306302142399
 30
0.0
 11
500.0199455709031
 21
350.93063021424
 31
0.0
  0
LINE
  5
418
330
1A
100
AcDbEntity
  8
NOKITOI
  6
PHANTOM
 62
     8
 48
3.5
100
AcDbLine
 10
501.0728455709028
 20
345.1305302142399
 30
0.0
 11
498.8237455709028
 21
345.1305302142399
 31
0.0
  0
LINE
  5
419
330
1A
100
AcDbEntity
  8
NOKITOI
  6
PHANTOM
 62
     8
 48
3.5
100
AcDbLine
 10
502.680645570903
 20
339.8306302142399
 30
0.0
 11
496.6487455709031
 21
339.8306302142399
 31
0.0
  0
LINE
  5
41A
330
1A
100
AcDbEntity
  8
NOKITOI
  6
PHANTOM
 62
     8
 48
3.5
100
AcDbLine
 10
501.3886455709031
 20
352.1305302142399
 30
0.0
 11
499.1571455709028
 21
352.1305302142399
 31
0.0
  0
LINE
  5
41B
330
1A
100
AcDbEntity
  8
NOKITOI
  6
PHANTOM
 62
     8
 48
3.5
100
AcDbLine
 10
497.0834455709028
 20
350.93063021424
 30
0.0
 11
500.0199455709031
 21
350.93063021424
 31
0.0
  0
ARC
  5
41C
330
1A
100
AcDbEntity
  8
NOKITOI
  6
PHANTOM
 62
     8
 48
3.5
100
AcDbCircle
 10
498.4373455709029
 20
354.13063021424
 30
0.0
 40
0.499999
100
AcDbArc
 50
348.69681
 51
90.0
  0
CIRCLE
  5
41D
330
1A
100
AcDbEntity
  8
SEIHIN
 62
     3
100
AcDbCircle
 10
501.1470455709026
 20
361.83063021424
 30
0.0
 40
1.0
  0
LINE
  5
41E
330
1A
100
AcDbEntity
  8
CENTER_L
 62
     1
 48
5.0
100
AcDbLine
 10
501.1470455709026
 20
355.83063021424
 30
0.0
 11
501.1470455709026
 21
367.83063021424
 31
0.0
  0
LINE
  5
41F
330
1A
100
AcDbEntity
  8
SEIHIN
 62
     3
100
AcDbLine
 10
499.8969455709026
 20
355.33063021424
 30
0.0
 11
499.8969455709026
 21
353.33063021424
 31
0.0
  0
LINE
  5
420
330
1A
100
AcDbEntity
  8
SEIHIN
 62
     3
100
AcDbLine
 10
511.1470455709025
 20
363.25213021424
 30
0.0
 11
507.5252455709026
 21
370.55273021424
 31
0.0
  0
DIMENSION
  5
421
330
1A
100
AcDbEntity
  8
ZUWAKU
100
AcDbDimension
  2
*D12
 10
647.2732452107351
 20
299.63049121424
 30
0.0
 11
642.2732452107351
 21
331.48056071424
 31
0.0
 70
    32
  3
STANDARD
100
AcDbAlignedDimension
 13
619.3470455709026
 23
363.33063021424
 33
0.0
 14
561.1387455709026
 24
299.63049121424
 34
0.0
 50
90.0
100
AcDbRotatedDimension
1001
ACAD
1000
DSTYLE
1002
{
1070
   140
1040
6.0
1070
    74
1070
     0
1070
   172
1070
     1
1070
    73
1070
     0
1070
   272
1070
     2
1070
    77
1070
     3
1070
   173
1070
     1
1070
   147
1040
2.0
1070
    42
1040
6.0
1070
    44
1040
3.0
1070
    43
1040
14.0
1070
   271
1070
     0
1070
   178
1070
     4
1070
   177
1070
     4
1070
   176
1070
     4
1070
   141
1040
150.0
1070
     7
1000
_OPEN
1070
     6
1000
_OPEN
1070
    41
1040
7.0
1002
}
  0
LINE
  5
422
330
1A
100
AcDbEntity
  8
SEIHIN
 62
     3
100
AcDbLine
 10
619.3470455709026
 20
363.33063021424
 30
0.0
 11
606.1967455709026
 21
363.33063021424
 31
0.0
  0
LINE
  5
423
330
1A
100
AcDbEntity
  8
SEIHIN
 62
     3
100
AcDbLine
 10
619.3470455709026
 20
363.33063021424
 30
0.0
 11
618.5553455709026
 21
335.3023302142399
 31
0.0
  0
ARC
  5
424
330
1A
100
AcDbEntity
  8
NOKITOI
  6
PHANTOM
 62
     8
 48
3.5
100
AcDbCircle
 10
561.2335455709032
 20
342.6304302142399
 30
0.0
 40
43.00002
100
AcDbArc
 50
270.0
 51
353.474979
  0
ARC
  5
425
330
1A
100
AcDbEntity
  8
NOKITOI
  6
PHANTOM
 62
     8
 48
3.5
100
AcDbCircle
 10
561.2335455709032
 20
342.6304302142399
 30
0.0
 40
41.800002
100
AcDbArc
 50
270.0
 51
355.525423
  0
ARC
  5
426
330
1A
100
AcDbEntity
  8
SEIHIN
 62
     3
100
AcDbCircle
 10
561.1387455709026
 20
342.63053021424
 30
0.0
 40
43.000039
100
AcDbArc
 50
270.0
 51
352.1624490000001
  0
ARC
  5
427
330
1A
100
AcDbEntity
  8
NOKITOI
  6
PHANTOM
 62
     8
 48
3.5
100
AcDbCircle
 10
611.0932455709026
 20
340.1303302142399
 30
0.0
 40
1.500014999999999
100
AcDbArc
 50
270.0
 51
358.212118
  0
ARC
  5
428
330
1A
100
AcDbEntity
  8
NOKITOI
  6
PHANTOM
 62
     8
 48
3.5
100
AcDbCircle
 10
604.9485455709028
 20
337.6304302142399
 30
0.0
 40
0.9999870000000001
100
AcDbArc
 50
90.0
 51
173.4769449999999
  0
ARC
  5
429
330
1A
100
AcDbEntity
  8
SEIHIN
 62
     3
100
AcDbCircle
 10
610.8024455709027
 20
339.63053021424
 30
0.0
 40
1.999997999999999
100
AcDbArc
 50
270.0
 51
358.384041
  0
LINE
  5
42A
330
1A
100
AcDbEntity
  8
NOKITOI
  6
PHANTOM
 62
     8
 48
3.5
100
AcDbLine
 10
611.0932455709026
 20
338.6303302142399
 30
0.0
 11
604.9485455709028
 21
338.6304302142399
 31
0.0
  0
LINE
  5
42B
330
1A
100
AcDbEntity
  8
SEIHIN
 62
     3
100
AcDbLine
 10
617.5557455709028
 20
334.33063021424
 30
0.0
 11
603.9168455709026
 21
334.33063021424
 31
0.0
  0
LINE
  5
42C
330
1A
100
AcDbEntity
  8
SEIHIN
 62
     3
100
AcDbLine
 10
610.8024455709027
 20
337.63053021424
 30
0.0
 11
604.7277455709026
 21
337.63053021424
 31
0.0
  0
ARC
  5
42D
330
1A
100
AcDbEntity
  8
SEIHIN
 62
     3
100
AcDbCircle
 10
604.7277455709026
 20
336.63053021424
 30
0.0
 40
0.9999729999999999
100
AcDbArc
 50
90.0
 51
172.1599959999999
  0
ARC
  5
42E
330
1A
100
AcDbEntity
  8
SEIHIN
 62
     3
100
AcDbCircle
 10
618.3872455709026
 20
332.44813021424
 30
0.0
 40
2.000025999999999
100
AcDbArc
 50
106.093357
 51
175.569656
  0
ARC
  5
42F
330
1A
100
AcDbEntity
  8
SEIHIN
 62
     3
100
AcDbCircle
 10
617.5557455709028
 20
335.33063021424
 30
0.0
 40
0.9999499999999999
100
AcDbArc
 50
270.0
 51
358.378152
  0
ARC
  5
430
330
1A
100
AcDbEntity
  8
SEIHIN
 62
     3
100
AcDbCircle
 10
606.1967455709026
 20
358.33063021424
 30
0.0
 40
5.0
100
AcDbArc
 50
90.0
 51
270.0
  0
LINE
  5
431
330
1A
100
AcDbEntity
  8
NOKITOI
  6
PHANTOM
 62
     8
 48
3.5
100
AcDbLine
 10
610.9837455709031
 20
354.6303302142399
 30
0.0
 11
607.6571455709028
 21
354.6303302142399
 31
0.0
  0
ARC
  5
432
330
1A
100
AcDbEntity
  8
NOKITOI
  6
PHANTOM
 62
     8
 48
3.5
100
AcDbCircle
 10
607.5321455709028
 20
344.6303302142399
 30
0.0
 40
3.99999
100
AcDbArc
 50
358.2106259999999
 51
83.52329799999999
  0
LINE
  5
433
330
1A
100
AcDbEntity
  8
NOKITOI
  6
PHANTOM
 62
     8
 48
3.5
100
AcDbLine
 10
610.9837455709031
 20
353.4303302142399
 30
0.0
 11
608.5109455709031
 21
353.4303302142399
 31
0.0
  0
ARC
  5
434
330
1A
100
AcDbEntity
  8
NOKITOI
  6
PHANTOM
 62
     8
 48
3.5
100
AcDbCircle
 10
607.5321455709028
 20
344.6303302142399
 30
0.0
 40
5.199991
100
AcDbArc
 50
37.925525
 51
90.0
  0
ARC
  5
435
330
1A
100
AcDbEntity
  8
NOKITOI
  6
PHANTOM
 62
     8
 48
3.5
100
AcDbCircle
 10
609.4455455709026
 20
341.83033021424
 30
0.0
 40
1.999988
100
AcDbArc
 50
270.0
 51
358.209195
  0
LINE
  5
436
330
1A
100
AcDbEntity
  8
SEIHIN
 62
     3
100
AcDbLine
 10
611.1894455709026
 20
355.33063021424
 30
0.0
 11
606.1967455709026
 21
355.33063021424
 31
0.0
  0
LINE
  5
437
330
1A
100
AcDbEntity
  8
NOKITOI
  6
PHANTOM
 62
     8
 48
3.5
100
AcDbLine
 10
608.5109455709031
 20
353.4303302142399
 30
0.0
 11
609.0109455709031
 21
350.9303302142399
 31
0.0
  0
LINE
  5
438
330
1A
100
AcDbEntity
  8
NOKITOI
  6
PHANTOM
 62
     8
 48
3.5
100
AcDbLine
 10
604.5222455709027
 20
345.6041302142399
 30
0.0
 11
604.2064455709029
 21
351.6040302142399
 31
0.0
  0
LINE
  5
439
330
1A
100
AcDbEntity
  8
NOKITOI
  6
PHANTOM
 62
     8
 48
3.5
100
AcDbLine
 10
607.070245570903
 20
349.8303302142399
 30
0.0
 11
606.0744455709028
 21
350.9303302142399
 31
0.0
  0
LINE
  5
43A
330
1A
100
AcDbEntity
  8
NOKITOI
  6
PHANTOM
 62
     8
 48
3.5
100
AcDbLine
 10
607.765645570903
 20
345.7010302142399
 30
0.0
 11
607.4319455709029
 21
348.0372302142399
 31
0.0
  0
LINE
  5
43B
330
1A
100
AcDbEntity
  8
NOKITOI
  6
PHANTOM
 62
     8
 48
3.5
100
AcDbLine
 10
607.070245570903
 20
349.8303302142399
 30
0.0
 11
607.5321455709028
 21
349.8303302142399
 31
0.0
  0
LINE
  5
43C
330
1A
100
AcDbEntity
  8
NOKITOI
  6
PHANTOM
 62
     8
 48
3.5
100
AcDbLine
 10
605.6857455709028
 20
346.33033021424
 30
0.0
 11
605.5045455709029
 21
349.7717302142399
 31
0.0
  0
LINE
  5
43D
330
1A
100
AcDbEntity
  8
NOKITOI
  6
PHANTOM
 62
     8
 48
3.5
100
AcDbLine
 10
606.0595455709027
 20
349.1587302142399
 30
0.0
 11
605.5045455709029
 21
349.7717302142399
 31
0.0
  0
ARC
  5
43E
330
1A
100
AcDbEntity
  8
NOKITOI
  6
PHANTOM
 62
     8
 48
3.5
100
AcDbCircle
 10
605.0216455709029
 20
345.6303302142399
 30
0.0
 40
0.499993
100
AcDbArc
 50
183.003753
 51
270.0
  0
LINE
  5
43F
330
1A
100
AcDbEntity
  8
NOKITOI
  6
PHANTOM
 62
     8
 48
3.5
100
AcDbLine
 10
606.4635455709027
 20
346.33033021424
 30
0.0
 11
606.0595455709027
 21
349.1587302142399
 31
0.0
  0
LINE
  5
440
330
1A
100
AcDbEntity
  8
NOKITOI
  6
PHANTOM
 62
     8
 48
3.5
100
AcDbLine
 10
605.6857455709028
 20
346.33033021424
 30
0.0
 11
606.4635455709027
 21
346.33033021424
 31
0.0
  0
LINE
  5
441
330
1A
100
AcDbEntity
  8
NOKITOI
  6
PHANTOM
 62
     8
 48
3.5
100
AcDbLine
 10
605.0216455709029
 20
345.13023021424
 30
0.0
 11
607.2707455709029
 21
345.13023021424
 31
0.0
  0
LINE
  5
442
330
1A
100
AcDbEntity
  8
NOKITOI
  6
PHANTOM
 62
     8
 48
3.5
100
AcDbLine
 10
607.4276455709028
 20
352.72843021424
 30
0.0
 11
607.1668455709028
 21
354.03223021424
 31
0.0
  0
ARC
  5
443
330
1A
100
AcDbEntity
  8
NOKITOI
  6
PHANTOM
 62
     8
 48
3.5
100
AcDbCircle
 10
606.9373455709029
 20
352.6303302142399
 30
0.0
 40
0.5000090000000001
100
AcDbArc
 50
270.0
 51
11.314427
  0
ARC
  5
444
330
1A
100
AcDbEntity
  8
NOKITOI
  6
PHANTOM
 62
     8
 48
3.5
100
AcDbCircle
 10
604.7058455709031
 20
351.6304302142399
 30
0.0
 40
0.499996
100
AcDbArc
 50
90.0
 51
183.015197
  0
LINE
  5
445
330
1A
100
AcDbEntity
  8
NOKITOI
  6
PHANTOM
 62
     8
 48
3.5
100
AcDbLine
 10
604.7058455709031
 20
352.1304302142399
 30
0.0
 11
606.9373455709029
 21
352.1302302142399
 31
0.0
  0
ARC
  5
446
330
1A
100
AcDbEntity
  8
NOKITOI
  6
PHANTOM
 62
     8
 48
3.5
100
AcDbCircle
 10
607.9269455709028
 20
348.1080302142399
 30
0.0
 40
0.500007
100
AcDbArc
 50
83.52313700000001
 51
188.128482
  0
ARC
  5
447
330
1A
100
AcDbEntity
  8
NOKITOI
  6
PHANTOM
 62
     8
 48
3.5
100
AcDbCircle
 10
607.2707455709029
 20
345.6303302142399
 30
0.0
 40
0.499962
100
AcDbArc
 50
270.0
 51
8.130102
  0
LINE
  5
448
330
1A
100
AcDbEntity
  8
NOKITOI
  6
PHANTOM
 62
     8
 48
3.5
100
AcDbLine
 10
609.0109455709031
 20
350.9303302142399
 30
0.0
 11
606.0744455709028
 21
350.9303302142399
 31
0.0
  0
ARC
  5
449
330
1A
100
AcDbEntity
  8
NOKITOI
  6
PHANTOM
 62
     8
 48
3.5
100
AcDbCircle
 10
603.4046455709027
 20
339.33043021424
 30
0.0
 40
0.500012
100
AcDbArc
 50
90.0
 51
175.5265939999999
  0
LINE
  5
44A
330
1A
100
AcDbEntity
  8
NOKITOI
  6
PHANTOM
 62
     8
 48
3.5
100
AcDbLine
 10
603.4046455709027
 20
339.83033021424
 30
0.0
 11
609.4455455709026
 21
339.83033021424
 31
0.0
  0
ARC
  5
44B
330
1A
100
AcDbEntity
  8
NOKITOI
  6
PHANTOM
 62
     8
 48
3.5
100
AcDbCircle
 10
607.6571455709028
 20
354.1303302142399
 30
0.0
 40
0.499999
100
AcDbArc
 50
90.0
 51
191.30319
  0
LINE
  5
44C
330
1A
100
AcDbEntity
  8
SEIHIN
 62
     3
100
AcDbLine
 10
606.1967455709026
 20
355.33063021424
 30
0.0
 11
606.1967455709026
 21
353.33063021424
 31
0.0
  0
LINE
  5
44D
330
1A
100
AcDbEntity
  8
NOKITOI
  6
PHANTOM
 62
     8
 48
3.5
100
AcDbLine
 10
611.7833455709029
 20
352.60533021424
 30
0.0
 11
611.6339455709026
 21
347.8264302142399
 31
0.0
  0
LINE
  5
44E
330
1A
100
AcDbEntity
  8
NOKITOI
  6
PHANTOM
 62
     8
 48
3.5
100
AcDbLine
 10
611.4445455709029
 20
341.7678302142399
 30
0.0
 11
611.5301455709028
 21
344.5054302142399
 31
0.0
  0
ARC
  5
44F
330
1A
100
AcDbEntity
  8
NOKITOI
  6
PHANTOM
 62
     8
 48
3.5
100
AcDbCircle
 10
610.9837455709031
 20
352.6303302142399
 30
0.0
 40
0.7999950000000001
100
AcDbArc
 50
358.209195
 51
90.0
  0
LINE
  5
450
330
1A
100
AcDbEntity
  8
NOKITOI
  6
PHANTOM
 62
     8
 48
3.5
100
AcDbLine
 10
612.9827455709029
 20
352.5678302142399
 30
0.0
 11
612.5925455709031
 21
340.08353021424
 31
0.0
  0
ARC
  5
451
330
1A
100
AcDbEntity
  8
NOKITOI
  6
PHANTOM
 62
     8
 48
3.5
100
AcDbCircle
 10
610.9837455709031
 20
352.6303302142399
 30
0.0
 40
1.999986999999999
100
AcDbArc
 50
358.212058
 51
90.0
  0
ARC
  5
452
330
1A
100
AcDbEntity
  8
SEIHIN
 62
     3
100
AcDbCircle
 10
611.1894455709026
 20
353.33063021424
 30
0.0
 40
1.999999
100
AcDbArc
 50
358.381177
 51
90.0
  0
LINE
  5
453
330
1A
100
AcDbEntity
  8
SEIHIN
 62
     3
100
AcDbLine
 10
613.1886455709026
 20
353.27413021424
 30
0.0
 11
612.8016455709026
 21
339.57413021424
 31
0.0
  0
LEADER
  5
573
330
1A
100
AcDbEntity
  8
SUNPOU
  6
CONTINUOUS
 62
     4
100
AcDbLeader
  3
STANDARD
 73
     0
 74
     0
 40
6.0
 41
30.19999999999999
 76
     3
 10
501.9877858967006
 20
362.5487496323013
 30
0.0
 10
512.1711625229299
 20
389.6230958101036
 30
0.0
 10
514.2267367030394
 20
389.6230958101036
 30
0.0
1001
ACAD
1000
DSTYLE
1002
{
1070
     6
1000
OPEN
1070
    41
1040
7.0
1070
    42
1040
6.0
1070
    43
1040
14.0
1070
    44
1040
3.0
1070
    73
1070
     0
1070
    74
1070
     0
1070
    77
1070
     3
1070
   140
1040
6.0
1070
   141
1040
150.0
1070
   147
1040
2.0
1070
   172
1070
     1
1070
   173
1070
     1
1070
   176
1070
     4
1070
   177
1070
     4
1070
   178
1070
     4
1070
   271
1070
     0
1070
   272
1070
     2
1070
   341
1005
6D
1070
   343
1005
6D
1070
   344
1005
6D
1002
}
  0
MTEXT
  5
574
330
1A
100
AcDbEntity
  8
SUNPOU
  6
CONTINUOUS
 62
     4
100
AcDbMText
 10
516.2267367030394
 20
391.6230958101036
 30
0.0
 40
6.0
 41
0.0
 71
     7
 72
     5
  1
2-φ2.0
1001
ACAD
1000
MTEXTBEGIN
1070
    73
1070
     1
1070
    44
1040
1.0
1070
    74
1070
     0
1000
MTEXTEND
1000
MTEXTBEGIN
1070
    73
1070
     1
1070
    44
1040
1.0
1070
    74
1070
     0
1000
MTEXTEND
  0
LWPOLYLINE
  5
70E
330
1A
100
AcDbEntity
  8
ZUWAKU
100
AcDbPolyline
 90
        4
 70
     1
 43
0.0
 10
0.800000031437321
 20
550.7999994005872
 10
0.800000031437321
 20
0.7999994005872395
 10
796.8000000314373
 20
0.7999994005872395
 10
796.8000000314373
 20
550.7999994005872
  0
LWPOLYLINE
  5
70F
330
1A
100
AcDbEntity
  8
ZUWAKU
100
AcDbPolyline
 90
        4
 70
     1
 43
0.0
 10
0.4000000314373438
 20
551.1999994005872
 10
0.4000000314373438
 20
0.3999994005872622
 10
797.2000000314374
 20
0.3999994005872391
 10
797.2000000314374
 20
551.1999994005872
  0
LWPOLYLINE
  5
710
330
1A
100
AcDbEntity
  8
ZUWAKU
100
AcDbPolyline
 90
        4
 70
     1
 43
0.0
 10
0.0000000314373665
 20
551.5999994005872
 10
0.0000000314373665
 20
-0.0000005994128287
 10
797.6000000314375
 20
-0.0000005994127612
 10
797.6000000314375
 20
551.5999994005873
  0
LWPOLYLINE
  5
711
330
1A
100
AcDbEntity
  8
ZUWAKU
100
AcDbPolyline
 90
        4
 70
     1
 43
0.0
 10
0.6000000314372756
 20
550.9999994005872
 10
0.6000000314372756
 20
0.5999994005871941
 10
797.0000000314375
 20
0.5999994005872403
 10
797.0000000314374
 20
550.9999994005872
  0
LWPOLYLINE
  5
712
330
1A
100
AcDbEntity
  8
ZUWAKU
100
AcDbPolyline
 90
        4
 70
     1
 43
0.0
 10
0.2000000314372983
 20
551.3999994005872
 10
0.2000000314372983
 20
0.1999994005872168
 10
797.4000000314372
 20
0.1999994005872398
 10
797.4000000314374
 20
551.3999994005872
  0
LINE
  5
713
330
1A
100
AcDbEntity
  8
ZUWAKU
100
AcDbLine
 10
0.0000000314373665
 20
29.99999940058717
 30
0.0
 11
797.4000000314372
 21
29.99999940058717
 31
0.0
  0
LINE
  5
714
330
1A
100
AcDbEntity
  8
ZUWAKU
100
AcDbLine
 10
0.0000000314373665
 20
30.19999940058717
 30
0.0
 11
797.4000000314372
 21
30.19999940058717
 31
0.0
  0
LINE
  5
715
330
1A
100
AcDbEntity
  8
ZUWAKU
100
AcDbLine
 10
0.0000000314373665
 20
30.39999940058717
 30
0.0
 11
797.4000000314372
 21
30.39999940058717
 31
0.0
  0
LINE
  5
716
330
1A
100
AcDbEntity
  8
ZUWAKU
100
AcDbLine
 10
0.0000000314373665
 20
30.59999940058718
 30
0.0
 11
797.4000000314372
 21
30.59999940058718
 31
0.0
  0
LINE
  5
717
330
1A
100
AcDbEntity
  8
ZUWAKU
100
AcDbLine
 10
0.0000000314373665
 20
30.79999940058718
 30
0.0
 11
797.4000000314372
 21
30.79999940058718
 31
0.0
  0
LINE
  5
718
330
1A
100
AcDbEntity
  8
ZUWAKU
100
AcDbLine
 10
208.6466013215054
 20
15.3999994005872
 30
0.0
 11
447.4243640024288
 21
15.3999994005872
 31
0.0
  0
LINE
  5
719
330
1A
100
AcDbEntity
  8
ZUWAKU
100
AcDbLine
 10
208.6466013215054
 20
15.5999994005872
 30
0.0
 11
447.4243640024288
 21
15.59999940058721
 31
0.0
  0
LINE
  5
71A
330
1A
100
AcDbEntity
  8
ZUWAKU
100
AcDbLine
 10
208.6466013215054
 20
15.1999994005872
 30
0.0
 11
447.4243640024288
 21
15.1999994005872
 31
0.0
  0
TEXT
  5
71B
330
1A
100
AcDbEntity
  8
MOJI
100
AcDbText
 10
92.9577896196065
 20
12.74117753086193
 30
0.0
 40
6.0
  1
新・丸トップＲＶ１０５
 41
0.9
  7
ｽﾀｲﾙ1
100
AcDbText
  0
CIRCLE
  5
71C
330
1A
100
AcDbEntity
  8
ZUWAKU
100
AcDbCircle
 10
25.99221218621846
 20
15.19999940058717
 30
0.0
 40
1.75
  0
LINE
  5
71D
330
1A
100
AcDbEntity
  8
ZUWAKU
100
AcDbLine
 10
26.86721218621846
 20
7.149999400587176
 30
0.0
 11
24.94221218621851
 21
7.149999400587176
 31
0.0
  0
LINE
  5
71E
330
1A
100
AcDbEntity
  8
ZUWAKU
100
AcDbLine
 10
24.94221218621851
 20
9.949999400587174
 30
0.0
 11
26.86721218621846
 21
9.949999400587174
 31
0.0
  0
LINE
  5
71F
330
1A
100
AcDbEntity
  8
ZUWAKU
100
AcDbLine
 10
26.86721218621846
 20
20.44999940058717
 30
0.0
 11
24.94221218621851
 21
20.44999940058717
 31
0.0
  0
LINE
  5
720
330
1A
100
AcDbEntity
  8
ZUWAKU
100
AcDbLine
 10
24.94221218621851
 20
23.24999940058713
 30
0.0
 11
26.86721218621846
 21
23.24999940058718
 31
0.0
  0
HATCH
  5
721
330
1A
100
AcDbEntity
  8
ZUWAKU
100
AcDbHatch
 10
0.0
 20
0.0
 30
0.0
210
0.0
220
0.0
230
1.0
  2
ANSI37
 70
     0
 71
     0
 91
        8
 92
        7
 72
     1
 73
     1
 93
       24
 10
14.50226269255722
 20
17.64484788157075
 42
-0.1989123673796348
 10
14.09221218621849
 20
18.6347973752318
 42
0.0
 10
14.09221218621849
 20
19.92499940058718
 42
-0.4142135623730912
 10
14.61721218621846
 20
20.44999940058717
 42
0.0
 10
17.59221218621837
 20
20.44999940058717
 42
0.4142135623731546
 10
18.11721218621846
 20
20.97499940058716
 42
0.0
 10
18.11721218621846
 20
22.72499940058718
 42
0.4142135623731586
 10
17.59221218621837
 20
23.24999940058718
 42
0.0
 10
14.09221218621849
 20
23.24999940058718
 42
0.4142135623730928
 10
11.29221218621853
 20
20.4499994005872
 42
0.0
 10
11.29221218621853
 20
18.63479737523193
 42
0.1989123673796619
 10
12.52236370523496
 20
15.66494889424832
 42
0.0
 10
15.43216167987964
 20
12.75515091960366
 42
-0.1989123673796613
 10
15.84221218621848
 20
11.76520142594248
 42
0.0
 10
15.84221218621848
 20
10.47499940058716
 42
-0.4142135623730911
 10
15.31721218621851
 20
9.949999400587174
 42
0.0
 10
12.3422121862186
 20
9.949999400587174
 42
0.4142135623731526
 10
11.81721218621851
 20
9.424999400587186
 42
0.0
 10
11.81721218621851
 20
7.674999400587164
 42
0.4142135623731526
 10
12.3422121862186
 20
7.149999400587176
 42
0.0
 10
15.84221218621848
 20
7.149999400587176
 42
0.4142135623731044
 10
18.64221218621855
 20
9.949999400587152
 42
0.0
 10
18.64221218621855
 20
11.76520142594242
 42
0.1989123673796604
 10
17.41206066720201
 20
14.73504990692596
 42
0.0
 97
        0
 92
        7
 72
     1
 73
     1
 93
       16
 10
23.54221218621853
 20
19.04999940058718
 42
-0.4142135623730935
 10
24.94221218621851
 20
20.44999940058717
 42
0.0
 10
26.86721218621846
 20
20.44999940058717
 42
0.4142135623731546
 10
27.39221218621855
 20
20.97499940058716
 42
0.0
 10
27.39221218621855
 20
22.72499940058718
 42
0.4142135623730951
 10
26.86721218621858
 20
23.24999940058718
 42
0.0
 10
24.9422121862184
 20
23.24999940058713
 42
0.4142135623730892
 10
20.74221218621846
 20
19.04999940058711
 42
0.0
 10
20.74221218621846
 20
11.3499994005872
 42
0.4142135623730969
 10
24.94221218621851
 20
7.149999400587176
 42
0.0
 10
26.86721218621846
 20
7.149999400587176
 42
0.4142135623731526
 10
27.39221218621855
 20
7.674999400587164
 42
0.0
 10
27.39221218621855
 20
9.424999400587186
 42
0.4142135623730891
 10
26.86721218621858
 20
9.949999400587174
 42
0.0
 10
24.94221218621851
 20
9.949999400587174
 42
-0.4142135623730928
 10
23.54221218621853
 20
11.34999940058716
 42
0.0
 97
        0
 92
        7
 72
     1
 73
     1
 93
        2
 10
24.24221218621847
 20
15.19999940058717
 42
1.0
 10
27.74221218621846
 20
15.19999940058717
 42
1.0
 97
        0
 92
        7
 72
     1
 73
     1
 93
       26
 10
37.31485866839648
 20
19.2050465941506
 42
0.0
 10
38.37649830153429
 20
22.56690543242019
 42
0.5069206636600134
 10
37.87586740233894
 20
23.24999940058718
 42
0.0
 10
36.17697802272971
 20
23.24999940058718
 42
0.3272098845218764
 10
35.67634712353435
 20
22.88309336875414
 42
0.0
 10
33.80807724890257
 20
16.96690543242025
 42
-0.3272098845219541
 10
33.3074463497071
 20
16.59999940058717
 42
0.0
 10
33.16721218621864
 20
16.59999940058717
 42
-0.4142135623731526
 10
32.64221218621855
 20
17.12499940058716
 42
0.0
 10
32.64221218621855
 20
22.72499940058718
 42
0.4142135623730951
 10
32.11721218621858
 20
23.24999940058718
 42
0.0
 10
30.36721218621846
 20
23.24999940058718
 42
0.4142135623730871
 10
29.84221218621849
 20
22.72499940058719
 42
0.0
 10
29.84221218621849
 20
7.674999400587164
 42
0.4142135623730891
 10
30.36721218621846
 20
7.149999400587176
 42
0.0
 10
32.11721218621846
 20
7.149999400587176
 42
0.4142135623731526
 10
32.64221218621855
 20
7.674999400587164
 42
0.0
 10
32.64221218621855
 20
13.27499940058718
 42
-0.4142135623731526
 10
33.16721218621864
 20
13.79999940058717
 42
0.0
 10
33.30744634970722
 20
13.79999940058717
 42
-0.3272098845218915
 10
33.80807724890257
 20
13.4330933687541
 42
0.0
 10
35.67634712353435
 20
7.516905432420248
 42
0.3272098845218902
 10
36.17697802272971
 20
7.149999400587176
 42
0.0
 10
37.87586740233894
 20
7.149999400587176
 42
0.5069206636600335
 10
38.37649830153429
 20
7.833093368754184
 42
0.0
 10
36.05010692306064
 20
15.19999940058731
 42
0.0
 97
        0
 92
        7
 72
     1
 73
     1
 93
        8
 10
43.49221218621846
 20
22.72499940058718
 42
0.4142135623731546
 10
42.96721218621837
 20
23.24999940058718
 42
0.0
 10
41.2172121862186
 20
23.24999940058718
 42
0.4142135623731507
 10
40.69221218621851
 20
22.72499940058719
 42
0.0
 10
40.69221218621851
 20
7.674999400587164
 42
0.4142135623731526
 10
41.2172121862186
 20
7.149999400587176
 42
0.0
 10
42.96721218621837
 20
7.149999400587176
 42
0.4142135623731526
 10
43.49221218621846
 20
7.674999400587164
 42
0.0
 97
        0
 92
        7
 72
     1
 73
     1
 93
       24
 10
48.39221218621855
 20
19.92499940058718
 42
-0.4142135623731546
 10
48.91721218621865
 20
20.44999940058717
 42
0.0
 10
51.89221218621856
 20
20.44999940058717
 42
0.4142135623730911
 10
52.41721218621854
 20
20.97499940058716
 42
0.0
 10
52.41721218621854
 20
22.72499940058718
 42
0.4142135623730952
 10
51.89221218621856
 20
23.24999940058718
 42
0.0
 10
48.39221218621855
 20
23.24999940058718
 42
0.4142135623731048
 10
45.59221218621849
 20
20.4499994005872
 42
0.0
 10
45.59221218621849
 20
18.63479737523193
 42
0.1989123673796613
 10
46.82236370523503
 20
15.66494889424838
 42
0.0
 10
49.7321616798797
 20
12.75515091960371
 42
-0.1989123673796402
 10
50.14221218621855
 20
11.76520142594264
 42
0.0
 10
50.14221218621855
 20
10.47499940058716
 42
-0.4142135623730911
 10
49.61721218621858
 20
9.949999400587174
 42
0.0
 10
46.64221218621856
 20
9.949999400587174
 42
0.4142135623731526
 10
46.11721218621847
 20
9.424999400587186
 42
0.0
 10
46.11721218621847
 20
7.674999400587164
 42
0.4142135623730891
 10
46.64221218621844
 20
7.149999400587176
 42
0.0
 10
50.14221218621855
 20
7.149999400587176
 42
0.4142135623730925
 10
52.94221218621851
 20
9.949999400587152
 42
0.0
 10
52.94221218621851
 20
11.76520142594242
 42
0.1989123673796675
 10
51.71206066720197
 20
14.73504990692608
 42
0.0
 10
48.8022626925574
 20
17.64484788157059
 42
-0.1989123673796652
 10
48.39221218621855
 20
18.63479737523176
 42
0.0
 97
        0
 92
        7
 72
     1
 73
     1
 93
       16
 10
57.84221218621849
 20
22.72499940058716
 42
0.414213562373103
 10
57.31721218621851
 20
23.24999940058718
 42
0.0
 10
55.56721218621851
 20
23.24999940058718
 42
0.4142135623730871
 10
55.04221218621854
 20
22.72499940058719
 42
0.0
 10
55.04221218621854
 20
9.949999400587152
 42
0.4142135623730926
 10
57.84221218621849
 20
7.149999400587176
 42
0.0
 10
61.34221218621849
 20
7.149999400587176
 42
0.4142135623731044
 10
64.14221218621856
 20
9.949999400587152
 42
0.0
 10
64.14221218621856
 20
22.72499940058718
 42
0.4142135623730951
 10
63.61721218621858
 20
23.24999940058718
 42
0.0
 10
61.86721218621847
 20
23.24999940058718
 42
0.4142135623730871
 10
61.34221218621849
 20
22.72499940058719
 42
0.0
 10
61.34221218621849
 20
10.99999940058715
 42
-0.414213562373088
 10
60.29221218621853
 20
9.949999400587174
 42
0.0
 10
58.89221218621855
 20
9.949999400587174
 42
-0.4142135623731197
 10
57.84221218621849
 20
10.99999940058715
 42
0.0
 97
        0
 92
        7
 72
     1
 73
     1
 93
        8
 10
69.04221218621853
 20
22.72499940058719
 42
0.4142135623730871
 10
68.51721218621856
 20
23.24999940058718
 42
0.0
 10
66.76721218621856
 20
23.24999940058718
 42
0.4142135623731507
 10
66.24221218621847
 20
22.72499940058719
 42
0.0
 10
66.24221218621847
 20
7.674999400587164
 42
0.4142135623730891
 10
66.76721218621844
 20
7.149999400587176
 42
0.0
 10
68.51721218621856
 20
7.149999400587176
 42
0.4142135623730891
 10
69.04221218621853
 20
7.674999400587164
 42
0.0
 97
        0
 75
     0
 76
     1
 52
0.0
 41
0.2
 77
     0
 78
     2
 53
45.0
 43
-900.9423043032416
 44
-13.20000059941276
 45
-0.4490128060534576
 46
0.4490128060534577
 79
     0
 53
135.0
 43
-900.9423043032416
 44
-13.20000059941276
 45
-0.4490128060534577
 46
-0.4490128060534576
 79
     0
 47
0.057451373970553
 98
        8
 10
16.07985499446067
 20
15.16717304647272
 10
22.40451503787653
 20
18.84406158303818
 10
25.16436791709702
 20
15.51188104665789
 10
30.9140600130745
 20
16.20129704702867
 10
41.8384720503941
 20
16.66090931457029
 10
46.89820092656691
 20
19.41857571699438
 10
56.55768600383772
 20
18.72915731568218
 10
67.8270796510601
 20
19.1887695832238
  0
ARC
  5
722
330
1A
100
AcDbEntity
  8
ZUWAKU
100
AcDbCircle
 10
15.49221218621846
 20
18.63479737523187
 30
0.0
 40
4.199999999999999
100
AcDbArc
 50
180.0
 51
225.0
  0
LINE
  5
723
330
1A
100
AcDbEntity
  8
ZUWAKU
100
AcDbLine
 10
20.74221218621846
 20
11.34999940058718
 30
0.0
 11
20.74221218621846
 21
19.04999940058713
 31
0.0
  0
LINE
  5
724
330
1A
100
AcDbEntity
  8
ZUWAKU
100
AcDbLine
 10
23.54221218621853
 20
19.04999940058717
 30
0.0
 11
23.54221218621853
 21
11.34999940058718
 31
0.0
  0
ARC
  5
725
330
1A
100
AcDbEntity
  8
ZUWAKU
100
AcDbCircle
 10
15.49221218621846
 20
18.63479737523187
 30
0.0
 40
1.399999999999999
100
AcDbArc
 50
180.0000000000016
 51
224.9999999999988
  0
ARC
  5
726
330
1A
100
AcDbEntity
  8
ZUWAKU
100
AcDbCircle
 10
24.94221218621851
 20
11.34999940058718
 30
0.0
 40
4.199999999999999
100
AcDbArc
 50
180.0
 51
270.0
  0
ARC
  5
727
330
1A
100
AcDbEntity
  8
ZUWAKU
100
AcDbCircle
 10
15.84221218621848
 20
9.949999400587174
 30
0.0
 40
2.799999999999999
100
AcDbArc
 50
270.0
 51
0.0
  0
ARC
  5
728
330
1A
100
AcDbEntity
  8
ZUWAKU
100
AcDbCircle
 10
14.44221218621851
 20
11.76520142594247
 30
0.0
 40
4.199999999999999
100
AcDbArc
 50
0.0
 51
45.0
  0
LINE
  5
729
330
1A
100
AcDbEntity
  8
ZUWAKU
100
AcDbLine
 10
12.52236370523496
 20
15.66494889424835
 30
0.0
 11
15.43216167987964
 21
12.75515091960369
 31
0.0
  0
LINE
  5
72A
330
1A
100
AcDbEntity
  8
ZUWAKU
100
AcDbLine
 10
12.34221218621849
 20
9.949999400587174
 30
0.0
 11
15.31721218621851
 21
9.949999400587174
 31
0.0
  0
LINE
  5
72B
330
1A
100
AcDbEntity
  8
ZUWAKU
100
AcDbLine
 10
12.34221218621849
 20
7.149999400587176
 30
0.0
 11
15.84221218621848
 21
7.149999400587176
 31
0.0
  0
ARC
  5
72C
330
1A
100
AcDbEntity
  8
ZUWAKU
100
AcDbCircle
 10
12.34221218621849
 20
9.424999400587175
 30
0.0
 40
0.525
100
AcDbArc
 50
90.0
 51
180.0
  0
ARC
  5
72D
330
1A
100
AcDbEntity
  8
ZUWAKU
100
AcDbCircle
 10
12.34221218621849
 20
7.674999400587175
 30
0.0
 40
0.525
100
AcDbArc
 50
180.0
 51
270.0
  0
LINE
  5
72E
330
1A
100
AcDbEntity
  8
ZUWAKU
100
AcDbLine
 10
11.81721218621851
 20
7.674999400587175
 30
0.0
 11
11.81721218621851
 21
9.424999400587175
 31
0.0
  0
ARC
  5
72F
330
1A
100
AcDbEntity
  8
ZUWAKU
100
AcDbCircle
 10
14.44221218621851
 20
11.76520142594252
 30
0.0
 40
1.399999999999999
100
AcDbArc
 50
0.0
 51
45.0
  0
ARC
  5
730
330
1A
100
AcDbEntity
  8
ZUWAKU
100
AcDbCircle
 10
15.31721218621851
 20
10.47499940058717
 30
0.0
 40
0.525
100
AcDbArc
 50
270.0
 51
0.0
  0
LINE
  5
731
330
1A
100
AcDbEntity
  8
ZUWAKU
100
AcDbLine
 10
15.84221218621848
 20
10.47499940058717
 30
0.0
 11
15.84221218621848
 21
11.76520142594252
 31
0.0
  0
LINE
  5
732
330
1A
100
AcDbEntity
  8
ZUWAKU
100
AcDbLine
 10
17.41206066720201
 20
14.735049906926
 30
0.0
 11
14.50226269255733
 21
17.64484788157067
 31
0.0
  0
ARC
  5
733
330
1A
100
AcDbEntity
  8
ZUWAKU
100
AcDbCircle
 10
24.94221218621851
 20
11.34999940058718
 30
0.0
 40
1.399999999999999
100
AcDbArc
 50
180.0
 51
270.0
  0
LINE
  5
734
330
1A
100
AcDbEntity
  8
ZUWAKU
100
AcDbLine
 10
18.64221218621855
 20
9.949999400587174
 30
0.0
 11
18.64221218621855
 21
11.76520142594252
 31
0.0
  0
ARC
  5
735
330
1A
100
AcDbEntity
  8
ZUWAKU
100
AcDbCircle
 10
17.59221218621848
 20
20.97499940058717
 30
0.0
 40
0.525
100
AcDbArc
 50
270.0
 51
0.0
  0
ARC
  5
736
330
1A
100
AcDbEntity
  8
ZUWAKU
100
AcDbCircle
 10
17.59221218621848
 20
22.72499940058717
 30
0.0
 40
0.525
100
AcDbArc
 50
0.0
 51
90.0
  0
ARC
  5
737
330
1A
100
AcDbEntity
  8
ZUWAKU
100
AcDbCircle
 10
14.09221218621849
 20
20.44999940058717
 30
0.0
 40
2.799999999999999
100
AcDbArc
 50
90.0
 51
180.0
  0
LINE
  5
738
330
1A
100
AcDbEntity
  8
ZUWAKU
100
AcDbLine
 10
11.29221218621853
 20
20.44999940058717
 30
0.0
 11
11.29221218621853
 21
18.63479737523183
 31
0.0
  0
LINE
  5
739
330
1A
100
AcDbEntity
  8
ZUWAKU
100
AcDbLine
 10
17.59221218621848
 20
20.44999940058717
 30
0.0
 11
14.61721218621846
 21
20.44999940058717
 31
0.0
  0
LINE
  5
73A
330
1A
100
AcDbEntity
  8
ZUWAKU
100
AcDbLine
 10
14.09221218621849
 20
19.92499940058717
 30
0.0
 11
14.09221218621849
 21
18.63479737523183
 31
0.0
  0
ARC
  5
73B
330
1A
100
AcDbEntity
  8
ZUWAKU
100
AcDbCircle
 10
14.61721218621846
 20
19.92499940058717
 30
0.0
 40
0.525
100
AcDbArc
 50
90.0
 51
180.0
  0
LINE
  5
73C
330
1A
100
AcDbEntity
  8
ZUWAKU
100
AcDbLine
 10
14.09221218621849
 20
23.24999940058718
 30
0.0
 11
17.59221218621848
 21
23.24999940058718
 31
0.0
  0
ARC
  5
73D
330
1A
100
AcDbEntity
  8
ZUWAKU
100
AcDbCircle
 10
24.94221218621851
 20
19.04999940058713
 30
0.0
 40
4.199999999999999
100
AcDbArc
 50
90.0
 51
180.0
  0
ARC
  5
73E
330
1A
100
AcDbEntity
  8
ZUWAKU
100
AcDbCircle
 10
24.94221218621851
 20
19.04999940058717
 30
0.0
 40
1.399999999999999
100
AcDbArc
 50
90.0
 51
180.0
  0
LINE
  5
73F
330
1A
100
AcDbEntity
  8
ZUWAKU
100
AcDbLine
 10
18.11721218621846
 20
22.72499940058717
 30
0.0
 11
18.11721218621846
 21
20.97499940058717
 31
0.0
  0
LINE
  5
740
330
1A
100
AcDbEntity
  8
ZUWAKU
100
AcDbLine
 10
35.67634712353435
 20
22.88309336875414
 30
0.0
 11
33.80807724890257
 21
16.9669054324202
 31
0.0
  0
LINE
  5
741
330
1A
100
AcDbEntity
  8
ZUWAKU
100
AcDbLine
 10
29.84221218621849
 20
22.72499940058717
 30
0.0
 11
29.84221218621849
 21
7.674999400587175
 31
0.0
  0
LINE
  5
742
330
1A
100
AcDbEntity
  8
ZUWAKU
100
AcDbLine
 10
32.64221218621855
 20
17.12499940058718
 30
0.0
 11
32.64221218621855
 21
22.72499940058717
 31
0.0
  0
LINE
  5
743
330
1A
100
AcDbEntity
  8
ZUWAKU
100
AcDbLine
 10
57.84221218621849
 20
10.99999940058717
 30
0.0
 11
57.84221218621849
 21
22.72499940058717
 31
0.0
  0
LINE
  5
744
330
1A
100
AcDbEntity
  8
ZUWAKU
100
AcDbLine
 10
55.04221218621854
 20
22.72499940058717
 30
0.0
 11
55.04221218621854
 21
9.949999400587174
 31
0.0
  0
LINE
  5
745
330
1A
100
AcDbEntity
  8
ZUWAKU
100
AcDbLine
 10
43.49221218621846
 20
7.674999400587175
 30
0.0
 11
43.49221218621846
 21
22.72499940058717
 31
0.0
  0
LINE
  5
746
330
1A
100
AcDbEntity
  8
ZUWAKU
100
AcDbLine
 10
40.69221218621851
 20
22.72499940058717
 30
0.0
 11
40.69221218621851
 21
7.674999400587175
 31
0.0
  0
LINE
  5
747
330
1A
100
AcDbEntity
  8
ZUWAKU
100
AcDbLine
 10
37.31485866839648
 20
19.2050465941506
 30
0.0
 11
36.05010692306064
 21
15.19999940058719
 31
0.0
  0
ARC
  5
748
330
1A
100
AcDbEntity
  8
ZUWAKU
100
AcDbCircle
 10
49.79221218621853
 20
18.63479737523187
 30
0.0
 40
4.199999999999999
100
AcDbArc
 50
180.0
 51
225.0
  0
ARC
  5
749
330
1A
100
AcDbEntity
  8
ZUWAKU
100
AcDbCircle
 10
49.79221218621853
 20
18.63479737523187
 30
0.0
 40
1.399999999999999
100
AcDbArc
 50
180.0000000000016
 51
224.9999999999988
  0
LINE
  5
74A
330
1A
100
AcDbEntity
  8
ZUWAKU
100
AcDbLine
 10
66.24221218621847
 20
22.72499940058717
 30
0.0
 11
66.24221218621847
 21
7.674999400587175
 31
0.0
  0
LINE
  5
74B
330
1A
100
AcDbEntity
  8
ZUWAKU
100
AcDbLine
 10
69.04221218621853
 20
7.674999400587175
 30
0.0
 11
69.04221218621853
 21
22.72499940058717
 31
0.0
  0
LINE
  5
74C
330
1A
100
AcDbEntity
  8
ZUWAKU
100
AcDbLine
 10
61.34221218621849
 20
22.72499940058717
 30
0.0
 11
61.34221218621849
 21
10.99999940058717
 31
0.0
  0
LINE
  5
74D
330
1A
100
AcDbEntity
  8
ZUWAKU
100
AcDbLine
 10
64.14221218621856
 20
9.949999400587174
 30
0.0
 11
64.14221218621856
 21
22.72499940058717
 31
0.0
  0
LINE
  5
74E
330
1A
100
AcDbEntity
  8
ZUWAKU
100
AcDbLine
 10
79.12662957942576
 20
29.99999940058717
 30
0.0
 11
79.12662957942576
 21
0.7999994005872395
 31
0.0
  0
LINE
  5
74F
330
1A
100
AcDbEntity
  8
ZUWAKU
100
AcDbLine
 10
79.52662957942561
 20
29.99999940058717
 30
0.0
 11
79.52662957942584
 21
0.7999994005872395
 31
0.0
  0
LINE
  5
750
330
1A
100
AcDbEntity
  8
ZUWAKU
100
AcDbLine
 10
79.32662957942557
 20
29.99999940058717
 30
0.0
 11
79.3266295794258
 21
0.7999994005872395
 31
0.0
  0
LINE
  5
751
330
1A
100
AcDbEntity
  8
ZUWAKU
100
AcDbLine
 10
57.84221218621849
 20
7.149999400587176
 30
0.0
 11
61.34221218621849
 21
7.149999400587176
 31
0.0
  0
LINE
  5
752
330
1A
100
AcDbEntity
  8
ZUWAKU
100
AcDbLine
 10
60.29221218621853
 20
9.949999400587174
 30
0.0
 11
58.89221218621855
 21
9.949999400587174
 31
0.0
  0
LINE
  5
753
330
1A
100
AcDbEntity
  8
ZUWAKU
100
AcDbLine
 10
41.21721218621849
 20
7.149999400587176
 30
0.0
 11
42.96721218621849
 21
7.149999400587176
 31
0.0
  0
LINE
  5
754
330
1A
100
AcDbEntity
  8
ZUWAKU
100
AcDbLine
 10
35.67634712353435
 20
7.516905432420202
 30
0.0
 11
33.80807724890257
 21
13.43309336875414
 31
0.0
  0
ARC
  5
755
330
1A
100
AcDbEntity
  8
ZUWAKU
100
AcDbCircle
 10
33.16721218621853
 20
13.27499940058717
 30
0.0
 40
0.525
100
AcDbArc
 50
90.0
 51
180.0
  0
ARC
  5
756
330
1A
100
AcDbEntity
  8
ZUWAKU
100
AcDbCircle
 10
33.30744634970722
 20
13.27499940058717
 30
0.0
 40
0.525
100
AcDbArc
 50
17.52556837372303
 51
90.0
  0
ARC
  5
757
330
1A
100
AcDbEntity
  8
ZUWAKU
100
AcDbCircle
 10
30.36721218621846
 20
7.674999400587175
 30
0.0
 40
0.525
100
AcDbArc
 50
180.0
 51
270.0
  0
ARC
  5
758
330
1A
100
AcDbEntity
  8
ZUWAKU
100
AcDbCircle
 10
26.86721218621846
 20
9.424999400587175
 30
0.0
 40
0.525
100
AcDbArc
 50
0.0
 51
90.0
  0
ARC
  5
759
330
1A
100
AcDbEntity
  8
ZUWAKU
100
AcDbCircle
 10
26.86721218621846
 20
7.674999400587175
 30
0.0
 40
0.525
100
AcDbArc
 50
270.0
 51
0.0
  0
LINE
  5
75A
330
1A
100
AcDbEntity
  8
ZUWAKU
100
AcDbLine
 10
27.39221218621855
 20
9.424999400587175
 30
0.0
 11
27.39221218621855
 21
7.674999400587175
 31
0.0
  0
LINE
  5
75B
330
1A
100
AcDbEntity
  8
ZUWAKU
100
AcDbLine
 10
32.64221218621855
 20
7.674999400587175
 30
0.0
 11
32.64221218621855
 21
13.27499940058717
 31
0.0
  0
ARC
  5
75C
330
1A
100
AcDbEntity
  8
ZUWAKU
100
AcDbCircle
 10
32.11721218621846
 20
7.674999400587175
 30
0.0
 40
0.525
100
AcDbArc
 50
270.0
 51
0.0
  0
LINE
  5
75D
330
1A
100
AcDbEntity
  8
ZUWAKU
100
AcDbLine
 10
30.36721218621846
 20
7.149999400587176
 30
0.0
 11
32.11721218621846
 21
7.149999400587176
 31
0.0
  0
ARC
  5
75E
330
1A
100
AcDbEntity
  8
ZUWAKU
100
AcDbCircle
 10
33.16721218621853
 20
17.12499940058718
 30
0.0
 40
0.525
100
AcDbArc
 50
180.0
 51
270.0
  0
LINE
  5
75F
330
1A
100
AcDbEntity
  8
ZUWAKU
100
AcDbLine
 10
33.16721218621853
 20
13.79999940058717
 30
0.0
 11
33.30744634970722
 21
13.79999940058717
 31
0.0
  0
LINE
  5
760
330
1A
100
AcDbEntity
  8
ZUWAKU
100
AcDbLine
 10
33.30744634970722
 20
16.59999940058717
 30
0.0
 11
33.16721218621853
 21
16.59999940058717
 31
0.0
  0
ARC
  5
761
330
1A
100
AcDbEntity
  8
ZUWAKU
100
AcDbCircle
 10
33.30744634970722
 20
17.12499940058718
 30
0.0
 40
0.525
100
AcDbArc
 50
270.0
 51
342.4744316262769
  0
ARC
  5
762
330
1A
100
AcDbEntity
  8
ZUWAKU
100
AcDbCircle
 10
36.17697802272982
 20
7.674999400587175
 30
0.0
 40
0.525
100
AcDbArc
 50
197.525568373723
 51
270.0
  0
LINE
  5
763
330
1A
100
AcDbEntity
  8
ZUWAKU
100
AcDbLine
 10
38.37649830153429
 20
7.833093368754148
 30
0.0
 11
36.05010692306064
 21
15.19999940058719
 31
0.0
  0
ARC
  5
764
330
1A
100
AcDbEntity
  8
ZUWAKU
100
AcDbCircle
 10
37.87586740233882
 20
7.674999400587175
 30
0.0
 40
0.525
100
AcDbArc
 50
270.0
 51
17.52556837372303
  0
LINE
  5
765
330
1A
100
AcDbEntity
  8
ZUWAKU
100
AcDbLine
 10
36.17697802272982
 20
7.149999400587176
 30
0.0
 11
37.87586740233882
 21
7.149999400587176
 31
0.0
  0
ARC
  5
766
330
1A
100
AcDbEntity
  8
ZUWAKU
100
AcDbCircle
 10
41.21721218621849
 20
7.674999400587175
 30
0.0
 40
0.525
100
AcDbArc
 50
180.0
 51
270.0
  0
ARC
  5
767
330
1A
100
AcDbEntity
  8
ZUWAKU
100
AcDbCircle
 10
50.14221218621855
 20
9.949999400587174
 30
0.0
 40
2.799999999999999
100
AcDbArc
 50
270.0
 51
0.0
  0
ARC
  5
768
330
1A
100
AcDbEntity
  8
ZUWAKU
100
AcDbCircle
 10
57.84221218621849
 20
9.949999400587174
 30
0.0
 40
2.799999999999999
100
AcDbArc
 50
180.0
 51
270.0
  0
LINE
  5
769
330
1A
100
AcDbEntity
  8
ZUWAKU
100
AcDbLine
 10
51.71206066720208
 20
14.735049906926
 30
0.0
 11
48.80226269255729
 21
17.64484788157067
 31
0.0
  0
LINE
  5
76A
330
1A
100
AcDbEntity
  8
ZUWAKU
100
AcDbLine
 10
46.82236370523503
 20
15.66494889424835
 30
0.0
 11
49.7321616798797
 21
12.75515091960369
 31
0.0
  0
LINE
  5
76B
330
1A
100
AcDbEntity
  8
ZUWAKU
100
AcDbLine
 10
46.64221218621856
 20
7.149999400587176
 30
0.0
 11
50.14221218621855
 21
7.149999400587176
 31
0.0
  0
LINE
  5
76C
330
1A
100
AcDbEntity
  8
ZUWAKU
100
AcDbLine
 10
46.64221218621856
 20
9.949999400587174
 30
0.0
 11
49.61721218621846
 21
9.949999400587174
 31
0.0
  0
ARC
  5
76D
330
1A
100
AcDbEntity
  8
ZUWAKU
100
AcDbCircle
 10
46.64221218621856
 20
9.424999400587175
 30
0.0
 40
0.525
100
AcDbArc
 50
90.0
 51
180.0
  0
ARC
  5
76E
330
1A
100
AcDbEntity
  8
ZUWAKU
100
AcDbCircle
 10
42.96721218621849
 20
7.674999400587175
 30
0.0
 40
0.525
100
AcDbArc
 50
270.0
 51
0.0
  0
ARC
  5
76F
330
1A
100
AcDbEntity
  8
ZUWAKU
100
AcDbCircle
 10
46.64221218621856
 20
7.674999400587175
 30
0.0
 40
0.525
100
AcDbArc
 50
180.0
 51
270.0
  0
LINE
  5
770
330
1A
100
AcDbEntity
  8
ZUWAKU
100
AcDbLine
 10
46.11721218621847
 20
7.674999400587175
 30
0.0
 11
46.11721218621847
 21
9.424999400587175
 31
0.0
  0
ARC
  5
771
330
1A
100
AcDbEntity
  8
ZUWAKU
100
AcDbCircle
 10
49.61721218621846
 20
10.47499940058717
 30
0.0
 40
0.525
100
AcDbArc
 50
270.0
 51
0.0
  0
ARC
  5
772
330
1A
100
AcDbEntity
  8
ZUWAKU
100
AcDbCircle
 10
48.74221218621847
 20
11.76520142594252
 30
0.0
 40
1.399999999999999
100
AcDbArc
 50
0.0
 51
45.0
  0
LINE
  5
773
330
1A
100
AcDbEntity
  8
ZUWAKU
100
AcDbLine
 10
50.14221218621855
 20
10.47499940058717
 30
0.0
 11
50.14221218621855
 21
11.76520142594252
 31
0.0
  0
ARC
  5
774
330
1A
100
AcDbEntity
  8
ZUWAKU
100
AcDbCircle
 10
58.89221218621855
 20
10.99999940058717
 30
0.0
 40
1.049999999999999
100
AcDbArc
 50
180.0
 51
270.0
  0
ARC
  5
775
330
1A
100
AcDbEntity
  8
ZUWAKU
100
AcDbCircle
 10
48.74221218621847
 20
11.76520142594247
 30
0.0
 40
4.199999999999999
100
AcDbArc
 50
0.0
 51
45.0
  0
LINE
  5
776
330
1A
100
AcDbEntity
  8
ZUWAKU
100
AcDbLine
 10
52.94221218621851
 20
9.949999400587174
 30
0.0
 11
52.94221218621851
 21
11.76520142594252
 31
0.0
  0
ARC
  5
777
330
1A
100
AcDbEntity
  8
ZUWAKU
100
AcDbCircle
 10
61.34221218621849
 20
9.949999400587174
 30
0.0
 40
2.799999999999999
100
AcDbArc
 50
270.0
 51
0.0
  0
LINE
  5
778
330
1A
100
AcDbEntity
  8
ZUWAKU
100
AcDbLine
 10
66.76721218621856
 20
7.149999400587176
 30
0.0
 11
68.51721218621856
 21
7.149999400587176
 31
0.0
  0
ARC
  5
779
330
1A
100
AcDbEntity
  8
ZUWAKU
100
AcDbCircle
 10
60.29221218621853
 20
10.99999940058717
 30
0.0
 40
1.049999999999999
100
AcDbArc
 50
270.0
 51
0.0
  0
ARC
  5
77A
330
1A
100
AcDbEntity
  8
ZUWAKU
100
AcDbCircle
 10
66.76721218621856
 20
7.674999400587175
 30
0.0
 40
0.525
100
AcDbArc
 50
180.0
 51
270.0
  0
ARC
  5
77B
330
1A
100
AcDbEntity
  8
ZUWAKU
100
AcDbCircle
 10
68.51721218621856
 20
7.674999400587175
 30
0.0
 40
0.525
100
AcDbArc
 50
270.0
 51
0.0
  0
LINE
  5
77C
330
1A
100
AcDbEntity
  8
ZUWAKU
100
AcDbLine
 10
42.96721218621849
 20
23.24999940058718
 30
0.0
 11
41.21721218621849
 21
23.24999940058718
 31
0.0
  0
LINE
  5
77D
330
1A
100
AcDbEntity
  8
ZUWAKU
100
AcDbLine
 10
27.39221218621855
 20
22.72499940058717
 30
0.0
 11
27.39221218621855
 21
20.97499940058717
 31
0.0
  0
ARC
  5
77E
330
1A
100
AcDbEntity
  8
ZUWAKU
100
AcDbCircle
 10
26.86721218621846
 20
20.97499940058717
 30
0.0
 40
0.525
100
AcDbArc
 50
270.0
 51
0.0
  0
ARC
  5
77F
330
1A
100
AcDbEntity
  8
ZUWAKU
100
AcDbCircle
 10
30.36721218621846
 20
22.72499940058717
 30
0.0
 40
0.525
100
AcDbArc
 50
90.0
 51
180.0
  0
ARC
  5
780
330
1A
100
AcDbEntity
  8
ZUWAKU
100
AcDbCircle
 10
26.86721218621846
 20
22.72499940058717
 30
0.0
 40
0.525
100
AcDbArc
 50
0.0
 51
90.0
  0
LINE
  5
781
330
1A
100
AcDbEntity
  8
ZUWAKU
100
AcDbLine
 10
32.11721218621846
 20
23.24999940058718
 30
0.0
 11
30.36721218621846
 21
23.24999940058718
 31
0.0
  0
ARC
  5
782
330
1A
100
AcDbEntity
  8
ZUWAKU
100
AcDbCircle
 10
32.11721218621846
 20
22.72499940058717
 30
0.0
 40
0.525
100
AcDbArc
 50
0.0
 51
90.0
  0
ARC
  5
783
330
1A
100
AcDbEntity
  8
ZUWAKU
100
AcDbCircle
 10
36.17697802272982
 20
22.72499940058717
 30
0.0
 40
0.525
100
AcDbArc
 50
90.0
 51
162.4744316262769
  0
LINE
  5
784
330
1A
100
AcDbEntity
  8
ZUWAKU
100
AcDbLine
 10
38.37649830153429
 20
22.5669054324202
 30
0.0
 11
37.31485866839648
 21
19.2050465941506
 31
0.0
  0
ARC
  5
785
330
1A
100
AcDbEntity
  8
ZUWAKU
100
AcDbCircle
 10
37.87586740233882
 20
22.72499940058717
 30
0.0
 40
0.525
100
AcDbArc
 50
342.4744316262769
 51
90.0
  0
LINE
  5
786
330
1A
100
AcDbEntity
  8
ZUWAKU
100
AcDbLine
 10
36.17697802272982
 20
23.24999940058718
 30
0.0
 11
37.87586740233882
 21
23.24999940058718
 31
0.0
  0
ARC
  5
787
330
1A
100
AcDbEntity
  8
ZUWAKU
100
AcDbCircle
 10
41.21721218621849
 20
22.72499940058717
 30
0.0
 40
0.525
100
AcDbArc
 50
90.0
 51
180.0
  0
LINE
  5
788
330
1A
100
AcDbEntity
  8
ZUWAKU
100
AcDbLine
 10
51.89221218621856
 20
20.44999940058717
 30
0.0
 11
48.91721218621853
 21
20.44999940058717
 31
0.0
  0
LINE
  5
789
330
1A
100
AcDbEntity
  8
ZUWAKU
100
AcDbLine
 10
48.39221218621855
 20
23.24999940058718
 30
0.0
 11
51.89221218621856
 21
23.24999940058718
 31
0.0
  0
ARC
  5
78A
330
1A
100
AcDbEntity
  8
ZUWAKU
100
AcDbCircle
 10
48.39221218621855
 20
20.44999940058717
 30
0.0
 40
2.799999999999999
100
AcDbArc
 50
90.0
 51
180.0
  0
LINE
  5
78B
330
1A
100
AcDbEntity
  8
ZUWAKU
100
AcDbLine
 10
45.59221218621849
 20
20.44999940058717
 30
0.0
 11
45.59221218621849
 21
18.63479737523183
 31
0.0
  0
ARC
  5
78C
330
1A
100
AcDbEntity
  8
ZUWAKU
100
AcDbCircle
 10
42.96721218621849
 20
22.72499940058717
 30
0.0
 40
0.525
100
AcDbArc
 50
0.0
 51
90.0
  0
LINE
  5
78D
330
1A
100
AcDbEntity
  8
ZUWAKU
100
AcDbLine
 10
48.39221218621855
 20
19.92499940058717
 30
0.0
 11
48.39221218621855
 21
18.63479737523183
 31
0.0
  0
ARC
  5
78E
330
1A
100
AcDbEntity
  8
ZUWAKU
100
AcDbCircle
 10
48.91721218621853
 20
19.92499940058717
 30
0.0
 40
0.525
100
AcDbArc
 50
90.0
 51
180.0
  0
LINE
  5
78F
330
1A
100
AcDbEntity
  8
ZUWAKU
100
AcDbLine
 10
52.41721218621854
 20
22.72499940058717
 30
0.0
 11
52.41721218621854
 21
20.97499940058717
 31
0.0
  0
ARC
  5
790
330
1A
100
AcDbEntity
  8
ZUWAKU
100
AcDbCircle
 10
51.89221218621856
 20
20.97499940058717
 30
0.0
 40
0.525
100
AcDbArc
 50
270.0
 51
0.0
  0
ARC
  5
791
330
1A
100
AcDbEntity
  8
ZUWAKU
100
AcDbCircle
 10
51.89221218621856
 20
22.72499940058717
 30
0.0
 40
0.525
100
AcDbArc
 50
0.0
 51
90.0
  0
LINE
  5
792
330
1A
100
AcDbEntity
  8
ZUWAKU
100
AcDbLine
 10
57.31721218621851
 20
23.24999940058718
 30
0.0
 11
55.56721218621851
 21
23.24999940058718
 31
0.0
  0
ARC
  5
793
330
1A
100
AcDbEntity
  8
ZUWAKU
100
AcDbCircle
 10
55.56721218621851
 20
22.72499940058717
 30
0.0
 40
0.525
100
AcDbArc
 50
90.0
 51
180.0
  0
ARC
  5
794
330
1A
100
AcDbEntity
  8
ZUWAKU
100
AcDbCircle
 10
57.31721218621851
 20
22.72499940058717
 30
0.0
 40
0.525
100
AcDbArc
 50
0.0
 51
90.0
  0
LINE
  5
795
330
1A
100
AcDbEntity
  8
ZUWAKU
100
AcDbLine
 10
68.51721218621856
 20
23.24999940058718
 30
0.0
 11
66.76721218621856
 21
23.24999940058718
 31
0.0
  0
ARC
  5
796
330
1A
100
AcDbEntity
  8
ZUWAKU
100
AcDbCircle
 10
61.86721218621847
 20
22.72499940058717
 30
0.0
 40
0.525
100
AcDbArc
 50
90.0
 51
180.0
  0
LINE
  5
797
330
1A
100
AcDbEntity
  8
ZUWAKU
100
AcDbLine
 10
63.61721218621847
 20
23.24999940058718
 30
0.0
 11
61.86721218621847
 21
23.24999940058718
 31
0.0
  0
ARC
  5
798
330
1A
100
AcDbEntity
  8
ZUWAKU
100
AcDbCircle
 10
63.61721218621847
 20
22.72499940058717
 30
0.0
 40
0.525
100
AcDbArc
 50
0.0
 51
90.0
  0
ARC
  5
799
330
1A
100
AcDbEntity
  8
ZUWAKU
100
AcDbCircle
 10
66.76721218621856
 20
22.72499940058717
 30
0.0
 40
0.525
100
AcDbArc
 50
90.0
 51
180.0
  0
ARC
  5
79A
330
1A
100
AcDbEntity
  8
ZUWAKU
100
AcDbCircle
 10
68.51721218621856
 20
22.72499940058717
 30
0.0
 40
0.525
100
AcDbArc
 50
0.0
 51
90.0
  0
TEXT
  5
79B
330
1A
100
AcDbEntity
  8
MOJI
100
AcDbText
 10
239.8272027122884
 20
3.204920457994592
 30
0.0
 40
5.599999999999999
  1
ＲＶ１０５－Ｙ６０・ＵＴ６０
 41
0.9
  7
ｽﾀｲﾙ1
100
AcDbText
  0
TEXT
  5
79C
330
1A
100
AcDbEntity
  8
MOJI
100
AcDbText
 10
239.8272027122884
 20
18.00492045799455
 30
0.0
 40
5.599999999999999
  1
じょうご（角）
 41
0.9
  7
ｽﾀｲﾙ1
100
AcDbText
  0
LINE
  5
79D
330
1A
100
AcDbEntity
  8
ZUWAKU
100
AcDbLine
 10
208.4466013215051
 20
29.99999940058717
 30
0.0
 11
208.4466013215053
 21
0.7999994005872395
 31
0.0
  0
LINE
  5
79E
330
1A
100
AcDbEntity
  8
ZUWAKU
100
AcDbLine
 10
208.6466013215051
 20
29.99999940058717
 30
0.0
 11
208.6466013215054
 21
0.7999994005872395
 31
0.0
  0
LINE
  5
79F
330
1A
100
AcDbEntity
  8
ZUWAKU
100
AcDbLine
 10
208.2466013215053
 20
29.99999940058717
 30
0.0
 11
208.2466013215053
 21
0.7999994005872395
 31
0.0
  0
TEXT
  5
7A0
330
1A
100
AcDbEntity
  8
ZUWAKU
100
AcDbText
 10
209.7240463437149
 20
9.655355938972789
 30
0.0
 40
4.0
  1
サイズ
 41
0.9
  7
ｽﾀｲﾙ1
100
AcDbText
  0
TEXT
  5
7A1
330
1A
100
AcDbEntity
  8
ZUWAKU
100
AcDbText
 10
209.7240463437147
 20
24.05535593897275
 30
0.0
 40
4.0
  1
品名
 41
0.9
  7
ｽﾀｲﾙ1
100
AcDbText
  0
TEXT
  5
7A2
330
1A
100
AcDbEntity
  8
SUNPOU
100
AcDbText
 10
661.9071645163821
 20
46.25388893332069
 30
0.0
 40
6.0
  1
※a　のきといの縁切り間隔寸法を示す
100
AcDbText
  0
TEXT
  5
7A3
330
1A
100
AcDbEntity
  8
SUNPOU
100
AcDbText
 10
661.9071645163821
 20
36.65388893332067
 30
0.0
 40
6.0
  1
※b　エルボの差込み寸法を示す
100
AcDbText
  0
TEXT
  5
7A4
330
1A
100
AcDbEntity
  8
ZUWAKU
100
AcDbText
 10
658.2039377187397
 20
18.00492045799455
 30
0.0
 40
5.599999999999999
  1
　　．　　．　　
 41
0.9
  7
ｽﾀｲﾙ1
100
AcDbText
  0
LINE
  5
7A5
330
1A
100
AcDbEntity
  8
ZUWAKU
100
AcDbLine
 10
648.8172025416416
 20
15.5999994005872
 30
0.0
 11
697.2490105799786
 21
15.5999994005872
 31
0.0
  0
LINE
  5
7A6
330
1A
100
AcDbEntity
  8
ZUWAKU
100
AcDbLine
 10
648.8172025416417
 20
15.3999994005872
 30
0.0
 11
697.2490105799786
 21
15.3999994005872
 31
0.0
  0
LINE
  5
7A7
330
1A
100
AcDbEntity
  8
ZUWAKU
100
AcDbLine
 10
648.8172025416416
 20
15.1999994005872
 30
0.0
 11
697.2490105799786
 21
15.1999994005872
 31
0.0
  0
LINE
  5
7A8
330
1A
100
AcDbEntity
  8
ZUWAKU
100
AcDbLine
 10
505.1991795295783
 20
15.5999994005872
 30
0.0
 11
552.5269557975498
 21
15.5999994005872
 31
0.0
  0
LINE
  5
7A9
330
1A
100
AcDbEntity
  8
ZUWAKU
100
AcDbLine
 10
505.1991795295783
 20
15.3999994005872
 30
0.0
 11
552.5269557975498
 21
15.3999994005872
 31
0.0
  0
LINE
  5
7AA
330
1A
100
AcDbEntity
  8
ZUWAKU
100
AcDbLine
 10
505.1991795295783
 20
15.1999994005872
 30
0.0
 11
552.5269557975498
 21
15.1999994005872
 31
0.0
  0
LINE
  5
7AB
330
1A
100
AcDbEntity
  8
ZUWAKU
100
AcDbLine
 10
504.7991795295784
 20
29.99999940058717
 30
0.0
 11
504.7991795295784
 21
0.7999994005872395
 31
0.0
  0
LINE
  5
7AC
330
1A
100
AcDbEntity
  8
ZUWAKU
100
AcDbLine
 10
505.1991795295783
 20
29.99999940058717
 30
0.0
 11
505.1991795295784
 21
0.7999994005872395
 31
0.0
  0
LINE
  5
7AD
330
1A
100
AcDbEntity
  8
ZUWAKU
100
AcDbLine
 10
504.9991795295782
 20
29.99999940058717
 30
0.0
 11
504.9991795295784
 21
0.7999994005872395
 31
0.0
  0
TEXT
  5
7AE
330
1A
100
AcDbEntity
  8
MOJI
100
AcDbText
 10
528.0409080037502
 20
18.00492045799455
 30
0.0
 40
5.599999999999999
  1
Ａ３
 41
0.9
  7
ｽﾀｲﾙ1
100
AcDbText
  0
LINE
  5
7AF
330
1A
100
AcDbEntity
  8
ZUWAKU
100
AcDbLine
 10
447.4243640024288
 20
29.99999940058717
 30
0.0
 11
447.4243640024288
 21
0.7999994005872395
 31
0.0
  0
LINE
  5
7B0
330
1A
100
AcDbEntity
  8
ZUWAKU
100
AcDbLine
 10
447.8243640024286
 20
29.99999940058717
 30
0.0
 11
447.8243640024288
 21
0.7999994005872395
 31
0.0
  0
LINE
  5
7B1
330
1A
100
AcDbEntity
  8
ZUWAKU
100
AcDbLine
 10
447.6243640024286
 20
29.99999940058717
 30
0.0
 11
447.6243640024287
 21
0.7999994005872395
 31
0.0
  0
TEXT
  5
7B2
330
1A
100
AcDbEntity
  8
MOJI
100
AcDbText
 10
464.5946260346764
 20
11.94261712224715
 30
0.0
 40
5.599999999999999
  1
ＧＲ３１□
 41
0.9
  7
ｽﾀｲﾙ1
100
AcDbText
  0
TEXT
  5
7B3
330
1A
100
AcDbEntity
  8
ZUWAKU
100
AcDbText
 10
462.6937616869445
 20
2.614070311726663
 30
0.0
 40
3.0
  1
□には色品番が入ります
 41
0.9
  7
ｽﾀｲﾙ1
100
AcDbText
  0
TEXT
  5
7B4
330
1A
100
AcDbEntity
  8
ZUWAKU
100
AcDbText
 10
506.6766245517881
 20
9.655355938972789
 30
0.0
 40
4.0
  1
縮尺
 41
0.9
  7
ｽﾀｲﾙ1
100
AcDbText
  0
TEXT
  5
7B5
330
1A
100
AcDbEntity
  8
MOJI
100
AcDbText
 10
528.0409080037502
 20
3.204920457994592
 30
0.0
 40
5.599999999999999
  1
１/２
 41
0.9
  7
ｽﾀｲﾙ1
100
AcDbText
  0
TEXT
  5
7B6
330
1A
100
AcDbEntity
  8
ZUWAKU
100
AcDbText
 10
449.3018090246382
 20
24.05535593897275
 30
0.0
 40
4.0
  1
品番
 41
0.9
  7
ｽﾀｲﾙ1
100
AcDbText
  0
TEXT
  5
7B7
330
1A
100
AcDbEntity
  8
ZUWAKU
100
AcDbText
 10
506.6766245517879
 20
24.05535593897275
 30
0.0
 40
4.0
  1
用紙
 41
0.9
  7
ｽﾀｲﾙ1
100
AcDbText
  0
LINE
  5
7B8
330
1A
100
AcDbEntity
  8
ZUWAKU
100
AcDbLine
 10
552.5269557975498
 20
29.99999940058717
 30
0.0
 11
552.5269557975498
 21
0.7999994005872395
 31
0.0
  0
LINE
  5
7B9
330
1A
100
AcDbEntity
  8
ZUWAKU
100
AcDbLine
 10
552.9269557975497
 20
29.99999940058717
 30
0.0
 11
552.9269557975498
 21
0.7999994005872395
 31
0.0
  0
LINE
  5
7BA
330
1A
100
AcDbEntity
  8
ZUWAKU
100
AcDbLine
 10
552.7269557975496
 20
29.99999940058717
 30
0.0
 11
552.7269557975499
 21
0.7999994005872395
 31
0.0
  0
LINE
  5
7BB
330
1A
100
AcDbEntity
  8
ZUWAKU
100
AcDbLine
 10
648.4172025416419
 20
29.99999940058717
 30
0.0
 11
648.4172025416419
 21
0.7999994005872395
 31
0.0
  0
LINE
  5
7BC
330
1A
100
AcDbEntity
  8
ZUWAKU
100
AcDbLine
 10
648.8172025416417
 20
29.99999940058717
 30
0.0
 11
648.817202541642
 21
0.7999994005872395
 31
0.0
  0
LINE
  5
7BD
330
1A
100
AcDbEntity
  8
ZUWAKU
100
AcDbLine
 10
648.6172025416417
 20
29.99999940058717
 30
0.0
 11
648.6172025416419
 21
0.7999994005872395
 31
0.0
  0
TEXT
  5
7BE
330
1A
100
AcDbEntity
  8
ZUWAKU
100
AcDbText
 10
650.2946475638514
 20
24.05535593897275
 30
0.0
 40
4.0
  1
DATE
 41
0.9
  7
ｽﾀｲﾙ1
100
AcDbText
  0
TEXT
  5
7BF
330
1A
100
AcDbEntity
  8
ZUWAKU
100
AcDbText
 10
708.5280842236811
 20
17.55383873627397
 30
0.0
 40
6.0
  1
積水化学工業株式会社
 41
0.9
  7
ｽﾀｲﾙ1
100
AcDbText
  0
LINE
  5
7C0
330
1A
100
AcDbEntity
  8
ZUWAKU
100
AcDbLine
 10
697.8490105799785
 20
29.99999940058717
 30
0.0
 11
697.8490105799787
 21
0.7999994005872395
 31
0.0
  0
LINE
  5
7C1
330
1A
100
AcDbEntity
  8
ZUWAKU
100
AcDbLine
 10
697.6490105799785
 20
29.99999940058717
 30
0.0
 11
697.6490105799787
 21
0.7999994005872395
 31
0.0
  0
LINE
  5
7C2
330
1A
100
AcDbEntity
  8
ZUWAKU
100
AcDbLine
 10
697.4490105799787
 20
29.99999940058717
 30
0.0
 11
697.4490105799787
 21
0.7999994005872395
 31
0.0
  0
LINE
  5
7C3
330
1A
100
AcDbEntity
  8
ZUWAKU
100
AcDbLine
 10
697.2490105799786
 20
29.99999940058717
 30
0.0
 11
697.2490105799786
 21
0.7999994005872395
 31
0.0
  0
TEXT
  5
7C4
330
1A
100
AcDbEntity
  8
ZUWAKU
100
AcDbText
 10
708.5280842236811
 20
6.648839714441237
 30
0.0
 40
6.0
  1
建材事業部
 41
0.9
  7
ｽﾀｲﾙ1
100
AcDbText
  0
VIEWPORT
  5
22
330
17
100
AcDbEntity
 67
     1
  8
0
100
AcDbViewport
 10
313.6808219178082
 20
148.5
 30
0.0
 40
627.3616438356165
 41
297.0
 68
     2
 69
     1
1001
ACAD
1000
MVIEW
1002
{
1070
    16
1010
0.0
1020
0.0
1030
0.0
1010
0.0
1020
0.0
1030
1.0
1040
0.0
1040
297.0
1040
313.6808219178082
1040
148.5
1040
50.0
1040
0.0
1040
0.0
1070
     0
1070
   100
1070
     1
1070
     0
1070
     0
1070
     0
1070
     0
1070
     0
1040
0.0
1040
0.0
1040
0.0
1040
1.0
1040
1.0
1040
10.0
1040
10.0
1070
     0
1002
{
1002
}
1002
}
  0
VIEWPORT
  5
64
330
17
100
AcDbEntity
 67
     1
  8
VIEWPORT
100
AcDbViewport
 10
210.0
 20
148.5
 30
0.0
 40
420.0
 41
297.0
 68
     1
 69
     2
1001
ACAD
1000
MVIEW
1002
{
1070
    16
1010
0.0
1020
0.0
1030
0.0
1010
0.0
1020
0.0
1030
1.0
1040
0.0
1040
605.8799999999998
1040
420.0
1040
297.0
1040
50.0
1040
0.0
1040
0.0
1070
     0
1070
   100
1070
     1
1070
     0
1070
     0
1070
     0
1070
     0
1070
     0
1040
0.0
1040
0.0
1040
0.0
1040
10.0
1040
10.0
1040
0.0
1040
0.0
1070
     0
1002
{
1002
}
1002
}
  0
ENDSEC
  0
SECTION
  2
OBJECTS
  0
DICTIONARY
  5
C
330
0
100
AcDbDictionary
  3
ACAD_GROUP
350
D
  3
ACAD_LAYOUT
350
613
  3
ACAD_MLINESTYLE
350
E
  3
ACAD_PLOTSETTINGS
350
614
  3
ACAD_PLOTSTYLENAME
350
611
  3
ACDBHEADERROUNDTRIPXREC
350
7CC
  0
DICTIONARY
  5
642
330
1A
100
AcDbDictionary
280
     1
  3
ACAD_LAYOUTSELFREF
360
7EE
  0
DICTIONARY
  5
640
330
17
100
AcDbDictionary
280
     1
  3
ACAD_LAYOUTSELFREF
360
7ED
  0
DICTIONARY
  5
D
102
{ACAD_REACTORS
330
C
102
}
330
C
100
AcDbDictionary
  0
DICTIONARY
  5
613
102
{ACAD_REACTORS
330
C
102
}
330
C
100
AcDbDictionary
  0
DICTIONARY
  5
E
102
{ACAD_REACTORS
330
C
102
}
330
C
100
AcDbDictionary
  3
STANDARD
350
13
  0
DICTIONARY
  5
614
102
{ACAD_REACTORS
330
C
102
}
330
C
100
AcDbDictionary
  0
ACDBDICTIONARYWDFLT
  5
611
102
{ACAD_REACTORS
330
C
102
}
330
C
100
AcDbDictionary
281
     1
  3
Normal
350
612
100
AcDbDictionaryWithDefault
340
612
1001
ACAD
1000
TREAT_AS_HARD
1070
     0
  0
DICTIONARY
  5
7CC
102
{ACAD_REACTORS
330
C
102
}
330
C
100
AcDbDictionary
  3
TSTACKALIGN
350
7CD
  3
TSTACKSIZE
350
7CE
  3
HYPERLINKBASE
350
7CF
  3
STYLESHEET
350
7D0
  3
LAYOUTDICT
350
7D1
  3
PLOTSETDICT
350
7D2
  3
PLOTSTYLNAMDICT
350
7D3
  3
LWETCUNION
350
7D4
  3
INSUNITS
350
7D5
  3
CEPSNTYPE
350
7D6
  3
FINGERPRINTGUID
350
7D7
  3
VERSIONGUID
350
7D8
  3
PSVPSCALE
350
7D9
  3
DIMSTYLEDATA
350
7DA
  3
PUCSORTHOREF
350
7DB
  3
PUCSORTHOVIEW
350
7DC
  3
PUCSBASE
350
7DD
  3
PUCSORGTOP
350
7DE
  3
PUCSORGBOTTOM
350
7DF
  3
PUCSORGLEFT
350
7E0
  3
PUCSORGRIGHT
350
7E1
  3
PUCSORGFRONT
350
7E2
  3
PUCSORGBACK
350
7E3
  3
UCSORTHOREF
350
7E4
  3
UCSORTHOVIEW
350
7E5
  3
UCSBASE
350
7E6
  3
UCSORGTOP
350
7E7
  3
UCSORGBOTTOM
350
7E8
  3
UCSORGLEFT
350
7E9
  3
UCSORGRIGHT
350
7EA
  3
UCSORGFRONT
350
7EB
  3
UCSORGBACK
350
7EC
  0
XRECORD
  5
7EE
102
{ACAD_REACTORS
330
642
102
}
330
642
100
AcDbXrecord
340
1A
  0
XRECORD
  5
7ED
102
{ACAD_REACTORS
330
640
102
}
330
640
100
AcDbXrecord
340
17
  0
MLINESTYLE
  5
13
102
{ACAD_REACTORS
330
E
102
}
330
E
100
AcDbMlineStyle
  2
STANDARD
 70
     0
  3

 62
     0
 51
90.0
 52
90.0
 71
     2
 49
0.5
 62
   256
  6
BYLAYER
 49
-0.5
 62
   256
  6
BYLAYER
  0
ACDBPLACEHOLDER
  5
612
102
{ACAD_REACTORS
330
611
102
}
330
611
100
AcDbPlaceHolder
280
     0
  0
XRECORD
  5
7CD
102
{ACAD_REACTORS
330
7CC
102
}
330
7CC
100
AcDbXrecord
 90
        1
  0
XRECORD
  5
7CE
102
{ACAD_REACTORS
330
7CC
102
}
330
7CC
100
AcDbXrecord
 90
       70
  0
XRECORD
  5
7CF
102
{ACAD_REACTORS
330
7CC
102
}
330
7CC
100
AcDbXrecord
  1

  0
XRECORD
  5
7D0
102
{ACAD_REACTORS
330
7CC
102
}
330
7CC
100
AcDbXrecord
  1
systemprinter.ctb
  0
XRECORD
  5
7D1
102
{ACAD_REACTORS
330
7CC
102
}
330
7CC
100
AcDbXrecord
340
613
  0
XRECORD
  5
7D2
102
{ACAD_REACTORS
330
7CC
102
}
330
7CC
100
AcDbXrecord
340
614
  0
XRECORD
  5
7D3
102
{ACAD_REACTORS
330
7CC
102
}
330
7CC
100
AcDbXrecord
340
611
  0
XRECORD
  5
7D4
102
{ACAD_REACTORS
330
7CC
102
}
330
7CC
100
AcDbXrecord
 90
    10781
  0
XRECORD
  5
7D5
102
{ACAD_REACTORS
330
7CC
102
}
330
7CC
100
AcDbXrecord
 90
        0
  0
XRECORD
  5
7D6
102
{ACAD_REACTORS
330
7CC
102
}
330
7CC
100
AcDbXrecord
 90
        0
  0
XRECORD
  5
7D7
102
{ACAD_REACTORS
330
7CC
102
}
330
7CC
100
AcDbXrecord
  1
{F1B02081-0269-4486-8173-71937406858B}
  0
XRECORD
  5
7D8
102
{ACAD_REACTORS
330
7CC
102
}
330
7CC
100
AcDbXrecord
  1
{C524D55B-95A5-4027-B4C5-8F80A5198C74}
  0
XRECORD
  5
7D9
102
{ACAD_REACTORS
330
7CC
102
}
330
7CC
100
AcDbXrecord
 40
0.0
  0
XRECORD
  5
7DA
102
{ACAD_REACTORS
330
7CC
102
}
330
7CC
100
AcDbXrecord
1000
DSTYLE
1002
{
1070
   341
340
6D
1070
   343
340
6D
1070
   344
340
6D
1070
   371
 70
    -1
1070
   372
 70
    -1
1002
}
  0
XRECORD
  5
7DB
102
{ACAD_REACTORS
330
7CC
102
}
330
7CC
100
AcDbXrecord
340
0
  0
XRECORD
  5
7DC
102
{ACAD_REACTORS
330
7CC
102
}
330
7CC
100
AcDbXrecord
 70
     0
  0
XRECORD
  5
7DD
102
{ACAD_REACTORS
330
7CC
102
}
330
7CC
100
AcDbXrecord
340
0
  0
XRECORD
  5
7DE
102
{ACAD_REACTORS
330
7CC
102
}
330
7CC
100
AcDbXrecord
 10
0.0
 20
0.0
 30
0.0
  0
XRECORD
  5
7DF
102
{ACAD_REACTORS
330
7CC
102
}
330
7CC
100
AcDbXrecord
 10
0.0
 20
0.0
 30
0.0
  0
XRECORD
  5
7E0
102
{ACAD_REACTORS
330
7CC
102
}
330
7CC
100
AcDbXrecord
 10
0.0
 20
0.0
 30
0.0
  0
XRECORD
  5
7E1
102
{ACAD_REACTORS
330
7CC
102
}
330
7CC
100
AcDbXrecord
 10
0.0
 20
0.0
 30
0.0
  0
XRECORD
  5
7E2
102
{ACAD_REACTORS
330
7CC
102
}
330
7CC
100
AcDbXrecord
 10
0.0
 20
0.0
 30
0.0
  0
XRECORD
  5
7E3
102
{ACAD_REACTORS
330
7CC
102
}
330
7CC
100
AcDbXrecord
 10
0.0
 20
0.0
 30
0.0
  0
XRECORD
  5
7E4
102
{ACAD_REACTORS
330
7CC
102
}
330
7CC
100
AcDbXrecord
340
0
  0
XRECORD
  5
7E5
102
{ACAD_REACTORS
330
7CC
102
}
330
7CC
100
AcDbXrecord
 70
     0
  0
XRECORD
  5
7E6
102
{ACAD_REACTORS
330
7CC
102
}
330
7CC
100
AcDbXrecord
340
0
  0
XRECORD
  5
7E7
102
{ACAD_REACTORS
330
7CC
102
}
330
7CC
100
AcDbXrecord
 10
0.0
 20
0.0
 30
0.0
  0
XRECORD
  5
7E8
102
{ACAD_REACTORS
330
7CC
102
}
330
7CC
100
AcDbXrecord
 10
0.0
 20
0.0
 30
0.0
  0
XRECORD
  5
7E9
102
{ACAD_REACTORS
330
7CC
102
}
330
7CC
100
AcDbXrecord
 10
0.0
 20
0.0
 30
0.0
  0
XRECORD
  5
7EA
102
{ACAD_REACTORS
330
7CC
102
}
330
7CC
100
AcDbXrecord
 10
0.0
 20
0.0
 30
0.0
  0
XRECORD
  5
7EB
102
{ACAD_REACTORS
330
7CC
102
}
330
7CC
100
AcDbXrecord
 10
0.0
 20
0.0
 30
0.0
  0
XRECORD
  5
7EC
102
{ACAD_REACTORS
330
7CC
102
}
330
7CC
100
AcDbXrecord
 10
0.0
 20
0.0
 30
0.0
  0
ENDSEC
  0
EOF
