  0
SECTION
  2
HEADER
  9
$ACADVER
  1
AC1014
  9
$ACADMAINTVER
 70
     9
  9
$DWGCODEPAGE
  3
ANSI_932
  9
$INSBASE
 10
0.0
 20
0.0
 30
0.0
  9
$EXTMIN
 10
-0.0256328098773793
 20
-0.0181261901288963
 30
-0.0015258207003583
  9
$EXTMAX
 10
797.6000995626677
 20
551.6452344786116
 30
0.0000000349246037
  9
$LIMMIN
 10
0.0
 20
0.0
  9
$LIMMAX
 10
840.0
 20
594.0
  9
$ORTHOMODE
 70
     0
  9
$REGENMODE
 70
     1
  9
$FILLMODE
 70
     1
  9
$QTEXTMODE
 70
     0
  9
$MIRRTEXT
 70
     1
  9
$DRAGMODE
 70
     2
  9
$LTSCALE
 40
2.0
  9
$OSMODE
 70
    37
  9
$ATTMODE
 70
     1
  9
$TEXTSIZE
 40
5.0
  9
$TRACEWID
 40
1.0
  9
$TEXTSTYLE
  7
STANDARD
  9
$CLAYER
  8
SUNPOU
  9
$CELTYPE
  6
BYLAYER
  9
$CECOLOR
 62
   256
  9
$CELTSCALE
 40
1.0
  9
$DELOBJ
 70
     1
  9
$DISPSILH
 70
     0
  9
$DIMSCALE
 40
1.0
  9
$DIMASZ
 40
7.0
  9
$DIMEXO
 40
6.0
  9
$DIMDLI
 40
14.0
  9
$DIMRND
 40
0.0
  9
$DIMDLE
 40
0.0
  9
$DIMEXE
 40
3.0
  9
$DIMTP
 40
0.0
  9
$DIMTM
 40
0.0
  9
$DIMTXT
 40
6.0
  9
$DIMCEN
 40
150.0
  9
$DIMTSZ
 40
0.0
  9
$DIMTOL
 70
     0
  9
$DIMLIM
 70
     0
  9
$DIMTIH
 70
     0
  9
$DIMTOH
 70
     0
  9
$DIMSE1
 70
     0
  9
$DIMSE2
 70
     0
  9
$DIMTAD
 70
     3
  9
$DIMZIN
 70
     0
  9
$DIMBLK
  1

  9
$DIMASO
 70
     1
  9
$DIMSHO
 70
     1
  9
$DIMPOST
  1

  9
$DIMAPOST
  1

  9
$DIMALT
 70
     0
  9
$DIMALTD
 70
     2
  9
$DIMALTF
 40
25.4
  9
$DIMLFAC
 40
1.0
  9
$DIMTOFL
 70
     1
  9
$DIMTVP
 40
0.0
  9
$DIMTIX
 70
     0
  9
$DIMSOXD
 70
     0
  9
$DIMSAH
 70
     1
  9
$DIMBLK1
  1
OPEN
  9
$DIMBLK2
  1
OPEN
  9
$DIMSTYLE
  2
STANDARD
  9
$DIMCLRD
 70
   256
  9
$DIMCLRE
 70
   256
  9
$DIMCLRT
 70
   256
  9
$DIMTFAC
 40
1.0
  9
$DIMGAP
 40
2.0
  9
$DIMJUST
 70
     0
  9
$DIMSD1
 70
     0
  9
$DIMSD2
 70
     0
  9
$DIMTOLJ
 70
     1
  9
$DIMTZIN
 70
     0
  9
$DIMALTZ
 70
     0
  9
$DIMALTTZ
 70
     0
  9
$DIMFIT
 70
     5
  9
$DIMUPT
 70
     0
  9
$DIMUNIT
 70
     2
  9
$DIMDEC
 70
     0
  9
$DIMTDEC
 70
     0
  9
$DIMALTU
 70
     2
  9
$DIMALTTD
 70
     2
  9
$DIMTXSTY
  7
STANDARD
  9
$DIMAUNIT
 70
     0
  9
$LUNITS
 70
     2
  9
$LUPREC
 70
     4
  9
$SKETCHINC
 40
1.0
  9
$FILLETRAD
 40
20.0
  9
$AUNITS
 70
     0
  9
$AUPREC
 70
     0
  9
$MENU
  1
.
  9
$ELEVATION
 40
0.0
  9
$PELEVATION
 40
0.0
  9
$THICKNESS
 40
0.0
  9
$LIMCHECK
 70
     0
  9
$BLIPMODE
 70
     0
  9
$CHAMFERA
 40
20.0
  9
$CHAMFERB
 40
20.0
  9
$CHAMFERC
 40
40.0
  9
$CHAMFERD
 40
0.0
  9
$SKPOLY
 70
     0
  9
$TDCREATE
 40
2451023.646678588
  9
$TDUPDATE
 40
2454515.400863472
  9
$TDINDWG
 40
0.0641790741
  9
$TDUSRTIMER
 40
0.0641790741
  9
$USRTIMER
 70
     1
  9
$ANGBASE
 50
0.0
  9
$ANGDIR
 70
     0
  9
$PDMODE
 70
     0
  9
$PDSIZE
 40
0.0
  9
$PLINEWID
 40
0.0
  9
$COORDS
 70
     2
  9
$SPLFRAME
 70
     0
  9
$SPLINETYPE
 70
     6
  9
$SPLINESEGS
 70
     8
  9
$ATTDIA
 70
     0
  9
$ATTREQ
 70
     1
  9
$HANDLING
 70
 10241
  9
$HANDSEED
  5
35E9
  9
$SURFTAB1
 70
     6
  9
$SURFTAB2
 70
     6
  9
$SURFTYPE
 70
     6
  9
$SURFU
 70
     6
  9
$SURFV
 70
     6
  9
$UCSNAME
  2

  9
$UCSORG
 10
0.0
 20
0.0
 30
0.0
  9
$UCSXDIR
 10
1.0
 20
0.0
 30
0.0
  9
$UCSYDIR
 10
0.0
 20
1.0
 30
0.0
  9
$PUCSNAME
  2

  9
$PUCSORG
 10
0.0
 20
0.0
 30
0.0
  9
$PUCSXDIR
 10
1.0
 20
0.0
 30
0.0
  9
$PUCSYDIR
 10
0.0
 20
1.0
 30
0.0
  9
$USERI1
 70
     0
  9
$USERI2
 70
     0
  9
$USERI3
 70
     0
  9
$USERI4
 70
     0
  9
$USERI5
 70
     0
  9
$USERR1
 40
0.0
  9
$USERR2
 40
0.0
  9
$USERR3
 40
0.0
  9
$USERR4
 40
0.0
  9
$USERR5
 40
0.0
  9
$WORLDVIEW
 70
     1
  9
$SHADEDGE
 70
     3
  9
$SHADEDIF
 70
    70
  9
$TILEMODE
 70
     1
  9
$MAXACTVP
 70
    16
  9
$PINSBASE
 10
0.0
 20
0.0
 30
0.0
  9
$PLIMCHECK
 70
     0
  9
$PEXTMIN
 10
0.0
 20
0.0
 30
0.0
  9
$PEXTMAX
 10
420.0
 20
297.0
 30
0.0
  9
$PLIMMIN
 10
0.0
 20
0.0
  9
$PLIMMAX
 10
420.0
 20
297.0
  9
$UNITMODE
 70
     0
  9
$VISRETAIN
 70
     0
  9
$PLINEGEN
 70
     0
  9
$PSLTSCALE
 70
     1
  9
$TREEDEPTH
 70
  3020
  9
$PICKSTYLE
 70
     1
  9
$CMLSTYLE
  2
STANDARD
  9
$CMLJUST
 70
     0
  9
$CMLSCALE
 40
1.0
  9
$PROXYGRAPHICS
 70
     1
  9
$MEASUREMENT
 70
     1
  0
ENDSEC
  0
SECTION
  2
CLASSES
  0
CLASS
  1
ACDBDICTIONARYWDFLT
  2
AcDbDictionaryWithDefault
  3
AutoCAD 2000
 90
        0
280
     0
281
     0
  0
CLASS
  1
ACDBPLACEHOLDER
  2
AcDbPlaceHolder
  3
AutoCAD 2000
 90
        0
280
     0
281
     0
  0
CLASS
  1
LAYOUT
  2
AcDbLayout
  3
AutoCAD 2000
 90
        0
280
     0
281
     0
  0
CLASS
  1
LONG_TRANSACTION
  2
AcDbLongTransaction
  3
AutoCAD 2000
 90
        0
280
     0
281
     0
  0
CLASS
  1
LWPOLYLINE
  2
AcDbPolyline
  3
AutoCAD 2000
 90
        0
280
     0
281
     1
  0
CLASS
  1
HATCH
  2
AcDbHatch
  3
AutoCAD 2000
 90
        0
280
     0
281
     1
  0
CLASS
  1
XRECORD
  2
AcDbXrecord
  3
AutoCAD 2000
 90
        0
280
     0
281
     0
  0
CLASS
  1
LONG_TRANSACTION
  2
AcDbLongTransaction
  3
AutoCAD 2000
 90
        0
280
     0
281
     0
  0
CLASS
  1
LWPOLYLINE
  2
AcDbPolyline
  3
AutoCAD 2000
 90
        0
280
     0
281
     1
  0
CLASS
  1
HATCH
  2
AcDbHatch
  3
AutoCAD 2000
 90
        0
280
     0
281
     1
  0
CLASS
  1
XRECORD
  2
AcDbXrecord
  3
AutoCAD 2000
 90
        0
280
     0
281
     0
  0
CLASS
  1
LONG_TRANSACTION
  2
AcDbLongTransaction
  3
AutoCAD 2000
 90
        0
280
     0
281
     0
  0
CLASS
  1
LWPOLYLINE
  2
AcDbPolyline
  3
AutoCAD 2000
 90
        0
280
     0
281
     1
  0
CLASS
  1
HATCH
  2
AcDbHatch
  3
AutoCAD 2000
 90
        0
280
     0
281
     1
  0
CLASS
  1
XRECORD
  2
AcDbXrecord
  3
AutoCAD 2000
 90
        0
280
     0
281
     0
  0
CLASS
  1
LONG_TRANSACTION
  2
AcDbLongTransaction
  3
AutoCAD 2000
 90
        0
280
     0
281
     0
  0
CLASS
  1
LWPOLYLINE
  2
AcDbPolyline
  3
AutoCAD 2000
 90
        0
280
     0
281
     1
  0
CLASS
  1
HATCH
  2
AcDbHatch
  3
AutoCAD 2000
 90
        0
280
     0
281
     1
  0
CLASS
  1
XRECORD
  2
AcDbXrecord
  3
AutoCAD 2000
 90
        0
280
     0
281
     0
  0
CLASS
  1
LONG_TRANSACTION
  2
AcDbLongTransaction
  3
AutoCAD 2000
 90
        0
280
     0
281
     0
  0
CLASS
  1
LWPOLYLINE
  2
AcDbPolyline
  3
AutoCAD 2000
 90
        0
280
     0
281
     1
  0
CLASS
  1
HATCH
  2
AcDbHatch
  3
AutoCAD 2000
 90
        0
280
     0
281
     1
  0
CLASS
  1
XRECORD
  2
AcDbXrecord
  3
AutoCAD 2000
 90
        0
280
     0
281
     0
  0
CLASS
  1
LONG_TRANSACTION
  2
AcDbLongTransaction
  3
AutoCAD 2000
 90
        0
280
     0
281
     0
  0
CLASS
  1
LWPOLYLINE
  2
AcDbPolyline
  3
AutoCAD 2000
 90
        0
280
     0
281
     1
  0
CLASS
  1
HATCH
  2
AcDbHatch
  3
AutoCAD 2000
 90
        0
280
     0
281
     1
  0
CLASS
  1
XRECORD
  2
AcDbXrecord
  3
AutoCAD 2000
 90
        0
280
     0
281
     0
  0
CLASS
  1
LONG_TRANSACTION
  2
AcDbLongTransaction
  3
AutoCAD 2000
 90
        0
280
     0
281
     0
  0
CLASS
  1
LWPOLYLINE
  2
AcDbPolyline
  3
AutoCAD 2000
 90
        0
280
     0
281
     1
  0
CLASS
  1
HATCH
  2
AcDbHatch
  3
AutoCAD 2000
 90
        0
280
     0
281
     1
  0
CLASS
  1
XRECORD
  2
AcDbXrecord
  3
AutoCAD 2000
 90
        0
280
     0
281
     0
  0
CLASS
  1
LONG_TRANSACTION
  2
AcDbLongTransaction
  3
AutoCAD 2000
 90
        0
280
     0
281
     0
  0
CLASS
  1
LWPOLYLINE
  2
AcDbPolyline
  3
AutoCAD 2000
 90
        0
280
     0
281
     1
  0
CLASS
  1
HATCH
  2
AcDbHatch
  3
AutoCAD 2000
 90
        0
280
     0
281
     1
  0
CLASS
  1
XRECORD
  2
AcDbXrecord
  3
AutoCAD 2000
 90
        0
280
     0
281
     0
  0
ENDSEC
  0
SECTION
  2
TABLES
  0
TABLE
  2
VPORT
  5
8
330
0
100
AcDbSymbolTable
 70
     2
  0
VPORT
  5
35C5
330
8
100
AcDbSymbolTableRecord
100
AcDbViewportTableRecord
  2
*ACTIVE
 70
     0
 10
0.0
 20
0.0
 11
1.0
 21
1.0
 12
436.4762035537025
 22
304.5254385957596
 13
0.0
 23
0.0
 14
5.0
 24
5.0
 15
0.0
 25
0.0
 16
0.0
 26
0.0
 36
1.0
 17
0.0
 27
0.0
 37
0.0
 40
757.1803102037062
 41
1.570153061224489
 42
50.0
 43
0.0
 44
0.0
 50
0.0
 51
0.0
 71
     0
 72
   100
 73
     1
 74
     0
 75
     0
 76
     0
 77
     0
 78
     0
  0
ENDTAB
  0
TABLE
  2
LTYPE
  5
5
330
0
100
AcDbSymbolTable
 70
     3
  0
LTYPE
  5
14
330
5
100
AcDbSymbolTableRecord
100
AcDbLinetypeTableRecord
  2
BYBLOCK
 70
     0
  3

 72
    65
 73
     0
 40
0.0
  0
LTYPE
  5
15
330
5
100
AcDbSymbolTableRecord
100
AcDbLinetypeTableRecord
  2
BYLAYER
 70
     0
  3

 72
    65
 73
     0
 40
0.0
  0
LTYPE
  5
16
330
5
100
AcDbSymbolTableRecord
100
AcDbLinetypeTableRecord
  2
CONTINUOUS
 70
     0
  3
Solid line
 72
    65
 73
     0
 40
0.0
  0
LTYPE
  5
115
330
5
100
AcDbSymbolTableRecord
100
AcDbLinetypeTableRecord
  2
PHANTOM
 70
     0
  3
______  __  __  ______  __  __  ______  __  __ 
 72
    65
 73
     6
 40
2.5
 49
1.25
 74
     0
 49
-0.25
 74
     0
 49
0.25
 74
     0
 49
-0.25
 74
     0
 49
0.25
 74
     0
 49
-0.25
 74
     0
  0
LTYPE
  5
135
330
5
100
AcDbSymbolTableRecord
100
AcDbLinetypeTableRecord
  2
CENTER
 70
     0
  3
____ _ ____ _ ____ _ ____ _ ____ _ ____ _ ____ 
 72
    65
 73
     4
 40
2.0
 49
1.25
 74
     0
 49
-0.25
 74
     0
 49
0.25
 74
     0
 49
-0.25
 74
     0
  0
ENDTAB
  0
TABLE
  2
LAYER
  5
2
330
0
100
AcDbSymbolTable
 70
     9
  0
LAYER
  5
F
330
2
100
AcDbSymbolTableRecord
100
AcDbLayerTableRecord
  2
0
 70
     0
 62
     7
  6
CONTINUOUS
  0
LAYER
  5
62
330
2
100
AcDbSymbolTableRecord
100
AcDbLayerTableRecord
  2
VIEWPORT
 70
     0
 62
     7
  6
CONTINUOUS
  0
LAYER
  5
65
330
2
100
AcDbSymbolTableRecord
100
AcDbLayerTableRecord
  2
ZUWAKU
 70
     0
 62
     7
  6
CONTINUOUS
  0
LAYER
  5
1D7
330
2
100
AcDbSymbolTableRecord
100
AcDbLayerTableRecord
  2
SEIHIN
 70
     0
 62
     3
  6
CONTINUOUS
  0
LAYER
  5
1D9
330
2
100
AcDbSymbolTableRecord
100
AcDbLayerTableRecord
  2
SUNPOU
 70
     0
 62
     4
  6
CONTINUOUS
  0
LAYER
  5
1DA
330
2
100
AcDbSymbolTableRecord
100
AcDbLayerTableRecord
  2
DEFPOINTS
 70
     0
 62
     7
  6
CONTINUOUS
  0
LAYER
  5
11D9
330
2
100
AcDbSymbolTableRecord
100
AcDbLayerTableRecord
  2
MOJI
 70
     0
 62
     2
  6
CONTINUOUS
  0
LAYER
  5
2A53
330
2
100
AcDbSymbolTableRecord
100
AcDbLayerTableRecord
  2
NOKITOI
 70
     0
 62
     8
  6
PHANTOM
  0
LAYER
  5
3127
330
2
100
AcDbSymbolTableRecord
100
AcDbLayerTableRecord
  2
CENTER_L
 70
     0
 62
     1
  6
CENTER
  0
ENDTAB
  0
TABLE
  2
STYLE
  5
3
330
0
100
AcDbSymbolTable
 70
     2
  0
STYLE
  5
10
330
3
100
AcDbSymbolTableRecord
100
AcDbTextStyleTableRecord
  2
STANDARD
 70
     0
 40
0.0
 41
1.0
 50
0.0
 71
     0
 42
5.0
  3
TXT
  4
bigfont.shx
  0
STYLE
  5
11DA
330
3
100
AcDbSymbolTableRecord
100
AcDbTextStyleTableRecord
  2
ｽﾀｲﾙ1
 70
     0
 40
0.0
 41
1.0
 50
0.0
 71
     0
 42
2.5
  3
MS PGothic.ttf
  4

1001
ACAD
1000
MS PGothic
1071
    32818
  0
ENDTAB
  0
TABLE
  2
VIEW
  5
6
330
0
100
AcDbSymbolTable
 70
     0
  0
ENDTAB
  0
TABLE
  2
UCS
  5
7
330
0
100
AcDbSymbolTable
 70
     0
  0
ENDTAB
  0
TABLE
  2
APPID
  5
9
330
0
100
AcDbSymbolTable
 70
     1
  0
APPID
  5
11
330
9
100
AcDbSymbolTableRecord
100
AcDbRegAppTableRecord
  2
ACAD
 70
     0
  0
ENDTAB
  0
TABLE
  2
DIMSTYLE
  5
A
330
0
100
AcDbSymbolTable
 70
     1
  0
DIMSTYLE
105
1D
102
{ACAD_REACTORS
330
334B
330
334C
330
3353
330
335B
330
3364
330
3366
330
3433
330
3445
330
34D8
102
}
330
A
100
AcDbSymbolTableRecord
100
AcDbDimStyleTableRecord
  2
STANDARD
 70
     0
  3

  4

  5

  6

  7

 40
1.0
 41
0.18
 42
0.0625
 43
0.38
 44
0.18
 45
0.0
 46
0.0
 47
0.0
 48
0.0
140
0.18
141
0.09
142
0.0
143
25.4
144
1.0
145
0.0
146
1.0
147
0.09
 71
     0
 72
     0
 73
     1
 74
     1
 75
     0
 76
     0
 77
     0
 78
     0
170
     0
171
     2
172
     0
173
     0
174
     0
175
     0
176
     0
177
     0
178
     0
270
     2
271
     4
272
     4
273
     2
274
     2
340
10
275
     0
280
     0
281
     0
282
     0
283
     1
284
     0
285
     0
286
     0
287
     3
288
     0
  0
ENDTAB
  0
TABLE
  2
BLOCK_RECORD
  5
1
330
0
100
AcDbSymbolTable
 70
    10
  0
BLOCK_RECORD
  5
1A
102
{ACAD_XDICTIONARY
360
8E1
102
}
330
1
100
AcDbSymbolTableRecord
100
AcDbBlockTableRecord
  2
*MODEL_SPACE
  0
BLOCK_RECORD
  5
17
102
{ACAD_XDICTIONARY
360
8DF
102
}
330
1
100
AcDbSymbolTableRecord
100
AcDbBlockTableRecord
  2
*PAPER_SPACE
  0
BLOCK_RECORD
  5
6D
330
1
100
AcDbSymbolTableRecord
100
AcDbBlockTableRecord
  2
_OPEN
  0
BLOCK_RECORD
  5
3502
330
1
100
AcDbSymbolTableRecord
100
AcDbBlockTableRecord
  2
*D1
  0
BLOCK_RECORD
  5
350E
330
1
100
AcDbSymbolTableRecord
100
AcDbBlockTableRecord
  2
*D2
  0
BLOCK_RECORD
  5
351A
330
1
100
AcDbSymbolTableRecord
100
AcDbBlockTableRecord
  2
*D3
  0
BLOCK_RECORD
  5
3526
330
1
100
AcDbSymbolTableRecord
100
AcDbBlockTableRecord
  2
*D4
  0
BLOCK_RECORD
  5
3532
330
1
100
AcDbSymbolTableRecord
100
AcDbBlockTableRecord
  2
*D5
  0
BLOCK_RECORD
  5
353E
330
1
100
AcDbSymbolTableRecord
100
AcDbBlockTableRecord
  2
*D6
  0
BLOCK_RECORD
  5
354A
330
1
100
AcDbSymbolTableRecord
100
AcDbBlockTableRecord
  2
*D7
  0
BLOCK_RECORD
  5
3556
330
1
100
AcDbSymbolTableRecord
100
AcDbBlockTableRecord
  2
*D8
  0
BLOCK_RECORD
  5
3562
330
1
100
AcDbSymbolTableRecord
100
AcDbBlockTableRecord
  2
*D9
  0
ENDTAB
  0
ENDSEC
  0
SECTION
  2
BLOCKS
  0
BLOCK
  5
1B
330
1A
100
AcDbEntity
  8
0
100
AcDbBlockBegin
  2
*MODEL_SPACE
 70
     0
 10
0.0
 20
0.0
 30
0.0
  3
*MODEL_SPACE
  1

  0
ENDBLK
  5
1C
330
1A
100
AcDbEntity
  8
0
100
AcDbBlockEnd
  0
BLOCK
  5
18
330
17
100
AcDbEntity
 67
     1
  8
0
100
AcDbBlockBegin
  2
*PAPER_SPACE
 70
     0
 10
0.0
 20
0.0
 30
0.0
  3
*PAPER_SPACE
  1

  0
ENDBLK
  5
19
330
17
100
AcDbEntity
 67
     1
  8
0
100
AcDbBlockEnd
  0
BLOCK
  5
6E
330
6D
100
AcDbEntity
  8
0
100
AcDbBlockBegin
  2
_OPEN
 70
     0
 10
0.0
 20
0.0
 30
0.0
  3
_OPEN
  1

  0
LINE
  5
6F
330
6D
100
AcDbEntity
  8
0
  6
BYBLOCK
 62
     0
100
AcDbLine
 10
-1.0
 20
0.1666666666666666
 30
0.0
 11
0.0
 21
0.0
 31
0.0
  0
LINE
  5
70
330
6D
100
AcDbEntity
  8
0
  6
BYBLOCK
 62
     0
100
AcDbLine
 10
0.0
 20
0.0
 30
0.0
 11
-1.0
 21
-0.1666666666666666
 31
0.0
  0
LINE
  5
71
330
6D
100
AcDbEntity
  8
0
  6
BYBLOCK
 62
     0
100
AcDbLine
 10
0.0
 20
0.0
 30
0.0
 11
-1.0
 21
0.0
 31
0.0
  0
ENDBLK
  5
72
330
6D
100
AcDbEntity
  8
0
100
AcDbBlockEnd
  0
BLOCK
  5
350C
330
3502
100
AcDbEntity
  8
0
100
AcDbBlockBegin
  2
*D1
 70
     1
 10
0.0
 20
0.0
 30
0.0
  3
*D1
  1

  0
LINE
  5
356E
330
3502
100
AcDbEntity
  8
SUNPOU
  6
CONTINUOUS
 62
     4
100
AcDbLine
 10
604.9120494343453
 20
353.524282085354
 30
0.0
 11
604.9120494343453
 21
240.960511020338
 31
0.0
  0
LINE
  5
356F
330
3502
100
AcDbEntity
  8
SUNPOU
  6
CONTINUOUS
 62
     4
100
AcDbLine
 10
526.9118451636238
 20
275.5242877192957
 30
0.0
 11
526.9118451636238
 21
240.960511020338
 31
0.0
  0
LINE
  5
3570
330
3502
100
AcDbEntity
  8
SUNPOU
  6
CONTINUOUS
 62
     4
100
AcDbLine
 10
597.9120494343454
 20
243.960511020338
 30
0.0
 11
533.9118451636238
 21
243.960511020338
 31
0.0
  0
INSERT
  5
3571
330
3502
100
AcDbEntity
  8
SUNPOU
  6
CONTINUOUS
 62
     4
100
AcDbBlockReference
  2
_OPEN
 10
604.9120494343453
 20
243.960511020338
 30
0.0
 41
7.0
 42
7.0
 43
7.0
  0
INSERT
  5
3572
330
3502
100
AcDbEntity
  8
SUNPOU
  6
CONTINUOUS
 62
     4
100
AcDbBlockReference
  2
_OPEN
 10
526.9118451636238
 20
243.960511020338
 30
0.0
 41
7.0
 42
7.0
 43
7.0
 50
180.0
  0
MTEXT
  5
3573
330
3502
100
AcDbEntity
  8
SUNPOU
  6
CONTINUOUS
 62
     4
100
AcDbMText
 10
565.9119472989845
 20
248.960511020338
 30
0.0
 40
6.0
 41
0.0
 71
     5
 72
     1
  1
\A1;78
1001
ACAD
1000
MTEXTBEGIN
1070
    73
1070
     1
1070
    44
1040
1.0
1070
    74
1070
     0
1000
MTEXTEND
  0
POINT
  5
3574
330
3502
100
AcDbEntity
  8
DEFPOINTS
  6
CONTINUOUS
 62
     0
100
AcDbPoint
 10
604.9120494343453
 20
359.524282085354
 30
0.0
  0
POINT
  5
3575
330
3502
100
AcDbEntity
  8
DEFPOINTS
  6
CONTINUOUS
 62
     0
100
AcDbPoint
 10
526.9118451636238
 20
281.5242877192957
 30
0.0
  0
POINT
  5
3576
330
3502
100
AcDbEntity
  8
DEFPOINTS
  6
CONTINUOUS
 62
     0
100
AcDbPoint
 10
526.9118451636238
 20
243.960511020338
 30
0.0
  0
ENDBLK
  5
350D
330
3502
100
AcDbEntity
  8
0
100
AcDbBlockEnd
  0
BLOCK
  5
3518
330
350E
100
AcDbEntity
  8
0
100
AcDbBlockBegin
  2
*D2
 70
     1
 10
0.0
 20
0.0
 30
0.0
  3
*D2
  1

  0
LINE
  5
3577
330
350E
100
AcDbEntity
  8
SUNPOU
  6
CONTINUOUS
 62
     4
100
AcDbLine
 10
610.9120494343454
 20
359.524282085354
 30
0.0
 11
642.8425560009314
 21
359.524282085354
 31
0.0
  0
LINE
  5
3578
330
350E
100
AcDbEntity
  8
SUNPOU
  6
CONTINUOUS
 62
     4
100
AcDbLine
 10
532.9118451636238
 20
281.5242877192957
 30
0.0
 11
642.8425560009314
 21
281.5242877192957
 31
0.0
  0
LINE
  5
3579
330
350E
100
AcDbEntity
  8
SUNPOU
  6
CONTINUOUS
 62
     4
100
AcDbLine
 10
639.8425560009314
 20
352.524282085354
 30
0.0
 11
639.8425560009314
 21
288.5242877192957
 31
0.0
  0
INSERT
  5
357A
330
350E
100
AcDbEntity
  8
SUNPOU
  6
CONTINUOUS
 62
     4
100
AcDbBlockReference
  2
_OPEN
 10
639.8425560009314
 20
359.524282085354
 30
0.0
 41
7.0
 42
7.0
 43
7.0
 50
90.0
  0
INSERT
  5
357B
330
350E
100
AcDbEntity
  8
SUNPOU
  6
CONTINUOUS
 62
     4
100
AcDbBlockReference
  2
_OPEN
 10
639.8425560009314
 20
281.5242877192957
 30
0.0
 41
7.0
 42
7.0
 43
7.0
 50
270.0
  0
MTEXT
  5
357C
330
350E
100
AcDbEntity
  8
SUNPOU
  6
CONTINUOUS
 62
     4
100
AcDbMText
 10
634.8425560009312
 20
320.5242849023249
 30
0.0
 40
6.0
 41
0.0
 71
     5
 72
     1
  1
\A1;78
 11
0.0000000000000001
 21
1.0
 31
0.0
1001
ACAD
1000
MTEXTBEGIN
1070
    73
1070
     1
1070
    44
1040
1.0
1070
    74
1070
     0
1000
MTEXTEND
  0
POINT
  5
357D
330
350E
100
AcDbEntity
  8
DEFPOINTS
  6
CONTINUOUS
 62
     0
100
AcDbPoint
 10
604.9120494343453
 20
359.524282085354
 30
0.0
  0
POINT
  5
357E
330
350E
100
AcDbEntity
  8
DEFPOINTS
  6
CONTINUOUS
 62
     0
100
AcDbPoint
 10
526.9118451636238
 20
281.5242877192957
 30
0.0
  0
POINT
  5
357F
330
350E
100
AcDbEntity
  8
DEFPOINTS
  6
CONTINUOUS
 62
     0
100
AcDbPoint
 10
639.8425560009314
 20
281.5242877192957
 30
0.0
  0
ENDBLK
  5
3519
330
350E
100
AcDbEntity
  8
0
100
AcDbBlockEnd
  0
BLOCK
  5
3524
330
351A
100
AcDbEntity
  8
0
100
AcDbBlockBegin
  2
*D3
 70
     1
 10
0.0
 20
0.0
 30
0.0
  3
*D3
  1

  0
LINE
  5
3580
330
351A
100
AcDbEntity
  8
SUNPOU
  6
CONTINUOUS
 62
     4
100
AcDbLine
 10
606.9121507975676
 20
478.4941877192958
 30
0.0
 11
661.5186917151686
 21
478.4941877192957
 31
0.0
  0
LINE
  5
3581
330
351A
100
AcDbEntity
  8
SUNPOU
  6
CONTINUOUS
 62
     4
100
AcDbLine
 10
532.1118507975675
 20
281.5242877192957
 30
0.0
 11
661.5186917151686
 21
281.5242877192957
 31
0.0
  0
LINE
  5
3582
330
351A
100
AcDbEntity
  8
SUNPOU
  6
CONTINUOUS
 62
     4
100
AcDbLine
 10
658.5186917151686
 20
471.4941877192956
 30
0.0
 11
658.5186917151686
 21
288.5242877192957
 31
0.0
  0
INSERT
  5
3583
330
351A
100
AcDbEntity
  8
SUNPOU
  6
CONTINUOUS
 62
     4
100
AcDbBlockReference
  2
_OPEN
 10
658.5186917151686
 20
478.4941877192957
 30
0.0
 41
7.0
 42
7.0
 43
7.0
 50
90.0
  0
INSERT
  5
3584
330
351A
100
AcDbEntity
  8
SUNPOU
  6
CONTINUOUS
 62
     4
100
AcDbBlockReference
  2
_OPEN
 10
658.5186917151686
 20
281.5242877192957
 30
0.0
 41
7.0
 42
7.0
 43
7.0
 50
270.0
  0
MTEXT
  5
3585
330
351A
100
AcDbEntity
  8
SUNPOU
  6
CONTINUOUS
 62
     4
100
AcDbMText
 10
653.5186917151685
 20
380.0092377192958
 30
0.0
 40
6.0
 41
0.0
 71
     5
 72
     1
  1
\A1;197
 11
0.0000000000000001
 21
1.0
 31
0.0
1001
ACAD
1000
MTEXTBEGIN
1070
    73
1070
     1
1070
    44
1040
1.0
1070
    74
1070
     0
1000
MTEXTEND
  0
POINT
  5
3586
330
351A
100
AcDbEntity
  8
DEFPOINTS
  6
CONTINUOUS
 62
     0
100
AcDbPoint
 10
600.9121507975676
 20
478.4941877192958
 30
0.0
  0
POINT
  5
3587
330
351A
100
AcDbEntity
  8
DEFPOINTS
  6
CONTINUOUS
 62
     0
100
AcDbPoint
 10
526.1118507975675
 20
281.5242877192957
 30
0.0
  0
POINT
  5
3588
330
351A
100
AcDbEntity
  8
DEFPOINTS
  6
CONTINUOUS
 62
     0
100
AcDbPoint
 10
658.5186917151686
 20
281.5242877192957
 30
0.0
  0
ENDBLK
  5
3525
330
351A
100
AcDbEntity
  8
0
100
AcDbBlockEnd
  0
BLOCK
  5
3530
330
3526
100
AcDbEntity
  8
0
100
AcDbBlockBegin
  2
*D4
 70
     1
 10
0.0
 20
0.0
 30
0.0
  3
*D4
  1

  0
LINE
  5
3589
330
3526
100
AcDbEntity
  8
SUNPOU
  6
CONTINUOUS
 62
     4
100
AcDbLine
 10
503.0196507975676
 20
99.05743383629278
 30
0.0
 11
503.0196507975676
 21
77.2625733863384
 31
0.0
  0
LINE
  5
358A
330
3526
100
AcDbEntity
  8
SUNPOU
  6
CONTINUOUS
 62
     4
100
AcDbLine
 10
431.8342507975676
 20
99.05743383629278
 30
0.0
 11
431.8342507975676
 21
77.2625733863384
 31
0.0
  0
LINE
  5
358B
330
3526
100
AcDbEntity
  8
SUNPOU
  6
CONTINUOUS
 62
     4
100
AcDbLine
 10
496.0196507975677
 20
80.2625733863384
 30
0.0
 11
438.8342507975675
 21
80.2625733863384
 31
0.0
  0
INSERT
  5
358C
330
3526
100
AcDbEntity
  8
SUNPOU
  6
CONTINUOUS
 62
     4
100
AcDbBlockReference
  2
_OPEN
 10
503.0196507975676
 20
80.2625733863384
 30
0.0
 41
7.0
 42
7.0
 43
7.0
  0
INSERT
  5
358D
330
3526
100
AcDbEntity
  8
SUNPOU
  6
CONTINUOUS
 62
     4
100
AcDbBlockReference
  2
_OPEN
 10
431.8342507975676
 20
80.2625733863384
 30
0.0
 41
7.0
 42
7.0
 43
7.0
 50
180.0
  0
MTEXT
  5
358E
330
3526
100
AcDbEntity
  8
SUNPOU
  6
CONTINUOUS
 62
     4
100
AcDbMText
 10
467.4269507975676
 20
85.2625733863384
 30
0.0
 40
6.0
 41
0.0
 71
     5
 72
     1
  1
\A1;71
1001
ACAD
1000
MTEXTBEGIN
1070
    73
1070
     1
1070
    44
1040
1.0
1070
    74
1070
     0
1000
MTEXTEND
  0
POINT
  5
358F
330
3526
100
AcDbEntity
  8
DEFPOINTS
  6
CONTINUOUS
 62
     0
100
AcDbPoint
 10
503.0196507975676
 20
105.0574338362927
 30
0.0
  0
POINT
  5
3590
330
3526
100
AcDbEntity
  8
DEFPOINTS
  6
CONTINUOUS
 62
     0
100
AcDbPoint
 10
431.8342507975676
 20
105.0574338362927
 30
0.0
  0
POINT
  5
3591
330
3526
100
AcDbEntity
  8
DEFPOINTS
  6
CONTINUOUS
 62
     0
100
AcDbPoint
 10
431.8342507975676
 20
80.2625733863384
 30
0.0
  0
ENDBLK
  5
3531
330
3526
100
AcDbEntity
  8
0
100
AcDbBlockEnd
  0
BLOCK
  5
353C
330
3532
100
AcDbEntity
  8
0
100
AcDbBlockBegin
  2
*D5
 70
     1
 10
0.0
 20
0.0
 30
0.0
  3
*D5
  1

  0
LINE
  5
3592
330
3532
100
AcDbEntity
  8
SUNPOU
  6
CONTINUOUS
 62
     4
100
AcDbLine
 10
604.9118507975677
 20
168.8571338362928
 30
0.0
 11
604.9118507975677
 21
213.2534388311085
 31
0.0
  0
LINE
  5
3593
330
3532
100
AcDbEntity
  8
SUNPOU
  6
CONTINUOUS
 62
     4
100
AcDbLine
 10
407.9420507975675
 20
167.8574338362928
 30
0.0
 11
407.9420507975675
 21
213.2534388311085
 31
0.0
  0
LINE
  5
3594
330
3532
100
AcDbEntity
  8
SUNPOU
  6
CONTINUOUS
 62
     4
100
AcDbLine
 10
597.9118507975677
 20
210.2534388311085
 30
0.0
 11
414.9420507975675
 21
210.2534388311085
 31
0.0
  0
INSERT
  5
3595
330
3532
100
AcDbEntity
  8
SUNPOU
  6
CONTINUOUS
 62
     4
100
AcDbBlockReference
  2
_OPEN
 10
604.9118507975677
 20
210.2534388311085
 30
0.0
 41
7.0
 42
7.0
 43
7.0
  0
INSERT
  5
3596
330
3532
100
AcDbEntity
  8
SUNPOU
  6
CONTINUOUS
 62
     4
100
AcDbBlockReference
  2
_OPEN
 10
407.9420507975675
 20
210.2534388311085
 30
0.0
 41
7.0
 42
7.0
 43
7.0
 50
180.0
  0
MTEXT
  5
3597
330
3532
100
AcDbEntity
  8
SUNPOU
  6
CONTINUOUS
 62
     4
100
AcDbMText
 10
506.4269507975676
 20
215.2534388311085
 30
0.0
 40
6.0
 41
0.0
 71
     5
 72
     1
  1
\A1;197
1001
ACAD
1000
MTEXTBEGIN
1070
    73
1070
     1
1070
    44
1040
1.0
1070
    74
1070
     0
1000
MTEXTEND
  0
POINT
  5
3598
330
3532
100
AcDbEntity
  8
DEFPOINTS
  6
CONTINUOUS
 62
     0
100
AcDbPoint
 10
604.9118507975677
 20
162.8571338362928
 30
0.0
  0
POINT
  5
3599
330
3532
100
AcDbEntity
  8
DEFPOINTS
  6
CONTINUOUS
 62
     0
100
AcDbPoint
 10
407.9420507975675
 20
161.8574338362928
 30
0.0
  0
POINT
  5
359A
330
3532
100
AcDbEntity
  8
DEFPOINTS
  6
CONTINUOUS
 62
     0
100
AcDbPoint
 10
407.9420507975675
 20
210.2534388311085
 30
0.0
  0
ENDBLK
  5
353D
330
3532
100
AcDbEntity
  8
0
100
AcDbBlockEnd
  0
BLOCK
  5
3548
330
353E
100
AcDbEntity
  8
0
100
AcDbBlockBegin
  2
*D6
 70
     1
 10
0.0
 20
0.0
 30
0.0
  3
*D6
  1

  0
LINE
  5
359B
330
353E
100
AcDbEntity
  8
SUNPOU
  6
CONTINUOUS
 62
     4
100
AcDbLine
 10
526.9118507975677
 20
167.8574338362928
 30
0.0
 11
526.9118507975677
 21
197.1171932045516
 31
0.0
  0
LINE
  5
359C
330
353E
100
AcDbEntity
  8
SUNPOU
  6
CONTINUOUS
 62
     4
100
AcDbLine
 10
407.9420507975675
 20
167.8574338362928
 30
0.0
 11
407.9420507975675
 21
197.1171932045516
 31
0.0
  0
LINE
  5
359D
330
353E
100
AcDbEntity
  8
SUNPOU
  6
CONTINUOUS
 62
     4
100
AcDbLine
 10
519.9118507975676
 20
194.1171932045516
 30
0.0
 11
414.9420507975675
 21
194.1171932045516
 31
0.0
  0
INSERT
  5
359E
330
353E
100
AcDbEntity
  8
SUNPOU
  6
CONTINUOUS
 62
     4
100
AcDbBlockReference
  2
_OPEN
 10
526.9118507975677
 20
194.1171932045516
 30
0.0
 41
7.0
 42
7.0
 43
7.0
  0
INSERT
  5
359F
330
353E
100
AcDbEntity
  8
SUNPOU
  6
CONTINUOUS
 62
     4
100
AcDbBlockReference
  2
_OPEN
 10
407.9420507975675
 20
194.1171932045516
 30
0.0
 41
7.0
 42
7.0
 43
7.0
 50
180.0
  0
MTEXT
  5
35A0
330
353E
100
AcDbEntity
  8
SUNPOU
  6
CONTINUOUS
 62
     4
100
AcDbMText
 10
467.4269507975676
 20
199.1171932045516
 30
0.0
 40
6.0
 41
0.0
 71
     5
 72
     1
  1
\A1;119
1001
ACAD
1000
MTEXTBEGIN
1070
    73
1070
     1
1070
    44
1040
1.0
1070
    74
1070
     0
1000
MTEXTEND
  0
POINT
  5
35A1
330
353E
100
AcDbEntity
  8
DEFPOINTS
  6
CONTINUOUS
 62
     0
100
AcDbPoint
 10
526.9118507975677
 20
161.8574338362928
 30
0.0
  0
POINT
  5
35A2
330
353E
100
AcDbEntity
  8
DEFPOINTS
  6
CONTINUOUS
 62
     0
100
AcDbPoint
 10
407.9420507975675
 20
161.8574338362928
 30
0.0
  0
POINT
  5
35A3
330
353E
100
AcDbEntity
  8
DEFPOINTS
  6
CONTINUOUS
 62
     0
100
AcDbPoint
 10
407.9420507975675
 20
194.1171932045516
 30
0.0
  0
ENDBLK
  5
3549
330
353E
100
AcDbEntity
  8
0
100
AcDbBlockEnd
  0
BLOCK
  5
3554
330
354A
100
AcDbEntity
  8
0
100
AcDbBlockBegin
  2
*D7
 70
     1
 10
0.0
 20
0.0
 30
0.0
  3
*D7
  1

  0
LINE
  5
35A4
330
354A
100
AcDbEntity
  8
SUNPOU
  6
CONTINUOUS
 62
     4
100
AcDbLine
 10
610.9118507975677
 20
162.8571338362928
 30
0.0
 11
634.298371994615
 21
162.8571338362928
 31
0.0
  0
LINE
  5
35A5
330
354A
100
AcDbEntity
  8
SUNPOU
  6
CONTINUOUS
 62
     4
100
AcDbLine
 10
606.9116507975677
 20
109.0571338362927
 30
0.0
 11
634.298371994615
 21
109.0571338362927
 31
0.0
  0
LINE
  5
35A6
330
354A
100
AcDbEntity
  8
SUNPOU
  6
CONTINUOUS
 62
     4
100
AcDbLine
 10
631.298371994615
 20
155.8571338362928
 30
0.0
 11
631.298371994615
 21
116.0571338362927
 31
0.0
  0
INSERT
  5
35A7
330
354A
100
AcDbEntity
  8
SUNPOU
  6
CONTINUOUS
 62
     4
100
AcDbBlockReference
  2
_OPEN
 10
631.298371994615
 20
162.8571338362928
 30
0.0
 41
7.0
 42
7.0
 43
7.0
 50
90.0
  0
INSERT
  5
35A8
330
354A
100
AcDbEntity
  8
SUNPOU
  6
CONTINUOUS
 62
     4
100
AcDbBlockReference
  2
_OPEN
 10
631.298371994615
 20
109.0571338362927
 30
0.0
 41
7.0
 42
7.0
 43
7.0
 50
270.0
  0
MTEXT
  5
35A9
330
354A
100
AcDbEntity
  8
SUNPOU
  6
CONTINUOUS
 62
     4
100
AcDbMText
 10
626.298371994615
 20
135.9571338362929
 30
0.0
 40
6.0
 41
0.0
 71
     5
 72
     1
  1
\A1;54
 11
0.0000000000000001
 21
1.0
 31
0.0
1001
ACAD
1000
MTEXTBEGIN
1070
    73
1070
     1
1070
    44
1040
1.0
1070
    74
1070
     0
1000
MTEXTEND
  0
POINT
  5
35AA
330
354A
100
AcDbEntity
  8
DEFPOINTS
  6
CONTINUOUS
 62
     0
100
AcDbPoint
 10
604.9118507975677
 20
162.8571338362928
 30
0.0
  0
POINT
  5
35AB
330
354A
100
AcDbEntity
  8
DEFPOINTS
  6
CONTINUOUS
 62
     0
100
AcDbPoint
 10
600.9116507975677
 20
109.0571338362927
 30
0.0
  0
POINT
  5
35AC
330
354A
100
AcDbEntity
  8
DEFPOINTS
  6
CONTINUOUS
 62
     0
100
AcDbPoint
 10
631.298371994615
 20
109.0571338362927
 30
0.0
  0
ENDBLK
  5
3555
330
354A
100
AcDbEntity
  8
0
100
AcDbBlockEnd
  0
BLOCK
  5
3560
330
3556
100
AcDbEntity
  8
0
100
AcDbBlockBegin
  2
*D8
 70
     1
 10
0.0
 20
0.0
 30
0.0
  3
*D8
  1

  0
LINE
  5
35AD
330
3556
100
AcDbEntity
  8
SUNPOU
  6
CONTINUOUS
 62
     4
100
AcDbLine
 10
604.9121507975676
 20
413.0091960797962
 30
0.0
 11
604.9121507975676
 21
397.5901234251974
 31
0.0
  0
LINE
  5
35AE
330
3556
100
AcDbEntity
  8
SUNPOU
  6
CONTINUOUS
 62
     4
100
AcDbLine
 10
526.9119507975676
 20
396.1341377192957
 30
0.0
 11
526.9119507975676
 21
397.5901234251974
 31
0.0
  0
LINE
  5
35AF
330
3556
100
AcDbEntity
  8
SUNPOU
  6
CONTINUOUS
 62
     4
100
AcDbLine
 10
597.9121507975676
 20
400.5901234251973
 30
0.0
 11
533.9119507975676
 21
400.5901234251973
 31
0.0
  0
INSERT
  5
35B0
330
3556
100
AcDbEntity
  8
SUNPOU
  6
CONTINUOUS
 62
     4
100
AcDbBlockReference
  2
_OPEN
 10
604.9121507975676
 20
400.5901234251973
 30
0.0
 41
7.0
 42
7.0
 43
7.0
  0
INSERT
  5
35B1
330
3556
100
AcDbEntity
  8
SUNPOU
  6
CONTINUOUS
 62
     4
100
AcDbBlockReference
  2
_OPEN
 10
526.9119507975676
 20
400.5901234251973
 30
0.0
 41
7.0
 42
7.0
 43
7.0
 50
180.0
  0
MTEXT
  5
35B2
330
3556
100
AcDbEntity
  8
SUNPOU
  6
CONTINUOUS
 62
     4
100
AcDbMText
 10
546.3119507975676
 20
405.5901234251974
 30
0.0
 40
6.0
 41
0.0
 71
     5
 72
     1
  1
\A1;※78
1001
ACAD
1000
MTEXTBEGIN
1070
    73
1070
     1
1070
    44
1040
1.0
1070
    74
1070
     0
1000
MTEXTEND
  0
POINT
  5
35B3
330
3556
100
AcDbEntity
  8
DEFPOINTS
  6
CONTINUOUS
 62
     0
100
AcDbPoint
 10
604.9121507975676
 20
419.0091960797962
 30
0.0
  0
POINT
  5
35B4
330
3556
100
AcDbEntity
  8
DEFPOINTS
  6
CONTINUOUS
 62
     0
100
AcDbPoint
 10
526.9119507975676
 20
402.1341377192958
 30
0.0
  0
POINT
  5
35B5
330
3556
100
AcDbEntity
  8
DEFPOINTS
  6
CONTINUOUS
 62
     0
100
AcDbPoint
 10
526.9119507975676
 20
400.5901234251973
 30
0.0
  0
ENDBLK
  5
3561
330
3556
100
AcDbEntity
  8
0
100
AcDbBlockEnd
  0
BLOCK
  5
356C
330
3562
100
AcDbEntity
  8
0
100
AcDbBlockBegin
  2
*D9
 70
     1
 10
0.0
 20
0.0
 30
0.0
  3
*D9
  1

  0
LINE
  5
35B6
330
3562
100
AcDbEntity
  8
SUNPOU
  6
CONTINUOUS
 62
     4
100
AcDbLine
 10
606.9121507975676
 20
478.4941877192958
 30
0.0
 11
642.8425560009314
 21
478.4941877192957
 31
0.0
  0
LINE
  5
35B7
330
3562
100
AcDbEntity
  8
SUNPOU
  6
CONTINUOUS
 62
     4
100
AcDbLine
 10
606.9119507975677
 20
359.5242877192958
 30
0.0
 11
642.8425560009314
 21
359.5242877192957
 31
0.0
  0
LINE
  5
35B8
330
3562
100
AcDbEntity
  8
SUNPOU
  6
CONTINUOUS
 62
     4
100
AcDbLine
 10
639.8425560009314
 20
471.4941877192957
 30
0.0
 11
639.8425560009314
 21
366.5242877192957
 31
0.0
  0
INSERT
  5
35B9
330
3562
100
AcDbEntity
  8
SUNPOU
  6
CONTINUOUS
 62
     4
100
AcDbBlockReference
  2
_OPEN
 10
639.8425560009314
 20
478.4941877192958
 30
0.0
 41
7.0
 42
7.0
 43
7.0
 50
90.0
  0
INSERT
  5
35BA
330
3562
100
AcDbEntity
  8
SUNPOU
  6
CONTINUOUS
 62
     4
100
AcDbBlockReference
  2
_OPEN
 10
639.8425560009314
 20
359.5242877192958
 30
0.0
 41
7.0
 42
7.0
 43
7.0
 50
270.0
  0
MTEXT
  5
35BB
330
3562
100
AcDbEntity
  8
SUNPOU
  6
CONTINUOUS
 62
     4
100
AcDbMText
 10
634.8425560009312
 20
419.0092377192958
 30
0.0
 40
6.0
 41
0.0
 71
     5
 72
     1
  1
\A1;119
 11
0.0000000000000001
 21
1.0
 31
0.0
1001
ACAD
1000
MTEXTBEGIN
1070
    73
1070
     1
1070
    44
1040
1.0
1070
    74
1070
     0
1000
MTEXTEND
  0
POINT
  5
35BC
330
3562
100
AcDbEntity
  8
DEFPOINTS
  6
CONTINUOUS
 62
     0
100
AcDbPoint
 10
600.9121507975676
 20
478.4941877192958
 30
0.0
  0
POINT
  5
35BD
330
3562
100
AcDbEntity
  8
DEFPOINTS
  6
CONTINUOUS
 62
     0
100
AcDbPoint
 10
600.9119507975676
 20
359.5242877192958
 30
0.0
  0
POINT
  5
35BE
330
3562
100
AcDbEntity
  8
DEFPOINTS
  6
CONTINUOUS
 62
     0
100
AcDbPoint
 10
639.8425560009314
 20
359.5242877192958
 30
0.0
  0
ENDBLK
  5
356D
330
3562
100
AcDbEntity
  8
0
100
AcDbBlockEnd
  0
ENDSEC
  0
SECTION
  2
ENTITIES
  0
LINE
  5
1390
330
1A
100
AcDbEntity
  8
ZUWAKU
100
AcDbLine
 10
208.646601303624
 20
15.19999986828872
 30
0.0
 11
447.4243639845474
 21
15.19999986828871
 31
0.0
  0
LINE
  5
1391
330
1A
100
AcDbEntity
  8
ZUWAKU
100
AcDbLine
 10
208.646601303624
 20
15.59999986828871
 30
0.0
 11
447.4243639845474
 21
15.59999986828872
 31
0.0
  0
LINE
  5
1392
330
1A
100
AcDbEntity
  8
ZUWAKU
100
AcDbLine
 10
208.646601303624
 20
15.39999986828871
 30
0.0
 11
447.4243639845474
 21
15.39999986828871
 31
0.0
  0
LINE
  5
1393
330
1A
100
AcDbEntity
  8
ZUWAKU
100
AcDbLine
 10
0.0000000135560185
 20
30.79999986828869
 30
0.0
 11
797.4000000135559
 21
30.79999986828869
 31
0.0
  0
LINE
  5
1394
330
1A
100
AcDbEntity
  8
ZUWAKU
100
AcDbLine
 10
0.0000000135560185
 20
30.59999986828869
 30
0.0
 11
797.4000000135559
 21
30.59999986828869
 31
0.0
  0
LINE
  5
1395
330
1A
100
AcDbEntity
  8
ZUWAKU
100
AcDbLine
 10
0.0000000135560185
 20
30.39999986828869
 30
0.0
 11
797.4000000135559
 21
30.39999986828869
 31
0.0
  0
LINE
  5
1396
330
1A
100
AcDbEntity
  8
ZUWAKU
100
AcDbLine
 10
0.0000000135560185
 20
30.19999986828868
 30
0.0
 11
797.4000000135559
 21
30.19999986828868
 31
0.0
  0
LINE
  5
1397
330
1A
100
AcDbEntity
  8
ZUWAKU
100
AcDbLine
 10
0.0000000135560185
 20
29.99999986828868
 30
0.0
 11
797.4000000135559
 21
29.99999986828868
 31
0.0
  0
LWPOLYLINE
  5
1398
330
1A
100
AcDbEntity
  8
ZUWAKU
100
AcDbPolyline
 90
        4
 70
     1
 43
0.0
 10
0.2000000135559503
 20
551.3999998682887
 10
0.2000000135559503
 20
0.1999998682887281
 10
797.4000000135559
 20
0.1999998682887511
 10
797.4000000135561
 20
551.3999998682887
  0
LWPOLYLINE
  5
1399
330
1A
100
AcDbEntity
  8
ZUWAKU
100
AcDbPolyline
 90
        4
 70
     1
 43
0.0
 10
0.6000000135559276
 20
550.9999998682888
 10
0.6000000135559276
 20
0.5999998682887054
 10
797.0000000135562
 20
0.5999998682887516
 10
797.000000013556
 20
550.9999998682888
  0
LWPOLYLINE
  5
139A
330
1A
100
AcDbEntity
  8
ZUWAKU
100
AcDbPolyline
 90
        4
 70
     1
 43
0.0
 10
0.0000000135560185
 20
551.5999998682887
 10
0.0000000135560185
 20
-0.0000001317113174
 10
797.6000000135561
 20
-0.0000001317112499
 10
797.6000000135561
 20
551.5999998682888
  0
LWPOLYLINE
  5
139B
330
1A
100
AcDbEntity
  8
ZUWAKU
100
AcDbPolyline
 90
        4
 70
     1
 43
0.0
 10
0.4000000135559958
 20
551.1999998682887
 10
0.4000000135559958
 20
0.3999998682887735
 10
797.200000013556
 20
0.3999998682887504
 10
797.200000013556
 20
551.1999998682887
  0
LWPOLYLINE
  5
139C
330
1A
100
AcDbEntity
  8
ZUWAKU
100
AcDbPolyline
 90
        4
 70
     1
 43
0.0
 10
0.800000013555973
 20
550.7999998682887
 10
0.800000013555973
 20
0.7999998682887508
 10
796.8000000135559
 20
0.7999998682887508
 10
796.8000000135559
 20
550.7999998682887
  0
TEXT
  5
139D
330
1A
100
AcDbEntity
  8
MOJI
100
AcDbText
 10
92.95778960172516
 20
12.74117799856344
 30
0.0
 40
6.0
  1
ライナートップＸ７０Ｕ
 41
0.9
  7
ｽﾀｲﾙ1
100
AcDbText
  0
HATCH
  5
139E
330
1A
100
AcDbEntity
  8
ZUWAKU
100
AcDbHatch
 10
0.0
 20
0.0
 30
0.0
210
0.0
220
0.0
230
1.0
  2
ANSI37
 70
     0
 71
     0
 91
        8
 92
        7
 72
     1
 73
     1
 93
       24
 10
14.50226267467587
 20
17.64484834927226
 42
-0.1989123673796348
 10
14.09221216833714
 20
18.63479784293331
 42
0.0
 10
14.09221216833714
 20
19.92499986828869
 42
-0.4142135623730912
 10
14.61721216833711
 20
20.44999986828868
 42
0.0
 10
17.59221216833702
 20
20.44999986828868
 42
0.4142135623731546
 10
18.11721216833712
 20
20.97499986828867
 42
0.0
 10
18.11721216833712
 20
22.72499986828869
 42
0.4142135623731586
 10
17.59221216833702
 20
23.24999986828868
 42
0.0
 10
14.09221216833714
 20
23.24999986828868
 42
0.4142135623730928
 10
11.29221216833718
 20
20.44999986828871
 42
0.0
 10
11.29221216833718
 20
18.63479784293344
 42
0.1989123673796619
 10
12.52236368735361
 20
15.66494936194983
 42
0.0
 10
15.43216166199829
 20
12.75515138730518
 42
-0.1989123673796613
 10
15.84221216833714
 20
11.76520189364399
 42
0.0
 10
15.84221216833714
 20
10.47499986828867
 42
-0.4142135623730911
 10
15.31721216833716
 20
9.949999868288685
 42
0.0
 10
12.34221216833725
 20
9.949999868288685
 42
0.4142135623731526
 10
11.81721216833716
 20
9.424999868288697
 42
0.0
 10
11.81721216833716
 20
7.674999868288676
 42
0.4142135623731526
 10
12.34221216833725
 20
7.149999868288688
 42
0.0
 10
15.84221216833714
 20
7.149999868288688
 42
0.4142135623731044
 10
18.64221216833721
 20
9.949999868288664
 42
0.0
 10
18.64221216833721
 20
11.76520189364393
 42
0.1989123673796604
 10
17.41206064932066
 20
14.73505037462747
 42
0.0
 97
        0
 92
        7
 72
     1
 73
     1
 93
       16
 10
23.54221216833718
 20
19.04999986828869
 42
-0.4142135623730935
 10
24.94221216833716
 20
20.44999986828868
 42
0.0
 10
26.86721216833712
 20
20.44999986828868
 42
0.4142135623731546
 10
27.39221216833721
 20
20.97499986828867
 42
0.0
 10
27.39221216833721
 20
22.72499986828869
 42
0.4142135623730951
 10
26.86721216833723
 20
23.24999986828868
 42
0.0
 10
24.94221216833705
 20
23.24999986828864
 42
0.4142135623730892
 10
20.74221216833711
 20
19.04999986828862
 42
0.0
 10
20.74221216833711
 20
11.34999986828871
 42
0.4142135623730969
 10
24.94221216833716
 20
7.149999868288688
 42
0.0
 10
26.86721216833712
 20
7.149999868288688
 42
0.4142135623731526
 10
27.39221216833721
 20
7.674999868288676
 42
0.0
 10
27.39221216833721
 20
9.424999868288697
 42
0.4142135623730891
 10
26.86721216833723
 20
9.949999868288685
 42
0.0
 10
24.94221216833716
 20
9.949999868288685
 42
-0.4142135623730928
 10
23.54221216833718
 20
11.34999986828867
 42
0.0
 97
        0
 92
        7
 72
     1
 73
     1
 93
        2
 10
24.24221216833712
 20
15.19999986828868
 42
1.0
 10
27.74221216833712
 20
15.19999986828868
 42
1.0
 97
        0
 92
        7
 72
     1
 73
     1
 93
       26
 10
37.31485865051513
 20
19.20504706185211
 42
0.0
 10
38.37649828365295
 20
22.5669059001217
 42
0.5069206636600134
 10
37.87586738445759
 20
23.24999986828868
 42
0.0
 10
36.17697800484836
 20
23.24999986828868
 42
0.3272098845218764
 10
35.676347105653
 20
22.88309383645565
 42
0.0
 10
33.80807723102122
 20
16.96690590012176
 42
-0.3272098845219541
 10
33.30744633182575
 20
16.59999986828868
 42
0.0
 10
33.1672121683373
 20
16.59999986828868
 42
-0.4142135623731526
 10
32.64221216833721
 20
17.12499986828867
 42
0.0
 10
32.64221216833721
 20
22.72499986828869
 42
0.4142135623730951
 10
32.11721216833723
 20
23.24999986828868
 42
0.0
 10
30.36721216833711
 20
23.24999986828868
 42
0.4142135623730871
 10
29.84221216833714
 20
22.7249998682887
 42
0.0
 10
29.84221216833714
 20
7.674999868288676
 42
0.4142135623730891
 10
30.36721216833711
 20
7.149999868288688
 42
0.0
 10
32.11721216833712
 20
7.149999868288688
 42
0.4142135623731526
 10
32.64221216833721
 20
7.674999868288676
 42
0.0
 10
32.64221216833721
 20
13.27499986828869
 42
-0.4142135623731526
 10
33.1672121683373
 20
13.79999986828868
 42
0.0
 10
33.30744633182587
 20
13.79999986828868
 42
-0.3272098845218915
 10
33.80807723102122
 20
13.43309383645561
 42
0.0
 10
35.676347105653
 20
7.516905900121759
 42
0.3272098845218902
 10
36.17697800484836
 20
7.149999868288688
 42
0.0
 10
37.87586738445759
 20
7.149999868288688
 42
0.5069206636600335
 10
38.37649828365295
 20
7.833093836455695
 42
0.0
 10
36.05010690517929
 20
15.19999986828882
 42
0.0
 97
        0
 92
        7
 72
     1
 73
     1
 93
        8
 10
43.49221216833711
 20
22.7249998682887
 42
0.4142135623731546
 10
42.96721216833702
 20
23.24999986828868
 42
0.0
 10
41.21721216833726
 20
23.24999986828868
 42
0.4142135623731507
 10
40.69221216833716
 20
22.7249998682887
 42
0.0
 10
40.69221216833716
 20
7.674999868288676
 42
0.4142135623731526
 10
41.21721216833726
 20
7.149999868288688
 42
0.0
 10
42.96721216833702
 20
7.149999868288688
 42
0.4142135623731526
 10
43.49221216833711
 20
7.674999868288676
 42
0.0
 97
        0
 92
        7
 72
     1
 73
     1
 93
       24
 10
48.3922121683372
 20
19.92499986828869
 42
-0.4142135623731546
 10
48.9172121683373
 20
20.44999986828868
 42
0.0
 10
51.89221216833721
 20
20.44999986828868
 42
0.4142135623730911
 10
52.41721216833719
 20
20.97499986828867
 42
0.0
 10
52.41721216833719
 20
22.72499986828869
 42
0.4142135623730952
 10
51.89221216833721
 20
23.24999986828868
 42
0.0
 10
48.3922121683372
 20
23.24999986828868
 42
0.4142135623731048
 10
45.59221216833714
 20
20.44999986828871
 42
0.0
 10
45.59221216833714
 20
18.63479784293344
 42
0.1989123673796613
 10
46.82236368735368
 20
15.66494936194989
 42
0.0
 10
49.73216166199836
 20
12.75515138730522
 42
-0.1989123673796402
 10
50.14221216833721
 20
11.76520189364415
 42
0.0
 10
50.14221216833721
 20
10.47499986828867
 42
-0.4142135623730911
 10
49.61721216833723
 20
9.949999868288685
 42
0.0
 10
46.64221216833721
 20
9.949999868288685
 42
0.4142135623731526
 10
46.11721216833712
 20
9.424999868288697
 42
0.0
 10
46.11721216833712
 20
7.674999868288676
 42
0.4142135623730891
 10
46.64221216833709
 20
7.149999868288688
 42
0.0
 10
50.14221216833721
 20
7.149999868288688
 42
0.4142135623730925
 10
52.94221216833716
 20
9.949999868288664
 42
0.0
 10
52.94221216833716
 20
11.76520189364393
 42
0.1989123673796675
 10
51.71206064932062
 20
14.73505037462759
 42
0.0
 10
48.80226267467605
 20
17.6448483492721
 42
-0.1989123673796652
 10
48.3922121683372
 20
18.63479784293327
 42
0.0
 97
        0
 92
        7
 72
     1
 73
     1
 93
       16
 10
57.84221216833714
 20
22.72499986828867
 42
0.414213562373103
 10
57.31721216833716
 20
23.24999986828868
 42
0.0
 10
55.56721216833716
 20
23.24999986828868
 42
0.4142135623730871
 10
55.04221216833719
 20
22.7249998682887
 42
0.0
 10
55.04221216833719
 20
9.949999868288664
 42
0.4142135623730926
 10
57.84221216833714
 20
7.149999868288688
 42
0.0
 10
61.34221216833714
 20
7.149999868288688
 42
0.4142135623731044
 10
64.14221216833721
 20
9.949999868288664
 42
0.0
 10
64.14221216833721
 20
22.72499986828869
 42
0.4142135623730951
 10
63.61721216833723
 20
23.24999986828868
 42
0.0
 10
61.86721216833712
 20
23.24999986828868
 42
0.4142135623730871
 10
61.34221216833714
 20
22.7249998682887
 42
0.0
 10
61.34221216833714
 20
10.99999986828866
 42
-0.414213562373088
 10
60.29221216833718
 20
9.949999868288685
 42
0.0
 10
58.89221216833721
 20
9.949999868288685
 42
-0.4142135623731197
 10
57.84221216833714
 20
10.99999986828866
 42
0.0
 97
        0
 92
        7
 72
     1
 73
     1
 93
        8
 10
69.04221216833718
 20
22.7249998682887
 42
0.4142135623730871
 10
68.51721216833721
 20
23.24999986828868
 42
0.0
 10
66.76721216833721
 20
23.24999986828868
 42
0.4142135623731507
 10
66.24221216833712
 20
22.7249998682887
 42
0.0
 10
66.24221216833712
 20
7.674999868288676
 42
0.4142135623730891
 10
66.76721216833709
 20
7.149999868288688
 42
0.0
 10
68.51721216833721
 20
7.149999868288688
 42
0.4142135623730891
 10
69.04221216833718
 20
7.674999868288676
 42
0.0
 97
        0
 75
     0
 76
     1
 52
0.0
 41
0.2
 77
     0
 78
     2
 53
45.0
 43
-900.942304321123
 44
-13.20000013171124
 45
-0.4490128060534576
 46
0.4490128060534577
 79
     0
 53
135.0
 43
-900.942304321123
 44
-13.20000013171124
 45
-0.4490128060534577
 46
-0.4490128060534576
 79
     0
 47
0.057451373970553
 98
        8
 10
16.07985497657932
 20
15.16717351417423
 10
22.40451501999519
 20
18.84406205073969
 10
25.16436789921567
 20
15.5118815143594
 10
30.91405999519315
 20
16.20129751473018
 10
41.83847203251275
 20
16.6609097822718
 10
46.89820090868557
 20
19.41857618469589
 10
56.55768598595637
 20
18.72915778338369
 10
67.82707963317875
 20
19.18877005092531
  0
LINE
  5
139F
330
1A
100
AcDbEntity
  8
ZUWAKU
100
AcDbLine
 10
24.94221216833716
 20
23.24999986828864
 30
0.0
 11
26.86721216833712
 21
23.24999986828868
 31
0.0
  0
LINE
  5
13A0
330
1A
100
AcDbEntity
  8
ZUWAKU
100
AcDbLine
 10
26.86721216833712
 20
20.44999986828868
 30
0.0
 11
24.94221216833716
 21
20.44999986828868
 31
0.0
  0
LINE
  5
13A1
330
1A
100
AcDbEntity
  8
ZUWAKU
100
AcDbLine
 10
24.94221216833716
 20
9.949999868288685
 30
0.0
 11
26.86721216833712
 21
9.949999868288685
 31
0.0
  0
LINE
  5
13A2
330
1A
100
AcDbEntity
  8
ZUWAKU
100
AcDbLine
 10
26.86721216833712
 20
7.149999868288688
 30
0.0
 11
24.94221216833716
 21
7.149999868288688
 31
0.0
  0
CIRCLE
  5
13A3
330
1A
100
AcDbEntity
  8
ZUWAKU
100
AcDbCircle
 10
25.99221216833711
 20
15.19999986828868
 30
0.0
 40
1.75
  0
ARC
  5
13A4
330
1A
100
AcDbEntity
  8
ZUWAKU
100
AcDbCircle
 10
15.49221216833712
 20
18.63479784293338
 30
0.0
 40
1.399999999999999
100
AcDbArc
 50
180.0000000000016
 51
224.9999999999988
  0
LINE
  5
13A5
330
1A
100
AcDbEntity
  8
ZUWAKU
100
AcDbLine
 10
23.54221216833718
 20
19.04999986828868
 30
0.0
 11
23.54221216833718
 21
11.34999986828869
 31
0.0
  0
LINE
  5
13A6
330
1A
100
AcDbEntity
  8
ZUWAKU
100
AcDbLine
 10
20.74221216833711
 20
11.34999986828869
 30
0.0
 11
20.74221216833711
 21
19.04999986828864
 31
0.0
  0
ARC
  5
13A7
330
1A
100
AcDbEntity
  8
ZUWAKU
100
AcDbCircle
 10
15.49221216833712
 20
18.63479784293338
 30
0.0
 40
4.199999999999999
100
AcDbArc
 50
180.0
 51
225.0
  0
ARC
  5
13A8
330
1A
100
AcDbEntity
  8
ZUWAKU
100
AcDbCircle
 10
15.84221216833714
 20
9.949999868288685
 30
0.0
 40
2.799999999999999
100
AcDbArc
 50
270.0
 51
0.0
  0
ARC
  5
13A9
330
1A
100
AcDbEntity
  8
ZUWAKU
100
AcDbCircle
 10
24.94221216833716
 20
11.34999986828869
 30
0.0
 40
4.199999999999999
100
AcDbArc
 50
180.0
 51
270.0
  0
ARC
  5
13AA
330
1A
100
AcDbEntity
  8
ZUWAKU
100
AcDbCircle
 10
14.44221216833716
 20
11.76520189364399
 30
0.0
 40
4.199999999999999
100
AcDbArc
 50
0.0
 51
45.0
  0
LINE
  5
13AB
330
1A
100
AcDbEntity
  8
ZUWAKU
100
AcDbLine
 10
17.41206064932066
 20
14.73505037462751
 30
0.0
 11
14.50226267467598
 21
17.64484834927218
 31
0.0
  0
LINE
  5
13AC
330
1A
100
AcDbEntity
  8
ZUWAKU
100
AcDbLine
 10
15.84221216833714
 20
10.47499986828869
 30
0.0
 11
15.84221216833714
 21
11.76520189364403
 31
0.0
  0
ARC
  5
13AD
330
1A
100
AcDbEntity
  8
ZUWAKU
100
AcDbCircle
 10
15.31721216833716
 20
10.47499986828869
 30
0.0
 40
0.525
100
AcDbArc
 50
270.0
 51
0.0
  0
ARC
  5
13AE
330
1A
100
AcDbEntity
  8
ZUWAKU
100
AcDbCircle
 10
14.44221216833716
 20
11.76520189364403
 30
0.0
 40
1.399999999999999
100
AcDbArc
 50
0.0
 51
45.0
  0
LINE
  5
13AF
330
1A
100
AcDbEntity
  8
ZUWAKU
100
AcDbLine
 10
11.81721216833716
 20
7.674999868288686
 30
0.0
 11
11.81721216833716
 21
9.424999868288686
 31
0.0
  0
ARC
  5
13B0
330
1A
100
AcDbEntity
  8
ZUWAKU
100
AcDbCircle
 10
12.34221216833714
 20
7.674999868288686
 30
0.0
 40
0.525
100
AcDbArc
 50
180.0
 51
270.0
  0
ARC
  5
13B1
330
1A
100
AcDbEntity
  8
ZUWAKU
100
AcDbCircle
 10
12.34221216833714
 20
9.424999868288686
 30
0.0
 40
0.525
100
AcDbArc
 50
90.0
 51
180.0
  0
LINE
  5
13B2
330
1A
100
AcDbEntity
  8
ZUWAKU
100
AcDbLine
 10
12.34221216833714
 20
7.149999868288688
 30
0.0
 11
15.84221216833714
 21
7.149999868288688
 31
0.0
  0
LINE
  5
13B3
330
1A
100
AcDbEntity
  8
ZUWAKU
100
AcDbLine
 10
12.34221216833714
 20
9.949999868288685
 30
0.0
 11
15.31721216833716
 21
9.949999868288685
 31
0.0
  0
LINE
  5
13B4
330
1A
100
AcDbEntity
  8
ZUWAKU
100
AcDbLine
 10
12.52236368735361
 20
15.66494936194986
 30
0.0
 11
15.43216166199829
 21
12.7551513873052
 31
0.0
  0
LINE
  5
13B5
330
1A
100
AcDbEntity
  8
ZUWAKU
100
AcDbLine
 10
18.64221216833721
 20
9.949999868288685
 30
0.0
 11
18.64221216833721
 21
11.76520189364403
 31
0.0
  0
ARC
  5
13B6
330
1A
100
AcDbEntity
  8
ZUWAKU
100
AcDbCircle
 10
24.94221216833716
 20
11.34999986828869
 30
0.0
 40
1.399999999999999
100
AcDbArc
 50
180.0
 51
270.0
  0
ARC
  5
13B7
330
1A
100
AcDbEntity
  8
ZUWAKU
100
AcDbCircle
 10
17.59221216833714
 20
22.72499986828868
 30
0.0
 40
0.525
100
AcDbArc
 50
0.0
 51
90.0
  0
ARC
  5
13B8
330
1A
100
AcDbEntity
  8
ZUWAKU
100
AcDbCircle
 10
17.59221216833714
 20
20.97499986828868
 30
0.0
 40
0.525
100
AcDbArc
 50
270.0
 51
0.0
  0
LINE
  5
13B9
330
1A
100
AcDbEntity
  8
ZUWAKU
100
AcDbLine
 10
14.09221216833714
 20
23.24999986828868
 30
0.0
 11
17.59221216833714
 21
23.24999986828868
 31
0.0
  0
ARC
  5
13BA
330
1A
100
AcDbEntity
  8
ZUWAKU
100
AcDbCircle
 10
14.61721216833711
 20
19.92499986828868
 30
0.0
 40
0.525
100
AcDbArc
 50
90.0
 51
180.0
  0
LINE
  5
13BB
330
1A
100
AcDbEntity
  8
ZUWAKU
100
AcDbLine
 10
14.09221216833714
 20
19.92499986828868
 30
0.0
 11
14.09221216833714
 21
18.63479784293334
 31
0.0
  0
LINE
  5
13BC
330
1A
100
AcDbEntity
  8
ZUWAKU
100
AcDbLine
 10
17.59221216833714
 20
20.44999986828868
 30
0.0
 11
14.61721216833711
 21
20.44999986828868
 31
0.0
  0
LINE
  5
13BD
330
1A
100
AcDbEntity
  8
ZUWAKU
100
AcDbLine
 10
11.29221216833718
 20
20.44999986828868
 30
0.0
 11
11.29221216833718
 21
18.63479784293334
 31
0.0
  0
ARC
  5
13BE
330
1A
100
AcDbEntity
  8
ZUWAKU
100
AcDbCircle
 10
14.09221216833714
 20
20.44999986828868
 30
0.0
 40
2.799999999999999
100
AcDbArc
 50
90.0
 51
180.0
  0
LINE
  5
13BF
330
1A
100
AcDbEntity
  8
ZUWAKU
100
AcDbLine
 10
18.11721216833712
 20
22.72499986828868
 30
0.0
 11
18.11721216833712
 21
20.97499986828868
 31
0.0
  0
ARC
  5
13C0
330
1A
100
AcDbEntity
  8
ZUWAKU
100
AcDbCircle
 10
24.94221216833716
 20
19.04999986828868
 30
0.0
 40
1.399999999999999
100
AcDbArc
 50
90.0
 51
180.0
  0
ARC
  5
13C1
330
1A
100
AcDbEntity
  8
ZUWAKU
100
AcDbCircle
 10
24.94221216833716
 20
19.04999986828864
 30
0.0
 40
4.199999999999999
100
AcDbArc
 50
90.0
 51
180.0
  0
LINE
  5
13C2
330
1A
100
AcDbEntity
  8
ZUWAKU
100
AcDbLine
 10
79.32662956154422
 20
29.99999986828868
 30
0.0
 11
79.32662956154445
 21
0.7999998682887508
 31
0.0
  0
LINE
  5
13C3
330
1A
100
AcDbEntity
  8
ZUWAKU
100
AcDbLine
 10
79.52662956154426
 20
29.99999986828868
 30
0.0
 11
79.52662956154449
 21
0.7999998682887508
 31
0.0
  0
LINE
  5
13C4
330
1A
100
AcDbEntity
  8
ZUWAKU
100
AcDbLine
 10
79.12662956154441
 20
29.99999986828868
 30
0.0
 11
79.12662956154441
 21
0.7999998682887508
 31
0.0
  0
LINE
  5
13C5
330
1A
100
AcDbEntity
  8
ZUWAKU
100
AcDbLine
 10
64.14221216833721
 20
9.949999868288685
 30
0.0
 11
64.14221216833721
 21
22.72499986828868
 31
0.0
  0
LINE
  5
13C6
330
1A
100
AcDbEntity
  8
ZUWAKU
100
AcDbLine
 10
61.34221216833714
 20
22.72499986828868
 30
0.0
 11
61.34221216833714
 21
10.99999986828868
 31
0.0
  0
LINE
  5
13C7
330
1A
100
AcDbEntity
  8
ZUWAKU
100
AcDbLine
 10
69.04221216833718
 20
7.674999868288686
 30
0.0
 11
69.04221216833718
 21
22.72499986828868
 31
0.0
  0
LINE
  5
13C8
330
1A
100
AcDbEntity
  8
ZUWAKU
100
AcDbLine
 10
66.24221216833712
 20
22.72499986828868
 30
0.0
 11
66.24221216833712
 21
7.674999868288686
 31
0.0
  0
ARC
  5
13C9
330
1A
100
AcDbEntity
  8
ZUWAKU
100
AcDbCircle
 10
49.79221216833718
 20
18.63479784293338
 30
0.0
 40
1.399999999999999
100
AcDbArc
 50
180.0000000000016
 51
224.9999999999988
  0
ARC
  5
13CA
330
1A
100
AcDbEntity
  8
ZUWAKU
100
AcDbCircle
 10
49.79221216833718
 20
18.63479784293338
 30
0.0
 40
4.199999999999999
100
AcDbArc
 50
180.0
 51
225.0
  0
LINE
  5
13CB
330
1A
100
AcDbEntity
  8
ZUWAKU
100
AcDbLine
 10
37.31485865051513
 20
19.20504706185211
 30
0.0
 11
36.05010690517929
 21
15.1999998682887
 31
0.0
  0
LINE
  5
13CC
330
1A
100
AcDbEntity
  8
ZUWAKU
100
AcDbLine
 10
40.69221216833716
 20
22.72499986828868
 30
0.0
 11
40.69221216833716
 21
7.674999868288686
 31
0.0
  0
LINE
  5
13CD
330
1A
100
AcDbEntity
  8
ZUWAKU
100
AcDbLine
 10
43.49221216833711
 20
7.674999868288686
 30
0.0
 11
43.49221216833711
 21
22.72499986828868
 31
0.0
  0
LINE
  5
13CE
330
1A
100
AcDbEntity
  8
ZUWAKU
100
AcDbLine
 10
55.04221216833719
 20
22.72499986828868
 30
0.0
 11
55.04221216833719
 21
9.949999868288685
 31
0.0
  0
LINE
  5
13CF
330
1A
100
AcDbEntity
  8
ZUWAKU
100
AcDbLine
 10
57.84221216833714
 20
10.99999986828868
 30
0.0
 11
57.84221216833714
 21
22.72499986828868
 31
0.0
  0
LINE
  5
13D0
330
1A
100
AcDbEntity
  8
ZUWAKU
100
AcDbLine
 10
32.64221216833721
 20
17.12499986828869
 30
0.0
 11
32.64221216833721
 21
22.72499986828868
 31
0.0
  0
LINE
  5
13D1
330
1A
100
AcDbEntity
  8
ZUWAKU
100
AcDbLine
 10
29.84221216833714
 20
22.72499986828868
 30
0.0
 11
29.84221216833714
 21
7.674999868288686
 31
0.0
  0
LINE
  5
13D2
330
1A
100
AcDbEntity
  8
ZUWAKU
100
AcDbLine
 10
35.676347105653
 20
22.88309383645565
 30
0.0
 11
33.80807723102122
 21
16.96690590012171
 31
0.0
  0
LINE
  5
13D3
330
1A
100
AcDbEntity
  8
ZUWAKU
100
AcDbLine
 10
60.29221216833718
 20
9.949999868288685
 30
0.0
 11
58.89221216833721
 21
9.949999868288685
 31
0.0
  0
LINE
  5
13D4
330
1A
100
AcDbEntity
  8
ZUWAKU
100
AcDbLine
 10
57.84221216833714
 20
7.149999868288688
 30
0.0
 11
61.34221216833714
 21
7.149999868288688
 31
0.0
  0
LINE
  5
13D5
330
1A
100
AcDbEntity
  8
ZUWAKU
100
AcDbLine
 10
41.21721216833714
 20
7.149999868288688
 30
0.0
 11
42.96721216833714
 21
7.149999868288688
 31
0.0
  0
LINE
  5
13D6
330
1A
100
AcDbEntity
  8
ZUWAKU
100
AcDbLine
 10
35.676347105653
 20
7.516905900121713
 30
0.0
 11
33.80807723102122
 21
13.43309383645565
 31
0.0
  0
ARC
  5
13D7
330
1A
100
AcDbEntity
  8
ZUWAKU
100
AcDbCircle
 10
33.30744633182587
 20
17.12499986828869
 30
0.0
 40
0.525
100
AcDbArc
 50
270.0
 51
342.4744316262769
  0
LINE
  5
13D8
330
1A
100
AcDbEntity
  8
ZUWAKU
100
AcDbLine
 10
33.30744633182587
 20
16.59999986828868
 30
0.0
 11
33.16721216833718
 21
16.59999986828868
 31
0.0
  0
LINE
  5
13D9
330
1A
100
AcDbEntity
  8
ZUWAKU
100
AcDbLine
 10
33.16721216833718
 20
13.79999986828868
 30
0.0
 11
33.30744633182587
 21
13.79999986828868
 31
0.0
  0
ARC
  5
13DA
330
1A
100
AcDbEntity
  8
ZUWAKU
100
AcDbCircle
 10
33.16721216833718
 20
17.12499986828869
 30
0.0
 40
0.525
100
AcDbArc
 50
180.0
 51
270.0
  0
LINE
  5
13DB
330
1A
100
AcDbEntity
  8
ZUWAKU
100
AcDbLine
 10
30.36721216833711
 20
7.149999868288688
 30
0.0
 11
32.11721216833712
 21
7.149999868288688
 31
0.0
  0
ARC
  5
13DC
330
1A
100
AcDbEntity
  8
ZUWAKU
100
AcDbCircle
 10
32.11721216833712
 20
7.674999868288686
 30
0.0
 40
0.525
100
AcDbArc
 50
270.0
 51
0.0
  0
LINE
  5
13DD
330
1A
100
AcDbEntity
  8
ZUWAKU
100
AcDbLine
 10
32.64221216833721
 20
7.674999868288686
 30
0.0
 11
32.64221216833721
 21
13.27499986828868
 31
0.0
  0
LINE
  5
13DE
330
1A
100
AcDbEntity
  8
ZUWAKU
100
AcDbLine
 10
27.39221216833721
 20
9.424999868288686
 30
0.0
 11
27.39221216833721
 21
7.674999868288686
 31
0.0
  0
ARC
  5
13DF
330
1A
100
AcDbEntity
  8
ZUWAKU
100
AcDbCircle
 10
26.86721216833712
 20
7.674999868288686
 30
0.0
 40
0.525
100
AcDbArc
 50
270.0
 51
0.0
  0
ARC
  5
13E0
330
1A
100
AcDbEntity
  8
ZUWAKU
100
AcDbCircle
 10
26.86721216833712
 20
9.424999868288686
 30
0.0
 40
0.525
100
AcDbArc
 50
0.0
 51
90.0
  0
ARC
  5
13E1
330
1A
100
AcDbEntity
  8
ZUWAKU
100
AcDbCircle
 10
30.36721216833711
 20
7.674999868288686
 30
0.0
 40
0.525
100
AcDbArc
 50
180.0
 51
270.0
  0
ARC
  5
13E2
330
1A
100
AcDbEntity
  8
ZUWAKU
100
AcDbCircle
 10
33.30744633182587
 20
13.27499986828868
 30
0.0
 40
0.525
100
AcDbArc
 50
17.52556837372303
 51
90.0
  0
ARC
  5
13E3
330
1A
100
AcDbEntity
  8
ZUWAKU
100
AcDbCircle
 10
33.16721216833718
 20
13.27499986828868
 30
0.0
 40
0.525
100
AcDbArc
 50
90.0
 51
180.0
  0
ARC
  5
13E4
330
1A
100
AcDbEntity
  8
ZUWAKU
100
AcDbCircle
 10
41.21721216833714
 20
7.674999868288686
 30
0.0
 40
0.525
100
AcDbArc
 50
180.0
 51
270.0
  0
LINE
  5
13E5
330
1A
100
AcDbEntity
  8
ZUWAKU
100
AcDbLine
 10
36.17697800484847
 20
7.149999868288688
 30
0.0
 11
37.87586738445748
 21
7.149999868288688
 31
0.0
  0
ARC
  5
13E6
330
1A
100
AcDbEntity
  8
ZUWAKU
100
AcDbCircle
 10
37.87586738445748
 20
7.674999868288686
 30
0.0
 40
0.525
100
AcDbArc
 50
270.0
 51
17.52556837372303
  0
LINE
  5
13E7
330
1A
100
AcDbEntity
  8
ZUWAKU
100
AcDbLine
 10
38.37649828365295
 20
7.83309383645566
 30
0.0
 11
36.05010690517929
 21
15.1999998682887
 31
0.0
  0
ARC
  5
13E8
330
1A
100
AcDbEntity
  8
ZUWAKU
100
AcDbCircle
 10
36.17697800484847
 20
7.674999868288686
 30
0.0
 40
0.525
100
AcDbArc
 50
197.525568373723
 51
270.0
  0
ARC
  5
13E9
330
1A
100
AcDbEntity
  8
ZUWAKU
100
AcDbCircle
 10
57.84221216833714
 20
9.949999868288685
 30
0.0
 40
2.799999999999999
100
AcDbArc
 50
180.0
 51
270.0
  0
ARC
  5
13EA
330
1A
100
AcDbEntity
  8
ZUWAKU
100
AcDbCircle
 10
50.14221216833721
 20
9.949999868288685
 30
0.0
 40
2.799999999999999
100
AcDbArc
 50
270.0
 51
0.0
  0
LINE
  5
13EB
330
1A
100
AcDbEntity
  8
ZUWAKU
100
AcDbLine
 10
51.71206064932073
 20
14.73505037462751
 30
0.0
 11
48.80226267467595
 21
17.64484834927218
 31
0.0
  0
LINE
  5
13EC
330
1A
100
AcDbEntity
  8
ZUWAKU
100
AcDbLine
 10
50.14221216833721
 20
10.47499986828869
 30
0.0
 11
50.14221216833721
 21
11.76520189364403
 31
0.0
  0
ARC
  5
13ED
330
1A
100
AcDbEntity
  8
ZUWAKU
100
AcDbCircle
 10
48.74221216833712
 20
11.76520189364403
 30
0.0
 40
1.399999999999999
100
AcDbArc
 50
0.0
 51
45.0
  0
ARC
  5
13EE
330
1A
100
AcDbEntity
  8
ZUWAKU
100
AcDbCircle
 10
49.61721216833712
 20
10.47499986828869
 30
0.0
 40
0.525
100
AcDbArc
 50
270.0
 51
0.0
  0
LINE
  5
13EF
330
1A
100
AcDbEntity
  8
ZUWAKU
100
AcDbLine
 10
46.11721216833712
 20
7.674999868288686
 30
0.0
 11
46.11721216833712
 21
9.424999868288686
 31
0.0
  0
ARC
  5
13F0
330
1A
100
AcDbEntity
  8
ZUWAKU
100
AcDbCircle
 10
46.64221216833721
 20
7.674999868288686
 30
0.0
 40
0.525
100
AcDbArc
 50
180.0
 51
270.0
  0
ARC
  5
13F1
330
1A
100
AcDbEntity
  8
ZUWAKU
100
AcDbCircle
 10
42.96721216833714
 20
7.674999868288686
 30
0.0
 40
0.525
100
AcDbArc
 50
270.0
 51
0.0
  0
ARC
  5
13F2
330
1A
100
AcDbEntity
  8
ZUWAKU
100
AcDbCircle
 10
46.64221216833721
 20
9.424999868288686
 30
0.0
 40
0.525
100
AcDbArc
 50
90.0
 51
180.0
  0
LINE
  5
13F3
330
1A
100
AcDbEntity
  8
ZUWAKU
100
AcDbLine
 10
46.64221216833721
 20
9.949999868288685
 30
0.0
 11
49.61721216833712
 21
9.949999868288685
 31
0.0
  0
LINE
  5
13F4
330
1A
100
AcDbEntity
  8
ZUWAKU
100
AcDbLine
 10
46.64221216833721
 20
7.149999868288688
 30
0.0
 11
50.14221216833721
 21
7.149999868288688
 31
0.0
  0
LINE
  5
13F5
330
1A
100
AcDbEntity
  8
ZUWAKU
100
AcDbLine
 10
46.82236368735368
 20
15.66494936194986
 30
0.0
 11
49.73216166199836
 21
12.7551513873052
 31
0.0
  0
LINE
  5
13F6
330
1A
100
AcDbEntity
  8
ZUWAKU
100
AcDbLine
 10
52.94221216833716
 20
9.949999868288685
 30
0.0
 11
52.94221216833716
 21
11.76520189364403
 31
0.0
  0
ARC
  5
13F7
330
1A
100
AcDbEntity
  8
ZUWAKU
100
AcDbCircle
 10
48.74221216833712
 20
11.76520189364399
 30
0.0
 40
4.199999999999999
100
AcDbArc
 50
0.0
 51
45.0
  0
ARC
  5
13F8
330
1A
100
AcDbEntity
  8
ZUWAKU
100
AcDbCircle
 10
58.89221216833721
 20
10.99999986828868
 30
0.0
 40
1.049999999999999
100
AcDbArc
 50
180.0
 51
270.0
  0
ARC
  5
13F9
330
1A
100
AcDbEntity
  8
ZUWAKU
100
AcDbCircle
 10
61.34221216833714
 20
9.949999868288685
 30
0.0
 40
2.799999999999999
100
AcDbArc
 50
270.0
 51
0.0
  0
LINE
  5
13FA
330
1A
100
AcDbEntity
  8
ZUWAKU
100
AcDbLine
 10
66.76721216833721
 20
7.149999868288688
 30
0.0
 11
68.51721216833721
 21
7.149999868288688
 31
0.0
  0
ARC
  5
13FB
330
1A
100
AcDbEntity
  8
ZUWAKU
100
AcDbCircle
 10
66.76721216833721
 20
7.674999868288686
 30
0.0
 40
0.525
100
AcDbArc
 50
180.0
 51
270.0
  0
ARC
  5
13FC
330
1A
100
AcDbEntity
  8
ZUWAKU
100
AcDbCircle
 10
60.29221216833718
 20
10.99999986828868
 30
0.0
 40
1.049999999999999
100
AcDbArc
 50
270.0
 51
0.0
  0
ARC
  5
13FD
330
1A
100
AcDbEntity
  8
ZUWAKU
100
AcDbCircle
 10
68.51721216833721
 20
7.674999868288686
 30
0.0
 40
0.525
100
AcDbArc
 50
270.0
 51
0.0
  0
LINE
  5
13FE
330
1A
100
AcDbEntity
  8
ZUWAKU
100
AcDbLine
 10
42.96721216833714
 20
23.24999986828868
 30
0.0
 11
41.21721216833714
 21
23.24999986828868
 31
0.0
  0
ARC
  5
13FF
330
1A
100
AcDbEntity
  8
ZUWAKU
100
AcDbCircle
 10
32.11721216833712
 20
22.72499986828868
 30
0.0
 40
0.525
100
AcDbArc
 50
0.0
 51
90.0
  0
LINE
  5
1400
330
1A
100
AcDbEntity
  8
ZUWAKU
100
AcDbLine
 10
32.11721216833712
 20
23.24999986828868
 30
0.0
 11
30.36721216833711
 21
23.24999986828868
 31
0.0
  0
ARC
  5
1401
330
1A
100
AcDbEntity
  8
ZUWAKU
100
AcDbCircle
 10
26.86721216833712
 20
22.72499986828868
 30
0.0
 40
0.525
100
AcDbArc
 50
0.0
 51
90.0
  0
ARC
  5
1402
330
1A
100
AcDbEntity
  8
ZUWAKU
100
AcDbCircle
 10
30.36721216833711
 20
22.72499986828868
 30
0.0
 40
0.525
100
AcDbArc
 50
90.0
 51
180.0
  0
ARC
  5
1403
330
1A
100
AcDbEntity
  8
ZUWAKU
100
AcDbCircle
 10
26.86721216833712
 20
20.97499986828868
 30
0.0
 40
0.525
100
AcDbArc
 50
270.0
 51
0.0
  0
LINE
  5
1404
330
1A
100
AcDbEntity
  8
ZUWAKU
100
AcDbLine
 10
27.39221216833721
 20
22.72499986828868
 30
0.0
 11
27.39221216833721
 21
20.97499986828868
 31
0.0
  0
ARC
  5
1405
330
1A
100
AcDbEntity
  8
ZUWAKU
100
AcDbCircle
 10
41.21721216833714
 20
22.72499986828868
 30
0.0
 40
0.525
100
AcDbArc
 50
90.0
 51
180.0
  0
LINE
  5
1406
330
1A
100
AcDbEntity
  8
ZUWAKU
100
AcDbLine
 10
36.17697800484847
 20
23.24999986828868
 30
0.0
 11
37.87586738445748
 21
23.24999986828868
 31
0.0
  0
ARC
  5
1407
330
1A
100
AcDbEntity
  8
ZUWAKU
100
AcDbCircle
 10
37.87586738445748
 20
22.72499986828868
 30
0.0
 40
0.525
100
AcDbArc
 50
342.4744316262769
 51
90.0
  0
LINE
  5
1408
330
1A
100
AcDbEntity
  8
ZUWAKU
100
AcDbLine
 10
38.37649828365295
 20
22.56690590012171
 30
0.0
 11
37.31485865051513
 21
19.20504706185211
 31
0.0
  0
ARC
  5
1409
330
1A
100
AcDbEntity
  8
ZUWAKU
100
AcDbCircle
 10
36.17697800484847
 20
22.72499986828868
 30
0.0
 40
0.525
100
AcDbArc
 50
90.0
 51
162.4744316262769
  0
LINE
  5
140A
330
1A
100
AcDbEntity
  8
ZUWAKU
100
AcDbLine
 10
48.3922121683372
 20
23.24999986828868
 30
0.0
 11
51.89221216833721
 21
23.24999986828868
 31
0.0
  0
LINE
  5
140B
330
1A
100
AcDbEntity
  8
ZUWAKU
100
AcDbLine
 10
51.89221216833721
 20
20.44999986828868
 30
0.0
 11
48.91721216833719
 21
20.44999986828868
 31
0.0
  0
ARC
  5
140C
330
1A
100
AcDbEntity
  8
ZUWAKU
100
AcDbCircle
 10
48.91721216833719
 20
19.92499986828868
 30
0.0
 40
0.525
100
AcDbArc
 50
90.0
 51
180.0
  0
LINE
  5
140D
330
1A
100
AcDbEntity
  8
ZUWAKU
100
AcDbLine
 10
48.3922121683372
 20
19.92499986828868
 30
0.0
 11
48.3922121683372
 21
18.63479784293334
 31
0.0
  0
ARC
  5
140E
330
1A
100
AcDbEntity
  8
ZUWAKU
100
AcDbCircle
 10
42.96721216833714
 20
22.72499986828868
 30
0.0
 40
0.525
100
AcDbArc
 50
0.0
 51
90.0
  0
LINE
  5
140F
330
1A
100
AcDbEntity
  8
ZUWAKU
100
AcDbLine
 10
45.59221216833714
 20
20.44999986828868
 30
0.0
 11
45.59221216833714
 21
18.63479784293334
 31
0.0
  0
ARC
  5
1410
330
1A
100
AcDbEntity
  8
ZUWAKU
100
AcDbCircle
 10
48.3922121683372
 20
20.44999986828868
 30
0.0
 40
2.799999999999999
100
AcDbArc
 50
90.0
 51
180.0
  0
ARC
  5
1411
330
1A
100
AcDbEntity
  8
ZUWAKU
100
AcDbCircle
 10
57.31721216833716
 20
22.72499986828868
 30
0.0
 40
0.525
100
AcDbArc
 50
0.0
 51
90.0
  0
ARC
  5
1412
330
1A
100
AcDbEntity
  8
ZUWAKU
100
AcDbCircle
 10
55.56721216833716
 20
22.72499986828868
 30
0.0
 40
0.525
100
AcDbArc
 50
90.0
 51
180.0
  0
LINE
  5
1413
330
1A
100
AcDbEntity
  8
ZUWAKU
100
AcDbLine
 10
57.31721216833716
 20
23.24999986828868
 30
0.0
 11
55.56721216833716
 21
23.24999986828868
 31
0.0
  0
ARC
  5
1414
330
1A
100
AcDbEntity
  8
ZUWAKU
100
AcDbCircle
 10
51.89221216833721
 20
22.72499986828868
 30
0.0
 40
0.525
100
AcDbArc
 50
0.0
 51
90.0
  0
ARC
  5
1415
330
1A
100
AcDbEntity
  8
ZUWAKU
100
AcDbCircle
 10
51.89221216833721
 20
20.97499986828868
 30
0.0
 40
0.525
100
AcDbArc
 50
270.0
 51
0.0
  0
LINE
  5
1416
330
1A
100
AcDbEntity
  8
ZUWAKU
100
AcDbLine
 10
52.41721216833719
 20
22.72499986828868
 30
0.0
 11
52.41721216833719
 21
20.97499986828868
 31
0.0
  0
LINE
  5
1417
330
1A
100
AcDbEntity
  8
ZUWAKU
100
AcDbLine
 10
68.51721216833721
 20
23.24999986828868
 30
0.0
 11
66.76721216833721
 21
23.24999986828868
 31
0.0
  0
ARC
  5
1418
330
1A
100
AcDbEntity
  8
ZUWAKU
100
AcDbCircle
 10
66.76721216833721
 20
22.72499986828868
 30
0.0
 40
0.525
100
AcDbArc
 50
90.0
 51
180.0
  0
ARC
  5
1419
330
1A
100
AcDbEntity
  8
ZUWAKU
100
AcDbCircle
 10
63.61721216833712
 20
22.72499986828868
 30
0.0
 40
0.525
100
AcDbArc
 50
0.0
 51
90.0
  0
LINE
  5
141A
330
1A
100
AcDbEntity
  8
ZUWAKU
100
AcDbLine
 10
63.61721216833712
 20
23.24999986828868
 30
0.0
 11
61.86721216833712
 21
23.24999986828868
 31
0.0
  0
ARC
  5
141B
330
1A
100
AcDbEntity
  8
ZUWAKU
100
AcDbCircle
 10
61.86721216833712
 20
22.72499986828868
 30
0.0
 40
0.525
100
AcDbArc
 50
90.0
 51
180.0
  0
ARC
  5
141C
330
1A
100
AcDbEntity
  8
ZUWAKU
100
AcDbCircle
 10
68.51721216833721
 20
22.72499986828868
 30
0.0
 40
0.525
100
AcDbArc
 50
0.0
 51
90.0
  0
TEXT
  5
141D
330
1A
100
AcDbEntity
  8
MOJI
100
AcDbText
 10
239.827202694407
 20
18.00492092569607
 30
0.0
 40
5.599999999999999
  1
曲り
 41
0.9
  7
ｽﾀｲﾙ1
100
AcDbText
  0
TEXT
  5
141E
330
1A
100
AcDbEntity
  8
MOJI
100
AcDbText
 10
239.827202694407
 20
3.204920925696104
 30
0.0
 40
5.599999999999999
  1
Ｘ７０Ｕ
 41
0.9
  7
ｽﾀｲﾙ1
100
AcDbText
  0
LINE
  5
141F
330
1A
100
AcDbEntity
  8
ZUWAKU
100
AcDbLine
 10
208.2466013036239
 20
29.99999986828868
 30
0.0
 11
208.2466013036239
 21
0.7999998682887508
 31
0.0
  0
LINE
  5
1420
330
1A
100
AcDbEntity
  8
ZUWAKU
100
AcDbLine
 10
208.6466013036238
 20
29.99999986828868
 30
0.0
 11
208.646601303624
 21
0.7999998682887508
 31
0.0
  0
LINE
  5
1421
330
1A
100
AcDbEntity
  8
ZUWAKU
100
AcDbLine
 10
208.4466013036237
 20
29.99999986828868
 30
0.0
 11
208.446601303624
 21
0.7999998682887508
 31
0.0
  0
TEXT
  5
1422
330
1A
100
AcDbEntity
  8
ZUWAKU
100
AcDbText
 10
209.7240463258335
 20
9.6553564066743
 30
0.0
 40
4.0
  1
サイズ
 41
0.9
  7
ｽﾀｲﾙ1
100
AcDbText
  0
TEXT
  5
1423
330
1A
100
AcDbEntity
  8
ZUWAKU
100
AcDbText
 10
209.7240463258333
 20
24.05535640667426
 30
0.0
 40
4.0
  1
品名
 41
0.9
  7
ｽﾀｲﾙ1
100
AcDbText
  0
LINE
  5
1424
330
1A
100
AcDbEntity
  8
ZUWAKU
100
AcDbLine
 10
648.8172025237602
 20
15.19999986828871
 30
0.0
 11
697.2490105620972
 21
15.19999986828871
 31
0.0
  0
LINE
  5
1425
330
1A
100
AcDbEntity
  8
ZUWAKU
100
AcDbLine
 10
648.8172025237604
 20
15.39999986828872
 30
0.0
 11
697.2490105620972
 21
15.39999986828871
 31
0.0
  0
LINE
  5
1426
330
1A
100
AcDbEntity
  8
ZUWAKU
100
AcDbLine
 10
648.8172025237602
 20
15.59999986828871
 30
0.0
 11
697.2490105620972
 21
15.59999986828871
 31
0.0
  0
TEXT
  5
1427
330
1A
100
AcDbEntity
  8
ZUWAKU
100
AcDbText
 10
658.2039377008584
 20
18.00492092569607
 30
0.0
 40
5.599999999999999
  1
　　．　　．　　
 41
0.9
  7
ｽﾀｲﾙ1
100
AcDbText
  0
LINE
  5
1428
330
1A
100
AcDbEntity
  8
ZUWAKU
100
AcDbLine
 10
505.1991795116968
 20
15.19999986828872
 30
0.0
 11
552.5269557796685
 21
15.19999986828872
 31
0.0
  0
LINE
  5
1429
330
1A
100
AcDbEntity
  8
ZUWAKU
100
AcDbLine
 10
505.1991795116968
 20
15.39999986828871
 30
0.0
 11
552.5269557796685
 21
15.39999986828871
 31
0.0
  0
LINE
  5
142A
330
1A
100
AcDbEntity
  8
ZUWAKU
100
AcDbLine
 10
505.1991795116968
 20
15.59999986828871
 30
0.0
 11
552.5269557796685
 21
15.59999986828871
 31
0.0
  0
TEXT
  5
142B
330
1A
100
AcDbEntity
  8
MOJI
100
AcDbText
 10
463.246432004558
 20
11.94261758994866
 30
0.0
 40
5.599999999999999
  1
ＧＲ６９□
 41
0.9
  7
ｽﾀｲﾙ1
100
AcDbText
  0
LINE
  5
142C
330
1A
100
AcDbEntity
  8
ZUWAKU
100
AcDbLine
 10
447.6243639845472
 20
29.99999986828868
 30
0.0
 11
447.6243639845474
 21
0.7999998682887508
 31
0.0
  0
LINE
  5
142D
330
1A
100
AcDbEntity
  8
ZUWAKU
100
AcDbLine
 10
447.8243639845472
 20
29.99999986828868
 30
0.0
 11
447.8243639845475
 21
0.7999998682887508
 31
0.0
  0
LINE
  5
142E
330
1A
100
AcDbEntity
  8
ZUWAKU
100
AcDbLine
 10
447.4243639845474
 20
29.99999986828868
 30
0.0
 11
447.4243639845474
 21
0.7999998682887508
 31
0.0
  0
TEXT
  5
142F
330
1A
100
AcDbEntity
  8
MOJI
100
AcDbText
 10
528.0409079858689
 20
18.00492092569607
 30
0.0
 40
5.599999999999999
  1
Ａ３
 41
0.9
  7
ｽﾀｲﾙ1
100
AcDbText
  0
LINE
  5
1430
330
1A
100
AcDbEntity
  8
ZUWAKU
100
AcDbLine
 10
504.9991795116969
 20
29.99999986828868
 30
0.0
 11
504.999179511697
 21
0.7999998682887508
 31
0.0
  0
LINE
  5
1431
330
1A
100
AcDbEntity
  8
ZUWAKU
100
AcDbLine
 10
505.1991795116968
 20
29.99999986828868
 30
0.0
 11
505.1991795116971
 21
0.7999998682887508
 31
0.0
  0
LINE
  5
1432
330
1A
100
AcDbEntity
  8
ZUWAKU
100
AcDbLine
 10
504.799179511697
 20
29.99999986828868
 30
0.0
 11
504.799179511697
 21
0.7999998682887508
 31
0.0
  0
TEXT
  5
1433
330
1A
100
AcDbEntity
  8
ZUWAKU
100
AcDbText
 10
461.6981352414684
 20
2.908329108177895
 30
0.0
 40
3.0
  1
□には色品番が入ります
 41
0.9
  7
ｽﾀｲﾙ1
100
AcDbText
  0
TEXT
  5
1434
330
1A
100
AcDbEntity
  8
ZUWAKU
100
AcDbText
 10
506.6766245339067
 20
9.6553564066743
 30
0.0
 40
4.0
  1
縮尺
 41
0.9
  7
ｽﾀｲﾙ1
100
AcDbText
  0
TEXT
  5
1435
330
1A
100
AcDbEntity
  8
MOJI
100
AcDbText
 10
528.0409079858689
 20
3.204920925696104
 30
0.0
 40
5.599999999999999
  1
１/２
 41
0.9
  7
ｽﾀｲﾙ1
100
AcDbText
  0
TEXT
  5
1436
330
1A
100
AcDbEntity
  8
ZUWAKU
100
AcDbText
 10
449.3018090067569
 20
24.05535640667426
 30
0.0
 40
4.0
  1
品番
 41
0.9
  7
ｽﾀｲﾙ1
100
AcDbText
  0
TEXT
  5
1437
330
1A
100
AcDbEntity
  8
ZUWAKU
100
AcDbText
 10
506.6766245339065
 20
24.05535640667426
 30
0.0
 40
4.0
  1
用紙
 41
0.9
  7
ｽﾀｲﾙ1
100
AcDbText
  0
LINE
  5
1438
330
1A
100
AcDbEntity
  8
ZUWAKU
100
AcDbLine
 10
648.6172025237603
 20
29.99999986828868
 30
0.0
 11
648.6172025237606
 21
0.7999998682887508
 31
0.0
  0
LINE
  5
1439
330
1A
100
AcDbEntity
  8
ZUWAKU
100
AcDbLine
 10
648.8172025237604
 20
29.99999986828868
 30
0.0
 11
648.8172025237607
 21
0.7999998682887508
 31
0.0
  0
LINE
  5
143A
330
1A
100
AcDbEntity
  8
ZUWAKU
100
AcDbLine
 10
648.4172025237605
 20
29.99999986828868
 30
0.0
 11
648.4172025237605
 21
0.7999998682887508
 31
0.0
  0
LINE
  5
143B
330
1A
100
AcDbEntity
  8
ZUWAKU
100
AcDbLine
 10
552.7269557796683
 20
29.99999986828868
 30
0.0
 11
552.7269557796684
 21
0.7999998682887508
 31
0.0
  0
LINE
  5
143C
330
1A
100
AcDbEntity
  8
ZUWAKU
100
AcDbLine
 10
552.9269557796683
 20
29.99999986828868
 30
0.0
 11
552.9269557796685
 21
0.7999998682887508
 31
0.0
  0
LINE
  5
143D
330
1A
100
AcDbEntity
  8
ZUWAKU
100
AcDbLine
 10
552.5269557796685
 20
29.99999986828868
 30
0.0
 11
552.5269557796685
 21
0.7999998682887508
 31
0.0
  0
TEXT
  5
143E
330
1A
100
AcDbEntity
  8
ZUWAKU
100
AcDbText
 10
650.29464754597
 20
24.05535640667426
 30
0.0
 40
4.0
  1
DATE
 41
0.9
  7
ｽﾀｲﾙ1
100
AcDbText
  0
LINE
  5
143F
330
1A
100
AcDbEntity
  8
ZUWAKU
100
AcDbLine
 10
697.2490105620972
 20
29.99999986828868
 30
0.0
 11
697.2490105620972
 21
0.7999998682887508
 31
0.0
  0
LINE
  5
1440
330
1A
100
AcDbEntity
  8
ZUWAKU
100
AcDbLine
 10
697.4490105620973
 20
29.99999986828868
 30
0.0
 11
697.4490105620973
 21
0.7999998682887508
 31
0.0
  0
LINE
  5
1441
330
1A
100
AcDbEntity
  8
ZUWAKU
100
AcDbLine
 10
697.6490105620971
 20
29.99999986828868
 30
0.0
 11
697.6490105620974
 21
0.7999998682887508
 31
0.0
  0
LINE
  5
1442
330
1A
100
AcDbEntity
  8
ZUWAKU
100
AcDbLine
 10
697.8490105620972
 20
29.99999986828868
 30
0.0
 11
697.8490105620974
 21
0.7999998682887508
 31
0.0
  0
TEXT
  5
1443
330
1A
100
AcDbEntity
  8
ZUWAKU
100
AcDbText
 10
708.5280842057998
 20
17.55383920397548
 30
0.0
 40
6.0
  1
積水化学工業株式会社
 41
0.9
  7
ｽﾀｲﾙ1
100
AcDbText
  0
TEXT
  5
1444
330
1A
100
AcDbEntity
  8
ZUWAKU
100
AcDbText
 10
708.5280842057998
 20
6.648840182142748
 30
0.0
 40
6.0
  1
建材事業部
 41
0.9
  7
ｽﾀｲﾙ1
100
AcDbText
  0
TEXT
  5
2F74
330
1A
100
AcDbEntity
  8
SUNPOU
  6
CONTINUOUS
 62
     4
100
AcDbText
 10
670.7313264191348
 20
40.37625093035972
 30
0.0
 40
6.0
  1
※ のきといの差込み寸法を示す
100
AcDbText
  0
ARC
  5
3317
330
1A
100
AcDbEntity
  8
SEIHIN
  6
CONTINUOUS
 62
     3
 48
16.0
100
AcDbCircle
 10
304.3966726641062
 20
110.0572338362927
 30
0.0
 40
4.999997052880333
100
AcDbArc
 50
195.8260846291735
 51
344.1725003696694
  0
ARC
  5
3318
330
1A
100
AcDbEntity
  8
SEIHIN
  6
CONTINUOUS
 62
     3
 48
16.0
100
AcDbCircle
 10
248.8006726641062
 20
104.7743338362927
 30
0.0
 40
13.99997249689096
100
AcDbArc
 50
159.3552870817047
 51
175.0929132915947
  0
ARC
  5
3319
330
1A
100
AcDbEntity
  8
SEIHIN
  6
CONTINUOUS
 62
     3
 48
16.0
100
AcDbCircle
 10
145.0226726641062
 20
104.7743338362927
 30
0.0
 40
13.99998305603803
100
AcDbArc
 50
4.90682824667888
 51
77.80811534400161
  0
LINE
  5
331A
330
1A
100
AcDbEntity
  8
SEIHIN
  6
CONTINUOUS
100
AcDbLine
 10
233.8556792115316
 20
105.0574338362927
 30
0.0
 11
159.9593965809257
 21
105.0574338362927
 31
0.0
  0
LINE
  5
331B
330
1A
100
AcDbEntity
  8
SEIHIN
  6
CONTINUOUS
 62
     3
 48
16.0
100
AcDbLine
 10
196.9116726641061
 20
105.0573338362928
 30
0.0
 11
233.8556726641061
 21
105.0574338362927
 31
0.0
  0
LINE
  5
331C
330
1A
100
AcDbEntity
  8
SEIHIN
  6
CONTINUOUS
 62
     3
 48
16.0
100
AcDbLine
 10
196.9116726641061
 20
105.0573338362928
 30
0.0
 11
159.9677726641061
 21
105.0574338362927
 31
0.0
  0
LINE
  5
331D
330
1A
100
AcDbEntity
  8
SEIHIN
  6
CONTINUOUS
 62
     3
 48
16.0
100
AcDbLine
 10
162.2731726641062
 20
105.0574338362927
 30
0.0
 11
196.9116726641061
 21
105.0573338362928
 31
0.0
  0
ARC
  5
331E
330
1A
100
AcDbEntity
  8
SEIHIN
  6
CONTINUOUS
 62
     3
 48
16.0
100
AcDbCircle
 10
159.9677726641061
 20
106.0574338362927
 30
0.0
 40
1.000035078769463
100
AcDbArc
 50
184.9101827590424
 51
270.0
  0
ARC
  5
331F
330
1A
100
AcDbEntity
  8
SEIHIN
  6
CONTINUOUS
 48
16.0
100
AcDbCircle
 10
233.8556792115316
 20
106.0574338362927
 30
0.0
 40
1.0
100
AcDbArc
 50
270.0
 51
355.0929132915956
  0
LINE
  5
3320
330
1A
100
AcDbEntity
  8
SEIHIN
  6
CONTINUOUS
 62
     3
 48
16.0
100
AcDbLine
 10
138.4267726641062
 20
148.0074338362928
 30
0.0
 11
330.3964450624334
 21
148.0074338362937
 31
0.0
  0
LINE
  5
3321
330
1A
100
AcDbEntity
  8
SEIHIN
  6
CONTINUOUS
 62
     3
 48
16.0
100
AcDbLine
 10
334.3965726641062
 20
162.8571338362928
 30
0.0
 11
255.3965726641062
 21
162.8574338362928
 31
0.0
  0
LINE
  5
3322
330
1A
100
AcDbEntity
  8
SEIHIN
  6
CONTINUOUS
 62
     3
 48
16.0
100
AcDbLine
 10
299.1051726641062
 20
109.0572338362927
 30
0.0
 11
257.9723726641062
 21
109.0572338362927
 31
0.0
  0
LINE
  5
3323
330
1A
100
AcDbEntity
  8
SEIHIN
  6
CONTINUOUS
 62
     3
 48
16.0
100
AcDbLine
 10
299.1002726641062
 20
120.8485338362928
 30
0.0
 11
256.5377430630249
 21
120.8486376883748
 31
0.0
  0
LINE
  5
3324
330
1A
100
AcDbEntity
  8
SEIHIN
  6
CONTINUOUS
 62
     3
 48
16.0
100
AcDbLine
 10
256.5377430630253
 20
120.8486376883748
 30
0.0
 11
150.2900071009197
 21
124.2011471742334
 31
0.0
  0
LINE
  5
3325
330
1A
100
AcDbEntity
  8
SEIHIN
  6
CONTINUOUS
 62
     3
 48
16.0
100
AcDbLine
 10
161.5911553931147
 20
112.0488279243511
 30
0.0
 11
254.8186726641062
 21
109.1070338362927
 31
0.0
  0
LINE
  5
3326
330
1A
100
AcDbEntity
  8
SEIHIN
  6
CONTINUOUS
 62
     3
 48
16.0
100
AcDbLine
 10
246.4729726641063
 20
162.8574338362928
 30
0.0
 11
138.4267726641062
 21
162.8574338362928
 31
0.0
  0
LINE
  5
3327
330
1A
100
AcDbEntity
  8
SEIHIN
  6
CONTINUOUS
 62
     3
 48
16.0
100
AcDbLine
 10
162.2731726641062
 20
109.0574338362927
 30
0.0
 11
234.8036088562853
 21
109.0572244437493
 31
0.0
  0
LINE
  5
3328
330
1A
100
AcDbEntity
  8
SEIHIN
  6
CONTINUOUS
 62
     3
 48
16.0
100
AcDbLine
 10
137.4267726641062
 20
161.8574338362928
 30
0.0
 11
137.4267726641062
 21
149.0074338362927
 31
0.0
  0
LINE
  5
3329
330
1A
100
AcDbEntity
  8
SEIHIN
  6
CONTINUOUS
 62
     3
 48
16.0
100
AcDbLine
 10
141.5710726641062
 20
147.2050338362928
 30
0.0
 11
147.2101726641062
 21
119.2383338362927
 31
0.0
  0
LINE
  5
332A
330
1A
100
AcDbEntity
  8
SEIHIN
  6
CONTINUOUS
 62
     3
 48
16.0
100
AcDbLine
 10
145.6515607945795
 20
147.2050927021127
 30
0.0
 11
150.1539346869881
 21
124.8759857281801
 31
0.0
  0
LINE
  5
332B
330
1A
100
AcDbEntity
  8
SEIHIN
  6
CONTINUOUS
 62
     3
 48
16.0
100
AcDbLine
 10
145.6515726641063
 20
147.2050338362928
 30
0.0
 11
150.8298726641062
 21
121.5237338362927
 31
0.0
  0
ARC
  5
332C
330
1A
100
AcDbEntity
  8
SEIHIN
  6
CONTINUOUS
 62
     3
 48
16.0
100
AcDbCircle
 10
148.6434346869882
 20
112.3144857281801
 30
0.0
 40
11.9999891672407
100
AcDbArc
 50
3.236046325897322
 51
78.95384778012363
  0
ARC
  5
332D
330
1A
100
AcDbEntity
  8
SEIHIN
  6
CONTINUOUS
 62
     3
 48
16.0
100
AcDbCircle
 10
149.3193726641062
 20
108.9622338362927
 30
0.0
 40
11.9999891672407
100
AcDbArc
 50
4.832436958278186
 51
78.95384778012363
  0
ARC
  5
332E
330
1A
100
AcDbEntity
  8
SEIHIN
  6
CONTINUOUS
 62
     3
 48
16.0
100
AcDbCircle
 10
148.1904726641062
 20
119.4360338362927
 30
0.0
 40
1.000046266383867
100
AcDbArc
 50
191.4020694733567
 51
257.8080067333104
  0
ARC
  5
332F
330
1A
100
AcDbEntity
  8
SEIHIN
  6
CONTINUOUS
 62
     3
 48
16.0
100
AcDbCircle
 10
151.1342346869881
 20
125.0735857281801
 30
0.0
 40
0.9999725911416202
100
AcDbArc
 50
191.3964530692053
 51
258.9530243822374
  0
ARC
  5
3330
330
1A
100
AcDbEntity
  8
SEIHIN
  6
CONTINUOUS
 62
     3
 48
16.0
100
AcDbCircle
 10
151.8101726641063
 20
121.7213338362927
 30
0.0
 40
0.9999725911416202
100
AcDbArc
 50
191.3964530692053
 51
258.9530243822374
  0
ARC
  5
3331
330
1A
100
AcDbEntity
  8
SEIHIN
  6
CONTINUOUS
 62
     3
 48
16.0
100
AcDbCircle
 10
162.2731726641062
 20
110.0574338362927
 30
0.0
 40
1.000029684118854
100
AcDbArc
 50
184.8354855924068
 51
270.0
  0
ARC
  5
3332
330
1A
100
AcDbEntity
  8
SEIHIN
  6
CONTINUOUS
 62
     3
 48
16.0
100
AcDbCircle
 10
161.6226946925456
 20
113.0483304368999
 30
0.0
 40
1.0
100
AcDbArc
 50
183.2360463258964
 51
268.1926315294872
  0
ARC
  5
3333
330
1A
100
AcDbEntity
  8
SEIHIN
  6
CONTINUOUS
 62
     3
 48
16.0
100
AcDbCircle
 10
144.6712899275419
 20
147.0074338362928
 30
0.0
 40
1.0
100
AcDbArc
 50
11.40008916036227
 51
90.0
  0
ARC
  5
3334
330
1A
100
AcDbEntity
  8
SEIHIN
  6
CONTINUOUS
 62
     3
 48
16.0
100
AcDbCircle
 10
138.4267726641062
 20
149.0074338362927
 30
0.0
 40
1.0
100
AcDbArc
 50
180.0
 51
270.0
  0
ARC
  5
3335
330
1A
100
AcDbEntity
  8
SEIHIN
  6
CONTINUOUS
 62
     3
 48
16.0
100
AcDbCircle
 10
140.5908726641061
 20
147.0074338362928
 30
0.0
 40
0.9999594483555931
100
AcDbArc
 50
11.39758530647495
 51
90.0
  0
ARC
  5
3336
330
1A
100
AcDbEntity
  8
SEIHIN
  6
CONTINUOUS
 62
     3
 48
16.0
100
AcDbCircle
 10
138.4267726641062
 20
161.8574338362928
 30
0.0
 40
1.0
100
AcDbArc
 50
90.0
 51
180.0
  0
ARC
  5
3337
330
1A
100
AcDbEntity
  8
SEIHIN
  6
CONTINUOUS
 62
     3
 48
16.0
100
AcDbCircle
 10
234.8036117432463
 20
110.0572244437451
 30
0.0
 40
1.0
100
AcDbArc
 50
269.9998345893191
 51
323.7789920232076
  0
ARC
  5
3338
330
1A
100
AcDbEntity
  8
SEIHIN
  6
CONTINUOUS
 62
     3
 48
16.0
100
AcDbCircle
 10
257.9725726641062
 20
209.0572338362927
 30
0.0
 40
99.99997549031901
100
AcDbArc
 50
268.1925904835764
 51
269.9998281126618
  0
ARC
  5
3339
330
1A
100
AcDbEntity
  8
SEIHIN
  6
CONTINUOUS
 62
     3
 48
16.0
100
AcDbCircle
 10
258.1166726641062
 20
220.8486338362928
 30
0.0
 40
100.0000270426426
100
AcDbArc
 50
268.192535023442
 51
269.9997708168825
  0
LINE
  5
333A
330
1A
100
AcDbEntity
  8
SEIHIN
  6
CONTINUOUS
 62
     3
 48
16.0
100
AcDbLine
 10
246.4729726641063
 20
162.8574338362928
 30
0.0
 11
255.3965726641062
 21
162.8574338362928
 31
0.0
  0
LINE
  5
333B
330
1A
100
AcDbEntity
  8
SEIHIN
  6
CONTINUOUS
 62
     3
 48
16.0
100
AcDbLine
 10
330.3964726641062
 20
148.0071338362928
 30
0.0
 11
334.3965726641062
 21
149.0071338362928
 31
0.0
  0
LINE
  5
333C
330
1A
100
AcDbEntity
  8
SEIHIN
  6
CONTINUOUS
 62
     3
 48
16.0
100
AcDbLine
 10
330.3963726641063
 20
120.8484338362927
 30
0.0
 11
334.3964726641063
 21
121.8482338362927
 31
0.0
  0
LINE
  5
333D
330
1A
100
AcDbEntity
  8
SEIHIN
  6
CONTINUOUS
 62
     3
 48
16.0
100
AcDbLine
 10
330.3963726641063
 20
109.0571338362927
 30
0.0
 11
334.3964726641063
 21
110.0571338362927
 31
0.0
  0
LINE
  5
333E
330
1A
100
AcDbEntity
  8
SEIHIN
  6
CONTINUOUS
 62
     3
 48
16.0
100
AcDbLine
 10
330.3964726641062
 20
162.8571338362928
 30
0.0
 11
330.3963726641063
 21
109.0571338362927
 31
0.0
  0
ARC
  5
333F
330
1A
100
AcDbEntity
  8
SEIHIN
  6
CONTINUOUS
 62
     3
 48
16.0
100
AcDbCircle
 10
304.3965726641062
 20
121.7848338362927
 30
0.0
 40
4.987623559247721
100
AcDbArc
 50
195.1725019297595
 51
344.8260886842662
  0
LINE
  5
3340
330
1A
100
AcDbEntity
  8
SEIHIN
  6
CONTINUOUS
 62
     3
 48
16.0
100
AcDbLine
 10
299.4976726641062
 20
109.0571338362927
 30
0.0
 11
299.4976726641062
 21
148.0071338362928
 31
0.0
  0
ARC
  5
3341
330
1A
100
AcDbEntity
  8
SEIHIN
  6
CONTINUOUS
 62
     3
 48
16.0
100
AcDbCircle
 10
299.1051726641062
 20
108.5572338362927
 30
0.0
 40
0.4999693431203069
100
AcDbArc
 50
15.82103169955407
 51
90.0
  0
ARC
  5
3342
330
1A
100
AcDbEntity
  8
SEIHIN
  6
CONTINUOUS
 62
     3
 48
16.0
100
AcDbCircle
 10
299.1002726641062
 20
120.3485338362928
 30
0.0
 40
0.4999705282628316
100
AcDbArc
 50
15.17872705605165
 51
90.0
  0
LINE
  5
3343
330
1A
100
AcDbEntity
  8
SEIHIN
  6
CONTINUOUS
 62
     3
 48
16.0
100
AcDbLine
 10
309.2956726641062
 20
109.0571338362927
 30
0.0
 11
309.2956726641062
 21
148.0071338362928
 31
0.0
  0
LINE
  5
3344
330
1A
100
AcDbEntity
  8
SEIHIN
  6
CONTINUOUS
 62
     3
 48
16.0
100
AcDbLine
 10
330.3963726641063
 20
120.8484338362927
 30
0.0
 11
309.6927726641062
 21
120.8485338362928
 31
0.0
  0
LINE
  5
3345
330
1A
100
AcDbEntity
  8
SEIHIN
  6
CONTINUOUS
 62
     3
 48
16.0
100
AcDbLine
 10
330.3963726641063
 20
109.0571338362927
 30
0.0
 11
309.6881726641062
 21
109.0572338362927
 31
0.0
  0
ARC
  5
3346
330
1A
100
AcDbEntity
  8
SEIHIN
  6
CONTINUOUS
 62
     3
 48
16.0
100
AcDbCircle
 10
309.6880726641062
 20
108.5572338362927
 30
0.0
 40
0.4999693431203069
100
AcDbArc
 50
90.0
 51
164.1789683004459
  0
ARC
  5
3347
330
1A
100
AcDbEntity
  8
SEIHIN
  6
CONTINUOUS
 62
     3
 48
16.0
100
AcDbCircle
 10
309.6927726641062
 20
120.3485338362928
 30
0.0
 40
0.4999705282628421
100
AcDbArc
 50
90.0
 51
164.8212729439519
  0
LINE
  5
3348
330
1A
100
AcDbEntity
  8
SEIHIN
  6
CONTINUOUS
 62
     3
 48
16.0
100
AcDbLine
 10
334.3965726641062
 20
162.8571338362928
 30
0.0
 11
334.3964726641063
 21
110.0571338362927
 31
0.0
  0
LINE
  5
3349
330
1A
100
AcDbEntity
  8
SEIHIN
  6
CONTINUOUS
 62
     3
 48
16.0
100
AcDbLine
 10
526.9118507975677
 20
285.5243877192957
 30
0.0
 11
526.9119507975676
 21
356.5243877192957
 31
0.0
  0
LINE
  5
334A
330
1A
100
AcDbEntity
  8
SEIHIN
  6
CONTINUOUS
 62
     3
 48
16.0
100
AcDbLine
 10
407.9420507975675
 20
285.5243877192957
 30
0.0
 11
407.9420507975675
 21
477.4944877192957
 31
0.0
  0
DIMENSION
  5
334B
330
1A
100
AcDbEntity
  8
SUNPOU
  6
CONTINUOUS
100
AcDbDimension
  2
*D1
 10
526.9118451636238
 20
243.960511020338
 30
0.0
 11
565.9119472989845
 21
248.960511020338
 31
0.0
 70
    32
  3
STANDARD
100
AcDbAlignedDimension
 13
604.9120494343453
 23
359.524282085354
 33
0.0
 14
526.9118451636238
 24
281.5242877192957
 34
0.0
100
AcDbRotatedDimension
1001
ACAD
1000
DSTYLE
1002
{
1070
   140
1040
6.0
1070
    74
1070
     0
1070
   172
1070
     1
1070
    73
1070
     0
1070
   272
1070
     2
1070
    77
1070
     3
1070
   173
1070
     1
1070
   147
1040
2.0
1070
    42
1040
6.0
1070
    44
1040
3.0
1070
    43
1040
14.0
1070
   271
1070
     0
1070
   178
1070
     4
1070
   177
1070
     4
1070
   176
1070
     4
1070
   141
1040
150.0
1070
     7
1000
_OPEN
1070
     6
1000
_OPEN
1070
    41
1040
7.0
1002
}
  0
DIMENSION
  5
334C
330
1A
100
AcDbEntity
  8
SUNPOU
  6
CONTINUOUS
100
AcDbDimension
  2
*D2
 10
639.8425560009314
 20
281.5242877192957
 30
0.0
 11
634.8425560009312
 21
320.5242849023249
 31
0.0
 70
    32
  3
STANDARD
100
AcDbAlignedDimension
 13
604.9120494343453
 23
359.524282085354
 33
0.0
 14
526.9118451636238
 24
281.5242877192957
 34
0.0
 50
90.0
100
AcDbRotatedDimension
1001
ACAD
1000
DSTYLE
1002
{
1070
   140
1040
6.0
1070
    74
1070
     0
1070
   172
1070
     1
1070
    73
1070
     0
1070
   272
1070
     2
1070
    77
1070
     3
1070
   173
1070
     1
1070
   147
1040
2.0
1070
    42
1040
6.0
1070
    44
1040
3.0
1070
    43
1040
14.0
1070
   271
1070
     0
1070
   178
1070
     4
1070
   177
1070
     4
1070
   176
1070
     4
1070
   141
1040
150.0
1070
     7
1000
_OPEN
1070
     6
1000
_OPEN
1070
    41
1040
7.0
1002
}
  0
LINE
  5
334D
330
1A
100
AcDbEntity
  8
SEIHIN
  6
CONTINUOUS
 62
     3
 48
16.0
100
AcDbLine
 10
433.6770507975676
 20
281.5242877192957
 30
0.0
 11
433.6770507975676
 21
307.5243877192957
 31
0.0
  0
LINE
  5
334E
330
1A
100
AcDbEntity
  8
SEIHIN
  6
CONTINUOUS
 62
     3
 48
16.0
100
AcDbLine
 10
423.1770507975675
 20
281.5243877192957
 30
0.0
 11
423.1771507975676
 21
307.5765877192957
 31
0.0
  0
LINE
  5
334F
330
1A
100
AcDbEntity
  8
SEIHIN
  6
CONTINUOUS
 62
     3
 48
16.0
100
AcDbLine
 10
419.3657507975676
 20
281.5242877192957
 30
0.0
 11
419.3657507975676
 21
306.5242877192957
 31
0.0
  0
LINE
  5
3350
330
1A
100
AcDbEntity
  8
SEIHIN
  6
CONTINUOUS
 62
     3
 48
16.0
100
AcDbLine
 10
515.4882507975676
 20
281.5242877192957
 30
0.0
 11
515.4882507975676
 21
306.5242877192957
 31
0.0
  0
LINE
  5
3351
330
1A
100
AcDbEntity
  8
SEIHIN
  6
CONTINUOUS
 62
     3
 48
16.0
100
AcDbLine
 10
501.1769507975675
 20
281.5242877192957
 30
0.0
 11
501.1769507975675
 21
307.5242877192958
 31
0.0
  0
LINE
  5
3352
330
1A
100
AcDbEntity
  8
SEIHIN
  6
CONTINUOUS
 62
     3
 48
16.0
100
AcDbLine
 10
511.6769507975675
 20
281.5242877192957
 30
0.0
 11
511.6769507975675
 21
307.5764877192957
 31
0.0
  0
DIMENSION
  5
3353
330
1A
100
AcDbEntity
  8
SUNPOU
  6
CONTINUOUS
100
AcDbDimension
  2
*D3
 10
658.5186917151686
 20
281.5242877192957
 30
0.0
 11
653.5186917151685
 21
380.0092377192958
 31
0.0
 70
    32
  3
STANDARD
100
AcDbAlignedDimension
 13
600.9121507975676
 23
478.4941877192958
 33
0.0
 14
526.1118507975675
 24
281.5242877192957
 34
0.0
 50
90.0
100
AcDbRotatedDimension
1001
ACAD
1000
DSTYLE
1002
{
1070
   140
1040
6.0
1070
    74
1070
     0
1070
   172
1070
     1
1070
    73
1070
     0
1070
   272
1070
     2
1070
    77
1070
     3
1070
   173
1070
     1
1070
   147
1040
2.0
1070
    42
1040
6.0
1070
    44
1040
3.0
1070
    43
1040
14.0
1070
   271
1070
     0
1070
   178
1070
     4
1070
   177
1070
     4
1070
   176
1070
     4
1070
   141
1040
150.0
1070
     7
1000
_OPEN
1070
     6
1000
_OPEN
1070
    41
1040
7.0
1002
}
  0
LINE
  5
3354
330
1A
100
AcDbEntity
  8
CENTER_L
  6
CENTER
 62
     1
 48
5.0
100
AcDbLine
 10
467.4270507975675
 20
274.0919877192957
 30
0.0
 11
467.4270507975674
 21
426.009287719364
 31
0.0
  0
ARC
  5
3355
330
1A
100
AcDbEntity
  8
SEIHIN
  6
CONTINUOUS
 62
     3
 48
16.0
100
AcDbCircle
 10
574.9119507975676
 20
110.0572338362927
 30
0.0
 40
4.999997052880333
100
AcDbArc
 50
195.8260846291735
 51
344.1725003696694
  0
ARC
  5
3356
330
1A
100
AcDbEntity
  8
SEIHIN
  6
CONTINUOUS
 62
     3
 48
16.0
100
AcDbCircle
 10
519.3159507975677
 20
104.7743338362927
 30
0.0
 40
13.99997249689096
100
AcDbArc
 50
102.1914846290402
 51
175.0931717533211
  0
LINE
  5
3357
330
1A
100
AcDbEntity
  8
CENTER_L
  6
CENTER
 62
     1
 48
5.0
100
AcDbLine
 10
467.4269507975676
 20
99.26833383629281
 30
0.0
 11
467.4269507975676
 21
135.1589338362927
 31
0.0
  0
ARC
  5
3358
330
1A
100
AcDbEntity
  8
SEIHIN
  6
CONTINUOUS
 62
     3
 48
16.0
100
AcDbCircle
 10
415.5379507975675
 20
104.7743338362927
 30
0.0
 40
13.99998305603803
100
AcDbArc
 50
4.90682824667888
 51
77.80811534400161
  0
LINE
  5
3359
330
1A
100
AcDbEntity
  8
SEIHIN
  6
CONTINUOUS
 62
     3
 48
16.0
100
AcDbLine
 10
432.7884507975675
 20
105.0574338362927
 30
0.0
 11
467.4269507975676
 21
105.0573338362928
 31
0.0
  0
LINE
  5
335A
330
1A
100
AcDbEntity
  8
SEIHIN
  6
CONTINUOUS
 62
     3
 48
16.0
100
AcDbLine
 10
467.4269507975676
 20
105.0573338362928
 30
0.0
 11
430.4830507975676
 21
105.0574338362927
 31
0.0
  0
DIMENSION
  5
335B
330
1A
100
AcDbEntity
  8
SUNPOU
  6
CONTINUOUS
100
AcDbDimension
  2
*D4
 10
431.8342507975676
 20
80.2625733863384
 30
0.0
 11
467.4269507975676
 21
85.2625733863384
 31
0.0
 70
    32
  3
STANDARD
100
AcDbAlignedDimension
 13
503.0196507975676
 23
105.0574338362927
 33
0.0
 14
431.8342507975676
 24
105.0574338362927
 34
0.0
100
AcDbRotatedDimension
1001
ACAD
1000
DSTYLE
1002
{
1070
   140
1040
6.0
1070
    74
1070
     0
1070
   172
1070
     1
1070
    73
1070
     0
1070
   272
1070
     2
1070
    77
1070
     3
1070
   173
1070
     1
1070
   147
1040
2.0
1070
    42
1040
6.0
1070
    44
1040
3.0
1070
    43
1040
14.0
1070
   271
1070
     0
1070
   178
1070
     4
1070
   177
1070
     4
1070
   176
1070
     4
1070
   141
1040
150.0
1070
     7
1000
_OPEN
1070
     6
1000
_OPEN
1070
    41
1040
7.0
1002
}
  0
LINE
  5
335C
330
1A
100
AcDbEntity
  8
SUNPOU
  6
CONTINUOUS
 62
     4
 48
16.0
100
AcDbLine
 10
431.8342507975676
 20
105.0574338362927
 30
0.0
 11
431.8342507975676
 21
75.96799383629281
 31
0.0
  0
ARC
  5
335D
330
1A
100
AcDbEntity
  8
SEIHIN
  6
CONTINUOUS
 62
     3
 48
16.0
100
AcDbCircle
 10
430.4830507975676
 20
106.0574338362927
 30
0.0
 40
1.000035078769463
100
AcDbArc
 50
184.9101827590424
 51
270.0
  0
LINE
  5
335E
330
1A
100
AcDbEntity
  8
SEIHIN
  6
CONTINUOUS
 62
     3
 48
16.0
100
AcDbLine
 10
467.4269507975676
 20
105.0573338362928
 30
0.0
 11
504.3709507975675
 21
105.0574338362927
 31
0.0
  0
LINE
  5
335F
330
1A
100
AcDbEntity
  8
SUNPOU
  6
CONTINUOUS
 62
     4
 48
16.0
100
AcDbLine
 10
503.0196507975676
 20
105.0574338362927
 30
0.0
 11
503.0196507975676
 21
75.96799383629281
 31
0.0
  0
ARC
  5
3360
330
1A
100
AcDbEntity
  8
SEIHIN
  6
CONTINUOUS
 62
     3
 48
16.0
100
AcDbCircle
 10
504.3709507975675
 20
106.0574338362927
 30
0.0
 40
0.9999852622828178
100
AcDbArc
 50
270.0
 51
355.089326809036
  0
LINE
  5
3361
330
1A
100
AcDbEntity
  8
SEIHIN
  6
CONTINUOUS
 62
     3
 48
16.0
100
AcDbLine
 10
569.6204507975676
 20
109.0572338362927
 30
0.0
 11
528.4876507975675
 21
109.0572338362927
 31
0.0
  0
LINE
  5
3362
330
1A
100
AcDbEntity
  8
SEIHIN
  6
CONTINUOUS
 62
     3
 48
16.0
100
AcDbLine
 10
569.6155507975677
 20
120.8485338362928
 30
0.0
 11
528.6317507975675
 21
120.8486338362927
 31
0.0
  0
LINE
  5
3363
330
1A
100
AcDbEntity
  8
SEIHIN
  6
CONTINUOUS
 62
     3
 48
16.0
100
AcDbLine
 10
600.9117507975677
 20
148.0071338362928
 30
0.0
 11
527.7474507975675
 21
148.0072338362927
 31
0.0
  0
DIMENSION
  5
3364
330
1A
100
AcDbEntity
  8
SUNPOU
  6
CONTINUOUS
100
AcDbDimension
  2
*D5
 10
407.9420507975675
 20
210.2534388311085
 30
0.0
 11
506.4269507975676
 21
215.2534388311085
 31
0.0
 70
    32
  3
STANDARD
100
AcDbAlignedDimension
 13
604.9118507975677
 23
162.8571338362928
 33
0.0
 14
407.9420507975675
 24
161.8574338362928
 34
0.0
100
AcDbRotatedDimension
1001
ACAD
1000
DSTYLE
1002
{
1070
   140
1040
6.0
1070
    74
1070
     0
1070
   172
1070
     1
1070
    73
1070
     0
1070
   272
1070
     2
1070
    77
1070
     3
1070
   173
1070
     1
1070
   147
1040
2.0
1070
    42
1040
6.0
1070
    44
1040
3.0
1070
    43
1040
14.0
1070
   271
1070
     0
1070
   178
1070
     4
1070
   177
1070
     4
1070
   176
1070
     4
1070
   141
1040
150.0
1070
     7
1000
_OPEN
1070
     6
1000
_OPEN
1070
    41
1040
7.0
1002
}
  0
LINE
  5
3365
330
1A
100
AcDbEntity
  8
SEIHIN
  6
CONTINUOUS
 62
     3
 48
16.0
100
AcDbLine
 10
604.9118507975677
 20
162.8571338362928
 30
0.0
 11
525.9118507975677
 21
162.8574338362928
 31
0.0
  0
DIMENSION
  5
3366
330
1A
100
AcDbEntity
  8
SUNPOU
  6
CONTINUOUS
100
AcDbDimension
  2
*D6
 10
407.9420507975675
 20
194.1171932045516
 30
0.0
 11
467.4269507975676
 21
199.1171932045516
 31
0.0
 70
    32
  3
STANDARD
100
AcDbAlignedDimension
 13
526.9118507975677
 23
161.8574338362928
 33
0.0
 14
407.9420507975675
 24
161.8574338362928
 34
0.0
100
AcDbRotatedDimension
1001
ACAD
1000
DSTYLE
1002
{
1070
   140
1040
6.0
1070
    74
1070
     0
1070
   172
1070
     1
1070
    73
1070
     0
1070
   272
1070
     2
1070
    77
1070
     3
1070
   173
1070
     1
1070
   147
1040
2.0
1070
    42
1040
6.0
1070
    44
1040
3.0
1070
    43
1040
14.0
1070
   271
1070
     0
1070
   178
1070
     4
1070
   177
1070
     4
1070
   176
1070
     4
1070
   141
1040
150.0
1070
     7
1000
_OPEN
1070
     6
1000
_OPEN
1070
    41
1040
7.0
1002
}
  0
LINE
  5
3367
330
1A
100
AcDbEntity
  8
SEIHIN
  6
CONTINUOUS
 62
     3
 48
16.0
100
AcDbLine
 10
516.9882507975676
 20
162.8574338362928
 30
0.0
 11
408.9420507975675
 21
162.8574338362928
 31
0.0
  0
LINE
  5
3368
330
1A
100
AcDbEntity
  8
SEIHIN
  6
CONTINUOUS
 62
     3
 48
16.0
100
AcDbLine
 10
479.9419507975676
 20
150.7970338362927
 30
0.0
 11
444.9421507975676
 21
151.3854338362928
 31
0.0
  0
LINE
  5
3369
330
1A
100
AcDbEntity
  8
SEIHIN
  6
CONTINUOUS
 62
     3
 48
16.0
100
AcDbLine
 10
479.9419507975676
 20
124.3362338362927
 30
0.0
 11
444.9420507975676
 21
125.4406338362927
 31
0.0
  0
LINE
  5
336A
330
1A
100
AcDbEntity
  8
SEIHIN
  6
CONTINUOUS
 62
     3
 48
16.0
100
AcDbLine
 10
467.4269507975676
 20
111.0573338362927
 30
0.0
 11
434.5118507975676
 21
111.0573338362927
 31
0.0
  0
LINE
  5
336B
330
1A
100
AcDbEntity
  8
SEIHIN
 48
16.0
100
AcDbLine
 10
433.6769507975676
 20
110.0574338362927
 30
0.0
 11
467.4269507975676
 21
110.0573338362927
 31
0.0
  0
LINE
  5
336C
330
1A
100
AcDbEntity
  8
SEIHIN
  6
CONTINUOUS
 62
     3
 48
16.0
100
AcDbLine
 10
432.7884507975675
 20
109.0574338362927
 30
0.0
 11
467.4269507975676
 21
109.0573338362927
 31
0.0
  0
LINE
  5
336D
330
1A
100
AcDbEntity
  8
SEIHIN
  6
CONTINUOUS
 62
     3
 48
16.0
100
AcDbLine
 10
501.3236507975675
 20
111.8656338362927
 30
0.0
 11
434.4857507975675
 21
113.9746338362928
 31
0.0
  0
LINE
  5
336E
330
1A
100
AcDbEntity
  8
NOKITOI
  6
PHANTOM
 62
     8
 48
5.0
100
AcDbLine
 10
434.3116507975676
 20
111.0573838362927
 30
0.0
 11
500.5422507975676
 21
111.0572838362928
 31
0.0
  0
LINE
  5
336F
330
1A
100
AcDbEntity
  8
NOKITOI
  6
PHANTOM
 62
     8
 48
5.0
100
AcDbLine
 10
500.5422507975676
 20
111.0572838362928
 30
0.0
 11
434.3116507975676
 21
111.0573838362927
 31
0.0
  0
LINE
  5
3370
330
1A
100
AcDbEntity
  8
NOKITOI
  6
PHANTOM
 62
     8
 48
5.0
100
AcDbLine
 10
439.6273507975676
 20
112.3507838362927
 30
0.0
 11
495.2265507975676
 21
112.3506838362927
 31
0.0
  0
LINE
  5
3371
330
1A
100
AcDbEntity
  8
SEIHIN
  6
CONTINUOUS
 62
     3
 48
16.0
100
AcDbLine
 10
415.9420507975675
 20
156.8574338362928
 30
0.0
 11
415.4420507975675
 21
150.0073338362928
 31
0.0
  0
ARC
  5
3372
330
1A
100
AcDbEntity
  8
SEIHIN
  6
CONTINUOUS
 62
     3
 48
16.0
100
AcDbCircle
 10
418.7741507975676
 20
153.8574338362928
 30
0.0
 40
3.000028341398929
100
AcDbArc
 50
1.591087241004338
 51
90.0
  0
LINE
  5
3373
330
1A
100
AcDbEntity
  8
SEIHIN
  6
CONTINUOUS
 62
     3
 48
16.0
100
AcDbLine
 10
424.1424507975676
 20
159.8824338362927
 30
0.0
 11
423.9420507975675
 21
147.8574338362928
 31
0.0
  0
LINE
  5
3374
330
1A
100
AcDbEntity
  8
NOKITOI
  6
PHANTOM
 62
     8
 48
5.0
100
AcDbLine
 10
411.7184507975675
 20
158.2689838362929
 30
0.0
 11
411.7184507975675
 21
154.3387838362928
 31
0.0
  0
LINE
  5
3375
330
1A
100
AcDbEntity
  8
SEIHIN
  6
CONTINUOUS
 62
     3
 48
16.0
100
AcDbLine
 10
409.9420507975676
 20
151.0073338362928
 30
0.0
 11
409.9420507975676
 21
160.2875338362927
 31
0.0
  0
LINE
  5
3376
330
1A
100
AcDbEntity
  8
NOKITOI
  6
PHANTOM
 62
     8
 48
5.0
100
AcDbLine
 10
410.4249507975676
 20
152.0503838362927
 30
0.0
 11
410.4249507975676
 21
160.0598838362927
 31
0.0
  0
LINE
  5
3377
330
1A
100
AcDbEntity
  8
SEIHIN
 48
16.0
100
AcDbLine
 10
408.9420507975675
 20
150.0074338362928
 30
0.0
 11
408.9420507975675
 21
161.6574338362928
 31
0.0
  0
LINE
  5
3378
330
1A
100
AcDbEntity
  8
SEIHIN
  6
CONTINUOUS
 62
     3
 48
16.0
100
AcDbLine
 10
407.9420507975675
 20
161.8574338362928
 30
0.0
 11
407.9420507975675
 21
149.0074338362927
 31
0.0
  0
LINE
  5
3379
330
1A
100
AcDbEntity
  8
SEIHIN
  6
CONTINUOUS
 62
     3
 48
16.0
100
AcDbLine
 10
426.0010507975676
 20
161.3574338362928
 30
0.0
 11
426.2420507975676
 21
121.4099338362927
 31
0.0
  0
LINE
  5
337A
330
1A
100
AcDbEntity
  8
SEIHIN
  6
CONTINUOUS
 62
     3
 48
16.0
100
AcDbLine
 10
444.9421507975676
 20
161.3574338362928
 30
0.0
 11
444.9420507975676
 21
123.9962338362927
 31
0.0
  0
LINE
  5
337B
330
1A
100
AcDbEntity
  8
SEIHIN
  6
CONTINUOUS
 62
     3
 48
16.0
100
AcDbLine
 10
429.9421507975676
 20
161.3574338362928
 30
0.0
 11
429.9420507975675
 21
124.4695338362927
 31
0.0
  0
LINE
  5
337C
330
1A
100
AcDbEntity
  8
SEIHIN
  6
CONTINUOUS
 62
     3
 48
16.0
100
AcDbLine
 10
429.9421507975676
 20
124.4700338362927
 30
0.0
 11
444.9420507975676
 21
123.9966338362928
 31
0.0
  0
LINE
  5
337D
330
1A
100
AcDbEntity
  8
NOKITOI
  6
PHANTOM
 62
     8
 48
5.0
100
AcDbLine
 10
439.4284507975676
 20
121.0470838362928
 30
0.0
 11
429.5177507975676
 21
121.0470838362928
 31
0.0
  0
ARC
  5
337E
330
1A
100
AcDbEntity
  8
NOKITOI
  6
PHANTOM
 62
     8
 48
5.0
100
AcDbCircle
 10
420.5413559945808
 20
109.9510732205247
 30
0.0
 40
14.23472333170272
100
AcDbArc
 50
11.37541821407346
 51
40.79334907830746
  0
LINE
  5
337F
330
1A
100
AcDbEntity
  8
NOKITOI
  6
PHANTOM
 62
     8
 48
5.0
100
AcDbLine
 10
437.7660507975675
 20
119.7470838362928
 30
0.0
 11
431.5451507975676
 21
119.7470838362928
 31
0.0
  0
ARC
  5
3380
330
1A
100
AcDbEntity
  8
SEIHIN
  6
CONTINUOUS
 62
     3
 48
16.0
100
AcDbCircle
 10
432.7884507975675
 20
110.0574338362927
 30
0.0
 40
1.000029684118854
100
AcDbArc
 50
184.8354855924068
 51
270.0
  0
ARC
  5
3381
330
1A
100
AcDbEntity
  8
SEIHIN
  6
CONTINUOUS
 62
     3
 48
16.0
100
AcDbCircle
 10
419.8346507975675
 20
111.9049338362928
 30
0.0
 40
14.00002523870863
100
AcDbArc
 50
11.80691857313271
 51
62.84505196665767
  0
ARC
  5
3382
330
1A
100
AcDbEntity
  8
SEIHIN
  6
CONTINUOUS
 62
     3
 48
16.0
100
AcDbCircle
 10
419.8346507975675
 20
108.9622338362927
 30
0.0
 40
11.9999891672407
100
AcDbArc
 50
4.832436958278186
 51
78.95384778012363
  0
ARC
  5
3383
330
1A
100
AcDbEntity
  8
SEIHIN
  6
CONTINUOUS
 62
     3
 48
16.0
100
AcDbCircle
 10
419.8346507975675
 20
108.9621338362927
 30
0.0
 40
14.00003023101508
100
AcDbArc
 50
11.9085343369558
 51
73.73900952414043
  0
ARC
  5
3384
330
1A
100
AcDbEntity
  8
SEIHIN
 48
16.0
100
AcDbCircle
 10
419.8346507975675
 20
108.9622338362927
 30
0.0
 40
13.00000455730616
100
AcDbArc
 50
8.606866894007961
 51
76.18791443624326
  0
ARC
  5
3385
330
1A
100
AcDbEntity
  8
NOKITOI
  6
PHANTOM
 62
     8
 48
5.0
100
AcDbCircle
 10
420.5413578673543
 20
109.951075863399
 30
0.0
 40
12.93471022655885
100
AcDbArc
 50
8.676219579622188
 51
74.45245455808934
  0
LINE
  5
3386
330
1A
100
AcDbEntity
  8
SEIHIN
  6
CONTINUOUS
 62
     3
 48
16.0
100
AcDbLine
 10
412.0863507975675
 20
147.2050338362928
 30
0.0
 11
417.7254507975676
 21
119.2383338362927
 31
0.0
  0
LINE
  5
3387
330
1A
100
AcDbEntity
  8
SEIHIN
  6
CONTINUOUS
 62
     3
 48
16.0
100
AcDbLine
 10
416.1668507975676
 20
147.2050338362928
 30
0.0
 11
421.3451507975675
 21
121.5237338362927
 31
0.0
  0
LINE
  5
3388
330
1A
100
AcDbEntity
  8
NOKITOI
  6
PHANTOM
 62
     8
 48
5.0
100
AcDbLine
 10
424.4100507975675
 20
124.1789838362927
 30
0.0
 11
418.4790507975676
 21
152.3488838362929
 31
0.0
  0
LINE
  5
3389
330
1A
100
AcDbEntity
  8
SEIHIN
  6
CONTINUOUS
 62
     3
 48
16.0
100
AcDbLine
 10
423.0545507975675
 20
123.1644338362928
 30
0.0
 11
417.8038507975675
 21
149.2050338362928
 31
0.0
  0
LINE
  5
338A
330
1A
100
AcDbEntity
  8
SEIHIN
 48
16.0
100
AcDbLine
 10
416.9853507975676
 20
148.2050338362928
 30
0.0
 11
422.1967507975675
 21
122.3597338362927
 31
0.0
  0
LINE
  5
338B
330
1A
100
AcDbEntity
  8
NOKITOI
  6
PHANTOM
 62
     8
 48
5.0
100
AcDbLine
 10
423.3014507975676
 20
123.1660838362927
 30
0.0
 11
417.4628507975674
 21
150.8973838362928
 31
0.0
  0
ARC
  5
338C
330
1A
100
AcDbEntity
  8
SEIHIN
  6
CONTINUOUS
 62
     3
 48
16.0
100
AcDbCircle
 10
418.7057507975676
 20
119.4360338362927
 30
0.0
 40
1.000046266383867
100
AcDbArc
 50
191.4020694733567
 51
257.8080067333104
  0
ARC
  5
338D
330
1A
100
AcDbEntity
  8
NOKITOI
  6
PHANTOM
 62
     8
 48
5.0
100
AcDbCircle
 10
431.5451544568707
 20
119.4470918281724
 30
0.0
 40
0.2999920081427447
100
AcDbArc
 50
90.00069889403132
 51
220.79672841758
  0
ARC
  5
338E
330
1A
100
AcDbEntity
  8
SEIHIN
  6
CONTINUOUS
 62
     3
 48
16.0
100
AcDbCircle
 10
424.0348507975675
 20
123.3621338362927
 30
0.0
 40
1.000018344663476
100
AcDbArc
 50
191.4020694733575
 51
253.7397952916896
  0
ARC
  5
338F
330
1A
100
AcDbEntity
  8
SEIHIN
 48
16.0
100
AcDbCircle
 10
423.1770507975675
 20
122.5574338362927
 30
0.0
 40
1.000033506933578
100
AcDbArc
 50
191.4020694733575
 51
256.1847010360057
  0
ARC
  5
3390
330
1A
100
AcDbEntity
  8
SEIHIN
  6
CONTINUOUS
 62
     3
 48
16.0
100
AcDbCircle
 10
422.3254507975676
 20
121.7213338362927
 30
0.0
 40
0.9999725911416202
100
AcDbArc
 50
191.3964530692053
 51
258.9530243822374
  0
ARC
  5
3391
330
1A
100
AcDbEntity
  8
NOKITOI
  6
PHANTOM
 62
     8
 48
5.0
100
AcDbCircle
 10
424.2750908219551
 20
123.3710411720668
 30
0.0
 40
0.9949785960395137
100
AcDbArc
 50
191.8875585738771
 51
254.4495841050101
  0
ARC
  5
3392
330
1A
100
AcDbEntity
  8
NOKITOI
  6
PHANTOM
 62
     8
 48
5.0
100
AcDbCircle
 10
429.5177541099266
 20
121.2460826805074
 30
0.0
 40
0.1989988442421132
100
AcDbArc
 50
231.5280949042419
 51
269.9990463050561
  0
ARC
  5
3393
330
1A
100
AcDbEntity
  8
NOKITOI
  6
PHANTOM
 62
     8
 48
5.0
100
AcDbCircle
 10
425.3836706793389
 20
124.3839614992127
 30
0.0
 40
0.995060928010462
100
AcDbArc
 50
191.8877567214141
 51
251.452486792293
  0
ARC
  5
3394
330
1A
100
AcDbEntity
  8
NOKITOI
  6
PHANTOM
 62
     8
 48
5.0
100
AcDbCircle
 10
420.5414246363584
 20
109.9510437268088
 30
0.0
 40
14.22848866365036
100
AcDbArc
 50
51.52529185494234
 51
71.45345265407179
  0
LINE
  5
3395
330
1A
100
AcDbEntity
  8
SEIHIN
  6
CONTINUOUS
 62
     3
 48
16.0
100
AcDbLine
 10
429.9420507975675
 20
125.9140338362927
 30
0.0
 11
426.2141507975675
 21
126.0316338362927
 31
0.0
  0
LINE
  5
3396
330
1A
100
AcDbEntity
  8
NOKITOI
  6
PHANTOM
 62
     8
 48
5.0
100
AcDbLine
 10
413.7084507975676
 20
152.3488838362929
 30
0.0
 11
418.4790507975676
 21
152.3488838362929
 31
0.0
  0
ARC
  5
3397
330
1A
100
AcDbEntity
  8
SEIHIN
  6
CONTINUOUS
 62
     3
 48
16.0
100
AcDbCircle
 10
415.1865507975675
 20
147.0074338362928
 30
0.0
 40
1.000008462428386
100
AcDbArc
 50
11.39645306920455
 51
90.0
  0
LINE
  5
3398
330
1A
100
AcDbEntity
  8
NOKITOI
  6
PHANTOM
 62
     8
 48
5.0
100
AcDbLine
 10
417.2681507975676
 20
151.0553838362927
 30
0.0
 11
411.4199507975676
 21
151.0553838362927
 31
0.0
  0
LINE
  5
3399
330
1A
100
AcDbEntity
  8
SEIHIN
  6
CONTINUOUS
 62
     3
 48
16.0
100
AcDbLine
 10
410.9420507975675
 20
150.0073338362928
 30
0.0
 11
416.8235507975676
 21
150.0073338362928
 31
0.0
  0
LINE
  5
339A
330
1A
100
AcDbEntity
  8
SEIHIN
 48
16.0
100
AcDbLine
 10
409.9420507975676
 20
149.0074338362927
 30
0.0
 11
416.0050507975676
 21
149.0074338362927
 31
0.0
  0
ARC
  5
339B
330
1A
100
AcDbEntity
  8
SEIHIN
  6
CONTINUOUS
 62
     3
 48
16.0
100
AcDbCircle
 10
408.9420507975675
 20
149.0074338362927
 30
0.0
 40
1.0
100
AcDbArc
 50
180.0
 51
270.0
  0
ARC
  5
339C
330
1A
100
AcDbEntity
  8
SEIHIN
 48
16.0
100
AcDbCircle
 10
409.9420507975676
 20
150.0074338362928
 30
0.0
 40
1.0
100
AcDbArc
 50
180.0
 51
270.0
  0
ARC
  5
339D
330
1A
100
AcDbEntity
  8
SEIHIN
  6
CONTINUOUS
 62
     3
 48
16.0
100
AcDbCircle
 10
410.9420507975675
 20
151.0073338362928
 30
0.0
 40
1.0
100
AcDbArc
 50
180.0
 51
270.0
  0
ARC
  5
339E
330
1A
100
AcDbEntity
  8
NOKITOI
  6
PHANTOM
 62
     8
 48
5.0
100
AcDbCircle
 10
411.4199507975676
 20
152.0503838362927
 30
0.0
 40
0.9950000000000045
100
AcDbArc
 50
180.0
 51
270.0
  0
LINE
  5
339F
330
1A
100
AcDbEntity
  8
SEIHIN
  6
CONTINUOUS
 62
     3
 48
16.0
100
AcDbLine
 10
415.5786507975675
 20
151.8791338362928
 30
0.0
 11
409.9420507975676
 21
151.9738338362928
 31
0.0
  0
ARC
  5
33A0
330
1A
100
AcDbEntity
  8
NOKITOI
  6
PHANTOM
 62
     8
 48
5.0
100
AcDbCircle
 10
413.7084007975675
 20
154.3388338362929
 30
0.0
 40
1.989950000628206
100
AcDbArc
 50
180.0014396286237
 51
270.0014396286237
  0
ARC
  5
33A1
330
1A
100
AcDbEntity
  8
SEIHIN
  6
CONTINUOUS
 62
     3
 48
16.0
100
AcDbCircle
 10
411.1061507975676
 20
147.0074338362928
 30
0.0
 40
0.9999594483555931
100
AcDbArc
 50
11.39758530647495
 51
90.0
  0
LINE
  5
33A2
330
1A
100
AcDbEntity
  8
SEIHIN
  6
CONTINUOUS
 62
     3
 48
16.0
100
AcDbLine
 10
408.9420507975675
 20
148.0074338362928
 30
0.0
 11
415.1865507975675
 21
148.0074338362928
 31
0.0
  0
LINE
  5
33A3
330
1A
100
AcDbEntity
  8
SEIHIN
  6
CONTINUOUS
 62
     3
 48
16.0
100
AcDbLine
 10
424.0052507975676
 20
151.7374338362928
 30
0.0
 11
421.8332507975675
 21
151.7739338362928
 31
0.0
  0
LINE
  5
33A4
330
1A
100
AcDbEntity
  8
SEIHIN
  6
CONTINUOUS
 62
     3
 48
16.0
100
AcDbLine
 10
421.9420507975675
 20
147.8574338362928
 30
0.0
 11
423.9420507975675
 21
147.8574338362928
 31
0.0
  0
LINE
  5
33A5
330
1A
100
AcDbEntity
  8
SEIHIN
  6
CONTINUOUS
 62
     3
 48
16.0
100
AcDbLine
 10
421.7730507975676
 20
153.9407338362928
 30
0.0
 11
421.9420507975675
 21
147.8574338362928
 31
0.0
  0
ARC
  5
33A6
330
1A
100
AcDbEntity
  8
SEIHIN
 48
16.0
100
AcDbCircle
 10
416.0050507975676
 20
148.0074338362928
 30
0.0
 40
1.000008462428386
100
AcDbArc
 50
11.39645306920455
 51
90.0
  0
ARC
  5
33A7
330
1A
100
AcDbEntity
  8
SEIHIN
  6
CONTINUOUS
 62
     3
 48
16.0
100
AcDbCircle
 10
416.8235507975676
 20
149.0073338362928
 30
0.0
 40
1.000018344663469
100
AcDbArc
 50
11.40206947335758
 51
90.0
  0
ARC
  5
33A8
330
1A
100
AcDbEntity
  8
NOKITOI
  6
PHANTOM
 62
     8
 48
5.0
100
AcDbCircle
 10
417.2681323549533
 20
150.8563987997295
 30
0.0
 40
0.1989850374177657
100
AcDbArc
 50
11.88631382809341
 51
89.99468963106487
  0
LINE
  5
33A9
330
1A
100
AcDbEntity
  8
SEIHIN
  6
CONTINUOUS
 62
     3
 48
16.0
100
AcDbLine
 10
429.9421507975676
 20
151.6376338362928
 30
0.0
 11
426.0592507975675
 21
151.7029338362928
 31
0.0
  0
LINE
  5
33AA
330
1A
100
AcDbEntity
  8
NOKITOI
  6
PHANTOM
 62
     8
 48
5.0
100
AcDbLine
 10
438.6233507975675
 20
120.2419838362927
 30
0.0
 11
437.7660507975675
 21
119.7470838362928
 31
0.0
  0
LINE
  5
33AB
330
1A
100
AcDbEntity
  8
NOKITOI
  6
PHANTOM
 62
     8
 48
5.0
100
AcDbLine
 10
438.6233507975675
 20
120.2419838362927
 30
0.0
 11
438.1283507975675
 21
119.3846838362928
 31
0.0
  0
LINE
  5
33AC
330
1A
100
AcDbEntity
  8
NOKITOI
  6
PHANTOM
 62
     8
 48
5.0
100
AcDbLine
 10
439.4283507975676
 20
112.5497838362928
 30
0.0
 11
439.4284507975676
 21
121.0470838362928
 31
0.0
  0
ARC
  5
33AD
330
1A
100
AcDbEntity
  8
NOKITOI
  6
PHANTOM
 62
     8
 48
5.0
100
AcDbCircle
 10
439.6273507975676
 20
112.5497838362928
 30
0.0
 40
0.1990000000000691
100
AcDbArc
 50
179.9999999999837
 51
269.9999999999837
  0
LINE
  5
33AE
330
1A
100
AcDbEntity
  8
NOKITOI
  6
PHANTOM
 62
     8
 48
5.0
100
AcDbLine
 10
438.1283507975675
 20
112.8573838362928
 30
0.0
 11
438.1283507975675
 21
119.3846838362928
 31
0.0
  0
ARC
  5
33AF
330
1A
100
AcDbEntity
  8
NOKITOI
  6
PHANTOM
 62
     8
 48
5.0
100
AcDbCircle
 10
437.6283507975673
 20
112.8573838362928
 30
0.0
 40
0.5000000000000569
100
AcDbArc
 50
270.0000000000065
 51
0.0000000000065138
  0
ARC
  5
33B0
330
1A
100
AcDbEntity
  8
SEIHIN
 48
16.0
100
AcDbCircle
 10
433.6769507975676
 20
111.0574338362927
 30
0.0
 40
0.9999844447580276
100
AcDbArc
 50
188.6098114156978
 51
270.0
  0
ARC
  5
33B1
330
1A
100
AcDbEntity
  8
NOKITOI
  6
PHANTOM
 62
     8
 48
5.0
100
AcDbCircle
 10
434.3116584115852
 20
112.0523772960487
 30
0.0
 40
0.9949934597852239
100
AcDbArc
 50
188.6761125650601
 51
269.9995615538234
  0
ARC
  5
33B2
330
1A
100
AcDbEntity
  8
SEIHIN
  6
CONTINUOUS
 62
     3
 48
16.0
100
AcDbCircle
 10
434.5173507975676
 20
114.9741338362927
 30
0.0
 40
1.0000262942928
100
AcDbArc
 50
191.8054475415558
 51
268.1891508308476
  0
ARC
  5
33B3
330
1A
100
AcDbEntity
  8
SEIHIN
  6
CONTINUOUS
 62
     3
 48
16.0
100
AcDbCircle
 10
434.5118507975676
 20
112.0573338362927
 30
0.0
 40
1.000005484969924
100
AcDbArc
 50
191.9054778871733
 51
270.0
  0
ARC
  5
33B4
330
1A
100
AcDbEntity
  8
NOKITOI
  6
PHANTOM
 62
     8
 48
5.0
100
AcDbCircle
 10
434.9866277564394
 20
112.857402700581
 30
0.0
 40
0.5000188648192144
100
AcDbArc
 50
191.386728855441
 51
270.0026402191978
  0
LINE
  5
33B5
330
1A
100
AcDbEntity
  8
SEIHIN
  6
CONTINUOUS
 62
     3
 48
16.0
100
AcDbLine
 10
433.6769507975676
 20
112.1756338362927
 30
0.0
 11
433.6769507975676
 21
114.0002338362928
 31
0.0
  0
LINE
  5
33B6
330
1A
100
AcDbEntity
  8
NOKITOI
  6
PHANTOM
 62
     8
 48
5.0
100
AcDbLine
 10
434.9865507975675
 20
112.3573838362927
 30
0.0
 11
437.6283507975675
 21
112.3573838362927
 31
0.0
  0
LINE
  5
33B7
330
1A
100
AcDbEntity
  8
SEIHIN
  6
CONTINUOUS
 62
     3
 48
16.0
100
AcDbLine
 10
429.9421507975676
 20
161.3574338362928
 30
0.0
 11
444.9421507975676
 21
161.3574338362928
 31
0.0
  0
ARC
  5
33B8
330
1A
100
AcDbEntity
  8
NOKITOI
  6
PHANTOM
 62
     8
 48
5.0
100
AcDbCircle
 10
415.6511007975675
 20
160.0599338362928
 30
0.0
 40
0.9949500012563332
100
AcDbArc
 50
359.9971206704047
 51
89.99712067040476
  0
LINE
  5
33B9
330
1A
100
AcDbEntity
  8
NOKITOI
  6
PHANTOM
 62
     8
 48
5.0
100
AcDbLine
 10
416.6460507975675
 20
155.8550838362928
 30
0.0
 11
415.3526507975676
 21
155.8550838362928
 31
0.0
  0
LINE
  5
33BA
330
1A
100
AcDbEntity
  8
SEIHIN
  6
CONTINUOUS
 62
     3
 48
16.0
100
AcDbLine
 10
417.3420507975676
 20
160.8573338362928
 30
0.0
 11
411.0094507975675
 21
161.2852338362928
 31
0.0
  0
LINE
  5
33BB
330
1A
100
AcDbEntity
  8
NOKITOI
  6
PHANTOM
 62
     8
 48
5.0
100
AcDbLine
 10
413.8601507975675
 20
159.7613838362927
 30
0.0
 11
413.2109507975675
 21
159.7613838362927
 31
0.0
  0
LINE
  5
33BC
330
1A
100
AcDbEntity
  8
NOKITOI
  6
PHANTOM
 62
     8
 48
5.0
100
AcDbLine
 10
415.3526507975676
 20
155.8550838362928
 30
0.0
 11
415.3526507975676
 21
158.2689838362929
 31
0.0
  0
ARC
  5
33BD
330
1A
100
AcDbEntity
  8
NOKITOI
  6
PHANTOM
 62
     8
 48
5.0
100
AcDbCircle
 10
413.8601507975675
 20
158.2689838362928
 30
0.0
 40
1.492399999999918
100
AcDbArc
 50
0.0000000000024427
 51
90.00000000000161
  0
ARC
  5
33BE
330
1A
100
AcDbEntity
  8
SEIHIN
  6
CONTINUOUS
 62
     3
 48
16.0
100
AcDbCircle
 10
408.9420507975675
 20
161.8574338362928
 30
0.0
 40
1.0
100
AcDbArc
 50
90.0
 51
180.0
  0
ARC
  5
33BF
330
1A
100
AcDbEntity
  8
SEIHIN
 48
16.0
100
AcDbCircle
 10
409.9420507975676
 20
161.8574338362928
 30
0.0
 40
1.0
100
AcDbArc
 50
90.0
 51
180.0
  0
ARC
  5
33C0
330
1A
100
AcDbEntity
  8
SEIHIN
  6
CONTINUOUS
 62
     3
 48
16.0
100
AcDbCircle
 10
410.9420507975675
 20
160.2875338362927
 30
0.0
 40
0.9999870123313121
100
AcDbArc
 50
86.13523410352508
 51
180.0
  0
ARC
  5
33C1
330
1A
100
AcDbEntity
  8
NOKITOI
  6
PHANTOM
 62
     8
 48
5.0
100
AcDbCircle
 10
411.4199507975676
 20
160.0598838362928
 30
0.0
 40
0.9950000000000613
100
AcDbArc
 50
90.00000000000325
 51
180.0000000000032
  0
LINE
  5
33C2
330
1A
100
AcDbEntity
  8
NOKITOI
  6
PHANTOM
 62
     8
 48
5.0
100
AcDbLine
 10
411.4199507975676
 20
161.0548838362928
 30
0.0
 11
415.6511507975675
 21
161.0548838362928
 31
0.0
  0
ARC
  5
33C3
330
1A
100
AcDbEntity
  8
NOKITOI
  6
PHANTOM
 62
     8
 48
5.0
100
AcDbCircle
 10
413.2109007975675
 20
158.2689338362927
 30
0.0
 40
1.49245000083754
100
AcDbArc
 50
89.99808047909004
 51
179.99808047909
  0
ARC
  5
33C4
330
1A
100
AcDbEntity
  8
SEIHIN
  6
CONTINUOUS
 62
     3
 48
16.0
100
AcDbCircle
 10
425.6422507975675
 20
159.8574338362928
 30
0.0
 40
1.500004173321704
100
AcDbArc
 50
90.0
 51
179.0450314405611
  0
LINE
  5
33C5
330
1A
100
AcDbEntity
  8
SEIHIN
  6
CONTINUOUS
 62
     3
 48
16.0
100
AcDbLine
 10
415.9420507975675
 20
156.8574338362928
 30
0.0
 11
418.7741507975676
 21
156.8574338362928
 31
0.0
  0
LINE
  5
33C6
330
1A
100
AcDbEntity
  8
NOKITOI
  6
PHANTOM
 62
     8
 48
5.0
100
AcDbLine
 10
416.6460507975675
 20
160.0598838362927
 30
0.0
 11
416.6460507975675
 21
155.8550838362928
 31
0.0
  0
ARC
  5
33C7
330
1A
100
AcDbEntity
  8
SEIHIN
  6
CONTINUOUS
 62
     3
 48
16.0
100
AcDbCircle
 10
417.8657507975676
 20
161.3574338362928
 30
0.0
 40
1.49999320330253
100
AcDbArc
 50
309.3512209616751
 51
90.0
  0
LINE
  5
33C8
330
1A
100
AcDbEntity
  8
SEIHIN
  6
CONTINUOUS
 62
     3
 48
16.0
100
AcDbLine
 10
417.3420507975676
 20
159.3573631365963
 30
0.0
 11
417.3420507975676
 21
160.8573338362928
 31
0.0
  0
ARC
  5
33C9
330
1A
100
AcDbEntity
  8
SEIHIN
  6
CONTINUOUS
 62
     3
 48
16.0
100
AcDbCircle
 10
415.6404507975675
 20
164.0589338362928
 30
0.0
 40
5.000020960380159
100
AcDbArc
 50
289.896170199772
 51
309.5165321553253
  0
LINE
  5
33CA
330
1A
100
AcDbEntity
  8
SEIHIN
  6
CONTINUOUS
 62
     3
 48
16.0
100
AcDbLine
 10
425.6422507975675
 20
161.3574338362928
 30
0.0
 11
426.0010507975676
 21
161.3574338362928
 31
0.0
  0
ARC
  5
33CB
330
1A
100
AcDbEntity
  8
SEIHIN
  6
CONTINUOUS
 62
     3
 48
16.0
100
AcDbCircle
 10
516.0797507975676
 20
153.8574338362928
 30
0.0
 40
2.99997836067724
100
AcDbArc
 50
90.0
 51
178.4088597288057
  0
LINE
  5
33CC
330
1A
100
AcDbEntity
  8
SEIHIN
  6
CONTINUOUS
 62
     3
 48
16.0
100
AcDbLine
 10
510.7115507975675
 20
159.8824338362927
 30
0.0
 11
510.9119507975676
 21
147.8574338362928
 31
0.0
  0
LINE
  5
33CD
330
1A
100
AcDbEntity
  8
SEIHIN
  6
CONTINUOUS
 62
     3
 48
16.0
100
AcDbLine
 10
518.9119507975676
 20
156.8574338362928
 30
0.0
 11
519.4119507975677
 21
150.0073338362928
 31
0.0
  0
LINE
  5
33CE
330
1A
100
AcDbEntity
  8
SEIHIN
  6
CONTINUOUS
 62
     3
 48
16.0
100
AcDbLine
 10
524.9119507975676
 20
151.0074338362928
 30
0.0
 11
524.9118485160436
 21
159.9878539301624
 31
0.0
  0
LINE
  5
33CF
330
1A
100
AcDbEntity
  8
NOKITOI
  6
PHANTOM
 62
     8
 48
5.0
100
AcDbLine
 10
519.2627507975673
 20
159.7546838362929
 30
0.0
 11
517.7048507975675
 21
152.3552838362927
 31
0.0
  0
LINE
  5
33D0
330
1A
100
AcDbEntity
  8
NOKITOI
  6
PHANTOM
 62
     8
 48
5.0
100
AcDbLine
 10
523.1291507975677
 20
152.3551838362927
 30
0.0
 11
523.1291507975677
 21
159.7546838362929
 31
0.0
  0
LINE
  5
33D1
330
1A
100
AcDbEntity
  8
NOKITOI
  6
PHANTOM
 62
     8
 48
5.0
100
AcDbLine
 10
524.4291507975677
 20
152.0501838362927
 30
0.0
 11
524.4291507975677
 21
160.0597838362927
 31
0.0
  0
LINE
  5
33D2
330
1A
100
AcDbEntity
  8
SEIHIN
 48
16.0
100
AcDbLine
 10
525.9119507975676
 20
150.0074338362928
 30
0.0
 11
525.9119507975676
 21
161.8574338362928
 31
0.0
  0
LINE
  5
33D3
330
1A
100
AcDbEntity
  8
SEIHIN
  6
CONTINUOUS
 62
     3
 48
16.0
100
AcDbLine
 10
526.9118507975677
 20
161.8574338362928
 30
0.0
 11
526.9118507975677
 21
149.0074338362927
 31
0.0
  0
LINE
  5
33D4
330
1A
100
AcDbEntity
  8
NOKITOI
  6
PHANTOM
 62
     8
 48
5.0
100
AcDbLine
 10
515.8988507975675
 20
150.0872838362927
 30
0.0
 11
518.2079507975674
 21
161.0546838362927
 31
0.0
  0
LINE
  5
33D5
330
1A
100
AcDbEntity
  8
SEIHIN
  6
CONTINUOUS
 62
     3
 48
16.0
100
AcDbLine
 10
479.9420507975677
 20
161.3574338362928
 30
0.0
 11
479.9419507975676
 21
122.8922338362927
 31
0.0
  0
LINE
  5
33D6
330
1A
100
AcDbEntity
  8
SEIHIN
  6
CONTINUOUS
 62
     3
 48
16.0
100
AcDbLine
 10
508.8529507975676
 20
161.3574338362928
 30
0.0
 11
508.6119507975677
 21
121.4099338362927
 31
0.0
  0
LINE
  5
33D7
330
1A
100
AcDbEntity
  8
SEIHIN
  6
CONTINUOUS
 62
     3
 48
16.0
100
AcDbLine
 10
499.9420507975676
 20
161.3574338362928
 30
0.0
 11
499.9419507975676
 21
122.2612338362927
 31
0.0
  0
LINE
  5
33D8
330
1A
100
AcDbEntity
  8
NOKITOI
  6
PHANTOM
 62
     8
 48
5.0
100
AcDbLine
 10
495.4256507975673
 20
121.0467838362927
 30
0.0
 11
505.4061507975675
 21
121.0466838362928
 31
0.0
  0
LINE
  5
33D9
330
1A
100
AcDbEntity
  8
NOKITOI
  6
PHANTOM
 62
     8
 48
5.0
100
AcDbLine
 10
499.8673507975677
 20
112.3572838362928
 30
0.0
 11
497.2256507975676
 21
112.3572838362928
 31
0.0
  0
LINE
  5
33DA
330
1A
100
AcDbEntity
  8
NOKITOI
  6
PHANTOM
 62
     8
 48
5.0
100
AcDbLine
 10
503.3085507975674
 20
119.7466838362927
 30
0.0
 11
497.0879507975675
 21
119.7466838362927
 31
0.0
  0
LINE
  5
33DB
330
1A
100
AcDbEntity
  8
SEIHIN
  6
CONTINUOUS
 62
     3
 48
16.0
100
AcDbLine
 10
502.0655507975675
 20
109.0574338362927
 30
0.0
 11
467.4269507975676
 21
109.0573338362927
 31
0.0
  0
LINE
  5
33DC
330
1A
100
AcDbEntity
  8
SEIHIN
  6
CONTINUOUS
 62
     3
 48
16.0
100
AcDbLine
 10
467.4269507975676
 20
111.0573338362927
 30
0.0
 11
500.3421507975676
 21
111.0574338362927
 31
0.0
  0
LINE
  5
33DD
330
1A
100
AcDbEntity
  8
SEIHIN
 48
16.0
100
AcDbLine
 10
501.1770507975675
 20
110.0574338362927
 30
0.0
 11
467.4269507975676
 21
110.0573338362927
 31
0.0
  0
LINE
  5
33DE
330
1A
100
AcDbEntity
  8
SEIHIN
  6
CONTINUOUS
 62
     3
 48
16.0
100
AcDbLine
 10
479.9419507975676
 20
122.8922338362927
 30
0.0
 11
499.9419507975676
 21
122.2612338362927
 31
0.0
  0
LINE
  5
33DF
330
1A
100
AcDbEntity
  8
NOKITOI
  6
PHANTOM
 62
     8
 48
5.0
100
AcDbLine
 10
491.2265507975676
 20
112.3506838362927
 30
0.0
 11
476.4721507975675
 21
112.3506838362927
 31
0.0
  0
LINE
  5
33E0
330
1A
100
AcDbEntity
  8
NOKITOI
  6
PHANTOM
 62
     8
 48
5.0
100
AcDbLine
 10
496.2306507975674
 20
120.2416838362927
 30
0.0
 11
497.0879507975675
 21
119.7466838362927
 31
0.0
  0
LINE
  5
33E1
330
1A
100
AcDbEntity
  8
NOKITOI
  6
PHANTOM
 62
     8
 48
5.0
100
AcDbLine
 10
496.2306507975674
 20
120.2416838362927
 30
0.0
 11
496.7256507975675
 21
119.3843838362927
 31
0.0
  0
LINE
  5
33E2
330
1A
100
AcDbEntity
  8
NOKITOI
  6
PHANTOM
 62
     8
 48
5.0
100
AcDbLine
 10
495.4255507975676
 20
112.5497838362928
 30
0.0
 11
495.4256507975673
 21
121.0467838362927
 31
0.0
  0
ARC
  5
33E3
330
1A
100
AcDbEntity
  8
NOKITOI
  6
PHANTOM
 62
     8
 48
5.0
100
AcDbCircle
 10
495.2265007975674
 20
112.5497338362927
 30
0.0
 40
0.1990500062799141
100
AcDbArc
 50
270.0143923080609
 51
0.0143923080609163
  0
LINE
  5
33E4
330
1A
100
AcDbEntity
  8
NOKITOI
  6
PHANTOM
 62
     8
 48
5.0
100
AcDbLine
 10
496.7256507975675
 20
119.3843838362927
 30
0.0
 11
496.7256507975675
 21
112.8572838362927
 31
0.0
  0
ARC
  5
33E5
330
1A
100
AcDbEntity
  8
NOKITOI
  6
PHANTOM
 62
     8
 48
5.0
100
AcDbCircle
 10
497.2256507975676
 20
112.8572838362928
 30
0.0
 40
0.4999999999999432
100
AcDbArc
 50
180.0000000000065
 51
270.0000000000065
  0
LINE
  5
33E6
330
1A
100
AcDbEntity
  8
SEIHIN
  6
CONTINUOUS
 62
     3
 48
16.0
100
AcDbLine
 10
518.6870507975675
 20
147.2050338362928
 30
0.0
 11
513.5087507975677
 21
121.5237338362927
 31
0.0
  0
LINE
  5
33E7
330
1A
100
AcDbEntity
  8
SEIHIN
  6
CONTINUOUS
 62
     3
 48
16.0
100
AcDbLine
 10
511.7993507975675
 20
123.1645338362927
 30
0.0
 11
517.0501507975675
 21
149.2051338362927
 31
0.0
  0
LINE
  5
33E8
330
1A
100
AcDbEntity
  8
SEIHIN
 48
16.0
100
AcDbLine
 10
517.8685507975676
 20
148.2050338362928
 30
0.0
 11
512.6572507975676
 21
122.3597338362927
 31
0.0
  0
LINE
  5
33E9
330
1A
100
AcDbEntity
  8
NOKITOI
  6
PHANTOM
 62
     8
 48
5.0
100
AcDbLine
 10
511.5525507975676
 20
123.1658838362927
 30
0.0
 11
517.3912507975674
 21
150.8972838362927
 31
0.0
  0
LINE
  5
33EA
330
1A
100
AcDbEntity
  8
NOKITOI
  6
PHANTOM
 62
     8
 48
5.0
100
AcDbLine
 10
510.4438507975676
 20
124.1783838362928
 30
0.0
 11
515.8988507975675
 21
150.0872838362927
 31
0.0
  0
LINE
  5
33EB
330
1A
100
AcDbEntity
  8
SEIHIN
  6
CONTINUOUS
 62
     3
 48
16.0
100
AcDbLine
 10
522.7675507975675
 20
147.2050338362928
 30
0.0
 11
517.1284507975676
 21
119.2383338362927
 31
0.0
  0
LINE
  5
33EC
330
1A
100
AcDbEntity
  8
SEIHIN
  6
CONTINUOUS
 62
     3
 48
16.0
100
AcDbLine
 10
506.2149507975675
 20
109.7103338362927
 30
0.0
 11
525.3339507975677
 21
109.1070338362927
 31
0.0
  0
ARC
  5
33ED
330
1A
100
AcDbEntity
  8
SEIHIN
 48
16.0
100
AcDbCircle
 10
515.0193507975675
 20
108.9622338362927
 30
0.0
 40
13.00000455730616
100
AcDbArc
 50
103.8120855637567
 51
171.393133105992
  0
ARC
  5
33EE
330
1A
100
AcDbEntity
  8
SEIHIN
  6
CONTINUOUS
 62
     3
 48
16.0
100
AcDbCircle
 10
515.0193507975675
 20
108.9622338362927
 30
0.0
 40
12.00003898950855
100
AcDbArc
 50
101.0461522198763
 51
175.1676032641164
  0
ARC
  5
33EF
330
1A
100
AcDbEntity
  8
SEIHIN
  6
CONTINUOUS
 62
     3
 48
16.0
100
AcDbCircle
 10
515.0193507975675
 20
108.9622338362927
 30
0.0
 40
14.00003023101508
100
AcDbArc
 50
106.2609904758595
 51
168.0914656630442
  0
ARC
  5
33F0
330
1A
100
AcDbEntity
  8
NOKITOI
  6
PHANTOM
 62
     8
 48
5.0
100
AcDbCircle
 10
514.3124396412467
 20
109.9510712548186
 30
0.0
 40
12.93449408578155
100
AcDbArc
 50
105.5473332353541
 51
171.3240617643018
  0
ARC
  5
33F1
330
1A
100
AcDbEntity
  8
NOKITOI
  6
PHANTOM
 62
     8
 48
5.0
100
AcDbCircle
 10
514.3125452641556
 20
109.9509775960274
 30
0.0
 40
12.93461262833301
100
AcDbArc
 50
105.5476727870197
 51
171.3237222126367
  0
ARC
  5
33F2
330
1A
100
AcDbEntity
  8
NOKITOI
  6
PHANTOM
 62
     8
 48
5.0
100
AcDbCircle
 10
503.3085644754189
 20
119.4466539725988
 30
0.0
 40
0.3000298640056128
100
AcDbArc
 50
319.2190584222774
 51
90.00261201719894
  0
ARC
  5
33F3
330
1A
100
AcDbEntity
  8
SEIHIN
 48
16.0
100
AcDbCircle
 10
501.1770507975675
 20
111.0574338362927
 30
0.0
 40
0.9999844447580276
100
AcDbArc
 50
270.0
 51
351.3901885843021
  0
ARC
  5
33F4
330
1A
100
AcDbEntity
  8
SEIHIN
  6
CONTINUOUS
 62
     3
 48
16.0
100
AcDbCircle
 10
500.3421507975676
 20
112.0574338362927
 30
0.0
 40
1.000015802250301
100
AcDbArc
 50
270.0
 51
348.0889159594724
  0
ARC
  5
33F5
330
1A
100
AcDbEntity
  8
NOKITOI
  6
PHANTOM
 62
     8
 48
5.0
100
AcDbCircle
 10
500.5423007256636
 20
112.0523267238914
 30
0.0
 40
0.9950428888512103
100
AcDbArc
 50
269.9971250795227
 51
351.3214426795066
  0
ARC
  5
33F6
330
1A
100
AcDbEntity
  8
NOKITOI
  6
PHANTOM
 62
     8
 48
5.0
100
AcDbCircle
 10
499.8673738386957
 20
112.857302700581
 30
0.0
 40
0.5000188648190603
100
AcDbArc
 50
269.9973597808037
 51
348.6132711445605
  0
ARC
  5
33F7
330
1A
100
AcDbEntity
  8
NOKITOI
  6
PHANTOM
 62
     8
 48
5.0
100
AcDbCircle
 10
514.3125092522584
 20
109.9508989717364
 30
0.0
 40
14.23462403148678
100
AcDbArc
 50
139.2075062368998
 51
168.623785948384
  0
ARC
  5
33F8
330
1A
100
AcDbEntity
  8
SEIHIN
  6
CONTINUOUS
 62
     3
 48
16.0
100
AcDbCircle
 10
502.0655507975675
 20
110.0574338362927
 30
0.0
 40
0.9999798620944551
100
AcDbArc
 50
270.0
 51
355.1640314133911
  0
ARC
  5
33F9
330
1A
100
AcDbEntity
  8
NOKITOI
  6
PHANTOM
 62
     8
 48
5.0
100
AcDbCircle
 10
514.3125653011161
 20
109.9509917604812
 30
0.0
 40
14.22809199964113
100
AcDbArc
 50
108.5474584936563
 51
128.7537062451649
  0
LINE
  5
33FA
330
1A
100
AcDbEntity
  8
SEIHIN
  6
CONTINUOUS
 62
     3
 48
16.0
100
AcDbLine
 10
508.6241507975675
 20
123.4311338362927
 30
0.0
 11
499.9419507975676
 21
123.7051338362927
 31
0.0
  0
ARC
  5
33FB
330
1A
100
AcDbEntity
  8
SEIHIN
  6
CONTINUOUS
 62
     3
 48
16.0
100
AcDbCircle
 10
512.5285507975674
 20
121.7213338362927
 30
0.0
 40
0.9999139987899186
100
AcDbArc
 50
281.0413516953065
 51
348.602414693525
  0
ARC
  5
33FC
330
1A
100
AcDbEntity
  8
SEIHIN
  6
CONTINUOUS
 62
     3
 48
16.0
100
AcDbCircle
 10
510.8191507975675
 20
123.3621338362927
 30
0.0
 40
0.9999594483555492
100
AcDbArc
 50
286.2602047083084
 51
348.6024146935242
  0
ARC
  5
33FD
330
1A
100
AcDbEntity
  8
SEIHIN
  6
CONTINUOUS
 62
     3
 48
16.0
100
AcDbCircle
 10
511.6769507975675
 20
122.5574338362927
 30
0.0
 40
1.000021569653088
100
AcDbArc
 50
283.8097351754457
 51
348.5979305266416
  0
ARC
  5
33FE
330
1A
100
AcDbEntity
  8
NOKITOI
  6
PHANTOM
 62
     8
 48
5.0
100
AcDbCircle
 10
510.5789251344197
 20
123.3709630876802
 30
0.0
 40
0.9949690575286499
100
AcDbArc
 50
285.5437330810334
 51
348.1110361155297
  0
ARC
  5
33FF
330
1A
100
AcDbEntity
  8
NOKITOI
  6
PHANTOM
 62
     8
 48
5.0
100
AcDbCircle
 10
509.4702943671186
 20
124.3834327880617
 30
0.0
 40
0.9950135261271753
100
AcDbArc
 50
288.5445751594485
 51
348.1074736523479
  0
ARC
  5
3400
330
1A
100
AcDbEntity
  8
SEIHIN
  6
CONTINUOUS
 62
     3
 48
16.0
100
AcDbCircle
 10
516.1481507975675
 20
119.4360338362927
 30
0.0
 40
1.000046266383867
100
AcDbArc
 50
282.1919932666895
 51
348.5979305266432
  0
ARC
  5
3401
330
1A
100
AcDbEntity
  8
SEIHIN
  6
CONTINUOUS
 62
     3
 48
16.0
100
AcDbCircle
 10
528.4878507975677
 20
209.0572338362927
 30
0.0
 40
99.99997549031901
100
AcDbArc
 50
268.1925904835764
 51
269.9998281126618
  0
LINE
  5
3402
330
1A
100
AcDbEntity
  8
SEIHIN
  6
CONTINUOUS
 62
     3
 48
16.0
100
AcDbLine
 10
525.4780507975676
 20
120.8983338362928
 30
0.0
 11
517.5138507975675
 21
121.1496338362927
 31
0.0
  0
ARC
  5
3403
330
1A
100
AcDbEntity
  8
SEIHIN
  6
CONTINUOUS
 62
     3
 48
16.0
100
AcDbCircle
 10
528.6319507975677
 20
220.8486338362928
 30
0.0
 40
100.0000270426426
100
AcDbArc
 50
268.192535023442
 51
269.9997708168825
  0
LINE
  5
3404
330
1A
100
AcDbEntity
  8
SEIHIN
  6
CONTINUOUS
 62
     3
 48
16.0
100
AcDbLine
 10
508.7862507975676
 20
150.3121338362928
 30
0.0
 11
499.9419507975676
 21
150.4608338362928
 31
0.0
  0
LINE
  5
3405
330
1A
100
AcDbEntity
  8
SEIHIN
  6
CONTINUOUS
 62
     3
 48
16.0
100
AcDbLine
 10
512.9781507975677
 20
150.2416338362928
 30
0.0
 11
510.8716507975676
 21
150.2771338362927
 31
0.0
  0
LINE
  5
3406
330
1A
100
AcDbEntity
  8
SEIHIN
  6
CONTINUOUS
 62
     3
 48
16.0
100
AcDbLine
 10
512.9119507975676
 20
147.8574338362928
 30
0.0
 11
510.9119507975676
 21
147.8574338362928
 31
0.0
  0
LINE
  5
3407
330
1A
100
AcDbEntity
  8
SEIHIN
  6
CONTINUOUS
 62
     3
 48
16.0
100
AcDbLine
 10
513.0809507975675
 20
153.9407338362928
 30
0.0
 11
512.9119507975676
 21
147.8574338362928
 31
0.0
  0
LINE
  5
3408
330
1A
100
AcDbEntity
  8
SEIHIN
  6
CONTINUOUS
 62
     3
 48
16.0
100
AcDbLine
 10
525.9118507975677
 20
148.0074338362928
 30
0.0
 11
519.6673507975677
 21
148.0074338362928
 31
0.0
  0
LINE
  5
3409
330
1A
100
AcDbEntity
  8
SEIHIN
 48
16.0
100
AcDbLine
 10
524.9119507975676
 20
149.0074338362927
 30
0.0
 11
518.8488507975676
 21
149.0074338362927
 31
0.0
  0
LINE
  5
340A
330
1A
100
AcDbEntity
  8
SEIHIN
  6
CONTINUOUS
 62
     3
 48
16.0
100
AcDbLine
 10
523.9119507975677
 20
150.0074338362928
 30
0.0
 11
518.0303507975675
 21
150.0074338362928
 31
0.0
  0
LINE
  5
340B
330
1A
100
AcDbEntity
  8
NOKITOI
  6
PHANTOM
 62
     8
 48
5.0
100
AcDbLine
 10
517.5859507975673
 20
151.0551838362929
 30
0.0
 11
523.4341507975675
 21
151.0551838362929
 31
0.0
  0
LINE
  5
340C
330
1A
100
AcDbEntity
  8
NOKITOI
  6
PHANTOM
 62
     8
 48
5.0
100
AcDbLine
 10
523.1291507975677
 20
152.3551838362927
 30
0.0
 11
517.7048507975675
 21
152.3552838362927
 31
0.0
  0
ARC
  5
340D
330
1A
100
AcDbEntity
  8
NOKITOI
  6
PHANTOM
 62
     8
 48
5.0
100
AcDbCircle
 10
517.5859692401818
 20
150.8562987997295
 30
0.0
 40
0.1989850374179911
100
AcDbArc
 50
90.00531036897097
 51
168.1136861719429
  0
ARC
  5
340E
330
1A
100
AcDbEntity
  8
SEIHIN
  6
CONTINUOUS
 62
     3
 48
16.0
100
AcDbCircle
 10
518.0303507975675
 20
149.0074338362927
 30
0.0
 40
0.9999594483555508
100
AcDbArc
 50
90.0
 51
168.6024146935242
  0
ARC
  5
340F
330
1A
100
AcDbEntity
  8
SEIHIN
 48
16.0
100
AcDbCircle
 10
518.8488507975676
 20
148.0074338362928
 30
0.0
 40
1.000008462428386
100
AcDbArc
 50
90.0
 51
168.6035469307954
  0
ARC
  5
3410
330
1A
100
AcDbEntity
  8
SEIHIN
  6
CONTINUOUS
 62
     3
 48
16.0
100
AcDbCircle
 10
519.6673507975677
 20
147.0074338362928
 30
0.0
 40
1.000008462428386
100
AcDbArc
 50
90.0
 51
168.6035469307954
  0
ARC
  5
3411
330
1A
100
AcDbEntity
  8
NOKITOI
  6
PHANTOM
 62
     8
 48
5.0
100
AcDbCircle
 10
523.4341507975678
 20
152.0501838362928
 30
0.0
 40
0.9949999999999192
100
AcDbArc
 50
269.9999999999951
 51
359.9999999999951
  0
ARC
  5
3412
330
1A
100
AcDbEntity
  8
SEIHIN
  6
CONTINUOUS
 62
     3
 48
16.0
100
AcDbCircle
 10
523.7478507975676
 20
147.0074338362928
 30
0.0
 40
1.000008462428386
100
AcDbArc
 50
90.0
 51
168.6035469307954
  0
ARC
  5
3413
330
1A
100
AcDbEntity
  8
SEIHIN
  6
CONTINUOUS
 62
     3
 48
16.0
100
AcDbCircle
 10
523.9119507975677
 20
151.0074338362928
 30
0.0
 40
1.0
100
AcDbArc
 50
270.0
 51
0.0
  0
ARC
  5
3414
330
1A
100
AcDbEntity
  8
SEIHIN
 48
16.0
100
AcDbCircle
 10
524.9119507975676
 20
150.0074338362928
 30
0.0
 40
1.0
100
AcDbArc
 50
270.0
 51
0.0
  0
ARC
  5
3415
330
1A
100
AcDbEntity
  8
SEIHIN
  6
CONTINUOUS
 62
     3
 48
16.0
100
AcDbCircle
 10
525.9118507975677
 20
149.0074338362927
 30
0.0
 40
1.0
100
AcDbArc
 50
270.0
 51
0.0
  0
ARC
  5
3416
330
1A
100
AcDbEntity
  8
SEIHIN
  6
CONTINUOUS
 62
     3
 48
16.0
100
AcDbCircle
 10
527.7475507975675
 20
248.0072338362928
 30
0.0
 40
100.0000157402725
100
AcDbArc
 50
269.0367555798431
 51
269.9998281126618
  0
LINE
  5
3417
330
1A
100
AcDbEntity
  8
SEIHIN
  6
CONTINUOUS
 62
     3
 48
16.0
100
AcDbLine
 10
499.9425507975677
 20
161.3574338362928
 30
0.0
 11
479.9425507975676
 21
161.3574338362928
 31
0.0
  0
LINE
  5
3418
330
1A
100
AcDbEntity
  8
SEIHIN
  6
CONTINUOUS
 62
     3
 48
16.0
100
AcDbLine
 10
509.2117507975676
 20
161.3574338362928
 30
0.0
 11
508.8529507975676
 21
161.3574338362928
 31
0.0
  0
ARC
  5
3419
330
1A
100
AcDbEntity
  8
SEIHIN
  6
CONTINUOUS
 62
     3
 48
16.0
100
AcDbCircle
 10
509.2117507975676
 20
159.8574338362928
 30
0.0
 40
1.500004173321704
100
AcDbArc
 50
0.9549685594388437
 51
90.0
  0
LINE
  5
341A
330
1A
100
AcDbEntity
  8
NOKITOI
  6
PHANTOM
 62
     8
 48
5.0
100
AcDbLine
 10
523.1291507975677
 20
159.7546838362929
 30
0.0
 11
519.2627507975673
 21
159.7546838362929
 31
0.0
  0
LINE
  5
341B
330
1A
100
AcDbEntity
  8
SEIHIN
  6
CONTINUOUS
 62
     3
 48
16.0
100
AcDbLine
 10
516.9882507975676
 20
162.8574338362928
 30
0.0
 11
525.9118507975677
 21
162.8574338362928
 31
0.0
  0
LINE
  5
341C
330
1A
100
AcDbEntity
  8
SEIHIN
  6
CONTINUOUS
 62
     3
 48
16.0
100
AcDbLine
 10
517.5119507975676
 20
160.8573338362928
 30
0.0
 11
523.8444507975676
 21
161.2852338362928
 31
0.0
  0
LINE
  5
341D
330
1A
100
AcDbEntity
  8
NOKITOI
  6
PHANTOM
 62
     8
 48
5.0
100
AcDbLine
 10
523.4341507975675
 20
161.0547838362928
 30
0.0
 11
518.2304507975675
 21
161.0546838362927
 31
0.0
  0
ARC
  5
341E
330
1A
100
AcDbEntity
  8
SEIHIN
  6
CONTINUOUS
 62
     3
 48
16.0
100
AcDbCircle
 10
516.9882507975676
 20
161.3574338362928
 30
0.0
 40
1.500024907919716
100
AcDbArc
 50
90.0
 51
230.6458254485494
  0
LINE
  5
341F
330
1A
100
AcDbEntity
  8
SEIHIN
  6
CONTINUOUS
 62
     3
 48
16.0
100
AcDbLine
 10
517.5119507975676
 20
159.3573450410138
 30
0.0
 11
517.5119507975676
 21
160.8573338362928
 31
0.0
  0
ARC
  5
3420
330
1A
100
AcDbEntity
  8
SEIHIN
  6
CONTINUOUS
 62
     3
 48
16.0
100
AcDbCircle
 10
519.2134507975676
 20
164.0589338362928
 30
0.0
 40
5.000003944987366
100
AcDbArc
 50
230.4834678446746
 51
250.104907314001
  0
LINE
  5
3421
330
1A
100
AcDbEntity
  8
SEIHIN
  6
CONTINUOUS
 62
     3
 48
16.0
100
AcDbLine
 10
518.9119507975676
 20
156.8574338362928
 30
0.0
 11
516.0797507975676
 21
156.8574338362928
 31
0.0
  0
ARC
  5
3422
330
1A
100
AcDbEntity
  8
NOKITOI
  6
PHANTOM
 62
     8
 48
5.0
100
AcDbCircle
 10
523.4341507975675
 20
160.0597838362928
 30
0.0
 40
0.9950000000000613
100
AcDbArc
 50
359.9999999999967
 51
89.99999999999674
  0
ARC
  5
3423
330
1A
100
AcDbEntity
  8
SEIHIN
 48
16.0
100
AcDbCircle
 10
524.9119507975676
 20
161.8574338362928
 30
0.0
 40
1.0
100
AcDbArc
 50
0.0
 51
90.0
  0
ARC
  5
3424
330
1A
100
AcDbEntity
  8
SEIHIN
  6
CONTINUOUS
 62
     3
 48
16.0
100
AcDbCircle
 10
523.641141308175
 20
160.0301949325112
 30
0.0
 40
1.271412430576212
100
AcDbArc
 50
358.077130913379
 51
80.79846223199716
  0
ARC
  5
3425
330
1A
100
AcDbEntity
  8
SEIHIN
  6
CONTINUOUS
 62
     3
 48
16.0
100
AcDbCircle
 10
525.9118507975677
 20
161.8574338362928
 30
0.0
 40
1.0
100
AcDbArc
 50
0.0
 51
90.0
  0
LINE
  5
3426
330
1A
100
AcDbEntity
  8
SEIHIN
  6
CONTINUOUS
 62
     3
 48
16.0
100
AcDbLine
 10
467.4270507975675
 20
281.5242877192957
 30
0.0
 11
408.7420507975676
 21
281.5243877192957
 31
0.0
  0
LINE
  5
3427
330
1A
100
AcDbEntity
  8
SEIHIN
  6
CONTINUOUS
 62
     3
 48
16.0
100
AcDbLine
 10
407.9420507975675
 20
285.5243877192957
 30
0.0
 11
408.7420507975676
 21
281.5243877192957
 31
0.0
  0
LINE
  5
3428
330
1A
100
AcDbEntity
  8
SEIHIN
  6
CONTINUOUS
 62
     3
 48
16.0
100
AcDbLine
 10
467.4270507975675
 20
281.5242877192957
 30
0.0
 11
526.1118507975675
 21
281.5242877192957
 31
0.0
  0
LINE
  5
3429
330
1A
100
AcDbEntity
  8
SEIHIN
  6
CONTINUOUS
 62
     3
 48
16.0
100
AcDbLine
 10
526.9118507975677
 20
285.5243877192957
 30
0.0
 11
526.1118507975675
 21
281.5242877192957
 31
0.0
  0
LINE
  5
342A
330
1A
100
AcDbEntity
  8
SEIHIN
  6
CONTINUOUS
 62
     3
 48
16.0
100
AcDbLine
 10
600.9116507975677
 20
120.8484338362927
 30
0.0
 11
580.2080507975676
 21
120.8485338362928
 31
0.0
  0
LINE
  5
342B
330
1A
100
AcDbEntity
  8
SEIHIN
  6
CONTINUOUS
 62
     3
 48
16.0
100
AcDbLine
 10
600.9116507975677
 20
109.0571338362927
 30
0.0
 11
580.2034507975677
 21
109.0572338362927
 31
0.0
  0
LINE
  5
342C
330
1A
100
AcDbEntity
  8
SEIHIN
  6
CONTINUOUS
 62
     3
 48
16.0
100
AcDbLine
 10
570.0129507975675
 20
109.0571338362927
 30
0.0
 11
570.0129507975675
 21
148.0071338362928
 31
0.0
  0
LINE
  5
342D
330
1A
100
AcDbEntity
  8
SEIHIN
  6
CONTINUOUS
 62
     3
 48
16.0
100
AcDbLine
 10
579.8109507975675
 20
109.0571338362927
 30
0.0
 11
579.8109507975675
 21
148.0071338362928
 31
0.0
  0
ARC
  5
342E
330
1A
100
AcDbEntity
  8
SEIHIN
  6
CONTINUOUS
 62
     3
 48
16.0
100
AcDbCircle
 10
580.2033507975675
 20
108.5572338362927
 30
0.0
 40
0.4999693431203069
100
AcDbArc
 50
90.0
 51
164.1789683004459
  0
ARC
  5
342F
330
1A
100
AcDbEntity
  8
SEIHIN
  6
CONTINUOUS
 62
     3
 48
16.0
100
AcDbCircle
 10
580.2080507975676
 20
120.3485338362928
 30
0.0
 40
0.4999705282628421
100
AcDbArc
 50
90.0
 51
164.8212729439519
  0
ARC
  5
3430
330
1A
100
AcDbEntity
  8
SEIHIN
  6
CONTINUOUS
 62
     3
 48
16.0
100
AcDbCircle
 10
574.9118507975676
 20
121.7848338362927
 30
0.0
 40
4.987623559247721
100
AcDbArc
 50
195.1725019297595
 51
344.8260886842662
  0
ARC
  5
3431
330
1A
100
AcDbEntity
  8
SEIHIN
  6
CONTINUOUS
 62
     3
 48
16.0
100
AcDbCircle
 10
569.6204507975676
 20
108.5572338362927
 30
0.0
 40
0.4999693431203069
100
AcDbArc
 50
15.82103169955407
 51
90.0
  0
ARC
  5
3432
330
1A
100
AcDbEntity
  8
SEIHIN
  6
CONTINUOUS
 62
     3
 48
16.0
100
AcDbCircle
 10
569.6155507975677
 20
120.3485338362928
 30
0.0
 40
0.4999705282628316
100
AcDbArc
 50
15.17872705605165
 51
90.0
  0
DIMENSION
  5
3433
330
1A
100
AcDbEntity
  8
SUNPOU
  6
CONTINUOUS
100
AcDbDimension
  2
*D7
 10
631.298371994615
 20
109.0571338362927
 30
0.0
 11
626.298371994615
 21
135.9571338362929
 31
0.0
 70
    32
  3
STANDARD
100
AcDbAlignedDimension
 13
604.9118507975677
 23
162.8571338362928
 33
0.0
 14
600.9116507975677
 24
109.0571338362927
 34
0.0
 50
90.0
100
AcDbRotatedDimension
1001
ACAD
1000
DSTYLE
1002
{
1070
   140
1040
6.0
1070
    74
1070
     0
1070
   172
1070
     1
1070
    73
1070
     0
1070
   272
1070
     2
1070
    77
1070
     3
1070
   173
1070
     1
1070
   147
1040
2.0
1070
    42
1040
6.0
1070
    44
1040
3.0
1070
    43
1040
14.0
1070
   271
1070
     0
1070
   178
1070
     4
1070
   177
1070
     4
1070
   176
1070
     4
1070
   141
1040
150.0
1070
     7
1000
_OPEN
1070
     6
1000
_OPEN
1070
    41
1040
7.0
1002
}
  0
LINE
  5
3434
330
1A
100
AcDbEntity
  8
SEIHIN
  6
CONTINUOUS
 62
     3
 48
16.0
100
AcDbLine
 10
604.9118507975677
 20
162.8571338362928
 30
0.0
 11
604.9117507975677
 21
110.0571338362927
 31
0.0
  0
LINE
  5
3435
330
1A
100
AcDbEntity
  8
SEIHIN
  6
CONTINUOUS
 62
     3
 48
16.0
100
AcDbLine
 10
600.9117507975677
 20
162.8571338362928
 30
0.0
 11
600.9116507975677
 21
109.0571338362927
 31
0.0
  0
LINE
  5
3436
330
1A
100
AcDbEntity
  8
SEIHIN
  6
CONTINUOUS
 62
     3
 48
16.0
100
AcDbLine
 10
600.9116507975677
 20
109.0571338362927
 30
0.0
 11
604.9117507975677
 21
110.0571338362927
 31
0.0
  0
LINE
  5
3437
330
1A
100
AcDbEntity
  8
SEIHIN
  6
CONTINUOUS
 62
     3
 48
16.0
100
AcDbLine
 10
600.9116507975677
 20
120.8484338362927
 30
0.0
 11
604.9117507975677
 21
121.8482338362927
 31
0.0
  0
LINE
  5
3438
330
1A
100
AcDbEntity
  8
SEIHIN
  6
CONTINUOUS
 62
     3
 48
16.0
100
AcDbLine
 10
600.9117507975677
 20
148.0071338362928
 30
0.0
 11
604.9118507975677
 21
149.0071338362928
 31
0.0
  0
LINE
  5
3439
330
1A
100
AcDbEntity
  8
CENTER_L
  6
CENTER
 62
     1
 48
5.0
100
AcDbLine
 10
400.9418890996873
 20
485.4945002215038
 30
0.0
 11
533.9118071811628
 21
352.5243820856882
 31
0.0
  0
LINE
  5
343A
330
1A
100
AcDbEntity
  8
SEIHIN
  6
CONTINUOUS
 62
     3
 48
16.0
100
AcDbLine
 10
600.9121507975676
 20
478.4941877192958
 30
0.0
 11
408.9420507975675
 21
478.4944877192956
 31
0.0
  0
LINE
  5
343B
330
1A
100
AcDbEntity
  8
SEIHIN
  6
CONTINUOUS
 62
     3
 48
16.0
100
AcDbLine
 10
410.9425507975676
 20
476.4939877192957
 30
0.0
 11
576.9121507975675
 21
476.4941877192957
 31
0.0
  0
LINE
  5
343C
330
1A
100
AcDbEntity
  8
SEIHIN
  6
CONTINUOUS
 62
     3
 48
16.0
100
AcDbLine
 10
499.9425507975677
 20
468.7940877192957
 30
0.0
 11
570.9120507975676
 21
468.7941877192957
 31
0.0
  0
LINE
  5
343D
330
1A
100
AcDbEntity
  8
SEIHIN
  6
CONTINUOUS
 62
     3
 48
16.0
100
AcDbLine
 10
576.9120507975676
 20
361.5242877192958
 30
0.0
 11
529.9119507975676
 21
361.5243877192957
 31
0.0
  0
LINE
  5
343E
330
1A
100
AcDbEntity
  8
SEIHIN
  6
CONTINUOUS
 62
     3
 48
16.0
100
AcDbLine
 10
600.9119507975676
 20
359.5242877192958
 30
0.0
 11
529.9119507975676
 21
359.5243877192957
 31
0.0
  0
LINE
  5
343F
330
1A
100
AcDbEntity
  8
SEIHIN
  6
CONTINUOUS
 62
     3
 48
16.0
100
AcDbLine
 10
570.9121507975676
 20
452.7591877192957
 30
0.0
 11
434.6772507975676
 21
452.7591877192957
 31
0.0
  0
LINE
  5
3440
330
1A
100
AcDbEntity
  8
SEIHIN
  6
CONTINUOUS
 62
     3
 48
16.0
100
AcDbLine
 10
570.9120507975676
 20
385.2592877192958
 30
0.0
 11
506.1769507975675
 21
385.2593877192957
 31
0.0
  0
LINE
  5
3441
330
1A
100
AcDbEntity
  8
SEIHIN
  6
CONTINUOUS
 62
     3
 48
16.0
100
AcDbLine
 10
570.9643507975677
 20
463.2591877192957
 30
0.0
 11
499.9425507975677
 21
463.2591877192957
 31
0.0
  0
LINE
  5
3442
330
1A
100
AcDbEntity
  8
CENTER_L
  6
CENTER
 62
     1
 48
5.0
100
AcDbLine
 10
617.4552507975676
 20
419.0091877192958
 30
0.0
 11
460.4270507975674
 21
419.009292385155
 31
0.0
  0
LINE
  5
3443
330
1A
100
AcDbEntity
  8
SEIHIN
  6
CONTINUOUS
 62
     3
 48
16.0
100
AcDbLine
 10
570.9643507975677
 20
374.7592877192957
 30
0.0
 11
526.9120507975676
 21
374.7592877192957
 31
0.0
  0
LINE
  5
3444
330
1A
100
AcDbEntity
  8
SEIHIN
  6
CONTINUOUS
 62
     3
 48
16.0
100
AcDbLine
 10
570.9120507975676
 20
369.2242877192957
 30
0.0
 11
526.9120507975676
 21
369.2243877192957
 31
0.0
  0
DIMENSION
  5
3445
330
1A
100
AcDbEntity
  8
SUNPOU
  6
CONTINUOUS
100
AcDbDimension
  2
*D8
 10
526.9119507975676
 20
400.5901234251973
 30
0.0
 11
546.3119507975676
 21
405.5901234251974
 31
0.0
 70
    32
  1
※<>
  3
STANDARD
100
AcDbAlignedDimension
 13
604.9121507975676
 23
419.0091960797962
 33
0.0
 14
526.9119507975676
 24
402.1341377192958
 34
0.0
100
AcDbRotatedDimension
1001
ACAD
1000
DSTYLE
1002
{
1070
   140
1040
6.0
1070
    74
1070
     0
1070
   172
1070
     1
1070
    73
1070
     0
1070
   272
1070
     2
1070
    77
1070
     3
1070
   173
1070
     1
1070
   280
1070
     2
1070
   147
1040
2.0
1070
    42
1040
6.0
1070
    44
1040
3.0
1070
    43
1040
14.0
1070
   271
1070
     0
1070
   178
1070
     4
1070
   177
1070
     4
1070
   176
1070
     4
1070
   141
1040
150.0
1070
     7
1000
_OPEN
1070
     6
1000
_OPEN
1070
    41
1040
7.0
1002
}
  0
LINE
  5
3446
330
1A
100
AcDbEntity
  8
SEIHIN
  6
CONTINUOUS
 62
     3
 48
16.0
100
AcDbLine
 10
415.4420507975675
 20
386.4939877192957
 30
0.0
 11
415.4420507975675
 21
388.2938877192957
 31
0.0
  0
LINE
  5
3447
330
1A
100
AcDbEntity
  8
SEIHIN
  6
CONTINUOUS
 62
     3
 48
16.0
100
AcDbLine
 10
421.9420507975675
 20
386.4939877192957
 30
0.0
 11
421.9420507975675
 21
388.2938877192957
 31
0.0
  0
LINE
  5
3448
330
1A
100
AcDbEntity
  8
SEIHIN
  6
CONTINUOUS
 62
     3
 48
16.0
100
AcDbLine
 10
423.9420507975675
 20
386.4939877192957
 30
0.0
 11
423.9420507975675
 21
406.4939877192958
 31
0.0
  0
LINE
  5
3449
330
1A
100
AcDbEntity
  8
SEIHIN
  6
CONTINUOUS
 62
     3
 48
16.0
100
AcDbLine
 10
425.7420507975676
 20
386.4939877192957
 30
0.0
 11
425.7420507975676
 21
406.4939877192958
 31
0.0
  0
LINE
  5
344A
330
1A
100
AcDbEntity
  8
SEIHIN
  6
CONTINUOUS
 62
     3
 48
16.0
100
AcDbLine
 10
433.6770507975676
 20
315.5243877192957
 30
0.0
 11
433.6772507975676
 21
451.7591877192957
 31
0.0
  0
LINE
  5
344B
330
1A
100
AcDbEntity
  8
SEIHIN
  6
CONTINUOUS
 62
     3
 48
16.0
100
AcDbLine
 10
409.9424507975675
 20
475.4939877192957
 30
0.0
 11
409.9420507975676
 21
309.5243877192957
 31
0.0
  0
LINE
  5
344C
330
1A
100
AcDbEntity
  8
SUNPOU
  6
PHANTOM
 62
     4
 48
5.0
100
AcDbLine
 10
526.9117167301296
 20
360.5242121580161
 30
0.0
 11
526.9117167301296
 21
478.494303362983
 31
0.0
  0
LINE
  5
344D
330
1A
100
AcDbEntity
  8
SEIHIN
  6
CONTINUOUS
 62
     3
 48
16.0
100
AcDbLine
 10
467.4270507975675
 20
308.5242877192957
 30
0.0
 11
417.6422507975675
 21
308.5243877192957
 31
0.0
  0
LINE
  5
344E
330
1A
100
AcDbEntity
  8
SEIHIN
  6
CONTINUOUS
 62
     3
 48
16.0
100
AcDbLine
 10
467.4270507975675
 20
314.5242877192957
 30
0.0
 11
417.6422507975675
 21
314.5243877192957
 31
0.0
  0
LINE
  5
344F
330
1A
100
AcDbEntity
  8
SUNPOU
  6
PHANTOM
 62
     4
 48
5.0
100
AcDbLine
 10
525.9119876405297
 20
359.5244845725147
 30
0.0
 11
407.9418964356965
 21
359.5246620593579
 31
0.0
  0
LINE
  5
3450
330
1A
100
AcDbEntity
  8
SEIHIN
  6
CONTINUOUS
 62
     3
 48
16.0
100
AcDbLine
 10
417.6422507975675
 20
386.4938877192958
 30
0.0
 11
417.6421507975676
 21
315.5243877192957
 31
0.0
  0
LINE
  5
3451
330
1A
100
AcDbEntity
  8
SEIHIN
  6
CONTINUOUS
 62
     3
 48
16.0
100
AcDbLine
 10
423.1770507975675
 20
315.4720877192957
 30
0.0
 11
423.1771507975676
 21
386.4938877192958
 31
0.0
  0
LINE
  5
3452
330
1A
100
AcDbEntity
  8
SEIHIN
  6
CONTINUOUS
 62
     3
 48
16.0
100
AcDbLine
 10
419.3659507975675
 20
306.5243877192957
 30
0.0
 11
412.9420507975675
 21
306.5243877192957
 31
0.0
  0
ARC
  5
3453
330
1A
100
AcDbEntity
  8
SEIHIN
  6
CONTINUOUS
 62
     3
 48
16.0
100
AcDbCircle
 10
416.6421507975675
 20
311.5243877192957
 30
0.0
 40
3.5
100
AcDbArc
 50
90.0
 51
270.0
  0
ARC
  5
3454
330
1A
100
AcDbEntity
  8
SEIHIN
  6
CONTINUOUS
 62
     3
 48
16.0
100
AcDbCircle
 10
416.6421507975675
 20
311.5243877192957
 30
0.0
 40
3.0
100
AcDbArc
 50
90.0
 51
270.0
  0
ARC
  5
3455
330
1A
100
AcDbEntity
  8
SEIHIN
  6
CONTINUOUS
 62
     3
 48
16.0
100
AcDbCircle
 10
412.9420507975675
 20
309.5243877192957
 30
0.0
 40
3.0
100
AcDbArc
 50
180.0
 51
270.0
  0
ARC
  5
3456
330
1A
100
AcDbEntity
  8
SEIHIN
  6
CONTINUOUS
 62
     3
 48
16.0
100
AcDbCircle
 10
422.8214507975676
 20
311.5242877192958
 30
0.0
 40
2.999961760578832
100
AcDbArc
 50
279.267023917062
 51
80.73109113106218
  0
ARC
  5
3457
330
1A
100
AcDbEntity
  8
SEIHIN
  6
CONTINUOUS
 62
     3
 48
16.0
100
AcDbCircle
 10
422.1770507975675
 20
315.4720877192957
 30
0.0
 40
0.9999812046467507
100
AcDbArc
 50
279.2711014919193
 51
0.0
  0
ARC
  5
3458
330
1A
100
AcDbEntity
  8
SEIHIN
  6
CONTINUOUS
 62
     3
 48
16.0
100
AcDbCircle
 10
422.1771507975677
 20
307.5765877192957
 30
0.0
 40
0.9999812046467177
100
AcDbArc
 50
0.0
 51
80.72889850808381
  0
ARC
  5
3459
330
1A
100
AcDbEntity
  8
SEIHIN
  6
CONTINUOUS
 62
     3
 48
16.0
100
AcDbCircle
 10
416.6421507975675
 20
316.0243877192957
 30
0.0
 40
1.0
100
AcDbArc
 50
270.0
 51
0.0
  0
ARC
  5
345A
330
1A
100
AcDbEntity
  8
SEIHIN
  6
CONTINUOUS
 62
     3
 48
16.0
100
AcDbCircle
 10
416.6421507975675
 20
315.5243877192957
 30
0.0
 40
1.0
100
AcDbArc
 50
270.0
 51
0.0
  0
ARC
  5
345B
330
1A
100
AcDbEntity
  8
SEIHIN
  6
CONTINUOUS
 62
     3
 48
16.0
100
AcDbCircle
 10
416.6421507975675
 20
307.5243877192957
 30
0.0
 40
1.0
100
AcDbArc
 50
0.0
 51
90.0
  0
ARC
  5
345C
330
1A
100
AcDbEntity
  8
SEIHIN
  6
CONTINUOUS
 62
     3
 48
16.0
100
AcDbCircle
 10
416.6421507975675
 20
311.5242877192958
 30
0.0
 40
3.0
100
AcDbArc
 50
270.0
 51
90.0
  0
ARC
  5
345D
330
1A
100
AcDbEntity
  8
SEIHIN
  6
CONTINUOUS
 62
     3
 48
16.0
100
AcDbCircle
 10
416.6421507975675
 20
307.0243877192957
 30
0.0
 40
1.0
100
AcDbArc
 50
0.0
 51
90.0
  0
LINE
  5
345E
330
1A
100
AcDbEntity
  8
SEIHIN
  6
CONTINUOUS
 62
     3
 48
16.0
100
AcDbLine
 10
417.6421507975676
 20
307.5243877192957
 30
0.0
 11
417.6421507975676
 21
306.5243877192957
 31
0.0
  0
ARC
  5
345F
330
1A
100
AcDbEntity
  8
SEIHIN
  6
CONTINUOUS
 62
     3
 48
16.0
100
AcDbCircle
 10
432.6515507975676
 20
311.5242877192958
 30
0.0
 40
3.0
100
AcDbArc
 50
270.0
 51
90.0
  0
ARC
  5
3460
330
1A
100
AcDbEntity
  8
SEIHIN
  6
CONTINUOUS
 62
     3
 48
16.0
100
AcDbCircle
 10
432.6770507975675
 20
307.5243877192957
 30
0.0
 40
1.0
100
AcDbArc
 50
0.0
 51
90.0
  0
ARC
  5
3461
330
1A
100
AcDbEntity
  8
SEIHIN
  6
CONTINUOUS
 62
     3
 48
16.0
100
AcDbCircle
 10
432.6770507975675
 20
315.5243877192957
 30
0.0
 40
1.0
100
AcDbArc
 50
270.0
 51
0.0
  0
LINE
  5
3462
330
1A
100
AcDbEntity
  8
SEIHIN
  6
CONTINUOUS
 62
     3
 48
16.0
100
AcDbLine
 10
415.4420507975675
 20
386.4939877192957
 30
0.0
 11
425.7420507975676
 21
386.4939877192957
 31
0.0
  0
LINE
  5
3463
330
1A
100
AcDbEntity
  8
SEIHIN
  6
CONTINUOUS
 62
     3
 48
16.0
100
AcDbLine
 10
458.0520507975675
 20
359.5242877192958
 30
0.0
 11
443.0520507975676
 21
359.5242877192958
 31
0.0
  0
LINE
  5
3464
330
1A
100
AcDbEntity
  8
SEIHIN
  6
CONTINUOUS
 62
     3
 48
16.0
100
AcDbLine
 10
458.0520507975675
 20
361.0242877192957
 30
0.0
 11
443.0520507975676
 21
361.0242877192957
 31
0.0
  0
LINE
  5
3465
330
1A
100
AcDbEntity
  8
SEIHIN
  6
CONTINUOUS
 62
     3
 48
16.0
100
AcDbLine
 10
443.0520507975676
 20
361.0242877192957
 30
0.0
 11
443.0520507975676
 21
359.5242877192958
 31
0.0
  0
LINE
  5
3466
330
1A
100
AcDbEntity
  8
SEIHIN
  6
CONTINUOUS
 62
     3
 48
16.0
100
AcDbLine
 10
458.0520507975675
 20
361.0242877192957
 30
0.0
 11
458.0520507975675
 21
359.5242877192958
 31
0.0
  0
LINE
  5
3467
330
1A
100
AcDbEntity
  8
SEIHIN
  6
CONTINUOUS
 62
     3
 48
16.0
100
AcDbLine
 10
511.6769507975675
 20
315.4719877192957
 30
0.0
 11
511.6769507975675
 21
359.5242877192958
 31
0.0
  0
LINE
  5
3468
330
1A
100
AcDbEntity
  8
SEIHIN
  6
CONTINUOUS
 62
     3
 48
16.0
100
AcDbLine
 10
517.2119507975676
 20
315.5242877192957
 30
0.0
 11
517.2119507975676
 21
359.5242877192958
 31
0.0
  0
LINE
  5
3469
330
1A
100
AcDbEntity
  8
SEIHIN
  6
CONTINUOUS
 62
     3
 48
16.0
100
AcDbLine
 10
524.9119507975676
 20
309.5242877192958
 30
0.0
 11
524.9119507975676
 21
356.5243877192957
 31
0.0
  0
LINE
  5
346A
330
1A
100
AcDbEntity
  8
SEIHIN
  6
CONTINUOUS
 62
     3
 48
16.0
100
AcDbLine
 10
501.1769507975675
 20
315.5242877192957
 30
0.0
 11
501.1769507975675
 21
380.2593877192957
 31
0.0
  0
LINE
  5
346B
330
1A
100
AcDbEntity
  8
SEIHIN
  6
CONTINUOUS
 62
     3
 48
16.0
100
AcDbLine
 10
467.4270507975675
 20
308.5242877192957
 30
0.0
 11
518.2119507975676
 21
308.5242877192957
 31
0.0
  0
LINE
  5
346C
330
1A
100
AcDbEntity
  8
SEIHIN
  6
CONTINUOUS
 62
     3
 48
16.0
100
AcDbLine
 10
467.4270507975675
 20
314.5242877192957
 30
0.0
 11
518.2119507975676
 21
314.5242877192957
 31
0.0
  0
ARC
  5
346D
330
1A
100
AcDbEntity
  8
SEIHIN
  6
CONTINUOUS
 62
     3
 48
16.0
100
AcDbCircle
 10
502.2024507975674
 20
311.5242877192958
 30
0.0
 40
3.0
100
AcDbArc
 50
90.0
 51
270.0
  0
ARC
  5
346E
330
1A
100
AcDbEntity
  8
SEIHIN
  6
CONTINUOUS
 62
     3
 48
16.0
100
AcDbCircle
 10
502.1769507975675
 20
315.5242877192957
 30
0.0
 40
1.0
100
AcDbArc
 50
180.0
 51
270.0
  0
ARC
  5
346F
330
1A
100
AcDbEntity
  8
SEIHIN
  6
CONTINUOUS
 62
     3
 48
16.0
100
AcDbCircle
 10
502.1769507975675
 20
307.5242877192958
 30
0.0
 40
1.0
100
AcDbArc
 50
90.0
 51
180.0
  0
ARC
  5
3470
330
1A
100
AcDbEntity
  8
SEIHIN
  6
CONTINUOUS
 62
     3
 48
16.0
100
AcDbCircle
 10
512.6769507975675
 20
315.4719877192957
 30
0.0
 40
0.9999812046467507
100
AcDbArc
 50
180.0
 51
260.7288985080805
  0
ARC
  5
3471
330
1A
100
AcDbEntity
  8
SEIHIN
  6
CONTINUOUS
 62
     3
 48
16.0
100
AcDbCircle
 10
512.6769507975675
 20
307.5764877192957
 30
0.0
 40
1.000030551566615
100
AcDbArc
 50
99.27017847861327
 51
180.0
  0
ARC
  5
3472
330
1A
100
AcDbEntity
  8
SEIHIN
  6
CONTINUOUS
 62
     3
 48
16.0
100
AcDbCircle
 10
512.0326507975676
 20
311.5242877192958
 30
0.0
 40
2.999985921633637
100
AcDbArc
 50
99.27079380057236
 51
260.7292061994276
  0
ARC
  5
3473
330
1A
100
AcDbEntity
  8
SEIHIN
  6
CONTINUOUS
 62
     3
 48
16.0
100
AcDbCircle
 10
521.9119507975676
 20
309.5242877192958
 30
0.0
 40
3.0
100
AcDbArc
 50
270.0
 51
0.0
  0
ARC
  5
3474
330
1A
100
AcDbEntity
  8
SEIHIN
  6
CONTINUOUS
 62
     3
 48
16.0
100
AcDbCircle
 10
518.2119507975676
 20
311.5242877192958
 30
0.0
 40
3.0
100
AcDbArc
 50
90.0
 51
270.0
  0
ARC
  5
3475
330
1A
100
AcDbEntity
  8
SEIHIN
  6
CONTINUOUS
 62
     3
 48
16.0
100
AcDbCircle
 10
518.2118507975676
 20
316.0243877192957
 30
0.0
 40
1.0
100
AcDbArc
 50
180.0
 51
270.0
  0
ARC
  5
3476
330
1A
100
AcDbEntity
  8
SEIHIN
  6
CONTINUOUS
 62
     3
 48
16.0
100
AcDbCircle
 10
518.2119507975676
 20
315.5242877192957
 30
0.0
 40
1.0
100
AcDbArc
 50
180.0
 51
270.0
  0
LINE
  5
3477
330
1A
100
AcDbEntity
  8
SEIHIN
  6
CONTINUOUS
 62
     3
 48
16.0
100
AcDbLine
 10
517.2119507975676
 20
307.5242877192958
 30
0.0
 11
517.2119507975676
 21
306.5242877192957
 31
0.0
  0
ARC
  5
3478
330
1A
100
AcDbEntity
  8
SEIHIN
  6
CONTINUOUS
 62
     3
 48
16.0
100
AcDbCircle
 10
518.2119507975676
 20
307.5242877192958
 30
0.0
 40
1.0
100
AcDbArc
 50
90.0
 51
180.0
  0
ARC
  5
3479
330
1A
100
AcDbEntity
  8
SEIHIN
  6
CONTINUOUS
 62
     3
 48
16.0
100
AcDbCircle
 10
518.2118507975676
 20
307.0243877192957
 30
0.0
 40
1.0
100
AcDbArc
 50
90.0
 51
180.0
  0
ARC
  5
347A
330
1A
100
AcDbEntity
  8
SEIHIN
  6
CONTINUOUS
 62
     3
 48
16.0
100
AcDbCircle
 10
518.2118507975676
 20
311.5243877192957
 30
0.0
 40
3.5
100
AcDbArc
 50
270.0
 51
90.0
  0
ARC
  5
347B
330
1A
100
AcDbEntity
  8
SEIHIN
  6
CONTINUOUS
 62
     3
 48
16.0
100
AcDbCircle
 10
518.2119507975676
 20
311.5242877192958
 30
0.0
 40
3.0
100
AcDbArc
 50
270.0
 51
90.0
  0
LINE
  5
347C
330
1A
100
AcDbEntity
  8
SEIHIN
  6
CONTINUOUS
 62
     3
 48
16.0
100
AcDbLine
 10
515.4882507975676
 20
306.5242877192957
 30
0.0
 11
521.9119507975676
 21
306.5242877192957
 31
0.0
  0
LINE
  5
347D
330
1A
100
AcDbEntity
  8
SEIHIN
  6
CONTINUOUS
 62
     3
 48
16.0
100
AcDbLine
 10
476.8020507975675
 20
359.5243877192957
 30
0.0
 11
491.8020507975675
 21
359.5242877192958
 31
0.0
  0
LINE
  5
347E
330
1A
100
AcDbEntity
  8
SEIHIN
  6
CONTINUOUS
 62
     3
 48
16.0
100
AcDbLine
 10
476.8020507975675
 20
361.0242877192957
 30
0.0
 11
491.8020507975675
 21
361.0242877192957
 31
0.0
  0
LINE
  5
347F
330
1A
100
AcDbEntity
  8
SEIHIN
  6
CONTINUOUS
 62
     3
 48
16.0
100
AcDbLine
 10
476.8020507975675
 20
361.0242877192957
 30
0.0
 11
476.8020507975675
 21
359.5243877192957
 31
0.0
  0
LINE
  5
3480
330
1A
100
AcDbEntity
  8
SEIHIN
  6
CONTINUOUS
 62
     3
 48
16.0
100
AcDbLine
 10
491.8020507975675
 20
361.0241877192957
 30
0.0
 11
491.8020507975675
 21
359.5242877192958
 31
0.0
  0
LINE
  5
3481
330
1A
100
AcDbEntity
  8
SEIHIN
  6
CONTINUOUS
 62
     3
 48
16.0
100
AcDbLine
 10
510.9119507975676
 20
369.5242877192957
 30
0.0
 11
510.9119507975676
 21
359.5242877192958
 31
0.0
  0
LINE
  5
3482
330
1A
100
AcDbEntity
  8
SEIHIN
  6
CONTINUOUS
 62
     3
 48
16.0
100
AcDbLine
 10
511.6769507975675
 20
361.3242877192957
 30
0.0
 11
511.6769507975675
 21
369.7593877192957
 31
0.0
  0
LINE
  5
3483
330
1A
100
AcDbEntity
  8
SEIHIN
  6
CONTINUOUS
 62
     3
 48
16.0
100
AcDbLine
 10
517.2119507975676
 20
361.3242877192957
 30
0.0
 11
517.2119507975676
 21
364.2243877192957
 31
0.0
  0
LINE
  5
3484
330
1A
100
AcDbEntity
  8
SEIHIN
  6
CONTINUOUS
 62
     3
 48
16.0
100
AcDbLine
 10
509.1119507975677
 20
369.5242877192957
 30
0.0
 11
509.1119507975677
 21
359.5242877192958
 31
0.0
  0
LINE
  5
3485
330
1A
100
AcDbEntity
  8
SEIHIN
  6
CONTINUOUS
 62
     3
 48
16.0
100
AcDbLine
 10
519.4119507975677
 20
361.3242877192957
 30
0.0
 11
510.9119507975676
 21
361.3242877192957
 31
0.0
  0
LINE
  5
3486
330
1A
100
AcDbEntity
  8
SEIHIN
  6
CONTINUOUS
 62
     3
 48
16.0
100
AcDbLine
 10
519.4119507975677
 20
359.5242877192958
 30
0.0
 11
509.1119507975677
 21
359.5242877192958
 31
0.0
  0
LINE
  5
3487
330
1A
100
AcDbEntity
  8
SEIHIN
  6
CONTINUOUS
 62
     3
 48
16.0
100
AcDbLine
 10
512.9119507975676
 20
361.3242877192957
 30
0.0
 11
512.9119507975676
 21
359.5242877192958
 31
0.0
  0
LINE
  5
3488
330
1A
100
AcDbEntity
  8
SEIHIN
  6
CONTINUOUS
 62
     3
 48
16.0
100
AcDbLine
 10
519.4119507975677
 20
361.3242877192957
 30
0.0
 11
519.4119507975677
 21
359.5242877192958
 31
0.0
  0
ARC
  5
3489
330
1A
100
AcDbEntity
  8
SEIHIN
  6
CONTINUOUS
 62
     3
 48
16.0
100
AcDbCircle
 10
529.9119507975676
 20
356.5243877192957
 30
0.0
 40
5.0
100
AcDbArc
 50
90.0
 51
180.0
  0
ARC
  5
348A
330
1A
100
AcDbEntity
  8
SEIHIN
  6
CONTINUOUS
 62
     3
 48
16.0
100
AcDbCircle
 10
529.9119507975676
 20
356.5243877192957
 30
0.0
 40
3.0
100
AcDbArc
 50
90.0
 51
180.0
  0
LINE
  5
348B
330
1A
100
AcDbEntity
  8
SEIHIN
  6
CONTINUOUS
 62
     3
 48
16.0
100
AcDbLine
 10
513.9920507975675
 20
372.4441877192957
 30
0.0
 11
517.2119507975676
 21
369.2243877192957
 31
0.0
  0
ARC
  5
348C
330
1A
100
AcDbEntity
  8
SEIHIN
  6
CONTINUOUS
 62
     3
 48
16.0
100
AcDbCircle
 10
516.6769507975675
 20
369.7593877192957
 30
0.0
 40
5.0
100
AcDbArc
 50
90.0
 51
180.0
  0
LINE
  5
348D
330
1A
100
AcDbEntity
  8
SEIHIN
  6
CONTINUOUS
 62
     3
 48
16.0
100
AcDbLine
 10
503.7521507975675
 20
382.6840877192957
 30
0.0
 11
511.6768507975676
 21
374.7593877192958
 31
0.0
  0
LINE
  5
348E
330
1A
100
AcDbEntity
  8
SEIHIN
  6
CONTINUOUS
 62
     3
 48
16.0
100
AcDbLine
 10
509.1119507975677
 20
367.5242877192957
 30
0.0
 11
510.9119507975676
 21
367.5242877192957
 31
0.0
  0
LINE
  5
348F
330
1A
100
AcDbEntity
  8
SEIHIN
  6
CONTINUOUS
 62
     3
 48
16.0
100
AcDbLine
 10
510.9119507975676
 20
369.5242877192957
 30
0.0
 11
509.1119507975677
 21
369.5242877192957
 31
0.0
  0
ARC
  5
3490
330
1A
100
AcDbEntity
  8
SEIHIN
  6
CONTINUOUS
 62
     3
 48
16.0
100
AcDbCircle
 10
506.1769507975675
 20
380.2593877192957
 30
0.0
 40
5.0
100
AcDbArc
 50
90.0
 51
180.0
  0
LINE
  5
3491
330
1A
100
AcDbEntity
  8
SEIHIN
  6
CONTINUOUS
 62
     3
 48
16.0
100
AcDbLine
 10
525.1120507975676
 20
367.0243877192957
 30
0.0
 11
525.1120507975676
 21
375.5243877192957
 31
0.0
  0
LINE
  5
3492
330
1A
100
AcDbEntity
  8
SEIHIN
  6
CONTINUOUS
 62
     3
 48
16.0
100
AcDbLine
 10
526.9120507975676
 20
367.0243877192957
 30
0.0
 11
526.9120507975676
 21
377.3242877192958
 31
0.0
  0
LINE
  5
3493
330
1A
100
AcDbEntity
  8
SEIHIN
  6
CONTINUOUS
 62
     3
 48
16.0
100
AcDbLine
 10
525.1120507975676
 20
369.2243877192957
 30
0.0
 11
522.2119507975675
 21
369.2243877192957
 31
0.0
  0
LINE
  5
3494
330
1A
100
AcDbEntity
  8
SEIHIN
  6
CONTINUOUS
 62
     3
 48
16.0
100
AcDbLine
 10
525.1120507975676
 20
374.7592877192957
 30
0.0
 11
516.6769507975675
 21
374.7593877192958
 31
0.0
  0
ARC
  5
3495
330
1A
100
AcDbEntity
  8
SEIHIN
  6
CONTINUOUS
 62
     3
 48
16.0
100
AcDbCircle
 10
522.2119507975675
 20
364.2243877192957
 30
0.0
 40
5.0
100
AcDbArc
 50
90.0
 51
180.0
  0
LINE
  5
3496
330
1A
100
AcDbEntity
  8
SEIHIN
  6
CONTINUOUS
 62
     3
 48
16.0
100
AcDbLine
 10
525.1120507975676
 20
367.0243877192957
 30
0.0
 11
526.9120507975676
 21
367.0243877192957
 31
0.0
  0
LINE
  5
3497
330
1A
100
AcDbEntity
  8
SEIHIN
  6
CONTINUOUS
 62
     3
 48
16.0
100
AcDbLine
 10
525.1120507975676
 20
373.5243877192957
 30
0.0
 11
526.9120507975676
 21
373.5243877192957
 31
0.0
  0
LINE
  5
3498
330
1A
100
AcDbEntity
  8
SEIHIN
  6
CONTINUOUS
 62
     3
 48
16.0
100
AcDbLine
 10
516.9120507975676
 20
377.3242877192958
 30
0.0
 11
526.9120507975676
 21
377.3242877192958
 31
0.0
  0
LINE
  5
3499
330
1A
100
AcDbEntity
  8
SEIHIN
  6
CONTINUOUS
 62
     3
 48
16.0
100
AcDbLine
 10
516.9120507975676
 20
375.5243877192957
 30
0.0
 11
526.9120507975676
 21
375.5243877192957
 31
0.0
  0
LINE
  5
349A
330
1A
100
AcDbEntity
  8
SEIHIN
  6
CONTINUOUS
 62
     3
 48
16.0
100
AcDbLine
 10
518.9120507975676
 20
375.5243877192957
 30
0.0
 11
518.9120507975676
 21
377.3243877192957
 31
0.0
  0
LINE
  5
349B
330
1A
100
AcDbEntity
  8
SEIHIN
  6
CONTINUOUS
 62
     3
 48
16.0
100
AcDbLine
 10
516.9120507975676
 20
375.5243877192957
 30
0.0
 11
516.9120507975676
 21
377.3243877192957
 31
0.0
  0
LINE
  5
349C
330
1A
100
AcDbEntity
  8
SEIHIN
  6
CONTINUOUS
 62
     3
 48
16.0
100
AcDbLine
 10
444.9425507975676
 20
468.7938877192957
 30
0.0
 11
479.9425507975676
 21
468.7939877192958
 31
0.0
  0
LINE
  5
349D
330
1A
100
AcDbEntity
  8
SEIHIN
  6
CONTINUOUS
 62
     3
 48
16.0
100
AcDbLine
 10
479.9425507975676
 20
463.2591877192957
 30
0.0
 11
444.9425507975676
 21
463.2591877192957
 31
0.0
  0
LINE
  5
349E
330
1A
100
AcDbEntity
  8
SEIHIN
  6
CONTINUOUS
 62
     3
 48
16.0
100
AcDbLine
 10
417.6425507975675
 20
441.4939877192957
 30
0.0
 11
417.6423507975676
 21
406.4938877192957
 31
0.0
  0
LINE
  5
349F
330
1A
100
AcDbEntity
  8
SEIHIN
  6
CONTINUOUS
 62
     3
 48
16.0
100
AcDbLine
 10
423.1771507975676
 20
406.4938877192957
 30
0.0
 11
423.1772507975676
 21
441.4939877192957
 31
0.0
  0
LINE
  5
34A0
330
1A
100
AcDbEntity
  8
SEIHIN
  6
CONTINUOUS
 62
     3
 48
16.0
100
AcDbLine
 10
415.4420507975675
 20
404.6939877192957
 30
0.0
 11
423.9420507975675
 21
404.6939877192957
 31
0.0
  0
LINE
  5
34A1
330
1A
100
AcDbEntity
  8
SEIHIN
  6
CONTINUOUS
 62
     3
 48
16.0
100
AcDbLine
 10
415.4420507975675
 20
406.4939877192958
 30
0.0
 11
425.7419507975676
 21
406.4939877192958
 31
0.0
  0
LINE
  5
34A2
330
1A
100
AcDbEntity
  8
SEIHIN
  6
CONTINUOUS
 62
     3
 48
16.0
100
AcDbLine
 10
415.4420507975675
 20
388.2938877192957
 30
0.0
 11
423.9421507975676
 21
388.2939877192957
 31
0.0
  0
LINE
  5
34A3
330
1A
100
AcDbEntity
  8
SEIHIN
  6
CONTINUOUS
 62
     3
 48
16.0
100
AcDbLine
 10
415.4420507975675
 20
404.6939877192957
 30
0.0
 11
415.4420507975675
 21
406.4939877192958
 31
0.0
  0
LINE
  5
34A4
330
1A
100
AcDbEntity
  8
SEIHIN
  6
CONTINUOUS
 62
     3
 48
16.0
100
AcDbLine
 10
417.6423507975676
 20
404.6938877192958
 30
0.0
 11
417.6422507975675
 21
388.2938877192957
 31
0.0
  0
LINE
  5
34A5
330
1A
100
AcDbEntity
  8
SEIHIN
  6
CONTINUOUS
 62
     3
 48
16.0
100
AcDbLine
 10
423.1771507975676
 20
388.2938877192957
 30
0.0
 11
423.1771507975676
 21
404.6938877192958
 31
0.0
  0
LINE
  5
34A6
330
1A
100
AcDbEntity
  8
SEIHIN
  6
CONTINUOUS
 62
     3
 48
16.0
100
AcDbLine
 10
421.9420507975675
 20
404.6939877192957
 30
0.0
 11
421.9420507975675
 21
406.4939877192958
 31
0.0
  0
LINE
  5
34A7
330
1A
100
AcDbEntity
  8
SEIHIN
  6
CONTINUOUS
 62
     3
 48
16.0
100
AcDbLine
 10
418.6427507975676
 20
468.7937877192958
 30
0.0
 11
443.1425507975675
 21
468.7938877192957
 31
0.0
  0
LINE
  5
34A8
330
1A
100
AcDbEntity
  8
SEIHIN
  6
CONTINUOUS
 62
     3
 48
16.0
100
AcDbLine
 10
429.9424507975675
 20
460.6939877192957
 30
0.0
 11
444.9425507975676
 21
460.6939877192957
 31
0.0
  0
LINE
  5
34A9
330
1A
100
AcDbEntity
  8
SEIHIN
  6
CONTINUOUS
 62
     3
 48
16.0
100
AcDbLine
 10
429.9424507975675
 20
462.4939877192957
 30
0.0
 11
444.9425507975676
 21
462.4939877192957
 31
0.0
  0
LINE
  5
34AA
330
1A
100
AcDbEntity
  8
SEIHIN
  6
CONTINUOUS
 62
     3
 48
16.0
100
AcDbLine
 10
443.1425507975675
 20
463.2591877192957
 30
0.0
 11
424.1772507975676
 21
463.2591877192957
 31
0.0
  0
LINE
  5
34AB
330
1A
100
AcDbEntity
  8
SEIHIN
  6
CONTINUOUS
 62
     3
 48
16.0
100
AcDbLine
 10
423.7759507975676
 20
462.6604877192957
 30
0.0
 11
433.6772507975676
 21
452.7591877192957
 31
0.0
  0
LINE
  5
34AC
330
1A
100
AcDbEntity
  8
SEIHIN
  6
CONTINUOUS
 62
     3
 48
16.0
100
AcDbLine
 10
425.7424507975676
 20
456.4939877192958
 30
0.0
 11
425.7424507975676
 21
441.4939877192957
 31
0.0
  0
LINE
  5
34AD
330
1A
100
AcDbEntity
  8
SEIHIN
  6
CONTINUOUS
 62
     3
 48
16.0
100
AcDbLine
 10
423.9424507975675
 20
456.4939877192958
 30
0.0
 11
423.9424507975675
 21
441.4939877192957
 31
0.0
  0
LINE
  5
34AE
330
1A
100
AcDbEntity
  8
SEIHIN
  6
CONTINUOUS
 62
     3
 48
16.0
100
AcDbLine
 10
417.6427507975676
 20
467.7937877192958
 30
0.0
 11
417.6426507975675
 21
443.2938877192957
 31
0.0
  0
LINE
  5
34AF
330
1A
100
AcDbEntity
  8
SEIHIN
  6
CONTINUOUS
 62
     3
 48
16.0
100
AcDbLine
 10
423.1772507975676
 20
443.2938877192957
 30
0.0
 11
423.1772507975676
 21
462.2591877192958
 31
0.0
  0
LINE
  5
34B0
330
1A
100
AcDbEntity
  8
SEIHIN
  6
CONTINUOUS
 62
     3
 48
16.0
100
AcDbLine
 10
415.4425507975676
 20
441.4939877192957
 30
0.0
 11
425.7424507975676
 21
441.4939877192957
 31
0.0
  0
LINE
  5
34B1
330
1A
100
AcDbEntity
  8
SEIHIN
  6
CONTINUOUS
 62
     3
 48
16.0
100
AcDbLine
 10
415.4425507975676
 20
443.2938877192957
 30
0.0
 11
423.9425507975676
 21
443.2938877192957
 31
0.0
  0
LINE
  5
34B2
330
1A
100
AcDbEntity
  8
SEIHIN
  6
CONTINUOUS
 62
     3
 48
16.0
100
AcDbLine
 10
415.4424507975675
 20
443.2938877192957
 30
0.0
 11
415.4424507975675
 21
441.4939877192957
 31
0.0
  0
LINE
  5
34B3
330
1A
100
AcDbEntity
  8
SEIHIN
  6
CONTINUOUS
 62
     3
 48
16.0
100
AcDbLine
 10
421.9424507975675
 20
443.2938877192957
 30
0.0
 11
421.9424507975675
 21
441.4939877192957
 31
0.0
  0
ARC
  5
34B4
330
1A
100
AcDbEntity
  8
SEIHIN
  6
CONTINUOUS
 62
     3
 48
16.0
100
AcDbCircle
 10
408.9420507975675
 20
477.4944877192957
 30
0.0
 40
1.0
100
AcDbArc
 50
90.0
 51
180.0
  0
ARC
  5
34B5
330
1A
100
AcDbEntity
  8
SEIHIN
  6
CONTINUOUS
 62
     3
 48
16.0
100
AcDbCircle
 10
410.9424507975675
 20
475.4939877192957
 30
0.0
 40
1.0
100
AcDbArc
 50
90.0
 51
180.0
  0
LINE
  5
34B6
330
1A
100
AcDbEntity
  8
SEIHIN
  6
CONTINUOUS
 62
     3
 48
16.0
100
AcDbLine
 10
418.2968507975676
 20
468.1395877192957
 30
0.0
 11
423.1772507975676
 21
463.2591877192957
 31
0.0
  0
ARC
  5
34B7
330
1A
100
AcDbEntity
  8
SEIHIN
  6
CONTINUOUS
 62
     3
 48
16.0
100
AcDbCircle
 10
418.6427507975676
 20
467.7937877192958
 30
0.0
 40
1.0
100
AcDbArc
 50
90.0
 51
180.0
  0
ARC
  5
34B8
330
1A
100
AcDbEntity
  8
SEIHIN
  6
CONTINUOUS
 62
     3
 48
16.0
100
AcDbCircle
 10
424.1772507975676
 20
462.2591877192958
 30
0.0
 40
1.0
100
AcDbArc
 50
90.0
 51
180.0
  0
LINE
  5
34B9
330
1A
100
AcDbEntity
  8
SEIHIN
  6
CONTINUOUS
 62
     3
 48
16.0
100
AcDbLine
 10
423.9425507975676
 20
456.4939877192958
 30
0.0
 11
425.7424507975676
 21
456.4939877192958
 31
0.0
  0
LINE
  5
34BA
330
1A
100
AcDbEntity
  8
SEIHIN
  6
CONTINUOUS
 62
     3
 48
16.0
100
AcDbLine
 10
429.9425507975676
 20
462.4939877192957
 30
0.0
 11
429.9424507975675
 21
460.6939877192957
 31
0.0
  0
ARC
  5
34BB
330
1A
100
AcDbEntity
  8
SEIHIN
  6
CONTINUOUS
 62
     3
 48
16.0
100
AcDbCircle
 10
434.6772507975676
 20
451.7591877192957
 30
0.0
 40
1.0
100
AcDbArc
 50
90.0
 51
180.0
  0
LINE
  5
34BC
330
1A
100
AcDbEntity
  8
SEIHIN
  6
CONTINUOUS
 62
     3
 48
16.0
100
AcDbLine
 10
443.1425507975675
 20
470.9939877192957
 30
0.0
 11
443.1425507975675
 21
462.4938877192958
 31
0.0
  0
LINE
  5
34BD
330
1A
100
AcDbEntity
  8
SEIHIN
  6
CONTINUOUS
 62
     3
 48
16.0
100
AcDbLine
 10
444.9425507975676
 20
470.9938877192958
 30
0.0
 11
444.9425507975676
 21
460.6939877192957
 31
0.0
  0
LINE
  5
34BE
330
1A
100
AcDbEntity
  8
SEIHIN
  6
CONTINUOUS
 62
     3
 48
16.0
100
AcDbLine
 10
443.1425507975675
 20
464.4939877192958
 30
0.0
 11
444.9425507975676
 21
464.4939877192958
 31
0.0
  0
LINE
  5
34BF
330
1A
100
AcDbEntity
  8
SEIHIN
  6
CONTINUOUS
 62
     3
 48
16.0
100
AcDbLine
 10
443.1425507975675
 20
470.9939877192957
 30
0.0
 11
444.9425507975676
 21
470.9939877192957
 31
0.0
  0
LINE
  5
34C0
330
1A
100
AcDbEntity
  8
SEIHIN
  6
CONTINUOUS
 62
     3
 48
16.0
100
AcDbLine
 10
525.4120507975676
 20
428.3841877192958
 30
0.0
 11
525.4119507975676
 21
443.3841877192957
 31
0.0
  0
LINE
  5
34C1
330
1A
100
AcDbEntity
  8
SEIHIN
  6
CONTINUOUS
 62
     3
 48
16.0
100
AcDbLine
 10
526.9120507975676
 20
428.3841877192958
 30
0.0
 11
526.9119507975676
 21
443.3841877192957
 31
0.0
  0
LINE
  5
34C2
330
1A
100
AcDbEntity
  8
SEIHIN
  6
CONTINUOUS
 62
     3
 48
16.0
100
AcDbLine
 10
525.4119507975676
 20
409.6341877192958
 30
0.0
 11
525.4119507975676
 21
394.6340877192957
 31
0.0
  0
LINE
  5
34C3
330
1A
100
AcDbEntity
  8
SEIHIN
  6
CONTINUOUS
 62
     3
 48
16.0
100
AcDbLine
 10
526.9119507975676
 20
409.6341877192958
 30
0.0
 11
526.9119507975676
 21
394.6340877192957
 31
0.0
  0
LINE
  5
34C4
330
1A
100
AcDbEntity
  8
SEIHIN
  6
CONTINUOUS
 62
     3
 48
16.0
100
AcDbLine
 10
525.4120507975676
 20
394.6341877192957
 30
0.0
 11
526.9119507975676
 21
394.6341877192957
 31
0.0
  0
LINE
  5
34C5
330
1A
100
AcDbEntity
  8
SEIHIN
  6
CONTINUOUS
 62
     3
 48
16.0
100
AcDbLine
 10
525.4119507975676
 20
409.6341877192958
 30
0.0
 11
526.9119507975676
 21
409.6341877192958
 31
0.0
  0
LINE
  5
34C6
330
1A
100
AcDbEntity
  8
SEIHIN
  6
CONTINUOUS
 62
     3
 48
16.0
100
AcDbLine
 10
525.4120507975676
 20
428.3841877192958
 30
0.0
 11
526.9120507975676
 21
428.3841877192958
 31
0.0
  0
LINE
  5
34C7
330
1A
100
AcDbEntity
  8
SEIHIN
  6
CONTINUOUS
 62
     3
 48
16.0
100
AcDbLine
 10
481.7425507975676
 20
468.7939877192958
 30
0.0
 11
498.1425507975675
 21
468.7940877192957
 31
0.0
  0
LINE
  5
34C8
330
1A
100
AcDbEntity
  8
SEIHIN
  6
CONTINUOUS
 62
     3
 48
16.0
100
AcDbLine
 10
499.9425507975677
 20
462.4941877192958
 30
0.0
 11
479.9425507975676
 21
462.4942877192957
 31
0.0
  0
LINE
  5
34C9
330
1A
100
AcDbEntity
  8
SEIHIN
  6
CONTINUOUS
 62
     3
 48
16.0
100
AcDbLine
 10
499.9425507975677
 20
460.6941877192958
 30
0.0
 11
479.9425507975676
 21
460.6942877192957
 31
0.0
  0
LINE
  5
34CA
330
1A
100
AcDbEntity
  8
SEIHIN
  6
CONTINUOUS
 62
     3
 48
16.0
100
AcDbLine
 10
498.1425507975675
 20
463.2591877192957
 30
0.0
 11
481.7425507975676
 21
463.2591877192957
 31
0.0
  0
LINE
  5
34CB
330
1A
100
AcDbEntity
  8
SEIHIN
  6
CONTINUOUS
 62
     3
 48
16.0
100
AcDbLine
 10
481.7424507975676
 20
470.9942877192957
 30
0.0
 11
479.9425507975676
 21
470.9942877192957
 31
0.0
  0
LINE
  5
34CC
330
1A
100
AcDbEntity
  8
SEIHIN
  6
CONTINUOUS
 62
     3
 48
16.0
100
AcDbLine
 10
481.7424507975676
 20
464.4942877192957
 30
0.0
 11
479.9425507975676
 21
464.4942877192957
 31
0.0
  0
LINE
  5
34CD
330
1A
100
AcDbEntity
  8
SEIHIN
  6
CONTINUOUS
 62
     3
 48
16.0
100
AcDbLine
 10
479.9425507975676
 20
470.9943877192958
 30
0.0
 11
479.9424507975675
 21
460.6943877192957
 31
0.0
  0
LINE
  5
34CE
330
1A
100
AcDbEntity
  8
SEIHIN
  6
CONTINUOUS
 62
     3
 48
16.0
100
AcDbLine
 10
481.7425507975676
 20
470.9943877192958
 30
0.0
 11
481.7424507975676
 21
462.4942877192957
 31
0.0
  0
LINE
  5
34CF
330
1A
100
AcDbEntity
  8
SEIHIN
  6
CONTINUOUS
 62
     3
 48
16.0
100
AcDbLine
 10
525.4120507975676
 20
443.3841877192957
 30
0.0
 11
526.9120507975676
 21
443.3841877192957
 31
0.0
  0
LINE
  5
34D0
330
1A
100
AcDbEntity
  8
SEIHIN
  6
CONTINUOUS
 62
     3
 48
16.0
100
AcDbLine
 10
499.9425507975677
 20
470.9942877192957
 30
0.0
 11
499.9425507975677
 21
460.6942877192957
 31
0.0
  0
LINE
  5
34D1
330
1A
100
AcDbEntity
  8
SEIHIN
  6
CONTINUOUS
 62
     3
 48
16.0
100
AcDbLine
 10
498.1425507975675
 20
470.9942877192957
 30
0.0
 11
498.1425507975675
 21
462.4941877192958
 31
0.0
  0
LINE
  5
34D2
330
1A
100
AcDbEntity
  8
SEIHIN
  6
CONTINUOUS
 62
     3
 48
16.0
100
AcDbLine
 10
499.9425507975677
 20
464.4941877192957
 30
0.0
 11
498.1425507975675
 21
464.4941877192957
 31
0.0
  0
LINE
  5
34D3
330
1A
100
AcDbEntity
  8
SEIHIN
  6
CONTINUOUS
 62
     3
 48
16.0
100
AcDbLine
 10
499.9425507975677
 20
470.9942877192957
 30
0.0
 11
498.1425507975675
 21
470.9942877192957
 31
0.0
  0
ARC
  5
34D4
330
1A
100
AcDbEntity
  8
SEIHIN
  6
CONTINUOUS
 62
     3
 48
16.0
100
AcDbCircle
 10
574.9119507975676
 20
384.2335877192957
 30
0.0
 40
3.0
100
AcDbArc
 50
0.0
 51
180.0
  0
LINE
  5
34D5
330
1A
100
AcDbEntity
  8
SEIHIN
  6
CONTINUOUS
 62
     3
 48
16.0
100
AcDbLine
 10
604.9121507975676
 20
419.0091877192958
 30
0.0
 11
604.9120507975676
 21
360.3242877192958
 31
0.0
  0
LINE
  5
34D6
330
1A
100
AcDbEntity
  8
SEIHIN
  6
CONTINUOUS
 62
     3
 48
16.0
100
AcDbLine
 10
571.9121507975676
 20
419.0091877192958
 30
0.0
 11
571.9120507975676
 21
368.2242877192957
 31
0.0
  0
LINE
  5
34D7
330
1A
100
AcDbEntity
  8
SEIHIN
  6
CONTINUOUS
 62
     3
 48
16.0
100
AcDbLine
 10
577.9121507975676
 20
419.0091877192958
 30
0.0
 11
577.9120507975676
 21
368.2242877192957
 31
0.0
  0
DIMENSION
  5
34D8
330
1A
100
AcDbEntity
  8
SUNPOU
  6
CONTINUOUS
100
AcDbDimension
  2
*D9
 10
639.8425560009314
 20
359.5242877192958
 30
0.0
 11
634.8425560009312
 21
419.0092377192958
 31
0.0
 70
    32
  3
STANDARD
100
AcDbAlignedDimension
 13
600.9121507975676
 23
478.4941877192958
 33
0.0
 14
600.9119507975676
 24
359.5242877192958
 34
0.0
 50
90.0
100
AcDbRotatedDimension
1001
ACAD
1000
DSTYLE
1002
{
1070
   140
1040
6.0
1070
    74
1070
     0
1070
   172
1070
     1
1070
    73
1070
     0
1070
   272
1070
     2
1070
    77
1070
     3
1070
   173
1070
     1
1070
   147
1040
2.0
1070
    42
1040
6.0
1070
    44
1040
3.0
1070
    43
1040
14.0
1070
   271
1070
     0
1070
   178
1070
     4
1070
   177
1070
     4
1070
   176
1070
     4
1070
   141
1040
150.0
1070
     7
1000
_OPEN
1070
     6
1000
_OPEN
1070
    41
1040
7.0
1002
}
  0
LINE
  5
34D9
330
1A
100
AcDbEntity
  8
SEIHIN
  6
CONTINUOUS
 62
     3
 48
16.0
100
AcDbLine
 10
604.9120507975676
 20
385.2591877192957
 30
0.0
 11
578.9120507975676
 21
385.2592877192958
 31
0.0
  0
LINE
  5
34DA
330
1A
100
AcDbEntity
  8
SEIHIN
  6
CONTINUOUS
 62
     3
 48
16.0
100
AcDbLine
 10
604.9120507975676
 20
374.7591877192957
 30
0.0
 11
577.9120507975676
 21
374.7591877192957
 31
0.0
  0
LINE
  5
34DB
330
1A
100
AcDbEntity
  8
SEIHIN
  6
CONTINUOUS
 62
     3
 48
16.0
100
AcDbLine
 10
604.9120507975676
 20
370.9478877192957
 30
0.0
 11
579.9120507975676
 21
370.9478877192957
 31
0.0
  0
ARC
  5
34DC
330
1A
100
AcDbEntity
  8
SEIHIN
  6
CONTINUOUS
 62
     3
 48
16.0
100
AcDbCircle
 10
576.9120507975676
 20
364.5242877192957
 30
0.0
 40
3.0
100
AcDbArc
 50
270.0
 51
0.0
  0
ARC
  5
34DD
330
1A
100
AcDbEntity
  8
SEIHIN
  6
CONTINUOUS
 62
     3
 48
16.0
100
AcDbCircle
 10
574.9119507975676
 20
374.4034877192957
 30
0.0
 40
2.999985921633617
100
AcDbArc
 50
9.270793800573024
 51
170.7292061994269
  0
ARC
  5
34DE
330
1A
100
AcDbEntity
  8
SEIHIN
  6
CONTINUOUS
 62
     3
 48
16.0
100
AcDbCircle
 10
570.9120507975676
 20
368.2242877192957
 30
0.0
 40
1.0
100
AcDbArc
 50
0.0
 51
90.0
  0
ARC
  5
34DF
330
1A
100
AcDbEntity
  8
SEIHIN
  6
CONTINUOUS
 62
     3
 48
16.0
100
AcDbCircle
 10
570.9643507975677
 20
373.7592877192958
 30
0.0
 40
0.9999812046467177
100
AcDbArc
 50
9.27110149191686
 51
90.0
  0
ARC
  5
34E0
330
1A
100
AcDbEntity
  8
SEIHIN
  6
CONTINUOUS
 62
     3
 48
16.0
100
AcDbCircle
 10
574.9118507975676
 20
368.2242877192957
 30
0.0
 40
3.5
100
AcDbArc
 50
180.0
 51
0.0
  0
ARC
  5
34E1
330
1A
100
AcDbEntity
  8
SEIHIN
  6
CONTINUOUS
 62
     3
 48
16.0
100
AcDbCircle
 10
570.4118507975676
 20
368.2242877192957
 30
0.0
 40
1.0
100
AcDbArc
 50
0.0
 51
90.0
  0
ARC
  5
34E2
330
1A
100
AcDbEntity
  8
SEIHIN
  6
CONTINUOUS
 62
     3
 48
16.0
100
AcDbCircle
 10
579.4118507975676
 20
368.2242877192957
 30
0.0
 40
1.0
100
AcDbArc
 50
90.0
 51
180.0
  0
ARC
  5
34E3
330
1A
100
AcDbEntity
  8
SEIHIN
  6
CONTINUOUS
 62
     3
 48
16.0
100
AcDbCircle
 10
578.9120507975676
 20
368.2242877192957
 30
0.0
 40
1.0
100
AcDbArc
 50
90.0
 51
180.0
  0
LINE
  5
34E4
330
1A
100
AcDbEntity
  8
SEIHIN
  6
CONTINUOUS
 62
     3
 48
16.0
100
AcDbLine
 10
578.9120507975676
 20
369.2242877192957
 30
0.0
 11
579.9120507975676
 21
369.2242877192957
 31
0.0
  0
LINE
  5
34E5
330
1A
100
AcDbEntity
  8
SEIHIN
  6
CONTINUOUS
 62
     3
 48
16.0
100
AcDbLine
 10
579.9120507975676
 20
370.9479877192957
 30
0.0
 11
579.9120507975676
 21
364.5242877192957
 31
0.0
  0
ARC
  5
34E6
330
1A
100
AcDbEntity
  8
SEIHIN
  6
CONTINUOUS
 62
     3
 48
16.0
100
AcDbCircle
 10
574.9119507975676
 20
368.2241877192958
 30
0.0
 40
3.0
100
AcDbArc
 50
0.0
 51
180.0
  0
ARC
  5
34E7
330
1A
100
AcDbEntity
  8
SEIHIN
  6
CONTINUOUS
 62
     3
 48
16.0
100
AcDbCircle
 10
574.9120507975676
 20
368.2242877192957
 30
0.0
 40
3.0
100
AcDbArc
 50
180.0
 51
0.0
  0
ARC
  5
34E8
330
1A
100
AcDbEntity
  8
SEIHIN
  6
CONTINUOUS
 62
     3
 48
16.0
100
AcDbCircle
 10
570.9120507975676
 20
384.2592877192958
 30
0.0
 40
1.0
100
AcDbArc
 50
0.0
 51
90.0
  0
ARC
  5
34E9
330
1A
100
AcDbEntity
  8
SEIHIN
  6
CONTINUOUS
 62
     3
 48
16.0
100
AcDbCircle
 10
578.9120507975676
 20
384.2592877192958
 30
0.0
 40
1.0
100
AcDbArc
 50
90.0
 51
180.0
  0
LINE
  5
34EA
330
1A
100
AcDbEntity
  8
SEIHIN
  6
CONTINUOUS
 62
     3
 48
16.0
100
AcDbLine
 10
600.9119507975676
 20
359.5242877192958
 30
0.0
 11
604.9120507975676
 21
360.3242877192958
 31
0.0
  0
LINE
  5
34EB
330
1A
100
AcDbEntity
  8
SEIHIN
  6
CONTINUOUS
 62
     3
 48
16.0
100
AcDbLine
 10
604.9121507975676
 20
452.7590877192958
 30
0.0
 11
578.9121507975676
 21
452.7590877192958
 31
0.0
  0
LINE
  5
34EC
330
1A
100
AcDbEntity
  8
SEIHIN
  6
CONTINUOUS
 62
     3
 48
16.0
100
AcDbLine
 10
604.9121507975676
 20
467.0704877192958
 30
0.0
 11
579.9120507975676
 21
467.0705877192957
 31
0.0
  0
LINE
  5
34ED
330
1A
100
AcDbEntity
  8
SEIHIN
  6
CONTINUOUS
 62
     3
 48
16.0
100
AcDbLine
 10
604.9121507975676
 20
463.2591877192957
 30
0.0
 11
578.8598507975676
 21
463.2590877192957
 31
0.0
  0
LINE
  5
34EE
330
1A
100
AcDbEntity
  8
SEIHIN
  6
CONTINUOUS
 62
     3
 48
16.0
100
AcDbLine
 10
577.9120507975676
 20
419.0091877192958
 30
0.0
 11
577.9121507975676
 21
468.7939877192958
 31
0.0
  0
LINE
  5
34EF
330
1A
100
AcDbEntity
  8
SEIHIN
  6
CONTINUOUS
 62
     3
 48
16.0
100
AcDbLine
 10
571.9121507975676
 20
419.0091877192958
 30
0.0
 11
571.9121507975676
 21
468.7939877192958
 31
0.0
  0
ARC
  5
34F0
330
1A
100
AcDbEntity
  8
SEIHIN
  6
CONTINUOUS
 62
     3
 48
16.0
100
AcDbCircle
 10
570.9121507975676
 20
453.7591877192958
 30
0.0
 40
1.0
100
AcDbArc
 50
270.0
 51
0.0
  0
ARC
  5
34F1
330
1A
100
AcDbEntity
  8
SEIHIN
  6
CONTINUOUS
 62
     3
 48
16.0
100
AcDbCircle
 10
578.9121507975676
 20
453.7590877192958
 30
0.0
 40
1.0
100
AcDbArc
 50
180.0
 51
270.0
  0
ARC
  5
34F2
330
1A
100
AcDbEntity
  8
SEIHIN
  6
CONTINUOUS
 62
     3
 48
16.0
100
AcDbCircle
 10
574.9120507975676
 20
453.7845877192957
 30
0.0
 40
3.0
100
AcDbArc
 50
180.0
 51
0.0
  0
ARC
  5
34F3
330
1A
100
AcDbEntity
  8
SEIHIN
  6
CONTINUOUS
 62
     3
 48
16.0
100
AcDbCircle
 10
576.9120507975676
 20
473.4941877192958
 30
0.0
 40
3.0
100
AcDbArc
 50
0.0
 51
90.0
  0
ARC
  5
34F4
330
1A
100
AcDbEntity
  8
SEIHIN
  6
CONTINUOUS
 62
     3
 48
16.0
100
AcDbCircle
 10
574.9120507975676
 20
469.7939877192958
 30
0.0
 40
3.0
100
AcDbArc
 50
180.0
 51
0.0
  0
LINE
  5
34F5
330
1A
100
AcDbEntity
  8
SEIHIN
  6
CONTINUOUS
 62
     3
 48
16.0
100
AcDbLine
 10
579.9120507975676
 20
467.0702877192957
 30
0.0
 11
579.9120507975676
 21
473.4941877192958
 31
0.0
  0
ARC
  5
34F6
330
1A
100
AcDbEntity
  8
SEIHIN
  6
CONTINUOUS
 62
     3
 48
16.0
100
AcDbCircle
 10
570.9643507975677
 20
464.2591877192957
 30
0.0
 40
1.000030551566582
100
AcDbArc
 50
270.0
 51
350.7298215213891
  0
ARC
  5
34F7
330
1A
100
AcDbEntity
  8
SEIHIN
  6
CONTINUOUS
 62
     3
 48
16.0
100
AcDbCircle
 10
578.8598507975676
 20
464.2590877192957
 30
0.0
 40
0.9999812046467507
100
AcDbArc
 50
189.2711014919203
 51
270.0
  0
ARC
  5
34F8
330
1A
100
AcDbEntity
  8
SEIHIN
  6
CONTINUOUS
 62
     3
 48
16.0
100
AcDbCircle
 10
574.9120507975676
 20
463.6146877192957
 30
0.0
 40
2.999977867407553
100
AcDbArc
 50
189.2689088689378
 51
350.7292061994285
  0
ARC
  5
34F9
330
1A
100
AcDbEntity
  8
SEIHIN
  6
CONTINUOUS
 62
     3
 48
16.0
100
AcDbCircle
 10
574.9119507975676
 20
469.7939877192958
 30
0.0
 40
3.5
100
AcDbArc
 50
0.0
 51
180.0
  0
ARC
  5
34FA
330
1A
100
AcDbEntity
  8
SEIHIN
  6
CONTINUOUS
 62
     3
 48
16.0
100
AcDbCircle
 10
570.9120507975676
 20
469.7941877192958
 30
0.0
 40
1.0
100
AcDbArc
 50
270.0
 51
0.0
  0
ARC
  5
34FB
330
1A
100
AcDbEntity
  8
SEIHIN
  6
CONTINUOUS
 62
     3
 48
16.0
100
AcDbCircle
 10
570.4119507975677
 20
469.7939877192958
 30
0.0
 40
1.0
100
AcDbArc
 50
270.0
 51
0.0
  0
LINE
  5
34FC
330
1A
100
AcDbEntity
  8
SEIHIN
  6
CONTINUOUS
 62
     3
 48
16.0
100
AcDbLine
 10
578.9120507975676
 20
468.7940877192957
 30
0.0
 11
579.9121507975676
 21
468.7940877192957
 31
0.0
  0
ARC
  5
34FD
330
1A
100
AcDbEntity
  8
SEIHIN
  6
CONTINUOUS
 62
     3
 48
16.0
100
AcDbCircle
 10
574.9120507975676
 20
469.7940877192957
 30
0.0
 40
3.0
100
AcDbArc
 50
0.0
 51
180.0
  0
ARC
  5
34FE
330
1A
100
AcDbEntity
  8
SEIHIN
  6
CONTINUOUS
 62
     3
 48
16.0
100
AcDbCircle
 10
579.4120507975676
 20
469.7939877192958
 30
0.0
 40
1.0
100
AcDbArc
 50
180.0
 51
270.0
  0
ARC
  5
34FF
330
1A
100
AcDbEntity
  8
SEIHIN
  6
CONTINUOUS
 62
     3
 48
16.0
100
AcDbCircle
 10
578.9120507975676
 20
469.7940877192957
 30
0.0
 40
1.0
100
AcDbArc
 50
180.0
 51
270.0
  0
LINE
  5
3500
330
1A
100
AcDbEntity
  8
SEIHIN
  6
CONTINUOUS
 62
     3
 48
16.0
100
AcDbLine
 10
604.9121507975676
 20
419.0091877192958
 30
0.0
 11
604.9121507975676
 21
477.6941877192958
 31
0.0
  0
LINE
  5
3501
330
1A
100
AcDbEntity
  8
SEIHIN
  6
CONTINUOUS
 62
     3
 48
16.0
100
AcDbLine
 10
600.9120507975676
 20
478.4940877192958
 30
0.0
 11
604.9121507975676
 21
477.6941877192958
 31
0.0
  0
VIEWPORT
  5
22
330
17
100
AcDbEntity
 67
     1
  8
0
100
AcDbViewport
 10
313.6808219178082
 20
148.5
 30
0.0
 40
627.3616438356165
 41
297.0
 68
     2
 69
     1
1001
ACAD
1000
MVIEW
1002
{
1070
    16
1010
0.0
1020
0.0
1030
0.0
1010
0.0
1020
0.0
1030
1.0
1040
0.0
1040
297.0
1040
313.6808219178082
1040
148.5
1040
50.0
1040
0.0
1040
0.0
1070
     0
1070
   100
1070
     1
1070
     0
1070
     0
1070
     0
1070
     0
1070
     0
1040
0.0
1040
0.0
1040
0.0
1040
1.0
1040
1.0
1040
10.0
1040
10.0
1070
     0
1002
{
1002
}
1002
}
  0
VIEWPORT
  5
64
330
17
100
AcDbEntity
 67
     1
  8
VIEWPORT
100
AcDbViewport
 10
210.0
 20
148.5
 30
0.0
 40
420.0
 41
297.0
 68
     1
 69
     2
1001
ACAD
1000
MVIEW
1002
{
1070
    16
1010
0.0
1020
0.0
1030
0.0
1010
0.0
1020
0.0
1030
1.0
1040
0.0
1040
605.8799999999998
1040
420.0
1040
297.0
1040
50.0
1040
0.0
1040
0.0
1070
     0
1070
   100
1070
     1
1070
     0
1070
     0
1070
     0
1070
     0
1070
     0
1040
0.0
1040
0.0
1040
0.0
1040
10.0
1040
10.0
1040
0.0
1040
0.0
1070
     0
1002
{
1002
}
1002
}
  0
ENDSEC
  0
SECTION
  2
OBJECTS
  0
DICTIONARY
  5
C
330
0
100
AcDbDictionary
  3
ACAD_GROUP
350
D
  3
ACAD_LAYOUT
350
884
  3
ACAD_MLINESTYLE
350
E
  3
ACAD_PLOTSETTINGS
350
885
  3
ACAD_PLOTSTYLENAME
350
882
  3
ACDBHEADERROUNDTRIPXREC
350
35C6
  0
DICTIONARY
  5
8E1
330
1A
100
AcDbDictionary
280
     1
  3
ACAD_LAYOUTSELFREF
360
35E8
  0
DICTIONARY
  5
8DF
330
17
100
AcDbDictionary
280
     1
  3
ACAD_LAYOUTSELFREF
360
35E7
  0
DICTIONARY
  5
D
102
{ACAD_REACTORS
330
C
102
}
330
C
100
AcDbDictionary
  0
DICTIONARY
  5
884
102
{ACAD_REACTORS
330
C
102
}
330
C
100
AcDbDictionary
  0
DICTIONARY
  5
E
102
{ACAD_REACTORS
330
C
102
}
330
C
100
AcDbDictionary
  3
STANDARD
350
13
  0
DICTIONARY
  5
885
102
{ACAD_REACTORS
330
C
102
}
330
C
100
AcDbDictionary
  0
ACDBDICTIONARYWDFLT
  5
882
102
{ACAD_REACTORS
330
C
102
}
330
C
100
AcDbDictionary
281
     1
  3
Normal
350
883
100
AcDbDictionaryWithDefault
340
883
1001
ACAD
1000
TREAT_AS_HARD
1070
     0
1000
TREAT_AS_HARD
1070
     0
1000
TREAT_AS_HARD
1070
     0
1000
TREAT_AS_HARD
1070
     0
1000
TREAT_AS_HARD
1070
     0
1000
TREAT_AS_HARD
1070
     0
1000
TREAT_AS_HARD
1070
     0
  0
DICTIONARY
  5
35C6
102
{ACAD_REACTORS
330
C
102
}
330
C
100
AcDbDictionary
  3
TSTACKALIGN
350
35C7
  3
TSTACKSIZE
350
35C8
  3
HYPERLINKBASE
350
35C9
  3
STYLESHEET
350
35CA
  3
LAYOUTDICT
350
35CB
  3
PLOTSETDICT
350
35CC
  3
PLOTSTYLNAMDICT
350
35CD
  3
LWETCUNION
350
35CE
  3
INSUNITS
350
35CF
  3
CEPSNTYPE
350
35D0
  3
FINGERPRINTGUID
350
35D1
  3
VERSIONGUID
350
35D2
  3
PSVPSCALE
350
35D3
  3
DIMSTYLEDATA
350
35D4
  3
PUCSORTHOREF
350
35D5
  3
PUCSORTHOVIEW
350
35D6
  3
PUCSBASE
350
35D7
  3
PUCSORGTOP
350
35D8
  3
PUCSORGBOTTOM
350
35D9
  3
PUCSORGLEFT
350
35DA
  3
PUCSORGRIGHT
350
35DB
  3
PUCSORGFRONT
350
35DC
  3
PUCSORGBACK
350
35DD
  3
UCSORTHOREF
350
35DE
  3
UCSORTHOVIEW
350
35DF
  3
UCSBASE
350
35E0
  3
UCSORGTOP
350
35E1
  3
UCSORGBOTTOM
350
35E2
  3
UCSORGLEFT
350
35E3
  3
UCSORGRIGHT
350
35E4
  3
UCSORGFRONT
350
35E5
  3
UCSORGBACK
350
35E6
  0
XRECORD
  5
35E8
102
{ACAD_REACTORS
330
8E1
102
}
330
8E1
100
AcDbXrecord
340
1A
  0
XRECORD
  5
35E7
102
{ACAD_REACTORS
330
8DF
102
}
330
8DF
100
AcDbXrecord
340
17
  0
MLINESTYLE
  5
13
102
{ACAD_REACTORS
330
E
102
}
330
E
100
AcDbMlineStyle
  2
STANDARD
 70
     0
  3

 62
     0
 51
90.0
 52
90.0
 71
     2
 49
0.5
 62
   256
  6
BYLAYER
 49
-0.5
 62
   256
  6
BYLAYER
  0
ACDBPLACEHOLDER
  5
883
102
{ACAD_REACTORS
330
882
102
}
330
882
100
AcDbPlaceHolder
280
     0
  0
XRECORD
  5
35C7
102
{ACAD_REACTORS
330
35C6
102
}
330
35C6
100
AcDbXrecord
 90
        1
  0
XRECORD
  5
35C8
102
{ACAD_REACTORS
330
35C6
102
}
330
35C6
100
AcDbXrecord
 90
       70
  0
XRECORD
  5
35C9
102
{ACAD_REACTORS
330
35C6
102
}
330
35C6
100
AcDbXrecord
  1

  0
XRECORD
  5
35CA
102
{ACAD_REACTORS
330
35C6
102
}
330
35C6
100
AcDbXrecord
  1
systemprinter.ctb
  0
XRECORD
  5
35CB
102
{ACAD_REACTORS
330
35C6
102
}
330
35C6
100
AcDbXrecord
340
884
  0
XRECORD
  5
35CC
102
{ACAD_REACTORS
330
35C6
102
}
330
35C6
100
AcDbXrecord
340
885
  0
XRECORD
  5
35CD
102
{ACAD_REACTORS
330
35C6
102
}
330
35C6
100
AcDbXrecord
340
882
  0
XRECORD
  5
35CE
102
{ACAD_REACTORS
330
35C6
102
}
330
35C6
100
AcDbXrecord
 90
    10781
  0
XRECORD
  5
35CF
102
{ACAD_REACTORS
330
35C6
102
}
330
35C6
100
AcDbXrecord
 90
        0
  0
XRECORD
  5
35D0
102
{ACAD_REACTORS
330
35C6
102
}
330
35C6
100
AcDbXrecord
 90
        0
  0
XRECORD
  5
35D1
102
{ACAD_REACTORS
330
35C6
102
}
330
35C6
100
AcDbXrecord
  1
{8EA77232-D3C6-11D3-932C-444553540000}
  0
XRECORD
  5
35D2
102
{ACAD_REACTORS
330
35C6
102
}
330
35C6
100
AcDbXrecord
  1
{B0A36F5B-98DE-49E1-A9A3-9822C7A71ACE}
  0
XRECORD
  5
35D3
102
{ACAD_REACTORS
330
35C6
102
}
330
35C6
100
AcDbXrecord
 40
0.0
  0
XRECORD
  5
35D4
102
{ACAD_REACTORS
330
35C6
102
}
330
35C6
100
AcDbXrecord
1000
DSTYLE
1002
{
1070
   279
 70
     2
1070
   341
340
6D
1070
   343
340
6D
1070
   344
340
6D
1070
   371
 70
    -1
1070
   372
 70
    -1
1002
}
  0
XRECORD
  5
35D5
102
{ACAD_REACTORS
330
35C6
102
}
330
35C6
100
AcDbXrecord
340
0
  0
XRECORD
  5
35D6
102
{ACAD_REACTORS
330
35C6
102
}
330
35C6
100
AcDbXrecord
 70
     0
  0
XRECORD
  5
35D7
102
{ACAD_REACTORS
330
35C6
102
}
330
35C6
100
AcDbXrecord
340
0
  0
XRECORD
  5
35D8
102
{ACAD_REACTORS
330
35C6
102
}
330
35C6
100
AcDbXrecord
 10
0.0
 20
0.0
 30
0.0
  0
XRECORD
  5
35D9
102
{ACAD_REACTORS
330
35C6
102
}
330
35C6
100
AcDbXrecord
 10
0.0
 20
0.0
 30
0.0
  0
XRECORD
  5
35DA
102
{ACAD_REACTORS
330
35C6
102
}
330
35C6
100
AcDbXrecord
 10
0.0
 20
0.0
 30
0.0
  0
XRECORD
  5
35DB
102
{ACAD_REACTORS
330
35C6
102
}
330
35C6
100
AcDbXrecord
 10
0.0
 20
0.0
 30
0.0
  0
XRECORD
  5
35DC
102
{ACAD_REACTORS
330
35C6
102
}
330
35C6
100
AcDbXrecord
 10
0.0
 20
0.0
 30
0.0
  0
XRECORD
  5
35DD
102
{ACAD_REACTORS
330
35C6
102
}
330
35C6
100
AcDbXrecord
 10
0.0
 20
0.0
 30
0.0
  0
XRECORD
  5
35DE
102
{ACAD_REACTORS
330
35C6
102
}
330
35C6
100
AcDbXrecord
340
0
  0
XRECORD
  5
35DF
102
{ACAD_REACTORS
330
35C6
102
}
330
35C6
100
AcDbXrecord
 70
     0
  0
XRECORD
  5
35E0
102
{ACAD_REACTORS
330
35C6
102
}
330
35C6
100
AcDbXrecord
340
0
  0
XRECORD
  5
35E1
102
{ACAD_REACTORS
330
35C6
102
}
330
35C6
100
AcDbXrecord
 10
0.0
 20
0.0
 30
0.0
  0
XRECORD
  5
35E2
102
{ACAD_REACTORS
330
35C6
102
}
330
35C6
100
AcDbXrecord
 10
0.0
 20
0.0
 30
0.0
  0
XRECORD
  5
35E3
102
{ACAD_REACTORS
330
35C6
102
}
330
35C6
100
AcDbXrecord
 10
0.0
 20
0.0
 30
0.0
  0
XRECORD
  5
35E4
102
{ACAD_REACTORS
330
35C6
102
}
330
35C6
100
AcDbXrecord
 10
0.0
 20
0.0
 30
0.0
  0
XRECORD
  5
35E5
102
{ACAD_REACTORS
330
35C6
102
}
330
35C6
100
AcDbXrecord
 10
0.0
 20
0.0
 30
0.0
  0
XRECORD
  5
35E6
102
{ACAD_REACTORS
330
35C6
102
}
330
35C6
100
AcDbXrecord
 10
0.0
 20
0.0
 30
0.0
  0
ENDSEC
  0
EOF
