  0
SECTION
  2
HEADER
  9
$ACADVER
  1
AC1014
  9
$ACADMAINTVER
 70
     9
  9
$DWGCODEPAGE
  3
ANSI_932
  9
$INSBASE
 10
0.0
 20
0.0
 30
0.0
  9
$EXTMIN
 10
-0.05126640194635
 20
-0.0362526699479986
 30
-0.0000000349181948
  9
$EXTMAX
 10
797.6628945888771
 20
551.6439420217511
 30
0.0000000814935746
  9
$LIMMIN
 10
0.0
 20
0.0
  9
$LIMMAX
 10
840.0
 20
594.0
  9
$ORTHOMODE
 70
     0
  9
$REGENMODE
 70
     1
  9
$FILLMODE
 70
     1
  9
$QTEXTMODE
 70
     0
  9
$MIRRTEXT
 70
     1
  9
$DRAGMODE
 70
     2
  9
$LTSCALE
 40
2.0
  9
$OSMODE
 70
    35
  9
$ATTMODE
 70
     1
  9
$TEXTSIZE
 40
5.0
  9
$TRACEWID
 40
1.0
  9
$TEXTSTYLE
  7
STANDARD
  9
$CLAYER
  8
SEIHIN
  9
$CELTYPE
  6
BYLAYER
  9
$CECOLOR
 62
   256
  9
$CELTSCALE
 40
1.0
  9
$DELOBJ
 70
     1
  9
$DISPSILH
 70
     0
  9
$DIMSCALE
 40
1.0
  9
$DIMASZ
 40
7.0
  9
$DIMEXO
 40
6.0
  9
$DIMDLI
 40
14.0
  9
$DIMRND
 40
0.0
  9
$DIMDLE
 40
0.0
  9
$DIMEXE
 40
3.0
  9
$DIMTP
 40
0.0
  9
$DIMTM
 40
0.0
  9
$DIMTXT
 40
6.0
  9
$DIMCEN
 40
150.0
  9
$DIMTSZ
 40
0.0
  9
$DIMTOL
 70
     0
  9
$DIMLIM
 70
     0
  9
$DIMTIH
 70
     0
  9
$DIMTOH
 70
     0
  9
$DIMSE1
 70
     0
  9
$DIMSE2
 70
     0
  9
$DIMTAD
 70
     3
  9
$DIMZIN
 70
     0
  9
$DIMBLK
  1

  9
$DIMASO
 70
     1
  9
$DIMSHO
 70
     1
  9
$DIMPOST
  1

  9
$DIMAPOST
  1

  9
$DIMALT
 70
     0
  9
$DIMALTD
 70
     2
  9
$DIMALTF
 40
25.4
  9
$DIMLFAC
 40
1.0
  9
$DIMTOFL
 70
     1
  9
$DIMTVP
 40
0.0
  9
$DIMTIX
 70
     0
  9
$DIMSOXD
 70
     0
  9
$DIMSAH
 70
     1
  9
$DIMBLK1
  1
OPEN
  9
$DIMBLK2
  1
OPEN
  9
$DIMSTYLE
  2
STANDARD
  9
$DIMCLRD
 70
   256
  9
$DIMCLRE
 70
   256
  9
$DIMCLRT
 70
   256
  9
$DIMTFAC
 40
1.0
  9
$DIMGAP
 40
2.0
  9
$DIMJUST
 70
     0
  9
$DIMSD1
 70
     0
  9
$DIMSD2
 70
     0
  9
$DIMTOLJ
 70
     1
  9
$DIMTZIN
 70
     0
  9
$DIMALTZ
 70
     0
  9
$DIMALTTZ
 70
     0
  9
$DIMFIT
 70
     3
  9
$DIMUPT
 70
     0
  9
$DIMUNIT
 70
     2
  9
$DIMDEC
 70
     0
  9
$DIMTDEC
 70
     0
  9
$DIMALTU
 70
     2
  9
$DIMALTTD
 70
     2
  9
$DIMTXSTY
  7
STANDARD
  9
$DIMAUNIT
 70
     0
  9
$LUNITS
 70
     2
  9
$LUPREC
 70
     4
  9
$SKETCHINC
 40
1.0
  9
$FILLETRAD
 40
1.0
  9
$AUNITS
 70
     0
  9
$AUPREC
 70
     0
  9
$MENU
  1
.
  9
$ELEVATION
 40
0.0
  9
$PELEVATION
 40
0.0
  9
$THICKNESS
 40
0.0
  9
$LIMCHECK
 70
     0
  9
$BLIPMODE
 70
     0
  9
$CHAMFERA
 40
20.0
  9
$CHAMFERB
 40
20.0
  9
$CHAMFERC
 40
40.0
  9
$CHAMFERD
 40
0.0
  9
$SKPOLY
 70
     0
  9
$TDCREATE
 40
2451199.358868634
  9
$TDUPDATE
 40
2453802.420108865
  9
$TDINDWG
 40
0.0492953588
  9
$TDUSRTIMER
 40
0.0492953588
  9
$USRTIMER
 70
     1
  9
$ANGBASE
 50
0.0
  9
$ANGDIR
 70
     0
  9
$PDMODE
 70
     0
  9
$PDSIZE
 40
0.0
  9
$PLINEWID
 40
0.0
  9
$COORDS
 70
     1
  9
$SPLFRAME
 70
     0
  9
$SPLINETYPE
 70
     6
  9
$SPLINESEGS
 70
     8
  9
$ATTDIA
 70
     0
  9
$ATTREQ
 70
     1
  9
$HANDLING
 70
 10241
  9
$HANDSEED
  5
1065
  9
$SURFTAB1
 70
     6
  9
$SURFTAB2
 70
     6
  9
$SURFTYPE
 70
     6
  9
$SURFU
 70
     6
  9
$SURFV
 70
     6
  9
$UCSNAME
  2

  9
$UCSORG
 10
0.0
 20
0.0
 30
0.0
  9
$UCSXDIR
 10
1.0
 20
0.0
 30
0.0
  9
$UCSYDIR
 10
0.0
 20
1.0
 30
0.0
  9
$PUCSNAME
  2

  9
$PUCSORG
 10
0.0
 20
0.0
 30
0.0
  9
$PUCSXDIR
 10
1.0
 20
0.0
 30
0.0
  9
$PUCSYDIR
 10
0.0
 20
1.0
 30
0.0
  9
$USERI1
 70
     0
  9
$USERI2
 70
     0
  9
$USERI3
 70
     0
  9
$USERI4
 70
     0
  9
$USERI5
 70
     0
  9
$USERR1
 40
0.0
  9
$USERR2
 40
0.0
  9
$USERR3
 40
0.0
  9
$USERR4
 40
0.0
  9
$USERR5
 40
0.0
  9
$WORLDVIEW
 70
     1
  9
$SHADEDGE
 70
     3
  9
$SHADEDIF
 70
    70
  9
$TILEMODE
 70
     1
  9
$MAXACTVP
 70
    16
  9
$PINSBASE
 10
0.0
 20
0.0
 30
0.0
  9
$PLIMCHECK
 70
     0
  9
$PEXTMIN
 10
0.0
 20
0.0
 30
0.0
  9
$PEXTMAX
 10
420.0
 20
297.0
 30
0.0
  9
$PLIMMIN
 10
0.0
 20
0.0
  9
$PLIMMAX
 10
420.0
 20
297.0
  9
$UNITMODE
 70
     0
  9
$VISRETAIN
 70
     0
  9
$PLINEGEN
 70
     0
  9
$PSLTSCALE
 70
     1
  9
$TREEDEPTH
 70
  3020
  9
$PICKSTYLE
 70
     1
  9
$CMLSTYLE
  2
STANDARD
  9
$CMLJUST
 70
     0
  9
$CMLSCALE
 40
1.0
  9
$PROXYGRAPHICS
 70
     1
  9
$MEASUREMENT
 70
     0
  0
ENDSEC
  0
SECTION
  2
CLASSES
  0
CLASS
  1
ACDBDICTIONARYWDFLT
  2
AcDbDictionaryWithDefault
  3
AutoCAD 2000
 90
        0
280
     0
281
     0
  0
CLASS
  1
ACDBPLACEHOLDER
  2
AcDbPlaceHolder
  3
AutoCAD 2000
 90
        0
280
     0
281
     0
  0
CLASS
  1
LAYOUT
  2
AcDbLayout
  3
AutoCAD 2000
 90
        0
280
     0
281
     0
  0
CLASS
  1
LONG_TRANSACTION
  2
AcDbLongTransaction
  3
AutoCAD 2000
 90
        0
280
     0
281
     0
  0
CLASS
  1
LWPOLYLINE
  2
AcDbPolyline
  3
AutoCAD 2000
 90
        0
280
     0
281
     1
  0
CLASS
  1
HATCH
  2
AcDbHatch
  3
AutoCAD 2000
 90
        0
280
     0
281
     1
  0
CLASS
  1
XRECORD
  2
AcDbXrecord
  3
AutoCAD 2000
 90
        0
280
     0
281
     0
  0
CLASS
  1
LONG_TRANSACTION
  2
AcDbLongTransaction
  3
AutoCAD 2000
 90
        0
280
     0
281
     0
  0
CLASS
  1
LWPOLYLINE
  2
AcDbPolyline
  3
AutoCAD 2000
 90
        0
280
     0
281
     1
  0
CLASS
  1
HATCH
  2
AcDbHatch
  3
AutoCAD 2000
 90
        0
280
     0
281
     1
  0
CLASS
  1
XRECORD
  2
AcDbXrecord
  3
AutoCAD 2000
 90
        0
280
     0
281
     0
  0
CLASS
  1
LONG_TRANSACTION
  2
AcDbLongTransaction
  3
AutoCAD 2000
 90
        0
280
     0
281
     0
  0
CLASS
  1
LWPOLYLINE
  2
AcDbPolyline
  3
AutoCAD 2000
 90
        0
280
     0
281
     1
  0
CLASS
  1
HATCH
  2
AcDbHatch
  3
AutoCAD 2000
 90
        0
280
     0
281
     1
  0
CLASS
  1
XRECORD
  2
AcDbXrecord
  3
AutoCAD 2000
 90
        0
280
     0
281
     0
  0
CLASS
  1
LONG_TRANSACTION
  2
AcDbLongTransaction
  3
AutoCAD 2000
 90
        0
280
     0
281
     0
  0
CLASS
  1
LWPOLYLINE
  2
AcDbPolyline
  3
AutoCAD 2000
 90
        0
280
     0
281
     1
  0
CLASS
  1
HATCH
  2
AcDbHatch
  3
AutoCAD 2000
 90
        0
280
     0
281
     1
  0
CLASS
  1
XRECORD
  2
AcDbXrecord
  3
AutoCAD 2000
 90
        0
280
     0
281
     0
  0
CLASS
  1
LONG_TRANSACTION
  2
AcDbLongTransaction
  3
AutoCAD 2000
 90
        0
280
     0
281
     0
  0
CLASS
  1
LWPOLYLINE
  2
AcDbPolyline
  3
AutoCAD 2000
 90
        0
280
     0
281
     1
  0
CLASS
  1
HATCH
  2
AcDbHatch
  3
AutoCAD 2000
 90
        0
280
     0
281
     1
  0
CLASS
  1
XRECORD
  2
AcDbXrecord
  3
AutoCAD 2000
 90
        0
280
     0
281
     0
  0
CLASS
  1
LONG_TRANSACTION
  2
AcDbLongTransaction
  3
AutoCAD 2000
 90
        0
280
     0
281
     0
  0
CLASS
  1
LWPOLYLINE
  2
AcDbPolyline
  3
AutoCAD 2000
 90
        0
280
     0
281
     1
  0
CLASS
  1
HATCH
  2
AcDbHatch
  3
AutoCAD 2000
 90
        0
280
     0
281
     1
  0
CLASS
  1
XRECORD
  2
AcDbXrecord
  3
AutoCAD 2000
 90
        0
280
     0
281
     0
  0
ENDSEC
  0
SECTION
  2
TABLES
  0
TABLE
  2
VPORT
  5
8
330
0
100
AcDbSymbolTable
 70
     2
  0
VPORT
  5
1035
330
8
100
AcDbSymbolTableRecord
100
AcDbViewportTableRecord
  2
*ACTIVE
 70
     0
 10
0.0
 20
0.0
 11
1.0
 21
1.0
 12
423.3878546029338
 22
276.5009442930028
 13
0.0
 23
0.0
 14
5.0
 24
5.0
 15
0.0
 25
0.0
 16
0.0
 26
0.0
 36
1.0
 17
0.0
 27
0.0
 37
0.0
 40
600.7739039030273
 41
1.795454545454545
 42
50.0
 43
0.0
 44
0.0
 50
0.0
 51
0.0
 71
     0
 72
   100
 73
     1
 74
     0
 75
     0
 76
     0
 77
     0
 78
     0
  0
ENDTAB
  0
TABLE
  2
LTYPE
  5
5
330
0
100
AcDbSymbolTable
 70
     3
  0
LTYPE
  5
14
330
5
100
AcDbSymbolTableRecord
100
AcDbLinetypeTableRecord
  2
BYBLOCK
 70
     0
  3

 72
    65
 73
     0
 40
0.0
  0
LTYPE
  5
15
330
5
100
AcDbSymbolTableRecord
100
AcDbLinetypeTableRecord
  2
BYLAYER
 70
     0
  3

 72
    65
 73
     0
 40
0.0
  0
LTYPE
  5
16
330
5
100
AcDbSymbolTableRecord
100
AcDbLinetypeTableRecord
  2
CONTINUOUS
 70
     0
  3
Solid line
 72
    65
 73
     0
 40
0.0
  0
LTYPE
  5
115
330
5
100
AcDbSymbolTableRecord
100
AcDbLinetypeTableRecord
  2
PHANTOM
 70
     0
  3
______  __  __  ______  __  __  ______  __  __ 
 72
    65
 73
     6
 40
2.5
 49
1.25
 74
     0
 49
-0.25
 74
     0
 49
0.25
 74
     0
 49
-0.25
 74
     0
 49
0.25
 74
     0
 49
-0.25
 74
     0
  0
LTYPE
  5
135
330
5
100
AcDbSymbolTableRecord
100
AcDbLinetypeTableRecord
  2
CENTER
 70
     0
  3
____ _ ____ _ ____ _ ____ _ ____ _ ____ _ ____ 
 72
    65
 73
     4
 40
2.0
 49
1.25
 74
     0
 49
-0.25
 74
     0
 49
0.25
 74
     0
 49
-0.25
 74
     0
  0
ENDTAB
  0
TABLE
  2
LAYER
  5
2
330
0
100
AcDbSymbolTable
 70
     8
  0
LAYER
  5
F
330
2
100
AcDbSymbolTableRecord
100
AcDbLayerTableRecord
  2
0
 70
     0
 62
     7
  6
CONTINUOUS
  0
LAYER
  5
65
330
2
100
AcDbSymbolTableRecord
100
AcDbLayerTableRecord
  2
ZUWAKU
 70
     0
 62
     7
  6
CONTINUOUS
  0
LAYER
  5
143
330
2
100
AcDbSymbolTableRecord
100
AcDbLayerTableRecord
  2
SEIHIN
 70
     0
 62
     3
  6
CONTINUOUS
  0
LAYER
  5
144
330
2
100
AcDbSymbolTableRecord
100
AcDbLayerTableRecord
  2
SUNPOU
 70
     0
 62
     4
  6
CONTINUOUS
  0
LAYER
  5
145
330
2
100
AcDbSymbolTableRecord
100
AcDbLayerTableRecord
  2
CENTER_L
 70
     0
 62
     1
  6
CENTER
  0
LAYER
  5
146
330
2
100
AcDbSymbolTableRecord
100
AcDbLayerTableRecord
  2
NOKITOI
 70
     0
 62
     8
  6
PHANTOM
  0
LAYER
  5
405
330
2
100
AcDbSymbolTableRecord
100
AcDbLayerTableRecord
  2
DEFPOINTS
 70
     0
 62
     7
  6
CONTINUOUS
  0
LAYER
  5
E7C
330
2
100
AcDbSymbolTableRecord
100
AcDbLayerTableRecord
  2
MOJI
 70
     0
 62
     2
  6
CONTINUOUS
  0
ENDTAB
  0
TABLE
  2
STYLE
  5
3
330
0
100
AcDbSymbolTable
 70
     2
  0
STYLE
  5
10
330
3
100
AcDbSymbolTableRecord
100
AcDbTextStyleTableRecord
  2
STANDARD
 70
     0
 40
0.0
 41
1.0
 50
0.0
 71
     0
 42
5.0
  3
TXT
  4
bigfont.shx
  0
STYLE
  5
E7D
330
3
100
AcDbSymbolTableRecord
100
AcDbTextStyleTableRecord
  2
ｽﾀｲﾙ1
 70
     0
 40
0.0
 41
1.0
 50
0.0
 71
     0
 42
2.5
  3
MS PGothic.ttf
  4

1001
ACAD
1000
MS PGothic
1071
    32818
  0
ENDTAB
  0
TABLE
  2
VIEW
  5
6
330
0
100
AcDbSymbolTable
 70
     0
  0
ENDTAB
  0
TABLE
  2
UCS
  5
7
330
0
100
AcDbSymbolTable
 70
     0
  0
ENDTAB
  0
TABLE
  2
APPID
  5
9
330
0
100
AcDbSymbolTable
 70
     2
  0
APPID
  5
11
330
9
100
AcDbSymbolTableRecord
100
AcDbRegAppTableRecord
  2
ACAD
 70
     0
  0
APPID
  5
DFA
330
9
100
AcDbSymbolTableRecord
100
AcDbRegAppTableRecord
  2
_APP0
 70
     0
  0
ENDTAB
  0
TABLE
  2
DIMSTYLE
  5
A
330
0
100
AcDbSymbolTable
 70
     1
  0
DIMSTYLE
105
1D
102
{ACAD_REACTORS
330
B49
330
C12
330
B1C
330
B1B
330
B2F
330
B55
330
B2E
102
}
330
A
100
AcDbSymbolTableRecord
100
AcDbDimStyleTableRecord
  2
STANDARD
 70
     0
  3

  4

  5

  6

  7

 40
1.0
 41
0.18
 42
0.0625
 43
0.38
 44
0.18
 45
0.0
 46
0.0
 47
0.0
 48
0.0
140
0.18
141
0.09
142
0.0
143
25.4
144
1.0
145
0.0
146
1.0
147
0.09
 71
     0
 72
     0
 73
     1
 74
     1
 75
     0
 76
     0
 77
     0
 78
     0
170
     0
171
     2
172
     0
173
     0
174
     0
175
     0
176
     0
177
     0
178
     0
270
     2
271
     4
272
     4
273
     2
274
     2
340
10
275
     0
280
     0
281
     0
282
     0
283
     1
284
     0
285
     0
286
     0
287
     3
288
     0
  0
ENDTAB
  0
TABLE
  2
BLOCK_RECORD
  5
1
330
0
100
AcDbSymbolTable
 70
     8
  0
BLOCK_RECORD
  5
1A
102
{ACAD_XDICTIONARY
360
544
102
}
330
1
100
AcDbSymbolTableRecord
100
AcDbBlockTableRecord
  2
*MODEL_SPACE
  0
BLOCK_RECORD
  5
17
102
{ACAD_XDICTIONARY
360
542
102
}
330
1
100
AcDbSymbolTableRecord
100
AcDbBlockTableRecord
  2
*PAPER_SPACE
  0
BLOCK_RECORD
  5
6D
330
1
100
AcDbSymbolTableRecord
100
AcDbBlockTableRecord
  2
_OPEN
  0
BLOCK_RECORD
  5
C30
330
1
100
AcDbSymbolTableRecord
100
AcDbBlockTableRecord
  2
*D1
  0
BLOCK_RECORD
  5
C3C
330
1
100
AcDbSymbolTableRecord
100
AcDbBlockTableRecord
  2
*D2
  0
BLOCK_RECORD
  5
C48
330
1
100
AcDbSymbolTableRecord
100
AcDbBlockTableRecord
  2
*D3
  0
BLOCK_RECORD
  5
C54
330
1
100
AcDbSymbolTableRecord
100
AcDbBlockTableRecord
  2
*D4
  0
BLOCK_RECORD
  5
C63
330
1
100
AcDbSymbolTableRecord
100
AcDbBlockTableRecord
  2
*D5
  0
BLOCK_RECORD
  5
C6F
330
1
100
AcDbSymbolTableRecord
100
AcDbBlockTableRecord
  2
*D6
  0
BLOCK_RECORD
  5
C7B
330
1
100
AcDbSymbolTableRecord
100
AcDbBlockTableRecord
  2
*D7
  0
ENDTAB
  0
ENDSEC
  0
SECTION
  2
BLOCKS
  0
BLOCK
  5
1B
330
1A
100
AcDbEntity
  8
0
100
AcDbBlockBegin
  2
*MODEL_SPACE
 70
     0
 10
0.0
 20
0.0
 30
0.0
  3
*MODEL_SPACE
  1

  0
ENDBLK
  5
1C
330
1A
100
AcDbEntity
  8
0
100
AcDbBlockEnd
  0
BLOCK
  5
18
330
17
100
AcDbEntity
 67
     1
  8
0
100
AcDbBlockBegin
  2
*PAPER_SPACE
 70
     0
 10
0.0
 20
0.0
 30
0.0
  3
*PAPER_SPACE
  1

  0
ENDBLK
  5
19
330
17
100
AcDbEntity
 67
     1
  8
0
100
AcDbBlockEnd
  0
BLOCK
  5
6E
330
6D
100
AcDbEntity
  8
0
100
AcDbBlockBegin
  2
_OPEN
 70
     0
 10
0.0
 20
0.0
 30
0.0
  3
_OPEN
  1

  0
LINE
  5
6F
330
6D
100
AcDbEntity
  8
0
  6
BYBLOCK
 62
     0
100
AcDbLine
 10
-1.0
 20
0.1666666666666666
 30
0.0
 11
0.0
 21
0.0
 31
0.0
  0
LINE
  5
70
330
6D
100
AcDbEntity
  8
0
  6
BYBLOCK
 62
     0
100
AcDbLine
 10
0.0
 20
0.0
 30
0.0
 11
-1.0
 21
-0.1666666666666666
 31
0.0
  0
LINE
  5
71
330
6D
100
AcDbEntity
  8
0
  6
BYBLOCK
 62
     0
100
AcDbLine
 10
0.0
 20
0.0
 30
0.0
 11
-1.0
 21
0.0
 31
0.0
  0
ENDBLK
  5
72
330
6D
100
AcDbEntity
  8
0
100
AcDbBlockEnd
  0
BLOCK
  5
C3A
330
C30
100
AcDbEntity
  8
0
100
AcDbBlockBegin
  2
*D1
 70
     1
 10
0.0
 20
0.0
 30
0.0
  3
*D1
  1

  0
LINE
  5
FFF
330
C30
100
AcDbEntity
  8
SUNPOU
 62
     4
100
AcDbLine
 10
344.102233299673
 20
177.4223072041901
 30
0.0
 11
384.1967368608837
 21
177.4223072041901
 31
0.0
  0
LINE
  5
1000
330
C30
100
AcDbEntity
  8
SUNPOU
 62
     4
100
AcDbLine
 10
339.102233299673
 20
118.9220072041901
 30
0.0
 11
384.1967368608836
 21
118.9220072041901
 31
0.0
  0
LINE
  5
1001
330
C30
100
AcDbEntity
  8
SUNPOU
 62
     4
100
AcDbLine
 10
381.1967368608837
 20
170.4223072041901
 30
0.0
 11
381.1967368608836
 21
125.9220072041901
 31
0.0
  0
INSERT
  5
1002
330
C30
100
AcDbEntity
  8
SUNPOU
 62
     4
100
AcDbBlockReference
  2
_OPEN
 10
381.1967368608837
 20
177.4223072041901
 30
0.0
 41
7.0
 42
7.0
 43
7.0
 50
90.0
  0
INSERT
  5
1003
330
C30
100
AcDbEntity
  8
SUNPOU
 62
     4
100
AcDbBlockReference
  2
_OPEN
 10
381.1967368608836
 20
118.9220072041901
 30
0.0
 41
7.0
 42
7.0
 43
7.0
 50
270.0
  0
MTEXT
  5
1004
330
C30
100
AcDbEntity
  8
SUNPOU
 62
     4
100
AcDbMText
 10
376.1967368608836
 20
148.1721572041901
 30
0.0
 40
6.0
 41
0.0
 71
     5
 72
     1
  1
\A1;59
 11
0.0000000000000001
 21
1.0
 31
0.0
1001
ACAD
1000
MTEXTBEGIN
1070
    73
1070
     1
1070
    44
1040
1.0
1070
    74
1070
     0
1000
MTEXTEND
  0
POINT
  5
1005
330
C30
100
AcDbEntity
  8
DEFPOINTS
 62
     0
100
AcDbPoint
 10
338.102233299673
 20
177.4223072041901
 30
0.0
  0
POINT
  5
1006
330
C30
100
AcDbEntity
  8
DEFPOINTS
 62
     0
100
AcDbPoint
 10
333.102233299673
 20
118.9220072041901
 30
0.0
  0
POINT
  5
1007
330
C30
100
AcDbEntity
  8
DEFPOINTS
 62
     0
100
AcDbPoint
 10
381.1967368608836
 20
118.9220072041901
 30
0.0
  0
ENDBLK
  5
C3B
330
C30
100
AcDbEntity
  8
0
100
AcDbBlockEnd
  0
BLOCK
  5
C46
330
C3C
100
AcDbEntity
  8
0
100
AcDbBlockBegin
  2
*D2
 70
     1
 10
0.0
 20
0.0
 30
0.0
  3
*D2
  1

  0
LINE
  5
1026
330
C3C
100
AcDbEntity
  8
SUNPOU
 62
     4
100
AcDbLine
 10
585.0230526814921
 20
363.6938290198948
 30
0.0
 11
625.4249306311416
 21
363.6938290198948
 31
0.0
  0
LINE
  5
1027
330
C3C
100
AcDbEntity
  8
SUNPOU
 62
     4
100
AcDbLine
 10
584.4230498580079
 20
328.5226425286957
 30
0.0
 11
625.4249306311416
 21
328.5226425286957
 31
0.0
  0
LINE
  5
1028
330
C3C
100
AcDbEntity
  8
SUNPOU
 62
     4
100
AcDbLine
 10
622.4249306311417
 20
356.6938290198947
 30
0.0
 11
622.4249306311417
 21
335.5226425286957
 31
0.0
  0
INSERT
  5
1029
330
C3C
100
AcDbEntity
  8
SUNPOU
 62
     4
100
AcDbBlockReference
  2
_OPEN
 10
622.4249306311417
 20
363.6938290198948
 30
0.0
 41
7.0
 42
7.0
 43
7.0
 50
90.0
  0
INSERT
  5
102A
330
C3C
100
AcDbEntity
  8
SUNPOU
 62
     4
100
AcDbBlockReference
  2
_OPEN
 10
622.4249306311417
 20
328.5226425286957
 30
0.0
 41
7.0
 42
7.0
 43
7.0
 50
270.0
  0
MTEXT
  5
102B
330
C3C
100
AcDbEntity
  8
SUNPOU
 62
     4
100
AcDbMText
 10
617.4249306311415
 20
346.1082357742953
 30
0.0
 40
6.0
 41
0.0
 71
     5
 72
     1
  1
\A1;\U+203B35
 11
0.0000000000000001
 21
1.0
 31
0.0
1001
ACAD
1000
MTEXTBEGIN
1070
    73
1070
     1
1070
    44
1040
1.0
1070
    74
1070
     0
1000
MTEXTEND
  0
POINT
  5
102C
330
C3C
100
AcDbEntity
  8
DEFPOINTS
 62
     0
100
AcDbPoint
 10
579.0230526814921
 20
363.6938290198948
 30
0.0
  0
POINT
  5
102D
330
C3C
100
AcDbEntity
  8
DEFPOINTS
 62
     0
100
AcDbPoint
 10
578.4230498580079
 20
328.5226425286957
 30
0.0
  0
POINT
  5
102E
330
C3C
100
AcDbEntity
  8
DEFPOINTS
 62
     0
100
AcDbPoint
 10
622.4249306311417
 20
328.5226425286957
 30
0.0
  0
ENDBLK
  5
C47
330
C3C
100
AcDbEntity
  8
0
100
AcDbBlockEnd
  0
BLOCK
  5
C52
330
C48
100
AcDbEntity
  8
0
100
AcDbBlockBegin
  2
*D3
 70
     1
 10
0.0
 20
0.0
 30
0.0
  3
*D3
  1

  0
LINE
  5
FF6
330
C48
100
AcDbEntity
  8
SUNPOU
 62
     4
100
AcDbLine
 10
449.0002498580079
 20
415.0651213604643
 30
0.0
 11
414.0671157123475
 21
415.0651213604643
 31
0.0
  0
LINE
  5
FF7
330
C48
100
AcDbEntity
  8
SUNPOU
 62
     4
100
AcDbLine
 10
449.600249858008
 20
328.5226425286957
 30
0.0
 11
414.0671157123474
 21
328.5226425286957
 31
0.0
  0
LINE
  5
FF8
330
C48
100
AcDbEntity
  8
SUNPOU
 62
     4
100
AcDbLine
 10
417.0671157123475
 20
408.0651213604642
 30
0.0
 11
417.0671157123474
 21
335.5226425286957
 31
0.0
  0
INSERT
  5
FF9
330
C48
100
AcDbEntity
  8
SUNPOU
 62
     4
100
AcDbBlockReference
  2
_OPEN
 10
417.0671157123475
 20
415.0651213604643
 30
0.0
 41
7.0
 42
7.0
 43
7.0
 50
90.0
  0
INSERT
  5
FFA
330
C48
100
AcDbEntity
  8
SUNPOU
 62
     4
100
AcDbBlockReference
  2
_OPEN
 10
417.0671157123474
 20
328.5226425286957
 30
0.0
 41
7.0
 42
7.0
 43
7.0
 50
270.0
  0
MTEXT
  5
FFB
330
C48
100
AcDbEntity
  8
SUNPOU
 62
     4
100
AcDbMText
 10
412.0671157123473
 20
371.7938819445801
 30
0.0
 40
6.0
 41
0.0
 71
     5
 72
     1
  1
\A1;87
 11
0.0000000000000001
 21
1.0
 31
0.0
1001
ACAD
1000
MTEXTBEGIN
1070
    73
1070
     1
1070
    44
1040
1.0
1070
    74
1070
     0
1000
MTEXTEND
  0
POINT
  5
FFC
330
C48
100
AcDbEntity
  8
DEFPOINTS
 62
     0
100
AcDbPoint
 10
455.0002498580079
 20
415.0651213604643
 30
0.0
  0
POINT
  5
FFD
330
C48
100
AcDbEntity
  8
DEFPOINTS
 62
     0
100
AcDbPoint
 10
455.6002498580079
 20
328.5226425286957
 30
0.0
  0
POINT
  5
FFE
330
C48
100
AcDbEntity
  8
DEFPOINTS
 62
     0
100
AcDbPoint
 10
417.0671157123474
 20
328.5226425286957
 30
0.0
  0
ENDBLK
  5
C53
330
C48
100
AcDbEntity
  8
0
100
AcDbBlockEnd
  0
BLOCK
  5
C61
330
C54
100
AcDbEntity
  8
0
100
AcDbBlockBegin
  2
*D4
 70
     1
 10
0.0
 20
0.0
 30
0.0
  3
*D4
  1

  0
LINE
  5
1059
330
C54
100
AcDbEntity
  8
SUNPOU
 62
     4
100
AcDbLine
 10
517.0617584666993
 20
395.3591432449266
 30
0.0
 11
517.0618204156121
 21
439.767655004428
 31
0.0
  0
ARC
  5
105A
330
C54
100
AcDbEntity
  8
SUNPOU
 62
     4
100
AcDbCircle
 10
517.0617500968291
 20
389.3591432449325
 30
0.0
 40
47.40851175954467
100
AcDbArc
 50
28.06471366415998
 51
36.5323003155504
  0
ARC
  5
105B
330
C54
100
AcDbEntity
  8
SUNPOU
 62
     4
100
AcDbCircle
 10
517.0617500968291
 20
389.3591432449325
 30
0.0
 40
47.40851175954467
100
AcDbArc
 50
98.46750672501814
 51
106.9350933764085
  0
ARC
  5
105C
330
C54
100
AcDbEntity
  8
SUNPOU
 62
     4
100
AcDbCircle
 10
517.0617500968291
 20
389.3591432449325
 30
0.0
 40
47.40851175954467
100
AcDbArc
 50
44.99988696694081
 51
89.9999200736277
  0
INSERT
  5
105D
330
C54
100
AcDbEntity
  8
SUNPOU
 62
     4
100
AcDbBlockReference
  2
_OPEN
 10
550.5846963818062
 20
422.8819572620974
 30
0.0
 41
7.0
 42
7.0
 43
7.0
 50
130.7660936412455
  0
INSERT
  5
105E
330
C54
100
AcDbEntity
  8
SUNPOU
 62
     4
100
AcDbBlockReference
  2
_OPEN
 10
517.0618162306769
 20
436.7676550044309
 30
0.0
 41
7.0
 42
7.0
 43
7.0
 50
4.233713399322918
  0
MTEXT
  5
105F
330
C54
100
AcDbEntity
  8
SUNPOU
 62
     4
100
AcDbMText
 10
537.1177007945513
 20
437.7782608170328
 30
0.0
 40
6.0
 41
0.0
 71
     5
 72
     1
  1
\A1;45°
 11
0.9238788881136688
 21
-0.3826849880748536
 31
0.0
  0
POINT
  5
1060
330
C54
100
AcDbEntity
  8
DEFPOINTS
 62
     0
100
AcDbPoint
 10
540.7660790658695
 20
430.4160765861161
 30
0.0
  0
POINT
  5
1061
330
C54
100
AcDbEntity
  8
DEFPOINTS
 62
     0
100
AcDbPoint
 10
567.8722498580079
 20
440.1694425286957
 30
0.0
  0
POINT
  5
1062
330
C54
100
AcDbEntity
  8
DEFPOINTS
 62
     0
100
AcDbPoint
 10
517.061649858008
 20
317.5022425286957
 30
0.0
  0
POINT
  5
1063
330
C54
100
AcDbEntity
  8
DEFPOINTS
 62
     0
100
AcDbPoint
 10
517.0617498580079
 20
389.1879425286957
 30
0.0
  0
POINT
  5
1064
330
C54
100
AcDbEntity
  8
DEFPOINTS
 62
     0
100
AcDbPoint
 10
517.182749858008
 20
389.4801425286957
 30
0.0
  0
ENDBLK
  5
C62
330
C54
100
AcDbEntity
  8
0
100
AcDbBlockEnd
  0
BLOCK
  5
C6D
330
C63
100
AcDbEntity
  8
0
100
AcDbBlockBegin
  2
*D5
 70
     1
 10
0.0
 20
0.0
 30
0.0
  3
*D5
  1

  0
LINE
  5
FED
330
C63
100
AcDbEntity
  8
SUNPOU
 62
     4
100
AcDbLine
 10
452.062149858008
 20
177.4223072041901
 30
0.0
 11
416.3922847546614
 21
177.4223072041901
 31
0.0
  0
LINE
  5
FEE
330
C63
100
AcDbEntity
  8
SUNPOU
 62
     4
100
AcDbLine
 10
502.7699498580079
 20
118.9223080589227
 30
0.0
 11
416.3922847546614
 21
118.9223080589228
 31
0.0
  0
LINE
  5
FEF
330
C63
100
AcDbEntity
  8
SUNPOU
 62
     4
100
AcDbLine
 10
419.3922847546614
 20
170.4223072041901
 30
0.0
 11
419.3922847546614
 21
125.9223080589228
 31
0.0
  0
INSERT
  5
FF0
330
C63
100
AcDbEntity
  8
SUNPOU
 62
     4
100
AcDbBlockReference
  2
_OPEN
 10
419.3922847546614
 20
177.4223072041901
 30
0.0
 41
7.0
 42
7.0
 43
7.0
 50
90.0
  0
INSERT
  5
FF1
330
C63
100
AcDbEntity
  8
SUNPOU
 62
     4
100
AcDbBlockReference
  2
_OPEN
 10
419.3922847546614
 20
118.9223080589228
 30
0.0
 41
7.0
 42
7.0
 43
7.0
 50
270.0
  0
MTEXT
  5
FF2
330
C63
100
AcDbEntity
  8
SUNPOU
 62
     4
100
AcDbMText
 10
414.3922847546614
 20
148.1723076315565
 30
0.0
 40
6.0
 41
0.0
 71
     5
 72
     1
  1
\A1;58
 11
0.0000000000000001
 21
1.0
 31
0.0
1001
ACAD
1000
MTEXTBEGIN
1070
    73
1070
     1
1070
    44
1040
1.0
1070
    74
1070
     0
1000
MTEXTEND
  0
POINT
  5
FF3
330
C63
100
AcDbEntity
  8
DEFPOINTS
 62
     0
100
AcDbPoint
 10
458.062149858008
 20
177.4223072041901
 30
0.0
  0
POINT
  5
FF4
330
C63
100
AcDbEntity
  8
DEFPOINTS
 62
     0
100
AcDbPoint
 10
508.769949858008
 20
118.9223080589227
 30
0.0
  0
POINT
  5
FF5
330
C63
100
AcDbEntity
  8
DEFPOINTS
 62
     0
100
AcDbPoint
 10
419.3922847546614
 20
118.9223080589228
 30
0.0
  0
ENDBLK
  5
C6E
330
C63
100
AcDbEntity
  8
0
100
AcDbBlockEnd
  0
BLOCK
  5
C79
330
C6F
100
AcDbEntity
  8
0
100
AcDbBlockBegin
  2
*D6
 70
     1
 10
0.0
 20
0.0
 30
0.0
  3
*D6
  1

  0
LINE
  5
1011
330
C6F
100
AcDbEntity
  8
SUNPOU
 62
     4
100
AcDbLine
 10
451.061649858008
 20
177.4223072041901
 30
0.0
 11
431.6133410980496
 21
177.4223072041901
 31
0.0
  0
LINE
  5
1012
330
C6F
100
AcDbEntity
  8
SUNPOU
 62
     4
100
AcDbLine
 10
451.0766498580079
 20
156.9222544832085
 30
0.0
 11
431.6133410980496
 21
156.9222544832085
 31
0.0
  0
LINE
  5
1013
330
C6F
100
AcDbEntity
  8
SUNPOU
 62
     4
100
AcDbLine
 10
434.6133410980496
 20
170.4223072041901
 30
0.0
 11
434.6133410980496
 21
163.9222544832085
 31
0.0
  0
INSERT
  5
1014
330
C6F
100
AcDbEntity
  8
SUNPOU
 62
     4
100
AcDbBlockReference
  2
_OPEN
 10
434.6133410980496
 20
177.4223072041901
 30
0.0
 41
7.0
 42
7.0
 43
7.0
 50
90.0
  0
INSERT
  5
1015
330
C6F
100
AcDbEntity
  8
SUNPOU
 62
     4
100
AcDbBlockReference
  2
_OPEN
 10
434.6133410980496
 20
156.9222544832085
 30
0.0
 41
7.0
 42
7.0
 43
7.0
 50
270.0
  0
MTEXT
  5
1016
330
C6F
100
AcDbEntity
  8
SUNPOU
 62
     4
100
AcDbMText
 10
429.6133410980496
 20
167.1722808436994
 30
0.0
 40
6.0
 41
0.0
 71
     5
 72
     1
  1
\A1;21
 11
0.0000000000000001
 21
1.0
 31
0.0
1001
ACAD
1000
MTEXTBEGIN
1070
    73
1070
     1
1070
    44
1040
1.0
1070
    74
1070
     0
1000
MTEXTEND
  0
POINT
  5
1017
330
C6F
100
AcDbEntity
  8
DEFPOINTS
 62
     0
100
AcDbPoint
 10
457.0616498580079
 20
177.4223072041901
 30
0.0
  0
POINT
  5
1018
330
C6F
100
AcDbEntity
  8
DEFPOINTS
 62
     0
100
AcDbPoint
 10
457.0766498580079
 20
156.9222544832085
 30
0.0
  0
POINT
  5
1019
330
C6F
100
AcDbEntity
  8
DEFPOINTS
 62
     0
100
AcDbPoint
 10
434.6133410980496
 20
156.9222544832085
 30
0.0
  0
ENDBLK
  5
C7A
330
C6F
100
AcDbEntity
  8
0
100
AcDbBlockEnd
  0
BLOCK
  5
C85
330
C7B
100
AcDbEntity
  8
0
100
AcDbBlockBegin
  2
*D7
 70
     1
 10
0.0
 20
0.0
 30
0.0
  3
*D7
  1

  0
LINE
  5
1008
330
C7B
100
AcDbEntity
  8
SUNPOU
 62
     4
100
AcDbLine
 10
455.0616407127406
 20
181.4222980589228
 30
0.0
 11
455.0616407127406
 21
224.3198715758262
 31
0.0
  0
LINE
  5
1009
330
C7B
100
AcDbEntity
  8
SUNPOU
 62
     4
100
AcDbLine
 10
578.9613590032752
 20
181.4222980589228
 30
0.0
 11
578.9613590032752
 21
224.3198715758262
 31
0.0
  0
LINE
  5
100A
330
C7B
100
AcDbEntity
  8
SUNPOU
 62
     4
100
AcDbLine
 10
462.0616407127406
 20
221.3198715758262
 30
0.0
 11
571.9613590032752
 21
221.3198715758262
 31
0.0
  0
INSERT
  5
100B
330
C7B
100
AcDbEntity
  8
SUNPOU
 62
     4
100
AcDbBlockReference
  2
_OPEN
 10
455.0616407127406
 20
221.3198715758262
 30
0.0
 41
7.0
 42
7.0
 43
7.0
 50
180.0
  0
INSERT
  5
100C
330
C7B
100
AcDbEntity
  8
SUNPOU
 62
     4
100
AcDbBlockReference
  2
_OPEN
 10
578.9613590032752
 20
221.3198715758262
 30
0.0
 41
7.0
 42
7.0
 43
7.0
  0
MTEXT
  5
100D
330
C7B
100
AcDbEntity
  8
SUNPOU
 62
     4
100
AcDbMText
 10
517.0114998580079
 20
226.3198715758262
 30
0.0
 40
6.0
 41
0.0
 71
     5
 72
     1
  1
\A1;124
1001
ACAD
1000
MTEXTBEGIN
1070
    73
1070
     1
1070
    44
1040
1.0
1070
    74
1070
     0
1000
MTEXTEND
  0
POINT
  5
100E
330
C7B
100
AcDbEntity
  8
DEFPOINTS
 62
     0
100
AcDbPoint
 10
455.0616407127406
 20
175.4222980589228
 30
0.0
  0
POINT
  5
100F
330
C7B
100
AcDbEntity
  8
DEFPOINTS
 62
     0
100
AcDbPoint
 10
578.9613590032752
 20
175.4222980589228
 30
0.0
  0
POINT
  5
1010
330
C7B
100
AcDbEntity
  8
DEFPOINTS
 62
     0
100
AcDbPoint
 10
578.9613590032752
 20
221.3198715758262
 30
0.0
  0
ENDBLK
  5
C86
330
C7B
100
AcDbEntity
  8
0
100
AcDbBlockEnd
  0
ENDSEC
  0
SECTION
  2
ENTITIES
  0
TEXT
  5
4B9
330
1A
100
AcDbEntity
  8
SUNPOU
 62
     4
100
AcDbText
 10
614.7839824220163
 20
51.70968633928636
 30
0.0
 40
8.0
  1
※　のきといの差込み寸法を示す
100
AcDbText
  0
LINE
  5
B1A
330
1A
100
AcDbEntity
  8
CENTER_L
 48
5.0
100
AcDbLine
 10
442.0654023292133
 20
420.4228444456949
 30
0.0
 11
591.9573759919395
 21
358.3363230703306
 31
0.0
  0
DIMENSION
  5
B1B
330
1A
100
AcDbEntity
  8
SUNPOU
100
AcDbDimension
  2
*D4
 10
517.182749858008
 20
389.4801425286957
 30
0.0
 11
537.1177007945513
 21
437.7782608170329
 31
0.0
 70
    34
  3
STANDARD
100
AcDb2LineAngularDimension
 13
517.061649858008
 23
317.5022425286957
 33
0.0
 14
517.0617498580079
 24
389.1879425286957
 34
0.0
 15
567.8722498580079
 25
440.1694425286957
 35
0.0
 16
540.7660790658695
 26
430.4160765861161
 36
0.0
1001
ACAD
1000
DSTYLE
1002
{
1070
   271
1070
     0
1070
   271
1070
     0
1070
   271
1070
     0
1070
   271
1070
     0
1070
   271
1070
     0
1070
    41
1040
7.0
1070
    42
1040
6.0
1070
    43
1040
14.0
1070
    44
1040
3.0
1070
    73
1070
     0
1070
    74
1070
     0
1070
    77
1070
     3
1070
   140
1040
6.0
1070
   141
1040
150.0
1070
   147
1040
2.0
1070
   172
1070
     1
1070
   173
1070
     1
1070
   176
1070
     4
1070
   177
1070
     4
1070
   178
1070
     4
1070
   271
1070
     0
1070
   272
1070
     2
1070
   341
1005
6D
1070
     6
1000
OPEN
1070
     7
1000
OPEN
1002
}
  0
DIMENSION
  5
B1C
330
1A
100
AcDbEntity
  8
SUNPOU
100
AcDbDimension
  2
*D3
 10
417.0671157123474
 20
328.5226425286957
 30
0.0
 11
412.0671157123473
 21
371.7938819445801
 31
0.0
 70
    32
  3
STANDARD
100
AcDbAlignedDimension
 13
455.0002498580079
 23
415.0651213604643
 33
0.0
 14
455.6002498580079
 24
328.5226425286957
 34
0.0
 50
90.0
100
AcDbRotatedDimension
1001
ACAD
1000
DSTYLE
1002
{
1070
    41
1040
7.0
1070
    42
1040
6.0
1070
    43
1040
14.0
1070
    44
1040
3.0
1070
    73
1070
     0
1070
    74
1070
     0
1070
    77
1070
     3
1070
   140
1040
6.0
1070
   141
1040
150.0
1070
   147
1040
2.0
1070
   172
1070
     1
1070
   173
1070
     1
1070
   176
1070
     4
1070
   177
1070
     4
1070
   178
1070
     4
1070
   271
1070
     0
1070
   272
1070
     2
1070
   341
1005
6D
1070
     6
1000
OPEN
1070
     7
1000
OPEN
1002
}
  0
LINE
  5
B1D
330
1A
100
AcDbEntity
  8
SUNPOU
  6
PHANTOM
 48
5.0
100
AcDbLine
 10
492.8617108057091
 20
450.0975034763968
 30
0.0
 11
577.7675921486361
 21
365.1913288441781
 31
0.0
  0
LINE
  5
B1E
330
1A
100
AcDbEntity
  8
CENTER_L
 48
5.0
100
AcDbLine
 10
517.061649858008
 20
317.5022425286957
 30
0.0
 11
517.0617498580079
 21
389.1879425286957
 31
0.0
  0
LINE
  5
B1F
330
1A
100
AcDbEntity
  8
SEIHIN
100
AcDbLine
 10
596.203549858008
 20
396.2527425286957
 30
0.0
 11
578.526049858008
 21
378.5749425286957
 31
0.0
  0
LINE
  5
B20
330
1A
100
AcDbEntity
  8
SEIHIN
100
AcDbLine
 10
596.071149858008
 20
396.3853425286957
 30
0.0
 11
569.133049858008
 21
369.4472425286957
 31
0.0
  0
LINE
  5
B21
330
1A
100
AcDbEntity
  8
SEIHIN
100
AcDbLine
 10
600.3573498580079
 20
385.0280425286957
 30
0.0
 11
579.6087498580079
 21
364.2795425286957
 31
0.0
  0
LINE
  5
B22
330
1A
100
AcDbEntity
  8
SEIHIN
100
AcDbLine
 10
457.0011498580079
 20
355.5226425286957
 30
0.0
 11
457.0011498580079
 21
413.8228425286957
 31
0.0
  0
LINE
  5
B23
330
1A
100
AcDbEntity
  8
SEIHIN
100
AcDbLine
 10
466.0617498580079
 20
353.5226425286957
 30
0.0
 11
466.0617498580079
 21
410.0698425286957
 31
0.0
  0
LINE
  5
B24
330
1A
100
AcDbEntity
  8
SEIHIN
100
AcDbLine
 10
455.0002498580079
 20
333.5228425286957
 30
0.0
 11
455.0002498580079
 21
414.6506175286957
 31
0.0
  0
LINE
  5
B25
330
1A
100
AcDbEntity
  8
SEIHIN
100
AcDbLine
 10
586.242649858008
 20
406.2139425286956
 30
0.0
 11
555.2333498580081
 21
375.2047425286957
 31
0.0
  0
LINE
  5
B26
330
1A
100
AcDbEntity
  8
SEIHIN
100
AcDbLine
 10
594.020749858008
 20
398.4357425286957
 30
0.0
 11
566.233349858008
 21
370.6483425286957
 31
0.0
  0
ARC
  5
B27
330
1A
100
AcDbEntity
  8
NOKITOI
  6
CONTINUOUS
 62
     8
100
AcDbCircle
 10
465.4028944180627
 20
172.922415390537
 30
0.0
 40
0.4999934649531607
100
AcDbArc
 50
356.9955363203384
 51
89.99928939038005
  0
ARC
  5
B28
330
1A
100
AcDbEntity
  8
NOKITOI
  6
CONTINUOUS
 62
     8
100
AcDbCircle
 10
465.0870937322256
 20
166.9224023203662
 30
0.0
 40
0.499993464961963
100
AcDbArc
 50
270.0007892017873
 51
356.9970361317427
  0
LINE
  5
B29
330
1A
100
AcDbEntity
  8
NOKITOI
  6
CONTINUOUS
 62
     8
100
AcDbLine
 10
465.5865006192207
 20
166.8962088554517
 30
0.0
 11
465.9023006192206
 21
172.8961088554517
 31
0.0
  0
ARC
  5
B2A
330
1A
100
AcDbEntity
  8
NOKITOI
  6
CONTINUOUS
 62
     8
100
AcDbCircle
 10
465.160092195058
 20
158.9224163705082
 30
0.0
 40
0.9999924849789756
100
AcDbArc
 50
6.528264606674428
 51
89.99951732740891
  0
LINE
  5
B2B
330
1A
100
AcDbEntity
  8
NOKITOI
  6
CONTINUOUS
 62
     8
100
AcDbLine
 10
466.704000619221
 20
161.1224088554517
 30
0.0
 11
460.6631006192206
 21
161.1224088554517
 31
0.0
  0
ARC
  5
B2C
330
1A
100
AcDbEntity
  8
NOKITOI
  6
CONTINUOUS
 62
     8
100
AcDbCircle
 10
508.8750843927632
 20
163.9224233318218
 30
0.0
 40
43.00001447645168
100
AcDbArc
 50
186.524910707118
 51
269.999888375144
  0
ARC
  5
B2D
330
1A
100
AcDbEntity
  8
NOKITOI
  6
CONTINUOUS
 62
     8
100
AcDbCircle
 10
508.8751067011885
 20
163.9224032307954
 30
0.0
 40
41.79999437547816
100
AcDbArc
 50
184.474295212525
 51
269.9998545921086
  0
DIMENSION
  5
B2E
330
1A
100
AcDbEntity
  8
SUNPOU
100
AcDbDimension
  2
*D7
 10
578.9613590032752
 20
221.3198715758262
 30
0.0
 11
517.0114998580079
 21
226.3198715758262
 31
0.0
 70
    32
  3
STANDARD
100
AcDbAlignedDimension
 13
455.0616407127406
 23
175.4222980589228
 33
0.0
 14
578.9613590032752
 24
175.4222980589228
 34
0.0
100
AcDbRotatedDimension
1001
ACAD
1000
DSTYLE
1002
{
1070
    41
1040
7.0
1070
    42
1040
6.0
1070
    43
1040
14.0
1070
    44
1040
3.0
1070
    73
1070
     0
1070
    74
1070
     0
1070
    77
1070
     3
1070
   140
1040
6.0
1070
   141
1040
150.0
1070
   147
1040
2.0
1070
   172
1070
     1
1070
   173
1070
     1
1070
   176
1070
     4
1070
   177
1070
     4
1070
   178
1070
     4
1070
   271
1070
     0
1070
   272
1070
     2
1070
   341
1005
6D
1070
     6
1000
OPEN
1070
     7
1000
OPEN
1002
}
  0
DIMENSION
  5
B2F
330
1A
100
AcDbEntity
  8
SUNPOU
100
AcDbDimension
  2
*D5
 10
419.3922847546614
 20
118.9223080589228
 30
0.0
 11
414.3922847546614
 21
148.1723076315565
 31
0.0
 70
    32
  3
STANDARD
100
AcDbAlignedDimension
 13
458.062149858008
 23
177.4223072041901
 33
0.0
 14
508.769949858008
 24
118.9223080589227
 34
0.0
 50
90.0
100
AcDbRotatedDimension
1001
ACAD
1000
DSTYLE
1002
{
1070
    41
1040
7.0
1070
    42
1040
6.0
1070
    43
1040
14.0
1070
    44
1040
3.0
1070
    73
1070
     0
1070
    74
1070
     0
1070
    77
1070
     3
1070
   140
1040
6.0
1070
   141
1040
150.0
1070
   147
1040
2.0
1070
   172
1070
     1
1070
   173
1070
     1
1070
   176
1070
     4
1070
   177
1070
     4
1070
   178
1070
     4
1070
   271
1070
     0
1070
   272
1070
     2
1070
   341
1005
6D
1070
     6
1000
OPEN
1070
     7
1000
OPEN
1002
}
  0
LINE
  5
B30
330
1A
100
AcDbEntity
  8
SUNPOU
  6
PHANTOM
 48
5.0
100
AcDbLine
 10
457.0011498580079
 20
363.5226425286958
 30
0.0
 11
577.0763776614298
 21
363.5226425286957
 31
0.0
  0
ARC
  5
B31
330
1A
100
AcDbEntity
  8
SEIHIN
100
AcDbCircle
 10
508.769949858008
 20
163.9222980589228
 30
0.0
 40
43.99997149031193
100
AcDbArc
 50
189.4876046655969
 51
270.0
  0
ARC
  5
B32
330
1A
100
AcDbEntity
  8
SEIHIN
100
AcDbCircle
 10
508.769949858008
 20
163.9222980589228
 30
0.0
 40
42.99997658827531
100
AcDbArc
 50
189.487031853514
 51
270.0
  0
LINE
  5
B33
330
1A
100
AcDbEntity
  8
SEIHIN
100
AcDbLine
 10
459.004165358008
 20
158.9223588589227
 30
0.0
 11
521.726849858008
 21
158.9222976589227
 31
0.0
  0
ARC
  5
B34
330
1A
100
AcDbEntity
  8
SEIHIN
100
AcDbCircle
 10
508.769949858008
 20
163.9222980589228
 30
0.0
 40
44.99995816413288
100
AcDbArc
 50
189.4875661598483
 51
270.0
  0
ARC
  5
B35
330
1A
100
AcDbEntity
  8
SEIHIN
100
AcDbCircle
 10
463.892349858008
 20
156.4222980589228
 30
0.0
 40
2.499999603030511
100
AcDbArc
 50
9.498488445219255
 51
90.0
  0
ARC
  5
B36
330
1A
100
AcDbEntity
  8
SEIHIN
100
AcDbCircle
 10
462.5554498580079
 20
178.2285980589227
 30
0.0
 40
4.500008680979586
100
AcDbArc
 50
286.8737590857205
 51
343.1246523347979
  0
ARC
  5
B37
330
1A
100
AcDbEntity
  8
SEIHIN
100
AcDbCircle
 10
465.3616498580079
 20
176.9222980589228
 30
0.0
 40
1.5
100
AcDbArc
 50
0.0
 51
90.0
  0
LINE
  5
B38
330
1A
100
AcDbEntity
  8
SEIHIN
100
AcDbLine
 10
466.8616498580079
 20
353.5226425286957
 30
0.0
 11
459.0011498580079
 21
353.5226425286957
 31
0.0
  0
LINE
  5
B39
330
1A
100
AcDbEntity
  8
SEIHIN
100
AcDbLine
 10
455.6002498580079
 20
328.5226425286957
 30
0.0
 11
578.4230498580079
 21
328.5226425286957
 31
0.0
  0
LINE
  5
B3A
330
1A
100
AcDbEntity
  8
SEIHIN
  6
CONTINUOUS
 62
     3
100
AcDbLine
 10
333.102233299673
 20
156.92200720419
 30
0.0
 11
191.7383745089066
 21
156.9220072041901
 31
0.0
  0
LINE
  5
B3B
330
1A
100
AcDbEntity
  8
SEIHIN
  6
CONTINUOUS
 62
     3
100
AcDbLine
 10
228.3779291393615
 20
118.9220072041901
 30
0.0
 11
333.102233299673
 21
118.9220072041901
 31
0.0
  0
LINE
  5
B3C
330
1A
100
AcDbEntity
  8
SEIHIN
  6
CONTINUOUS
 62
     3
100
AcDbLine
 10
338.102233299673
 20
177.4223072041901
 30
0.0
 11
190.7383745089066
 21
177.4209530370023
 31
0.0
  0
LINE
  5
B3D
330
1A
100
AcDbEntity
  8
SEIHIN
100
AcDbLine
 10
190.7383745089066
 20
157.92200720419
 30
0.0
 11
190.7383745089066
 21
177.4209530370023
 31
0.0
  0
LINE
  5
B3E
330
1A
100
AcDbEntity
  8
SEIHIN
100
AcDbLine
 10
193.8496745089066
 20
156.92200720419
 30
0.0
 11
193.8496745089066
 21
177.4209816275971
 31
0.0
  0
ARC
  5
B3F
330
1A
100
AcDbEntity
  8
SEIHIN
100
AcDbCircle
 10
235.9139963995557
 20
157.385805609009
 30
0.0
 40
39.19510297826444
100
AcDbArc
 50
182.0870208997569
 51
258.914674509538
  0
ARC
  5
B40
330
1A
100
AcDbEntity
  8
SEIHIN
100
AcDbCircle
 10
191.7383745089066
 20
157.92200720419
 30
0.0
 40
1.0
100
AcDbArc
 50
180.0
 51
270.0
  0
ARC
  5
B41
330
1A
100
AcDbEntity
  8
SEIHIN
100
AcDbCircle
 10
239.0252963995558
 20
157.385805609009
 30
0.0
 40
39.19510297826444
100
AcDbArc
 50
182.0870208997569
 51
258.914674509538
  0
ARC
  5
B42
330
1A
100
AcDbEntity
  8
SEIHIN
100
AcDbCircle
 10
198.8568560805275
 20
155.92200720419
 30
0.0
 40
1.0
100
AcDbArc
 50
2.087020899757697
 51
90.0
  0
ARC
  5
B43
330
1A
100
AcDbEntity
  8
SEIHIN
100
AcDbCircle
 10
195.7455560805275
 20
155.9220072041899
 30
0.0
 40
1.0
100
AcDbArc
 50
2.087020899757697
 51
90.0
  0
LINE
  5
B44
330
1A
100
AcDbEntity
  8
SEIHIN
  6
CONTINUOUS
 62
     3
100
AcDbLine
 10
198.6407864302544
 20
178.42190720419
 30
0.0
 11
214.3182745089067
 21
178.42190720419
 31
0.0
  0
LINE
  5
B45
330
1A
100
AcDbEntity
  8
SEIHIN
100
AcDbLine
 10
197.6407864302544
 20
177.42190720419
 30
0.0
 11
197.6407864302544
 21
177.4210164651713
 31
0.0
  0
ARC
  5
B46
330
1A
100
AcDbEntity
  8
SEIHIN
100
AcDbCircle
 10
198.6407864302544
 20
177.42190720419
 30
0.0
 40
1.0
100
AcDbArc
 50
90.0
 51
180.0
  0
ARC
  5
B47
330
1A
100
AcDbEntity
  8
SEIHIN
100
AcDbCircle
 10
214.3182745089067
 20
177.42190720419
 30
0.0
 40
1.0
100
AcDbArc
 50
0.0
 51
180.0427812871401
  0
LINE
  5
B48
330
1A
100
AcDbEntity
  8
SEIHIN
100
AcDbLine
 10
215.3182745089067
 20
177.42190720419
 30
0.0
 11
215.3182745089068
 21
177.4211789084902
 31
0.0
  0
DIMENSION
  5
B49
330
1A
100
AcDbEntity
  8
SUNPOU
100
AcDbDimension
  2
*D1
 10
381.1967368608836
 20
118.9220072041901
 30
0.0
 11
376.1967368608836
 21
148.1721572041901
 31
0.0
 70
    32
  3
STANDARD
100
AcDbAlignedDimension
 13
338.102233299673
 23
177.4223072041901
 33
0.0
 14
333.102233299673
 24
118.9220072041901
 34
0.0
 50
90.0
100
AcDbRotatedDimension
1001
ACAD
1000
DSTYLE
1002
{
1070
   140
1040
6.0
1070
    74
1070
     0
1070
   172
1070
     1
1070
    73
1070
     0
1070
   272
1070
     2
1070
    77
1070
     3
1070
   173
1070
     1
1070
   147
1040
2.0
1070
    42
1040
6.0
1070
    44
1040
3.0
1070
    43
1040
14.0
1070
   271
1070
     0
1070
   178
1070
     4
1070
   177
1070
     4
1070
   176
1070
     4
1070
   141
1040
150.0
1070
     7
1000
_OPEN
1070
     6
1000
_OPEN
1070
    41
1040
7.0
1002
}
  0
LINE
  5
B4A
330
1A
100
AcDbEntity
  8
SEIHIN
100
AcDbLine
 10
251.5099956771383
 20
177.4215114842091
 30
0.0
 11
251.5099956771383
 21
157.92200720419
 31
0.0
  0
LINE
  5
B4B
330
1A
100
AcDbEntity
  8
SEIHIN
  6
CONTINUOUS
 62
     3
100
AcDbLine
 10
333.102233299673
 20
177.4223072041901
 30
0.0
 11
333.102233299673
 21
118.92190720419
 31
0.0
  0
LINE
  5
B4C
330
1A
100
AcDbEntity
  8
SEIHIN
  6
CONTINUOUS
 62
     3
100
AcDbLine
 10
338.102233299673
 20
178.4219072041901
 30
0.0
 11
338.1021332996732
 21
119.92190720419
 31
0.0
  0
ARC
  5
B4D
330
1A
100
AcDbEntity
  8
SEIHIN
100
AcDbCircle
 10
305.4056887912928
 20
156.781998167263
 30
0.0
 40
49.31412514843245
100
AcDbArc
 50
179.8373298185361
 51
230.1505847164762
  0
ARC
  5
B4E
330
1A
100
AcDbEntity
  8
SEIHIN
100
AcDbCircle
 10
252.5099956771382
 20
157.92200720419
 30
0.0
 40
1.0
100
AcDbArc
 50
180.0
 51
270.0
  0
LINE
  5
B4F
330
1A
100
AcDbEntity
  8
SEIHIN
  6
CONTINUOUS
 62
     3
100
AcDbLine
 10
333.102233299673
 20
118.9220072041901
 30
0.0
 11
338.1021332996732
 21
119.92190720419
 31
0.0
  0
LINE
  5
B50
330
1A
100
AcDbEntity
  8
SEIHIN
  6
CONTINUOUS
 62
     3
100
AcDbLine
 10
333.102233299673
 20
156.92200720419
 30
0.0
 11
338.1021332996732
 21
157.9219072041901
 31
0.0
  0
LINE
  5
B51
330
1A
100
AcDbEntity
  8
SEIHIN
  6
CONTINUOUS
 62
     3
100
AcDbLine
 10
313.102233299673
 20
178.4219072041901
 30
0.0
 11
338.102233299673
 21
178.4219072041901
 31
0.0
  0
LINE
  5
B52
330
1A
100
AcDbEntity
  8
SEIHIN
  6
CONTINUOUS
 62
     3
100
AcDbLine
 10
313.102233299673
 20
178.4219072041901
 30
0.0
 11
313.102233299673
 21
177.4223072041901
 31
0.0
  0
LINE
  5
B53
330
1A
100
AcDbEntity
  8
NOKITOI
  6
CONTINUOUS
 62
     8
100
AcDbLine
 10
457.1260006192205
 20
173.8599088554517
 30
0.0
 11
457.5162006192203
 21
161.3756088554516
 31
0.0
  0
ARC
  5
B54
330
1A
100
AcDbEntity
  8
NOKITOI
  6
CONTINUOUS
 62
     8
100
AcDbCircle
 10
460.663114191359
 20
163.1223957003653
 30
0.0
 40
1.999986844959662
100
AcDbArc
 50
181.7875531852363
 51
269.9996111843223
  0
DIMENSION
  5
B55
330
1A
100
AcDbEntity
  8
SUNPOU
100
AcDbDimension
  2
*D6
 10
434.6133410980496
 20
156.9222544832085
 30
0.0
 11
429.6133410980496
 21
167.1722808436994
 31
0.0
 70
    32
  3
STANDARD
100
AcDbAlignedDimension
 13
457.0616498580079
 23
177.4223072041901
 33
0.0
 14
457.0766498580079
 24
156.9222544832085
 34
0.0
 50
90.0
100
AcDbRotatedDimension
1001
ACAD
1000
DSTYLE
1002
{
1070
    41
1040
7.0
1070
    42
1040
6.0
1070
    43
1040
14.0
1070
    44
1040
3.0
1070
    73
1070
     0
1070
    74
1070
     0
1070
    77
1070
     3
1070
   140
1040
6.0
1070
   141
1040
150.0
1070
   147
1040
2.0
1070
   172
1070
     1
1070
   173
1070
     1
1070
   176
1070
     4
1070
   177
1070
     4
1070
   178
1070
     4
1070
   271
1070
     0
1070
   272
1070
     2
1070
   341
1005
6D
1070
     6
1000
OPEN
1070
     7
1000
OPEN
1002
}
  0
LINE
  5
B56
330
1A
100
AcDbEntity
  8
SEIHIN
100
AcDbLine
 10
456.547449858008
 20
159.3768980589227
 30
0.0
 11
456.063049858008
 21
175.3616980589228
 31
0.0
  0
LINE
  5
B57
330
1A
100
AcDbEntity
  8
SEIHIN
100
AcDbLine
 10
457.123309658008
 20
173.3894295589227
 30
0.0
 11
457.517847258008
 21
160.3670803589228
 31
0.0
  0
LINE
  5
B58
330
1A
100
AcDbEntity
  8
SEIHIN
100
AcDbLine
 10
455.0625498580079
 20
175.3616980589228
 30
0.0
 11
455.577249858008
 21
158.3768980589227
 31
0.0
  0
ARC
  5
B59
330
1A
100
AcDbEntity
  8
NOKITOI
  6
CONTINUOUS
 62
     8
100
AcDbCircle
 10
459.0154365783714
 20
161.4223740013084
 30
0.0
 40
1.499965146287778
100
AcDbArc
 50
181.7866280217767
 51
269.9986264296976
  0
LINE
  5
B5A
330
1A
100
AcDbEntity
  8
NOKITOI
  6
CONTINUOUS
 62
     8
100
AcDbLine
 10
459.0154006192205
 20
159.9224088554517
 30
0.0
 11
465.1601006192204
 21
159.9224088554517
 31
0.0
  0
LINE
  5
B5B
330
1A
100
AcDbEntity
  8
SEIHIN
100
AcDbLine
 10
463.892349858008
 20
157.9222980589228
 30
0.0
 11
458.0467498580079
 21
157.9222980589228
 31
0.0
  0
LINE
  5
B5C
330
1A
100
AcDbEntity
  8
SEIHIN
100
AcDbLine
 10
457.0766498580079
 20
156.9222980589228
 30
0.0
 11
463.892349858008
 21
156.9222980589228
 31
0.0
  0
ARC
  5
B5D
330
1A
100
AcDbEntity
  8
SEIHIN
100
AcDbCircle
 10
458.0467498580079
 20
159.4222980589228
 30
0.0
 40
1.499993609866732
100
AcDbArc
 50
181.7344321595511
 51
270.0
  0
ARC
  5
B5E
330
1A
100
AcDbEntity
  8
SEIHIN
100
AcDbCircle
 10
459.0169498580079
 20
160.4222980589228
 30
0.0
 40
1.499993646632024
100
AcDbArc
 50
182.1094705869111
 51
269.5116601020032
  0
ARC
  5
B5F
330
1A
100
AcDbEntity
  8
SEIHIN
100
AcDbCircle
 10
457.0766498580079
 20
158.4222980589228
 30
0.0
 40
1.50004357571431
100
AcDbArc
 50
181.7343170877883
 51
270.0
  0
ARC
  5
B60
330
1A
100
AcDbEntity
  8
SEIHIN
100
AcDbCircle
 10
463.892349858008
 20
156.4222980589228
 30
0.0
 40
1.50001292876302
100
AcDbArc
 50
9.489321024647924
 51
90.0
  0
ARC
  5
B61
330
1A
100
AcDbEntity
  8
SEIHIN
100
AcDbCircle
 10
463.892349858008
 20
156.4222980589228
 30
0.0
 40
0.5000262081214327
100
AcDbArc
 50
9.496220738516402
 51
90.0
  0
LINE
  5
B62
330
1A
100
AcDbEntity
  8
NOKITOI
  6
CONTINUOUS
 62
     8
100
AcDbLine
 10
464.4230006192206
 20
167.6224088554517
 30
0.0
 11
464.6042006192206
 21
171.0639088554519
 31
0.0
  0
LINE
  5
B63
330
1A
100
AcDbEntity
  8
NOKITOI
  6
CONTINUOUS
 62
     8
100
AcDbLine
 10
463.645100619221
 20
167.6224088554517
 30
0.0
 11
464.0492006192207
 21
170.4508088554516
 31
0.0
  0
LINE
  5
B64
330
1A
100
AcDbEntity
  8
NOKITOI
  6
CONTINUOUS
 62
     8
100
AcDbLine
 10
464.0492006192207
 20
170.4508088554516
 30
0.0
 11
464.6042006192206
 21
171.0639088554519
 31
0.0
  0
LINE
  5
B65
330
1A
100
AcDbEntity
  8
NOKITOI
  6
CONTINUOUS
 62
     8
100
AcDbLine
 10
464.4230006192206
 20
167.6224088554517
 30
0.0
 11
463.645100619221
 21
167.6224088554517
 31
0.0
  0
LINE
  5
B66
330
1A
100
AcDbEntity
  8
NOKITOI
  6
CONTINUOUS
 62
     8
100
AcDbLine
 10
458.6641006192203
 20
163.0600088554517
 30
0.0
 11
458.5786006192206
 21
165.7975088554517
 31
0.0
  0
LINE
  5
B67
330
1A
100
AcDbEntity
  8
NOKITOI
  6
CONTINUOUS
 62
     8
100
AcDbLine
 10
459.1250006192203
 20
174.7224088554519
 30
0.0
 11
461.5978006192208
 21
174.7224088554519
 31
0.0
  0
LINE
  5
B68
330
1A
100
AcDbEntity
  8
NOKITOI
  6
CONTINUOUS
 62
     8
100
AcDbLine
 10
459.1250006192203
 20
175.9224088554517
 30
0.0
 11
462.4516006192207
 21
175.9224088554517
 31
0.0
  0
ARC
  5
B69
330
1A
100
AcDbEntity
  8
NOKITOI
  6
CONTINUOUS
 62
     8
100
AcDbCircle
 10
462.5766385006673
 20
165.9224526379771
 30
0.0
 40
3.999989731271038
100
AcDbArc
 50
96.47731142013144
 51
181.7899836067308
  0
ARC
  5
B6A
330
1A
100
AcDbEntity
  8
NOKITOI
  6
CONTINUOUS
 62
     8
100
AcDbCircle
 10
462.5767208318897
 20
165.9224675838317
 30
0.0
 40
5.2000412730095
100
AcDbArc
 50
90.00132454306161
 51
142.0757990790561
  0
ARC
  5
B6B
330
1A
100
AcDbEntity
  8
NOKITOI
  6
CONTINUOUS
 62
     8
100
AcDbCircle
 10
459.1250133700705
 20
173.9224220105381
 30
0.0
 40
1.999986844954076
100
AcDbArc
 50
90.00036528735526
 51
181.7883072882699
  0
ARC
  5
B6C
330
1A
100
AcDbEntity
  8
NOKITOI
  6
CONTINUOUS
 62
     8
100
AcDbCircle
 10
459.1250051140186
 20
173.9224134929786
 30
0.0
 40
0.7999953624857498
100
AcDbArc
 50
90.00032191805336
 51
181.7911273464199
  0
LINE
  5
B6D
330
1A
100
AcDbEntity
  8
NOKITOI
  6
CONTINUOUS
 62
     8
100
AcDbLine
 10
458.325400619221
 20
173.8974088554516
 30
0.0
 11
458.4748006192203
 21
169.1185088554518
 31
0.0
  0
LINE
  5
B6E
330
1A
100
AcDbEntity
  8
NOKITOI
  6
CONTINUOUS
 62
     8
100
AcDbLine
 10
462.6811006192205
 20
174.0205088554516
 30
0.0
 11
462.9419006192206
 21
175.3244088554517
 31
0.0
  0
LINE
  5
B6F
330
1A
100
AcDbEntity
  8
NOKITOI
  6
CONTINUOUS
 62
     8
100
AcDbLine
 10
461.5978006192208
 20
174.7224088554519
 30
0.0
 11
461.0978006192208
 21
172.2224088554519
 31
0.0
  0
ARC
  5
B70
330
1A
100
AcDbEntity
  8
NOKITOI
  6
CONTINUOUS
 62
     8
100
AcDbCircle
 10
463.1713933646651
 20
173.9224177052951
 30
0.0
 40
0.5000088498959383
100
AcDbArc
 50
168.6864043304884
 51
270.0008312961434
  0
ARC
  5
B71
330
1A
100
AcDbEntity
  8
NOKITOI
  6
CONTINUOUS
 62
     8
100
AcDbCircle
 10
462.4515998362121
 20
175.4224098104534
 30
0.0
 40
0.4999990449987349
100
AcDbArc
 50
348.6967198015448
 51
89.99991027369452
  0
LINE
  5
B72
330
1A
100
AcDbEntity
  8
NOKITOI
  6
CONTINUOUS
 62
     8
100
AcDbLine
 10
463.0385006192209
 20
171.1224088554517
 30
0.0
 11
462.5766006192207
 21
171.1224088554517
 31
0.0
  0
ARC
  5
B73
330
1A
100
AcDbEntity
  8
NOKITOI
  6
CONTINUOUS
 62
     8
100
AcDbCircle
 10
462.181814837636
 20
169.4000942211507
 30
0.0
 40
0.5000073448410256
100
AcDbArc
 50
351.8729478641243
 51
96.47829282996843
  0
ARC
  5
B74
330
1A
100
AcDbEntity
  8
NOKITOI
  6
CONTINUOUS
 62
     8
100
AcDbCircle
 10
462.8380272198183
 20
166.9223781785697
 30
0.0
 40
0.4999693238254178
100
AcDbArc
 50
171.8555038770532
 51
269.9969516090348
  0
LINE
  5
B75
330
1A
100
AcDbEntity
  8
NOKITOI
  6
CONTINUOUS
 62
     8
100
AcDbLine
 10
462.3431006192204
 20
166.9932088554519
 30
0.0
 11
462.6768006192206
 21
169.3294088554518
 31
0.0
  0
LINE
  5
B76
330
1A
100
AcDbEntity
  8
NOKITOI
  6
CONTINUOUS
 62
     8
100
AcDbLine
 10
461.0978006192208
 20
172.2224088554519
 30
0.0
 11
464.0343006192206
 21
172.2224088554519
 31
0.0
  0
LINE
  5
B77
330
1A
100
AcDbEntity
  8
NOKITOI
  6
CONTINUOUS
 62
     8
100
AcDbLine
 10
465.4029006192204
 20
173.4224088554517
 30
0.0
 11
463.1714006192205
 21
173.4224088554517
 31
0.0
  0
LINE
  5
B78
330
1A
100
AcDbEntity
  8
NOKITOI
  6
CONTINUOUS
 62
     8
100
AcDbLine
 10
465.0871006192205
 20
166.4224088554517
 30
0.0
 11
462.8380006192205
 21
166.4224088554517
 31
0.0
  0
LINE
  5
B79
330
1A
100
AcDbEntity
  8
NOKITOI
  6
CONTINUOUS
 62
     8
100
AcDbLine
 10
463.0385006192209
 20
171.1224088554517
 30
0.0
 11
464.0343006192206
 21
172.2224088554519
 31
0.0
  0
LINE
  5
B7A
330
1A
100
AcDbEntity
  8
SEIHIN
100
AcDbLine
 10
463.861649858008
 20
175.4222980589228
 30
0.0
 11
459.117201358008
 21
175.4222980589228
 31
0.0
  0
LINE
  5
B7B
330
1A
100
AcDbEntity
  8
SEIHIN
100
AcDbLine
 10
457.0616498580079
 20
177.4222980589228
 30
0.0
 11
463.629649858008
 21
177.4222980589228
 31
0.0
  0
ARC
  5
B7C
330
1A
100
AcDbEntity
  8
SEIHIN
100
AcDbCircle
 10
458.062149858008
 20
175.4222980589228
 30
0.0
 40
2.000009145267311
100
AcDbArc
 50
90.0
 51
181.736314159119
  0
ARC
  5
B7D
330
1A
100
AcDbEntity
  8
SEIHIN
100
AcDbCircle
 10
459.123249858008
 20
173.4222980589228
 30
0.0
 40
2.000009146703082
100
AcDbArc
 50
90.17327623292372
 51
180.9415566979186
  0
ARC
  5
B7E
330
1A
100
AcDbEntity
  8
SEIHIN
100
AcDbCircle
 10
457.0616498580079
 20
175.4222980589228
 30
0.0
 40
2.000009145267297
100
AcDbArc
 50
90.0
 51
181.736314159119
  0
LINE
  5
B7F
330
1A
100
AcDbEntity
  8
SEIHIN
100
AcDbLine
 10
463.861649858008
 20
175.4223980589227
 30
0.0
 11
463.861649858008
 21
173.9222980589228
 31
0.0
  0
ARC
  5
B80
330
1A
100
AcDbEntity
  8
SEIHIN
100
AcDbCircle
 10
463.629649858008
 20
179.4222980589228
 30
0.0
 40
1.999978020300449
100
AcDbArc
 50
270.0
 51
329.9992729067442
  0
LINE
  5
B81
330
1A
100
AcDbEntity
  8
SEIHIN
100
AcDbLine
 10
465.3616498580079
 20
328.5226425286957
 30
0.0
 11
465.3616498580079
 21
353.5226425286957
 31
0.0
  0
LINE
  5
B82
330
1A
100
AcDbEntity
  8
SEIHIN
100
AcDbLine
 10
455.6002498580079
 20
328.5226425286957
 30
0.0
 11
455.0002498580079
 21
333.5226425286957
 31
0.0
  0
ARC
  5
B83
330
1A
100
AcDbEntity
  8
SEIHIN
100
AcDbCircle
 10
459.0011498580079
 20
355.5226425286957
 30
0.0
 40
2.000000000000014
100
AcDbArc
 50
180.0
 51
270.0
  0
LINE
  5
B84
330
1A
100
AcDbEntity
  8
NOKITOI
  6
CONTINUOUS
 62
     8
100
AcDbLine
 10
574.9980006192209
 20
174.7223088554517
 30
0.0
 11
572.5253006192206
 21
174.7224088554519
 31
0.0
  0
LINE
  5
B85
330
1A
100
AcDbEntity
  8
NOKITOI
  6
CONTINUOUS
 62
     8
100
AcDbLine
 10
574.9980006192209
 20
175.9223088554517
 30
0.0
 11
571.6714006192205
 21
175.9224088554517
 31
0.0
  0
ARC
  5
B86
330
1A
100
AcDbEntity
  8
NOKITOI
  6
CONTINUOUS
 62
     8
100
AcDbCircle
 10
571.5464696922845
 20
165.9224446001155
 30
0.0
 40
3.99998565374706
100
AcDbArc
 50
358.2086966591014
 51
83.52422380468325
  0
ARC
  5
B87
330
1A
100
AcDbEntity
  8
NOKITOI
  6
CONTINUOUS
 62
     8
100
AcDbCircle
 10
571.5464827528694
 20
165.9224175838316
 30
0.0
 40
5.199991271650611
100
AcDbArc
 50
37.92532860473096
 51
89.99980314072548
  0
LINE
  5
B88
330
1A
100
AcDbEntity
  8
NOKITOI
  6
CONTINUOUS
 62
     8
100
AcDbLine
 10
575.1076006192206
 20
159.9224088554517
 30
0.0
 11
568.9665006192208
 21
159.9224088554517
 31
0.0
  0
ARC
  5
B89
330
1A
100
AcDbEntity
  8
NOKITOI
  6
CONTINUOUS
 62
     8
100
AcDbCircle
 10
573.4599386070449
 20
163.1223456760239
 30
0.0
 40
2.000036820932882
100
AcDbArc
 50
269.9989117490339
 51
358.2110591274196
  0
LINE
  5
B8A
330
1A
100
AcDbEntity
  8
SEIHIN
100
AcDbLine
 10
601.240649858008
 20
155.9222980589228
 30
0.0
 11
570.123849858008
 21
155.9222980589228
 31
0.0
  0
LINE
  5
B8B
330
1A
100
AcDbEntity
  8
SEIHIN
100
AcDbLine
 10
570.123849858008
 20
156.9222980589228
 30
0.0
 11
575.946049858008
 21
156.9222980589228
 31
0.0
  0
LINE
  5
B8C
330
1A
100
AcDbEntity
  8
SEIHIN
100
AcDbLine
 10
574.959945358008
 20
157.9222980589228
 30
0.0
 11
570.118596258008
 21
157.9222980589228
 31
0.0
  0
LINE
  5
B8D
330
1A
100
AcDbEntity
  8
SEIHIN
100
AcDbLine
 10
601.2858498580079
 20
177.4222980589228
 30
0.0
 11
569.649249858008
 21
177.4222980589228
 31
0.0
  0
LINE
  5
B8E
330
1A
100
AcDbEntity
  8
SEIHIN
100
AcDbLine
 10
576.9613498580079
 20
177.4222980589228
 30
0.0
 11
570.4937498580079
 21
177.4222980589228
 31
0.0
  0
LINE
  5
B8F
330
1A
100
AcDbEntity
  8
SEIHIN
100
AcDbLine
 10
574.905898358008
 20
175.4222980589228
 30
0.0
 11
570.261649858008
 21
175.4222980589228
 31
0.0
  0
ARC
  5
B90
330
1A
100
AcDbEntity
  8
SEIHIN
100
AcDbCircle
 10
575.1264498580081
 20
172.4222980589228
 30
0.0
 40
7.999982427917494
100
AcDbArc
 50
90.0
 51
147.457343946485
  0
LINE
  5
B91
330
1A
100
AcDbEntity
  8
SEIHIN
100
AcDbLine
 10
567.2266498580079
 20
128.8989880589227
 30
0.0
 11
591.085049858008
 21
128.8989880589227
 31
0.0
  0
LINE
  5
B92
330
1A
100
AcDbEntity
  8
SEIHIN
100
AcDbLine
 10
578.743149858008
 20
118.9223080589227
 30
0.0
 11
508.769949858008
 21
118.9223080589227
 31
0.0
  0
LINE
  5
B93
330
1A
100
AcDbEntity
  8
SEIHIN
100
AcDbLine
 10
514.9585498580079
 20
173.3616980589228
 30
0.0
 11
515.352049858008
 21
160.3768980589227
 31
0.0
  0
LINE
  5
B94
330
1A
100
AcDbEntity
  8
NOKITOI
  6
CONTINUOUS
 62
     8
100
AcDbLine
 10
553.7045006192206
 20
120.9223088554517
 30
0.0
 11
508.8751006192206
 21
120.9224088554517
 31
0.0
  0
LINE
  5
B95
330
1A
100
AcDbEntity
  8
NOKITOI
  6
CONTINUOUS
 62
     8
100
AcDbLine
 10
508.8751006192206
 20
122.1224088554517
 30
0.0
 11
553.4547006192205
 21
122.1223088554517
 31
0.0
  0
LINE
  5
B96
330
1A
100
AcDbEntity
  8
SEIHIN
100
AcDbLine
 10
508.769949858008
 20
120.9223080589227
 30
0.0
 11
553.7109907580079
 21
120.9223080589227
 31
0.0
  0
LINE
  5
B97
330
1A
100
AcDbEntity
  8
SEIHIN
100
AcDbLine
 10
554.0616498580079
 20
119.9223080589227
 30
0.0
 11
508.769949858008
 21
119.9223080589227
 31
0.0
  0
ARC
  5
B98
330
1A
100
AcDbEntity
  8
SEIHIN
100
AcDbCircle
 10
566.6044498580078
 20
163.9222980589228
 30
0.0
 40
43.00000698198355
100
AcDbArc
 50
189.4876450368877
 51
255.3928241570242
  0
LINE
  5
B99
330
1A
100
AcDbEntity
  8
CENTER_L
 48
5.0
100
AcDbLine
 10
517.061649858008
 20
113.4889880589228
 30
0.0
 11
517.061649858008
 21
155.8807980589227
 31
0.0
  0
ARC
  5
B9A
330
1A
100
AcDbEntity
  8
NOKITOI
  6
CONTINUOUS
 62
     8
100
AcDbCircle
 10
466.7040131889288
 20
160.622397230722
 30
0.0
 40
0.5000116248877111
100
AcDbArc
 50
4.474846808342897
 51
90.00144034898337
  0
ARC
  5
B9B
330
1A
100
AcDbEntity
  8
SEIHIN
100
AcDbCircle
 10
516.851349858008
 20
160.4222980589228
 30
0.0
 40
1.499993609866732
100
AcDbArc
 50
181.7344321595511
 51
270.0
  0
LINE
  5
B9C
330
1A
100
AcDbEntity
  8
NOKITOI
  6
CONTINUOUS
 62
     8
100
AcDbLine
 10
564.7409006192206
 20
129.6600088554518
 30
0.0
 11
554.3378006192206
 21
121.1483088554518
 31
0.0
  0
LINE
  5
B9D
330
1A
100
AcDbEntity
  8
NOKITOI
  6
CONTINUOUS
 62
     8
100
AcDbLine
 10
563.7566006192209
 20
130.4051088554517
 30
0.0
 11
553.7713006192206
 21
122.2353088554516
 31
0.0
  0
LINE
  5
B9E
330
1A
100
AcDbEntity
  8
SEIHIN
100
AcDbLine
 10
564.7415094580081
 20
129.6604658589228
 30
0.0
 11
554.369482658008
 21
121.1742295589227
 31
0.0
  0
LINE
  5
B9F
330
1A
100
AcDbEntity
  8
SEIHIN
100
AcDbLine
 10
565.6948498580079
 20
129.1483480589228
 30
0.0
 11
554.6948498580079
 21
120.1483480589228
 31
0.0
  0
LINE
  5
BA0
330
1A
100
AcDbEntity
  8
SEIHIN
100
AcDbLine
 10
566.6486498580079
 20
128.6366880589228
 30
0.0
 11
555.0517498580079
 21
119.1483480589228
 31
0.0
  0
LINE
  5
BA1
330
1A
100
AcDbEntity
  8
NOKITOI
  6
CONTINUOUS
 62
     8
100
AcDbLine
 10
549.7045006192206
 20
120.9223088554517
 30
0.0
 11
529.5466006192209
 21
120.9223088554517
 31
0.0
  0
LINE
  5
BA2
330
1A
100
AcDbEntity
  8
NOKITOI
  6
CONTINUOUS
 62
     8
100
AcDbLine
 10
549.4547006192205
 20
122.1223088554517
 30
0.0
 11
529.5466006192209
 21
122.1223088554517
 31
0.0
  0
ARC
  5
BA3
330
1A
100
AcDbEntity
  8
NOKITOI
  6
CONTINUOUS
 62
     8
100
AcDbCircle
 10
553.7044936866432
 20
121.9223063804456
 30
0.0
 40
0.9999975250179316
100
AcDbArc
 50
270.0003972084043
 51
309.2946416752298
  0
ARC
  5
BA4
330
1A
100
AcDbEntity
  8
NOKITOI
  6
CONTINUOUS
 62
     8
100
AcDbCircle
 10
553.4547070069693
 20
122.6223111354413
 30
0.0
 40
0.5000022800304047
100
AcDbArc
 50
269.9992680212786
 51
309.2854498596058
  0
ARC
  5
BA5
330
1A
100
AcDbEntity
  8
SEIHIN
100
AcDbCircle
 10
554.0616498580079
 20
120.9223080589227
 30
0.0
 40
0.9999891042703124
100
AcDbArc
 50
270.0
 51
309.2876306448952
  0
ARC
  5
BA6
330
1A
100
AcDbEntity
  8
SEIHIN
100
AcDbCircle
 10
554.418549858008
 20
119.9223080589227
 30
0.0
 40
0.9999891042703124
100
AcDbArc
 50
270.0
 51
309.2876306448952
  0
ARC
  5
BA7
330
1A
100
AcDbEntity
  8
SEIHIN
100
AcDbCircle
 10
553.704549858008
 20
121.9223080589227
 30
0.0
 40
1.000020765306496
100
AcDbArc
 50
270.3690312832104
 51
311.6324316609968
  0
ARC
  5
BA8
330
1A
100
AcDbEntity
  8
SEIHIN
100
AcDbCircle
 10
521.726849858008
 20
156.4222980589228
 30
0.0
 40
2.499999602263987
100
AcDbArc
 50
9.487941387142903
 51
90.0
  0
LINE
  5
BA9
330
1A
100
AcDbEntity
  8
NOKITOI
  6
CONTINUOUS
 62
     8
100
AcDbLine
 10
567.9715006192209
 20
159.0219088554517
 30
0.0
 11
565.1027006192207
 21
130.3345088554517
 31
0.0
  0
LINE
  5
BAA
330
1A
100
AcDbEntity
  8
NOKITOI
  6
CONTINUOUS
 62
     8
100
AcDbLine
 10
566.9305006192208
 20
160.6722088554517
 30
0.0
 11
563.9375006192203
 21
130.7424088554516
 31
0.0
  0
LINE
  5
BAB
330
1A
100
AcDbEntity
  8
SEIHIN
100
AcDbLine
 10
568.631249858008
 20
155.5715980589227
 30
0.0
 11
566.0566498580079
 21
129.8228180589227
 31
0.0
  0
LINE
  5
BAC
330
1A
100
AcDbEntity
  8
SEIHIN
100
AcDbLine
 10
569.626249858008
 20
155.4720980589228
 30
0.0
 11
567.0104498580079
 21
129.3111580589227
 31
0.0
  0
LINE
  5
BAD
330
1A
100
AcDbEntity
  8
SEIHIN
100
AcDbLine
 10
565.100925758008
 20
130.3152347589227
 30
0.0
 11
567.636899558008
 21
155.6775960589227
 31
0.0
  0
ARC
  5
BAE
330
1A
100
AcDbEntity
  8
NOKITOI
  6
CONTINUOUS
 62
     8
100
AcDbCircle
 10
564.1076780463517
 20
130.4339667837791
 30
0.0
 40
0.9999908507640039
100
AcDbArc
 50
309.2887092230696
 51
354.2862329477531
  0
ARC
  5
BAF
330
1A
100
AcDbEntity
  8
NOKITOI
  6
CONTINUOUS
 62
     8
100
AcDbCircle
 10
563.4399831933424
 20
130.7920763690637
 30
0.0
 40
0.4999904508696396
100
AcDbArc
 50
309.2900846377958
 51
354.2990110749245
  0
ARC
  5
BB0
330
1A
100
AcDbEntity
  8
SEIHIN
100
AcDbCircle
 10
564.107749858008
 20
130.4339680589228
 30
0.0
 40
0.9999703983734724
100
AcDbArc
 50
309.3290580569428
 51
353.1826979925372
  0
ARC
  5
BB1
330
1A
100
AcDbEntity
  8
SEIHIN
100
AcDbCircle
 10
565.0616498580079
 20
129.9223080589227
 30
0.0
 40
0.9999703898216271
100
AcDbArc
 50
309.287633433693
 51
354.2894051521064
  0
ARC
  5
BB2
330
1A
100
AcDbEntity
  8
SEIHIN
100
AcDbCircle
 10
566.0154498580079
 20
129.4106480589227
 30
0.0
 40
0.9999698962844131
100
AcDbArc
 50
309.2876346422388
 51
354.2899724329373
  0
ARC
  5
BB3
330
1A
100
AcDbEntity
  8
NOKITOI
  6
CONTINUOUS
 62
     8
100
AcDbCircle
 10
568.9665212690615
 20
158.9224275433009
 30
0.0
 40
0.9999813123640345
100
AcDbArc
 50
90.00118317084957
 51
174.290590033351
  0
ARC
  5
BB4
330
1A
100
AcDbEntity
  8
NOKITOI
  6
CONTINUOUS
 62
     8
100
AcDbCircle
 10
567.4280136902252
 20
160.6224206857316
 30
0.0
 40
0.499988169890889
100
AcDbArc
 50
90.00149786226627
 51
174.2966061377156
  0
LINE
  5
BB5
330
1A
100
AcDbEntity
  8
NOKITOI
  6
CONTINUOUS
 62
     8
100
AcDbLine
 10
567.4280006192202
 20
161.1224088554517
 30
0.0
 11
573.4599006192206
 21
161.1224088554517
 31
0.0
  0
ARC
  5
BB6
330
1A
100
AcDbEntity
  8
SEIHIN
100
AcDbCircle
 10
570.123849858008
 20
155.4222980589228
 30
0.0
 40
2.500005511970686
100
AcDbArc
 50
90.12040346566381
 51
174.1388286559495
  0
ARC
  5
BB7
330
1A
100
AcDbEntity
  8
SEIHIN
100
AcDbCircle
 10
570.123849858008
 20
155.4222980589228
 30
0.0
 40
1.500024198340198
100
AcDbArc
 50
90.0
 51
174.2878862021148
  0
ARC
  5
BB8
330
1A
100
AcDbEntity
  8
SEIHIN
100
AcDbCircle
 10
570.123849858008
 20
155.4222980589228
 30
0.0
 40
0.5000428883416821
100
AcDbArc
 50
90.0
 51
174.2848497594498
  0
LINE
  5
BB9
330
1A
100
AcDbEntity
  8
SEIHIN
100
AcDbLine
 10
503.783949858008
 20
173.9222980589228
 30
0.0
 11
521.6961498580079
 21
173.9222980589228
 31
0.0
  0
LINE
  5
BBA
330
1A
100
AcDbEntity
  8
SEIHIN
100
AcDbLine
 10
524.696149858008
 20
176.9222980589228
 30
0.0
 11
506.7839498580079
 21
176.9222980589228
 31
0.0
  0
LINE
  5
BBB
330
1A
100
AcDbEntity
  8
SEIHIN
100
AcDbLine
 10
505.2839498580079
 20
178.4222980589228
 30
0.0
 11
523.196049858008
 21
178.4221980589227
 31
0.0
  0
LINE
  5
BBC
330
1A
100
AcDbEntity
  8
SEIHIN
100
AcDbLine
 10
504.575949858008
 20
177.4222980589228
 30
0.0
 11
466.7757771580079
 21
177.4225418589227
 31
0.0
  0
ARC
  5
BBD
330
1A
100
AcDbEntity
  8
SEIHIN
100
AcDbCircle
 10
502.4777498580079
 20
178.2285980589227
 30
0.0
 40
4.500008680979578
100
AcDbArc
 50
286.8737590857205
 51
343.1246523347979
  0
ARC
  5
BBE
330
1A
100
AcDbEntity
  8
SEIHIN
100
AcDbCircle
 10
505.2839498580079
 20
176.9222980589228
 30
0.0
 40
1.5
100
AcDbArc
 50
0.0
 51
90.0
  0
ARC
  5
BBF
330
1A
100
AcDbEntity
  8
SEIHIN
100
AcDbCircle
 10
499.045449858008
 20
173.4222980589228
 30
0.0
 40
2.000009145267297
100
AcDbArc
 50
90.0
 51
181.736314159119
  0
LINE
  5
BC0
330
1A
100
AcDbEntity
  8
SEIHIN
100
AcDbLine
 10
503.783949858008
 20
175.4222980589228
 30
0.0
 11
503.783949858008
 21
173.9222980589228
 31
0.0
  0
LINE
  5
BC1
330
1A
100
AcDbEntity
  8
SEIHIN
100
AcDbLine
 10
503.783949858008
 20
175.4222980589228
 30
0.0
 11
499.045449858008
 21
175.4222980589228
 31
0.0
  0
ARC
  5
BC2
330
1A
100
AcDbEntity
  8
SEIHIN
100
AcDbCircle
 10
503.376049858008
 20
179.0223980589228
 30
0.0
 40
2.000035330874206
100
AcDbArc
 50
306.8658864392447
 51
342.5398499333186
  0
ARC
  5
BC3
330
1A
100
AcDbEntity
  8
SEIHIN
100
AcDbCircle
 10
516.9576498580079
 20
173.4222980589228
 30
0.0
 40
2.000013197720513
100
AcDbArc
 50
165.5225499746836
 51
181.7363135504985
  0
ARC
  5
BC4
330
1A
100
AcDbEntity
  8
SEIHIN
100
AcDbCircle
 10
523.1961498580079
 20
176.9221980589227
 30
0.0
 40
1.5
100
AcDbArc
 50
0.0
 51
90.0
  0
ARC
  5
BC5
330
1A
100
AcDbEntity
  8
SEIHIN
100
AcDbCircle
 10
520.389849858008
 20
178.2284980589228
 30
0.0
 40
4.500008695492793
100
AcDbArc
 50
286.8753476652015
 51
343.1262396958607
  0
LINE
  5
BC6
330
1A
100
AcDbEntity
  8
NOKITOI
  6
CONTINUOUS
 62
     8
100
AcDbLine
 10
568.7201006192208
 20
173.4224088554517
 30
0.0
 11
570.9516006192207
 21
173.4224088554517
 31
0.0
  0
ARC
  5
BC7
330
1A
100
AcDbEntity
  8
NOKITOI
  6
CONTINUOUS
 62
     8
100
AcDbCircle
 10
569.0359047406273
 20
166.9224049454212
 30
0.0
 40
0.4999960899864752
100
AcDbArc
 50
183.0147243791737
 51
269.9995277178594
  0
ARC
  5
BC8
330
1A
100
AcDbEntity
  8
NOKITOI
  6
CONTINUOUS
 62
     8
100
AcDbCircle
 10
568.7201043287159
 20
172.9224127654824
 30
0.0
 40
0.4999960899831856
100
AcDbArc
 50
90.00042508015132
 51
183.0156217414654
  0
LINE
  5
BC9
330
1A
100
AcDbEntity
  8
NOKITOI
  6
CONTINUOUS
 62
     8
100
AcDbLine
 10
568.5366006192207
 20
166.8961088554517
 30
0.0
 11
568.2208006192204
 21
172.8961088554517
 31
0.0
  0
LINE
  5
BCA
330
1A
100
AcDbEntity
  8
NOKITOI
  6
CONTINUOUS
 62
     8
100
AcDbLine
 10
571.4419006192206
 20
174.0204088554519
 30
0.0
 11
571.1811006192205
 21
175.3244088554517
 31
0.0
  0
ARC
  5
BCB
330
1A
100
AcDbEntity
  8
NOKITOI
  6
CONTINUOUS
 62
     8
100
AcDbCircle
 10
570.9515998362121
 20
173.92240790045
 30
0.0
 40
0.4999990449987399
100
AcDbArc
 50
270.0000897263054
 51
11.30328019845509
  0
ARC
  5
BCC
330
1A
100
AcDbEntity
  8
NOKITOI
  6
CONTINUOUS
 62
     8
100
AcDbCircle
 10
571.6713933646651
 20
175.4224000056083
 30
0.0
 40
0.500008849895925
100
AcDbArc
 50
89.99916870385492
 51
191.3135956695117
  0
LINE
  5
BCD
330
1A
100
AcDbEntity
  8
NOKITOI
  6
CONTINUOUS
 62
     8
100
AcDbLine
 10
571.0845006192207
 20
171.1224088554517
 30
0.0
 11
571.5465006192207
 21
171.1224088554517
 31
0.0
  0
ARC
  5
BCE
330
1A
100
AcDbEntity
  8
NOKITOI
  6
CONTINUOUS
 62
     8
100
AcDbCircle
 10
571.9412299917203
 20
169.4000390879466
 30
0.0
 40
0.4999578477751074
100
AcDbArc
 50
83.52609071220776
 51
188.1330561712924
  0
ARC
  5
BCF
330
1A
100
AcDbEntity
  8
NOKITOI
  6
CONTINUOUS
 62
     8
100
AcDbCircle
 10
571.2850108056568
 20
166.9224206001758
 30
0.0
 40
0.5000117448278309
100
AcDbArc
 50
269.9988327478018
 51
8.127314608715803
  0
LINE
  5
BD0
330
1A
100
AcDbEntity
  8
NOKITOI
  6
CONTINUOUS
 62
     8
100
AcDbLine
 10
571.7800006192205
 20
166.9931088554517
 30
0.0
 11
571.4462006192206
 21
169.3293088554518
 31
0.0
  0
LINE
  5
BD1
330
1A
100
AcDbEntity
  8
NOKITOI
  6
CONTINUOUS
 62
     8
100
AcDbLine
 10
570.4779006192202
 20
167.6224088554517
 30
0.0
 11
570.0739006192207
 21
170.4508088554516
 31
0.0
  0
LINE
  5
BD2
330
1A
100
AcDbEntity
  8
NOKITOI
  6
CONTINUOUS
 62
     8
100
AcDbLine
 10
569.7000006192206
 20
167.6224088554517
 30
0.0
 11
569.5189006192204
 21
171.0638088554516
 31
0.0
  0
LINE
  5
BD3
330
1A
100
AcDbEntity
  8
NOKITOI
  6
CONTINUOUS
 62
     8
100
AcDbLine
 10
569.7000006192206
 20
167.6224088554517
 30
0.0
 11
570.4779006192202
 21
167.6224088554517
 31
0.0
  0
LINE
  5
BD4
330
1A
100
AcDbEntity
  8
NOKITOI
  6
CONTINUOUS
 62
     8
100
AcDbLine
 10
570.0739006192207
 20
170.4508088554516
 30
0.0
 11
569.5189006192204
 21
171.0638088554516
 31
0.0
  0
LINE
  5
BD5
330
1A
100
AcDbEntity
  8
NOKITOI
  6
CONTINUOUS
 62
     8
100
AcDbLine
 10
569.0359006192206
 20
166.4224088554517
 30
0.0
 11
571.2850006192202
 21
166.4224088554517
 31
0.0
  0
LINE
  5
BD6
330
1A
100
AcDbEntity
  8
NOKITOI
  6
CONTINUOUS
 62
     8
100
AcDbLine
 10
571.0845006192207
 20
171.1224088554517
 30
0.0
 11
570.0887006192206
 21
172.2224088554519
 31
0.0
  0
LINE
  5
BD7
330
1A
100
AcDbEntity
  8
NOKITOI
  6
CONTINUOUS
 62
     8
100
AcDbLine
 10
572.5253006192206
 20
174.7224088554519
 30
0.0
 11
573.0253006192206
 21
172.2224088554519
 31
0.0
  0
LINE
  5
BD8
330
1A
100
AcDbEntity
  8
NOKITOI
  6
CONTINUOUS
 62
     8
100
AcDbLine
 10
573.0253006192206
 20
172.2224088554519
 30
0.0
 11
570.0887006192206
 21
172.2224088554519
 31
0.0
  0
ARC
  5
BD9
330
1A
100
AcDbEntity
  8
SEIHIN
100
AcDbCircle
 10
569.649249858008
 20
175.9222980589228
 30
0.0
 40
1.500014650639623
100
AcDbArc
 50
90.0
 51
230.2389353341774
  0
LINE
  5
BDA
330
1A
100
AcDbEntity
  8
SEIHIN
100
AcDbLine
 10
570.261649858008
 20
175.4222980589228
 30
0.0
 11
570.261649858008
 21
173.9222980589228
 31
0.0
  0
ARC
  5
BDB
330
1A
100
AcDbEntity
  8
SEIHIN
100
AcDbCircle
 10
571.567949858008
 20
178.2284980589228
 30
0.0
 40
4.499983919117144
100
AcDbArc
 50
230.3041437313865
 51
253.1246524630538
  0
LINE
  5
BDC
330
1A
100
AcDbEntity
  8
NOKITOI
  6
CONTINUOUS
 62
     8
100
AcDbLine
 10
576.9970006192206
 20
173.8599088554517
 30
0.0
 11
576.6069006192205
 21
161.3755088554516
 31
0.0
  0
LINE
  5
BDD
330
1A
100
AcDbEntity
  8
SEIHIN
100
AcDbLine
 10
603.284949858008
 20
175.3616980589228
 30
0.0
 11
602.739949858008
 21
157.3768980589227
 31
0.0
  0
LINE
  5
BDE
330
1A
100
AcDbEntity
  8
SEIHIN
100
AcDbLine
 10
576.8989488580079
 20
173.3616660589227
 30
0.0
 11
576.475281458008
 21
159.3812398589227
 31
0.0
  0
LINE
  5
BDF
330
1A
100
AcDbEntity
  8
SEIHIN
100
AcDbLine
 10
600.1738498580079
 20
175.3616980589228
 30
0.0
 11
599.628749858008
 21
157.3768980589227
 31
0.0
  0
LINE
  5
BE0
330
1A
100
AcDbEntity
  8
SEIHIN
100
AcDbLine
 10
577.445349858008
 20
158.3768980589227
 30
0.0
 11
577.959949858008
 21
175.3616980589228
 31
0.0
  0
LINE
  5
BE1
330
1A
100
AcDbEntity
  8
SEIHIN
100
AcDbLine
 10
578.415449858008
 20
157.3768980589227
 30
0.0
 11
578.9604498580079
 21
175.3616980589228
 31
0.0
  0
LINE
  5
BE2
330
1A
100
AcDbEntity
  8
SEIHIN
100
AcDbLine
 10
579.3763498580079
 20
119.1483480589228
 30
0.0
 11
590.973149858008
 21
128.6366580589227
 31
0.0
  0
LINE
  5
BE3
330
1A
100
AcDbEntity
  8
SEIHIN
100
AcDbLine
 10
576.265249858008
 20
119.1483480589228
 30
0.0
 11
587.8619498580079
 21
128.6366580589227
 31
0.0
  0
ARC
  5
BE4
330
1A
100
AcDbEntity
  8
SEIHIN
100
AcDbCircle
 10
575.631949858008
 20
119.9223080589227
 30
0.0
 40
1.00002080310367
100
AcDbArc
 50
270.0
 51
309.2920670732247
  0
ARC
  5
BE5
330
1A
100
AcDbEntity
  8
SEIHIN
100
AcDbCircle
 10
578.743149858008
 20
119.9223080589227
 30
0.0
 40
0.9999891042703124
100
AcDbArc
 50
270.0
 51
309.2876306448952
  0
ARC
  5
BE6
330
1A
100
AcDbEntity
  8
SEIHIN
100
AcDbCircle
 10
601.240649858008
 20
157.4222980589228
 30
0.0
 40
1.499993609866703
100
AcDbArc
 50
270.0
 51
358.2655678404472
  0
LINE
  5
BE7
330
1A
100
AcDbEntity
  8
SEIHIN
100
AcDbLine
 10
593.9507498580081
 20
155.4720980589228
 30
0.0
 11
591.334949858008
 21
129.3111280589227
 31
0.0
  0
LINE
  5
BE8
330
1A
100
AcDbEntity
  8
SEIHIN
100
AcDbLine
 10
590.839649858008
 20
155.4720980589228
 30
0.0
 11
588.223749858008
 21
129.3111280589227
 31
0.0
  0
ARC
  5
BE9
330
1A
100
AcDbEntity
  8
SEIHIN
100
AcDbCircle
 10
587.2287498580079
 20
129.4106180589228
 30
0.0
 40
0.9999703898216271
100
AcDbArc
 50
309.287633433693
 51
354.2894051521064
  0
ARC
  5
BEA
330
1A
100
AcDbEntity
  8
SEIHIN
100
AcDbCircle
 10
590.3398498580079
 20
129.4106180589228
 30
0.0
 40
1.000051786162428
100
AcDbArc
 50
309.292065378357
 51
354.2899752370414
  0
ARC
  5
BEB
330
1A
100
AcDbEntity
  8
NOKITOI
  6
CONTINUOUS
 62
     8
100
AcDbCircle
 10
575.1076178323987
 20
161.4224255385995
 30
0.0
 40
1.500016683246579
100
AcDbArc
 50
269.9993425123348
 51
358.207642324411
  0
ARC
  5
BEC
330
1A
100
AcDbEntity
  8
SEIHIN
100
AcDbCircle
 10
575.946049858008
 20
158.4222980589228
 30
0.0
 40
1.499993609866703
100
AcDbArc
 50
270.0
 51
358.2655678404472
  0
ARC
  5
BED
330
1A
100
AcDbEntity
  8
SEIHIN
100
AcDbCircle
 10
574.9758498580079
 20
159.4222980589228
 30
0.0
 40
1.499993621387205
100
AcDbArc
 50
269.3925170775163
 51
358.4314897199837
  0
ARC
  5
BEE
330
1A
100
AcDbEntity
  8
SEIHIN
100
AcDbCircle
 10
576.9161498580079
 20
157.4222980589228
 30
0.0
 40
1.499993609866703
100
AcDbArc
 50
270.0
 51
358.2655678404472
  0
ARC
  5
BEF
330
1A
100
AcDbEntity
  8
SEIHIN
100
AcDbCircle
 10
594.448349858008
 20
155.4222980589228
 30
0.0
 40
0.5000428883416821
100
AcDbArc
 50
90.0
 51
174.2848497594498
  0
ARC
  5
BF0
330
1A
100
AcDbEntity
  8
SEIHIN
100
AcDbCircle
 10
591.3371498580079
 20
155.4222980589228
 30
0.0
 40
0.4999931078796076
100
AcDbArc
 50
90.0
 51
174.2837147628037
  0
ARC
  5
BF1
330
1A
100
AcDbEntity
  8
SEIHIN
100
AcDbCircle
 10
598.129449858008
 20
157.4222980589228
 30
0.0
 40
1.499993609866703
100
AcDbArc
 50
270.0
 51
358.2655678404472
  0
ARC
  5
BF2
330
1A
100
AcDbEntity
  8
SEIHIN
100
AcDbCircle
 10
601.2858498580079
 20
175.4222980589228
 30
0.0
 40
2.000009145267297
100
AcDbArc
 50
358.2636858408808
 51
90.0
  0
LINE
  5
BF3
330
1A
100
AcDbEntity
  8
NOKITOI
  6
CONTINUOUS
 62
     8
100
AcDbLine
 10
575.4590006192207
 20
163.0598088554517
 30
0.0
 11
575.5445006192203
 21
165.7974088554517
 31
0.0
  0
ARC
  5
BF4
330
1A
100
AcDbEntity
  8
NOKITOI
  6
CONTINUOUS
 62
     8
100
AcDbCircle
 10
574.9979893822264
 20
173.9224204492688
 30
0.0
 40
1.999988406214315
100
AcDbArc
 50
358.2088726535929
 51
89.99967808195611
  0
ARC
  5
BF5
330
1A
100
AcDbEntity
  8
NOKITOI
  6
CONTINUOUS
 62
     8
100
AcDbCircle
 10
574.9980445855735
 20
173.9223634929787
 30
0.0
 40
0.7999453636812564
100
AcDbArc
 50
358.212343644788
 51
90.00314907315372
  0
LINE
  5
BF6
330
1A
100
AcDbEntity
  8
NOKITOI
  6
CONTINUOUS
 62
     8
100
AcDbLine
 10
575.7976006192202
 20
173.8974088554516
 30
0.0
 11
575.6483006192206
 21
169.1184088554518
 31
0.0
  0
ARC
  5
BF7
330
1A
100
AcDbEntity
  8
SEIHIN
100
AcDbCircle
 10
575.960949858008
 20
175.4222980589228
 30
0.0
 40
1.999959129494793
100
AcDbArc
 50
358.2635993989979
 51
90.0
  0
ARC
  5
BF8
330
1A
100
AcDbEntity
  8
SEIHIN
100
AcDbCircle
 10
574.8998498580079
 20
173.4222980589228
 30
0.0
 40
2.000009151938954
100
AcDbArc
 50
358.2627715289563
 51
89.82672376707304
  0
LINE
  5
BF9
330
1A
100
AcDbEntity
  8
SEIHIN
100
AcDbLine
 10
575.261649858008
 20
180.4222980589228
 30
0.0
 11
575.1264498580081
 21
180.4222980589228
 31
0.0
  0
ARC
  5
BFA
330
1A
100
AcDbEntity
  8
SEIHIN
100
AcDbCircle
 10
575.261649858008
 20
179.4222980589228
 30
0.0
 40
1.0
100
AcDbArc
 50
0.0
 51
90.0
  0
LINE
  5
BFB
330
1A
100
AcDbEntity
  8
SEIHIN
100
AcDbLine
 10
576.2616498580079
 20
177.4222980589228
 30
0.0
 11
576.2616498580079
 21
179.4222980589228
 31
0.0
  0
ARC
  5
BFC
330
1A
100
AcDbEntity
  8
SEIHIN
100
AcDbCircle
 10
576.9613498580079
 20
175.4222980589228
 30
0.0
 40
2.000009145267297
100
AcDbArc
 50
358.2636858408808
 51
90.0
  0
ARC
  5
BFD
330
1A
100
AcDbEntity
  8
SEIHIN
100
AcDbCircle
 10
598.3824498580079
 20
172.7883980589227
 30
0.0
 40
7.999971392934543
100
AcDbArc
 50
107.4005517565873
 51
144.6027764584353
  0
ARC
  5
BFE
330
1A
100
AcDbEntity
  8
SEIHIN
100
AcDbCircle
 10
598.1747498580079
 20
175.4222980589228
 30
0.0
 40
2.000009145267297
100
AcDbArc
 50
358.2636858408808
 51
90.0
  0
LINE
  5
BFF
330
1A
100
AcDbEntity
  8
SEIHIN
100
AcDbLine
 10
597.6043498580079
 20
180.4222980589228
 30
0.0
 11
595.9901498580079
 21
180.4222980589228
 31
0.0
  0
LINE
  5
C00
330
1A
100
AcDbEntity
  8
SEIHIN
100
AcDbLine
 10
596.990049858008
 20
179.6222980589227
 30
0.0
 11
596.990049858008
 21
177.4222980589228
 31
0.0
  0
LINE
  5
C01
330
1A
100
AcDbEntity
  8
SEIHIN
100
AcDbLine
 10
598.404349858008
 20
179.6222980589227
 30
0.0
 11
598.404349858008
 21
177.4222980589228
 31
0.0
  0
ARC
  5
C02
330
1A
100
AcDbEntity
  8
SEIHIN
100
AcDbCircle
 10
597.6043498580079
 20
179.6222980589227
 30
0.0
 40
0.8000000000000113
100
AcDbArc
 50
0.0
 51
90.0
  0
ARC
  5
C03
330
1A
100
AcDbEntity
  8
SEIHIN
100
AcDbCircle
 10
596.190049858008
 20
179.6222980589227
 30
0.0
 40
0.8000000000000113
100
AcDbArc
 50
0.0
 51
90.0
  0
LINE
  5
C04
330
1A
100
AcDbEntity
  8
SEIHIN
100
AcDbLine
 10
575.0220498580079
 20
353.5226425286957
 30
0.0
 11
568.149249858008
 21
353.5226425286957
 31
0.0
  0
LINE
  5
C05
330
1A
100
AcDbEntity
  8
SEIHIN
100
AcDbLine
 10
576.2617498580079
 20
333.5226425286957
 30
0.0
 11
568.3852498580079
 21
333.5226425286957
 31
0.0
  0
LINE
  5
C06
330
1A
100
AcDbEntity
  8
SEIHIN
100
AcDbLine
 10
576.2617498580079
 20
335.5226425286957
 30
0.0
 11
568.3852498580079
 21
335.5226425286957
 31
0.0
  0
LINE
  5
C07
330
1A
100
AcDbEntity
  8
SEIHIN
100
AcDbLine
 10
466.8616498580079
 20
328.5226425286957
 30
0.0
 11
466.8616498580079
 21
353.5226425286957
 31
0.0
  0
LINE
  5
C08
330
1A
100
AcDbEntity
  8
SEIHIN
100
AcDbLine
 10
567.961449858008
 20
328.5226425286957
 30
0.0
 11
567.961449858008
 21
366.6188425286957
 31
0.0
  0
LINE
  5
C09
330
1A
100
AcDbEntity
  8
SEIHIN
100
AcDbLine
 10
568.149249858008
 20
328.5226425286957
 30
0.0
 11
568.149249858008
 21
353.5226425286957
 31
0.0
  0
LINE
  5
C0A
330
1A
100
AcDbEntity
  8
SEIHIN
100
AcDbLine
 10
554.0617498580079
 20
328.5225425286957
 30
0.0
 11
554.0617498580079
 21
372.3763425286957
 31
0.0
  0
LINE
  5
C0B
330
1A
100
AcDbEntity
  8
SEIHIN
100
AcDbLine
 10
565.0617498580079
 20
328.5226425286957
 30
0.0
 11
565.0617498580079
 21
367.8199425286957
 31
0.0
  0
LINE
  5
C0C
330
1A
100
AcDbEntity
  8
SEIHIN
100
AcDbLine
 10
568.3852498580079
 20
333.5226425286957
 30
0.0
 11
568.3852498580079
 21
335.5226425286957
 31
0.0
  0
LINE
  5
C0D
330
1A
100
AcDbEntity
  8
SEIHIN
100
AcDbLine
 10
564.178049858008
 20
369.8428425286957
 30
0.0
 11
555.109249858008
 21
373.5992425286957
 31
0.0
  0
ARC
  5
C0E
330
1A
100
AcDbEntity
  8
SEIHIN
100
AcDbCircle
 10
558.0617498580079
 20
372.3763425286957
 30
0.0
 40
3.99998083656026
100
AcDbArc
 50
135.0
 51
180.0
  0
LINE
  5
C0F
330
1A
100
AcDbEntity
  8
SEIHIN
100
AcDbLine
 10
567.7583498580079
 20
368.3598425286957
 30
0.0
 11
565.8197498580079
 21
369.1628425286957
 31
0.0
  0
ARC
  5
C10
330
1A
100
AcDbEntity
  8
SEIHIN
100
AcDbCircle
 10
569.0617498580079
 20
367.8199425286957
 30
0.0
 40
3.99998083656026
100
AcDbArc
 50
135.0
 51
180.0
  0
ARC
  5
C11
330
1A
100
AcDbEntity
  8
SEIHIN
100
AcDbCircle
 10
571.961449858008
 20
366.6188425286957
 30
0.0
 40
3.999980836560279
100
AcDbArc
 50
135.0
 51
180.0
  0
DIMENSION
  5
C12
330
1A
100
AcDbEntity
  8
SUNPOU
100
AcDbDimension
  2
*D2
 10
622.4249306311417
 20
328.5226425286957
 30
0.0
 11
617.4249306311415
 21
346.1082357742953
 31
0.0
 70
    32
  1
\U+203B<>
  3
STANDARD
100
AcDbAlignedDimension
 13
579.0230526814921
 23
363.6938290198948
 33
0.0
 14
578.4230498580079
 24
328.5226425286957
 34
0.0
 50
90.0
100
AcDbRotatedDimension
1001
ACAD
1000
DSTYLE
1002
{
1070
    41
1040
7.0
1070
    42
1040
6.0
1070
    43
1040
14.0
1070
    44
1040
3.0
1070
    73
1070
     0
1070
    74
1070
     0
1070
    77
1070
     3
1070
   140
1040
6.0
1070
   141
1040
150.0
1070
   147
1040
2.0
1070
   172
1070
     1
1070
   173
1070
     1
1070
   176
1070
     4
1070
   177
1070
     4
1070
   178
1070
     4
1070
   271
1070
     0
1070
   272
1070
     2
1070
   341
1005
6D
1070
     6
1000
OPEN
1070
     7
1000
OPEN
1002
}
  0
LINE
  5
C13
330
1A
100
AcDbEntity
  8
SEIHIN
100
AcDbLine
 10
579.0229498580079
 20
333.5226425286957
 30
0.0
 11
579.0230498580079
 21
362.8653425286957
 31
0.0
  0
LINE
  5
C14
330
1A
100
AcDbEntity
  8
SEIHIN
100
AcDbLine
 10
576.2616498580079
 20
333.5226425286957
 30
0.0
 11
576.2616498580079
 21
335.5226425286957
 31
0.0
  0
LINE
  5
C15
330
1A
100
AcDbEntity
  8
SEIHIN
100
AcDbLine
 10
578.4230498580079
 20
328.5227425286957
 30
0.0
 11
579.0230498580079
 21
333.5227425286957
 31
0.0
  0
LINE
  5
C16
330
1A
100
AcDbEntity
  8
SEIHIN
100
AcDbLine
 10
577.0220498580079
 20
355.5226425286957
 30
0.0
 11
577.0220498580079
 21
362.8657425286957
 31
0.0
  0
ARC
  5
C17
330
1A
100
AcDbEntity
  8
SEIHIN
100
AcDbCircle
 10
575.0220498580079
 20
355.5226425286957
 30
0.0
 40
2.000000000000014
100
AcDbArc
 50
270.0
 51
0.0
  0
ARC
  5
C18
330
1A
100
AcDbEntity
  8
SEIHIN
100
AcDbCircle
 10
581.971849858008
 20
372.3007425286957
 30
0.0
 40
2.000016175872067
100
AcDbArc
 50
315.0
 51
45.00202569532566
  0
ARC
  5
C19
330
1A
100
AcDbEntity
  8
SEIHIN
100
AcDbCircle
 10
581.023049858008
 20
362.8653425286957
 30
0.0
 40
2.000025796574657
100
AcDbArc
 50
135.0020256855887
 51
180.0
  0
ARC
  5
C1A
330
1A
100
AcDbEntity
  8
SEIHIN
100
AcDbCircle
 10
581.0220498580078
 20
362.8657425286957
 30
0.0
 40
3.999980836560211
100
AcDbArc
 50
135.0
 51
180.0
  0
LINE
  5
C1B
330
1A
100
AcDbEntity
  8
SEIHIN
100
AcDbLine
 10
583.3861498580079
 20
370.8865425286957
 30
0.0
 11
578.193649858008
 21
365.6941425286957
 31
0.0
  0
LINE
  5
C1C
330
1A
100
AcDbEntity
  8
SEIHIN
100
AcDbLine
 10
583.3860498580079
 20
373.7150425286957
 30
0.0
 11
578.5259498580081
 21
378.5751425286957
 31
0.0
  0
LINE
  5
C1D
330
1A
100
AcDbEntity
  8
SEIHIN
100
AcDbLine
 10
498.5185498580079
 20
455.7543425286958
 30
0.0
 11
457.2940498580079
 21
414.5298425286957
 31
0.0
  0
LINE
  5
C1E
330
1A
100
AcDbEntity
  8
SEIHIN
100
AcDbLine
 10
512.6600498580081
 20
472.7254425286957
 30
0.0
 11
455.2953408580079
 21
415.3609335286957
 31
0.0
  0
ARC
  5
C1F
330
1A
100
AcDbEntity
  8
SEIHIN
100
AcDbCircle
 10
458.001149858008
 20
413.8228425286957
 30
0.0
 40
0.9999598827205812
100
AcDbArc
 50
135.0040515860341
 51
180.0
  0
ARC
  5
C20
330
1A
100
AcDbEntity
  8
SEIHIN
100
AcDbCircle
 10
456.000249858008
 20
414.6516425286957
 30
0.0
 40
0.9999952178923228
100
AcDbArc
 50
134.8224654912226
 51
180.0587284646928
  0
LINE
  5
C21
330
1A
100
AcDbEntity
  8
SEIHIN
100
AcDbLine
 10
516.619949858008
 20
475.8367425286958
 30
0.0
 11
603.4685498580079
 21
388.9878425286957
 31
0.0
  0
LINE
  5
C22
330
1A
100
AcDbEntity
  8
SEIHIN
100
AcDbLine
 10
506.905249858008
 20
450.1961425286957
 30
0.0
 11
501.347049858008
 21
455.7544425286957
 31
0.0
  0
LINE
  5
C23
330
1A
100
AcDbEntity
  8
SEIHIN
100
AcDbLine
 10
524.5829498580079
 20
467.8737425286957
 30
0.0
 11
506.9053498580079
 21
450.1961425286957
 31
0.0
  0
LINE
  5
C24
330
1A
100
AcDbEntity
  8
SEIHIN
100
AcDbLine
 10
523.522349858008
 20
468.9343425286957
 30
0.0
 11
505.844649858008
 21
451.2568425286957
 31
0.0
  0
LINE
  5
C25
330
1A
100
AcDbEntity
  8
CENTER_L
 48
5.0
100
AcDbLine
 10
567.8722498580079
 20
440.1694425286957
 30
0.0
 11
517.182749858008
 21
389.4801425286957
 31
0.0
  0
LINE
  5
C26
330
1A
100
AcDbEntity
  8
SEIHIN
100
AcDbLine
 10
506.339649858008
 20
450.7616425286958
 30
0.0
 11
466.3546498580079
 21
410.7769425286957
 31
0.0
  0
LINE
  5
C27
330
1A
100
AcDbEntity
  8
SEIHIN
100
AcDbLine
 10
508.830549858008
 20
392.7685425286957
 30
0.0
 11
467.3650498580079
 21
409.9441425286957
 31
0.0
  0
ARC
  5
C28
330
1A
100
AcDbEntity
  8
SEIHIN
100
AcDbCircle
 10
467.061749858008
 20
410.0698425286957
 30
0.0
 40
0.9999952091400599
100
AcDbArc
 50
135.0
 51
180.0
  0
ARC
  5
C29
330
1A
100
AcDbEntity
  8
SEIHIN
100
AcDbCircle
 10
499.932849858008
 20
454.3401425286957
 30
0.0
 40
1.999980819908042
100
AcDbArc
 50
45.0
 51
135.0
  0
LINE
  5
C2A
330
1A
100
AcDbEntity
  8
SEIHIN
100
AcDbLine
 10
516.619949858008
 20
475.8367425286958
 30
0.0
 11
512.660149858008
 21
472.7255425286958
 31
0.0
  0
LINE
  5
C2B
330
1A
100
AcDbEntity
  8
SEIHIN
100
AcDbLine
 10
603.4685498580079
 20
388.9877425286957
 30
0.0
 11
600.3573498580079
 21
385.0279425286957
 31
0.0
  0
LINE
  5
C2C
330
1A
100
AcDbEntity
  8
SEIHIN
100
AcDbLine
 10
592.834949858008
 20
392.5502425286957
 30
0.0
 11
591.4207498580079
 21
391.1360425286957
 31
0.0
  0
LINE
  5
C2D
330
1A
100
AcDbEntity
  8
SEIHIN
100
AcDbLine
 10
598.404549858008
 20
386.9808425286957
 30
0.0
 11
596.9903498580079
 21
385.5666425286957
 31
0.0
  0
LINE
  5
C2E
330
1A
100
AcDbEntity
  8
SEIHIN
100
AcDbLine
 10
598.404549858008
 20
386.9808425286957
 30
0.0
 11
592.834949858008
 21
392.5502425286957
 31
0.0
  0
LINE
  5
C2F
330
1A
100
AcDbEntity
  8
SEIHIN
100
AcDbLine
 10
596.9903498580079
 20
385.5666425286957
 30
0.0
 11
591.4207498580079
 21
391.1360425286957
 31
0.0
  0
LINE
  5
F38
330
1A
100
AcDbEntity
  8
ZUWAKU
100
AcDbLine
 10
208.6466015947312
 20
15.20000012033744
 30
0.0
 11
447.4243642756546
 21
15.20000012033743
 31
0.0
  0
LINE
  5
F39
330
1A
100
AcDbEntity
  8
ZUWAKU
100
AcDbLine
 10
208.6466015947312
 20
15.60000012033743
 30
0.0
 11
447.4243642756546
 21
15.60000012033744
 31
0.0
  0
LINE
  5
F3A
330
1A
100
AcDbEntity
  8
ZUWAKU
100
AcDbLine
 10
208.6466015947312
 20
15.40000012033743
 30
0.0
 11
447.4243642756546
 21
15.40000012033743
 31
0.0
  0
LINE
  5
F3B
330
1A
100
AcDbEntity
  8
ZUWAKU
100
AcDbLine
 10
0.0000003046632173
 20
30.80000012033741
 30
0.0
 11
797.400000304663
 21
30.80000012033741
 31
0.0
  0
LINE
  5
F3C
330
1A
100
AcDbEntity
  8
ZUWAKU
100
AcDbLine
 10
0.0000003046632173
 20
30.60000012033741
 30
0.0
 11
797.400000304663
 21
30.60000012033741
 31
0.0
  0
LINE
  5
F3D
330
1A
100
AcDbEntity
  8
ZUWAKU
100
AcDbLine
 10
0.0000003046632173
 20
30.40000012033741
 30
0.0
 11
797.400000304663
 21
30.40000012033741
 31
0.0
  0
LINE
  5
F3E
330
1A
100
AcDbEntity
  8
ZUWAKU
100
AcDbLine
 10
0.0000003046632173
 20
30.2000001203374
 30
0.0
 11
797.400000304663
 21
30.2000001203374
 31
0.0
  0
LINE
  5
F3F
330
1A
100
AcDbEntity
  8
ZUWAKU
100
AcDbLine
 10
0.0000003046632173
 20
30.0000001203374
 30
0.0
 11
797.400000304663
 21
30.0000001203374
 31
0.0
  0
LWPOLYLINE
  5
F40
330
1A
100
AcDbEntity
  8
ZUWAKU
100
AcDbPolyline
 90
        4
 70
     1
 43
0.0
 10
0.2000003046631491
 20
551.4000001203375
 10
0.2000003046631491
 20
0.2000001203374495
 10
797.400000304663
 20
0.2000001203374726
 10
797.4000003046633
 20
551.4000001203375
  0
LWPOLYLINE
  5
F41
330
1A
100
AcDbEntity
  8
ZUWAKU
100
AcDbPolyline
 90
        4
 70
     1
 43
0.0
 10
0.6000003046631264
 20
551.0000001203374
 10
0.6000003046631264
 20
0.6000001203374268
 10
797.0000003046634
 20
0.600000120337473
 10
797.0000003046632
 20
551.0000001203374
  0
LWPOLYLINE
  5
F42
330
1A
100
AcDbEntity
  8
ZUWAKU
100
AcDbPolyline
 90
        4
 70
     1
 43
0.0
 10
0.0000003046632173
 20
551.6000001203374
 10
0.0000003046632173
 20
0.000000120337404
 10
797.6000003046634
 20
0.0000001203374715
 10
797.6000003046634
 20
551.6000001203375
  0
LWPOLYLINE
  5
F43
330
1A
100
AcDbEntity
  8
ZUWAKU
100
AcDbPolyline
 90
        4
 70
     1
 43
0.0
 10
0.4000003046631946
 20
551.2000001203374
 10
0.4000003046631946
 20
0.400000120337495
 10
797.2000003046632
 20
0.4000001203374719
 10
797.2000003046632
 20
551.2000001203374
  0
LWPOLYLINE
  5
F44
330
1A
100
AcDbEntity
  8
ZUWAKU
100
AcDbPolyline
 90
        4
 70
     1
 43
0.0
 10
0.8000003046631718
 20
550.8000001203375
 10
0.8000003046631718
 20
0.8000001203374722
 10
796.8000003046632
 20
0.8000001203374722
 10
796.8000003046632
 20
550.8000001203375
  0
TEXT
  5
F45
330
1A
100
AcDbEntity
  8
MOJI
100
AcDbText
 10
92.95778989283235
 20
12.74117825061216
 30
0.0
 40
6.0
  1
新・丸トップＲＶ１０５
 41
0.9
  7
ｽﾀｲﾙ1
100
AcDbText
  0
HATCH
  5
F46
330
1A
100
AcDbEntity
  8
ZUWAKU
100
AcDbHatch
 10
0.0
 20
0.0
 30
0.0
210
0.0
220
0.0
230
1.0
  2
ANSI37
 70
     0
 71
     0
 91
        8
 92
        7
 72
     1
 73
     1
 93
       24
 10
14.50226296578307
 20
17.64484860132098
 42
-0.1989123673796348
 10
14.09221245944434
 20
18.63479809498203
 42
0.0
 10
14.09221245944434
 20
19.92500012033741
 42
-0.4142135623730912
 10
14.61721245944431
 20
20.4500001203374
 42
0.0
 10
17.59221245944422
 20
20.4500001203374
 42
0.4142135623731546
 10
18.11721245944431
 20
20.97500012033739
 42
0.0
 10
18.11721245944431
 20
22.72500012033741
 42
0.4142135623731586
 10
17.59221245944422
 20
23.25000012033741
 42
0.0
 10
14.09221245944434
 20
23.25000012033741
 42
0.4142135623730928
 10
11.29221245944438
 20
20.45000012033743
 42
0.0
 10
11.29221245944438
 20
18.63479809498216
 42
0.1989123673796619
 10
12.52236397846081
 20
15.66494961399856
 42
0.0
 10
15.43216195310549
 20
12.7551516393539
 42
-0.1989123673796613
 10
15.84221245944434
 20
11.76520214569271
 42
0.0
 10
15.84221245944434
 20
10.47500012033739
 42
-0.4142135623730911
 10
15.31721245944436
 20
9.950000120337406
 42
0.0
 10
12.34221245944445
 20
9.950000120337406
 42
0.4142135623731526
 10
11.81721245944436
 20
9.425000120337418
 42
0.0
 10
11.81721245944436
 20
7.675000120337397
 42
0.4142135623731526
 10
12.34221245944445
 20
7.150000120337409
 42
0.0
 10
15.84221245944434
 20
7.150000120337409
 42
0.4142135623731044
 10
18.6422124594444
 20
9.950000120337385
 42
0.0
 10
18.6422124594444
 20
11.76520214569265
 42
0.1989123673796604
 10
17.41206094042786
 20
14.73505062667619
 42
0.0
 97
        0
 92
        7
 72
     1
 73
     1
 93
       16
 10
23.54221245944438
 20
19.05000012033741
 42
-0.4142135623730935
 10
24.94221245944436
 20
20.4500001203374
 42
0.0
 10
26.86721245944431
 20
20.4500001203374
 42
0.4142135623731546
 10
27.3922124594444
 20
20.97500012033739
 42
0.0
 10
27.3922124594444
 20
22.72500012033741
 42
0.4142135623730951
 10
26.86721245944443
 20
23.25000012033741
 42
0.0
 10
24.94221245944425
 20
23.25000012033736
 42
0.4142135623730892
 10
20.74221245944432
 20
19.05000012033734
 42
0.0
 10
20.74221245944432
 20
11.35000012033743
 42
0.4142135623730969
 10
24.94221245944436
 20
7.150000120337409
 42
0.0
 10
26.86721245944431
 20
7.150000120337409
 42
0.4142135623731526
 10
27.3922124594444
 20
7.675000120337397
 42
0.0
 10
27.3922124594444
 20
9.425000120337418
 42
0.4142135623730891
 10
26.86721245944443
 20
9.950000120337406
 42
0.0
 10
24.94221245944436
 20
9.950000120337406
 42
-0.4142135623730928
 10
23.54221245944438
 20
11.35000012033739
 42
0.0
 97
        0
 92
        7
 72
     1
 73
     1
 93
        2
 10
24.24221245944432
 20
15.2000001203374
 42
1.0
 10
27.74221245944431
 20
15.2000001203374
 42
1.0
 97
        0
 92
        7
 72
     1
 73
     1
 93
       26
 10
37.31485894162233
 20
19.20504731390083
 42
0.0
 10
38.37649857476014
 20
22.56690615217042
 42
0.5069206636600134
 10
37.87586767556479
 20
23.25000012033741
 42
0.0
 10
36.17697829595556
 20
23.25000012033741
 42
0.3272098845218764
 10
35.6763473967602
 20
22.88309408850437
 42
0.0
 10
33.80807752212843
 20
16.96690615217048
 42
-0.3272098845219541
 10
33.30744662293295
 20
16.6000001203374
 42
0.0
 10
33.16721245944449
 20
16.6000001203374
 42
-0.4142135623731526
 10
32.6422124594444
 20
17.12500012033739
 42
0.0
 10
32.6422124594444
 20
22.72500012033741
 42
0.4142135623730951
 10
32.11721245944443
 20
23.25000012033741
 42
0.0
 10
30.36721245944431
 20
23.25000012033741
 42
0.4142135623730871
 10
29.84221245944434
 20
22.72500012033742
 42
0.0
 10
29.84221245944434
 20
7.675000120337397
 42
0.4142135623730891
 10
30.36721245944431
 20
7.150000120337409
 42
0.0
 10
32.11721245944431
 20
7.150000120337409
 42
0.4142135623731526
 10
32.6422124594444
 20
7.675000120337397
 42
0.0
 10
32.6422124594444
 20
13.27500012033742
 42
-0.4142135623731526
 10
33.16721245944449
 20
13.80000012033741
 42
0.0
 10
33.30744662293307
 20
13.80000012033741
 42
-0.3272098845218915
 10
33.80807752212843
 20
13.43309408850433
 42
0.0
 10
35.6763473967602
 20
7.516906152170481
 42
0.3272098845218902
 10
36.17697829595556
 20
7.150000120337409
 42
0.0
 10
37.87586767556479
 20
7.150000120337409
 42
0.5069206636600335
 10
38.37649857476014
 20
7.833094088504417
 42
0.0
 10
36.05010719628649
 20
15.20000012033754
 42
0.0
 97
        0
 92
        7
 72
     1
 73
     1
 93
        8
 10
43.49221245944431
 20
22.72500012033741
 42
0.4142135623731546
 10
42.96721245944422
 20
23.25000012033741
 42
0.0
 10
41.21721245944445
 20
23.25000012033741
 42
0.4142135623731507
 10
40.69221245944436
 20
22.72500012033742
 42
0.0
 10
40.69221245944436
 20
7.675000120337397
 42
0.4142135623731526
 10
41.21721245944445
 20
7.150000120337409
 42
0.0
 10
42.96721245944422
 20
7.150000120337409
 42
0.4142135623731526
 10
43.49221245944431
 20
7.675000120337397
 42
0.0
 97
        0
 92
        7
 72
     1
 73
     1
 93
       24
 10
48.39221245944441
 20
19.92500012033741
 42
-0.4142135623731546
 10
48.9172124594445
 20
20.4500001203374
 42
0.0
 10
51.89221245944441
 20
20.4500001203374
 42
0.4142135623730911
 10
52.41721245944439
 20
20.97500012033739
 42
0.0
 10
52.41721245944439
 20
22.72500012033741
 42
0.4142135623730952
 10
51.89221245944441
 20
23.25000012033741
 42
0.0
 10
48.39221245944441
 20
23.25000012033741
 42
0.4142135623731048
 10
45.59221245944434
 20
20.45000012033743
 42
0.0
 10
45.59221245944434
 20
18.63479809498216
 42
0.1989123673796613
 10
46.82236397846089
 20
15.66494961399861
 42
0.0
 10
49.73216195310556
 20
12.75515163935394
 42
-0.1989123673796402
 10
50.1422124594444
 20
11.76520214569287
 42
0.0
 10
50.1422124594444
 20
10.47500012033739
 42
-0.4142135623730911
 10
49.61721245944443
 20
9.950000120337406
 42
0.0
 10
46.64221245944441
 20
9.950000120337406
 42
0.4142135623731526
 10
46.11721245944432
 20
9.425000120337418
 42
0.0
 10
46.11721245944432
 20
7.675000120337397
 42
0.4142135623730891
 10
46.64221245944429
 20
7.150000120337409
 42
0.0
 10
50.1422124594444
 20
7.150000120337409
 42
0.4142135623730925
 10
52.94221245944436
 20
9.950000120337385
 42
0.0
 10
52.94221245944436
 20
11.76520214569265
 42
0.1989123673796675
 10
51.71206094042782
 20
14.73505062667631
 42
0.0
 10
48.80226296578325
 20
17.64484860132082
 42
-0.1989123673796652
 10
48.39221245944441
 20
18.63479809498199
 42
0.0
 97
        0
 92
        7
 72
     1
 73
     1
 93
       16
 10
57.84221245944434
 20
22.72500012033739
 42
0.414213562373103
 10
57.31721245944436
 20
23.25000012033741
 42
0.0
 10
55.56721245944436
 20
23.25000012033741
 42
0.4142135623730871
 10
55.04221245944439
 20
22.72500012033742
 42
0.0
 10
55.04221245944439
 20
9.950000120337385
 42
0.4142135623730926
 10
57.84221245944434
 20
7.150000120337409
 42
0.0
 10
61.34221245944434
 20
7.150000120337409
 42
0.4142135623731044
 10
64.14221245944441
 20
9.950000120337385
 42
0.0
 10
64.14221245944441
 20
22.72500012033741
 42
0.4142135623730951
 10
63.61721245944443
 20
23.25000012033741
 42
0.0
 10
61.86721245944432
 20
23.25000012033741
 42
0.4142135623730871
 10
61.34221245944434
 20
22.72500012033742
 42
0.0
 10
61.34221245944434
 20
11.00000012033738
 42
-0.414213562373088
 10
60.29221245944438
 20
9.950000120337406
 42
0.0
 10
58.8922124594444
 20
9.950000120337406
 42
-0.4142135623731197
 10
57.84221245944434
 20
11.00000012033738
 42
0.0
 97
        0
 92
        7
 72
     1
 73
     1
 93
        8
 10
69.04221245944438
 20
22.72500012033742
 42
0.4142135623730871
 10
68.51721245944441
 20
23.25000012033741
 42
0.0
 10
66.76721245944441
 20
23.25000012033741
 42
0.4142135623731507
 10
66.24221245944432
 20
22.72500012033742
 42
0.0
 10
66.24221245944432
 20
7.675000120337397
 42
0.4142135623730891
 10
66.76721245944429
 20
7.150000120337409
 42
0.0
 10
68.51721245944441
 20
7.150000120337409
 42
0.4142135623730891
 10
69.04221245944438
 20
7.675000120337397
 42
0.0
 97
        0
 75
     0
 76
     1
 52
0.0
 41
0.2
 77
     0
 78
     2
 53
45.0
 43
-900.9423040300157
 44
-13.19999987966252
 45
-0.4490128060534576
 46
0.4490128060534577
 79
     0
 53
135.0
 43
-900.9423040300157
 44
-13.19999987966252
 45
-0.4490128060534577
 46
-0.4490128060534576
 79
     0
 47
0.057451373970553
 98
        8
 10
16.07985526768652
 20
15.16717376622295
 10
22.40451531110238
 20
18.84406230278841
 10
25.16436819032287
 20
15.51188176640812
 10
30.91406028630035
 20
16.2012977667789
 10
41.83847232361995
 20
16.66091003432052
 10
46.89820119979276
 20
19.41857643674461
 10
56.55768627706357
 20
18.72915803543241
 10
67.82707992428595
 20
19.18877030297403
  0
LINE
  5
F47
330
1A
100
AcDbEntity
  8
ZUWAKU
100
AcDbLine
 10
24.94221245944436
 20
23.25000012033736
 30
0.0
 11
26.86721245944431
 21
23.25000012033741
 31
0.0
  0
LINE
  5
F48
330
1A
100
AcDbEntity
  8
ZUWAKU
100
AcDbLine
 10
26.86721245944431
 20
20.4500001203374
 30
0.0
 11
24.94221245944436
 21
20.4500001203374
 31
0.0
  0
LINE
  5
F49
330
1A
100
AcDbEntity
  8
ZUWAKU
100
AcDbLine
 10
24.94221245944436
 20
9.950000120337406
 30
0.0
 11
26.86721245944431
 21
9.950000120337406
 31
0.0
  0
LINE
  5
F4A
330
1A
100
AcDbEntity
  8
ZUWAKU
100
AcDbLine
 10
26.86721245944431
 20
7.150000120337409
 30
0.0
 11
24.94221245944436
 21
7.150000120337409
 31
0.0
  0
CIRCLE
  5
F4B
330
1A
100
AcDbEntity
  8
ZUWAKU
100
AcDbCircle
 10
25.99221245944431
 20
15.2000001203374
 30
0.0
 40
1.75
  0
ARC
  5
F4C
330
1A
100
AcDbEntity
  8
ZUWAKU
100
AcDbCircle
 10
15.49221245944431
 20
18.6347980949821
 30
0.0
 40
1.399999999999999
100
AcDbArc
 50
180.0000000000016
 51
224.9999999999988
  0
LINE
  5
F4D
330
1A
100
AcDbEntity
  8
ZUWAKU
100
AcDbLine
 10
23.54221245944438
 20
19.0500001203374
 30
0.0
 11
23.54221245944438
 21
11.35000012033741
 31
0.0
  0
LINE
  5
F4E
330
1A
100
AcDbEntity
  8
ZUWAKU
100
AcDbLine
 10
20.74221245944432
 20
11.35000012033741
 30
0.0
 11
20.74221245944432
 21
19.05000012033736
 31
0.0
  0
ARC
  5
F4F
330
1A
100
AcDbEntity
  8
ZUWAKU
100
AcDbCircle
 10
15.49221245944431
 20
18.6347980949821
 30
0.0
 40
4.199999999999999
100
AcDbArc
 50
180.0
 51
225.0
  0
ARC
  5
F50
330
1A
100
AcDbEntity
  8
ZUWAKU
100
AcDbCircle
 10
15.84221245944434
 20
9.950000120337406
 30
0.0
 40
2.799999999999999
100
AcDbArc
 50
270.0
 51
0.0
  0
ARC
  5
F51
330
1A
100
AcDbEntity
  8
ZUWAKU
100
AcDbCircle
 10
24.94221245944436
 20
11.35000012033741
 30
0.0
 40
4.199999999999999
100
AcDbArc
 50
180.0
 51
270.0
  0
ARC
  5
F52
330
1A
100
AcDbEntity
  8
ZUWAKU
100
AcDbCircle
 10
14.44221245944436
 20
11.76520214569271
 30
0.0
 40
4.199999999999999
100
AcDbArc
 50
0.0
 51
45.0
  0
LINE
  5
F53
330
1A
100
AcDbEntity
  8
ZUWAKU
100
AcDbLine
 10
17.41206094042786
 20
14.73505062667623
 30
0.0
 11
14.50226296578319
 21
17.64484860132091
 31
0.0
  0
LINE
  5
F54
330
1A
100
AcDbEntity
  8
ZUWAKU
100
AcDbLine
 10
15.84221245944434
 20
10.47500012033741
 30
0.0
 11
15.84221245944434
 21
11.76520214569275
 31
0.0
  0
ARC
  5
F55
330
1A
100
AcDbEntity
  8
ZUWAKU
100
AcDbCircle
 10
15.31721245944436
 20
10.47500012033741
 30
0.0
 40
0.525
100
AcDbArc
 50
270.0
 51
0.0
  0
ARC
  5
F56
330
1A
100
AcDbEntity
  8
ZUWAKU
100
AcDbCircle
 10
14.44221245944436
 20
11.76520214569275
 30
0.0
 40
1.399999999999999
100
AcDbArc
 50
0.0
 51
45.0
  0
LINE
  5
F57
330
1A
100
AcDbEntity
  8
ZUWAKU
100
AcDbLine
 10
11.81721245944436
 20
7.675000120337408
 30
0.0
 11
11.81721245944436
 21
9.425000120337408
 31
0.0
  0
ARC
  5
F58
330
1A
100
AcDbEntity
  8
ZUWAKU
100
AcDbCircle
 10
12.34221245944434
 20
7.675000120337408
 30
0.0
 40
0.525
100
AcDbArc
 50
180.0
 51
270.0
  0
ARC
  5
F59
330
1A
100
AcDbEntity
  8
ZUWAKU
100
AcDbCircle
 10
12.34221245944434
 20
9.425000120337408
 30
0.0
 40
0.525
100
AcDbArc
 50
90.0
 51
180.0
  0
LINE
  5
F5A
330
1A
100
AcDbEntity
  8
ZUWAKU
100
AcDbLine
 10
12.34221245944434
 20
7.150000120337409
 30
0.0
 11
15.84221245944434
 21
7.150000120337409
 31
0.0
  0
LINE
  5
F5B
330
1A
100
AcDbEntity
  8
ZUWAKU
100
AcDbLine
 10
12.34221245944434
 20
9.950000120337406
 30
0.0
 11
15.31721245944436
 21
9.950000120337406
 31
0.0
  0
LINE
  5
F5C
330
1A
100
AcDbEntity
  8
ZUWAKU
100
AcDbLine
 10
12.52236397846081
 20
15.66494961399858
 30
0.0
 11
15.43216195310549
 21
12.75515163935392
 31
0.0
  0
LINE
  5
F5D
330
1A
100
AcDbEntity
  8
ZUWAKU
100
AcDbLine
 10
18.6422124594444
 20
9.950000120337406
 30
0.0
 11
18.6422124594444
 21
11.76520214569275
 31
0.0
  0
ARC
  5
F5E
330
1A
100
AcDbEntity
  8
ZUWAKU
100
AcDbCircle
 10
24.94221245944436
 20
11.35000012033741
 30
0.0
 40
1.399999999999999
100
AcDbArc
 50
180.0
 51
270.0
  0
ARC
  5
F5F
330
1A
100
AcDbEntity
  8
ZUWAKU
100
AcDbCircle
 10
17.59221245944434
 20
22.7250001203374
 30
0.0
 40
0.525
100
AcDbArc
 50
0.0
 51
90.0
  0
ARC
  5
F60
330
1A
100
AcDbEntity
  8
ZUWAKU
100
AcDbCircle
 10
17.59221245944434
 20
20.9750001203374
 30
0.0
 40
0.525
100
AcDbArc
 50
270.0
 51
0.0
  0
LINE
  5
F61
330
1A
100
AcDbEntity
  8
ZUWAKU
100
AcDbLine
 10
14.09221245944434
 20
23.25000012033741
 30
0.0
 11
17.59221245944434
 21
23.25000012033741
 31
0.0
  0
ARC
  5
F62
330
1A
100
AcDbEntity
  8
ZUWAKU
100
AcDbCircle
 10
14.61721245944431
 20
19.9250001203374
 30
0.0
 40
0.525
100
AcDbArc
 50
90.0
 51
180.0
  0
LINE
  5
F63
330
1A
100
AcDbEntity
  8
ZUWAKU
100
AcDbLine
 10
14.09221245944434
 20
19.9250001203374
 30
0.0
 11
14.09221245944434
 21
18.63479809498206
 31
0.0
  0
LINE
  5
F64
330
1A
100
AcDbEntity
  8
ZUWAKU
100
AcDbLine
 10
17.59221245944434
 20
20.4500001203374
 30
0.0
 11
14.61721245944431
 21
20.4500001203374
 31
0.0
  0
LINE
  5
F65
330
1A
100
AcDbEntity
  8
ZUWAKU
100
AcDbLine
 10
11.29221245944438
 20
20.4500001203374
 30
0.0
 11
11.29221245944438
 21
18.63479809498206
 31
0.0
  0
ARC
  5
F66
330
1A
100
AcDbEntity
  8
ZUWAKU
100
AcDbCircle
 10
14.09221245944434
 20
20.4500001203374
 30
0.0
 40
2.799999999999999
100
AcDbArc
 50
90.0
 51
180.0
  0
LINE
  5
F67
330
1A
100
AcDbEntity
  8
ZUWAKU
100
AcDbLine
 10
18.11721245944431
 20
22.7250001203374
 30
0.0
 11
18.11721245944431
 21
20.9750001203374
 31
0.0
  0
ARC
  5
F68
330
1A
100
AcDbEntity
  8
ZUWAKU
100
AcDbCircle
 10
24.94221245944436
 20
19.0500001203374
 30
0.0
 40
1.399999999999999
100
AcDbArc
 50
90.0
 51
180.0
  0
ARC
  5
F69
330
1A
100
AcDbEntity
  8
ZUWAKU
100
AcDbCircle
 10
24.94221245944436
 20
19.05000012033736
 30
0.0
 40
4.199999999999999
100
AcDbArc
 50
90.0
 51
180.0
  0
LINE
  5
F6A
330
1A
100
AcDbEntity
  8
ZUWAKU
100
AcDbLine
 10
79.32662985265142
 20
30.0000001203374
 30
0.0
 11
79.32662985265165
 21
0.8000001203374722
 31
0.0
  0
LINE
  5
F6B
330
1A
100
AcDbEntity
  8
ZUWAKU
100
AcDbLine
 10
79.52662985265146
 20
30.0000001203374
 30
0.0
 11
79.5266298526517
 21
0.8000001203374722
 31
0.0
  0
LINE
  5
F6C
330
1A
100
AcDbEntity
  8
ZUWAKU
100
AcDbLine
 10
79.12662985265161
 20
30.0000001203374
 30
0.0
 11
79.12662985265161
 21
0.8000001203374722
 31
0.0
  0
LINE
  5
F6D
330
1A
100
AcDbEntity
  8
ZUWAKU
100
AcDbLine
 10
64.14221245944441
 20
9.950000120337406
 30
0.0
 11
64.14221245944441
 21
22.7250001203374
 31
0.0
  0
LINE
  5
F6E
330
1A
100
AcDbEntity
  8
ZUWAKU
100
AcDbLine
 10
61.34221245944434
 20
22.7250001203374
 30
0.0
 11
61.34221245944434
 21
11.0000001203374
 31
0.0
  0
LINE
  5
F6F
330
1A
100
AcDbEntity
  8
ZUWAKU
100
AcDbLine
 10
69.04221245944438
 20
7.675000120337408
 30
0.0
 11
69.04221245944438
 21
22.7250001203374
 31
0.0
  0
LINE
  5
F70
330
1A
100
AcDbEntity
  8
ZUWAKU
100
AcDbLine
 10
66.24221245944432
 20
22.7250001203374
 30
0.0
 11
66.24221245944432
 21
7.675000120337408
 31
0.0
  0
ARC
  5
F71
330
1A
100
AcDbEntity
  8
ZUWAKU
100
AcDbCircle
 10
49.79221245944438
 20
18.6347980949821
 30
0.0
 40
1.399999999999999
100
AcDbArc
 50
180.0000000000016
 51
224.9999999999988
  0
ARC
  5
F72
330
1A
100
AcDbEntity
  8
ZUWAKU
100
AcDbCircle
 10
49.79221245944438
 20
18.6347980949821
 30
0.0
 40
4.199999999999999
100
AcDbArc
 50
180.0
 51
225.0
  0
LINE
  5
F73
330
1A
100
AcDbEntity
  8
ZUWAKU
100
AcDbLine
 10
37.31485894162233
 20
19.20504731390083
 30
0.0
 11
36.05010719628649
 21
15.20000012033742
 31
0.0
  0
LINE
  5
F74
330
1A
100
AcDbEntity
  8
ZUWAKU
100
AcDbLine
 10
40.69221245944436
 20
22.7250001203374
 30
0.0
 11
40.69221245944436
 21
7.675000120337408
 31
0.0
  0
LINE
  5
F75
330
1A
100
AcDbEntity
  8
ZUWAKU
100
AcDbLine
 10
43.49221245944431
 20
7.675000120337408
 30
0.0
 11
43.49221245944431
 21
22.7250001203374
 31
0.0
  0
LINE
  5
F76
330
1A
100
AcDbEntity
  8
ZUWAKU
100
AcDbLine
 10
55.04221245944439
 20
22.7250001203374
 30
0.0
 11
55.04221245944439
 21
9.950000120337406
 31
0.0
  0
LINE
  5
F77
330
1A
100
AcDbEntity
  8
ZUWAKU
100
AcDbLine
 10
57.84221245944434
 20
11.0000001203374
 30
0.0
 11
57.84221245944434
 21
22.7250001203374
 31
0.0
  0
LINE
  5
F78
330
1A
100
AcDbEntity
  8
ZUWAKU
100
AcDbLine
 10
32.6422124594444
 20
17.12500012033741
 30
0.0
 11
32.6422124594444
 21
22.7250001203374
 31
0.0
  0
LINE
  5
F79
330
1A
100
AcDbEntity
  8
ZUWAKU
100
AcDbLine
 10
29.84221245944434
 20
22.7250001203374
 30
0.0
 11
29.84221245944434
 21
7.675000120337408
 31
0.0
  0
LINE
  5
F7A
330
1A
100
AcDbEntity
  8
ZUWAKU
100
AcDbLine
 10
35.6763473967602
 20
22.88309408850437
 30
0.0
 11
33.80807752212843
 21
16.96690615217043
 31
0.0
  0
LINE
  5
F7B
330
1A
100
AcDbEntity
  8
ZUWAKU
100
AcDbLine
 10
60.29221245944438
 20
9.950000120337406
 30
0.0
 11
58.8922124594444
 21
9.950000120337406
 31
0.0
  0
LINE
  5
F7C
330
1A
100
AcDbEntity
  8
ZUWAKU
100
AcDbLine
 10
57.84221245944434
 20
7.150000120337409
 30
0.0
 11
61.34221245944434
 21
7.150000120337409
 31
0.0
  0
LINE
  5
F7D
330
1A
100
AcDbEntity
  8
ZUWAKU
100
AcDbLine
 10
41.21721245944434
 20
7.150000120337409
 30
0.0
 11
42.96721245944434
 21
7.150000120337409
 31
0.0
  0
LINE
  5
F7E
330
1A
100
AcDbEntity
  8
ZUWAKU
100
AcDbLine
 10
35.6763473967602
 20
7.516906152170435
 30
0.0
 11
33.80807752212843
 21
13.43309408850437
 31
0.0
  0
ARC
  5
F7F
330
1A
100
AcDbEntity
  8
ZUWAKU
100
AcDbCircle
 10
33.30744662293307
 20
17.12500012033741
 30
0.0
 40
0.525
100
AcDbArc
 50
270.0
 51
342.4744316262769
  0
LINE
  5
F80
330
1A
100
AcDbEntity
  8
ZUWAKU
100
AcDbLine
 10
33.30744662293307
 20
16.6000001203374
 30
0.0
 11
33.16721245944438
 21
16.6000001203374
 31
0.0
  0
LINE
  5
F81
330
1A
100
AcDbEntity
  8
ZUWAKU
100
AcDbLine
 10
33.16721245944438
 20
13.80000012033741
 30
0.0
 11
33.30744662293307
 21
13.80000012033741
 31
0.0
  0
ARC
  5
F82
330
1A
100
AcDbEntity
  8
ZUWAKU
100
AcDbCircle
 10
33.16721245944438
 20
17.12500012033741
 30
0.0
 40
0.525
100
AcDbArc
 50
180.0
 51
270.0
  0
LINE
  5
F83
330
1A
100
AcDbEntity
  8
ZUWAKU
100
AcDbLine
 10
30.36721245944431
 20
7.150000120337409
 30
0.0
 11
32.11721245944431
 21
7.150000120337409
 31
0.0
  0
ARC
  5
F84
330
1A
100
AcDbEntity
  8
ZUWAKU
100
AcDbCircle
 10
32.11721245944431
 20
7.675000120337408
 30
0.0
 40
0.525
100
AcDbArc
 50
270.0
 51
0.0
  0
LINE
  5
F85
330
1A
100
AcDbEntity
  8
ZUWAKU
100
AcDbLine
 10
32.6422124594444
 20
7.675000120337408
 30
0.0
 11
32.6422124594444
 21
13.27500012033741
 31
0.0
  0
LINE
  5
F86
330
1A
100
AcDbEntity
  8
ZUWAKU
100
AcDbLine
 10
27.3922124594444
 20
9.425000120337408
 30
0.0
 11
27.3922124594444
 21
7.675000120337408
 31
0.0
  0
ARC
  5
F87
330
1A
100
AcDbEntity
  8
ZUWAKU
100
AcDbCircle
 10
26.86721245944431
 20
7.675000120337408
 30
0.0
 40
0.525
100
AcDbArc
 50
270.0
 51
0.0
  0
ARC
  5
F88
330
1A
100
AcDbEntity
  8
ZUWAKU
100
AcDbCircle
 10
26.86721245944431
 20
9.425000120337408
 30
0.0
 40
0.525
100
AcDbArc
 50
0.0
 51
90.0
  0
ARC
  5
F89
330
1A
100
AcDbEntity
  8
ZUWAKU
100
AcDbCircle
 10
30.36721245944431
 20
7.675000120337408
 30
0.0
 40
0.525
100
AcDbArc
 50
180.0
 51
270.0
  0
ARC
  5
F8A
330
1A
100
AcDbEntity
  8
ZUWAKU
100
AcDbCircle
 10
33.30744662293307
 20
13.27500012033741
 30
0.0
 40
0.525
100
AcDbArc
 50
17.52556837372303
 51
90.0
  0
ARC
  5
F8B
330
1A
100
AcDbEntity
  8
ZUWAKU
100
AcDbCircle
 10
33.16721245944438
 20
13.27500012033741
 30
0.0
 40
0.525
100
AcDbArc
 50
90.0
 51
180.0
  0
ARC
  5
F8C
330
1A
100
AcDbEntity
  8
ZUWAKU
100
AcDbCircle
 10
41.21721245944434
 20
7.675000120337408
 30
0.0
 40
0.525
100
AcDbArc
 50
180.0
 51
270.0
  0
LINE
  5
F8D
330
1A
100
AcDbEntity
  8
ZUWAKU
100
AcDbLine
 10
36.17697829595567
 20
7.150000120337409
 30
0.0
 11
37.87586767556467
 21
7.150000120337409
 31
0.0
  0
ARC
  5
F8E
330
1A
100
AcDbEntity
  8
ZUWAKU
100
AcDbCircle
 10
37.87586767556467
 20
7.675000120337408
 30
0.0
 40
0.525
100
AcDbArc
 50
270.0
 51
17.52556837372303
  0
LINE
  5
F8F
330
1A
100
AcDbEntity
  8
ZUWAKU
100
AcDbLine
 10
38.37649857476014
 20
7.833094088504381
 30
0.0
 11
36.05010719628649
 21
15.20000012033742
 31
0.0
  0
ARC
  5
F90
330
1A
100
AcDbEntity
  8
ZUWAKU
100
AcDbCircle
 10
36.17697829595567
 20
7.675000120337408
 30
0.0
 40
0.525
100
AcDbArc
 50
197.525568373723
 51
270.0
  0
ARC
  5
F91
330
1A
100
AcDbEntity
  8
ZUWAKU
100
AcDbCircle
 10
57.84221245944434
 20
9.950000120337406
 30
0.0
 40
2.799999999999999
100
AcDbArc
 50
180.0
 51
270.0
  0
ARC
  5
F92
330
1A
100
AcDbEntity
  8
ZUWAKU
100
AcDbCircle
 10
50.1422124594444
 20
9.950000120337406
 30
0.0
 40
2.799999999999999
100
AcDbArc
 50
270.0
 51
0.0
  0
LINE
  5
F93
330
1A
100
AcDbEntity
  8
ZUWAKU
100
AcDbLine
 10
51.71206094042793
 20
14.73505062667623
 30
0.0
 11
48.80226296578314
 21
17.64484860132091
 31
0.0
  0
LINE
  5
F94
330
1A
100
AcDbEntity
  8
ZUWAKU
100
AcDbLine
 10
50.1422124594444
 20
10.47500012033741
 30
0.0
 11
50.1422124594444
 21
11.76520214569275
 31
0.0
  0
ARC
  5
F95
330
1A
100
AcDbEntity
  8
ZUWAKU
100
AcDbCircle
 10
48.74221245944432
 20
11.76520214569275
 30
0.0
 40
1.399999999999999
100
AcDbArc
 50
0.0
 51
45.0
  0
ARC
  5
F96
330
1A
100
AcDbEntity
  8
ZUWAKU
100
AcDbCircle
 10
49.61721245944431
 20
10.47500012033741
 30
0.0
 40
0.525
100
AcDbArc
 50
270.0
 51
0.0
  0
LINE
  5
F97
330
1A
100
AcDbEntity
  8
ZUWAKU
100
AcDbLine
 10
46.11721245944432
 20
7.675000120337408
 30
0.0
 11
46.11721245944432
 21
9.425000120337408
 31
0.0
  0
ARC
  5
F98
330
1A
100
AcDbEntity
  8
ZUWAKU
100
AcDbCircle
 10
46.64221245944441
 20
7.675000120337408
 30
0.0
 40
0.525
100
AcDbArc
 50
180.0
 51
270.0
  0
ARC
  5
F99
330
1A
100
AcDbEntity
  8
ZUWAKU
100
AcDbCircle
 10
42.96721245944434
 20
7.675000120337408
 30
0.0
 40
0.525
100
AcDbArc
 50
270.0
 51
0.0
  0
ARC
  5
F9A
330
1A
100
AcDbEntity
  8
ZUWAKU
100
AcDbCircle
 10
46.64221245944441
 20
9.425000120337408
 30
0.0
 40
0.525
100
AcDbArc
 50
90.0
 51
180.0
  0
LINE
  5
F9B
330
1A
100
AcDbEntity
  8
ZUWAKU
100
AcDbLine
 10
46.64221245944441
 20
9.950000120337406
 30
0.0
 11
49.61721245944431
 21
9.950000120337406
 31
0.0
  0
LINE
  5
F9C
330
1A
100
AcDbEntity
  8
ZUWAKU
100
AcDbLine
 10
46.64221245944441
 20
7.150000120337409
 30
0.0
 11
50.1422124594444
 21
7.150000120337409
 31
0.0
  0
LINE
  5
F9D
330
1A
100
AcDbEntity
  8
ZUWAKU
100
AcDbLine
 10
46.82236397846089
 20
15.66494961399858
 30
0.0
 11
49.73216195310556
 21
12.75515163935392
 31
0.0
  0
LINE
  5
F9E
330
1A
100
AcDbEntity
  8
ZUWAKU
100
AcDbLine
 10
52.94221245944436
 20
9.950000120337406
 30
0.0
 11
52.94221245944436
 21
11.76520214569275
 31
0.0
  0
ARC
  5
F9F
330
1A
100
AcDbEntity
  8
ZUWAKU
100
AcDbCircle
 10
48.74221245944432
 20
11.76520214569271
 30
0.0
 40
4.199999999999999
100
AcDbArc
 50
0.0
 51
45.0
  0
ARC
  5
FA0
330
1A
100
AcDbEntity
  8
ZUWAKU
100
AcDbCircle
 10
58.8922124594444
 20
11.0000001203374
 30
0.0
 40
1.049999999999999
100
AcDbArc
 50
180.0
 51
270.0
  0
ARC
  5
FA1
330
1A
100
AcDbEntity
  8
ZUWAKU
100
AcDbCircle
 10
61.34221245944434
 20
9.950000120337406
 30
0.0
 40
2.799999999999999
100
AcDbArc
 50
270.0
 51
0.0
  0
LINE
  5
FA2
330
1A
100
AcDbEntity
  8
ZUWAKU
100
AcDbLine
 10
66.76721245944441
 20
7.150000120337409
 30
0.0
 11
68.51721245944441
 21
7.150000120337409
 31
0.0
  0
ARC
  5
FA3
330
1A
100
AcDbEntity
  8
ZUWAKU
100
AcDbCircle
 10
66.76721245944441
 20
7.675000120337408
 30
0.0
 40
0.525
100
AcDbArc
 50
180.0
 51
270.0
  0
ARC
  5
FA4
330
1A
100
AcDbEntity
  8
ZUWAKU
100
AcDbCircle
 10
60.29221245944438
 20
11.0000001203374
 30
0.0
 40
1.049999999999999
100
AcDbArc
 50
270.0
 51
0.0
  0
ARC
  5
FA5
330
1A
100
AcDbEntity
  8
ZUWAKU
100
AcDbCircle
 10
68.51721245944441
 20
7.675000120337408
 30
0.0
 40
0.525
100
AcDbArc
 50
270.0
 51
0.0
  0
LINE
  5
FA6
330
1A
100
AcDbEntity
  8
ZUWAKU
100
AcDbLine
 10
42.96721245944434
 20
23.25000012033741
 30
0.0
 11
41.21721245944434
 21
23.25000012033741
 31
0.0
  0
ARC
  5
FA7
330
1A
100
AcDbEntity
  8
ZUWAKU
100
AcDbCircle
 10
32.11721245944431
 20
22.7250001203374
 30
0.0
 40
0.525
100
AcDbArc
 50
0.0
 51
90.0
  0
LINE
  5
FA8
330
1A
100
AcDbEntity
  8
ZUWAKU
100
AcDbLine
 10
32.11721245944431
 20
23.25000012033741
 30
0.0
 11
30.36721245944431
 21
23.25000012033741
 31
0.0
  0
ARC
  5
FA9
330
1A
100
AcDbEntity
  8
ZUWAKU
100
AcDbCircle
 10
26.86721245944431
 20
22.7250001203374
 30
0.0
 40
0.525
100
AcDbArc
 50
0.0
 51
90.0
  0
ARC
  5
FAA
330
1A
100
AcDbEntity
  8
ZUWAKU
100
AcDbCircle
 10
30.36721245944431
 20
22.7250001203374
 30
0.0
 40
0.525
100
AcDbArc
 50
90.0
 51
180.0
  0
ARC
  5
FAB
330
1A
100
AcDbEntity
  8
ZUWAKU
100
AcDbCircle
 10
26.86721245944431
 20
20.9750001203374
 30
0.0
 40
0.525
100
AcDbArc
 50
270.0
 51
0.0
  0
LINE
  5
FAC
330
1A
100
AcDbEntity
  8
ZUWAKU
100
AcDbLine
 10
27.3922124594444
 20
22.7250001203374
 30
0.0
 11
27.3922124594444
 21
20.9750001203374
 31
0.0
  0
ARC
  5
FAD
330
1A
100
AcDbEntity
  8
ZUWAKU
100
AcDbCircle
 10
41.21721245944434
 20
22.7250001203374
 30
0.0
 40
0.525
100
AcDbArc
 50
90.0
 51
180.0
  0
LINE
  5
FAE
330
1A
100
AcDbEntity
  8
ZUWAKU
100
AcDbLine
 10
36.17697829595567
 20
23.25000012033741
 30
0.0
 11
37.87586767556467
 21
23.25000012033741
 31
0.0
  0
ARC
  5
FAF
330
1A
100
AcDbEntity
  8
ZUWAKU
100
AcDbCircle
 10
37.87586767556467
 20
22.7250001203374
 30
0.0
 40
0.525
100
AcDbArc
 50
342.4744316262769
 51
90.0
  0
LINE
  5
FB0
330
1A
100
AcDbEntity
  8
ZUWAKU
100
AcDbLine
 10
38.37649857476014
 20
22.56690615217043
 30
0.0
 11
37.31485894162233
 21
19.20504731390083
 31
0.0
  0
ARC
  5
FB1
330
1A
100
AcDbEntity
  8
ZUWAKU
100
AcDbCircle
 10
36.17697829595567
 20
22.7250001203374
 30
0.0
 40
0.525
100
AcDbArc
 50
90.0
 51
162.4744316262769
  0
LINE
  5
FB2
330
1A
100
AcDbEntity
  8
ZUWAKU
100
AcDbLine
 10
48.39221245944441
 20
23.25000012033741
 30
0.0
 11
51.89221245944441
 21
23.25000012033741
 31
0.0
  0
LINE
  5
FB3
330
1A
100
AcDbEntity
  8
ZUWAKU
100
AcDbLine
 10
51.89221245944441
 20
20.4500001203374
 30
0.0
 11
48.91721245944438
 21
20.4500001203374
 31
0.0
  0
ARC
  5
FB4
330
1A
100
AcDbEntity
  8
ZUWAKU
100
AcDbCircle
 10
48.91721245944438
 20
19.9250001203374
 30
0.0
 40
0.525
100
AcDbArc
 50
90.0
 51
180.0
  0
LINE
  5
FB5
330
1A
100
AcDbEntity
  8
ZUWAKU
100
AcDbLine
 10
48.39221245944441
 20
19.9250001203374
 30
0.0
 11
48.39221245944441
 21
18.63479809498206
 31
0.0
  0
ARC
  5
FB6
330
1A
100
AcDbEntity
  8
ZUWAKU
100
AcDbCircle
 10
42.96721245944434
 20
22.7250001203374
 30
0.0
 40
0.525
100
AcDbArc
 50
0.0
 51
90.0
  0
LINE
  5
FB7
330
1A
100
AcDbEntity
  8
ZUWAKU
100
AcDbLine
 10
45.59221245944434
 20
20.4500001203374
 30
0.0
 11
45.59221245944434
 21
18.63479809498206
 31
0.0
  0
ARC
  5
FB8
330
1A
100
AcDbEntity
  8
ZUWAKU
100
AcDbCircle
 10
48.39221245944441
 20
20.4500001203374
 30
0.0
 40
2.799999999999999
100
AcDbArc
 50
90.0
 51
180.0
  0
ARC
  5
FB9
330
1A
100
AcDbEntity
  8
ZUWAKU
100
AcDbCircle
 10
57.31721245944436
 20
22.7250001203374
 30
0.0
 40
0.525
100
AcDbArc
 50
0.0
 51
90.0
  0
ARC
  5
FBA
330
1A
100
AcDbEntity
  8
ZUWAKU
100
AcDbCircle
 10
55.56721245944436
 20
22.7250001203374
 30
0.0
 40
0.525
100
AcDbArc
 50
90.0
 51
180.0
  0
LINE
  5
FBB
330
1A
100
AcDbEntity
  8
ZUWAKU
100
AcDbLine
 10
57.31721245944436
 20
23.25000012033741
 30
0.0
 11
55.56721245944436
 21
23.25000012033741
 31
0.0
  0
ARC
  5
FBC
330
1A
100
AcDbEntity
  8
ZUWAKU
100
AcDbCircle
 10
51.89221245944441
 20
22.7250001203374
 30
0.0
 40
0.525
100
AcDbArc
 50
0.0
 51
90.0
  0
ARC
  5
FBD
330
1A
100
AcDbEntity
  8
ZUWAKU
100
AcDbCircle
 10
51.89221245944441
 20
20.9750001203374
 30
0.0
 40
0.525
100
AcDbArc
 50
270.0
 51
0.0
  0
LINE
  5
FBE
330
1A
100
AcDbEntity
  8
ZUWAKU
100
AcDbLine
 10
52.41721245944439
 20
22.7250001203374
 30
0.0
 11
52.41721245944439
 21
20.9750001203374
 31
0.0
  0
LINE
  5
FBF
330
1A
100
AcDbEntity
  8
ZUWAKU
100
AcDbLine
 10
68.51721245944441
 20
23.25000012033741
 30
0.0
 11
66.76721245944441
 21
23.25000012033741
 31
0.0
  0
ARC
  5
FC0
330
1A
100
AcDbEntity
  8
ZUWAKU
100
AcDbCircle
 10
66.76721245944441
 20
22.7250001203374
 30
0.0
 40
0.525
100
AcDbArc
 50
90.0
 51
180.0
  0
ARC
  5
FC1
330
1A
100
AcDbEntity
  8
ZUWAKU
100
AcDbCircle
 10
63.61721245944432
 20
22.7250001203374
 30
0.0
 40
0.525
100
AcDbArc
 50
0.0
 51
90.0
  0
LINE
  5
FC2
330
1A
100
AcDbEntity
  8
ZUWAKU
100
AcDbLine
 10
63.61721245944432
 20
23.25000012033741
 30
0.0
 11
61.86721245944432
 21
23.25000012033741
 31
0.0
  0
ARC
  5
FC3
330
1A
100
AcDbEntity
  8
ZUWAKU
100
AcDbCircle
 10
61.86721245944432
 20
22.7250001203374
 30
0.0
 40
0.525
100
AcDbArc
 50
90.0
 51
180.0
  0
ARC
  5
FC4
330
1A
100
AcDbEntity
  8
ZUWAKU
100
AcDbCircle
 10
68.51721245944441
 20
22.7250001203374
 30
0.0
 40
0.525
100
AcDbArc
 50
0.0
 51
90.0
  0
TEXT
  5
FC5
330
1A
100
AcDbEntity
  8
MOJI
100
AcDbText
 10
239.8272029855143
 20
3.204921177744825
 30
0.0
 40
5.599999999999999
  1
ＲＶ１０５
 41
0.9
  7
ｽﾀｲﾙ1
100
AcDbText
  0
LINE
  5
FC6
330
1A
100
AcDbEntity
  8
ZUWAKU
100
AcDbLine
 10
208.2466015947311
 20
30.0000001203374
 30
0.0
 11
208.2466015947311
 21
0.8000001203374722
 31
0.0
  0
LINE
  5
FC7
330
1A
100
AcDbEntity
  8
ZUWAKU
100
AcDbLine
 10
208.646601594731
 20
30.0000001203374
 30
0.0
 11
208.6466015947312
 21
0.8000001203374722
 31
0.0
  0
LINE
  5
FC8
330
1A
100
AcDbEntity
  8
ZUWAKU
100
AcDbLine
 10
208.4466015947309
 20
30.0000001203374
 30
0.0
 11
208.4466015947311
 21
0.8000001203374722
 31
0.0
  0
TEXT
  5
FC9
330
1A
100
AcDbEntity
  8
MOJI
100
AcDbText
 10
239.8272029855143
 20
18.00492117774479
 30
0.0
 40
5.599999999999999
  1
４５°曲り（丸使い）
 41
0.9
  7
ｽﾀｲﾙ1
100
AcDbText
  0
TEXT
  5
FCA
330
1A
100
AcDbEntity
  8
ZUWAKU
100
AcDbText
 10
209.7240466169407
 20
9.655356658723022
 30
0.0
 40
4.0
  1
サイズ
 41
0.9
  7
ｽﾀｲﾙ1
100
AcDbText
  0
TEXT
  5
FCB
330
1A
100
AcDbEntity
  8
ZUWAKU
100
AcDbText
 10
209.7240466169405
 20
24.05535665872298
 30
0.0
 40
4.0
  1
品名
 41
0.9
  7
ｽﾀｲﾙ1
100
AcDbText
  0
LINE
  5
FCC
330
1A
100
AcDbEntity
  8
ZUWAKU
100
AcDbLine
 10
648.8172028148674
 20
15.20000012033743
 30
0.0
 11
697.2490108532045
 21
15.20000012033744
 31
0.0
  0
LINE
  5
FCD
330
1A
100
AcDbEntity
  8
ZUWAKU
100
AcDbLine
 10
648.8172028148676
 20
15.40000012033744
 30
0.0
 11
697.2490108532045
 21
15.40000012033743
 31
0.0
  0
LINE
  5
FCE
330
1A
100
AcDbEntity
  8
ZUWAKU
100
AcDbLine
 10
648.8172028148674
 20
15.60000012033743
 30
0.0
 11
697.2490108532045
 21
15.60000012033743
 31
0.0
  0
TEXT
  5
FCF
330
1A
100
AcDbEntity
  8
ZUWAKU
100
AcDbText
 10
658.2039379919656
 20
18.00492117774479
 30
0.0
 40
5.599999999999999
  1
　　．　　．　　
 41
0.9
  7
ｽﾀｲﾙ1
100
AcDbText
  0
LINE
  5
FD0
330
1A
100
AcDbEntity
  8
ZUWAKU
100
AcDbLine
 10
505.1991798028041
 20
15.20000012033744
 30
0.0
 11
552.5269560707756
 21
15.20000012033744
 31
0.0
  0
LINE
  5
FD1
330
1A
100
AcDbEntity
  8
ZUWAKU
100
AcDbLine
 10
505.1991798028041
 20
15.40000012033743
 30
0.0
 11
552.5269560707756
 21
15.40000012033743
 31
0.0
  0
LINE
  5
FD2
330
1A
100
AcDbEntity
  8
ZUWAKU
100
AcDbLine
 10
505.1991798028041
 20
15.60000012033743
 30
0.0
 11
552.5269560707756
 21
15.60000012033743
 31
0.0
  0
TEXT
  5
FD3
330
1A
100
AcDbEntity
  8
MOJI
100
AcDbText
 10
464.5946263079022
 20
11.94261784199738
 30
0.0
 40
5.599999999999999
  1
ＧＲ９２□
 41
0.9
  7
ｽﾀｲﾙ1
100
AcDbText
  0
LINE
  5
FD4
330
1A
100
AcDbEntity
  8
ZUWAKU
100
AcDbLine
 10
447.6243642756544
 20
30.0000001203374
 30
0.0
 11
447.6243642756546
 21
0.8000001203374722
 31
0.0
  0
LINE
  5
FD5
330
1A
100
AcDbEntity
  8
ZUWAKU
100
AcDbLine
 10
447.8243642756544
 20
30.0000001203374
 30
0.0
 11
447.8243642756547
 21
0.8000001203374722
 31
0.0
  0
LINE
  5
FD6
330
1A
100
AcDbEntity
  8
ZUWAKU
100
AcDbLine
 10
447.4243642756546
 20
30.0000001203374
 30
0.0
 11
447.4243642756546
 21
0.8000001203374722
 31
0.0
  0
TEXT
  5
FD7
330
1A
100
AcDbEntity
  8
MOJI
100
AcDbText
 10
528.0409082769761
 20
18.00492117774479
 30
0.0
 40
5.599999999999999
  1
Ａ３
 41
0.9
  7
ｽﾀｲﾙ1
100
AcDbText
  0
LINE
  5
FD8
330
1A
100
AcDbEntity
  8
ZUWAKU
100
AcDbLine
 10
504.999179802804
 20
30.0000001203374
 30
0.0
 11
504.9991798028043
 21
0.8000001203374722
 31
0.0
  0
LINE
  5
FD9
330
1A
100
AcDbEntity
  8
ZUWAKU
100
AcDbLine
 10
505.1991798028041
 20
30.0000001203374
 30
0.0
 11
505.1991798028043
 21
0.8000001203374722
 31
0.0
  0
LINE
  5
FDA
330
1A
100
AcDbEntity
  8
ZUWAKU
100
AcDbLine
 10
504.7991798028042
 20
30.0000001203374
 30
0.0
 11
504.7991798028042
 21
0.8000001203374722
 31
0.0
  0
TEXT
  5
FDB
330
1A
100
AcDbEntity
  8
ZUWAKU
100
AcDbText
 10
462.6937619601704
 20
2.614071031476896
 30
0.0
 40
3.0
  1
□には色品番が入ります
 41
0.9
  7
ｽﾀｲﾙ1
100
AcDbText
  0
TEXT
  5
FDC
330
1A
100
AcDbEntity
  8
ZUWAKU
100
AcDbText
 10
506.6766248250139
 20
9.655356658723022
 30
0.0
 40
4.0
  1
縮尺
 41
0.9
  7
ｽﾀｲﾙ1
100
AcDbText
  0
TEXT
  5
FDD
330
1A
100
AcDbEntity
  8
MOJI
100
AcDbText
 10
528.0409082769761
 20
3.204921177744825
 30
0.0
 40
5.599999999999999
  1
１/２
 41
0.9
  7
ｽﾀｲﾙ1
100
AcDbText
  0
TEXT
  5
FDE
330
1A
100
AcDbEntity
  8
ZUWAKU
100
AcDbText
 10
449.301809297864
 20
24.05535665872298
 30
0.0
 40
4.0
  1
品番
 41
0.9
  7
ｽﾀｲﾙ1
100
AcDbText
  0
TEXT
  5
FDF
330
1A
100
AcDbEntity
  8
ZUWAKU
100
AcDbText
 10
506.6766248250137
 20
24.05535665872298
 30
0.0
 40
4.0
  1
用紙
 41
0.9
  7
ｽﾀｲﾙ1
100
AcDbText
  0
LINE
  5
FE0
330
1A
100
AcDbEntity
  8
ZUWAKU
100
AcDbLine
 10
648.6172028148676
 20
30.0000001203374
 30
0.0
 11
648.6172028148678
 21
0.8000001203374722
 31
0.0
  0
LINE
  5
FE1
330
1A
100
AcDbEntity
  8
ZUWAKU
100
AcDbLine
 10
648.8172028148676
 20
30.0000001203374
 30
0.0
 11
648.8172028148678
 21
0.8000001203374722
 31
0.0
  0
LINE
  5
FE2
330
1A
100
AcDbEntity
  8
ZUWAKU
100
AcDbLine
 10
648.4172028148678
 20
30.0000001203374
 30
0.0
 11
648.4172028148678
 21
0.8000001203374722
 31
0.0
  0
LINE
  5
FE3
330
1A
100
AcDbEntity
  8
ZUWAKU
100
AcDbLine
 10
552.7269560707755
 20
30.0000001203374
 30
0.0
 11
552.7269560707757
 21
0.8000001203374722
 31
0.0
  0
LINE
  5
FE4
330
1A
100
AcDbEntity
  8
ZUWAKU
100
AcDbLine
 10
552.9269560707755
 20
30.0000001203374
 30
0.0
 11
552.9269560707757
 21
0.8000001203374722
 31
0.0
  0
LINE
  5
FE5
330
1A
100
AcDbEntity
  8
ZUWAKU
100
AcDbLine
 10
552.5269560707756
 20
30.0000001203374
 30
0.0
 11
552.5269560707756
 21
0.8000001203374722
 31
0.0
  0
TEXT
  5
FE6
330
1A
100
AcDbEntity
  8
ZUWAKU
100
AcDbText
 10
650.2946478370772
 20
24.05535665872298
 30
0.0
 40
4.0
  1
DATE
 41
0.9
  7
ｽﾀｲﾙ1
100
AcDbText
  0
LINE
  5
FE7
330
1A
100
AcDbEntity
  8
ZUWAKU
100
AcDbLine
 10
697.2490108532045
 20
30.0000001203374
 30
0.0
 11
697.2490108532045
 21
0.8000001203374722
 31
0.0
  0
LINE
  5
FE8
330
1A
100
AcDbEntity
  8
ZUWAKU
100
AcDbLine
 10
697.4490108532044
 20
30.0000001203374
 30
0.0
 11
697.4490108532044
 21
0.8000001203374722
 31
0.0
  0
LINE
  5
FE9
330
1A
100
AcDbEntity
  8
ZUWAKU
100
AcDbLine
 10
697.6490108532043
 20
30.0000001203374
 30
0.0
 11
697.6490108532045
 21
0.8000001203374722
 31
0.0
  0
LINE
  5
FEA
330
1A
100
AcDbEntity
  8
ZUWAKU
100
AcDbLine
 10
697.8490108532043
 20
30.0000001203374
 30
0.0
 11
697.8490108532046
 21
0.8000001203374722
 31
0.0
  0
TEXT
  5
FEB
330
1A
100
AcDbEntity
  8
ZUWAKU
100
AcDbText
 10
708.5280844969069
 20
17.5538394560242
 30
0.0
 40
6.0
  1
積水化学工業株式会社
 41
0.9
  7
ｽﾀｲﾙ1
100
AcDbText
  0
TEXT
  5
FEC
330
1A
100
AcDbEntity
  8
ZUWAKU
100
AcDbText
 10
708.5280844969069
 20
6.64884043419147
 30
0.0
 40
6.0
  1
建材事業部
 41
0.9
  7
ｽﾀｲﾙ1
100
AcDbText
  0
ENDSEC
  0
SECTION
  2
OBJECTS
  0
DICTIONARY
  5
C
330
0
100
AcDbDictionary
  3
ACAD_GROUP
350
D
  3
ACAD_LAYOUT
350
517
  3
ACAD_MLINESTYLE
350
E
  3
ACAD_PLOTSETTINGS
350
518
  3
ACAD_PLOTSTYLENAME
350
515
  3
ACDBHEADERROUNDTRIPXREC
350
1036
  0
DICTIONARY
  5
544
330
1A
100
AcDbDictionary
280
     1
  3
ACAD_LAYOUTSELFREF
360
1058
  0
DICTIONARY
  5
542
330
17
100
AcDbDictionary
280
     1
  3
ACAD_LAYOUTSELFREF
360
1057
  0
DICTIONARY
  5
D
102
{ACAD_REACTORS
330
C
102
}
330
C
100
AcDbDictionary
  0
DICTIONARY
  5
517
102
{ACAD_REACTORS
330
C
102
}
330
C
100
AcDbDictionary
  0
DICTIONARY
  5
E
102
{ACAD_REACTORS
330
C
102
}
330
C
100
AcDbDictionary
  3
STANDARD
350
13
  0
DICTIONARY
  5
518
102
{ACAD_REACTORS
330
C
102
}
330
C
100
AcDbDictionary
  0
ACDBDICTIONARYWDFLT
  5
515
102
{ACAD_REACTORS
330
C
102
}
330
C
100
AcDbDictionary
281
     1
  3
Normal
350
516
100
AcDbDictionaryWithDefault
340
516
1001
ACAD
1000
TREAT_AS_HARD
1070
     0
1000
TREAT_AS_HARD
1070
     0
1000
TREAT_AS_HARD
1070
     0
1000
TREAT_AS_HARD
1070
     0
1000
TREAT_AS_HARD
1070
     0
  0
DICTIONARY
  5
1036
102
{ACAD_REACTORS
330
C
102
}
330
C
100
AcDbDictionary
  3
TSTACKALIGN
350
1037
  3
TSTACKSIZE
350
1038
  3
HYPERLINKBASE
350
1039
  3
STYLESHEET
350
103A
  3
LAYOUTDICT
350
103B
  3
PLOTSETDICT
350
103C
  3
PLOTSTYLNAMDICT
350
103D
  3
LWETCUNION
350
103E
  3
INSUNITS
350
103F
  3
CEPSNTYPE
350
1040
  3
FINGERPRINTGUID
350
1041
  3
VERSIONGUID
350
1042
  3
PSVPSCALE
350
1043
  3
DIMSTYLEDATA
350
1044
  3
PUCSORTHOREF
350
1045
  3
PUCSORTHOVIEW
350
1046
  3
PUCSBASE
350
1047
  3
PUCSORGTOP
350
1048
  3
PUCSORGBOTTOM
350
1049
  3
PUCSORGLEFT
350
104A
  3
PUCSORGRIGHT
350
104B
  3
PUCSORGFRONT
350
104C
  3
PUCSORGBACK
350
104D
  3
UCSORTHOREF
350
104E
  3
UCSORTHOVIEW
350
104F
  3
UCSBASE
350
1050
  3
UCSORGTOP
350
1051
  3
UCSORGBOTTOM
350
1052
  3
UCSORGLEFT
350
1053
  3
UCSORGRIGHT
350
1054
  3
UCSORGFRONT
350
1055
  3
UCSORGBACK
350
1056
  0
XRECORD
  5
1058
102
{ACAD_REACTORS
330
544
102
}
330
544
100
AcDbXrecord
340
1A
  0
XRECORD
  5
1057
102
{ACAD_REACTORS
330
542
102
}
330
542
100
AcDbXrecord
340
17
  0
MLINESTYLE
  5
13
102
{ACAD_REACTORS
330
E
102
}
330
E
100
AcDbMlineStyle
  2
STANDARD
 70
     0
  3

 62
     0
 51
90.0
 52
90.0
 71
     2
 49
0.5
 62
   256
  6
BYLAYER
 49
-0.5
 62
   256
  6
BYLAYER
  0
ACDBPLACEHOLDER
  5
516
102
{ACAD_REACTORS
330
515
102
}
330
515
100
AcDbPlaceHolder
280
     0
  0
XRECORD
  5
1037
102
{ACAD_REACTORS
330
1036
102
}
330
1036
100
AcDbXrecord
 90
        1
  0
XRECORD
  5
1038
102
{ACAD_REACTORS
330
1036
102
}
330
1036
100
AcDbXrecord
 90
       70
  0
XRECORD
  5
1039
102
{ACAD_REACTORS
330
1036
102
}
330
1036
100
AcDbXrecord
  1

  0
XRECORD
  5
103A
102
{ACAD_REACTORS
330
1036
102
}
330
1036
100
AcDbXrecord
  1
systemprinter.ctb
  0
XRECORD
  5
103B
102
{ACAD_REACTORS
330
1036
102
}
330
1036
100
AcDbXrecord
340
517
  0
XRECORD
  5
103C
102
{ACAD_REACTORS
330
1036
102
}
330
1036
100
AcDbXrecord
340
518
  0
XRECORD
  5
103D
102
{ACAD_REACTORS
330
1036
102
}
330
1036
100
AcDbXrecord
340
515
  0
XRECORD
  5
103E
102
{ACAD_REACTORS
330
1036
102
}
330
1036
100
AcDbXrecord
 90
    10781
  0
XRECORD
  5
103F
102
{ACAD_REACTORS
330
1036
102
}
330
1036
100
AcDbXrecord
 90
        0
  0
XRECORD
  5
1040
102
{ACAD_REACTORS
330
1036
102
}
330
1036
100
AcDbXrecord
 90
        0
  0
XRECORD
  5
1041
102
{ACAD_REACTORS
330
1036
102
}
330
1036
100
AcDbXrecord
  1
{4844CF0E-1211-11D4-932C-444553540000}
  0
XRECORD
  5
1042
102
{ACAD_REACTORS
330
1036
102
}
330
1036
100
AcDbXrecord
  1
{90AF7C45-4DD5-4DE0-8986-0CA679AB1D60}
  0
XRECORD
  5
1043
102
{ACAD_REACTORS
330
1036
102
}
330
1036
100
AcDbXrecord
 40
0.0
  0
XRECORD
  5
1044
102
{ACAD_REACTORS
330
1036
102
}
330
1036
100
AcDbXrecord
1000
DSTYLE
1002
{
1070
   341
340
6D
1070
   343
340
6D
1070
   344
340
6D
1070
   371
 70
    -1
1070
   372
 70
    -1
1002
}
  0
XRECORD
  5
1045
102
{ACAD_REACTORS
330
1036
102
}
330
1036
100
AcDbXrecord
340
0
  0
XRECORD
  5
1046
102
{ACAD_REACTORS
330
1036
102
}
330
1036
100
AcDbXrecord
 70
     0
  0
XRECORD
  5
1047
102
{ACAD_REACTORS
330
1036
102
}
330
1036
100
AcDbXrecord
340
0
  0
XRECORD
  5
1048
102
{ACAD_REACTORS
330
1036
102
}
330
1036
100
AcDbXrecord
 10
0.0
 20
0.0
 30
0.0
  0
XRECORD
  5
1049
102
{ACAD_REACTORS
330
1036
102
}
330
1036
100
AcDbXrecord
 10
0.0
 20
0.0
 30
0.0
  0
XRECORD
  5
104A
102
{ACAD_REACTORS
330
1036
102
}
330
1036
100
AcDbXrecord
 10
0.0
 20
0.0
 30
0.0
  0
XRECORD
  5
104B
102
{ACAD_REACTORS
330
1036
102
}
330
1036
100
AcDbXrecord
 10
0.0
 20
0.0
 30
0.0
  0
XRECORD
  5
104C
102
{ACAD_REACTORS
330
1036
102
}
330
1036
100
AcDbXrecord
 10
0.0
 20
0.0
 30
0.0
  0
XRECORD
  5
104D
102
{ACAD_REACTORS
330
1036
102
}
330
1036
100
AcDbXrecord
 10
0.0
 20
0.0
 30
0.0
  0
XRECORD
  5
104E
102
{ACAD_REACTORS
330
1036
102
}
330
1036
100
AcDbXrecord
340
0
  0
XRECORD
  5
104F
102
{ACAD_REACTORS
330
1036
102
}
330
1036
100
AcDbXrecord
 70
     0
  0
XRECORD
  5
1050
102
{ACAD_REACTORS
330
1036
102
}
330
1036
100
AcDbXrecord
340
0
  0
XRECORD
  5
1051
102
{ACAD_REACTORS
330
1036
102
}
330
1036
100
AcDbXrecord
 10
0.0
 20
0.0
 30
0.0
  0
XRECORD
  5
1052
102
{ACAD_REACTORS
330
1036
102
}
330
1036
100
AcDbXrecord
 10
0.0
 20
0.0
 30
0.0
  0
XRECORD
  5
1053
102
{ACAD_REACTORS
330
1036
102
}
330
1036
100
AcDbXrecord
 10
0.0
 20
0.0
 30
0.0
  0
XRECORD
  5
1054
102
{ACAD_REACTORS
330
1036
102
}
330
1036
100
AcDbXrecord
 10
0.0
 20
0.0
 30
0.0
  0
XRECORD
  5
1055
102
{ACAD_REACTORS
330
1036
102
}
330
1036
100
AcDbXrecord
 10
0.0
 20
0.0
 30
0.0
  0
XRECORD
  5
1056
102
{ACAD_REACTORS
330
1036
102
}
330
1036
100
AcDbXrecord
 10
0.0
 20
0.0
 30
0.0
  0
ENDSEC
  0
EOF
