  0
SECTION
  2
HEADER
  9
$ACADVER
  1
AC1015
  9
$ACADMAINTVER
 70
     6
  9
$DWGCODEPAGE
  3
ANSI_932
  9
$INSBASE
 10
0.0
 20
0.0
 30
0.0
  9
$EXTMIN
 10
0.0000000135560185
 20
-0.0000001317113174
 30
0.0
  9
$EXTMAX
 10
797.6000000135562
 20
551.5999998682888
 30
0.0
  9
$LIMMIN
 10
0.0
 20
0.0
  9
$LIMMAX
 10
840.0
 20
594.0
  9
$ORTHOMODE
 70
     0
  9
$REGENMODE
 70
     1
  9
$FILLMODE
 70
     1
  9
$QTEXTMODE
 70
     0
  9
$MIRRTEXT
 70
     1
  9
$LTSCALE
 40
2.0
  9
$ATTMODE
 70
     1
  9
$TEXTSIZE
 40
5.0
  9
$TRACEWID
 40
1.0
  9
$TEXTSTYLE
  7
STANDARD
  9
$CLAYER
  8
ZUWAKU
  9
$CELTYPE
  6
BYLAYER
  9
$CECOLOR
 62
   256
  9
$CELTSCALE
 40
1.0
  9
$DISPSILH
 70
     0
  9
$DIMSCALE
 40
1.0
  9
$DIMASZ
 40
7.0
  9
$DIMEXO
 40
6.0
  9
$DIMDLI
 40
14.0
  9
$DIMRND
 40
0.0
  9
$DIMDLE
 40
0.0
  9
$DIMEXE
 40
3.0
  9
$DIMTP
 40
0.0
  9
$DIMTM
 40
0.0
  9
$DIMTXT
 40
6.0
  9
$DIMCEN
 40
150.0
  9
$DIMTSZ
 40
0.0
  9
$DIMTOL
 70
     0
  9
$DIMLIM
 70
     0
  9
$DIMTIH
 70
     0
  9
$DIMTOH
 70
     0
  9
$DIMSE1
 70
     0
  9
$DIMSE2
 70
     0
  9
$DIMTAD
 70
     3
  9
$DIMZIN
 70
     0
  9
$DIMBLK
  1

  9
$DIMASO
 70
     1
  9
$DIMSHO
 70
     1
  9
$DIMPOST
  1

  9
$DIMAPOST
  1

  9
$DIMALT
 70
     0
  9
$DIMALTD
 70
     2
  9
$DIMALTF
 40
25.4
  9
$DIMLFAC
 40
1.0
  9
$DIMTOFL
 70
     1
  9
$DIMTVP
 40
0.0
  9
$DIMTIX
 70
     0
  9
$DIMSOXD
 70
     0
  9
$DIMSAH
 70
     1
  9
$DIMBLK1
  1
OPEN
  9
$DIMBLK2
  1
OPEN
  9
$DIMSTYLE
  2
STANDARD
  9
$DIMCLRD
 70
   256
  9
$DIMCLRE
 70
   256
  9
$DIMCLRT
 70
   256
  9
$DIMTFAC
 40
1.0
  9
$DIMGAP
 40
2.0
  9
$DIMJUST
 70
     0
  9
$DIMSD1
 70
     0
  9
$DIMSD2
 70
     0
  9
$DIMTOLJ
 70
     1
  9
$DIMTZIN
 70
     0
  9
$DIMALTZ
 70
     0
  9
$DIMALTTZ
 70
     0
  9
$DIMUPT
 70
     0
  9
$DIMDEC
 70
     0
  9
$DIMTDEC
 70
     0
  9
$DIMALTU
 70
     2
  9
$DIMALTTD
 70
     2
  9
$DIMTXSTY
  7
STANDARD
  9
$DIMAUNIT
 70
     0
  9
$DIMADEC
 70
     0
  9
$DIMALTRND
 40
0.0
  9
$DIMAZIN
 70
     0
  9
$DIMDSEP
 70
    46
  9
$DIMATFIT
 70
     3
  9
$DIMFRAC
 70
     0
  9
$DIMLDRBLK
  1
OPEN
  9
$DIMLUNIT
 70
     2
  9
$DIMLWD
 70
    -1
  9
$DIMLWE
 70
    -1
  9
$DIMTMOVE
 70
     0
  9
$LUNITS
 70
     2
  9
$LUPREC
 70
     4
  9
$SKETCHINC
 40
1.0
  9
$FILLETRAD
 40
2.0
  9
$AUNITS
 70
     0
  9
$AUPREC
 70
     0
  9
$MENU
  1
.
  9
$ELEVATION
 40
0.0
  9
$PELEVATION
 40
0.0
  9
$THICKNESS
 40
0.0
  9
$LIMCHECK
 70
     0
  9
$CHAMFERA
 40
20.0
  9
$CHAMFERB
 40
20.0
  9
$CHAMFERC
 40
40.0
  9
$CHAMFERD
 40
0.0
  9
$SKPOLY
 70
     0
  9
$TDCREATE
 40
2451212.496837384
  9
$TDUCREATE
 40
2451212.121837384
  9
$TDUPDATE
 40
2455609.397704595
  9
$TDUUPDATE
 40
2455609.022704595
  9
$TDINDWG
 40
0.1066040278
  9
$TDUSRTIMER
 40
0.1066040278
  9
$USRTIMER
 70
     1
  9
$ANGBASE
 50
0.0
  9
$ANGDIR
 70
     0
  9
$PDMODE
 70
     0
  9
$PDSIZE
 40
0.0
  9
$PLINEWID
 40
0.0
  9
$SPLFRAME
 70
     0
  9
$SPLINETYPE
 70
     6
  9
$SPLINESEGS
 70
     8
  9
$HANDSEED
  5
2202
  9
$SURFTAB1
 70
     6
  9
$SURFTAB2
 70
     6
  9
$SURFTYPE
 70
     6
  9
$SURFU
 70
     6
  9
$SURFV
 70
     6
  9
$UCSBASE
  2

  9
$UCSNAME
  2

  9
$UCSORG
 10
0.0
 20
0.0
 30
0.0
  9
$UCSXDIR
 10
1.0
 20
0.0
 30
0.0
  9
$UCSYDIR
 10
0.0
 20
1.0
 30
0.0
  9
$UCSORTHOREF
  2

  9
$UCSORTHOVIEW
 70
     0
  9
$UCSORGTOP
 10
0.0
 20
0.0
 30
0.0
  9
$UCSORGBOTTOM
 10
0.0
 20
0.0
 30
0.0
  9
$UCSORGLEFT
 10
0.0
 20
0.0
 30
0.0
  9
$UCSORGRIGHT
 10
0.0
 20
0.0
 30
0.0
  9
$UCSORGFRONT
 10
0.0
 20
0.0
 30
0.0
  9
$UCSORGBACK
 10
0.0
 20
0.0
 30
0.0
  9
$PUCSBASE
  2

  9
$PUCSNAME
  2

  9
$PUCSORG
 10
0.0
 20
0.0
 30
0.0
  9
$PUCSXDIR
 10
1.0
 20
0.0
 30
0.0
  9
$PUCSYDIR
 10
0.0
 20
1.0
 30
0.0
  9
$PUCSORTHOREF
  2

  9
$PUCSORTHOVIEW
 70
     0
  9
$PUCSORGTOP
 10
0.0
 20
0.0
 30
0.0
  9
$PUCSORGBOTTOM
 10
0.0
 20
0.0
 30
0.0
  9
$PUCSORGLEFT
 10
0.0
 20
0.0
 30
0.0
  9
$PUCSORGRIGHT
 10
0.0
 20
0.0
 30
0.0
  9
$PUCSORGFRONT
 10
0.0
 20
0.0
 30
0.0
  9
$PUCSORGBACK
 10
0.0
 20
0.0
 30
0.0
  9
$USERI1
 70
     0
  9
$USERI2
 70
     0
  9
$USERI3
 70
     0
  9
$USERI4
 70
     0
  9
$USERI5
 70
     0
  9
$USERR1
 40
0.0
  9
$USERR2
 40
0.0
  9
$USERR3
 40
0.0
  9
$USERR4
 40
0.0
  9
$USERR5
 40
0.0
  9
$WORLDVIEW
 70
     1
  9
$SHADEDGE
 70
     3
  9
$SHADEDIF
 70
    70
  9
$TILEMODE
 70
     1
  9
$MAXACTVP
 70
    16
  9
$PINSBASE
 10
0.0
 20
0.0
 30
0.0
  9
$PLIMCHECK
 70
     0
  9
$PEXTMIN
 10
0.0
 20
0.0
 30
0.0
  9
$PEXTMAX
 10
420.0
 20
297.0
 30
0.0
  9
$PLIMMIN
 10
0.0
 20
0.0
  9
$PLIMMAX
 10
420.0
 20
297.0
  9
$UNITMODE
 70
     0
  9
$VISRETAIN
 70
     0
  9
$PLINEGEN
 70
     0
  9
$PSLTSCALE
 70
     1
  9
$TREEDEPTH
 70
  3020
  9
$CMLSTYLE
  2
STANDARD
  9
$CMLJUST
 70
     0
  9
$CMLSCALE
 40
1.0
  9
$PROXYGRAPHICS
 70
     1
  9
$MEASUREMENT
 70
     1
  9
$CELWEIGHT
370
    -1
  9
$ENDCAPS
280
     0
  9
$JOINSTYLE
280
     0
  9
$LWDISPLAY
290
     0
  9
$INSUNITS
 70
     0
  9
$HYPERLINKBASE
  1

  9
$STYLESHEET
  1
systemprinter.ctb
  9
$XEDIT
290
     1
  9
$CEPSNTYPE
380
     0
  9
$PSTYLEMODE
290
     1
  9
$FINGERPRINTGUID
  2
{6B84EFAC-A936-11D5-932D-0050DA99388B}
  9
$VERSIONGUID
  2
{112A01FC-3F13-4C53-AFF1-2A5C2E56DC22}
  9
$EXTNAMES
290
     1
  9
$PSVPSCALE
 40
0.0
  9
$OLESTARTUP
290
     0
  0
ENDSEC
  0
SECTION
  2
CLASSES
  0
CLASS
  1
ACDBDICTIONARYWDFLT
  2
AcDbDictionaryWithDefault
  3
ObjectDBX Classes
 90
        0
280
     0
281
     0
  0
CLASS
  1
ACDBPLACEHOLDER
  2
AcDbPlaceHolder
  3
ObjectDBX Classes
 90
        0
280
     0
281
     0
  0
CLASS
  1
LAYOUT
  2
AcDbLayout
  3
ObjectDBX Classes
 90
        0
280
     0
281
     0
  0
CLASS
  1
DUMMY
  2
AcDbLongTransaction
  3
DUMMY
 90
        0
280
     0
281
     0
  0
CLASS
  1
LWPOLYLINE
  2
AcDbPolyline
  3
AutoCAD 2000
 90
        0
280
     0
281
     1
  0
CLASS
  1
HATCH
  2
AcDbHatch
  3
AutoCAD 2000
 90
        0
280
     0
281
     1
  0
CLASS
  1
XRECORD
  2
AcDbXrecord
  3
AutoCAD 2000
 90
        0
280
     0
281
     0
  0
CLASS
  1
DUMMY
  2
AcDbLongTransaction
  3
DUMMY
 90
        0
280
     0
281
     0
  0
CLASS
  1
LWPOLYLINE
  2
AcDbPolyline
  3
AutoCAD 2000
 90
        0
280
     0
281
     1
  0
CLASS
  1
HATCH
  2
AcDbHatch
  3
AutoCAD 2000
 90
        0
280
     0
281
     1
  0
CLASS
  1
XRECORD
  2
AcDbXrecord
  3
AutoCAD 2000
 90
        0
280
     0
281
     0
  0
CLASS
  1
DUMMY
  2
AcDbLongTransaction
  3
DUMMY
 90
        0
280
     0
281
     0
  0
CLASS
  1
LWPOLYLINE
  2
AcDbPolyline
  3
AutoCAD 2000
 90
        0
280
     0
281
     1
  0
CLASS
  1
HATCH
  2
AcDbHatch
  3
AutoCAD 2000
 90
        0
280
     0
281
     1
  0
CLASS
  1
XRECORD
  2
AcDbXrecord
  3
AutoCAD 2000
 90
        0
280
     0
281
     0
  0
CLASS
  1
DUMMY
  2
AcDbLongTransaction
  3
DUMMY
 90
        0
280
     0
281
     0
  0
CLASS
  1
LWPOLYLINE
  2
AcDbPolyline
  3
AutoCAD 2000
 90
        0
280
     0
281
     1
  0
CLASS
  1
HATCH
  2
AcDbHatch
  3
AutoCAD 2000
 90
        0
280
     0
281
     1
  0
CLASS
  1
XRECORD
  2
AcDbXrecord
  3
AutoCAD 2000
 90
        0
280
     0
281
     0
  0
ENDSEC
  0
SECTION
  2
TABLES
  0
TABLE
  2
VPORT
  5
8
330
0
100
AcDbSymbolTable
 70
     2
  0
VPORT
  5
2201
330
8
100
AcDbSymbolTableRecord
100
AcDbViewportTableRecord
  2
*Active
 70
     0
 10
0.0
 20
0.0
 11
1.0
 21
1.0
 12
416.6437991857214
 22
300.8759545265202
 13
0.0
 23
0.0
 14
5.0
 24
5.0
 15
0.0
 25
0.0
 16
0.0
 26
0.0
 36
1.0
 17
0.0
 27
0.0
 37
0.0
 40
637.347781985682
 41
1.651537335285505
 42
50.0
 43
0.0
 44
0.0
 50
0.0
 51
0.0
 71
     0
 72
   100
 73
     1
 74
     0
 75
     0
 76
     0
 77
     0
 78
     0
281
     0
 65
     1
110
0.0
120
0.0
130
0.0
111
1.0
121
0.0
131
0.0
112
0.0
122
1.0
132
0.0
 79
     0
146
0.0
  0
ENDTAB
  0
TABLE
  2
LTYPE
  5
5
330
0
100
AcDbSymbolTable
 70
     3
  0
LTYPE
  5
14
330
5
100
AcDbSymbolTableRecord
100
AcDbLinetypeTableRecord
  2
BYBLOCK
 70
     0
  3

 72
    65
 73
     0
 40
0.0
  0
LTYPE
  5
15
330
5
100
AcDbSymbolTableRecord
100
AcDbLinetypeTableRecord
  2
BYLAYER
 70
     0
  3

 72
    65
 73
     0
 40
0.0
  0
LTYPE
  5
16
330
5
100
AcDbSymbolTableRecord
100
AcDbLinetypeTableRecord
  2
CONTINUOUS
 70
     0
  3
Solid line
 72
    65
 73
     0
 40
0.0
  0
LTYPE
  5
135
330
5
100
AcDbSymbolTableRecord
100
AcDbLinetypeTableRecord
  2
CENTER
 70
     0
  3
____ _ ____ _ ____ _ ____ _ ____ _ ____ _ ____ 
 72
    65
 73
     4
 40
2.0
 49
1.25
 74
     0
 49
-0.25
 74
     0
 49
0.25
 74
     0
 49
-0.25
 74
     0
  0
LTYPE
  5
94A
330
5
100
AcDbSymbolTableRecord
100
AcDbLinetypeTableRecord
  2
PHANTOM
 70
     0
  3
______  __  __  ______  __  __  ______  __  __ 
 72
    65
 73
     6
 40
2.5
 49
1.25
 74
     0
 49
-0.25
 74
     0
 49
0.25
 74
     0
 49
-0.25
 74
     0
 49
0.25
 74
     0
 49
-0.25
 74
     0
  0
ENDTAB
  0
TABLE
  2
LAYER
  5
2
330
0
100
AcDbSymbolTable
 70
     9
  0
LAYER
  5
F
330
2
100
AcDbSymbolTableRecord
100
AcDbLayerTableRecord
  2
0
 70
     0
 62
     7
  6
CONTINUOUS
370
    -3
390
4BB
  0
LAYER
  5
62
330
2
100
AcDbSymbolTableRecord
100
AcDbLayerTableRecord
  2
VIEWPORT
 70
     0
 62
     7
  6
CONTINUOUS
370
    -3
390
4BB
  0
LAYER
  5
65
330
2
100
AcDbSymbolTableRecord
100
AcDbLayerTableRecord
  2
ZUWAKU
 70
     0
 62
     7
  6
CONTINUOUS
370
    -3
390
4BB
  0
LAYER
  5
28E
330
2
100
AcDbSymbolTableRecord
100
AcDbLayerTableRecord
  2
SEIHIN
 70
     0
 62
     3
  6
CONTINUOUS
370
    -3
390
4BB
  0
LAYER
  5
28F
330
2
100
AcDbSymbolTableRecord
100
AcDbLayerTableRecord
  2
SUNPOU
 70
     0
 62
     4
  6
CONTINUOUS
370
    -3
390
4BB
  0
LAYER
  5
290
330
2
100
AcDbSymbolTableRecord
100
AcDbLayerTableRecord
  2
CENTER L
 70
     0
 62
     1
  6
CENTER
370
    -3
390
4BB
  0
LAYER
  5
3EF
330
2
100
AcDbSymbolTableRecord
100
AcDbLayerTableRecord
  2
DEFPOINTS
 70
     0
 62
     7
  6
CONTINUOUS
290
     0
370
    -3
390
4BB
  0
LAYER
  5
702
330
2
100
AcDbSymbolTableRecord
100
AcDbLayerTableRecord
  2
moji
 70
     0
 62
     2
  6
CONTINUOUS
370
    -3
390
4BB
  0
LAYER
  5
94B
330
2
100
AcDbSymbolTableRecord
100
AcDbLayerTableRecord
  2
NOKITOI
 70
     0
 62
     9
  6
PHANTOM
370
    -3
390
4BB
  0
ENDTAB
  0
TABLE
  2
STYLE
  5
3
330
0
100
AcDbSymbolTable
 70
     2
  0
STYLE
  5
10
330
3
100
AcDbSymbolTableRecord
100
AcDbTextStyleTableRecord
  2
STANDARD
 70
     0
 40
0.0
 41
1.0
 50
0.0
 71
     0
 42
5.0
  3
TXT
  4
bigfont.shx
  0
STYLE
  5
703
330
3
100
AcDbSymbolTableRecord
100
AcDbTextStyleTableRecord
  2
ｽﾀｲﾙ1
 70
     0
 40
0.0
 41
1.0
 50
0.0
 71
     0
 42
2.5
  3
MS PGothic.ttf
  4

1001
ACAD
1000
MS PGothic
1071
    32818
  0
ENDTAB
  0
TABLE
  2
VIEW
  5
6
330
0
100
AcDbSymbolTable
 70
     0
  0
ENDTAB
  0
TABLE
  2
UCS
  5
7
330
0
100
AcDbSymbolTable
 70
     0
  0
ENDTAB
  0
TABLE
  2
APPID
  5
9
330
0
100
AcDbSymbolTable
 70
     1
  0
APPID
  5
11
330
9
100
AcDbSymbolTableRecord
100
AcDbRegAppTableRecord
  2
ACAD
 70
     0
  0
ENDTAB
  0
TABLE
  2
DIMSTYLE
  5
A
330
0
100
AcDbSymbolTable
 70
     2
100
AcDbDimStyleTable
  0
DIMSTYLE
105
1D
102
{ACAD_REACTORS
330
1EB9
330
1EBA
330
1EBF
330
1F7F
330
1F80
330
207F
102
}
330
A
100
AcDbSymbolTableRecord
100
AcDbDimStyleTableRecord
  2
STANDARD
 70
     0
340
10
  0
DIMSTYLE
105
1C01
102
{ACAD_REACTORS
330
205D
102
}
330
A
100
AcDbSymbolTableRecord
100
AcDbDimStyleTableRecord
  2
VELDIM1
 70
     0
 41
3.7209429741
 44
1.25
 46
5.0
 73
     0
 74
     0
 78
     8
140
8.995833063099999
271
     3
340
10
  0
ENDTAB
  0
TABLE
  2
BLOCK_RECORD
  5
1
330
0
100
AcDbSymbolTable
 70
     8
  0
BLOCK_RECORD
  5
1A
330
1
100
AcDbSymbolTableRecord
100
AcDbBlockTableRecord
  2
*MODEL_SPACE
340
4BE
  0
BLOCK_RECORD
  5
17
330
1
100
AcDbSymbolTableRecord
100
AcDbBlockTableRecord
  2
*PAPER_SPACE
340
4BF
  0
BLOCK_RECORD
  5
6D
330
1
100
AcDbSymbolTableRecord
100
AcDbBlockTableRecord
  2
_OPEN
340
0
102
{BLKREFS
331
21C1
331
21C2
331
21CA
331
21CB
331
21D3
331
21D4
331
21DC
331
21DD
331
21E5
331
21E6
331
21F5
331
21F6
102
}
  0
BLOCK_RECORD
  5
216C
330
1
100
AcDbSymbolTableRecord
100
AcDbBlockTableRecord
  2
*D1
340
0
  0
BLOCK_RECORD
  5
2178
330
1
100
AcDbSymbolTableRecord
100
AcDbBlockTableRecord
  2
*D2
340
0
  0
BLOCK_RECORD
  5
2184
330
1
100
AcDbSymbolTableRecord
100
AcDbBlockTableRecord
  2
*D3
340
0
  0
BLOCK_RECORD
  5
2190
330
1
100
AcDbSymbolTableRecord
100
AcDbBlockTableRecord
  2
*D4
340
0
  0
BLOCK_RECORD
  5
219C
330
1
100
AcDbSymbolTableRecord
100
AcDbBlockTableRecord
  2
*D5
340
0
  0
BLOCK_RECORD
  5
21A8
330
1
100
AcDbSymbolTableRecord
100
AcDbBlockTableRecord
  2
*D6
340
0
  0
BLOCK_RECORD
  5
21B2
330
1
100
AcDbSymbolTableRecord
100
AcDbBlockTableRecord
  2
*D7
340
0
  0
ENDTAB
  0
ENDSEC
  0
SECTION
  2
BLOCKS
  0
BLOCK
  5
1B
330
1A
100
AcDbEntity
  8
0
100
AcDbBlockBegin
  2
*MODEL_SPACE
 70
     0
 71
     0
 10
0.0
 20
0.0
 30
0.0
  3
*MODEL_SPACE
  1

  0
ENDBLK
  5
1C
330
1A
100
AcDbEntity
  8
0
100
AcDbBlockEnd
  0
BLOCK
  5
18
330
17
100
AcDbEntity
 67
     1
  8
0
100
AcDbBlockBegin
  2
*PAPER_SPACE
 70
     0
 71
     0
 10
0.0
 20
0.0
 30
0.0
  3
*PAPER_SPACE
  1

  0
ENDBLK
  5
19
330
17
100
AcDbEntity
 67
     1
  8
0
100
AcDbBlockEnd
  0
BLOCK
  5
6E
330
6D
100
AcDbEntity
  8
0
100
AcDbBlockBegin
  2
_OPEN
 70
     0
 71
     0
 10
0.0
 20
0.0
 30
0.0
  3
_OPEN
  1

  0
LINE
  5
6F
330
6D
100
AcDbEntity
  8
0
  6
ByBlock
 62
     0
100
AcDbLine
 10
-1.0
 20
0.1666666666666667
 30
0.0
 11
0.0
 21
0.0
 31
0.0
  0
LINE
  5
70
330
6D
100
AcDbEntity
  8
0
  6
ByBlock
 62
     0
100
AcDbLine
 10
0.0
 20
0.0
 30
0.0
 11
-1.0
 21
-0.1666666666666667
 31
0.0
  0
LINE
  5
71
330
6D
100
AcDbEntity
  8
0
  6
ByBlock
 62
     0
100
AcDbLine
 10
0.0
 20
0.0
 30
0.0
 11
-1.0
 21
0.0
 31
0.0
  0
ENDBLK
  5
72
330
6D
100
AcDbEntity
  8
0
100
AcDbBlockEnd
  0
BLOCK
  5
2176
330
216C
100
AcDbEntity
  8
0
100
AcDbBlockBegin
  2
*D1
 70
     1
 71
     0
 10
0.0
 20
0.0
 30
0.0
  3
*D1
  1

  0
LINE
  5
21BE
330
216C
100
AcDbEntity
  8
SUNPOU
 62
     4
370
    -2
100
AcDbLine
 10
278.0875576073044
 20
333.5525761546757
 30
0.0
 11
475.1186016632805
 21
333.5525761546756
 31
0.0
  0
LINE
  5
21BF
330
216C
100
AcDbEntity
  8
SUNPOU
 62
     4
370
    -2
100
AcDbLine
 10
423.1500534350044
 20
244.9986971026757
 30
0.0
 11
475.1186016632805
 21
244.9986971026756
 31
0.0
  0
LINE
  5
21C0
330
216C
100
AcDbEntity
  8
SUNPOU
 62
     4
370
    -2
100
AcDbLine
 10
472.1186016632805
 20
326.5525761546756
 30
0.0
 11
472.1186016632805
 21
251.9986971026756
 31
0.0
  0
INSERT
  5
21C1
330
216C
100
AcDbEntity
  8
SUNPOU
 62
     4
370
    -2
100
AcDbBlockReference
  2
_OPEN
 10
472.1186016632805
 20
333.5525761546756
 30
0.0
 41
7.0
 42
7.0
 43
7.0
 50
90.0
  0
INSERT
  5
21C2
330
216C
100
AcDbEntity
  8
SUNPOU
 62
     4
370
    -2
100
AcDbBlockReference
  2
_OPEN
 10
472.1186016632805
 20
244.9986971026756
 30
0.0
 41
7.0
 42
7.0
 43
7.0
 50
270.0
  0
MTEXT
  5
21C3
330
216C
100
AcDbEntity
  8
SUNPOU
 62
     4
100
AcDbMText
 10
467.1186016632805
 20
289.2756366286757
 30
0.0
 40
6.0
 41
0.0
 71
     5
 72
     1
  1
\A1;89
 11
6.123031769111886E-17
 21
1.0
 31
0.0
 73
     1
 44
1.0
  0
POINT
  5
21C4
330
216C
100
AcDbEntity
  8
DEFPOINTS
 62
     0
100
AcDbPoint
 10
272.0875576073044
 20
333.5525761546757
 30
0.0
  0
POINT
  5
21C5
330
216C
100
AcDbEntity
  8
DEFPOINTS
 62
     0
100
AcDbPoint
 10
417.1500534350044
 20
244.9986971026757
 30
0.0
  0
POINT
  5
21C6
330
216C
100
AcDbEntity
  8
DEFPOINTS
 62
     0
100
AcDbPoint
 10
472.1186016632805
 20
244.9986971026756
 30
0.0
  0
ENDBLK
  5
2177
330
216C
100
AcDbEntity
  8
0
100
AcDbBlockEnd
  0
BLOCK
  5
2182
330
2178
100
AcDbEntity
  8
0
100
AcDbBlockBegin
  2
*D2
 70
     1
 71
     0
 10
0.0
 20
0.0
 30
0.0
  3
*D2
  1

  0
LINE
  5
21C7
330
2178
100
AcDbEntity
  8
SUNPOU
 62
     4
370
    -2
100
AcDbLine
 10
278.0875576073044
 20
333.5525761546757
 30
0.0
 11
461.1186016632805
 21
333.5525761546756
 31
0.0
  0
LINE
  5
21C8
330
2178
100
AcDbEntity
  8
SUNPOU
 62
     4
370
    -2
100
AcDbLine
 10
382.1500597531044
 20
263.5525762146757
 30
0.0
 11
461.1186016632805
 21
263.5525762146756
 31
0.0
  0
LINE
  5
21C9
330
2178
100
AcDbEntity
  8
SUNPOU
 62
     4
370
    -2
100
AcDbLine
 10
458.1186016632805
 20
326.5525761546756
 30
0.0
 11
458.1186016632805
 21
270.5525762146756
 31
0.0
  0
INSERT
  5
21CA
330
2178
100
AcDbEntity
  8
SUNPOU
 62
     4
370
    -2
100
AcDbBlockReference
  2
_OPEN
 10
458.1186016632805
 20
333.5525761546756
 30
0.0
 41
7.0
 42
7.0
 43
7.0
 50
90.0
  0
INSERT
  5
21CB
330
2178
100
AcDbEntity
  8
SUNPOU
 62
     4
370
    -2
100
AcDbBlockReference
  2
_OPEN
 10
458.1186016632805
 20
263.5525762146756
 30
0.0
 41
7.0
 42
7.0
 43
7.0
 50
270.0
  0
MTEXT
  5
21CC
330
2178
100
AcDbEntity
  8
SUNPOU
 62
     4
100
AcDbMText
 10
453.1186016632805
 20
298.5525761846757
 30
0.0
 40
6.0
 41
0.0
 71
     5
 72
     1
  1
\A1;70
 11
6.123031769111886E-17
 21
1.0
 31
0.0
 73
     1
 44
1.0
  0
POINT
  5
21CD
330
2178
100
AcDbEntity
  8
DEFPOINTS
 62
     0
100
AcDbPoint
 10
272.0875576073044
 20
333.5525761546757
 30
0.0
  0
POINT
  5
21CE
330
2178
100
AcDbEntity
  8
DEFPOINTS
 62
     0
100
AcDbPoint
 10
376.1500597531044
 20
263.5525762146757
 30
0.0
  0
POINT
  5
21CF
330
2178
100
AcDbEntity
  8
DEFPOINTS
 62
     0
100
AcDbPoint
 10
458.1186016632805
 20
263.5525762146756
 30
0.0
  0
ENDBLK
  5
2183
330
2178
100
AcDbEntity
  8
0
100
AcDbBlockEnd
  0
BLOCK
  5
218E
330
2184
100
AcDbEntity
  8
0
100
AcDbBlockBegin
  2
*D3
 70
     1
 71
     0
 10
0.0
 20
0.0
 30
0.0
  3
*D3
  1

  0
LINE
  5
21D0
330
2184
100
AcDbEntity
  8
SUNPOU
 62
     4
370
    -2
100
AcDbLine
 10
127.3214251333044
 20
271.5525765424757
 30
0.0
 11
127.3214251333044
 21
386.4838592273534
 31
0.0
  0
LINE
  5
21D1
330
2184
100
AcDbEntity
  8
SUNPOU
 62
     4
370
    -2
100
AcDbLine
 10
417.1500576073044
 20
271.5525765424757
 30
0.0
 11
417.1500576073044
 21
386.4838592273534
 31
0.0
  0
LINE
  5
21D2
330
2184
100
AcDbEntity
  8
SUNPOU
 62
     4
370
    -2
100
AcDbLine
 10
134.3214251333044
 20
383.4838592273534
 30
0.0
 11
410.1500576073044
 21
383.4838592273534
 31
0.0
  0
INSERT
  5
21D3
330
2184
100
AcDbEntity
  8
SUNPOU
 62
     4
370
    -2
100
AcDbBlockReference
  2
_OPEN
 10
127.3214251333044
 20
383.4838592273534
 30
0.0
 41
7.0
 42
7.0
 43
7.0
 50
180.0
  0
INSERT
  5
21D4
330
2184
100
AcDbEntity
  8
SUNPOU
 62
     4
370
    -2
100
AcDbBlockReference
  2
_OPEN
 10
417.1500576073044
 20
383.4838592273534
 30
0.0
 41
7.0
 42
7.0
 43
7.0
  0
MTEXT
  5
21D5
330
2184
100
AcDbEntity
  8
SUNPOU
 62
     4
100
AcDbMText
 10
272.2357413703044
 20
388.4838592273534
 30
0.0
 40
6.0
 41
0.0
 71
     5
 72
     1
  1
\A1;290
 73
     1
 44
1.0
  0
POINT
  5
21D6
330
2184
100
AcDbEntity
  8
DEFPOINTS
 62
     0
100
AcDbPoint
 10
127.3214251333044
 20
265.5525765424757
 30
0.0
  0
POINT
  5
21D7
330
2184
100
AcDbEntity
  8
DEFPOINTS
 62
     0
100
AcDbPoint
 10
417.1500576073044
 20
265.5525765424757
 30
0.0
  0
POINT
  5
21D8
330
2184
100
AcDbEntity
  8
DEFPOINTS
 62
     0
100
AcDbPoint
 10
417.1500576073044
 20
383.4838592273534
 30
0.0
  0
ENDBLK
  5
218F
330
2184
100
AcDbEntity
  8
0
100
AcDbBlockEnd
  0
BLOCK
  5
219A
330
2190
100
AcDbEntity
  8
0
100
AcDbBlockBegin
  2
*D4
 70
     1
 71
     0
 10
0.0
 20
0.0
 30
0.0
  3
*D4
  1

  0
LINE
  5
21D9
330
2190
100
AcDbEntity
  8
SUNPOU
 62
     4
370
    -2
100
AcDbLine
 10
387.1500596934044
 20
238.9986971026757
 30
0.0
 11
387.1500596934044
 21
216.6681114077408
 31
0.0
  0
LINE
  5
21DA
330
2190
100
AcDbEntity
  8
SUNPOU
 62
     4
370
    -2
100
AcDbLine
 10
417.1500534350044
 20
238.9986971026757
 30
0.0
 11
417.1500534350044
 21
216.6681114077408
 31
0.0
  0
LINE
  5
21DB
330
2190
100
AcDbEntity
  8
SUNPOU
 62
     4
370
    -2
100
AcDbLine
 10
394.1500596934044
 20
219.6681114077408
 30
0.0
 11
410.1500534350044
 21
219.6681114077408
 31
0.0
  0
INSERT
  5
21DC
330
2190
100
AcDbEntity
  8
SUNPOU
 62
     4
370
    -2
100
AcDbBlockReference
  2
_OPEN
 10
387.1500596934044
 20
219.6681114077408
 30
0.0
 41
7.0
 42
7.0
 43
7.0
 50
180.0
  0
INSERT
  5
21DD
330
2190
100
AcDbEntity
  8
SUNPOU
 62
     4
370
    -2
100
AcDbBlockReference
  2
_OPEN
 10
417.1500534350044
 20
219.6681114077408
 30
0.0
 41
7.0
 42
7.0
 43
7.0
  0
MTEXT
  5
21DE
330
2190
100
AcDbEntity
  8
SUNPOU
 62
     4
100
AcDbMText
 10
402.1500565642044
 20
224.6681114077408
 30
0.0
 40
6.0
 41
0.0
 71
     5
 72
     1
  1
\A1;30
 73
     1
 44
1.0
  0
POINT
  5
21DF
330
2190
100
AcDbEntity
  8
DEFPOINTS
 62
     0
100
AcDbPoint
 10
387.1500596934044
 20
244.9986971026757
 30
0.0
  0
POINT
  5
21E0
330
2190
100
AcDbEntity
  8
DEFPOINTS
 62
     0
100
AcDbPoint
 10
417.1500534350044
 20
244.9986971026757
 30
0.0
  0
POINT
  5
21E1
330
2190
100
AcDbEntity
  8
DEFPOINTS
 62
     0
100
AcDbPoint
 10
417.1500534350044
 20
219.6681114077408
 30
0.0
  0
ENDBLK
  5
219B
330
2190
100
AcDbEntity
  8
0
100
AcDbBlockEnd
  0
BLOCK
  5
21A6
330
219C
100
AcDbEntity
  8
0
100
AcDbBlockBegin
  2
*D5
 70
     1
 71
     0
 10
0.0
 20
0.0
 30
0.0
  3
*D5
  1

  0
LINE
  5
21E2
330
219C
100
AcDbEntity
  8
SUNPOU
 62
     4
370
    -2
100
AcDbLine
 10
352.1805137926044
 20
248.3495352423257
 30
0.0
 11
352.1805137926044
 21
215.9981387287203
 31
0.0
  0
LINE
  5
21E3
330
219C
100
AcDbEntity
  8
SUNPOU
 62
     4
370
    -2
100
AcDbLine
 10
371.8865953916044
 20
249.0281415736757
 30
0.0
 11
371.8865953916044
 21
215.9981387287203
 31
0.0
  0
LINE
  5
21E4
330
219C
100
AcDbEntity
  8
SUNPOU
 62
     4
370
    -2
100
AcDbLine
 10
359.1805137926044
 20
218.9981387287203
 30
0.0
 11
364.8865953916044
 21
218.9981387287203
 31
0.0
  0
INSERT
  5
21E5
330
219C
100
AcDbEntity
  8
SUNPOU
 62
     4
370
    -2
100
AcDbBlockReference
  2
_OPEN
 10
352.1805137926044
 20
218.9981387287203
 30
0.0
 41
7.0
 42
7.0
 43
7.0
 50
180.0
  0
INSERT
  5
21E6
330
219C
100
AcDbEntity
  8
SUNPOU
 62
     4
370
    -2
100
AcDbBlockReference
  2
_OPEN
 10
371.8865953916044
 20
218.9981387287203
 30
0.0
 41
7.0
 42
7.0
 43
7.0
  0
MTEXT
  5
21E7
330
219C
100
AcDbEntity
  8
SUNPOU
 62
     4
100
AcDbMText
 10
362.0335545921043
 20
223.9981387287203
 30
0.0
 40
6.0
 41
0.0
 71
     5
 72
     1
  1
\A1;20
 73
     1
 44
1.0
  0
POINT
  5
21E8
330
219C
100
AcDbEntity
  8
DEFPOINTS
 62
     0
100
AcDbPoint
 10
352.1805137926044
 20
254.3495352423257
 30
0.0
  0
POINT
  5
21E9
330
219C
100
AcDbEntity
  8
DEFPOINTS
 62
     0
100
AcDbPoint
 10
371.8865953916044
 20
255.0281415736757
 30
0.0
  0
POINT
  5
21EA
330
219C
100
AcDbEntity
  8
DEFPOINTS
 62
     0
100
AcDbPoint
 10
371.8865953916044
 20
218.9981387287203
 30
0.0
  0
ENDBLK
  5
21A7
330
219C
100
AcDbEntity
  8
0
100
AcDbBlockEnd
  0
BLOCK
  5
21B0
330
21A8
100
AcDbEntity
  8
0
100
AcDbBlockBegin
  2
*D6
 70
     1
 71
     0
 10
0.0
 20
0.0
 30
0.0
  3
*D6
  1

  0
LINE
  5
21EB
330
21A8
100
AcDbEntity
  8
SUNPOU
 62
     0
370
    -2
100
AcDbLine
 10
339.9928673845938
 20
363.7097663773843
 30
0.0
 11
376.8118468167096
 21
326.8907869452699
 31
0.0
  0
MTEXT
  5
21EC
330
21A8
100
AcDbEntity
  8
SUNPOU
 62
     0
100
AcDbMText
 10
334.6283823065034
 20
369.0742514554744
 30
0.0
 40
8.995833063099999
 41
0.0
 71
     5
 72
     1
  1
\A1;\U+22052
 11
0.707106781186562
 21
-0.707106781186533
 31
0.0
 73
     1
 44
1.0
  0
SOLID
  5
21ED
330
21A8
100
AcDbEntity
  8
SUNPOU
 62
     0
100
AcDbTrace
 10
377.2503641516087
 20
327.329304280169
 30
0.0
 11
376.3733294818105
 21
326.4522696103708
 31
0.0
 12
379.4429508261042
 22
324.2596829358754
 32
0.0
 13
379.4429508261042
 23
324.2596829358754
 33
0.0
  0
LINE
  5
21EE
330
21A8
100
AcDbEntity
  8
SUNPOU
 62
     0
370
    -2
100
AcDbLine
 10
380.0600576073041
 20
323.5525761546755
 30
0.0
 11
380.2400576073041
 21
323.5525761546755
 31
0.0
  0
LINE
  5
21EF
330
21A8
100
AcDbEntity
  8
SUNPOU
 62
     0
370
    -2
100
AcDbLine
 10
380.1500576073041
 20
323.4625761546755
 30
0.0
 11
380.1500576073041
 21
323.6425761546755
 31
0.0
  0
POINT
  5
21F0
330
21A8
100
AcDbEntity
  8
DEFPOINTS
 62
     0
100
AcDbPoint
 10
379.4429508261042
 20
324.2596829358754
 30
0.0
  0
POINT
  5
21F1
330
21A8
100
AcDbEntity
  8
DEFPOINTS
 62
     0
100
AcDbPoint
 10
380.8571643885042
 20
322.8454693734756
 30
0.0
  0
ENDBLK
  5
21B1
330
21A8
100
AcDbEntity
  8
0
100
AcDbBlockEnd
  0
BLOCK
  5
21BC
330
21B2
100
AcDbEntity
  8
0
100
AcDbBlockBegin
  2
*D7
 70
     1
 71
     0
 10
0.0
 20
0.0
 30
0.0
  3
*D7
  1

  0
LINE
  5
21F2
330
21B2
100
AcDbEntity
  8
SUNPOU
 62
     4
370
    -2
100
AcDbLine
 10
514.0086488331044
 20
313.9349537423757
 30
0.0
 11
514.0086488331044
 21
386.726565582044
 31
0.0
  0
LINE
  5
21F3
330
21B2
100
AcDbEntity
  8
SUNPOU
 62
     4
370
    -2
100
AcDbLine
 10
551.0817907283044
 20
254.7948834007757
 30
0.0
 11
551.0817907283044
 21
386.726565582044
 31
0.0
  0
LINE
  5
21F4
330
21B2
100
AcDbEntity
  8
SUNPOU
 62
     4
370
    -2
100
AcDbLine
 10
521.0086488331044
 20
383.726565582044
 30
0.0
 11
544.0817907283044
 21
383.726565582044
 31
0.0
  0
INSERT
  5
21F5
330
21B2
100
AcDbEntity
  8
SUNPOU
 62
     4
370
    -2
100
AcDbBlockReference
  2
_OPEN
 10
514.0086488331044
 20
383.726565582044
 30
0.0
 41
7.0
 42
7.0
 43
7.0
 50
180.0
  0
INSERT
  5
21F6
330
21B2
100
AcDbEntity
  8
SUNPOU
 62
     4
370
    -2
100
AcDbBlockReference
  2
_OPEN
 10
551.0817907283044
 20
383.726565582044
 30
0.0
 41
7.0
 42
7.0
 43
7.0
  0
MTEXT
  5
21F7
330
21B2
100
AcDbEntity
  8
SUNPOU
 62
     4
100
AcDbMText
 10
532.5452197807044
 20
388.726565582044
 30
0.0
 40
6.0
 41
0.0
 71
     5
 72
     1
  1
\A1;37
 73
     1
 44
1.0
  0
POINT
  5
21F8
330
21B2
100
AcDbEntity
  8
DEFPOINTS
 62
     0
100
AcDbPoint
 10
514.0086488331044
 20
307.9349537423757
 30
0.0
  0
POINT
  5
21F9
330
21B2
100
AcDbEntity
  8
DEFPOINTS
 62
     0
100
AcDbPoint
 10
551.0817907283044
 20
248.7948834007757
 30
0.0
  0
POINT
  5
21FA
330
21B2
100
AcDbEntity
  8
DEFPOINTS
 62
     0
100
AcDbPoint
 10
551.0817907283044
 20
383.726565582044
 30
0.0
  0
ENDBLK
  5
21BD
330
21B2
100
AcDbEntity
  8
0
100
AcDbBlockEnd
  0
ENDSEC
  0
SECTION
  2
ENTITIES
  0
LINE
  5
7BE
330
1A
100
AcDbEntity
  8
ZUWAKU
100
AcDbLine
 10
208.646601303624
 20
15.19999986828872
 30
0.0
 11
447.4243639845474
 21
15.19999986828871
 31
0.0
  0
LINE
  5
7BF
330
1A
100
AcDbEntity
  8
ZUWAKU
100
AcDbLine
 10
208.646601303624
 20
15.59999986828872
 30
0.0
 11
447.4243639845474
 21
15.59999986828872
 31
0.0
  0
LINE
  5
7C0
330
1A
100
AcDbEntity
  8
ZUWAKU
100
AcDbLine
 10
208.646601303624
 20
15.39999986828872
 30
0.0
 11
447.4243639845474
 21
15.39999986828872
 31
0.0
  0
LINE
  5
7C1
330
1A
100
AcDbEntity
  8
ZUWAKU
100
AcDbLine
 10
0.0000000135560185
 20
30.79999986828869
 30
0.0
 11
797.4000000135559
 21
30.79999986828869
 31
0.0
  0
LINE
  5
7C2
330
1A
100
AcDbEntity
  8
ZUWAKU
100
AcDbLine
 10
0.0000000135560185
 20
30.59999986828869
 30
0.0
 11
797.4000000135559
 21
30.59999986828869
 31
0.0
  0
LINE
  5
7C3
330
1A
100
AcDbEntity
  8
ZUWAKU
100
AcDbLine
 10
0.0000000135560185
 20
30.39999986828869
 30
0.0
 11
797.4000000135559
 21
30.39999986828869
 31
0.0
  0
LINE
  5
7C4
330
1A
100
AcDbEntity
  8
ZUWAKU
100
AcDbLine
 10
0.0000000135560185
 20
30.19999986828869
 30
0.0
 11
797.4000000135559
 21
30.19999986828869
 31
0.0
  0
LINE
  5
7C5
330
1A
100
AcDbEntity
  8
ZUWAKU
100
AcDbLine
 10
0.0000000135560185
 20
29.99999986828868
 30
0.0
 11
797.4000000135559
 21
29.99999986828868
 31
0.0
  0
LWPOLYLINE
  5
7C6
330
1A
100
AcDbEntity
  8
ZUWAKU
100
AcDbPolyline
 90
        4
 70
     1
 43
0.0
 10
0.2000000135559503
 20
551.3999998682888
 10
0.2000000135559503
 20
0.1999998682887281
 10
797.4000000135559
 20
0.1999998682887512
 10
797.4000000135561
 20
551.3999998682888
  0
LWPOLYLINE
  5
7C7
330
1A
100
AcDbEntity
  8
ZUWAKU
100
AcDbPolyline
 90
        4
 70
     1
 43
0.0
 10
0.6000000135559276
 20
550.9999998682888
 10
0.6000000135559276
 20
0.5999998682887053
 10
797.0000000135563
 20
0.5999998682887515
 10
797.000000013556
 20
550.9999998682888
  0
LWPOLYLINE
  5
7C8
330
1A
100
AcDbEntity
  8
ZUWAKU
100
AcDbPolyline
 90
        4
 70
     1
 43
0.0
 10
0.0000000135560185
 20
551.5999998682887
 10
0.0000000135560185
 20
-0.0000001317113174
 10
797.6000000135562
 20
-0.0000001317112499
 10
797.6000000135562
 20
551.5999998682888
  0
LWPOLYLINE
  5
7C9
330
1A
100
AcDbEntity
  8
ZUWAKU
100
AcDbPolyline
 90
        4
 70
     1
 43
0.0
 10
0.4000000135559958
 20
551.1999998682887
 10
0.4000000135559958
 20
0.3999998682887735
 10
797.2000000135561
 20
0.3999998682887505
 10
797.2000000135561
 20
551.1999998682887
  0
LWPOLYLINE
  5
7CA
330
1A
100
AcDbEntity
  8
ZUWAKU
100
AcDbPolyline
 90
        4
 70
     1
 43
0.0
 10
0.8000000135559731
 20
550.7999998682888
 10
0.8000000135559731
 20
0.7999998682887508
 10
796.800000013556
 20
0.7999998682887508
 10
796.800000013556
 20
550.7999998682888
  0
TEXT
  5
7CB
330
1A
100
AcDbEntity
  8
moji
100
AcDbText
 10
92.95778960172515
 20
12.74117799856344
 30
0.0
 40
6.0
  1
アーバントップΣ９０
 41
0.9
  7
ｽﾀｲﾙ1
100
AcDbText
  0
HATCH
  5
7CC
330
1A
100
AcDbEntity
  8
ZUWAKU
100
AcDbHatch
 10
0.0
 20
0.0
 30
0.0
210
0.0
220
0.0
230
1.0
  2
ANSI37
 70
     0
 71
     0
 91
        8
 92
        7
 72
     1
 73
     1
 93
       24
 10
14.50226267467588
 20
17.64484834927227
 42
-0.1989123673796348
 10
14.09221216833714
 20
18.63479784293332
 42
0.0
 10
14.09221216833714
 20
19.92499986828869
 42
-0.4142135623730912
 10
14.61721216833712
 20
20.44999986828869
 42
0.0
 10
17.59221216833703
 20
20.44999986828869
 42
0.4142135623731546
 10
18.11721216833712
 20
20.97499986828868
 42
0.0
 10
18.11721216833712
 20
22.72499986828869
 42
0.4142135623731586
 10
17.59221216833703
 20
23.24999986828869
 42
0.0
 10
14.09221216833714
 20
23.24999986828869
 42
0.4142135623730928
 10
11.29221216833719
 20
20.44999986828871
 42
0.0
 10
11.29221216833719
 20
18.63479784293345
 42
0.1989123673796619
 10
12.52236368735362
 20
15.66494936194984
 42
0.0
 10
15.43216166199829
 20
12.75515138730518
 42
-0.1989123673796613
 10
15.84221216833714
 20
11.76520189364399
 42
0.0
 10
15.84221216833714
 20
10.47499986828868
 42
-0.4142135623730911
 10
15.31721216833716
 20
9.949999868288685
 42
0.0
 10
12.34221216833726
 20
9.949999868288685
 42
0.4142135623731526
 10
11.81721216833716
 20
9.424999868288698
 42
0.0
 10
11.81721216833716
 20
7.674999868288676
 42
0.4142135623731526
 10
12.34221216833726
 20
7.149999868288688
 42
0.0
 10
15.84221216833714
 20
7.149999868288688
 42
0.4142135623731044
 10
18.64221216833721
 20
9.949999868288664
 42
0.0
 10
18.64221216833721
 20
11.76520189364394
 42
0.1989123673796604
 10
17.41206064932067
 20
14.73505037462748
 42
0.0
 97
        0
 92
        7
 72
     1
 73
     1
 93
       16
 10
23.54221216833719
 20
19.04999986828869
 42
-0.4142135623730935
 10
24.94221216833716
 20
20.44999986828869
 42
0.0
 10
26.86721216833712
 20
20.44999986828869
 42
0.4142135623731546
 10
27.39221216833721
 20
20.97499986828868
 42
0.0
 10
27.39221216833721
 20
22.72499986828869
 42
0.4142135623730952
 10
26.86721216833723
 20
23.24999986828869
 42
0.0
 10
24.94221216833705
 20
23.24999986828865
 42
0.4142135623730892
 10
20.74221216833712
 20
19.04999986828862
 42
0.0
 10
20.74221216833712
 20
11.34999986828871
 42
0.4142135623730969
 10
24.94221216833716
 20
7.149999868288688
 42
0.0
 10
26.86721216833712
 20
7.149999868288688
 42
0.4142135623731526
 10
27.39221216833721
 20
7.674999868288676
 42
0.0
 10
27.39221216833721
 20
9.424999868288698
 42
0.414213562373089
 10
26.86721216833723
 20
9.949999868288685
 42
0.0
 10
24.94221216833716
 20
9.949999868288685
 42
-0.4142135623730928
 10
23.54221216833719
 20
11.34999986828867
 42
0.0
 97
        0
 92
        7
 72
     1
 73
     1
 93
        2
 10
24.24221216833712
 20
15.19999986828869
 42
1.0
 10
27.74221216833712
 20
15.19999986828869
 42
1.0
 97
        0
 92
        7
 72
     1
 73
     1
 93
       26
 10
37.31485865051513
 20
19.20504706185211
 42
0.0
 10
38.37649828365295
 20
22.5669059001217
 42
0.5069206636600134
 10
37.87586738445759
 20
23.24999986828869
 42
0.0
 10
36.17697800484837
 20
23.24999986828869
 42
0.3272098845218764
 10
35.67634710565301
 20
22.88309383645566
 42
0.0
 10
33.80807723102123
 20
16.96690590012177
 42
-0.3272098845219541
 10
33.30744633182576
 20
16.59999986828868
 42
0.0
 10
33.1672121683373
 20
16.59999986828868
 42
-0.4142135623731526
 10
32.64221216833721
 20
17.12499986828867
 42
0.0
 10
32.64221216833721
 20
22.72499986828869
 42
0.4142135623730952
 10
32.11721216833723
 20
23.24999986828869
 42
0.0
 10
30.36721216833712
 20
23.24999986828869
 42
0.4142135623730872
 10
29.84221216833714
 20
22.72499986828871
 42
0.0
 10
29.84221216833714
 20
7.674999868288676
 42
0.414213562373089
 10
30.36721216833712
 20
7.149999868288688
 42
0.0
 10
32.11721216833712
 20
7.149999868288688
 42
0.4142135623731526
 10
32.64221216833721
 20
7.674999868288676
 42
0.0
 10
32.64221216833721
 20
13.2749998682887
 42
-0.4142135623731526
 10
33.1672121683373
 20
13.79999986828869
 42
0.0
 10
33.30744633182587
 20
13.79999986828869
 42
-0.3272098845218915
 10
33.80807723102123
 20
13.43309383645561
 42
0.0
 10
35.67634710565301
 20
7.51690590012176
 42
0.3272098845218902
 10
36.17697800484837
 20
7.149999868288688
 42
0.0
 10
37.87586738445759
 20
7.149999868288688
 42
0.5069206636600334
 10
38.37649828365295
 20
7.833093836455696
 42
0.0
 10
36.05010690517929
 20
15.19999986828882
 42
0.0
 97
        0
 92
        7
 72
     1
 73
     1
 93
        8
 10
43.49221216833712
 20
22.7249998682887
 42
0.4142135623731546
 10
42.96721216833703
 20
23.24999986828869
 42
0.0
 10
41.21721216833726
 20
23.24999986828869
 42
0.4142135623731506
 10
40.69221216833716
 20
22.72499986828871
 42
0.0
 10
40.69221216833716
 20
7.674999868288676
 42
0.4142135623731526
 10
41.21721216833726
 20
7.149999868288688
 42
0.0
 10
42.96721216833703
 20
7.149999868288688
 42
0.4142135623731526
 10
43.49221216833712
 20
7.674999868288676
 42
0.0
 97
        0
 92
        7
 72
     1
 73
     1
 93
       24
 10
48.39221216833721
 20
19.92499986828869
 42
-0.4142135623731547
 10
48.9172121683373
 20
20.44999986828869
 42
0.0
 10
51.89221216833721
 20
20.44999986828869
 42
0.4142135623730911
 10
52.41721216833719
 20
20.97499986828868
 42
0.0
 10
52.41721216833719
 20
22.72499986828869
 42
0.4142135623730952
 10
51.89221216833721
 20
23.24999986828869
 42
0.0
 10
48.39221216833721
 20
23.24999986828869
 42
0.4142135623731048
 10
45.59221216833714
 20
20.44999986828871
 42
0.0
 10
45.59221216833714
 20
18.63479784293345
 42
0.1989123673796613
 10
46.82236368735369
 20
15.66494936194989
 42
0.0
 10
49.73216166199836
 20
12.75515138730523
 42
-0.1989123673796402
 10
50.14221216833721
 20
11.76520189364415
 42
0.0
 10
50.14221216833721
 20
10.47499986828868
 42
-0.4142135623730911
 10
49.61721216833723
 20
9.949999868288685
 42
0.0
 10
46.64221216833721
 20
9.949999868288685
 42
0.4142135623731526
 10
46.11721216833712
 20
9.424999868288698
 42
0.0
 10
46.11721216833712
 20
7.674999868288676
 42
0.414213562373089
 10
46.6422121683371
 20
7.149999868288688
 42
0.0
 10
50.14221216833721
 20
7.149999868288688
 42
0.4142135623730925
 10
52.94221216833716
 20
9.949999868288664
 42
0.0
 10
52.94221216833716
 20
11.76520189364394
 42
0.1989123673796675
 10
51.71206064932062
 20
14.73505037462759
 42
0.0
 10
48.80226267467606
 20
17.64484834927211
 42
-0.1989123673796653
 10
48.39221216833721
 20
18.63479784293327
 42
0.0
 97
        0
 92
        7
 72
     1
 73
     1
 93
       16
 10
57.84221216833714
 20
22.72499986828868
 42
0.414213562373103
 10
57.31721216833716
 20
23.24999986828869
 42
0.0
 10
55.56721216833716
 20
23.24999986828869
 42
0.4142135623730872
 10
55.04221216833719
 20
22.72499986828871
 42
0.0
 10
55.04221216833719
 20
9.949999868288664
 42
0.4142135623730925
 10
57.84221216833714
 20
7.149999868288688
 42
0.0
 10
61.34221216833714
 20
7.149999868288688
 42
0.4142135623731044
 10
64.14221216833721
 20
9.949999868288664
 42
0.0
 10
64.14221216833721
 20
22.72499986828869
 42
0.4142135623730952
 10
63.61721216833723
 20
23.24999986828869
 42
0.0
 10
61.86721216833712
 20
23.24999986828869
 42
0.4142135623730872
 10
61.34221216833714
 20
22.72499986828871
 42
0.0
 10
61.34221216833714
 20
10.99999986828866
 42
-0.414213562373088
 10
60.29221216833719
 20
9.949999868288685
 42
0.0
 10
58.89221216833721
 20
9.949999868288685
 42
-0.4142135623731197
 10
57.84221216833714
 20
10.99999986828866
 42
0.0
 97
        0
 92
        7
 72
     1
 73
     1
 93
        8
 10
69.04221216833719
 20
22.72499986828871
 42
0.4142135623730872
 10
68.51721216833721
 20
23.24999986828869
 42
0.0
 10
66.76721216833721
 20
23.24999986828869
 42
0.4142135623731506
 10
66.24221216833712
 20
22.72499986828871
 42
0.0
 10
66.24221216833712
 20
7.674999868288676
 42
0.414213562373089
 10
66.7672121683371
 20
7.149999868288688
 42
0.0
 10
68.51721216833721
 20
7.149999868288688
 42
0.414213562373089
 10
69.04221216833719
 20
7.674999868288676
 42
0.0
 97
        0
 75
     0
 76
     1
 52
0.0
 41
0.2
 77
     0
 78
     2
 53
45.0
 43
-900.942304321123
 44
-13.20000013171125
 45
-0.4490128060534576
 46
0.4490128060534577
 79
     0
 53
135.0
 43
-900.942304321123
 44
-13.20000013171125
 45
-0.4490128060534577
 46
-0.4490128060534576
 79
     0
 47
0.057451373970553
 98
        8
 10
16.07985497657933
 20
15.16717351417424
 10
22.40451501999519
 20
18.84406205073969
 10
25.16436789921568
 20
15.5118815143594
 10
30.91405999519316
 20
16.20129751473019
 10
41.83847203251276
 20
16.6609097822718
 10
46.89820090868557
 20
19.41857618469589
 10
56.55768598595637
 20
18.7291577833837
 10
67.82707963317876
 20
19.18877005092531
  0
LINE
  5
7CD
330
1A
100
AcDbEntity
  8
ZUWAKU
100
AcDbLine
 10
24.94221216833716
 20
23.24999986828865
 30
0.0
 11
26.86721216833712
 21
23.24999986828869
 31
0.0
  0
LINE
  5
7CE
330
1A
100
AcDbEntity
  8
ZUWAKU
100
AcDbLine
 10
26.86721216833712
 20
20.44999986828869
 30
0.0
 11
24.94221216833716
 21
20.44999986828869
 31
0.0
  0
LINE
  5
7CF
330
1A
100
AcDbEntity
  8
ZUWAKU
100
AcDbLine
 10
24.94221216833716
 20
9.949999868288685
 30
0.0
 11
26.86721216833712
 21
9.949999868288685
 31
0.0
  0
LINE
  5
7D0
330
1A
100
AcDbEntity
  8
ZUWAKU
100
AcDbLine
 10
26.86721216833712
 20
7.149999868288688
 30
0.0
 11
24.94221216833716
 21
7.149999868288688
 31
0.0
  0
CIRCLE
  5
7D1
330
1A
100
AcDbEntity
  8
ZUWAKU
100
AcDbCircle
 10
25.99221216833712
 20
15.19999986828869
 30
0.0
 40
1.75
  0
ARC
  5
7D2
330
1A
100
AcDbEntity
  8
ZUWAKU
100
AcDbCircle
 10
15.49221216833712
 20
18.63479784293339
 30
0.0
 40
1.4
100
AcDbArc
 50
180.0000000000016
 51
224.9999999999988
  0
LINE
  5
7D3
330
1A
100
AcDbEntity
  8
ZUWAKU
100
AcDbLine
 10
23.54221216833719
 20
19.04999986828869
 30
0.0
 11
23.54221216833719
 21
11.34999986828869
 31
0.0
  0
LINE
  5
7D4
330
1A
100
AcDbEntity
  8
ZUWAKU
100
AcDbLine
 10
20.74221216833712
 20
11.34999986828869
 30
0.0
 11
20.74221216833712
 21
19.04999986828864
 31
0.0
  0
ARC
  5
7D5
330
1A
100
AcDbEntity
  8
ZUWAKU
100
AcDbCircle
 10
15.49221216833712
 20
18.63479784293339
 30
0.0
 40
4.199999999999999
100
AcDbArc
 50
180.0
 51
225.0
  0
ARC
  5
7D6
330
1A
100
AcDbEntity
  8
ZUWAKU
100
AcDbCircle
 10
15.84221216833714
 20
9.949999868288685
 30
0.0
 40
2.8
100
AcDbArc
 50
270.0
 51
0.0
  0
ARC
  5
7D7
330
1A
100
AcDbEntity
  8
ZUWAKU
100
AcDbCircle
 10
24.94221216833716
 20
11.34999986828869
 30
0.0
 40
4.199999999999999
100
AcDbArc
 50
180.0
 51
270.0
  0
ARC
  5
7D8
330
1A
100
AcDbEntity
  8
ZUWAKU
100
AcDbCircle
 10
14.44221216833716
 20
11.76520189364399
 30
0.0
 40
4.199999999999999
100
AcDbArc
 50
0.0
 51
45.0
  0
LINE
  5
7D9
330
1A
100
AcDbEntity
  8
ZUWAKU
100
AcDbLine
 10
17.41206064932067
 20
14.73505037462751
 30
0.0
 11
14.50226267467599
 21
17.64484834927219
 31
0.0
  0
LINE
  5
7DA
330
1A
100
AcDbEntity
  8
ZUWAKU
100
AcDbLine
 10
15.84221216833714
 20
10.47499986828869
 30
0.0
 11
15.84221216833714
 21
11.76520189364403
 31
0.0
  0
ARC
  5
7DB
330
1A
100
AcDbEntity
  8
ZUWAKU
100
AcDbCircle
 10
15.31721216833716
 20
10.47499986828869
 30
0.0
 40
0.5249999999999999
100
AcDbArc
 50
270.0
 51
0.0
  0
ARC
  5
7DC
330
1A
100
AcDbEntity
  8
ZUWAKU
100
AcDbCircle
 10
14.44221216833716
 20
11.76520189364403
 30
0.0
 40
1.4
100
AcDbArc
 50
0.0
 51
45.0
  0
LINE
  5
7DD
330
1A
100
AcDbEntity
  8
ZUWAKU
100
AcDbLine
 10
11.81721216833716
 20
7.674999868288687
 30
0.0
 11
11.81721216833716
 21
9.424999868288687
 31
0.0
  0
ARC
  5
7DE
330
1A
100
AcDbEntity
  8
ZUWAKU
100
AcDbCircle
 10
12.34221216833714
 20
7.674999868288687
 30
0.0
 40
0.5249999999999999
100
AcDbArc
 50
180.0
 51
270.0
  0
ARC
  5
7DF
330
1A
100
AcDbEntity
  8
ZUWAKU
100
AcDbCircle
 10
12.34221216833714
 20
9.424999868288687
 30
0.0
 40
0.5249999999999999
100
AcDbArc
 50
90.0
 51
180.0
  0
LINE
  5
7E0
330
1A
100
AcDbEntity
  8
ZUWAKU
100
AcDbLine
 10
12.34221216833714
 20
7.149999868288688
 30
0.0
 11
15.84221216833714
 21
7.149999868288688
 31
0.0
  0
LINE
  5
7E1
330
1A
100
AcDbEntity
  8
ZUWAKU
100
AcDbLine
 10
12.34221216833714
 20
9.949999868288685
 30
0.0
 11
15.31721216833716
 21
9.949999868288685
 31
0.0
  0
LINE
  5
7E2
330
1A
100
AcDbEntity
  8
ZUWAKU
100
AcDbLine
 10
12.52236368735362
 20
15.66494936194987
 30
0.0
 11
15.43216166199829
 21
12.7551513873052
 31
0.0
  0
LINE
  5
7E3
330
1A
100
AcDbEntity
  8
ZUWAKU
100
AcDbLine
 10
18.64221216833721
 20
9.949999868288685
 30
0.0
 11
18.64221216833721
 21
11.76520189364403
 31
0.0
  0
ARC
  5
7E4
330
1A
100
AcDbEntity
  8
ZUWAKU
100
AcDbCircle
 10
24.94221216833716
 20
11.34999986828869
 30
0.0
 40
1.4
100
AcDbArc
 50
180.0
 51
270.0
  0
ARC
  5
7E5
330
1A
100
AcDbEntity
  8
ZUWAKU
100
AcDbCircle
 10
17.59221216833714
 20
22.72499986828868
 30
0.0
 40
0.5249999999999999
100
AcDbArc
 50
0.0
 51
90.0
  0
ARC
  5
7E6
330
1A
100
AcDbEntity
  8
ZUWAKU
100
AcDbCircle
 10
17.59221216833714
 20
20.97499986828868
 30
0.0
 40
0.5249999999999999
100
AcDbArc
 50
270.0
 51
0.0
  0
LINE
  5
7E7
330
1A
100
AcDbEntity
  8
ZUWAKU
100
AcDbLine
 10
14.09221216833714
 20
23.24999986828869
 30
0.0
 11
17.59221216833714
 21
23.24999986828869
 31
0.0
  0
ARC
  5
7E8
330
1A
100
AcDbEntity
  8
ZUWAKU
100
AcDbCircle
 10
14.61721216833712
 20
19.92499986828869
 30
0.0
 40
0.5249999999999999
100
AcDbArc
 50
90.0
 51
180.0
  0
LINE
  5
7E9
330
1A
100
AcDbEntity
  8
ZUWAKU
100
AcDbLine
 10
14.09221216833714
 20
19.92499986828869
 30
0.0
 11
14.09221216833714
 21
18.63479784293335
 31
0.0
  0
LINE
  5
7EA
330
1A
100
AcDbEntity
  8
ZUWAKU
100
AcDbLine
 10
17.59221216833714
 20
20.44999986828869
 30
0.0
 11
14.61721216833712
 21
20.44999986828869
 31
0.0
  0
LINE
  5
7EB
330
1A
100
AcDbEntity
  8
ZUWAKU
100
AcDbLine
 10
11.29221216833719
 20
20.44999986828869
 30
0.0
 11
11.29221216833719
 21
18.63479784293335
 31
0.0
  0
ARC
  5
7EC
330
1A
100
AcDbEntity
  8
ZUWAKU
100
AcDbCircle
 10
14.09221216833714
 20
20.44999986828869
 30
0.0
 40
2.8
100
AcDbArc
 50
90.0
 51
180.0
  0
LINE
  5
7ED
330
1A
100
AcDbEntity
  8
ZUWAKU
100
AcDbLine
 10
18.11721216833712
 20
22.72499986828868
 30
0.0
 11
18.11721216833712
 21
20.97499986828868
 31
0.0
  0
ARC
  5
7EE
330
1A
100
AcDbEntity
  8
ZUWAKU
100
AcDbCircle
 10
24.94221216833716
 20
19.04999986828869
 30
0.0
 40
1.4
100
AcDbArc
 50
90.0
 51
180.0
  0
ARC
  5
7EF
330
1A
100
AcDbEntity
  8
ZUWAKU
100
AcDbCircle
 10
24.94221216833716
 20
19.04999986828864
 30
0.0
 40
4.199999999999999
100
AcDbArc
 50
90.0
 51
180.0
  0
LINE
  5
7F0
330
1A
100
AcDbEntity
  8
ZUWAKU
100
AcDbLine
 10
79.32662956154422
 20
29.99999986828868
 30
0.0
 11
79.32662956154445
 21
0.7999998682887508
 31
0.0
  0
LINE
  5
7F1
330
1A
100
AcDbEntity
  8
ZUWAKU
100
AcDbLine
 10
79.52662956154427
 20
29.99999986828868
 30
0.0
 11
79.5266295615445
 21
0.7999998682887508
 31
0.0
  0
LINE
  5
7F2
330
1A
100
AcDbEntity
  8
ZUWAKU
100
AcDbLine
 10
79.12662956154441
 20
29.99999986828868
 30
0.0
 11
79.12662956154441
 21
0.7999998682887508
 31
0.0
  0
LINE
  5
7F3
330
1A
100
AcDbEntity
  8
ZUWAKU
100
AcDbLine
 10
64.14221216833721
 20
9.949999868288685
 30
0.0
 11
64.14221216833721
 21
22.72499986828868
 31
0.0
  0
LINE
  5
7F4
330
1A
100
AcDbEntity
  8
ZUWAKU
100
AcDbLine
 10
61.34221216833714
 20
22.72499986828868
 30
0.0
 11
61.34221216833714
 21
10.99999986828868
 31
0.0
  0
LINE
  5
7F5
330
1A
100
AcDbEntity
  8
ZUWAKU
100
AcDbLine
 10
69.04221216833719
 20
7.674999868288687
 30
0.0
 11
69.04221216833719
 21
22.72499986828868
 31
0.0
  0
LINE
  5
7F6
330
1A
100
AcDbEntity
  8
ZUWAKU
100
AcDbLine
 10
66.24221216833712
 20
22.72499986828868
 30
0.0
 11
66.24221216833712
 21
7.674999868288687
 31
0.0
  0
ARC
  5
7F7
330
1A
100
AcDbEntity
  8
ZUWAKU
100
AcDbCircle
 10
49.79221216833719
 20
18.63479784293339
 30
0.0
 40
1.4
100
AcDbArc
 50
180.0000000000016
 51
224.9999999999988
  0
ARC
  5
7F8
330
1A
100
AcDbEntity
  8
ZUWAKU
100
AcDbCircle
 10
49.79221216833719
 20
18.63479784293339
 30
0.0
 40
4.199999999999999
100
AcDbArc
 50
180.0
 51
225.0
  0
LINE
  5
7F9
330
1A
100
AcDbEntity
  8
ZUWAKU
100
AcDbLine
 10
37.31485865051513
 20
19.20504706185211
 30
0.0
 11
36.05010690517929
 21
15.19999986828871
 31
0.0
  0
LINE
  5
7FA
330
1A
100
AcDbEntity
  8
ZUWAKU
100
AcDbLine
 10
40.69221216833716
 20
22.72499986828868
 30
0.0
 11
40.69221216833716
 21
7.674999868288687
 31
0.0
  0
LINE
  5
7FB
330
1A
100
AcDbEntity
  8
ZUWAKU
100
AcDbLine
 10
43.49221216833712
 20
7.674999868288687
 30
0.0
 11
43.49221216833712
 21
22.72499986828868
 31
0.0
  0
LINE
  5
7FC
330
1A
100
AcDbEntity
  8
ZUWAKU
100
AcDbLine
 10
55.04221216833719
 20
22.72499986828868
 30
0.0
 11
55.04221216833719
 21
9.949999868288685
 31
0.0
  0
LINE
  5
7FD
330
1A
100
AcDbEntity
  8
ZUWAKU
100
AcDbLine
 10
57.84221216833714
 20
10.99999986828868
 30
0.0
 11
57.84221216833714
 21
22.72499986828868
 31
0.0
  0
LINE
  5
7FE
330
1A
100
AcDbEntity
  8
ZUWAKU
100
AcDbLine
 10
32.64221216833721
 20
17.12499986828869
 30
0.0
 11
32.64221216833721
 21
22.72499986828868
 31
0.0
  0
LINE
  5
7FF
330
1A
100
AcDbEntity
  8
ZUWAKU
100
AcDbLine
 10
29.84221216833714
 20
22.72499986828868
 30
0.0
 11
29.84221216833714
 21
7.674999868288687
 31
0.0
  0
LINE
  5
800
330
1A
100
AcDbEntity
  8
ZUWAKU
100
AcDbLine
 10
35.67634710565301
 20
22.88309383645566
 30
0.0
 11
33.80807723102123
 21
16.96690590012172
 31
0.0
  0
LINE
  5
801
330
1A
100
AcDbEntity
  8
ZUWAKU
100
AcDbLine
 10
60.29221216833719
 20
9.949999868288685
 30
0.0
 11
58.89221216833721
 21
9.949999868288685
 31
0.0
  0
LINE
  5
802
330
1A
100
AcDbEntity
  8
ZUWAKU
100
AcDbLine
 10
57.84221216833714
 20
7.149999868288688
 30
0.0
 11
61.34221216833714
 21
7.149999868288688
 31
0.0
  0
LINE
  5
803
330
1A
100
AcDbEntity
  8
ZUWAKU
100
AcDbLine
 10
41.21721216833714
 20
7.149999868288688
 30
0.0
 11
42.96721216833714
 21
7.149999868288688
 31
0.0
  0
LINE
  5
804
330
1A
100
AcDbEntity
  8
ZUWAKU
100
AcDbLine
 10
35.67634710565301
 20
7.516905900121714
 30
0.0
 11
33.80807723102123
 21
13.43309383645565
 31
0.0
  0
ARC
  5
805
330
1A
100
AcDbEntity
  8
ZUWAKU
100
AcDbCircle
 10
33.30744633182587
 20
17.12499986828869
 30
0.0
 40
0.5249999999999999
100
AcDbArc
 50
270.0
 51
342.474431626277
  0
LINE
  5
806
330
1A
100
AcDbEntity
  8
ZUWAKU
100
AcDbLine
 10
33.30744633182587
 20
16.59999986828868
 30
0.0
 11
33.16721216833719
 21
16.59999986828868
 31
0.0
  0
LINE
  5
807
330
1A
100
AcDbEntity
  8
ZUWAKU
100
AcDbLine
 10
33.16721216833719
 20
13.79999986828869
 30
0.0
 11
33.30744633182587
 21
13.79999986828869
 31
0.0
  0
ARC
  5
808
330
1A
100
AcDbEntity
  8
ZUWAKU
100
AcDbCircle
 10
33.16721216833719
 20
17.12499986828869
 30
0.0
 40
0.5249999999999999
100
AcDbArc
 50
180.0
 51
270.0
  0
LINE
  5
809
330
1A
100
AcDbEntity
  8
ZUWAKU
100
AcDbLine
 10
30.36721216833712
 20
7.149999868288688
 30
0.0
 11
32.11721216833712
 21
7.149999868288688
 31
0.0
  0
ARC
  5
80A
330
1A
100
AcDbEntity
  8
ZUWAKU
100
AcDbCircle
 10
32.11721216833712
 20
7.674999868288687
 30
0.0
 40
0.5249999999999999
100
AcDbArc
 50
270.0
 51
0.0
  0
LINE
  5
80B
330
1A
100
AcDbEntity
  8
ZUWAKU
100
AcDbLine
 10
32.64221216833721
 20
7.674999868288687
 30
0.0
 11
32.64221216833721
 21
13.27499986828869
 31
0.0
  0
LINE
  5
80C
330
1A
100
AcDbEntity
  8
ZUWAKU
100
AcDbLine
 10
27.39221216833721
 20
9.424999868288687
 30
0.0
 11
27.39221216833721
 21
7.674999868288687
 31
0.0
  0
ARC
  5
80D
330
1A
100
AcDbEntity
  8
ZUWAKU
100
AcDbCircle
 10
26.86721216833712
 20
7.674999868288687
 30
0.0
 40
0.5249999999999999
100
AcDbArc
 50
270.0
 51
0.0
  0
ARC
  5
80E
330
1A
100
AcDbEntity
  8
ZUWAKU
100
AcDbCircle
 10
26.86721216833712
 20
9.424999868288687
 30
0.0
 40
0.5249999999999999
100
AcDbArc
 50
0.0
 51
90.0
  0
ARC
  5
80F
330
1A
100
AcDbEntity
  8
ZUWAKU
100
AcDbCircle
 10
30.36721216833712
 20
7.674999868288687
 30
0.0
 40
0.5249999999999999
100
AcDbArc
 50
180.0
 51
270.0
  0
ARC
  5
810
330
1A
100
AcDbEntity
  8
ZUWAKU
100
AcDbCircle
 10
33.30744633182587
 20
13.27499986828869
 30
0.0
 40
0.5249999999999999
100
AcDbArc
 50
17.52556837372303
 51
90.0
  0
ARC
  5
811
330
1A
100
AcDbEntity
  8
ZUWAKU
100
AcDbCircle
 10
33.16721216833719
 20
13.27499986828869
 30
0.0
 40
0.5249999999999999
100
AcDbArc
 50
90.0
 51
180.0
  0
ARC
  5
812
330
1A
100
AcDbEntity
  8
ZUWAKU
100
AcDbCircle
 10
41.21721216833714
 20
7.674999868288687
 30
0.0
 40
0.5249999999999999
100
AcDbArc
 50
180.0
 51
270.0
  0
LINE
  5
813
330
1A
100
AcDbEntity
  8
ZUWAKU
100
AcDbLine
 10
36.17697800484848
 20
7.149999868288688
 30
0.0
 11
37.87586738445748
 21
7.149999868288688
 31
0.0
  0
ARC
  5
814
330
1A
100
AcDbEntity
  8
ZUWAKU
100
AcDbCircle
 10
37.87586738445748
 20
7.674999868288687
 30
0.0
 40
0.5249999999999999
100
AcDbArc
 50
270.0
 51
17.52556837372303
  0
LINE
  5
815
330
1A
100
AcDbEntity
  8
ZUWAKU
100
AcDbLine
 10
38.37649828365295
 20
7.83309383645566
 30
0.0
 11
36.05010690517929
 21
15.19999986828871
 31
0.0
  0
ARC
  5
816
330
1A
100
AcDbEntity
  8
ZUWAKU
100
AcDbCircle
 10
36.17697800484848
 20
7.674999868288687
 30
0.0
 40
0.5249999999999999
100
AcDbArc
 50
197.525568373723
 51
270.0
  0
ARC
  5
817
330
1A
100
AcDbEntity
  8
ZUWAKU
100
AcDbCircle
 10
57.84221216833714
 20
9.949999868288685
 30
0.0
 40
2.8
100
AcDbArc
 50
180.0
 51
270.0
  0
ARC
  5
818
330
1A
100
AcDbEntity
  8
ZUWAKU
100
AcDbCircle
 10
50.14221216833721
 20
9.949999868288685
 30
0.0
 40
2.8
100
AcDbArc
 50
270.0
 51
0.0
  0
LINE
  5
819
330
1A
100
AcDbEntity
  8
ZUWAKU
100
AcDbLine
 10
51.71206064932073
 20
14.73505037462751
 30
0.0
 11
48.80226267467594
 21
17.64484834927219
 31
0.0
  0
LINE
  5
81A
330
1A
100
AcDbEntity
  8
ZUWAKU
100
AcDbLine
 10
50.14221216833721
 20
10.47499986828869
 30
0.0
 11
50.14221216833721
 21
11.76520189364403
 31
0.0
  0
ARC
  5
81B
330
1A
100
AcDbEntity
  8
ZUWAKU
100
AcDbCircle
 10
48.74221216833712
 20
11.76520189364403
 30
0.0
 40
1.4
100
AcDbArc
 50
0.0
 51
45.0
  0
ARC
  5
81C
330
1A
100
AcDbEntity
  8
ZUWAKU
100
AcDbCircle
 10
49.61721216833712
 20
10.47499986828869
 30
0.0
 40
0.5249999999999999
100
AcDbArc
 50
270.0
 51
0.0
  0
LINE
  5
81D
330
1A
100
AcDbEntity
  8
ZUWAKU
100
AcDbLine
 10
46.11721216833712
 20
7.674999868288687
 30
0.0
 11
46.11721216833712
 21
9.424999868288687
 31
0.0
  0
ARC
  5
81E
330
1A
100
AcDbEntity
  8
ZUWAKU
100
AcDbCircle
 10
46.64221216833721
 20
7.674999868288687
 30
0.0
 40
0.5249999999999999
100
AcDbArc
 50
180.0
 51
270.0
  0
ARC
  5
81F
330
1A
100
AcDbEntity
  8
ZUWAKU
100
AcDbCircle
 10
42.96721216833714
 20
7.674999868288687
 30
0.0
 40
0.5249999999999999
100
AcDbArc
 50
270.0
 51
0.0
  0
ARC
  5
820
330
1A
100
AcDbEntity
  8
ZUWAKU
100
AcDbCircle
 10
46.64221216833721
 20
9.424999868288687
 30
0.0
 40
0.5249999999999999
100
AcDbArc
 50
90.0
 51
180.0
  0
LINE
  5
821
330
1A
100
AcDbEntity
  8
ZUWAKU
100
AcDbLine
 10
46.64221216833721
 20
9.949999868288685
 30
0.0
 11
49.61721216833712
 21
9.949999868288685
 31
0.0
  0
LINE
  5
822
330
1A
100
AcDbEntity
  8
ZUWAKU
100
AcDbLine
 10
46.64221216833721
 20
7.149999868288688
 30
0.0
 11
50.14221216833721
 21
7.149999868288688
 31
0.0
  0
LINE
  5
823
330
1A
100
AcDbEntity
  8
ZUWAKU
100
AcDbLine
 10
46.82236368735369
 20
15.66494936194987
 30
0.0
 11
49.73216166199836
 21
12.7551513873052
 31
0.0
  0
LINE
  5
824
330
1A
100
AcDbEntity
  8
ZUWAKU
100
AcDbLine
 10
52.94221216833716
 20
9.949999868288685
 30
0.0
 11
52.94221216833716
 21
11.76520189364403
 31
0.0
  0
ARC
  5
825
330
1A
100
AcDbEntity
  8
ZUWAKU
100
AcDbCircle
 10
48.74221216833712
 20
11.76520189364399
 30
0.0
 40
4.199999999999999
100
AcDbArc
 50
0.0
 51
45.0
  0
ARC
  5
826
330
1A
100
AcDbEntity
  8
ZUWAKU
100
AcDbCircle
 10
58.89221216833721
 20
10.99999986828868
 30
0.0
 40
1.05
100
AcDbArc
 50
180.0
 51
270.0
  0
ARC
  5
827
330
1A
100
AcDbEntity
  8
ZUWAKU
100
AcDbCircle
 10
61.34221216833714
 20
9.949999868288685
 30
0.0
 40
2.8
100
AcDbArc
 50
270.0
 51
0.0
  0
LINE
  5
828
330
1A
100
AcDbEntity
  8
ZUWAKU
100
AcDbLine
 10
66.76721216833721
 20
7.149999868288688
 30
0.0
 11
68.51721216833721
 21
7.149999868288688
 31
0.0
  0
ARC
  5
829
330
1A
100
AcDbEntity
  8
ZUWAKU
100
AcDbCircle
 10
66.76721216833721
 20
7.674999868288687
 30
0.0
 40
0.5249999999999999
100
AcDbArc
 50
180.0
 51
270.0
  0
ARC
  5
82A
330
1A
100
AcDbEntity
  8
ZUWAKU
100
AcDbCircle
 10
60.29221216833719
 20
10.99999986828868
 30
0.0
 40
1.05
100
AcDbArc
 50
270.0
 51
0.0
  0
ARC
  5
82B
330
1A
100
AcDbEntity
  8
ZUWAKU
100
AcDbCircle
 10
68.51721216833721
 20
7.674999868288687
 30
0.0
 40
0.5249999999999999
100
AcDbArc
 50
270.0
 51
0.0
  0
LINE
  5
82C
330
1A
100
AcDbEntity
  8
ZUWAKU
100
AcDbLine
 10
42.96721216833714
 20
23.24999986828869
 30
0.0
 11
41.21721216833714
 21
23.24999986828869
 31
0.0
  0
ARC
  5
82D
330
1A
100
AcDbEntity
  8
ZUWAKU
100
AcDbCircle
 10
32.11721216833712
 20
22.72499986828868
 30
0.0
 40
0.5249999999999999
100
AcDbArc
 50
0.0
 51
90.0
  0
LINE
  5
82E
330
1A
100
AcDbEntity
  8
ZUWAKU
100
AcDbLine
 10
32.11721216833712
 20
23.24999986828869
 30
0.0
 11
30.36721216833712
 21
23.24999986828869
 31
0.0
  0
ARC
  5
82F
330
1A
100
AcDbEntity
  8
ZUWAKU
100
AcDbCircle
 10
26.86721216833712
 20
22.72499986828868
 30
0.0
 40
0.5249999999999999
100
AcDbArc
 50
0.0
 51
90.0
  0
ARC
  5
830
330
1A
100
AcDbEntity
  8
ZUWAKU
100
AcDbCircle
 10
30.36721216833712
 20
22.72499986828868
 30
0.0
 40
0.5249999999999999
100
AcDbArc
 50
90.0
 51
180.0
  0
ARC
  5
831
330
1A
100
AcDbEntity
  8
ZUWAKU
100
AcDbCircle
 10
26.86721216833712
 20
20.97499986828868
 30
0.0
 40
0.5249999999999999
100
AcDbArc
 50
270.0
 51
0.0
  0
LINE
  5
832
330
1A
100
AcDbEntity
  8
ZUWAKU
100
AcDbLine
 10
27.39221216833721
 20
22.72499986828868
 30
0.0
 11
27.39221216833721
 21
20.97499986828868
 31
0.0
  0
ARC
  5
833
330
1A
100
AcDbEntity
  8
ZUWAKU
100
AcDbCircle
 10
41.21721216833714
 20
22.72499986828868
 30
0.0
 40
0.5249999999999999
100
AcDbArc
 50
90.0
 51
180.0
  0
LINE
  5
834
330
1A
100
AcDbEntity
  8
ZUWAKU
100
AcDbLine
 10
36.17697800484848
 20
23.24999986828869
 30
0.0
 11
37.87586738445748
 21
23.24999986828869
 31
0.0
  0
ARC
  5
835
330
1A
100
AcDbEntity
  8
ZUWAKU
100
AcDbCircle
 10
37.87586738445748
 20
22.72499986828868
 30
0.0
 40
0.5249999999999999
100
AcDbArc
 50
342.474431626277
 51
90.0
  0
LINE
  5
836
330
1A
100
AcDbEntity
  8
ZUWAKU
100
AcDbLine
 10
38.37649828365295
 20
22.56690590012172
 30
0.0
 11
37.31485865051513
 21
19.20504706185211
 31
0.0
  0
ARC
  5
837
330
1A
100
AcDbEntity
  8
ZUWAKU
100
AcDbCircle
 10
36.17697800484848
 20
22.72499986828868
 30
0.0
 40
0.5249999999999999
100
AcDbArc
 50
90.0
 51
162.474431626277
  0
LINE
  5
838
330
1A
100
AcDbEntity
  8
ZUWAKU
100
AcDbLine
 10
48.39221216833721
 20
23.24999986828869
 30
0.0
 11
51.89221216833721
 21
23.24999986828869
 31
0.0
  0
LINE
  5
839
330
1A
100
AcDbEntity
  8
ZUWAKU
100
AcDbLine
 10
51.89221216833721
 20
20.44999986828869
 30
0.0
 11
48.91721216833719
 21
20.44999986828869
 31
0.0
  0
ARC
  5
83A
330
1A
100
AcDbEntity
  8
ZUWAKU
100
AcDbCircle
 10
48.91721216833719
 20
19.92499986828869
 30
0.0
 40
0.5249999999999999
100
AcDbArc
 50
90.0
 51
180.0
  0
LINE
  5
83B
330
1A
100
AcDbEntity
  8
ZUWAKU
100
AcDbLine
 10
48.39221216833721
 20
19.92499986828869
 30
0.0
 11
48.39221216833721
 21
18.63479784293335
 31
0.0
  0
ARC
  5
83C
330
1A
100
AcDbEntity
  8
ZUWAKU
100
AcDbCircle
 10
42.96721216833714
 20
22.72499986828868
 30
0.0
 40
0.5249999999999999
100
AcDbArc
 50
0.0
 51
90.0
  0
LINE
  5
83D
330
1A
100
AcDbEntity
  8
ZUWAKU
100
AcDbLine
 10
45.59221216833714
 20
20.44999986828869
 30
0.0
 11
45.59221216833714
 21
18.63479784293335
 31
0.0
  0
ARC
  5
83E
330
1A
100
AcDbEntity
  8
ZUWAKU
100
AcDbCircle
 10
48.39221216833721
 20
20.44999986828869
 30
0.0
 40
2.8
100
AcDbArc
 50
90.0
 51
180.0
  0
ARC
  5
83F
330
1A
100
AcDbEntity
  8
ZUWAKU
100
AcDbCircle
 10
57.31721216833716
 20
22.72499986828868
 30
0.0
 40
0.5249999999999999
100
AcDbArc
 50
0.0
 51
90.0
  0
ARC
  5
840
330
1A
100
AcDbEntity
  8
ZUWAKU
100
AcDbCircle
 10
55.56721216833716
 20
22.72499986828868
 30
0.0
 40
0.5249999999999999
100
AcDbArc
 50
90.0
 51
180.0
  0
LINE
  5
841
330
1A
100
AcDbEntity
  8
ZUWAKU
100
AcDbLine
 10
57.31721216833716
 20
23.24999986828869
 30
0.0
 11
55.56721216833716
 21
23.24999986828869
 31
0.0
  0
ARC
  5
842
330
1A
100
AcDbEntity
  8
ZUWAKU
100
AcDbCircle
 10
51.89221216833721
 20
22.72499986828868
 30
0.0
 40
0.5249999999999999
100
AcDbArc
 50
0.0
 51
90.0
  0
ARC
  5
843
330
1A
100
AcDbEntity
  8
ZUWAKU
100
AcDbCircle
 10
51.89221216833721
 20
20.97499986828868
 30
0.0
 40
0.5249999999999999
100
AcDbArc
 50
270.0
 51
0.0
  0
LINE
  5
844
330
1A
100
AcDbEntity
  8
ZUWAKU
100
AcDbLine
 10
52.41721216833719
 20
22.72499986828868
 30
0.0
 11
52.41721216833719
 21
20.97499986828868
 31
0.0
  0
LINE
  5
845
330
1A
100
AcDbEntity
  8
ZUWAKU
100
AcDbLine
 10
68.51721216833721
 20
23.24999986828869
 30
0.0
 11
66.76721216833721
 21
23.24999986828869
 31
0.0
  0
ARC
  5
846
330
1A
100
AcDbEntity
  8
ZUWAKU
100
AcDbCircle
 10
66.76721216833721
 20
22.72499986828868
 30
0.0
 40
0.5249999999999999
100
AcDbArc
 50
90.0
 51
180.0
  0
ARC
  5
847
330
1A
100
AcDbEntity
  8
ZUWAKU
100
AcDbCircle
 10
63.61721216833712
 20
22.72499986828868
 30
0.0
 40
0.5249999999999999
100
AcDbArc
 50
0.0
 51
90.0
  0
LINE
  5
848
330
1A
100
AcDbEntity
  8
ZUWAKU
100
AcDbLine
 10
63.61721216833712
 20
23.24999986828869
 30
0.0
 11
61.86721216833712
 21
23.24999986828869
 31
0.0
  0
ARC
  5
849
330
1A
100
AcDbEntity
  8
ZUWAKU
100
AcDbCircle
 10
61.86721216833712
 20
22.72499986828868
 30
0.0
 40
0.5249999999999999
100
AcDbArc
 50
90.0
 51
180.0
  0
ARC
  5
84A
330
1A
100
AcDbEntity
  8
ZUWAKU
100
AcDbCircle
 10
68.51721216833721
 20
22.72499986828868
 30
0.0
 40
0.5249999999999999
100
AcDbArc
 50
0.0
 51
90.0
  0
TEXT
  5
84B
330
1A
100
AcDbEntity
  8
moji
100
AcDbText
 10
239.8272026944071
 20
18.00492092569607
 30
0.0
 40
5.6
  1
水返し
 41
0.9
  7
ｽﾀｲﾙ1
100
AcDbText
  0
TEXT
  5
84C
330
1A
100
AcDbEntity
  8
moji
100
AcDbText
 10
239.8272026944071
 20
3.204920925696104
 30
0.0
 40
5.6
  1
Σ９０
 41
0.9
  7
ｽﾀｲﾙ1
100
AcDbText
  0
LINE
  5
84D
330
1A
100
AcDbEntity
  8
ZUWAKU
100
AcDbLine
 10
208.246601303624
 20
29.99999986828868
 30
0.0
 11
208.246601303624
 21
0.7999998682887508
 31
0.0
  0
LINE
  5
84E
330
1A
100
AcDbEntity
  8
ZUWAKU
100
AcDbLine
 10
208.6466013036238
 20
29.99999986828868
 30
0.0
 11
208.646601303624
 21
0.7999998682887508
 31
0.0
  0
LINE
  5
84F
330
1A
100
AcDbEntity
  8
ZUWAKU
100
AcDbLine
 10
208.4466013036238
 20
29.99999986828868
 30
0.0
 11
208.446601303624
 21
0.7999998682887508
 31
0.0
  0
TEXT
  5
850
330
1A
100
AcDbEntity
  8
ZUWAKU
100
AcDbText
 10
209.7240463258336
 20
9.655356406674301
 30
0.0
 40
4.0
  1
サイズ
 41
0.9
  7
ｽﾀｲﾙ1
100
AcDbText
  0
TEXT
  5
851
330
1A
100
AcDbEntity
  8
ZUWAKU
100
AcDbText
 10
209.7240463258333
 20
24.05535640667426
 30
0.0
 40
4.0
  1
品名
 41
0.9
  7
ｽﾀｲﾙ1
100
AcDbText
  0
LINE
  5
852
330
1A
100
AcDbEntity
  8
ZUWAKU
100
AcDbLine
 10
648.8172025237602
 20
15.19999986828871
 30
0.0
 11
697.2490105620973
 21
15.19999986828872
 31
0.0
  0
LINE
  5
853
330
1A
100
AcDbEntity
  8
ZUWAKU
100
AcDbLine
 10
648.8172025237604
 20
15.39999986828872
 30
0.0
 11
697.2490105620973
 21
15.39999986828872
 31
0.0
  0
LINE
  5
854
330
1A
100
AcDbEntity
  8
ZUWAKU
100
AcDbLine
 10
648.8172025237602
 20
15.59999986828872
 30
0.0
 11
697.2490105620973
 21
15.59999986828872
 31
0.0
  0
TEXT
  5
855
330
1A
100
AcDbEntity
  8
ZUWAKU
100
AcDbText
 10
658.2039377008584
 20
18.00492092569607
 30
0.0
 40
5.6
  1
　　．　　．　　
 41
0.9
  7
ｽﾀｲﾙ1
100
AcDbText
  0
LINE
  5
856
330
1A
100
AcDbEntity
  8
ZUWAKU
100
AcDbLine
 10
505.1991795116969
 20
15.19999986828872
 30
0.0
 11
552.5269557796685
 21
15.19999986828872
 31
0.0
  0
LINE
  5
857
330
1A
100
AcDbEntity
  8
ZUWAKU
100
AcDbLine
 10
505.1991795116969
 20
15.39999986828872
 30
0.0
 11
552.5269557796685
 21
15.39999986828872
 31
0.0
  0
LINE
  5
858
330
1A
100
AcDbEntity
  8
ZUWAKU
100
AcDbLine
 10
505.1991795116969
 20
15.59999986828872
 30
0.0
 11
552.5269557796685
 21
15.59999986828872
 31
0.0
  0
TEXT
  5
859
330
1A
100
AcDbEntity
  8
moji
100
AcDbText
 10
463.2464320045581
 20
11.94261758994867
 30
0.0
 40
5.6
  1
ＧＳ２９□
 41
0.9
  7
ｽﾀｲﾙ1
100
AcDbText
  0
LINE
  5
85A
330
1A
100
AcDbEntity
  8
ZUWAKU
100
AcDbLine
 10
447.6243639845472
 20
29.99999986828868
 30
0.0
 11
447.6243639845475
 21
0.7999998682887508
 31
0.0
  0
LINE
  5
85B
330
1A
100
AcDbEntity
  8
ZUWAKU
100
AcDbLine
 10
447.8243639845473
 20
29.99999986828868
 30
0.0
 11
447.8243639845475
 21
0.7999998682887508
 31
0.0
  0
LINE
  5
85C
330
1A
100
AcDbEntity
  8
ZUWAKU
100
AcDbLine
 10
447.4243639845474
 20
29.99999986828868
 30
0.0
 11
447.4243639845474
 21
0.7999998682887508
 31
0.0
  0
TEXT
  5
85D
330
1A
100
AcDbEntity
  8
moji
100
AcDbText
 10
528.0409079858689
 20
18.00492092569607
 30
0.0
 40
5.6
  1
Ａ３
 41
0.9
  7
ｽﾀｲﾙ1
100
AcDbText
  0
LINE
  5
85E
330
1A
100
AcDbEntity
  8
ZUWAKU
100
AcDbLine
 10
504.9991795116969
 20
29.99999986828868
 30
0.0
 11
504.9991795116971
 21
0.7999998682887508
 31
0.0
  0
LINE
  5
85F
330
1A
100
AcDbEntity
  8
ZUWAKU
100
AcDbLine
 10
505.1991795116969
 20
29.99999986828868
 30
0.0
 11
505.1991795116971
 21
0.7999998682887508
 31
0.0
  0
LINE
  5
860
330
1A
100
AcDbEntity
  8
ZUWAKU
100
AcDbLine
 10
504.7991795116971
 20
29.99999986828868
 30
0.0
 11
504.7991795116971
 21
0.7999998682887508
 31
0.0
  0
TEXT
  5
861
330
1A
100
AcDbEntity
  8
ZUWAKU
100
AcDbText
 10
462.1716760137122
 20
2.614070779428175
 30
0.0
 40
3.0
  1
□には色品番が入ります
 41
0.9
  7
ｽﾀｲﾙ1
100
AcDbText
  0
TEXT
  5
862
330
1A
100
AcDbEntity
  8
ZUWAKU
100
AcDbText
 10
506.6766245339068
 20
9.655356406674301
 30
0.0
 40
4.0
  1
縮尺
 41
0.9
  7
ｽﾀｲﾙ1
100
AcDbText
  0
TEXT
  5
863
330
1A
100
AcDbEntity
  8
moji
100
AcDbText
 10
528.0409079858689
 20
3.204920925696104
 30
0.0
 40
5.6
  1
１/２
 41
0.9
  7
ｽﾀｲﾙ1
100
AcDbText
  0
TEXT
  5
864
330
1A
100
AcDbEntity
  8
ZUWAKU
100
AcDbText
 10
449.3018090067569
 20
24.05535640667426
 30
0.0
 40
4.0
  1
品番
 41
0.9
  7
ｽﾀｲﾙ1
100
AcDbText
  0
TEXT
  5
865
330
1A
100
AcDbEntity
  8
ZUWAKU
100
AcDbText
 10
506.6766245339065
 20
24.05535640667426
 30
0.0
 40
4.0
  1
用紙
 41
0.9
  7
ｽﾀｲﾙ1
100
AcDbText
  0
LINE
  5
866
330
1A
100
AcDbEntity
  8
ZUWAKU
100
AcDbLine
 10
648.6172025237604
 20
29.99999986828868
 30
0.0
 11
648.6172025237606
 21
0.7999998682887508
 31
0.0
  0
LINE
  5
867
330
1A
100
AcDbEntity
  8
ZUWAKU
100
AcDbLine
 10
648.8172025237604
 20
29.99999986828868
 30
0.0
 11
648.8172025237607
 21
0.7999998682887508
 31
0.0
  0
LINE
  5
868
330
1A
100
AcDbEntity
  8
ZUWAKU
100
AcDbLine
 10
648.4172025237606
 20
29.99999986828868
 30
0.0
 11
648.4172025237606
 21
0.7999998682887508
 31
0.0
  0
LINE
  5
869
330
1A
100
AcDbEntity
  8
ZUWAKU
100
AcDbLine
 10
552.7269557796683
 20
29.99999986828868
 30
0.0
 11
552.7269557796685
 21
0.7999998682887508
 31
0.0
  0
LINE
  5
86A
330
1A
100
AcDbEntity
  8
ZUWAKU
100
AcDbLine
 10
552.9269557796683
 20
29.99999986828868
 30
0.0
 11
552.9269557796686
 21
0.7999998682887508
 31
0.0
  0
LINE
  5
86B
330
1A
100
AcDbEntity
  8
ZUWAKU
100
AcDbLine
 10
552.5269557796685
 20
29.99999986828868
 30
0.0
 11
552.5269557796685
 21
0.7999998682887508
 31
0.0
  0
TEXT
  5
86C
330
1A
100
AcDbEntity
  8
ZUWAKU
100
AcDbText
 10
650.2946475459701
 20
24.05535640667426
 30
0.0
 40
4.0
  1
DATE
 41
0.9
  7
ｽﾀｲﾙ1
100
AcDbText
  0
LINE
  5
86D
330
1A
100
AcDbEntity
  8
ZUWAKU
100
AcDbLine
 10
697.2490105620973
 20
29.99999986828868
 30
0.0
 11
697.2490105620973
 21
0.7999998682887508
 31
0.0
  0
LINE
  5
86E
330
1A
100
AcDbEntity
  8
ZUWAKU
100
AcDbLine
 10
697.4490105620973
 20
29.99999986828868
 30
0.0
 11
697.4490105620973
 21
0.7999998682887508
 31
0.0
  0
LINE
  5
86F
330
1A
100
AcDbEntity
  8
ZUWAKU
100
AcDbLine
 10
697.6490105620972
 20
29.99999986828868
 30
0.0
 11
697.6490105620974
 21
0.7999998682887508
 31
0.0
  0
LINE
  5
870
330
1A
100
AcDbEntity
  8
ZUWAKU
100
AcDbLine
 10
697.8490105620972
 20
29.99999986828868
 30
0.0
 11
697.8490105620974
 21
0.7999998682887508
 31
0.0
  0
TEXT
  5
871
330
1A
100
AcDbEntity
  8
ZUWAKU
100
AcDbText
 10
708.5280842057998
 20
17.55383920397549
 30
0.0
 40
6.0
  1
積水化学工業株式会社
 41
0.9
  7
ｽﾀｲﾙ1
100
AcDbText
  0
TEXT
  5
872
330
1A
100
AcDbEntity
  8
ZUWAKU
100
AcDbText
 10
708.5280842057998
 20
6.648840182142749
 30
0.0
 40
6.0
  1
建材事業部
 41
0.9
  7
ｽﾀｲﾙ1
100
AcDbText
  0
DIMENSION
  5
1EB9
330
1A
100
AcDbEntity
  8
SUNPOU
100
AcDbDimension
  2
*D1
 10
472.1186016632805
 20
244.9986971026756
 30
0.0
 11
467.1186016632805
 21
289.2756366286757
 31
0.0
 70
    32
 71
     5
 42
88.55387905199996
  3
STANDARD
100
AcDbAlignedDimension
 13
272.0875576073044
 23
333.5525761546757
 33
0.0
 14
417.1500534350044
 24
244.9986971026757
 34
0.0
 50
90.0
100
AcDbRotatedDimension
1001
ACAD
1000
DSTYLE
1002
{
1070
    41
1040
7.0
1070
    42
1040
6.0
1070
    43
1040
14.0
1070
    44
1040
3.0
1070
    73
1070
     0
1070
    74
1070
     0
1070
    77
1070
     3
1070
   140
1040
6.0
1070
   141
1040
150.0
1070
   147
1040
2.0
1070
   172
1070
     1
1070
   173
1070
     1
1070
   176
1070
     4
1070
   177
1070
     4
1070
   178
1070
     4
1070
   271
1070
     0
1070
   272
1070
     2
1070
   341
1005
6D
1070
     6
1000
OPEN
1070
     7
1000
OPEN
1002
}
  0
DIMENSION
  5
1EBA
330
1A
100
AcDbEntity
  8
SUNPOU
100
AcDbDimension
  2
*D2
 10
458.1186016632805
 20
263.5525762146756
 30
0.0
 11
453.1186016632805
 21
298.5525761846757
 31
0.0
 70
    32
 71
     5
 42
69.99999993999995
  3
STANDARD
100
AcDbAlignedDimension
 13
272.0875576073044
 23
333.5525761546757
 33
0.0
 14
376.1500597531044
 24
263.5525762146757
 34
0.0
 50
90.0
100
AcDbRotatedDimension
1001
ACAD
1000
DSTYLE
1002
{
1070
    41
1040
7.0
1070
    42
1040
6.0
1070
    43
1040
14.0
1070
    44
1040
3.0
1070
    73
1070
     0
1070
    74
1070
     0
1070
    77
1070
     3
1070
   140
1040
6.0
1070
   141
1040
150.0
1070
   147
1040
2.0
1070
   172
1070
     1
1070
   173
1070
     1
1070
   176
1070
     4
1070
   177
1070
     4
1070
   178
1070
     4
1070
   271
1070
     0
1070
   272
1070
     2
1070
   341
1005
6D
1070
     6
1000
OPEN
1070
     7
1000
OPEN
1002
}
  0
LINE
  5
1EBB
330
1A
100
AcDbEntity
  8
SEIHIN
100
AcDbLine
 10
371.3927671844044
 20
325.2860157793757
 30
0.0
 11
374.1968900496044
 21
321.5245789891757
 31
0.0
  0
LINE
  5
1EBC
330
1A
100
AcDbEntity
  8
SEIHIN
100
AcDbLine
 10
386.7745429808044
 20
324.7993736571756
 30
0.0
 11
391.4562270576044
 21
320.0406934177757
 31
0.0
  0
LINE
  5
1EBD
330
1A
100
AcDbEntity
  8
SEIHIN
100
AcDbLine
 10
172.9073480302044
 20
325.2860157793757
 30
0.0
 11
170.1032251650044
 21
321.5245789891757
 31
0.0
  0
LINE
  5
1EBE
330
1A
100
AcDbEntity
  8
SEIHIN
100
AcDbLine
 10
157.5255722338044
 20
324.7993736571756
 30
0.0
 11
152.8438881570044
 21
320.0406934177757
 31
0.0
  0
DIMENSION
  5
1EBF
330
1A
100
AcDbEntity
  8
SUNPOU
100
AcDbDimension
  2
*D3
 10
417.1500576073044
 20
383.4838592273534
 30
0.0
 11
272.2357413703044
 21
388.4838592273534
 31
0.0
 70
    32
 71
     5
 42
289.828632474
  3
STANDARD
100
AcDbAlignedDimension
 13
127.3214251333044
 23
265.5525765424757
 33
0.0
 14
417.1500576073044
 24
265.5525765424757
 34
0.0
100
AcDbRotatedDimension
1001
ACAD
1000
DSTYLE
1002
{
1070
    41
1040
7.0
1070
    42
1040
6.0
1070
    43
1040
14.0
1070
    44
1040
3.0
1070
    73
1070
     0
1070
    74
1070
     0
1070
    77
1070
     3
1070
   140
1040
6.0
1070
   141
1040
150.0
1070
   147
1040
2.0
1070
   172
1070
     1
1070
   173
1070
     1
1070
   176
1070
     4
1070
   177
1070
     4
1070
   178
1070
     4
1070
   271
1070
     0
1070
   272
1070
     2
1070
   341
1005
6D
1070
     6
1000
OPEN
1070
     7
1000
OPEN
1002
}
  0
LINE
  5
1EC0
330
1A
100
AcDbEntity
  8
SEIHIN
100
AcDbLine
 10
371.3153556520044
 20
325.1493572300757
 30
0.0
 11
369.7343573505044
 21
322.3583064085757
 31
0.0
  0
LINE
  5
1EC1
330
1A
100
AcDbEntity
  8
SUNPOU
 62
     4
100
AcDbLine
 10
417.1500576073044
 20
246.9315860338757
 30
0.0
 11
417.1500576073044
 21
352.7902073730757
 31
0.0
  0
LINE
  5
1EC2
330
1A
100
AcDbEntity
  8
SEIHIN
100
AcDbLine
 10
172.9847595626044
 20
325.1493572300757
 30
0.0
 11
174.5657578641044
 21
322.3583064085757
 31
0.0
  0
LINE
  5
1EC3
330
1A
100
AcDbEntity
  8
SEIHIN
100
AcDbLine
 10
174.5657578641044
 20
322.3583101338757
 30
0.0
 11
224.9092229241044
 21
324.0385352677757
 31
0.0
  0
LINE
  5
1EC4
330
1A
100
AcDbEntity
  8
CENTER L
 48
5.0
100
AcDbLine
 10
272.1500576073044
 20
349.5536589695757
 30
0.0
 11
272.1500576073044
 21
236.6790333959757
 31
0.0
  0
LINE
  5
1EC5
330
1A
100
AcDbEntity
  8
SEIHIN
100
AcDbLine
 10
369.7343573505044
 20
322.3583101338757
 30
0.0
 11
319.3908922905044
 21
324.0385352677757
 31
0.0
  0
LINE
  5
1EC6
330
1A
100
AcDbEntity
  8
SEIHIN
100
AcDbLine
 10
159.3421355420044
 20
263.4827195709756
 30
0.0
 11
160.7176170283044
 21
263.0384582138756
 31
0.0
  0
LINE
  5
1EC7
330
1A
100
AcDbEntity
  8
SEIHIN
100
AcDbLine
 10
160.4361489946044
 20
311.1665322488757
 30
0.0
 11
152.9442325765044
 21
305.1800037777757
 31
0.0
  0
LINE
  5
1EC8
330
1A
100
AcDbEntity
  8
SEIHIN
100
AcDbLine
 10
157.1500555211044
 20
263.5525762146757
 30
0.0
 11
168.1500554615044
 21
263.5525762146757
 31
0.0
  0
LINE
  5
1EC9
330
1A
100
AcDbEntity
  8
SEIHIN
100
AcDbLine
 10
157.1500576073044
 20
263.5525761546757
 30
0.0
 11
168.1500576073044
 21
263.5525761546757
 31
0.0
  0
LINE
  5
1ECA
330
1A
100
AcDbEntity
  8
SEIHIN
100
AcDbLine
 10
155.4556444818044
 20
302.9676768040757
 30
0.0
 11
162.6215905481044
 21
308.6591622835757
 31
0.0
  0
LINE
  5
1ECB
330
1A
100
AcDbEntity
  8
SEIHIN
100
AcDbLine
 10
142.9758847290044
 20
271.2483367925756
 30
0.0
 11
401.3242304855044
 21
271.2483367925756
 31
0.0
  0
LINE
  5
1ECC
330
1A
100
AcDbEntity
  8
SEIHIN
100
AcDbLine
 10
157.1500555211044
 20
265.5525765424757
 30
0.0
 11
387.1500596934044
 21
265.5525765424757
 31
0.0
  0
LINE
  5
1ECD
330
1A
100
AcDbEntity
  8
SEIHIN
100
AcDbLine
 10
128.8986683422044
 20
279.5403356707757
 30
0.0
 11
127.8834820324044
 21
271.2483367925756
 31
0.0
  0
LINE
  5
1ECE
330
1A
100
AcDbEntity
  8
SEIHIN
100
AcDbLine
 10
144.2890644604044
 20
280.3592019757757
 30
0.0
 11
142.9758847290044
 21
271.2483367925756
 31
0.0
  0
LINE
  5
1ECF
330
1A
100
AcDbEntity
  8
SEIHIN
100
AcDbLine
 10
141.0475850636044
 20
279.7698899215757
 30
0.0
 11
139.9566263491044
 21
271.2483367925756
 31
0.0
  0
LINE
  5
1ED0
330
1A
100
AcDbEntity
  8
SEIHIN
100
AcDbLine
 10
139.9566263491044
 20
271.2483367925756
 30
0.0
 11
140.9897983605044
 21
279.2404535269757
 31
0.0
  0
LINE
  5
1ED1
330
1A
100
AcDbEntity
  8
SEIHIN
100
AcDbLine
 10
127.8834820324044
 20
271.2483367925756
 30
0.0
 11
127.3214251333044
 21
265.5525765424757
 31
0.0
  0
LINE
  5
1ED2
330
1A
100
AcDbEntity
  8
SEIHIN
100
AcDbLine
 10
127.3214251333044
 20
265.5525765424757
 30
0.0
 11
139.9566263491044
 21
265.5525765424757
 31
0.0
  0
LINE
  5
1ED3
330
1A
100
AcDbEntity
  8
SEIHIN
100
AcDbLine
 10
157.1500555211044
 20
246.9315863257756
 30
0.0
 11
127.1500617796044
 21
246.9315863257756
 31
0.0
  0
LINE
  5
1ED4
330
1A
100
AcDbEntity
  8
SEIHIN
100
AcDbLine
 10
157.1500555211044
 20
245.0419179207757
 30
0.0
 11
127.1500617796044
 21
245.0419179207757
 31
0.0
  0
LINE
  5
1ED5
330
1A
100
AcDbEntity
  8
SEIHIN
100
AcDbLine
 10
127.1500617796044
 20
245.0418024367756
 30
0.0
 11
157.1500555211044
 21
245.0418024367756
 31
0.0
  0
LINE
  5
1ED6
330
1A
100
AcDbEntity
  8
SEIHIN
100
AcDbLine
 10
127.1500617796044
 20
245.0526914602757
 30
0.0
 11
157.1500555211044
 21
245.0526914602757
 31
0.0
  0
LINE
  5
1ED7
330
1A
100
AcDbEntity
  8
SEIHIN
100
AcDbLine
 10
127.1500617796044
 20
263.5525762146757
 30
0.0
 11
127.1500617796044
 21
246.9315863257756
 31
0.0
  0
LINE
  5
1ED8
330
1A
100
AcDbEntity
  8
SEIHIN
100
AcDbLine
 10
127.1500617796044
 20
245.0526914602757
 30
0.0
 11
127.1500617796044
 21
245.0419179207757
 31
0.0
  0
LINE
  5
1ED9
330
1A
100
AcDbEntity
  8
SEIHIN
100
AcDbLine
 10
127.1500617796044
 20
246.9315863257756
 30
0.0
 11
127.1500617796044
 21
245.0526914602757
 31
0.0
  0
LINE
  5
1EDA
330
1A
100
AcDbEntity
  8
SEIHIN
100
AcDbLine
 10
127.3214251333044
 20
265.5525765424757
 30
0.0
 11
127.1500617796044
 21
263.5525762146757
 31
0.0
  0
LINE
  5
1EDB
330
1A
100
AcDbEntity
  8
SEIHIN
100
AcDbLine
 10
157.1500555211044
 20
265.5525765424757
 30
0.0
 11
157.1500555211044
 21
246.9315863257756
 31
0.0
  0
LINE
  5
1EDC
330
1A
100
AcDbEntity
  8
SEIHIN
100
AcDbLine
 10
157.1500555211044
 20
245.0526914602757
 30
0.0
 11
157.1500555211044
 21
245.0419179207757
 31
0.0
  0
LINE
  5
1EDD
330
1A
100
AcDbEntity
  8
SEIHIN
100
AcDbLine
 10
157.1500555211044
 20
245.0526914602757
 30
0.0
 11
157.1500555211044
 21
246.9315863257756
 31
0.0
  0
LINE
  5
1EDE
330
1A
100
AcDbEntity
  8
SEIHIN
100
AcDbLine
 10
157.1500555211044
 20
266.4507458960757
 30
0.0
 11
142.9985642964044
 21
266.4507458960757
 31
0.0
  0
LINE
  5
1EDF
330
1A
100
AcDbEntity
  8
SEIHIN
100
AcDbLine
 10
139.9566263491044
 20
265.5525765424757
 30
0.0
 11
157.1500555211044
 21
265.5525765424757
 31
0.0
  0
LINE
  5
1EE0
330
1A
100
AcDbEntity
  8
SEIHIN
100
AcDbLine
 10
127.8834820324044
 20
271.2483367925756
 30
0.0
 11
139.9566263491044
 21
271.2483367925756
 31
0.0
  0
LINE
  5
1EE1
330
1A
100
AcDbEntity
  8
SEIHIN
100
AcDbLine
 10
142.9885209137044
 20
266.3246615832757
 30
0.0
 11
142.9758847290044
 21
266.2484309679757
 31
0.0
  0
LINE
  5
1EE2
330
1A
100
AcDbEntity
  8
SEIHIN
100
AcDbLine
 10
142.9961652094044
 20
266.3927766537756
 30
0.0
 11
142.9885209137044
 21
266.3246615832757
 31
0.0
  0
LINE
  5
1EE3
330
1A
100
AcDbEntity
  8
SEIHIN
100
AcDbLine
 10
142.9985642964044
 20
266.4507458960757
 30
0.0
 11
142.9961652094044
 21
266.3927766537756
 31
0.0
  0
LINE
  5
1EE4
330
1A
100
AcDbEntity
  8
SEIHIN
100
AcDbLine
 10
141.7468518549044
 20
265.5605989551757
 30
0.0
 11
141.6498005921044
 21
265.5525765424757
 31
0.0
  0
LINE
  5
1EE5
330
1A
100
AcDbEntity
  8
SEIHIN
100
AcDbLine
 10
141.8610245520044
 20
265.5844128733756
 30
0.0
 11
141.7468518549044
 21
265.5605989551757
 31
0.0
  0
LINE
  5
1EE6
330
1A
100
AcDbEntity
  8
SEIHIN
100
AcDbLine
 10
141.9886529976044
 20
265.6232527500757
 30
0.0
 11
141.8610245520044
 21
265.5844128733756
 31
0.0
  0
LINE
  5
1EE7
330
1A
100
AcDbEntity
  8
SEIHIN
100
AcDbLine
 10
142.1256691748044
 20
265.6758687502756
 30
0.0
 11
141.9886529976044
 21
265.6232527500757
 31
0.0
  0
LINE
  5
1EE8
330
1A
100
AcDbEntity
  8
SEIHIN
100
AcDbLine
 10
142.2676474386044
 20
265.7405770426757
 30
0.0
 11
142.1256691748044
 21
265.6758687502756
 31
0.0
  0
LINE
  5
1EE9
330
1A
100
AcDbEntity
  8
SEIHIN
100
AcDbLine
 10
142.4100429350044
 20
265.8152989155757
 30
0.0
 11
142.2676474386044
 21
265.7405770426757
 31
0.0
  0
LINE
  5
1EEA
330
1A
100
AcDbEntity
  8
SEIHIN
100
AcDbLine
 10
142.5482810074044
 20
265.8976352816757
 30
0.0
 11
142.4100429350044
 21
265.8152989155757
 31
0.0
  0
LINE
  5
1EEB
330
1A
100
AcDbEntity
  8
SEIHIN
100
AcDbLine
 10
142.6779360109044
 20
265.9849449104756
 30
0.0
 11
142.5482810074044
 21
265.8976352816757
 31
0.0
  0
LINE
  5
1EEC
330
1A
100
AcDbEntity
  8
SEIHIN
100
AcDbLine
 10
142.7948207194044
 20
266.0744245207757
 30
0.0
 11
142.6779360109044
 21
265.9849449104756
 31
0.0
  0
LINE
  5
1EED
330
1A
100
AcDbEntity
  8
SEIHIN
100
AcDbLine
 10
142.8952247435044
 20
266.1632037764757
 30
0.0
 11
142.7948207194044
 21
266.0744245207757
 31
0.0
  0
LINE
  5
1EEE
330
1A
100
AcDbEntity
  8
SEIHIN
100
AcDbLine
 10
142.9758847290044
 20
266.2484309679757
 30
0.0
 11
142.8952247435044
 21
266.1632037764757
 31
0.0
  0
LINE
  5
1EEF
330
1A
100
AcDbEntity
  8
SEIHIN
100
AcDbLine
 10
142.9758847290044
 20
271.2483367925756
 30
0.0
 11
142.9985642964044
 21
266.4507458960757
 31
0.0
  0
LINE
  5
1EF0
330
1A
100
AcDbEntity
  8
SEIHIN
100
AcDbLine
 10
142.9758847290044
 20
266.2484309679757
 30
0.0
 11
142.9758847290044
 21
271.2483367925756
 31
0.0
  0
LINE
  5
1EF1
330
1A
100
AcDbEntity
  8
SEIHIN
100
AcDbLine
 10
139.9566263491044
 20
265.5525765424757
 30
0.0
 11
139.9566263491044
 21
271.2483367925756
 31
0.0
  0
LINE
  5
1EF2
330
1A
100
AcDbEntity
  8
SEIHIN
100
AcDbLine
 10
142.9758847290044
 20
271.2483367925756
 30
0.0
 11
139.9566263491044
 21
271.2483367925756
 31
0.0
  0
LINE
  5
1EF3
330
1A
100
AcDbEntity
  8
SEIHIN
100
AcDbLine
 10
158.5221618944044
 20
263.5525594508757
 30
0.0
 11
159.3421355420044
 21
263.4827195709756
 31
0.0
  0
LINE
  5
1EF4
330
1A
100
AcDbEntity
  8
SEIHIN
100
AcDbLine
 10
158.5092500383044
 20
263.5525762146757
 30
0.0
 11
158.5221618944044
 21
263.5525594508757
 31
0.0
  0
LINE
  5
1EF5
330
1A
100
AcDbEntity
  8
SEIHIN
100
AcDbLine
 10
157.1500555211044
 20
265.5525765424757
 30
0.0
 11
157.1500555211044
 21
266.4507458960757
 31
0.0
  0
LINE
  5
1EF6
330
1A
100
AcDbEntity
  8
SEIHIN
100
AcDbLine
 10
133.1821859413044
 20
303.5663113972757
 30
0.0
 11
131.5628767544044
 21
295.7303546412757
 31
0.0
  0
LINE
  5
1EF7
330
1A
100
AcDbEntity
  8
SEIHIN
100
AcDbLine
 10
144.6950913006044
 20
300.0429644292757
 30
0.0
 11
142.4085826212044
 21
288.3491806263756
 31
0.0
  0
LINE
  5
1EF8
330
1A
100
AcDbEntity
  8
SEIHIN
100
AcDbLine
 10
143.4127122694044
 20
293.6502722135757
 30
0.0
 11
144.6958810621044
 21
300.0424922487757
 31
0.0
  0
LINE
  5
1EF9
330
1A
100
AcDbEntity
  8
SEIHIN
100
AcDbLine
 10
147.7149159247044
 20
298.2258535033757
 30
0.0
 11
144.6950913006044
 21
300.0429644292757
 31
0.0
  0
LINE
  5
1EFA
330
1A
100
AcDbEntity
  8
SEIHIN
100
AcDbLine
 10
147.7149159247044
 20
298.2258535033757
 30
0.0
 11
153.1267345482044
 21
301.4033789789756
 31
0.0
  0
LINE
  5
1EFB
330
1A
100
AcDbEntity
  8
SEIHIN
100
AcDbLine
 10
130.1594257885044
 20
287.8921833165757
 30
0.0
 11
128.8986683422044
 21
279.5403356707757
 31
0.0
  0
LINE
  5
1EFC
330
1A
100
AcDbEntity
  8
SEIHIN
100
AcDbLine
 10
142.4085826212044
 20
288.3491806263756
 30
0.0
 11
141.0475850636044
 21
279.7698899215757
 31
0.0
  0
LINE
  5
1EFD
330
1A
100
AcDbEntity
  8
SEIHIN
100
AcDbLine
 10
142.2287554079044
 20
287.2817720329757
 30
0.0
 11
143.4127122694044
 21
293.6502722135757
 31
0.0
  0
LINE
  5
1EFE
330
1A
100
AcDbEntity
  8
SEIHIN
100
AcDbLine
 10
129.0860256697044
 20
280.8892112023757
 30
0.0
 11
128.8461834677044
 21
279.1542164054757
 31
0.0
  0
LINE
  5
1EFF
330
1A
100
AcDbEntity
  8
SEIHIN
100
AcDbLine
 10
140.9897983605044
 20
279.2404535269757
 30
0.0
 11
142.2287554079044
 21
287.2817720329757
 31
0.0
  0
LINE
  5
1F00
330
1A
100
AcDbEntity
  8
SEIHIN
100
AcDbLine
 10
140.7830755907044
 20
277.7571703837756
 30
0.0
 11
140.8427168297044
 21
278.1886092148757
 31
0.0
  0
LINE
  5
1F01
330
1A
100
AcDbEntity
  8
SEIHIN
100
AcDbLine
 10
131.5628767544044
 20
295.7303546412757
 30
0.0
 11
130.1594257885044
 21
287.8921833165757
 31
0.0
  0
LINE
  5
1F02
330
1A
100
AcDbEntity
  8
SEIHIN
100
AcDbLine
 10
145.9172845417044
 20
289.5313183383757
 30
0.0
 11
144.2890644604044
 21
280.3592019757757
 31
0.0
  0
LINE
  5
1F03
330
1A
100
AcDbEntity
  8
SEIHIN
100
AcDbLine
 10
143.8078388519044
 20
277.3390331753757
 30
0.0
 11
143.8788160771044
 21
277.8180510459757
 31
0.0
  0
LINE
  5
1F04
330
1A
100
AcDbEntity
  8
SEIHIN
100
AcDbLine
 10
147.7149159247044
 20
298.2258535033757
 30
0.0
 11
145.9172845417044
 21
289.5313183383757
 31
0.0
  0
LINE
  5
1F05
330
1A
100
AcDbEntity
  8
SEIHIN
100
AcDbLine
 10
146.1399525934044
 20
314.7649000441757
 30
0.0
 11
142.4461931521044
 21
312.4530742919757
 31
0.0
  0
LINE
  5
1F06
330
1A
100
AcDbEntity
  8
SEIHIN
100
AcDbLine
 10
142.4461931521044
 20
312.4530742919757
 30
0.0
 11
138.5949135357044
 21
310.4152380531756
 31
0.0
  0
LINE
  5
1F07
330
1A
100
AcDbEntity
  8
SEIHIN
100
AcDbLine
 10
134.4438076550044
 20
306.6741543865757
 30
0.0
 11
136.6692364746044
 21
309.1957530981757
 31
0.0
  0
LINE
  5
1F08
330
1A
100
AcDbEntity
  8
SEIHIN
100
AcDbLine
 10
133.1821859413044
 20
303.5663113972757
 30
0.0
 11
134.4438076550044
 21
306.6741543865757
 31
0.0
  0
LINE
  5
1F09
330
1A
100
AcDbEntity
  8
SEIHIN
100
AcDbLine
 10
136.6692364746044
 20
309.1957530981757
 30
0.0
 11
138.5949135357044
 21
310.4152380531756
 31
0.0
  0
LINE
  5
1F0A
330
1A
100
AcDbEntity
  8
SEIHIN
100
AcDbLine
 10
152.9442325765044
 20
305.1800037777757
 30
0.0
 11
148.9022851521044
 21
302.4940545713757
 31
0.0
  0
LINE
  5
1F0B
330
1A
100
AcDbEntity
  8
SEIHIN
100
AcDbLine
 10
148.9022851521044
 20
302.4940545713757
 30
0.0
 11
144.6950913006044
 21
300.0429644292757
 31
0.0
  0
LINE
  5
1F0C
330
1A
100
AcDbEntity
  8
SEIHIN
100
AcDbLine
 10
159.3542933238044
 20
310.2108614978757
 30
0.0
 11
158.5890895920044
 21
309.5632462928757
 31
0.0
  0
LINE
  5
1F0D
330
1A
100
AcDbEntity
  8
SEIHIN
100
AcDbLine
 10
153.1267345482044
 20
301.4033789789756
 30
0.0
 11
155.4556444818044
 21
302.9676768040757
 31
0.0
  0
LINE
  5
1F0E
330
1A
100
AcDbEntity
  8
SEIHIN
100
AcDbLine
 10
152.8438881570044
 20
320.0406934177757
 30
0.0
 11
149.5854661399044
 21
317.2834775453757
 31
0.0
  0
LINE
  5
1F0F
330
1A
100
AcDbEntity
  8
SEIHIN
100
AcDbLine
 10
149.5854661399044
 20
317.2834775453757
 30
0.0
 11
146.1399525934044
 21
314.7649000441757
 31
0.0
  0
LINE
  5
1F10
330
1A
100
AcDbEntity
  8
SEIHIN
100
AcDbLine
 10
151.4180650414044
 20
318.7849353880757
 30
0.0
 11
151.0636877579044
 21
318.4850151086757
 31
0.0
  0
LINE
  5
1F11
330
1A
100
AcDbEntity
  8
SEIHIN
100
AcDbLine
 10
204.2211250001044
 20
253.0525772875757
 30
0.0
 11
340.0789902145044
 21
253.0525772875757
 31
0.0
  0
LINE
  5
1F12
330
1A
100
AcDbEntity
  8
SEIHIN
100
AcDbLine
 10
171.1500540906044
 20
263.5525762146757
 30
0.0
 11
373.1500611240044
 21
263.5525762146757
 31
0.0
  0
LINE
  5
1F13
330
1A
100
AcDbEntity
  8
SEIHIN
100
AcDbLine
 10
373.1500611240044
 20
260.0525765722757
 30
0.0
 11
171.1500540906044
 21
260.0525765722757
 31
0.0
  0
LINE
  5
1F14
330
1A
100
AcDbEntity
  8
SEIHIN
100
AcDbLine
 10
171.1500540906044
 20
260.5525757229757
 30
0.0
 11
373.1500611240044
 21
260.5525757229757
 31
0.0
  0
LINE
  5
1F15
330
1A
100
AcDbEntity
  8
SEIHIN
100
AcDbLine
 10
373.1500611240044
 20
262.5525760507757
 30
0.0
 11
171.1500540906044
 21
262.5525760507757
 31
0.0
  0
LINE
  5
1F16
330
1A
100
AcDbEntity
  8
SEIHIN
100
AcDbLine
 10
170.7908616000044
 20
248.0525746053756
 30
0.0
 11
195.0789869362044
 21
248.0525746053756
 31
0.0
  0
LINE
  5
1F17
330
1A
100
AcDbEntity
  8
SEIHIN
100
AcDbLine
 10
191.7235211068044
 20
252.8179883068757
 30
0.0
 11
191.9201568299044
 21
253.1215771144757
 31
0.0
  0
LINE
  5
1F18
330
1A
100
AcDbEntity
  8
SEIHIN
100
AcDbLine
 10
172.3799586826044
 20
253.1215771144757
 30
0.0
 11
172.5765944058044
 21
252.8179883068757
 31
0.0
  0
LINE
  5
1F19
330
1A
100
AcDbEntity
  8
SEIHIN
100
AcDbLine
 10
166.0323173338044
 20
251.5175639694757
 30
0.0
 11
164.6268323594044
 21
255.8745703703756
 31
0.0
  0
LINE
  5
1F1A
330
1A
100
AcDbEntity
  8
SEIHIN
100
AcDbLine
 10
174.1500601703044
 20
252.0525752609757
 30
0.0
 11
190.1500553423044
 21
252.0525752609757
 31
0.0
  0
LINE
  5
1F1B
330
1A
100
AcDbEntity
  8
SEIHIN
100
AcDbLine
 10
168.6735183531044
 20
248.5230228906757
 30
0.0
 11
167.3665896588044
 21
249.4091763204757
 31
0.0
  0
LINE
  5
1F1C
330
1A
100
AcDbEntity
  8
SEIHIN
100
AcDbLine
 10
167.3665896588044
 20
249.4091763204757
 30
0.0
 11
166.4568141633044
 21
250.5593783265757
 31
0.0
  0
LINE
  5
1F1D
330
1A
100
AcDbEntity
  8
SEIHIN
100
AcDbLine
 10
166.1513254577044
 20
251.1885165280757
 30
0.0
 11
166.0323173338044
 21
251.5175639694757
 31
0.0
  0
LINE
  5
1F1E
330
1A
100
AcDbEntity
  8
SEIHIN
100
AcDbLine
 10
166.2930578524044
 20
250.8685997730757
 30
0.0
 11
166.1513254577044
 21
251.1885165280757
 31
0.0
  0
LINE
  5
1F1F
330
1A
100
AcDbEntity
  8
SEIHIN
100
AcDbLine
 10
166.4568141633044
 20
250.5593783265757
 30
0.0
 11
166.2930578524044
 21
250.8685997730757
 31
0.0
  0
LINE
  5
1F20
330
1A
100
AcDbEntity
  8
SEIHIN
100
AcDbLine
 10
173.7898320490044
 20
252.0852833098757
 30
0.0
 11
174.1500601703044
 21
252.0525752609757
 31
0.0
  0
LINE
  5
1F21
330
1A
100
AcDbEntity
  8
SEIHIN
100
AcDbLine
 10
173.4413981968044
 20
252.1823345726756
 30
0.0
 11
173.7898320490044
 21
252.0852833098757
 31
0.0
  0
LINE
  5
1F22
330
1A
100
AcDbEntity
  8
SEIHIN
100
AcDbLine
 10
173.1161356503044
 20
252.3405588275757
 30
0.0
 11
173.4413981968044
 21
252.1823345726756
 31
0.0
  0
LINE
  5
1F23
330
1A
100
AcDbEntity
  8
SEIHIN
100
AcDbLine
 10
172.8246912891044
 20
252.5547779208757
 30
0.0
 11
173.1161356503044
 21
252.3405588275757
 31
0.0
  0
LINE
  5
1F24
330
1A
100
AcDbEntity
  8
SEIHIN
100
AcDbLine
 10
172.5765944058044
 20
252.8179883068757
 30
0.0
 11
172.8246912891044
 21
252.5547779208757
 31
0.0
  0
LINE
  5
1F25
330
1A
100
AcDbEntity
  8
SEIHIN
100
AcDbLine
 10
170.7796857291044
 20
248.0525895065757
 30
0.0
 11
168.6735183531044
 21
248.5230228906757
 31
0.0
  0
LINE
  5
1F26
330
1A
100
AcDbEntity
  8
SEIHIN
100
AcDbLine
 10
170.7908616000044
 20
248.0525746053756
 30
0.0
 11
170.7796857291044
 21
248.0525895065757
 31
0.0
  0
LINE
  5
1F27
330
1A
100
AcDbEntity
  8
SEIHIN
100
AcDbLine
 10
191.4754242235044
 20
252.5547779208757
 30
0.0
 11
191.7235211068044
 21
252.8179883068757
 31
0.0
  0
LINE
  5
1F28
330
1A
100
AcDbEntity
  8
SEIHIN
100
AcDbLine
 10
191.1839798623044
 20
252.3405588275757
 30
0.0
 11
191.4754242235044
 21
252.5547779208757
 31
0.0
  0
LINE
  5
1F29
330
1A
100
AcDbEntity
  8
SEIHIN
100
AcDbLine
 10
190.8587173158044
 20
252.1823345726756
 30
0.0
 11
191.1839798623044
 21
252.3405588275757
 31
0.0
  0
LINE
  5
1F2A
330
1A
100
AcDbEntity
  8
SEIHIN
100
AcDbLine
 10
190.5102834636044
 20
252.0852833098757
 30
0.0
 11
190.8587173158044
 21
252.1823345726756
 31
0.0
  0
LINE
  5
1F2B
330
1A
100
AcDbEntity
  8
SEIHIN
100
AcDbLine
 10
190.1500553423044
 20
252.0525752609757
 30
0.0
 11
190.5102834636044
 21
252.0852833098757
 31
0.0
  0
LINE
  5
1F2C
330
1A
100
AcDbEntity
  8
SEIHIN
100
AcDbLine
 10
190.1500553423044
 20
256.0525759166757
 30
0.0
 11
174.1500601703044
 21
256.0525759166757
 31
0.0
  0
LINE
  5
1F2D
330
1A
100
AcDbEntity
  8
SEIHIN
100
AcDbLine
 10
171.1500540906044
 20
262.5525760507757
 30
0.0
 11
168.1500554615044
 21
262.5525760507757
 31
0.0
  0
LINE
  5
1F2E
330
1A
100
AcDbEntity
  8
SEIHIN
100
AcDbLine
 10
171.1500540906044
 20
258.0525762444756
 30
0.0
 11
168.1500554615044
 21
258.0525762444756
 31
0.0
  0
LINE
  5
1F2F
330
1A
100
AcDbEntity
  8
SEIHIN
100
AcDbLine
 10
171.1500540906044
 20
260.0525765722757
 30
0.0
 11
168.1500554615044
 21
260.0525765722757
 31
0.0
  0
LINE
  5
1F30
330
1A
100
AcDbEntity
  8
SEIHIN
100
AcDbLine
 10
171.1500540906044
 20
255.5457725232757
 30
0.0
 11
168.1500554615044
 21
255.5457725232757
 31
0.0
  0
LINE
  5
1F31
330
1A
100
AcDbEntity
  8
SEIHIN
100
AcDbLine
 10
171.1500540906044
 20
254.0525755888756
 30
0.0
 11
168.1500554615044
 21
254.0525755888756
 31
0.0
  0
LINE
  5
1F32
330
1A
100
AcDbEntity
  8
SEIHIN
100
AcDbLine
 10
163.2778227860044
 20
260.0565086162757
 30
0.0
 11
163.2790893847044
 21
260.0525765722757
 31
0.0
  0
LINE
  5
1F33
330
1A
100
AcDbEntity
  8
SEIHIN
100
AcDbLine
 10
163.2740378910044
 20
260.0682414179756
 30
0.0
 11
163.2778227860044
 21
260.0565086162757
 31
0.0
  0
LINE
  5
1F34
330
1A
100
AcDbEntity
  8
SEIHIN
100
AcDbLine
 10
163.2677943045044
 20
260.0875905758757
 30
0.0
 11
163.2740378910044
 21
260.0682414179756
 31
0.0
  0
LINE
  5
1F35
330
1A
100
AcDbEntity
  8
SEIHIN
100
AcDbLine
 10
163.2592633897044
 20
260.1137849545756
 30
0.0
 11
163.2677943045044
 21
260.0875905758757
 31
0.0
  0
LINE
  5
1F36
330
1A
100
AcDbEntity
  8
SEIHIN
100
AcDbLine
 10
163.2217720681044
 20
260.2235450452757
 30
0.0
 11
163.2592633897044
 21
260.1137849545756
 31
0.0
  0
LINE
  5
1F37
330
1A
100
AcDbEntity
  8
SEIHIN
100
AcDbLine
 10
163.1635681325044
 20
260.3794093286757
 30
0.0
 11
163.2217720681044
 21
260.2235450452757
 31
0.0
  0
LINE
  5
1F38
330
1A
100
AcDbEntity
  8
SEIHIN
100
AcDbLine
 10
163.0918264919044
 20
260.5525757229757
 30
0.0
 11
163.1635681325044
 21
260.3794093286757
 31
0.0
  0
LINE
  5
1F39
330
1A
100
AcDbEntity
  8
SEIHIN
100
AcDbLine
 10
160.7176170283044
 20
263.0384582138756
 30
0.0
 11
161.5092486673044
 21
262.5525760507757
 31
0.0
  0
LINE
  5
1F3A
330
1A
100
AcDbEntity
  8
SEIHIN
100
AcDbLine
 10
163.3039221698044
 20
259.9755934482757
 30
0.0
 11
163.2790893847044
 21
260.0525765722757
 31
0.0
  0
LINE
  5
1F3B
330
1A
100
AcDbEntity
  8
SEIHIN
100
AcDbLine
 10
163.3776605660044
 20
259.7470152234757
 30
0.0
 11
163.3039221698044
 21
259.9755934482757
 31
0.0
  0
LINE
  5
1F3C
330
1A
100
AcDbEntity
  8
SEIHIN
100
AcDbLine
 10
163.4980246955044
 20
259.3738789713757
 30
0.0
 11
163.3776605660044
 21
259.7470152234757
 31
0.0
  0
LINE
  5
1F3D
330
1A
100
AcDbEntity
  8
SEIHIN
100
AcDbLine
 10
163.6613190704044
 20
258.8676753497757
 30
0.0
 11
163.4980246955044
 21
259.3738789713757
 31
0.0
  0
LINE
  5
1F3E
330
1A
100
AcDbEntity
  8
SEIHIN
100
AcDbLine
 10
163.8625070983044
 20
258.2439946985757
 30
0.0
 11
163.6613190704044
 21
258.8676753497757
 31
0.0
  0
LINE
  5
1F3F
330
1A
100
AcDbEntity
  8
SEIHIN
100
AcDbLine
 10
164.0953898960044
 20
257.5220390266757
 30
0.0
 11
163.8625070983044
 21
258.2439946985757
 31
0.0
  0
LINE
  5
1F40
330
1A
100
AcDbEntity
  8
SEIHIN
100
AcDbLine
 10
164.3528149062044
 20
256.7240408664757
 30
0.0
 11
164.0953898960044
 21
257.5220390266757
 31
0.0
  0
LINE
  5
1F41
330
1A
100
AcDbEntity
  8
SEIHIN
100
AcDbLine
 10
164.6268323594044
 20
255.8745703703756
 30
0.0
 11
164.3528149062044
 21
256.7240408664757
 31
0.0
  0
LINE
  5
1F42
330
1A
100
AcDbEntity
  8
SEIHIN
100
AcDbLine
 10
168.1500554615044
 20
263.5525762146757
 30
0.0
 11
168.1500554615044
 21
262.5525760507757
 31
0.0
  0
LINE
  5
1F43
330
1A
100
AcDbEntity
  8
SEIHIN
100
AcDbLine
 10
168.1500554615044
 20
262.5525760507757
 30
0.0
 11
161.5092486673044
 21
262.5525760507757
 31
0.0
  0
LINE
  5
1F44
330
1A
100
AcDbEntity
  8
SEIHIN
100
AcDbLine
 10
168.1500554615044
 20
260.0525765722757
 30
0.0
 11
168.1500554615044
 21
258.0525762444756
 31
0.0
  0
LINE
  5
1F45
330
1A
100
AcDbEntity
  8
SEIHIN
100
AcDbLine
 10
168.1500554615044
 20
255.5457725232757
 30
0.0
 11
168.1500554615044
 21
254.0525755888756
 31
0.0
  0
LINE
  5
1F46
330
1A
100
AcDbEntity
  8
SEIHIN
100
AcDbLine
 10
168.1500554615044
 20
258.0525762444756
 30
0.0
 11
168.1500554615044
 21
255.5457725232757
 31
0.0
  0
LINE
  5
1F47
330
1A
100
AcDbEntity
  8
SEIHIN
100
AcDbLine
 10
163.0918264919044
 20
260.5525757229757
 30
0.0
 11
168.1500554615044
 21
260.5525757229757
 31
0.0
  0
LINE
  5
1F48
330
1A
100
AcDbEntity
  8
SEIHIN
100
AcDbLine
 10
168.1500554615044
 20
260.0525765722757
 30
0.0
 11
163.2790893847044
 21
260.0525765722757
 31
0.0
  0
ARC
  5
1F49
330
1A
100
AcDbEntity
  8
SEIHIN
100
AcDbCircle
 10
158.5092519702044
 20
258.5525761546757
 30
0.0
 40
5.0
100
AcDbArc
 50
23.57817847820053
 51
53.13010235420093
  0
LINE
  5
1F4A
330
1A
100
AcDbEntity
  8
SEIHIN
100
AcDbLine
 10
168.1500554615044
 20
262.5525760507757
 30
0.0
 11
168.1500554615044
 21
260.0525765722757
 31
0.0
  0
LINE
  5
1F4B
330
1A
100
AcDbEntity
  8
SEIHIN
100
AcDbLine
 10
173.8367632562044
 20
256.0278846925756
 30
0.0
 11
173.3252361947044
 21
255.8745703703756
 31
0.0
  0
LINE
  5
1F4C
330
1A
100
AcDbEntity
  8
SEIHIN
100
AcDbLine
 10
174.1500601703044
 20
256.0525759166757
 30
0.0
 11
173.8367632562044
 21
256.0278846925756
 31
0.0
  0
LINE
  5
1F4D
330
1A
100
AcDbEntity
  8
SEIHIN
100
AcDbLine
 10
172.2412288719044
 20
253.4556164449757
 30
0.0
 11
172.3799586826044
 21
253.1215771144757
 31
0.0
  0
LINE
  5
1F4E
330
1A
100
AcDbEntity
  8
SEIHIN
100
AcDbLine
 10
172.1649200255044
 20
253.8091800218757
 30
0.0
 11
172.2412288719044
 21
253.4556164449757
 31
0.0
  0
LINE
  5
1F4F
330
1A
100
AcDbEntity
  8
SEIHIN
100
AcDbLine
 10
172.1535504395044
 20
254.1707045441757
 30
0.0
 11
172.1649200255044
 21
253.8091800218757
 31
0.0
  0
LINE
  5
1F50
330
1A
100
AcDbEntity
  8
SEIHIN
100
AcDbLine
 10
172.2074777418044
 20
254.5283659404757
 30
0.0
 11
172.1535504395044
 21
254.1707045441757
 31
0.0
  0
LINE
  5
1F51
330
1A
100
AcDbEntity
  8
SEIHIN
100
AcDbLine
 10
172.3249435955044
 20
254.8704667991757
 30
0.0
 11
172.2074777418044
 21
254.5283659404757
 31
0.0
  0
LINE
  5
1F52
330
1A
100
AcDbEntity
  8
SEIHIN
100
AcDbLine
 10
172.5020960504044
 20
255.1858163481757
 30
0.0
 11
172.3249435955044
 21
254.8704667991757
 31
0.0
  0
LINE
  5
1F53
330
1A
100
AcDbEntity
  8
SEIHIN
100
AcDbLine
 10
172.7331609064044
 20
255.4640992587757
 30
0.0
 11
172.5020960504044
 21
255.1858163481757
 31
0.0
  0
LINE
  5
1F54
330
1A
100
AcDbEntity
  8
SEIHIN
100
AcDbLine
 10
173.0105609232044
 20
255.6962146466757
 30
0.0
 11
172.7331609064044
 21
255.4640992587757
 31
0.0
  0
LINE
  5
1F55
330
1A
100
AcDbEntity
  8
SEIHIN
100
AcDbLine
 10
173.3252361947044
 20
255.8745703703756
 30
0.0
 11
173.0105609232044
 21
255.6962146466757
 31
0.0
  0
LINE
  5
1F56
330
1A
100
AcDbEntity
  8
SEIHIN
100
AcDbLine
 10
171.1500540906044
 20
262.5525760507757
 30
0.0
 11
171.1500540906044
 21
263.5525762146757
 31
0.0
  0
LINE
  5
1F57
330
1A
100
AcDbEntity
  8
SEIHIN
100
AcDbLine
 10
171.1500540906044
 20
258.0525762444756
 30
0.0
 11
171.1500540906044
 21
260.0525765722757
 31
0.0
  0
LINE
  5
1F58
330
1A
100
AcDbEntity
  8
SEIHIN
100
AcDbLine
 10
171.1500540906044
 20
254.0525755888756
 30
0.0
 11
171.1500540906044
 21
255.5457725232757
 31
0.0
  0
LINE
  5
1F59
330
1A
100
AcDbEntity
  8
SEIHIN
100
AcDbLine
 10
171.1500540906044
 20
255.5457725232757
 30
0.0
 11
171.1500540906044
 21
258.0525762444756
 31
0.0
  0
LINE
  5
1F5A
330
1A
100
AcDbEntity
  8
SEIHIN
100
AcDbLine
 10
171.1500540906044
 20
260.0525765722757
 30
0.0
 11
171.1500540906044
 21
262.5525760507757
 31
0.0
  0
LINE
  5
1F5B
330
1A
100
AcDbEntity
  8
SEIHIN
100
AcDbLine
 10
190.5063570076044
 20
256.0205831235757
 30
0.0
 11
190.1500553423044
 21
256.0525759166757
 31
0.0
  0
LINE
  5
1F5C
330
1A
100
AcDbEntity
  8
SEIHIN
100
AcDbLine
 10
190.9748793179044
 20
255.8745703703756
 30
0.0
 11
190.5063570076044
 21
256.0205831235757
 31
0.0
  0
LINE
  5
1F5D
330
1A
100
AcDbEntity
  8
SEIHIN
100
AcDbLine
 10
191.2895545894044
 20
255.6962146466757
 30
0.0
 11
190.9748793179044
 21
255.8745703703756
 31
0.0
  0
LINE
  5
1F5E
330
1A
100
AcDbEntity
  8
SEIHIN
100
AcDbLine
 10
191.5669546062044
 20
255.4640992587757
 30
0.0
 11
191.2895545894044
 21
255.6962146466757
 31
0.0
  0
LINE
  5
1F5F
330
1A
100
AcDbEntity
  8
SEIHIN
100
AcDbLine
 10
191.7980194622044
 20
255.1858163481757
 30
0.0
 11
191.5669546062044
 21
255.4640992587757
 31
0.0
  0
LINE
  5
1F60
330
1A
100
AcDbEntity
  8
SEIHIN
100
AcDbLine
 10
191.9751719171044
 20
254.8704667991757
 30
0.0
 11
191.7980194622044
 21
255.1858163481757
 31
0.0
  0
LINE
  5
1F61
330
1A
100
AcDbEntity
  8
SEIHIN
100
AcDbLine
 10
192.0926377708044
 20
254.5283659404757
 30
0.0
 11
191.9751719171044
 21
254.8704667991757
 31
0.0
  0
LINE
  5
1F62
330
1A
100
AcDbEntity
  8
SEIHIN
100
AcDbLine
 10
192.1465650731044
 20
254.1707045441757
 30
0.0
 11
192.0926377708044
 21
254.5283659404757
 31
0.0
  0
LINE
  5
1F63
330
1A
100
AcDbEntity
  8
SEIHIN
100
AcDbLine
 10
192.1351954871044
 20
253.8091800218757
 30
0.0
 11
192.1465650731044
 21
254.1707045441757
 31
0.0
  0
LINE
  5
1F64
330
1A
100
AcDbEntity
  8
SEIHIN
100
AcDbLine
 10
192.0588866407044
 20
253.4556164449757
 30
0.0
 11
192.1351954871044
 21
253.8091800218757
 31
0.0
  0
LINE
  5
1F65
330
1A
100
AcDbEntity
  8
SEIHIN
100
AcDbLine
 10
191.9201568299044
 20
253.1215771144757
 30
0.0
 11
192.0588866407044
 21
253.4556164449757
 31
0.0
  0
LINE
  5
1F66
330
1A
100
AcDbEntity
  8
SEIHIN
100
AcDbLine
 10
203.2456726366044
 20
252.9565020507757
 30
0.0
 11
202.3077115947044
 21
252.6719755536757
 31
0.0
  0
LINE
  5
1F67
330
1A
100
AcDbEntity
  8
SEIHIN
100
AcDbLine
 10
201.4432728821044
 20
252.2099240726757
 30
0.0
 11
200.6855935389044
 21
251.5881097918757
 31
0.0
  0
LINE
  5
1F68
330
1A
100
AcDbEntity
  8
SEIHIN
100
AcDbLine
 10
195.0901702577044
 20
248.0525895065757
 30
0.0
 11
195.0789869362044
 21
248.0525746053756
 31
0.0
  0
LINE
  5
1F69
330
1A
100
AcDbEntity
  8
SEIHIN
100
AcDbLine
 10
197.1963301831044
 20
248.5230228906757
 30
0.0
 11
195.0901702577044
 21
248.0525895065757
 31
0.0
  0
LINE
  5
1F6A
330
1A
100
AcDbEntity
  8
SEIHIN
100
AcDbLine
 10
198.5032663280044
 20
249.4091763204757
 30
0.0
 11
197.1963301831044
 21
248.5230228906757
 31
0.0
  0
LINE
  5
1F6B
330
1A
100
AcDbEntity
  8
SEIHIN
100
AcDbLine
 10
198.6145258480044
 20
249.5170421010757
 30
0.0
 11
198.5032663280044
 21
249.4091763204757
 31
0.0
  0
LINE
  5
1F6C
330
1A
100
AcDbEntity
  8
SEIHIN
100
AcDbLine
 10
198.9452422196044
 20
249.8477584725757
 30
0.0
 11
198.6145258480044
 21
249.5170421010757
 31
0.0
  0
LINE
  5
1F6D
330
1A
100
AcDbEntity
  8
SEIHIN
100
AcDbLine
 10
199.2944732839044
 20
250.1969932621757
 30
0.0
 11
198.9452422196044
 21
249.8477584725757
 31
0.0
  0
LINE
  5
1F6E
330
1A
100
AcDbEntity
  8
SEIHIN
100
AcDbLine
 10
199.6568620735044
 20
250.5593783265757
 30
0.0
 11
199.2944732839044
 21
250.1969932621757
 31
0.0
  0
LINE
  5
1F6F
330
1A
100
AcDbEntity
  8
SEIHIN
100
AcDbLine
 10
200.6855935389044
 20
251.5881097918757
 30
0.0
 11
199.6568620735044
 21
250.5593783265757
 31
0.0
  0
LINE
  5
1F70
330
1A
100
AcDbEntity
  8
SEIHIN
100
AcDbLine
 10
202.3077115947044
 20
252.6719755536757
 30
0.0
 11
201.4432728821044
 21
252.2099240726757
 31
0.0
  0
LINE
  5
1F71
330
1A
100
AcDbEntity
  8
SEIHIN
100
AcDbLine
 10
204.2211250001044
 20
253.0525772875757
 30
0.0
 11
203.2456726366044
 21
252.9565020507757
 31
0.0
  0
LINE
  5
1F72
330
1A
100
AcDbEntity
  8
SEIHIN
100
AcDbLine
 10
162.6215905481044
 20
308.6591622835757
 30
0.0
 11
165.6738326484044
 21
311.5622065073757
 31
0.0
  0
LINE
  5
1F73
330
1A
100
AcDbEntity
  8
SEIHIN
100
AcDbLine
 10
161.0452944327044
 20
307.4096745844756
 30
0.0
 11
160.9508682703044
 21
307.3297588495757
 31
0.0
  0
LINE
  5
1F74
330
1A
100
AcDbEntity
  8
SEIHIN
100
AcDbLine
 10
165.6738326484044
 20
311.5622065073757
 30
0.0
 11
168.8964322740044
 21
315.0154295420757
 31
0.0
  0
LINE
  5
1F75
330
1A
100
AcDbEntity
  8
SEIHIN
100
AcDbLine
 10
170.1032251650044
 20
321.5245789891757
 30
0.0
 11
167.1170548135044
 21
317.9086240982757
 31
0.0
  0
LINE
  5
1F76
330
1A
100
AcDbEntity
  8
SEIHIN
100
AcDbLine
 10
167.1170548135044
 20
317.9086240982757
 30
0.0
 11
160.4361489946044
 21
311.1665322488757
 31
0.0
  0
LINE
  5
1F77
330
1A
100
AcDbEntity
  8
SEIHIN
100
AcDbLine
 10
173.2515723044044
 20
320.5023034518757
 30
0.0
 11
174.5657578641044
 21
322.3583064085757
 31
0.0
  0
LINE
  5
1F78
330
1A
100
AcDbEntity
  8
SEIHIN
100
AcDbLine
 10
171.5266362363044
 20
318.1842154866757
 30
0.0
 11
173.2515723044044
 21
320.5023034518757
 31
0.0
  0
LINE
  5
1F79
330
1A
100
AcDbEntity
  8
SEIHIN
100
AcDbLine
 10
168.8964322740044
 20
315.0154295420757
 30
0.0
 11
171.9088584715044
 21
318.6823072886756
 31
0.0
  0
LINE
  5
1F7A
330
1A
100
AcDbEntity
  8
SEIHIN
100
AcDbLine
 10
174.5657578641044
 20
322.3583101338757
 30
0.0
 11
174.5681569511044
 21
322.3540707534756
 31
0.0
  0
LINE
  5
1F7B
330
1A
100
AcDbEntity
  8
SEIHIN
100
AcDbLine
 10
174.5681569511044
 20
322.3540707534756
 30
0.0
 11
174.2338941032044
 21
321.8727334445757
 31
0.0
  0
LINE
  5
1F7C
330
1A
100
AcDbEntity
  8
SEIHIN
100
AcDbLine
 10
172.4754006201044
 20
319.4277956193757
 30
0.0
 11
174.2338941032044
 21
321.8727334445757
 31
0.0
  0
LINE
  5
1F7D
330
1A
100
AcDbEntity
  8
SEIHIN
100
AcDbLine
 10
171.5266362363044
 20
318.1842154866757
 30
0.0
 11
171.9088584715044
 21
318.6823072886757
 31
0.0
  0
LINE
  5
1F7E
330
1A
100
AcDbEntity
  8
SEIHIN
100
AcDbLine
 10
172.4754006201044
 20
319.4277956193757
 30
0.0
 11
171.5266362363044
 21
318.1842154866757
 31
0.0
  0
DIMENSION
  5
1F7F
330
1A
100
AcDbEntity
  8
SUNPOU
100
AcDbDimension
  2
*D4
 10
417.1500534350044
 20
219.6681114077408
 30
0.0
 11
402.1500565642044
 21
224.6681114077408
 31
0.0
 70
    32
 71
     5
 42
29.99999374160001
  3
STANDARD
100
AcDbAlignedDimension
 13
387.1500596934044
 23
244.9986971026757
 33
0.0
 14
417.1500534350044
 24
244.9986971026757
 34
0.0
100
AcDbRotatedDimension
1001
ACAD
1000
DSTYLE
1002
{
1070
    41
1040
7.0
1070
    42
1040
6.0
1070
    43
1040
14.0
1070
    44
1040
3.0
1070
    73
1070
     0
1070
    74
1070
     0
1070
    77
1070
     3
1070
   140
1040
6.0
1070
   141
1040
150.0
1070
   147
1040
2.0
1070
   172
1070
     1
1070
   173
1070
     1
1070
   176
1070
     4
1070
   177
1070
     4
1070
   178
1070
     4
1070
   271
1070
     0
1070
   272
1070
     2
1070
   341
1005
6D
1070
     6
1000
OPEN
1070
     7
1000
OPEN
1002
}
  0
DIMENSION
  5
1F80
330
1A
100
AcDbEntity
  8
SUNPOU
100
AcDbDimension
  2
*D5
 10
371.8865953916044
 20
218.9981387287203
 30
0.0
 11
362.0335545921043
 21
223.9981387287203
 31
0.0
 70
    32
 71
     5
 42
19.70608159900002
  3
STANDARD
100
AcDbAlignedDimension
 13
352.1805137926044
 23
254.3495352423257
 33
0.0
 14
371.8865953916044
 24
255.0281415736757
 34
0.0
100
AcDbRotatedDimension
1001
ACAD
1000
DSTYLE
1002
{
1070
    41
1040
7.0
1070
    42
1040
6.0
1070
    43
1040
14.0
1070
    44
1040
3.0
1070
    73
1070
     0
1070
    74
1070
     0
1070
    77
1070
     3
1070
   140
1040
6.0
1070
   141
1040
150.0
1070
   147
1040
2.0
1070
   172
1070
     1
1070
   173
1070
     1
1070
   176
1070
     4
1070
   177
1070
     4
1070
   178
1070
     4
1070
   271
1070
     0
1070
   272
1070
     2
1070
   341
1005
6D
1070
     6
1000
OPEN
1070
     7
1000
OPEN
1002
}
  0
LINE
  5
1F81
330
1A
100
AcDbEntity
  8
SEIHIN
100
AcDbLine
 10
354.1500598723044
 20
256.0525759166757
 30
0.0
 11
370.1500550443044
 21
256.0525759166757
 31
0.0
  0
LINE
  5
1F82
330
1A
100
AcDbEntity
  8
SEIHIN
100
AcDbLine
 10
370.1500550443044
 20
252.0525752609757
 30
0.0
 11
354.1500598723044
 21
252.0525752609757
 31
0.0
  0
LINE
  5
1F83
330
1A
100
AcDbEntity
  8
SEIHIN
100
AcDbLine
 10
373.5092536145044
 20
248.0525746053756
 30
0.0
 11
349.2211282784044
 21
248.0525746053756
 31
0.0
  0
LINE
  5
1F84
330
1A
100
AcDbEntity
  8
SEIHIN
100
AcDbLine
 10
352.5765941077044
 20
252.8179883068757
 30
0.0
 11
352.3799583846044
 21
253.1215771144757
 31
0.0
  0
LINE
  5
1F85
330
1A
100
AcDbEntity
  8
SEIHIN
100
AcDbLine
 10
341.0544425779044
 20
252.9565020507757
 30
0.0
 11
341.9924036199044
 21
252.6719755536757
 31
0.0
  0
LINE
  5
1F86
330
1A
100
AcDbEntity
  8
SEIHIN
100
AcDbLine
 10
347.1037850314044
 20
248.5230228906757
 30
0.0
 11
349.2099449569044
 21
248.0525895065757
 31
0.0
  0
LINE
  5
1F87
330
1A
100
AcDbEntity
  8
SEIHIN
100
AcDbLine
 10
342.8568423325044
 20
252.2099240726757
 30
0.0
 11
343.6145216757044
 21
251.5881097918757
 31
0.0
  0
LINE
  5
1F88
330
1A
100
AcDbEntity
  8
SEIHIN
100
AcDbLine
 10
341.9924036199044
 20
252.6719755536757
 30
0.0
 11
342.8568423325044
 21
252.2099240726757
 31
0.0
  0
LINE
  5
1F89
330
1A
100
AcDbEntity
  8
SEIHIN
100
AcDbLine
 10
345.3548729950044
 20
249.8477584725757
 30
0.0
 11
345.6855893665044
 21
249.5170421010757
 31
0.0
  0
LINE
  5
1F8A
330
1A
100
AcDbEntity
  8
SEIHIN
100
AcDbLine
 10
345.0056419307044
 20
250.1969932621757
 30
0.0
 11
345.3548729950044
 21
249.8477584725757
 31
0.0
  0
LINE
  5
1F8B
330
1A
100
AcDbEntity
  8
SEIHIN
100
AcDbLine
 10
344.6432531410044
 20
250.5593783265757
 30
0.0
 11
345.0056419307044
 21
250.1969932621757
 31
0.0
  0
LINE
  5
1F8C
330
1A
100
AcDbEntity
  8
SEIHIN
100
AcDbLine
 10
345.7968488866044
 20
249.4091763204757
 30
0.0
 11
347.1037850314044
 21
248.5230228906757
 31
0.0
  0
LINE
  5
1F8D
330
1A
100
AcDbEntity
  8
SEIHIN
100
AcDbLine
 10
345.6855893665044
 20
249.5170421010757
 30
0.0
 11
345.7968488866044
 21
249.4091763204757
 31
0.0
  0
LINE
  5
1F8E
330
1A
100
AcDbEntity
  8
SEIHIN
100
AcDbLine
 10
343.6145216757044
 20
251.5881097918757
 30
0.0
 11
344.6432531410044
 21
250.5593783265757
 31
0.0
  0
LINE
  5
1F8F
330
1A
100
AcDbEntity
  8
SEIHIN
100
AcDbLine
 10
352.8246909910044
 20
252.5547779208757
 30
0.0
 11
352.5765941077044
 21
252.8179883068757
 31
0.0
  0
LINE
  5
1F90
330
1A
100
AcDbEntity
  8
SEIHIN
100
AcDbLine
 10
353.1161353522044
 20
252.3405588275757
 30
0.0
 11
352.8246909910044
 21
252.5547779208757
 31
0.0
  0
LINE
  5
1F91
330
1A
100
AcDbEntity
  8
SEIHIN
100
AcDbLine
 10
353.4413978988044
 20
252.1823345726756
 30
0.0
 11
353.1161353522044
 21
252.3405588275757
 31
0.0
  0
LINE
  5
1F92
330
1A
100
AcDbEntity
  8
SEIHIN
100
AcDbLine
 10
353.7898317510044
 20
252.0852833098757
 30
0.0
 11
353.4413978988044
 21
252.1823345726756
 31
0.0
  0
LINE
  5
1F93
330
1A
100
AcDbEntity
  8
SEIHIN
100
AcDbLine
 10
354.1500598723044
 20
252.0525752609757
 30
0.0
 11
353.7898317510044
 21
252.0852833098757
 31
0.0
  0
LINE
  5
1F94
330
1A
100
AcDbEntity
  8
SEIHIN
100
AcDbLine
 10
349.2099449569044
 20
248.0525895065757
 30
0.0
 11
349.2211282784044
 21
248.0525746053756
 31
0.0
  0
LINE
  5
1F95
330
1A
100
AcDbEntity
  8
SEIHIN
100
AcDbLine
 10
340.0789902145044
 20
253.0525772875757
 30
0.0
 11
341.0544425779044
 21
252.9565020507757
 31
0.0
  0
LINE
  5
1F96
330
1A
100
AcDbEntity
  8
SEIHIN
100
AcDbLine
 10
353.0105606252044
 20
255.6962146466757
 30
0.0
 11
353.3252358967044
 21
255.8745703703756
 31
0.0
  0
LINE
  5
1F97
330
1A
100
AcDbEntity
  8
SEIHIN
100
AcDbLine
 10
352.7331606084044
 20
255.4640992587757
 30
0.0
 11
353.0105606252044
 21
255.6962146466757
 31
0.0
  0
LINE
  5
1F98
330
1A
100
AcDbEntity
  8
SEIHIN
100
AcDbLine
 10
352.5020957523044
 20
255.1858163481757
 30
0.0
 11
352.7331606084044
 21
255.4640992587757
 31
0.0
  0
LINE
  5
1F99
330
1A
100
AcDbEntity
  8
SEIHIN
100
AcDbLine
 10
352.3249432975044
 20
254.8704667991757
 30
0.0
 11
352.5020957523044
 21
255.1858163481757
 31
0.0
  0
LINE
  5
1F9A
330
1A
100
AcDbEntity
  8
SEIHIN
100
AcDbLine
 10
352.2074774438044
 20
254.5283659404757
 30
0.0
 11
352.3249432975044
 21
254.8704667991757
 31
0.0
  0
LINE
  5
1F9B
330
1A
100
AcDbEntity
  8
SEIHIN
100
AcDbLine
 10
352.1535501414044
 20
254.1707045441757
 30
0.0
 11
352.2074774438044
 21
254.5283659404757
 31
0.0
  0
LINE
  5
1F9C
330
1A
100
AcDbEntity
  8
SEIHIN
100
AcDbLine
 10
352.1649197274044
 20
253.8091800218757
 30
0.0
 11
352.1535501414044
 21
254.1707045441757
 31
0.0
  0
LINE
  5
1F9D
330
1A
100
AcDbEntity
  8
SEIHIN
100
AcDbLine
 10
352.2412285739044
 20
253.4556164449757
 30
0.0
 11
352.1649197274044
 21
253.8091800218757
 31
0.0
  0
LINE
  5
1F9E
330
1A
100
AcDbEntity
  8
SEIHIN
100
AcDbLine
 10
352.3799583846044
 20
253.1215771144757
 30
0.0
 11
352.2412285739044
 21
253.4556164449757
 31
0.0
  0
LINE
  5
1F9F
330
1A
100
AcDbEntity
  8
SEIHIN
100
AcDbLine
 10
353.7937582070044
 20
256.0205831235757
 30
0.0
 11
354.1500598723044
 21
256.0525759166757
 31
0.0
  0
LINE
  5
1FA0
330
1A
100
AcDbEntity
  8
SEIHIN
100
AcDbLine
 10
353.3252358967044
 20
255.8745703703756
 30
0.0
 11
353.7937582070044
 21
256.0205831235757
 31
0.0
  0
LINE
  5
1FA1
330
1A
100
AcDbEntity
  8
SEIHIN
100
AcDbLine
 10
403.2525301510044
 20
279.7698899215757
 30
0.0
 11
404.3434888655044
 21
271.2483367925756
 31
0.0
  0
LINE
  5
1FA2
330
1A
100
AcDbEntity
  8
SEIHIN
100
AcDbLine
 10
400.0110507542044
 20
280.3592019757757
 30
0.0
 11
401.3242304855044
 21
271.2483367925756
 31
0.0
  0
LINE
  5
1FA3
330
1A
100
AcDbEntity
  8
SEIHIN
100
AcDbLine
 10
404.3434888655044
 20
271.2483367925756
 30
0.0
 11
403.3103168541044
 21
279.2404535269757
 31
0.0
  0
LINE
  5
1FA4
330
1A
100
AcDbEntity
  8
SEIHIN
100
AcDbLine
 10
415.4014468723044
 20
279.5403356707757
 30
0.0
 11
416.4166331822044
 21
271.2483367925756
 31
0.0
  0
LINE
  5
1FA5
330
1A
100
AcDbEntity
  8
SEIHIN
100
AcDbLine
 10
387.1500596934044
 20
266.4507458960757
 30
0.0
 11
401.3015509182044
 21
266.4507458960757
 31
0.0
  0
LINE
  5
1FA6
330
1A
100
AcDbEntity
  8
SEIHIN
100
AcDbLine
 10
404.3434888655044
 20
265.5525765424757
 30
0.0
 11
387.1500596934044
 21
265.5525765424757
 31
0.0
  0
LINE
  5
1FA7
330
1A
100
AcDbEntity
  8
SEIHIN
100
AcDbLine
 10
417.1500534350044
 20
245.0526914602757
 30
0.0
 11
387.1500596934044
 21
245.0526914602757
 31
0.0
  0
LINE
  5
1FA8
330
1A
100
AcDbEntity
  8
SEIHIN
100
AcDbLine
 10
387.1500596934044
 20
246.9315863257756
 30
0.0
 11
417.1500534350044
 21
246.9315863257756
 31
0.0
  0
LINE
  5
1FA9
330
1A
100
AcDbEntity
  8
SEIHIN
100
AcDbLine
 10
387.1500596934044
 20
244.9988125866757
 30
0.0
 11
417.1500534350044
 21
244.9988125866757
 31
0.0
  0
LINE
  5
1FAA
330
1A
100
AcDbEntity
  8
SEIHIN
100
AcDbLine
 10
387.1500596934044
 20
244.9986971026757
 30
0.0
 11
417.1500534350044
 21
244.9986971026757
 31
0.0
  0
LINE
  5
1FAB
330
1A
100
AcDbEntity
  8
SEIHIN
100
AcDbLine
 10
371.9201565319044
 20
253.1215771144757
 30
0.0
 11
371.7235208088044
 21
252.8179883068757
 31
0.0
  0
LINE
  5
1FAC
330
1A
100
AcDbEntity
  8
SEIHIN
100
AcDbLine
 10
378.2677978808044
 20
251.5175639694757
 30
0.0
 11
379.6732828551044
 21
255.8745703703756
 31
0.0
  0
LINE
  5
1FAD
330
1A
100
AcDbEntity
  8
SEIHIN
100
AcDbLine
 10
387.1500596934044
 20
265.5525765424757
 30
0.0
 11
387.1500596934044
 21
246.9315863257756
 31
0.0
  0
LINE
  5
1FAE
330
1A
100
AcDbEntity
  8
SEIHIN
100
AcDbLine
 10
370.5102831656044
 20
252.0852833098757
 30
0.0
 11
370.1500550443044
 21
252.0525752609757
 31
0.0
  0
LINE
  5
1FAF
330
1A
100
AcDbEntity
  8
SEIHIN
100
AcDbLine
 10
370.8587170178044
 20
252.1823345726756
 30
0.0
 11
370.5102831656044
 21
252.0852833098757
 31
0.0
  0
LINE
  5
1FB0
330
1A
100
AcDbEntity
  8
SEIHIN
100
AcDbLine
 10
371.1839795643044
 20
252.3405588275757
 30
0.0
 11
370.8587170178044
 21
252.1823345726756
 31
0.0
  0
LINE
  5
1FB1
330
1A
100
AcDbEntity
  8
SEIHIN
100
AcDbLine
 10
371.4754239255044
 20
252.5547779208757
 30
0.0
 11
371.1839795643044
 21
252.3405588275757
 31
0.0
  0
LINE
  5
1FB2
330
1A
100
AcDbEntity
  8
SEIHIN
100
AcDbLine
 10
371.7235208088044
 20
252.8179883068757
 30
0.0
 11
371.4754239255044
 21
252.5547779208757
 31
0.0
  0
LINE
  5
1FB3
330
1A
100
AcDbEntity
  8
SEIHIN
100
AcDbLine
 10
378.1487897569044
 20
251.1885165280757
 30
0.0
 11
378.2677978808044
 21
251.5175639694757
 31
0.0
  0
LINE
  5
1FB4
330
1A
100
AcDbEntity
  8
SEIHIN
100
AcDbLine
 10
378.0070573622044
 20
250.8685997730757
 30
0.0
 11
378.1487897569044
 21
251.1885165280757
 31
0.0
  0
LINE
  5
1FB5
330
1A
100
AcDbEntity
  8
SEIHIN
100
AcDbLine
 10
377.8433010512044
 20
250.5593783265757
 30
0.0
 11
378.0070573622044
 21
250.8685997730757
 31
0.0
  0
LINE
  5
1FB6
330
1A
100
AcDbEntity
  8
SEIHIN
100
AcDbLine
 10
376.9335255557044
 20
249.4091763204757
 30
0.0
 11
377.8433010512044
 21
250.5593783265757
 31
0.0
  0
LINE
  5
1FB7
330
1A
100
AcDbEntity
  8
SEIHIN
100
AcDbLine
 10
375.6265968615044
 20
248.5230228906757
 30
0.0
 11
376.9335255557044
 21
249.4091763204757
 31
0.0
  0
LINE
  5
1FB8
330
1A
100
AcDbEntity
  8
SEIHIN
100
AcDbLine
 10
373.5204294854044
 20
248.0525895065757
 30
0.0
 11
375.6265968615044
 21
248.5230228906757
 31
0.0
  0
LINE
  5
1FB9
330
1A
100
AcDbEntity
  8
SEIHIN
100
AcDbLine
 10
373.5092536145044
 20
248.0525746053756
 30
0.0
 11
373.5204294854044
 21
248.0525895065757
 31
0.0
  0
LINE
  5
1FBA
330
1A
100
AcDbEntity
  8
SEIHIN
100
AcDbLine
 10
387.1500596934044
 20
245.0526914602757
 30
0.0
 11
387.1500596934044
 21
244.9988125866757
 31
0.0
  0
LINE
  5
1FBB
330
1A
100
AcDbEntity
  8
SEIHIN
100
AcDbLine
 10
387.1500596934044
 20
245.0526914602757
 30
0.0
 11
387.1500596934044
 21
246.9315863257756
 31
0.0
  0
LINE
  5
1FBC
330
1A
100
AcDbEntity
  8
SEIHIN
100
AcDbLine
 10
376.1500597531044
 20
262.5525760507757
 30
0.0
 11
373.1500611240044
 21
262.5525760507757
 31
0.0
  0
LINE
  5
1FBD
330
1A
100
AcDbEntity
  8
SEIHIN
100
AcDbLine
 10
376.1500597531044
 20
258.0525762444756
 30
0.0
 11
373.1500611240044
 21
258.0525762444756
 31
0.0
  0
LINE
  5
1FBE
330
1A
100
AcDbEntity
  8
SEIHIN
100
AcDbLine
 10
376.1500597531044
 20
260.0525765722757
 30
0.0
 11
373.1500611240044
 21
260.0525765722757
 31
0.0
  0
LINE
  5
1FBF
330
1A
100
AcDbEntity
  8
SEIHIN
100
AcDbLine
 10
376.1500597531044
 20
255.5457725232757
 30
0.0
 11
373.1500611240044
 21
255.5457725232757
 31
0.0
  0
LINE
  5
1FC0
330
1A
100
AcDbEntity
  8
SEIHIN
100
AcDbLine
 10
373.1500611240044
 20
254.0525755888756
 30
0.0
 11
376.1500597531044
 21
254.0525755888756
 31
0.0
  0
LINE
  5
1FC1
330
1A
100
AcDbEntity
  8
SEIHIN
100
AcDbLine
 10
370.4633519584044
 20
256.0278846925756
 30
0.0
 11
370.9748790198044
 21
255.8745703703756
 31
0.0
  0
LINE
  5
1FC2
330
1A
100
AcDbEntity
  8
SEIHIN
100
AcDbLine
 10
370.1500550443044
 20
256.0525759166757
 30
0.0
 11
370.4633519584044
 21
256.0278846925756
 31
0.0
  0
LINE
  5
1FC3
330
1A
100
AcDbEntity
  8
SEIHIN
100
AcDbLine
 10
372.0588863426044
 20
253.4556164449757
 30
0.0
 11
371.9201565319044
 21
253.1215771144757
 31
0.0
  0
LINE
  5
1FC4
330
1A
100
AcDbEntity
  8
SEIHIN
100
AcDbLine
 10
372.1351951891044
 20
253.8091800218757
 30
0.0
 11
372.0588863426044
 21
253.4556164449757
 31
0.0
  0
LINE
  5
1FC5
330
1A
100
AcDbEntity
  8
SEIHIN
100
AcDbLine
 10
372.1465647751044
 20
254.1707045441757
 30
0.0
 11
372.1351951891044
 21
253.8091800218757
 31
0.0
  0
LINE
  5
1FC6
330
1A
100
AcDbEntity
  8
SEIHIN
100
AcDbLine
 10
372.0926374727044
 20
254.5283659404757
 30
0.0
 11
372.1465647751044
 21
254.1707045441757
 31
0.0
  0
LINE
  5
1FC7
330
1A
100
AcDbEntity
  8
SEIHIN
100
AcDbLine
 10
371.9751716190044
 20
254.8704667991757
 30
0.0
 11
372.0926374727044
 21
254.5283659404757
 31
0.0
  0
LINE
  5
1FC8
330
1A
100
AcDbEntity
  8
SEIHIN
100
AcDbLine
 10
371.7980191642044
 20
255.1858163481757
 30
0.0
 11
371.9751716190044
 21
254.8704667991757
 31
0.0
  0
LINE
  5
1FC9
330
1A
100
AcDbEntity
  8
SEIHIN
100
AcDbLine
 10
371.5669543081044
 20
255.4640992587757
 30
0.0
 11
371.7980191642044
 21
255.1858163481757
 31
0.0
  0
LINE
  5
1FCA
330
1A
100
AcDbEntity
  8
SEIHIN
100
AcDbLine
 10
371.2895542914044
 20
255.6962146466757
 30
0.0
 11
371.5669543081044
 21
255.4640992587757
 31
0.0
  0
LINE
  5
1FCB
330
1A
100
AcDbEntity
  8
SEIHIN
100
AcDbLine
 10
370.9748790198044
 20
255.8745703703756
 30
0.0
 11
371.2895542914044
 21
255.6962146466757
 31
0.0
  0
LINE
  5
1FCC
330
1A
100
AcDbEntity
  8
SEIHIN
100
AcDbLine
 10
373.1500611240044
 20
263.5525762146757
 30
0.0
 11
373.1500611240044
 21
262.5525760507757
 31
0.0
  0
LINE
  5
1FCD
330
1A
100
AcDbEntity
  8
SEIHIN
100
AcDbLine
 10
373.1500611240044
 20
260.0525765722757
 30
0.0
 11
373.1500611240044
 21
258.0525762444756
 31
0.0
  0
LINE
  5
1FCE
330
1A
100
AcDbEntity
  8
SEIHIN
100
AcDbLine
 10
373.1500611240044
 20
255.5457725232757
 30
0.0
 11
373.1500611240044
 21
254.0525755888756
 31
0.0
  0
LINE
  5
1FCF
330
1A
100
AcDbEntity
  8
SEIHIN
100
AcDbLine
 10
373.1500611240044
 20
258.0525762444756
 30
0.0
 11
373.1500611240044
 21
255.5457725232757
 31
0.0
  0
LINE
  5
1FD0
330
1A
100
AcDbEntity
  8
SEIHIN
100
AcDbLine
 10
373.1500611240044
 20
262.5525760507757
 30
0.0
 11
373.1500611240044
 21
260.0525765722757
 31
0.0
  0
LINE
  5
1FD1
330
1A
100
AcDbEntity
  8
SEIHIN
100
AcDbLine
 10
382.7908665472044
 20
262.5525760507757
 30
0.0
 11
376.1500597531044
 21
262.5525760507757
 31
0.0
  0
LINE
  5
1FD2
330
1A
100
AcDbEntity
  8
SEIHIN
100
AcDbLine
 10
376.1500597531044
 20
263.5525762146757
 30
0.0
 11
387.1500596934044
 21
263.5525762146757
 31
0.0
  0
ARC
  5
1FD3
330
1A
100
AcDbEntity
  8
SEIHIN
100
AcDbCircle
 10
385.7908632443044
 20
258.5525761546757
 30
0.0
 40
5.0
100
AcDbArc
 50
126.8698976457991
 51
156.4218215217995
  0
LINE
  5
1FD4
330
1A
100
AcDbEntity
  8
SEIHIN
100
AcDbLine
 10
381.0222924286044
 20
260.0565086162757
 30
0.0
 11
381.0210258299044
 21
260.0525765722757
 31
0.0
  0
LINE
  5
1FD5
330
1A
100
AcDbEntity
  8
SEIHIN
100
AcDbLine
 10
381.0260773235044
 20
260.0682414179756
 30
0.0
 11
381.0222924286044
 21
260.0565086162757
 31
0.0
  0
LINE
  5
1FD6
330
1A
100
AcDbEntity
  8
SEIHIN
100
AcDbLine
 10
381.0323209101044
 20
260.0875905758757
 30
0.0
 11
381.0260773235044
 21
260.0682414179756
 31
0.0
  0
LINE
  5
1FD7
330
1A
100
AcDbEntity
  8
SEIHIN
100
AcDbLine
 10
381.0408518249044
 20
260.1137849545756
 30
0.0
 11
381.0323209101044
 21
260.0875905758757
 31
0.0
  0
LINE
  5
1FD8
330
1A
100
AcDbEntity
  8
SEIHIN
100
AcDbLine
 10
381.0783431464044
 20
260.2235450452757
 30
0.0
 11
381.0408518249044
 21
260.1137849545756
 31
0.0
  0
LINE
  5
1FD9
330
1A
100
AcDbEntity
  8
SEIHIN
100
AcDbLine
 10
381.1365470821044
 20
260.3794093286757
 30
0.0
 11
381.0783431464044
 21
260.2235450452757
 31
0.0
  0
LINE
  5
1FDA
330
1A
100
AcDbEntity
  8
SEIHIN
100
AcDbLine
 10
381.2082887226044
 20
260.5525757229757
 30
0.0
 11
381.1365470821044
 21
260.3794093286757
 31
0.0
  0
LINE
  5
1FDB
330
1A
100
AcDbEntity
  8
SEIHIN
100
AcDbLine
 10
380.9961930448044
 20
259.9755934482757
 30
0.0
 11
381.0210258299044
 21
260.0525765722757
 31
0.0
  0
LINE
  5
1FDC
330
1A
100
AcDbEntity
  8
SEIHIN
100
AcDbLine
 10
380.9224546486044
 20
259.7470152234757
 30
0.0
 11
380.9961930448044
 21
259.9755934482757
 31
0.0
  0
LINE
  5
1FDD
330
1A
100
AcDbEntity
  8
SEIHIN
100
AcDbLine
 10
380.8020905191044
 20
259.3738789713757
 30
0.0
 11
380.9224546486044
 21
259.7470152234757
 31
0.0
  0
LINE
  5
1FDE
330
1A
100
AcDbEntity
  8
SEIHIN
100
AcDbLine
 10
380.6387961441044
 20
258.8676753497757
 30
0.0
 11
380.8020905191044
 21
259.3738789713757
 31
0.0
  0
LINE
  5
1FDF
330
1A
100
AcDbEntity
  8
SEIHIN
100
AcDbLine
 10
380.4376081163044
 20
258.2439946985757
 30
0.0
 11
380.6387961441044
 21
258.8676753497757
 31
0.0
  0
LINE
  5
1FE0
330
1A
100
AcDbEntity
  8
SEIHIN
100
AcDbLine
 10
380.2047253185044
 20
257.5220390266757
 30
0.0
 11
380.4376081163044
 21
258.2439946985757
 31
0.0
  0
LINE
  5
1FE1
330
1A
100
AcDbEntity
  8
SEIHIN
100
AcDbLine
 10
379.9473003083044
 20
256.7240408664757
 30
0.0
 11
380.2047253185044
 21
257.5220390266757
 31
0.0
  0
LINE
  5
1FE2
330
1A
100
AcDbEntity
  8
SEIHIN
100
AcDbLine
 10
379.6732828551044
 20
255.8745703703756
 30
0.0
 11
379.9473003083044
 21
256.7240408664757
 31
0.0
  0
LINE
  5
1FE3
330
1A
100
AcDbEntity
  8
SEIHIN
100
AcDbLine
 10
376.1500597531044
 20
263.5525762146757
 30
0.0
 11
376.1500597531044
 21
262.5525760507757
 31
0.0
  0
LINE
  5
1FE4
330
1A
100
AcDbEntity
  8
SEIHIN
100
AcDbLine
 10
376.1500597531044
 20
258.0525762444756
 30
0.0
 11
376.1500597531044
 21
260.0525765722757
 31
0.0
  0
LINE
  5
1FE5
330
1A
100
AcDbEntity
  8
SEIHIN
100
AcDbLine
 10
376.1500597531044
 20
254.0525755888756
 30
0.0
 11
376.1500597531044
 21
255.5457725232757
 31
0.0
  0
LINE
  5
1FE6
330
1A
100
AcDbEntity
  8
SEIHIN
100
AcDbLine
 10
376.1500597531044
 20
255.5457725232757
 30
0.0
 11
376.1500597531044
 21
258.0525762444756
 31
0.0
  0
LINE
  5
1FE7
330
1A
100
AcDbEntity
  8
SEIHIN
100
AcDbLine
 10
381.0210258299044
 20
260.0525765722757
 30
0.0
 11
376.1500597531044
 21
260.0525765722757
 31
0.0
  0
LINE
  5
1FE8
330
1A
100
AcDbEntity
  8
SEIHIN
100
AcDbLine
 10
376.1500597531044
 20
260.5525757229757
 30
0.0
 11
381.2082887226044
 21
260.5525757229757
 31
0.0
  0
LINE
  5
1FE9
330
1A
100
AcDbEntity
  8
SEIHIN
100
AcDbLine
 10
376.1500597531044
 20
260.0525765722757
 30
0.0
 11
376.1500597531044
 21
262.5525760507757
 31
0.0
  0
LINE
  5
1FEA
330
1A
100
AcDbEntity
  8
SEIHIN
100
AcDbLine
 10
383.5824981862044
 20
263.0384582138756
 30
0.0
 11
382.7908665472044
 21
262.5525760507757
 31
0.0
  0
LINE
  5
1FEB
330
1A
100
AcDbEntity
  8
SEIHIN
100
AcDbLine
 10
384.9579796725044
 20
263.4827195709756
 30
0.0
 11
383.5824981862044
 21
263.0384582138756
 31
0.0
  0
LINE
  5
1FEC
330
1A
100
AcDbEntity
  8
SEIHIN
100
AcDbLine
 10
385.7779533201044
 20
263.5525594508757
 30
0.0
 11
384.9579796725044
 21
263.4827195709756
 31
0.0
  0
LINE
  5
1FED
330
1A
100
AcDbEntity
  8
SEIHIN
100
AcDbLine
 10
385.7908651763044
 20
263.5525762146757
 30
0.0
 11
385.7779533201044
 21
263.5525594508757
 31
0.0
  0
LINE
  5
1FEE
330
1A
100
AcDbEntity
  8
SEIHIN
100
AcDbLine
 10
387.1500596934044
 20
265.5525765424757
 30
0.0
 11
387.1500596934044
 21
266.4507458960757
 31
0.0
  0
LINE
  5
1FEF
330
1A
100
AcDbEntity
  8
SEIHIN
100
AcDbLine
 10
417.1500534350044
 20
263.5525762146757
 30
0.0
 11
417.1500534350044
 21
246.9315863257756
 31
0.0
  0
LINE
  5
1FF0
330
1A
100
AcDbEntity
  8
SEIHIN
100
AcDbLine
 10
417.1500534350044
 20
245.0526914602757
 30
0.0
 11
417.1500534350044
 21
244.9988125866757
 31
0.0
  0
LINE
  5
1FF1
330
1A
100
AcDbEntity
  8
SEIHIN
100
AcDbLine
 10
417.1500534350044
 20
246.9315863257756
 30
0.0
 11
417.1500534350044
 21
245.0526914602757
 31
0.0
  0
LINE
  5
1FF2
330
1A
100
AcDbEntity
  8
SEIHIN
100
AcDbLine
 10
416.9786900812044
 20
265.5525765424757
 30
0.0
 11
404.3434888655044
 21
265.5525765424757
 31
0.0
  0
LINE
  5
1FF3
330
1A
100
AcDbEntity
  8
SEIHIN
100
AcDbLine
 10
416.4166355339044
 20
271.2483374554756
 30
0.0
 11
404.3434888301044
 21
271.2483374554756
 31
0.0
  0
LINE
  5
1FF4
330
1A
100
AcDbEntity
  8
SEIHIN
100
AcDbLine
 10
416.4166331822044
 20
271.2483367925756
 30
0.0
 11
404.3434888655044
 21
271.2483367925756
 31
0.0
  0
LINE
  5
1FF5
330
1A
100
AcDbEntity
  8
SEIHIN
100
AcDbLine
 10
402.5532633597044
 20
265.5605989551757
 30
0.0
 11
402.6503146225044
 21
265.5525765424757
 31
0.0
  0
LINE
  5
1FF6
330
1A
100
AcDbEntity
  8
SEIHIN
100
AcDbLine
 10
402.4390906626044
 20
265.5844128733756
 30
0.0
 11
402.5532633597044
 21
265.5605989551757
 31
0.0
  0
LINE
  5
1FF7
330
1A
100
AcDbEntity
  8
SEIHIN
100
AcDbLine
 10
402.3114622170044
 20
265.6232527500757
 30
0.0
 11
402.4390906626044
 21
265.5844128733756
 31
0.0
  0
LINE
  5
1FF8
330
1A
100
AcDbEntity
  8
SEIHIN
100
AcDbLine
 10
402.1744460398044
 20
265.6758687502756
 30
0.0
 11
402.3114622170044
 21
265.6232527500757
 31
0.0
  0
LINE
  5
1FF9
330
1A
100
AcDbEntity
  8
SEIHIN
100
AcDbLine
 10
402.0324677759044
 20
265.7405770426757
 30
0.0
 11
402.1744460398044
 21
265.6758687502756
 31
0.0
  0
LINE
  5
1FFA
330
1A
100
AcDbEntity
  8
SEIHIN
100
AcDbLine
 10
401.8900722796044
 20
265.8152989155757
 30
0.0
 11
402.0324677759044
 21
265.7405770426757
 31
0.0
  0
LINE
  5
1FFB
330
1A
100
AcDbEntity
  8
SEIHIN
100
AcDbLine
 10
401.7518342072044
 20
265.8976352816757
 30
0.0
 11
401.8900722796044
 21
265.8152989155757
 31
0.0
  0
LINE
  5
1FFC
330
1A
100
AcDbEntity
  8
SEIHIN
100
AcDbLine
 10
401.6221792036044
 20
265.9849449104756
 30
0.0
 11
401.7518342072044
 21
265.8976352816757
 31
0.0
  0
LINE
  5
1FFD
330
1A
100
AcDbEntity
  8
SEIHIN
100
AcDbLine
 10
401.5052944952044
 20
266.0744245207757
 30
0.0
 11
401.6221792036044
 21
265.9849449104756
 31
0.0
  0
LINE
  5
1FFE
330
1A
100
AcDbEntity
  8
SEIHIN
100
AcDbLine
 10
401.4048904711044
 20
266.1632037764757
 30
0.0
 11
401.5052944952044
 21
266.0744245207757
 31
0.0
  0
LINE
  5
1FFF
330
1A
100
AcDbEntity
  8
SEIHIN
100
AcDbLine
 10
401.3242304855044
 20
266.2484309679757
 30
0.0
 11
401.4048904711044
 21
266.1632037764757
 31
0.0
  0
LINE
  5
2000
330
1A
100
AcDbEntity
  8
SEIHIN
100
AcDbLine
 10
401.3115943009044
 20
266.3246615832757
 30
0.0
 11
401.3242304855044
 21
266.2484309679757
 31
0.0
  0
LINE
  5
2001
330
1A
100
AcDbEntity
  8
SEIHIN
100
AcDbLine
 10
401.3039500052044
 20
266.3927766537756
 30
0.0
 11
401.3115943009044
 21
266.3246615832757
 31
0.0
  0
LINE
  5
2002
330
1A
100
AcDbEntity
  8
SEIHIN
100
AcDbLine
 10
401.3015509182044
 20
266.4507458960757
 30
0.0
 11
401.3039500052044
 21
266.3927766537756
 31
0.0
  0
LINE
  5
2003
330
1A
100
AcDbEntity
  8
SEIHIN
100
AcDbLine
 10
401.3242304855044
 20
271.2483367925756
 30
0.0
 11
404.3434888655044
 21
271.2483367925756
 31
0.0
  0
LINE
  5
2004
330
1A
100
AcDbEntity
  8
SEIHIN
100
AcDbLine
 10
401.3242304855044
 20
271.2483367925756
 30
0.0
 11
401.3015509182044
 21
266.4507458960757
 31
0.0
  0
LINE
  5
2005
330
1A
100
AcDbEntity
  8
SEIHIN
100
AcDbLine
 10
404.3434888655044
 20
265.5525765424757
 30
0.0
 11
404.3434888655044
 21
271.2483367925756
 31
0.0
  0
LINE
  5
2006
330
1A
100
AcDbEntity
  8
SEIHIN
100
AcDbLine
 10
401.3242304855044
 20
266.2484309679757
 30
0.0
 11
401.3242304855044
 21
271.2483367925756
 31
0.0
  0
LINE
  5
2007
330
1A
100
AcDbEntity
  8
SEIHIN
100
AcDbLine
 10
416.9786900812044
 20
265.5525765424757
 30
0.0
 11
417.1500534350044
 21
263.5525762146757
 31
0.0
  0
LINE
  5
2008
330
1A
100
AcDbEntity
  8
SEIHIN
100
AcDbLine
 10
416.4166331822044
 20
271.2483367925756
 30
0.0
 11
416.9786900812044
 21
265.5525765424757
 31
0.0
  0
LINE
  5
2009
330
1A
100
AcDbEntity
  8
SEIHIN
100
AcDbLine
 10
383.8639662200044
 20
311.1665322488757
 30
0.0
 11
391.3558826381044
 21
305.1800037777757
 31
0.0
  0
LINE
  5
200A
330
1A
100
AcDbEntity
  8
SEIHIN
100
AcDbLine
 10
391.1733806664044
 20
301.4033789789756
 30
0.0
 11
388.8444707328044
 21
302.9676768040757
 31
0.0
  0
LINE
  5
200B
330
1A
100
AcDbEntity
  8
SEIHIN
100
AcDbLine
 10
375.4036829406044
 20
315.0154295420757
 30
0.0
 11
372.3912567431044
 21
318.6823072886756
 31
0.0
  0
LINE
  5
200C
330
1A
100
AcDbEntity
  8
SEIHIN
100
AcDbLine
 10
371.0485429102044
 20
320.5023034518757
 30
0.0
 11
369.7343573505044
 21
322.3583064085757
 31
0.0
  0
LINE
  5
200D
330
1A
100
AcDbEntity
  8
SEIHIN
100
AcDbLine
 10
372.7734789783044
 20
318.1842154866757
 30
0.0
 11
371.0485429102044
 21
320.5023034518757
 31
0.0
  0
LINE
  5
200E
330
1A
100
AcDbEntity
  8
SEIHIN
100
AcDbLine
 10
369.7319582635044
 20
322.3540707534756
 30
0.0
 11
370.0662211114044
 21
321.8727334445757
 31
0.0
  0
LINE
  5
200F
330
1A
100
AcDbEntity
  8
SEIHIN
100
AcDbLine
 10
369.7343573505044
 20
322.3583101338757
 30
0.0
 11
369.7319582635044
 21
322.3540707534756
 31
0.0
  0
LINE
  5
2010
330
1A
100
AcDbEntity
  8
SEIHIN
100
AcDbLine
 10
371.8247145945044
 20
319.4277956193757
 30
0.0
 11
370.0662211114044
 21
321.8727334445757
 31
0.0
  0
LINE
  5
2011
330
1A
100
AcDbEntity
  8
SEIHIN
100
AcDbLine
 10
372.7734789783044
 20
318.1842154866757
 30
0.0
 11
372.3912567431044
 21
318.6823072886757
 31
0.0
  0
LINE
  5
2012
330
1A
100
AcDbEntity
  8
SEIHIN
100
AcDbLine
 10
371.8247145945044
 20
319.4277956193757
 30
0.0
 11
372.7734789783044
 21
318.1842154866757
 31
0.0
  0
LINE
  5
2013
330
1A
100
AcDbEntity
  8
SEIHIN
100
AcDbLine
 10
381.6785246664044
 20
308.6591622835757
 30
0.0
 11
378.6262825662044
 21
311.5622065073757
 31
0.0
  0
LINE
  5
2014
330
1A
100
AcDbEntity
  8
SEIHIN
100
AcDbLine
 10
388.8444707328044
 20
302.9676768040757
 30
0.0
 11
381.6785246664044
 21
308.6591622835757
 31
0.0
  0
LINE
  5
2015
330
1A
100
AcDbEntity
  8
SEIHIN
100
AcDbLine
 10
377.1830604011044
 20
317.9086240982757
 30
0.0
 11
383.8639662200044
 21
311.1665322488757
 31
0.0
  0
LINE
  5
2016
330
1A
100
AcDbEntity
  8
SEIHIN
100
AcDbLine
 10
374.1968900496044
 20
321.5245789891757
 30
0.0
 11
377.1830604011044
 21
317.9086240982757
 31
0.0
  0
LINE
  5
2017
330
1A
100
AcDbEntity
  8
SEIHIN
100
AcDbLine
 10
378.6262825662044
 20
311.5622065073757
 30
0.0
 11
375.4036829406044
 21
315.0154295420757
 31
0.0
  0
LINE
  5
2018
330
1A
100
AcDbEntity
  8
SEIHIN
100
AcDbLine
 10
399.6050239140044
 20
300.0429644292757
 30
0.0
 11
401.8915325934044
 21
288.3491806263756
 31
0.0
  0
LINE
  5
2019
330
1A
100
AcDbEntity
  8
SEIHIN
100
AcDbLine
 10
400.8874029452044
 20
293.6502722135757
 30
0.0
 11
399.6042341524044
 21
300.0424922487757
 31
0.0
  0
LINE
  5
201A
330
1A
100
AcDbEntity
  8
SEIHIN
100
AcDbLine
 10
411.1179292732044
 20
303.5663113972757
 30
0.0
 11
412.7372384602044
 21
295.7303546412757
 31
0.0
  0
LINE
  5
201B
330
1A
100
AcDbEntity
  8
SEIHIN
100
AcDbLine
 10
396.5851992899044
 20
298.2258535033757
 30
0.0
 11
391.1733806664044
 21
301.4033789789756
 31
0.0
  0
LINE
  5
201C
330
1A
100
AcDbEntity
  8
SEIHIN
100
AcDbLine
 10
396.5851992899044
 20
298.2258535033757
 30
0.0
 11
399.6050239140044
 21
300.0429644292757
 31
0.0
  0
LINE
  5
201D
330
1A
100
AcDbEntity
  8
SEIHIN
100
AcDbLine
 10
401.8915325934044
 20
288.3491806263756
 30
0.0
 11
403.2525301510044
 21
279.7698899215757
 31
0.0
  0
LINE
  5
201E
330
1A
100
AcDbEntity
  8
SEIHIN
100
AcDbLine
 10
398.3828306729044
 20
289.5313183383757
 30
0.0
 11
400.0110507542044
 21
280.3592019757757
 31
0.0
  0
LINE
  5
201F
330
1A
100
AcDbEntity
  8
SEIHIN
100
AcDbLine
 10
402.0713598066044
 20
287.2817720329757
 30
0.0
 11
400.8874029452044
 21
293.6502722135757
 31
0.0
  0
LINE
  5
2020
330
1A
100
AcDbEntity
  8
SEIHIN
100
AcDbLine
 10
403.3103168541044
 20
279.2404535269757
 30
0.0
 11
402.0713598066044
 21
287.2817720329757
 31
0.0
  0
LINE
  5
2021
330
1A
100
AcDbEntity
  8
SEIHIN
100
AcDbLine
 10
396.5851992899044
 20
298.2258535033757
 30
0.0
 11
398.3828306729044
 21
289.5313183383757
 31
0.0
  0
LINE
  5
2022
330
1A
100
AcDbEntity
  8
SEIHIN
100
AcDbLine
 10
414.1406894261044
 20
287.8921833165757
 30
0.0
 11
415.4014468723044
 21
279.5403356707757
 31
0.0
  0
LINE
  5
2023
330
1A
100
AcDbEntity
  8
SEIHIN
100
AcDbLine
 10
412.7372384602044
 20
295.7303546412757
 30
0.0
 11
414.1406894261044
 21
287.8921833165757
 31
0.0
  0
LINE
  5
2024
330
1A
100
AcDbEntity
  8
SEIHIN
100
AcDbLine
 10
407.6308787399044
 20
309.1957530981757
 30
0.0
 11
405.7052016789044
 21
310.4152380531756
 31
0.0
  0
LINE
  5
2025
330
1A
100
AcDbEntity
  8
SEIHIN
100
AcDbLine
 10
401.8539220625044
 20
312.4530742919757
 30
0.0
 11
405.7052016789044
 21
310.4152380531756
 31
0.0
  0
LINE
  5
2026
330
1A
100
AcDbEntity
  8
SEIHIN
100
AcDbLine
 10
395.3978300625044
 20
302.4940545713757
 30
0.0
 11
399.6050239140044
 21
300.0429644292757
 31
0.0
  0
LINE
  5
2027
330
1A
100
AcDbEntity
  8
SEIHIN
100
AcDbLine
 10
391.3558826381044
 20
305.1800037777757
 30
0.0
 11
395.3978300625044
 21
302.4940545713757
 31
0.0
  0
LINE
  5
2028
330
1A
100
AcDbEntity
  8
SEIHIN
100
AcDbLine
 10
394.7146490747044
 20
317.2834775453757
 30
0.0
 11
398.1601626211044
 21
314.7649000441757
 31
0.0
  0
LINE
  5
2029
330
1A
100
AcDbEntity
  8
SEIHIN
100
AcDbLine
 10
391.4562270576044
 20
320.0406934177757
 30
0.0
 11
394.7146490747044
 21
317.2834775453757
 31
0.0
  0
LINE
  5
202A
330
1A
100
AcDbEntity
  8
SEIHIN
100
AcDbLine
 10
398.1601626211044
 20
314.7649000441757
 30
0.0
 11
401.8539220625044
 21
312.4530742919757
 31
0.0
  0
LINE
  5
202B
330
1A
100
AcDbEntity
  8
SEIHIN
100
AcDbLine
 10
409.8563075596044
 20
306.6741543865757
 30
0.0
 11
407.6308787399044
 21
309.1957530981757
 31
0.0
  0
LINE
  5
202C
330
1A
100
AcDbEntity
  8
SEIHIN
100
AcDbLine
 10
411.1179292732044
 20
303.5663113972757
 30
0.0
 11
409.8563075596044
 21
306.6741543865757
 31
0.0
  0
LINE
  5
202D
330
1A
100
AcDbEntity
  8
SEIHIN
100
AcDbLine
 10
161.5989238554044
 20
329.9762642985756
 30
0.0
 11
157.5255722338044
 21
324.7993736571756
 31
0.0
  0
LINE
  5
202E
330
1A
100
AcDbEntity
  8
SEIHIN
100
AcDbLine
 10
283.5305093387044
 20
324.4696072345757
 30
0.0
 11
306.2909462088044
 21
324.2432883983757
 31
0.0
  0
LINE
  5
202F
330
1A
100
AcDbEntity
  8
SEIHIN
100
AcDbLine
 10
272.1500576073044
 20
327.5525755292757
 30
0.0
 11
321.7714608246044
 21
326.9862010186757
 31
0.0
  0
LINE
  5
2030
330
1A
100
AcDbEntity
  8
SEIHIN
100
AcDbLine
 10
272.1500576073044
 20
333.5525765126757
 30
0.0
 11
299.4056597882044
 21
333.3821817344756
 31
0.0
  0
LINE
  5
2031
330
1A
100
AcDbEntity
  8
SEIHIN
100
AcDbLine
 10
272.1500576073044
 20
327.5525755292757
 30
0.0
 11
308.9982189768044
 21
327.2135666614756
 31
0.0
  0
LINE
  5
2032
330
1A
100
AcDbEntity
  8
SEIHIN
100
AcDbLine
 10
238.0091690057044
 20
324.2432883983757
 30
0.0
 11
224.9092229241044
 21
324.0385352677757
 31
0.0
  0
LINE
  5
2033
330
1A
100
AcDbEntity
  8
SEIHIN
100
AcDbLine
 10
272.1500576073044
 20
327.5525755292757
 30
0.0
 11
222.5286543900044
 21
326.9862010186757
 31
0.0
  0
LINE
  5
2034
330
1A
100
AcDbEntity
  8
SEIHIN
100
AcDbLine
 10
235.3018962377044
 20
327.2135666614757
 30
0.0
 11
200.3556147748044
 21
326.3476192063757
 31
0.0
  0
LINE
  5
2035
330
1A
100
AcDbEntity
  8
SEIHIN
100
AcDbLine
 10
217.6089056367044
 20
332.8701890116757
 30
0.0
 11
244.8773358548044
 21
333.3819656676757
 31
0.0
  0
LINE
  5
2036
330
1A
100
AcDbEntity
  8
SEIHIN
100
AcDbLine
 10
222.5286543900044
 20
326.9862010186757
 30
0.0
 11
172.9072511727044
 21
325.2861834174757
 31
0.0
  0
LINE
  5
2037
330
1A
100
AcDbEntity
  8
SEIHIN
100
AcDbLine
 10
200.3556147748044
 20
326.3476192063757
 30
0.0
 11
172.9073182279044
 21
325.2860753840757
 31
0.0
  0
LINE
  5
2038
330
1A
100
AcDbEntity
  8
SEIHIN
100
AcDbLine
 10
190.3661519819044
 20
332.0179431742757
 30
0.0
 11
217.6089056367044
 21
332.8701890116757
 31
0.0
  0
LINE
  5
2039
330
1A
100
AcDbEntity
  8
SEIHIN
100
AcDbLine
 10
163.1362170511044
 20
330.8251760011756
 30
0.0
 11
190.3661519819044
 21
332.0179431742757
 31
0.0
  0
LINE
  5
203A
330
1A
100
AcDbEntity
  8
SEIHIN
100
AcDbLine
 10
162.6752868825044
 20
330.7474068409757
 30
0.0
 11
163.1362170511044
 21
330.8251760011756
 31
0.0
  0
LINE
  5
203B
330
1A
100
AcDbEntity
  8
SEIHIN
100
AcDbLine
 10
162.0713055664044
 20
330.4533994799756
 30
0.0
 11
162.6752868825044
 21
330.7474068409757
 31
0.0
  0
LINE
  5
203C
330
1A
100
AcDbEntity
  8
SEIHIN
100
AcDbLine
 10
161.5989238554044
 20
329.9762642985756
 30
0.0
 11
162.0713055664044
 21
330.4533994799756
 31
0.0
  0
LINE
  5
203D
330
1A
100
AcDbEntity
  8
SEIHIN
100
AcDbLine
 10
165.1279509598044
 20
323.7616679674757
 30
0.0
 11
165.1500568324044
 21
323.5525748735757
 31
0.0
  0
LINE
  5
203E
330
1A
100
AcDbEntity
  8
SEIHIN
100
AcDbLine
 10
165.0036156708044
 20
324.0735790735757
 30
0.0
 11
165.1279509598044
 21
323.7616679674757
 31
0.0
  0
LINE
  5
203F
330
1A
100
AcDbEntity
  8
SEIHIN
100
AcDbLine
 10
164.7830710345044
 20
324.3267199999756
 30
0.0
 11
165.0036156708044
 21
324.0735790735757
 31
0.0
  0
LINE
  5
2040
330
1A
100
AcDbEntity
  8
SEIHIN
100
AcDbLine
 10
164.4911945397044
 20
324.4925885504757
 30
0.0
 11
164.7830710345044
 21
324.3267199999756
 31
0.0
  0
LINE
  5
2041
330
1A
100
AcDbEntity
  8
SEIHIN
100
AcDbLine
 10
164.1608655983044
 20
324.5525172954756
 30
0.0
 11
164.4911945397044
 21
324.4925885504757
 31
0.0
  0
LINE
  5
2042
330
1A
100
AcDbEntity
  8
SEIHIN
100
AcDbLine
 10
163.8292849594044
 20
324.4997299319757
 30
0.0
 11
164.1608655983044
 21
324.5525172954756
 31
0.0
  0
LINE
  5
2043
330
1A
100
AcDbEntity
  8
SEIHIN
100
AcDbLine
 10
163.5338321859044
 20
324.3401422208756
 30
0.0
 11
163.8292849594044
 21
324.4997299319757
 31
0.0
  0
LINE
  5
2044
330
1A
100
AcDbEntity
  8
SEIHIN
100
AcDbLine
 10
163.3078560763044
 20
324.0917435890756
 30
0.0
 11
163.5338321859044
 21
324.3401422208756
 31
0.0
  0
LINE
  5
2045
330
1A
100
AcDbEntity
  8
SEIHIN
100
AcDbLine
 10
163.1768599683044
 20
323.7825593954757
 30
0.0
 11
163.3078560763044
 21
324.0917435890756
 31
0.0
  0
LINE
  5
2046
330
1A
100
AcDbEntity
  8
SEIHIN
100
AcDbLine
 10
163.1555960113044
 20
323.4474658077756
 30
0.0
 11
163.1768599683044
 21
323.7825593954757
 31
0.0
  0
LINE
  5
2047
330
1A
100
AcDbEntity
  8
SEIHIN
100
AcDbLine
 10
163.2464409405044
 20
323.1242335444757
 30
0.0
 11
163.1555960113044
 21
323.4474658077756
 31
0.0
  0
LINE
  5
2048
330
1A
100
AcDbEntity
  8
SEIHIN
100
AcDbLine
 10
163.4391502076044
 20
322.8492884939757
 30
0.0
 11
163.2464409405044
 21
323.1242335444757
 31
0.0
  0
LINE
  5
2049
330
1A
100
AcDbEntity
  8
SEIHIN
100
AcDbLine
 10
163.7120128208044
 20
322.6536213463756
 30
0.0
 11
163.4391502076044
 21
322.8492884939757
 31
0.0
  0
LINE
  5
204A
330
1A
100
AcDbEntity
  8
SEIHIN
100
AcDbLine
 10
164.0342578822044
 20
322.5593044465757
 30
0.0
 11
163.7120128208044
 21
322.6536213463756
 31
0.0
  0
LINE
  5
204B
330
1A
100
AcDbEntity
  8
SEIHIN
100
AcDbLine
 10
164.3695563608044
 20
322.5769623225756
 30
0.0
 11
164.0342578822044
 21
322.5593044465757
 31
0.0
  0
LINE
  5
204C
330
1A
100
AcDbEntity
  8
SEIHIN
100
AcDbLine
 10
164.6801114613044
 20
322.7046131199757
 30
0.0
 11
164.3695563608044
 21
322.5769623225756
 31
0.0
  0
LINE
  5
204D
330
1A
100
AcDbEntity
  8
SEIHIN
100
AcDbLine
 10
164.9309203559044
 20
322.9278697675757
 30
0.0
 11
164.6801114613044
 21
322.7046131199757
 31
0.0
  0
LINE
  5
204E
330
1A
100
AcDbEntity
  8
SEIHIN
100
AcDbLine
 10
165.0936857396044
 20
323.2215679293757
 30
0.0
 11
164.9309203559044
 21
322.9278697675757
 31
0.0
  0
LINE
  5
204F
330
1A
100
AcDbEntity
  8
SEIHIN
100
AcDbLine
 10
165.1500568324044
 20
323.5525748735757
 30
0.0
 11
165.0936857396044
 21
323.2215679293757
 31
0.0
  0
LINE
  5
2050
330
1A
100
AcDbEntity
  8
SEIHIN
100
AcDbLine
 10
172.9073480302044
 20
325.2860157793757
 30
0.0
 11
172.9072511727044
 21
325.2861834174756
 31
0.0
  0
LINE
  5
2051
330
1A
100
AcDbEntity
  8
SEIHIN
100
AcDbLine
 10
172.9073182279044
 20
325.2860753840757
 30
0.0
 11
172.9089797074044
 21
325.2831361299757
 31
0.0
  0
LINE
  5
2052
330
1A
100
AcDbEntity
  8
SEIHIN
100
AcDbLine
 10
260.7696058759044
 20
324.4696072345757
 30
0.0
 11
238.0091690057044
 21
324.2432883983757
 31
0.0
  0
LINE
  5
2053
330
1A
100
AcDbEntity
  8
SEIHIN
100
AcDbLine
 10
244.8773358548044
 20
333.3819656676757
 30
0.0
 11
272.1500576073044
 21
333.5525765126757
 31
0.0
  0
LINE
  5
2054
330
1A
100
AcDbEntity
  8
SEIHIN
100
AcDbLine
 10
272.1500576073044
 20
333.5525761546757
 30
0.0
 11
244.7292866693044
 21
333.5525761546757
 31
0.0
  0
LINE
  5
2055
330
1A
100
AcDbEntity
  8
SEIHIN
100
AcDbLine
 10
272.1500576073044
 20
327.5525755292757
 30
0.0
 11
235.3018962377044
 21
327.2135666614756
 31
0.0
  0
LINE
  5
2056
330
1A
100
AcDbEntity
  8
SEIHIN
100
AcDbLine
 10
272.1500576073044
 20
324.5525769001757
 30
0.0
 11
283.5305093387044
 21
324.4696072345757
 31
0.0
  0
LINE
  5
2057
330
1A
100
AcDbEntity
  8
SEIHIN
100
AcDbLine
 10
272.1500576073044
 20
324.5525769001757
 30
0.0
 11
260.7696058759044
 21
324.4696072345757
 31
0.0
  0
LINE
  5
2058
330
1A
100
AcDbEntity
  8
SEIHIN
100
AcDbLine
 10
272.1500576073044
 20
327.5525761546757
 30
0.0
 11
266.2105082321044
 21
327.5525761546757
 31
0.0
  0
LINE
  5
2059
330
1A
100
AcDbEntity
  8
SEIHIN
100
AcDbLine
 10
272.1500576073044
 20
324.5525761546757
 30
0.0
 11
266.2105082321044
 21
324.5525761546757
 31
0.0
  0
LINE
  5
205A
330
1A
100
AcDbEntity
  8
SEIHIN
100
AcDbLine
 10
321.7714608246044
 20
326.9862010186757
 30
0.0
 11
371.3928640419044
 21
325.2861834174757
 31
0.0
  0
LINE
  5
205B
330
1A
100
AcDbEntity
  8
SEIHIN
100
AcDbLine
 10
343.9445004398044
 20
326.3476192063757
 30
0.0
 11
371.3927969867044
 21
325.2860753840757
 31
0.0
  0
LINE
  5
205C
330
1A
100
AcDbEntity
  8
SEIHIN
100
AcDbLine
 10
353.9168566996044
 20
332.0185876494757
 30
0.0
 11
381.1638981634044
 21
330.8251760011756
 31
0.0
  0
DIMENSION
  5
205D
330
1A
100
AcDbEntity
  8
SUNPOU
 62
     4
100
AcDbDimension
  2
*D6
 10
380.8571643885042
 20
322.8454693734756
 30
0.0
 11
334.6283823065034
 21
369.0742514554744
 31
0.0
 70
   163
  1
<>
 71
     5
 42
2.000000000037915
  3
VELDIM1
100
AcDbDiametricDimension
 15
379.4429508261042
 25
324.2596829358754
 35
0.0
 40
0.0
  0
LINE
  5
205E
330
1A
100
AcDbEntity
  8
SEIHIN
100
AcDbLine
 10
308.9982189768044
 20
327.2135666614757
 30
0.0
 11
343.9445004398044
 21
326.3476192063757
 31
0.0
  0
LINE
  5
205F
330
1A
100
AcDbEntity
  8
SEIHIN
100
AcDbLine
 10
299.4056597882044
 20
333.3821817344756
 30
0.0
 11
326.6569778854044
 21
332.8710458284756
 31
0.0
  0
LINE
  5
2060
330
1A
100
AcDbEntity
  8
SEIHIN
100
AcDbLine
 10
306.2909462088044
 20
324.2432883983757
 30
0.0
 11
319.3908922905044
 21
324.0385352677757
 31
0.0
  0
LINE
  5
2061
330
1A
100
AcDbEntity
  8
SEIHIN
100
AcDbLine
 10
326.6569778854044
 20
332.8710458284756
 30
0.0
 11
353.9168566996044
 21
332.0185876494757
 31
0.0
  0
LINE
  5
2062
330
1A
100
AcDbEntity
  8
SEIHIN
100
AcDbLine
 10
371.3928640419044
 20
325.2861834174756
 30
0.0
 11
371.3911355072044
 21
325.2831361299757
 31
0.0
  0
LINE
  5
2063
330
1A
100
AcDbEntity
  8
SEIHIN
100
AcDbLine
 10
371.3927671844044
 20
325.2860157793757
 30
0.0
 11
371.3928640419044
 21
325.2861834174756
 31
0.0
  0
LINE
  5
2064
330
1A
100
AcDbEntity
  8
SEIHIN
100
AcDbLine
 10
382.2288096481044
 20
330.4533994799756
 30
0.0
 11
381.6248283321044
 21
330.7474068409757
 31
0.0
  0
LINE
  5
2065
330
1A
100
AcDbEntity
  8
SEIHIN
100
AcDbLine
 10
381.6248283321044
 20
330.7474068409757
 30
0.0
 11
381.1638981634044
 21
330.8251760011756
 31
0.0
  0
LINE
  5
2066
330
1A
100
AcDbEntity
  8
SEIHIN
100
AcDbLine
 10
379.1721642548044
 20
323.7616679674757
 30
0.0
 11
379.1500583821044
 21
323.5525748735757
 31
0.0
  0
LINE
  5
2067
330
1A
100
AcDbEntity
  8
SEIHIN
100
AcDbLine
 10
379.2964995438044
 20
324.0735790735757
 30
0.0
 11
379.1721642548044
 21
323.7616679674757
 31
0.0
  0
LINE
  5
2068
330
1A
100
AcDbEntity
  8
SEIHIN
100
AcDbLine
 10
379.5170441800044
 20
324.3267199999756
 30
0.0
 11
379.2964995438044
 21
324.0735790735757
 31
0.0
  0
LINE
  5
2069
330
1A
100
AcDbEntity
  8
SEIHIN
100
AcDbLine
 10
379.8089206749044
 20
324.4925885504757
 30
0.0
 11
379.5170441800044
 21
324.3267199999756
 31
0.0
  0
LINE
  5
206A
330
1A
100
AcDbEntity
  8
SEIHIN
100
AcDbLine
 10
380.1392496163044
 20
324.5525172954756
 30
0.0
 11
379.8089206749044
 21
324.4925885504757
 31
0.0
  0
LINE
  5
206B
330
1A
100
AcDbEntity
  8
SEIHIN
100
AcDbLine
 10
380.4708302551044
 20
324.4997299319757
 30
0.0
 11
380.1392496163044
 21
324.5525172954756
 31
0.0
  0
LINE
  5
206C
330
1A
100
AcDbEntity
  8
SEIHIN
100
AcDbLine
 10
380.7662830287044
 20
324.3401422208756
 30
0.0
 11
380.4708302551044
 21
324.4997299319757
 31
0.0
  0
LINE
  5
206D
330
1A
100
AcDbEntity
  8
SEIHIN
100
AcDbLine
 10
380.9922591382044
 20
324.0917435890756
 30
0.0
 11
380.7662830287044
 21
324.3401422208756
 31
0.0
  0
LINE
  5
206E
330
1A
100
AcDbEntity
  8
SEIHIN
100
AcDbLine
 10
381.1232552463044
 20
323.7825593954757
 30
0.0
 11
380.9922591382044
 21
324.0917435890756
 31
0.0
  0
LINE
  5
206F
330
1A
100
AcDbEntity
  8
SEIHIN
100
AcDbLine
 10
381.1445192033044
 20
323.4474658077756
 30
0.0
 11
381.1232552463044
 21
323.7825593954757
 31
0.0
  0
LINE
  5
2070
330
1A
100
AcDbEntity
  8
SEIHIN
100
AcDbLine
 10
381.0536742741044
 20
323.1242335444757
 30
0.0
 11
381.1445192033044
 21
323.4474658077756
 31
0.0
  0
LINE
  5
2071
330
1A
100
AcDbEntity
  8
SEIHIN
100
AcDbLine
 10
380.8609650069044
 20
322.8492884939757
 30
0.0
 11
381.0536742741044
 21
323.1242335444757
 31
0.0
  0
LINE
  5
2072
330
1A
100
AcDbEntity
  8
SEIHIN
100
AcDbLine
 10
380.5881023937044
 20
322.6536213463756
 30
0.0
 11
380.8609650069044
 21
322.8492884939757
 31
0.0
  0
LINE
  5
2073
330
1A
100
AcDbEntity
  8
SEIHIN
100
AcDbLine
 10
380.2658573323044
 20
322.5593044465757
 30
0.0
 11
380.5881023937044
 21
322.6536213463756
 31
0.0
  0
LINE
  5
2074
330
1A
100
AcDbEntity
  8
SEIHIN
100
AcDbLine
 10
379.9305588537044
 20
322.5769623225756
 30
0.0
 11
380.2658573323044
 21
322.5593044465757
 31
0.0
  0
LINE
  5
2075
330
1A
100
AcDbEntity
  8
SEIHIN
100
AcDbLine
 10
379.6200037533044
 20
322.7046131199757
 30
0.0
 11
379.9305588537044
 21
322.5769623225756
 31
0.0
  0
LINE
  5
2076
330
1A
100
AcDbEntity
  8
SEIHIN
100
AcDbLine
 10
379.3691948587044
 20
322.9278697675757
 30
0.0
 11
379.6200037533044
 21
322.7046131199757
 31
0.0
  0
LINE
  5
2077
330
1A
100
AcDbEntity
  8
SEIHIN
100
AcDbLine
 10
379.2064294749044
 20
323.2215679293757
 30
0.0
 11
379.3691948587044
 21
322.9278697675757
 31
0.0
  0
LINE
  5
2078
330
1A
100
AcDbEntity
  8
SEIHIN
100
AcDbLine
 10
379.1500583821044
 20
323.5525748735757
 30
0.0
 11
379.2064294749044
 21
323.2215679293757
 31
0.0
  0
CIRCLE
  5
2079
330
1A
100
AcDbEntity
  8
SEIHIN
100
AcDbCircle
 10
380.1500576073044
 20
323.5525761546757
 30
0.0
 40
1.0
  0
LINE
  5
207A
330
1A
100
AcDbEntity
  8
SEIHIN
100
AcDbLine
 10
382.7011913592044
 20
329.9762642985756
 30
0.0
 11
382.2288096481044
 21
330.4533994799756
 31
0.0
  0
LINE
  5
207B
330
1A
100
AcDbEntity
  8
SEIHIN
100
AcDbLine
 10
382.7011913592044
 20
329.9762642985756
 30
0.0
 11
386.7745429808044
 21
324.7993736571756
 31
0.0
  0
LINE
  5
207C
330
1A
100
AcDbEntity
  8
SEIHIN
100
AcDbLine
 10
518.4278284664044
 20
323.3320935672757
 30
0.0
 11
518.4519646222044
 21
318.3762374377757
 31
0.0
  0
LINE
  5
207D
330
1A
100
AcDbEntity
  8
SEIHIN
100
AcDbLine
 10
515.4707517008044
 20
317.5361267334757
 30
0.0
 11
515.4270112047044
 21
323.2726975387757
 31
0.0
  0
LINE
  5
207E
330
1A
100
AcDbEntity
  8
SEIHIN
100
AcDbLine
 10
513.4500629733044
 20
324.7993736571756
 30
0.0
 11
513.4259361307044
 21
320.0406934177757
 31
0.0
  0
DIMENSION
  5
207F
330
1A
100
AcDbEntity
  8
SUNPOU
100
AcDbDimension
  2
*D7
 10
551.0817907283044
 20
383.726565582044
 30
0.0
 11
532.5452197807044
 21
388.726565582044
 31
0.0
 70
    32
 71
     5
 42
37.07314189520002
  3
STANDARD
100
AcDbAlignedDimension
 13
514.0086488331044
 23
307.9349537423757
 33
0.0
 14
551.0817907283044
 24
248.7948834007757
 34
0.0
100
AcDbRotatedDimension
1001
ACAD
1000
DSTYLE
1002
{
1070
    41
1040
7.0
1070
    42
1040
6.0
1070
    43
1040
14.0
1070
    44
1040
3.0
1070
    73
1070
     0
1070
    74
1070
     0
1070
    77
1070
     3
1070
   140
1040
6.0
1070
   141
1040
150.0
1070
   147
1040
2.0
1070
   172
1070
     1
1070
   173
1070
     1
1070
   176
1070
     4
1070
   177
1070
     4
1070
   178
1070
     4
1070
   271
1070
     0
1070
   272
1070
     2
1070
   341
1005
6D
1070
     6
1000
OPEN
1070
     7
1000
OPEN
1002
}
  0
ARC
  5
2080
330
1A
100
AcDbEntity
  8
NOKITOI
  6
PHANTOM
 62
     8
 48
5.0
100
AcDbCircle
 10
568.1904733442054
 20
229.1675709568927
 30
0.0
 40
18.7999459388005
100
AcDbArc
 50
209.402094483778
 51
242.4591529343767
  0
ARC
  5
2081
330
1A
100
AcDbEntity
  8
NOKITOI
  6
PHANTOM
 62
     8
 48
5.0
100
AcDbCircle
 10
569.11466252579
 20
213.1904168860418
 30
0.0
 40
16.19999005602697
100
AcDbArc
 50
187.9696639128037
 51
241.7088364731414
  0
ARC
  5
2082
330
1A
100
AcDbEntity
  8
NOKITOI
  6
PHANTOM
 62
     8
 48
5.0
100
AcDbCircle
 10
568.1905014091784
 20
229.167558263758
 30
0.0
 40
17.49998460705382
100
AcDbArc
 50
187.9696597232925
 51
244.6144785993172
  0
ARC
  5
2083
330
1A
100
AcDbEntity
  8
NOKITOI
  6
PHANTOM
 62
     8
 48
5.0
100
AcDbCircle
 10
569.114693445368
 20
213.1903689143161
 30
0.0
 40
17.49996433219532
100
AcDbArc
 50
187.9693736291694
 51
244.7893872175519
  0
LINE
  5
2084
330
1A
100
AcDbEntity
  8
NOKITOI
  6
PHANTOM
 62
     8
 48
5.0
100
AcDbLine
 10
547.7913381756218
 20
248.6573081974593
 30
0.0
 11
550.8595381756218
 21
226.7412081974593
 31
0.0
  0
LINE
  5
2085
330
1A
100
AcDbEntity
  8
NOKITOI
  6
PHANTOM
 62
     8
 48
5.0
100
AcDbLine
 10
547.8665381756218
 20
238.7437081974593
 30
0.0
 11
551.7837381756217
 21
210.7640081974593
 31
0.0
  0
LINE
  5
2086
330
1A
100
AcDbEntity
  8
NOKITOI
  6
PHANTOM
 62
     8
 48
5.0
100
AcDbLine
 10
551.8120381756218
 20
219.9380081974593
 30
0.0
 11
553.0711381756216
 21
210.9443081974593
 31
0.0
  0
LINE
  5
2087
330
1A
100
AcDbEntity
  8
SEIHIN
100
AcDbLine
 10
523.2362189794044
 20
272.5237197285757
 30
0.0
 11
520.9594686980043
 21
280.1321855789757
 31
0.0
  0
LINE
  5
2088
330
1A
100
AcDbEntity
  8
SEIHIN
100
AcDbLine
 10
525.0962419900044
 20
276.6024618452757
 30
0.0
 11
526.3925498816043
 21
272.5330310916756
 31
0.0
  0
LINE
  5
2089
330
1A
100
AcDbEntity
  8
SEIHIN
100
AcDbLine
 10
519.0478071103044
 20
279.5403356707757
 30
0.0
 11
521.5505083556044
 21
271.2483367925756
 31
0.0
  0
LINE
  5
208A
330
1A
100
AcDbEntity
  8
SEIHIN
100
AcDbLine
 10
523.9032815675043
 20
280.7399378201757
 30
0.0
 11
538.1568699608044
 21
269.8170448696757
 31
0.0
  0
LINE
  5
208B
330
1A
100
AcDbEntity
  8
NOKITOI
  6
PHANTOM
 62
     8
 48
5.0
100
AcDbLine
 10
531.5821381756218
 20
259.9852081974593
 30
0.0
 11
533.1606381756217
 21
247.3573081974593
 31
0.0
  0
LINE
  5
208C
330
1A
100
AcDbEntity
  8
NOKITOI
  6
PHANTOM
 62
     8
 48
5.0
100
AcDbLine
 10
532.9142381756217
 20
259.8092081974593
 30
0.0
 11
534.3082381756217
 21
248.6573081974593
 31
0.0
  0
LINE
  5
208D
330
1A
100
AcDbEntity
  8
NOKITOI
  6
PHANTOM
 62
     8
 48
5.0
100
AcDbLine
 10
536.8606381756217
 20
262.0573081974593
 30
0.0
 11
536.8606381756217
 21
248.6573081974593
 31
0.0
  0
LINE
  5
208E
330
1A
100
AcDbEntity
  8
NOKITOI
  6
PHANTOM
 62
     8
 48
5.0
100
AcDbLine
 10
538.1606381756217
 20
257.0573081974593
 30
0.0
 11
538.1606381756217
 21
250.6573081974593
 31
0.0
  0
LINE
  5
208F
330
1A
100
AcDbEntity
  8
SEIHIN
100
AcDbLine
 10
546.5380662585044
 20
251.5175639694757
 30
0.0
 11
545.8118982146044
 21
255.8745703703756
 31
0.0
  0
LINE
  5
2090
330
1A
100
AcDbEntity
  8
SEIHIN
100
AcDbLine
 10
547.7846871594045
 20
256.2033682173757
 30
0.0
 11
548.5656532923044
 21
251.5175639694757
 31
0.0
  0
LINE
  5
2091
330
1A
100
AcDbEntity
  8
SEIHIN
100
AcDbLine
 10
529.1118944528043
 20
263.5525762146757
 30
0.0
 11
530.1192272686044
 21
246.9315863257756
 31
0.0
  0
LINE
  5
2092
330
1A
100
AcDbEntity
  8
SEIHIN
100
AcDbLine
 10
532.1155642973043
 20
247.0525763040757
 30
0.0
 11
531.1155643080044
 21
263.5525762146757
 31
0.0
  0
LINE
  5
2093
330
1A
100
AcDbEntity
  8
NOKITOI
  6
PHANTOM
 62
     8
 48
5.0
100
AcDbLine
 10
533.1606381756217
 20
247.3573081974593
 30
0.0
 11
537.9631381756217
 21
247.3573081974593
 31
0.0
  0
ARC
  5
2094
330
1A
100
AcDbEntity
  8
SEIHIN
100
AcDbCircle
 10
537.1155642896044
 20
246.9986968442757
 30
0.0
 40
2.0
100
AcDbArc
 50
269.3826124789004
 51
0.0
  0
LINE
  5
2095
330
1A
100
AcDbEntity
  8
SEIHIN
100
AcDbLine
 10
539.1155641059044
 20
247.0525763040757
 30
0.0
 11
532.1155642973043
 21
247.0525763040757
 31
0.0
  0
LINE
  5
2096
330
1A
100
AcDbEntity
  8
NOKITOI
  6
PHANTOM
 62
     8
 48
5.0
100
AcDbLine
 10
536.8606381756217
 20
248.6573081974593
 30
0.0
 11
534.3082381756217
 21
248.6573081974593
 31
0.0
  0
LINE
  5
2097
330
1A
100
AcDbEntity
  8
SEIHIN
100
AcDbLine
 10
532.0940138130044
 20
245.0526914602757
 30
0.0
 11
537.0940139050044
 21
244.9988125866757
 31
0.0
  0
ARC
  5
2098
330
1A
100
AcDbEntity
  8
SEIHIN
100
AcDbCircle
 10
532.1155642896044
 20
247.0525761546757
 30
0.0
 40
2.0
100
AcDbArc
 50
183.4682292589001
 51
269.3826124789004
  0
ARC
  5
2099
330
1A
100
AcDbEntity
  8
NOKITOI
  6
PHANTOM
 62
     8
 48
5.0
100
AcDbCircle
 10
537.9631219791593
 20
237.3573222844791
 30
0.0
 40
9.999985912993367
100
AcDbArc
 50
7.969086351825171
 51
89.9999072009758
  0
LINE
  5
209A
330
1A
100
AcDbEntity
  8
NOKITOI
  6
PHANTOM
 62
     8
 48
5.0
100
AcDbLine
 10
543.2252381756218
 20
247.3573081974593
 30
0.0
 11
546.6606381756217
 21
247.3573081974593
 31
0.0
  0
ARC
  5
209B
330
1A
100
AcDbEntity
  8
NOKITOI
  6
PHANTOM
 62
     8
 48
5.0
100
AcDbCircle
 10
537.9561320571427
 20
237.4081135705415
 30
0.0
 40
11.30001845330598
100
AcDbArc
 50
35.7247799592243
 51
61.69769299069552
  0
LINE
  5
209C
330
1A
100
AcDbEntity
  8
NOKITOI
  6
PHANTOM
 62
     8
 48
5.0
100
AcDbLine
 10
547.7913381756218
 20
248.6573081974593
 30
0.0
 11
540.1606381756217
 21
248.6573081974593
 31
0.0
  0
ARC
  5
209D
330
1A
100
AcDbEntity
  8
NOKITOI
  6
PHANTOM
 62
     8
 48
5.0
100
AcDbCircle
 10
540.1606381756217
 20
250.6573081974593
 30
0.0
 40
2.0
100
AcDbArc
 50
180.0
 51
270.0
  0
ARC
  5
209E
330
1A
100
AcDbEntity
  8
SEIHIN
100
AcDbCircle
 10
537.1157319408044
 20
247.0266806577757
 30
0.0
 40
2.0
100
AcDbArc
 50
359.2581279315001
 51
0.7418720684999379
  0
LINE
  5
209F
330
1A
100
AcDbEntity
  8
SEIHIN
100
AcDbLine
 10
539.1155641059044
 20
246.9986974304757
 30
0.0
 11
539.1155641059044
 21
247.0525763040757
 31
0.0
  0
LINE
  5
20A0
330
1A
100
AcDbEntity
  8
NOKITOI
  6
PHANTOM
 62
     8
 48
5.0
100
AcDbLine
 10
546.6606381756217
 20
247.3573081974593
 30
0.0
 11
547.1369381756217
 21
243.9550081974592
 31
0.0
  0
LINE
  5
20A1
330
1A
100
AcDbEntity
  8
SEIHIN
100
AcDbLine
 10
548.7236409912044
 20
250.6934925025757
 30
0.0
 11
548.6705518792044
 21
250.8881761735757
 31
0.0
  0
LINE
  5
20A2
330
1A
100
AcDbEntity
  8
SEIHIN
100
AcDbLine
 10
548.8965112249043
 20
250.4031620031757
 30
0.0
 11
548.7236409912044
 21
250.6934925025757
 31
0.0
  0
LINE
  5
20A3
330
1A
100
AcDbEntity
  8
SEIHIN
100
AcDbLine
 10
549.1163238416043
 20
250.2113095527757
 30
0.0
 11
548.8965112249043
 21
250.4031620031757
 31
0.0
  0
LINE
  5
20A4
330
1A
100
AcDbEntity
  8
SEIHIN
100
AcDbLine
 10
549.3696379940044
 20
250.0947377687756
 30
0.0
 11
549.1163238416043
 21
250.2113095527757
 31
0.0
  0
LINE
  5
20A5
330
1A
100
AcDbEntity
  8
SEIHIN
100
AcDbLine
 10
549.6569454203044
 20
250.0525749331757
 30
0.0
 11
549.3696379940044
 21
250.0947377687756
 31
0.0
  0
LINE
  5
20A6
330
1A
100
AcDbEntity
  8
SEIHIN
100
AcDbLine
 10
548.6362289170044
 20
251.0941139465757
 30
0.0
 11
548.6705518792044
 21
250.8881761735757
 31
0.0
  0
LINE
  5
20A7
330
1A
100
AcDbEntity
  8
SEIHIN
100
AcDbLine
 10
548.6012391279044
 20
251.3040489560757
 30
0.0
 11
548.6362289170044
 21
251.0941139465757
 31
0.0
  0
LINE
  5
20A8
330
1A
100
AcDbEntity
  8
SEIHIN
100
AcDbLine
 10
548.5656532923044
 20
251.5175639694757
 30
0.0
 11
548.6012391279044
 21
251.3040489560757
 31
0.0
  0
LINE
  5
20A9
330
1A
100
AcDbEntity
  8
SEIHIN
100
AcDbLine
 10
546.5929071883045
 20
251.1885165280757
 30
0.0
 11
546.5380662585044
 21
251.5175639694757
 31
0.0
  0
LINE
  5
20AA
330
1A
100
AcDbEntity
  8
SEIHIN
100
AcDbLine
 10
546.6462272684044
 20
250.8685997730757
 30
0.0
 11
546.5929071883045
 21
251.1885165280757
 31
0.0
  0
LINE
  5
20AB
330
1A
100
AcDbEntity
  8
SEIHIN
100
AcDbLine
 10
546.6977638657045
 20
250.5593783265757
 30
0.0
 11
546.6462272684044
 21
250.8685997730757
 31
0.0
  0
LINE
  5
20AC
330
1A
100
AcDbEntity
  8
SEIHIN
100
AcDbLine
 10
547.1471167634044
 20
249.4091763204757
 30
0.0
 11
546.6977638657045
 21
250.5593783265757
 31
0.0
  0
LINE
  5
20AD
330
1A
100
AcDbEntity
  8
SEIHIN
100
AcDbLine
 10
548.0440735350044
 20
248.5230228906757
 30
0.0
 11
547.1471167634044
 21
249.4091763204757
 31
0.0
  0
LINE
  5
20AE
330
1A
100
AcDbEntity
  8
SEIHIN
100
AcDbLine
 10
549.6482859830044
 20
248.0525895065757
 30
0.0
 11
548.0440735350044
 21
248.5230228906757
 31
0.0
  0
LINE
  5
20AF
330
1A
100
AcDbEntity
  8
SEIHIN
100
AcDbLine
 10
549.6569454203044
 20
248.0525746053756
 30
0.0
 11
549.6482859830044
 21
248.0525895065757
 31
0.0
  0
LINE
  5
20B0
330
1A
100
AcDbEntity
  8
SEIHIN
100
AcDbLine
 10
550.2848393748043
 20
250.0381468838756
 30
0.0
 11
550.1155640463044
 21
250.0525749331757
 31
0.0
  0
LINE
  5
20B1
330
1A
100
AcDbEntity
  8
SEIHIN
100
AcDbLine
 10
550.5913115571044
 20
249.9321586495757
 30
0.0
 11
550.2848393748043
 21
250.0381468838756
 31
0.0
  0
LINE
  5
20B2
330
1A
100
AcDbEntity
  8
SEIHIN
100
AcDbLine
 10
550.8287187199044
 20
249.7535831338757
 30
0.0
 11
550.5913115571044
 21
249.9321586495757
 31
0.0
  0
LINE
  5
20B3
330
1A
100
AcDbEntity
  8
SEIHIN
100
AcDbLine
 10
551.0110623667044
 20
249.4976407891757
 30
0.0
 11
550.8287187199044
 21
249.7535831338757
 31
0.0
  0
LINE
  5
20B4
330
1A
100
AcDbEntity
  8
SEIHIN
100
AcDbLine
 10
551.1155642102044
 20
249.0525766318757
 30
0.0
 11
551.0110623667044
 21
249.4976407891757
 31
0.0
  0
LINE
  5
20B5
330
1A
100
AcDbEntity
  8
SEIHIN
100
AcDbLine
 10
551.0817907283044
 20
248.7948834007757
 30
0.0
 11
551.1155642102044
 21
249.0525766318757
 31
0.0
  0
LINE
  5
20B6
330
1A
100
AcDbEntity
  8
SEIHIN
100
AcDbLine
 10
550.8650421629044
 20
248.3905478423757
 30
0.0
 11
551.0817907283044
 21
248.7948834007757
 31
0.0
  0
LINE
  5
20B7
330
1A
100
AcDbEntity
  8
SEIHIN
100
AcDbLine
 10
550.1213382462045
 20
248.0525932317757
 30
0.0
 11
550.8650421629044
 21
248.3905478423757
 31
0.0
  0
LINE
  5
20B8
330
1A
100
AcDbEntity
  8
SEIHIN
100
AcDbLine
 10
550.1155640463044
 20
248.0525746053756
 30
0.0
 11
550.1213382462045
 21
248.0525932317757
 31
0.0
  0
LINE
  5
20B9
330
1A
100
AcDbEntity
  8
SEIHIN
100
AcDbLine
 10
548.5656532923044
 20
251.5175639694757
 30
0.0
 11
546.5380662585044
 21
251.5175639694757
 31
0.0
  0
LINE
  5
20BA
330
1A
100
AcDbEntity
  8
SEIHIN
100
AcDbLine
 10
549.6569454203044
 20
250.0525749331757
 30
0.0
 11
550.1155640463044
 21
250.0525749331757
 31
0.0
  0
LINE
  5
20BB
330
1A
100
AcDbEntity
  8
SEIHIN
100
AcDbLine
 10
550.1155640463044
 20
248.0525746053756
 30
0.0
 11
549.6569454203044
 21
248.0525746053756
 31
0.0
  0
LINE
  5
20BC
330
1A
100
AcDbEntity
  8
NOKITOI
  6
PHANTOM
 62
     8
 48
5.0
100
AcDbLine
 10
534.5590381756217
 20
263.3573081974594
 30
0.0
 11
538.1606381756217
 21
263.3573081974594
 31
0.0
  0
LINE
  5
20BD
330
1A
100
AcDbEntity
  8
SEIHIN
100
AcDbLine
 10
537.4827623832043
 20
263.4827195709756
 30
0.0
 11
537.7612641545044
 21
263.3161674296757
 31
0.0
  0
LINE
  5
20BE
330
1A
100
AcDbEntity
  8
SEIHIN
100
AcDbLine
 10
539.9439913685044
 20
263.5525762146757
 30
0.0
 11
535.5015410109044
 21
263.5525762146757
 31
0.0
  0
ARC
  5
20BF
330
1A
100
AcDbEntity
  8
SEIHIN
100
AcDbCircle
 10
537.1155642896044
 20
262.5525761546757
 30
0.0
 40
3.0
100
AcDbArc
 50
19.47122063449964
 51
90.0
  0
LINE
  5
20C0
330
1A
100
AcDbEntity
  8
SEIHIN
100
AcDbLine
 10
538.6155644896044
 20
260.0525765722757
 30
0.0
 11
537.1155642437044
 21
260.0525765722757
 31
0.0
  0
LINE
  5
20C1
330
1A
100
AcDbEntity
  8
SEIHIN
100
AcDbLine
 10
535.5015410109044
 20
265.5525765424757
 30
0.0
 11
535.5015410109044
 21
263.5525762146757
 31
0.0
  0
LINE
  5
20C2
330
1A
100
AcDbEntity
  8
SEIHIN
100
AcDbLine
 10
528.9906823541044
 20
265.5525765424757
 30
0.0
 11
529.1118944528043
 21
263.5525762146757
 31
0.0
  0
LINE
  5
20C3
330
1A
100
AcDbEntity
  8
SEIHIN
100
AcDbLine
 10
531.1155643080044
 20
263.5525762146757
 30
0.0
 11
530.9320683240044
 21
266.5802593386757
 31
0.0
  0
LINE
  5
20C4
330
1A
100
AcDbEntity
  8
SEIHIN
100
AcDbLine
 10
530.9320683240044
 20
266.5802593386757
 30
0.0
 11
534.8524441010044
 21
263.5525762146757
 31
0.0
  0
LINE
  5
20C5
330
1A
100
AcDbEntity
  8
SEIHIN
100
AcDbLine
 10
529.1118944528043
 20
263.5525762146757
 30
0.0
 11
531.1155643080044
 21
263.5525762146757
 31
0.0
  0
LINE
  5
20C6
330
1A
100
AcDbEntity
  8
NOKITOI
  6
PHANTOM
 62
     8
 48
5.0
100
AcDbLine
 10
534.8988381756217
 20
262.0573081974593
 30
0.0
 11
536.8606381756217
 21
262.0573081974593
 31
0.0
  0
ARC
  5
20C7
330
1A
100
AcDbEntity
  8
NOKITOI
  6
PHANTOM
 62
     8
 48
5.0
100
AcDbCircle
 10
534.5590531351866
 20
260.3573251433883
 30
0.0
 40
2.999983054108306
100
AcDbArc
 50
90.00028570825199
 51
187.1253020571569
  0
ARC
  5
20C8
330
1A
100
AcDbEntity
  8
NOKITOI
  6
PHANTOM
 62
     8
 48
5.0
100
AcDbCircle
 10
534.8988171250903
 20
260.0572843514936
 30
0.0
 40
2.000023846076517
100
AcDbArc
 50
89.99939695388299
 51
187.1251239525234
  0
LINE
  5
20C9
330
1A
100
AcDbEntity
  8
SEIHIN
100
AcDbLine
 10
537.1213379780044
 20
263.5525594508757
 30
0.0
 11
537.4827623832043
 21
263.4827195709756
 31
0.0
  0
LINE
  5
20CA
330
1A
100
AcDbEntity
  8
SEIHIN
100
AcDbLine
 10
537.1155642437044
 20
263.5525762146757
 30
0.0
 11
537.1213379780044
 21
263.5525594508757
 31
0.0
  0
LINE
  5
20CB
330
1A
100
AcDbEntity
  8
SEIHIN
100
AcDbLine
 10
537.1155642437044
 20
262.5525760507757
 30
0.0
 11
536.1282635944044
 21
262.5525760507757
 31
0.0
  0
LINE
  5
20CC
330
1A
100
AcDbEntity
  8
SEIHIN
100
AcDbLine
 10
534.8524441010044
 20
263.5525762146757
 30
0.0
 11
535.5015410109044
 21
263.5525762146757
 31
0.0
  0
LINE
  5
20CD
330
1A
100
AcDbEntity
  8
SEIHIN
100
AcDbLine
 10
534.8233356139044
 20
263.5525762146757
 30
0.0
 11
536.1282635944044
 21
262.5525760507757
 31
0.0
  0
LINE
  5
20CE
330
1A
100
AcDbEntity
  8
SEIHIN
100
AcDbLine
 10
534.8524441010044
 20
263.5525762146757
 30
0.0
 11
531.1155643080044
 21
263.5525762146757
 31
0.0
  0
LINE
  5
20CF
330
1A
100
AcDbEntity
  8
SEIHIN
100
AcDbLine
 10
537.1155642437044
 20
260.0525765722757
 30
0.0
 11
537.1155642437044
 21
262.5525760507757
 31
0.0
  0
LINE
  5
20D0
330
1A
100
AcDbEntity
  8
SEIHIN
100
AcDbLine
 10
530.9320683240044
 20
266.5802593386757
 30
0.0
 11
523.2362189794044
 21
272.5237197285757
 31
0.0
  0
LINE
  5
20D1
330
1A
100
AcDbEntity
  8
SEIHIN
100
AcDbLine
 10
528.0689829028045
 20
271.2483367925756
 30
0.0
 11
535.5015410109044
 21
265.5525765424757
 31
0.0
  0
LINE
  5
20D2
330
1A
100
AcDbEntity
  8
SEIHIN
100
AcDbLine
 10
526.4807051512044
 20
272.4654766774756
 30
0.0
 11
527.0964299793044
 21
271.9936295455757
 31
0.0
  0
LINE
  5
20D3
330
1A
100
AcDbEntity
  8
SEIHIN
100
AcDbLine
 10
526.3925498816043
 20
272.5330310916756
 30
0.0
 11
526.4807051512044
 21
272.4654766774756
 31
0.0
  0
LINE
  5
20D4
330
1A
100
AcDbEntity
  8
SEIHIN
100
AcDbLine
 10
527.0964299793044
 20
271.9936295455757
 30
0.0
 11
528.0689829028045
 21
271.2483367925756
 31
0.0
  0
LINE
  5
20D5
330
1A
100
AcDbEntity
  8
SEIHIN
100
AcDbLine
 10
528.0689829028045
 20
271.2483367925756
 30
0.0
 11
529.0683676953045
 21
270.4002353405757
 31
0.0
  0
LINE
  5
20D6
330
1A
100
AcDbEntity
  8
SEIHIN
100
AcDbLine
 10
523.9226027856043
 20
271.9936295455757
 30
0.0
 11
524.2352710570044
 21
271.9936295455757
 31
0.0
  0
LINE
  5
20D7
330
1A
100
AcDbEntity
  8
SEIHIN
100
AcDbLine
 10
527.0964299793044
 20
271.9936295455757
 30
0.0
 11
524.2352710570044
 21
271.9936295455757
 31
0.0
  0
LINE
  5
20D8
330
1A
100
AcDbEntity
  8
SEIHIN
100
AcDbLine
 10
521.5505083556044
 20
271.2483367925756
 30
0.0
 11
521.6155640314044
 21
271.2483367925756
 31
0.0
  0
LINE
  5
20D9
330
1A
100
AcDbEntity
  8
SEIHIN
100
AcDbLine
 10
521.6155640314044
 20
271.2483367925756
 30
0.0
 11
528.9906823541044
 21
265.5525765424757
 31
0.0
  0
LINE
  5
20DA
330
1A
100
AcDbEntity
  8
SEIHIN
100
AcDbLine
 10
535.5015410109044
 20
265.5525765424757
 30
0.0
 11
537.1155642437044
 21
265.5525765424757
 31
0.0
  0
LINE
  5
20DB
330
1A
100
AcDbEntity
  8
SEIHIN
100
AcDbLine
 10
540.1155642698043
 20
265.8483608668757
 30
0.0
 11
540.1155642698043
 21
262.5525760507757
 31
0.0
  0
LINE
  5
20DC
330
1A
100
AcDbEntity
  8
SEIHIN
100
AcDbLine
 10
545.7429151515044
 20
260.0875905758757
 30
0.0
 11
546.6956022660044
 21
258.9484638577757
 31
0.0
  0
LINE
  5
20DD
330
1A
100
AcDbEntity
  8
SEIHIN
100
AcDbLine
 10
545.8118982146044
 20
255.8745703703756
 30
0.0
 11
545.5922755877043
 21
256.7240408664757
 31
0.0
  0
LINE
  5
20DE
330
1A
100
AcDbEntity
  8
SEIHIN
100
AcDbLine
 10
544.0879763568044
 20
254.0525755888756
 30
0.0
 11
546.1155643220044
 21
254.0525755888756
 31
0.0
  0
ARC
  5
20DF
330
1A
100
AcDbEntity
  8
NOKITOI
  6
PHANTOM
 62
     8
 48
5.0
100
AcDbCircle
 10
543.1606381756217
 20
258.3573081974593
 30
0.0
 40
2.0
100
AcDbArc
 50
0.0
 51
90.0
  0
LINE
  5
20E0
330
1A
100
AcDbEntity
  8
NOKITOI
  6
PHANTOM
 62
     8
 48
5.0
100
AcDbLine
 10
543.8606381756217
 20
253.6573081974593
 30
0.0
 11
545.1606381756217
 21
253.6573081974593
 31
0.0
  0
ARC
  5
20E1
330
1A
100
AcDbEntity
  8
NOKITOI
  6
PHANTOM
 62
     8
 48
5.0
100
AcDbCircle
 10
543.8606381756217
 20
254.9574081974593
 30
0.0
 40
1.300000000000011
100
AcDbArc
 50
90.0
 51
270.0
  0
LINE
  5
20E2
330
1A
100
AcDbEntity
  8
NOKITOI
  6
PHANTOM
 62
     8
 48
5.0
100
AcDbLine
 10
543.8606381756217
 20
256.2574081974593
 30
0.0
 11
543.8606381756217
 21
257.0573081974593
 31
0.0
  0
LINE
  5
20E3
330
1A
100
AcDbEntity
  8
NOKITOI
  6
PHANTOM
 62
     8
 48
5.0
100
AcDbLine
 10
545.1606381756217
 20
258.3573081974593
 30
0.0
 11
545.1606381756217
 21
253.6573081974593
 31
0.0
  0
LINE
  5
20E4
330
1A
100
AcDbEntity
  8
NOKITOI
  6
PHANTOM
 62
     8
 48
5.0
100
AcDbLine
 10
541.8606381756217
 20
259.0573081974593
 30
0.0
 11
540.1606381756217
 21
259.0573081974593
 31
0.0
  0
ARC
  5
20E5
330
1A
100
AcDbEntity
  8
NOKITOI
  6
PHANTOM
 62
     8
 48
5.0
100
AcDbCircle
 10
538.6606381756217
 20
260.8573081974593
 30
0.0
 40
0.5
100
AcDbArc
 50
180.0
 51
270.0
  0
ARC
  5
20E6
330
1A
100
AcDbEntity
  8
NOKITOI
  6
PHANTOM
 62
     8
 48
5.0
100
AcDbCircle
 10
540.1606381756217
 20
257.0573081974593
 30
0.0
 40
2.0
100
AcDbArc
 50
90.0
 51
180.0
  0
LINE
  5
20E7
330
1A
100
AcDbEntity
  8
NOKITOI
  6
PHANTOM
 62
     8
 48
5.0
100
AcDbLine
 10
543.1606381756217
 20
260.3573081974593
 30
0.0
 11
538.6606381756217
 21
260.3573081974593
 31
0.0
  0
ARC
  5
20E8
330
1A
100
AcDbEntity
  8
NOKITOI
  6
PHANTOM
 62
     8
 48
5.0
100
AcDbCircle
 10
541.8606381756217
 20
257.0573081974593
 30
0.0
 40
2.0
100
AcDbArc
 50
0.0
 51
90.0
  0
LINE
  5
20E9
330
1A
100
AcDbEntity
  8
NOKITOI
  6
PHANTOM
 62
     8
 48
5.0
100
AcDbLine
 10
538.1606381756217
 20
263.3573081974594
 30
0.0
 11
538.1606381756217
 21
260.8573081974593
 31
0.0
  0
LINE
  5
20EA
330
1A
100
AcDbEntity
  8
SEIHIN
100
AcDbLine
 10
538.5529856662045
 20
260.0565086162757
 30
0.0
 11
538.6155644896044
 21
260.0525765722757
 31
0.0
  0
LINE
  5
20EB
330
1A
100
AcDbEntity
  8
SEIHIN
100
AcDbLine
 10
538.4913912507044
 20
260.0682414179756
 30
0.0
 11
538.5529856662045
 21
260.0565086162757
 31
0.0
  0
LINE
  5
20EC
330
1A
100
AcDbEntity
  8
SEIHIN
100
AcDbLine
 10
538.4317493530043
 20
260.0875905758757
 30
0.0
 11
538.4913912507044
 21
260.0682414179756
 31
0.0
  0
LINE
  5
20ED
330
1A
100
AcDbEntity
  8
SEIHIN
100
AcDbLine
 10
538.3758509065044
 20
260.1137849545756
 30
0.0
 11
538.4317493530043
 21
260.0875905758757
 31
0.0
  0
LINE
  5
20EE
330
1A
100
AcDbEntity
  8
SEIHIN
100
AcDbLine
 10
538.2390819954044
 20
260.2235450452757
 30
0.0
 11
538.3758509065044
 21
260.1137849545756
 31
0.0
  0
LINE
  5
20EF
330
1A
100
AcDbEntity
  8
SEIHIN
100
AcDbLine
 10
538.1465089972044
 20
260.3794093286757
 30
0.0
 11
538.2390819954044
 21
260.2235450452757
 31
0.0
  0
LINE
  5
20F0
330
1A
100
AcDbEntity
  8
SEIHIN
100
AcDbLine
 10
538.1155644076044
 20
260.5525757229757
 30
0.0
 11
538.1465089972044
 21
260.3794093286757
 31
0.0
  0
LINE
  5
20F1
330
1A
100
AcDbEntity
  8
SEIHIN
100
AcDbLine
 10
539.9505245964044
 20
263.5339013344757
 30
0.0
 11
539.9439913685044
 21
263.5525762146757
 31
0.0
  0
LINE
  5
20F2
330
1A
100
AcDbEntity
  8
SEIHIN
100
AcDbLine
 10
539.9690420831043
 20
263.4786776310757
 30
0.0
 11
539.9505245964044
 21
263.5339013344757
 31
0.0
  0
LINE
  5
20F3
330
1A
100
AcDbEntity
  8
SEIHIN
100
AcDbLine
 10
539.9963512550044
 20
263.3898722982757
 30
0.0
 11
539.9690420831043
 21
263.4786776310757
 31
0.0
  0
LINE
  5
20F4
330
1A
100
AcDbEntity
  8
SEIHIN
100
AcDbLine
 10
540.0289289186044
 20
263.2683328396756
 30
0.0
 11
539.9963512550044
 21
263.3898722982757
 31
0.0
  0
LINE
  5
20F5
330
1A
100
AcDbEntity
  8
SEIHIN
100
AcDbLine
 10
540.0881358887044
 20
262.9573195284756
 30
0.0
 11
540.0289289186044
 21
263.2683328396756
 31
0.0
  0
LINE
  5
20F6
330
1A
100
AcDbEntity
  8
SEIHIN
100
AcDbLine
 10
540.1155642698043
 20
262.5525760507757
 30
0.0
 11
540.0881358887044
 21
262.9573195284756
 31
0.0
  0
LINE
  5
20F7
330
1A
100
AcDbEntity
  8
SEIHIN
100
AcDbLine
 10
537.9895890596044
 20
263.0384582138756
 30
0.0
 11
538.1155644076044
 21
262.5525760507757
 31
0.0
  0
LINE
  5
20F8
330
1A
100
AcDbEntity
  8
SEIHIN
100
AcDbLine
 10
537.7612641545044
 20
263.3161674296757
 30
0.0
 11
537.9895890596044
 21
263.0384582138756
 31
0.0
  0
LINE
  5
20F9
330
1A
100
AcDbEntity
  8
SEIHIN
100
AcDbLine
 10
540.1516492943044
 20
262.3660749798756
 30
0.0
 11
540.1155642698043
 21
262.5525760507757
 31
0.0
  0
LINE
  5
20FA
330
1A
100
AcDbEntity
  8
SEIHIN
100
AcDbLine
 10
540.2517674024043
 20
262.2095718091757
 30
0.0
 11
540.1516492943044
 21
262.3660749798756
 31
0.0
  0
LINE
  5
20FB
330
1A
100
AcDbEntity
  8
SEIHIN
100
AcDbLine
 10
540.3712430502044
 20
262.1163333809757
 30
0.0
 11
540.2517674024043
 21
262.2095718091757
 31
0.0
  0
LINE
  5
20FC
330
1A
100
AcDbEntity
  8
SEIHIN
100
AcDbLine
 10
540.4854315797045
 20
262.0698082303757
 30
0.0
 11
540.3712430502044
 21
262.1163333809757
 31
0.0
  0
LINE
  5
20FD
330
1A
100
AcDbEntity
  8
SEIHIN
100
AcDbLine
 10
540.6155643518043
 20
262.0525769001757
 30
0.0
 11
540.4854315797045
 21
262.0698082303757
 31
0.0
  0
LINE
  5
20FE
330
1A
100
AcDbEntity
  8
SEIHIN
100
AcDbLine
 10
544.9068966786044
 20
260.7782668477757
 30
0.0
 11
545.7429151515044
 21
260.0875905758757
 31
0.0
  0
LINE
  5
20FF
330
1A
100
AcDbEntity
  8
SEIHIN
100
AcDbLine
 10
543.8769805709044
 20
261.3785284614756
 30
0.0
 11
544.9068966786044
 21
260.7782668477757
 31
0.0
  0
LINE
  5
2100
330
1A
100
AcDbEntity
  8
SEIHIN
100
AcDbLine
 10
542.7839086855043
 20
261.7886624342757
 30
0.0
 11
543.8769805709044
 21
261.3785284614756
 31
0.0
  0
LINE
  5
2101
330
1A
100
AcDbEntity
  8
SEIHIN
100
AcDbLine
 10
541.8319191317044
 20
261.9875389194757
 30
0.0
 11
542.7839086855043
 21
261.7886624342757
 31
0.0
  0
LINE
  5
2102
330
1A
100
AcDbEntity
  8
SEIHIN
100
AcDbLine
 10
540.8799286465044
 20
262.0525769001757
 30
0.0
 11
541.8319191317044
 21
261.9875389194757
 31
0.0
  0
LINE
  5
2103
330
1A
100
AcDbEntity
  8
SEIHIN
100
AcDbLine
 10
541.7539450804045
 20
259.9755934482757
 30
0.0
 11
540.8799286465044
 21
260.0525765722757
 31
0.0
  0
LINE
  5
2104
330
1A
100
AcDbEntity
  8
SEIHIN
100
AcDbLine
 10
542.6010481546043
 20
259.7470152234757
 30
0.0
 11
541.7539450804045
 21
259.9755934482757
 31
0.0
  0
LINE
  5
2105
330
1A
100
AcDbEntity
  8
SEIHIN
100
AcDbLine
 10
543.3951515237045
 20
259.3738789713757
 30
0.0
 11
542.6010481546043
 21
259.7470152234757
 31
0.0
  0
LINE
  5
2106
330
1A
100
AcDbEntity
  8
SEIHIN
100
AcDbLine
 10
544.1118033136045
 20
258.8676753497757
 30
0.0
 11
543.3951515237045
 21
259.3738789713757
 31
0.0
  0
LINE
  5
2107
330
1A
100
AcDbEntity
  8
SEIHIN
100
AcDbLine
 10
544.7289349044045
 20
258.2439946985757
 30
0.0
 11
544.1118033136045
 21
258.8676753497757
 31
0.0
  0
LINE
  5
2108
330
1A
100
AcDbEntity
  8
SEIHIN
100
AcDbLine
 10
545.2275435904044
 20
257.5220390266757
 30
0.0
 11
544.7289349044045
 21
258.2439946985757
 31
0.0
  0
LINE
  5
2109
330
1A
100
AcDbEntity
  8
SEIHIN
100
AcDbLine
 10
545.5922755877043
 20
256.7240408664757
 30
0.0
 11
545.2275435904044
 21
257.5220390266757
 31
0.0
  0
LINE
  5
210A
330
1A
100
AcDbEntity
  8
SEIHIN
100
AcDbLine
 10
540.6155643518043
 20
262.0525769001757
 30
0.0
 11
540.8799286465044
 21
262.0525769001757
 31
0.0
  0
LINE
  5
210B
330
1A
100
AcDbEntity
  8
SEIHIN
100
AcDbLine
 10
540.1155642698043
 20
258.0525762444756
 30
0.0
 11
540.1155642698043
 21
260.0525765722757
 31
0.0
  0
LINE
  5
210C
330
1A
100
AcDbEntity
  8
SEIHIN
100
AcDbLine
 10
540.8799286465044
 20
258.0525762444756
 30
0.0
 11
540.1155642698043
 21
258.0525762444756
 31
0.0
  0
LINE
  5
210D
330
1A
100
AcDbEntity
  8
SEIHIN
100
AcDbLine
 10
544.0879763568044
 20
254.0525755888756
 30
0.0
 11
543.8391102011044
 21
255.5457725232757
 31
0.0
  0
ARC
  5
210E
330
1A
100
AcDbEntity
  8
SEIHIN
100
AcDbCircle
 10
540.8799288477044
 20
255.0525761546757
 30
0.0
 40
3.0
100
AcDbArc
 50
9.46232220799938
 51
90.0
  0
LINE
  5
210F
330
1A
100
AcDbEntity
  8
SEIHIN
100
AcDbLine
 10
545.7429151515044
 20
260.0875905758757
 30
0.0
 11
538.4317493530043
 21
260.0875905758757
 31
0.0
  0
LINE
  5
2110
330
1A
100
AcDbEntity
  8
SEIHIN
100
AcDbLine
 10
540.8799286465044
 20
260.0525765722757
 30
0.0
 11
538.6155644896044
 21
260.0525765722757
 31
0.0
  0
LINE
  5
2111
330
1A
100
AcDbEntity
  8
SEIHIN
100
AcDbLine
 10
538.1155644076044
 20
262.5525760507757
 30
0.0
 11
538.1155644076044
 21
260.5525757229757
 31
0.0
  0
LINE
  5
2112
330
1A
100
AcDbEntity
  8
SEIHIN
100
AcDbLine
 10
547.3865588660044
 20
257.6340026265757
 30
0.0
 11
547.7846871594045
 21
256.2033682173757
 31
0.0
  0
LINE
  5
2113
330
1A
100
AcDbEntity
  8
SEIHIN
100
AcDbLine
 10
546.6956022660044
 20
258.9484638577757
 30
0.0
 11
547.3865588660044
 21
257.6340026265757
 31
0.0
  0
ARC
  5
2114
330
1A
100
AcDbEntity
  8
SEIHIN
100
AcDbCircle
 10
535.1155642896044
 20
265.8483601582757
 30
0.0
 40
5.0
100
AcDbArc
 50
0.0
 51
52.5361214693997
  0
LINE
  5
2115
330
1A
100
AcDbEntity
  8
SEIHIN
100
AcDbLine
 10
520.9439929108044
 20
293.7413685998757
 30
0.0
 11
521.9086288939044
 21
288.9005979799757
 31
0.0
  0
LINE
  5
2116
330
1A
100
AcDbEntity
  8
SEIHIN
100
AcDbLine
 10
517.5604188348043
 20
295.6794746263757
 30
0.0
 11
516.4518078322044
 21
303.5663113972757
 31
0.0
  0
LINE
  5
2117
330
1A
100
AcDbEntity
  8
SEIHIN
100
AcDbLine
 10
514.4388053099044
 20
303.5663113972757
 30
0.0
 11
515.5249341855044
 21
295.7303546412757
 31
0.0
  0
LINE
  5
2118
330
1A
100
AcDbEntity
  8
SEIHIN
100
AcDbLine
 10
520.1389623339044
 20
298.5772107770757
 30
0.0
 11
519.9626517946044
 21
299.7828106439757
 31
0.0
  0
LINE
  5
2119
330
1A
100
AcDbEntity
  8
SEIHIN
100
AcDbLine
 10
520.9594686980043
 20
280.1321855789757
 30
0.0
 11
519.0685560460045
 21
287.8424927169757
 31
0.0
  0
LINE
  5
211A
330
1A
100
AcDbEntity
  8
SEIHIN
100
AcDbLine
 10
517.0111489946044
 20
287.8921833165757
 30
0.0
 11
519.0478071103044
 21
279.5403356707757
 31
0.0
  0
LINE
  5
211B
330
1A
100
AcDbEntity
  8
SEIHIN
100
AcDbLine
 10
519.0685560460045
 20
287.8424927169757
 30
0.0
 11
517.5604188348043
 21
295.6794746263757
 31
0.0
  0
LINE
  5
211C
330
1A
100
AcDbEntity
  8
SEIHIN
100
AcDbLine
 10
520.1389623339044
 20
298.5772107770757
 30
0.0
 11
520.9439929108044
 21
293.7413685998757
 31
0.0
  0
LINE
  5
211D
330
1A
100
AcDbEntity
  8
SEIHIN
100
AcDbLine
 10
515.5249341855044
 20
295.7303546412757
 30
0.0
 11
517.0111489946044
 21
287.8921833165757
 31
0.0
  0
LINE
  5
211E
330
1A
100
AcDbEntity
  8
SEIHIN
100
AcDbLine
 10
518.6176701913043
 20
313.7488792693757
 30
0.0
 11
518.8951912800044
 21
309.4588535880757
 31
0.0
  0
LINE
  5
211F
330
1A
100
AcDbEntity
  8
SEIHIN
100
AcDbLine
 10
515.8152646849044
 20
310.4152380531756
 30
0.0
 11
515.7687786499043
 21
311.0901824241757
 31
0.0
  0
LINE
  5
2120
330
1A
100
AcDbEntity
  8
SEIHIN
100
AcDbLine
 10
513.6804144362045
 20
312.4530742919757
 30
0.0
 11
513.8102892319045
 21
310.4152380531756
 31
0.0
  0
LINE
  5
2121
330
1A
100
AcDbEntity
  8
SEIHIN
100
AcDbLine
 10
513.9004989991043
 20
309.1957530981757
 30
0.0
 11
513.8102892319045
 21
310.4152380531756
 31
0.0
  0
LINE
  5
2122
330
1A
100
AcDbEntity
  8
SEIHIN
100
AcDbLine
 10
514.1167986671044
 20
306.6741543865757
 30
0.0
 11
513.9004989991043
 21
309.1957530981757
 31
0.0
  0
LINE
  5
2123
330
1A
100
AcDbEntity
  8
SEIHIN
100
AcDbLine
 10
514.4388053099044
 20
303.5663113972757
 30
0.0
 11
514.1167986671044
 21
306.6741543865757
 31
0.0
  0
LINE
  5
2124
330
1A
100
AcDbEntity
  8
SEIHIN
100
AcDbLine
 10
516.2171564529044
 20
305.7402092075757
 30
0.0
 11
516.4518078322044
 21
303.5663113972757
 31
0.0
  0
LINE
  5
2125
330
1A
100
AcDbEntity
  8
SEIHIN
100
AcDbLine
 10
515.9653882960045
 20
308.4713461852757
 30
0.0
 11
516.2171564529044
 21
305.7402092075757
 31
0.0
  0
LINE
  5
2126
330
1A
100
AcDbEntity
  8
SEIHIN
100
AcDbLine
 10
515.8152646849044
 20
310.4152380531756
 30
0.0
 11
515.9653882960045
 21
308.4713461852757
 31
0.0
  0
LINE
  5
2127
330
1A
100
AcDbEntity
  8
SEIHIN
100
AcDbLine
 10
519.3978195543044
 20
304.2104550680757
 30
0.0
 11
519.9626471380043
 21
299.7828413775757
 31
0.0
  0
LINE
  5
2128
330
1A
100
AcDbEntity
  8
SEIHIN
100
AcDbLine
 10
518.8951912800044
 20
309.4588535880757
 30
0.0
 11
519.3978195543044
 21
304.2104550680757
 31
0.0
  0
LINE
  5
2129
330
1A
100
AcDbEntity
  8
SEIHIN
100
AcDbLine
 10
513.8102892319045
 20
310.4152380531757
 30
0.0
 11
515.8152646849044
 21
310.4152380531757
 31
0.0
  0
LINE
  5
212A
330
1A
100
AcDbEntity
  8
SEIHIN
100
AcDbLine
 10
516.4518078322044
 20
303.5663113972756
 30
0.0
 11
514.4388053099044
 21
303.5663113972756
 31
0.0
  0
LINE
  5
212B
330
1A
100
AcDbEntity
  8
SEIHIN
100
AcDbLine
 10
516.3344821425044
 20
304.6532603023757
 30
0.0
 11
519.4419555813045
 21
303.8644782018757
 31
0.0
  0
LINE
  5
212C
330
1A
100
AcDbEntity
  8
SEIHIN
100
AcDbLine
 10
518.4519646222044
 20
318.3762374377757
 30
0.0
 11
518.6176701913043
 21
313.7488792693757
 31
0.0
  0
LINE
  5
212D
330
1A
100
AcDbEntity
  8
SEIHIN
100
AcDbLine
 10
515.5991550068044
 20
314.0502906447757
 30
0.0
 11
515.4707517008044
 21
317.5361267334757
 31
0.0
  0
LINE
  5
212E
330
1A
100
AcDbEntity
  8
SEIHIN
100
AcDbLine
 10
515.7687786499043
 20
311.0901824241757
 30
0.0
 11
515.5991550068044
 21
314.0502906447757
 31
0.0
  0
LINE
  5
212F
330
1A
100
AcDbEntity
  8
SEIHIN
100
AcDbLine
 10
513.5646938811044
 20
314.7649000441757
 30
0.0
 11
513.6804144362045
 21
312.4530742919757
 31
0.0
  0
LINE
  5
2130
330
1A
100
AcDbEntity
  8
SEIHIN
100
AcDbLine
 10
513.4767379145044
 20
317.2834775453757
 30
0.0
 11
513.5646938811044
 21
314.7649000441757
 31
0.0
  0
LINE
  5
2131
330
1A
100
AcDbEntity
  8
SEIHIN
100
AcDbLine
 10
513.4259361307044
 20
320.0406934177757
 30
0.0
 11
513.4767379145044
 21
317.2834775453757
 31
0.0
  0
LINE
  5
2132
330
1A
100
AcDbEntity
  8
SEIHIN
100
AcDbLine
 10
521.9086288939044
 20
288.9005979799757
 30
0.0
 11
522.8558519388043
 21
284.7855085550757
 31
0.0
  0
LINE
  5
2133
330
1A
100
AcDbEntity
  8
SEIHIN
100
AcDbLine
 10
523.9172737578044
 20
280.6887830650757
 30
0.0
 11
525.0962419900044
 21
276.6024618452757
 31
0.0
  0
LINE
  5
2134
330
1A
100
AcDbEntity
  8
SEIHIN
100
AcDbLine
 10
522.8558519388043
 20
284.7855085550757
 30
0.0
 11
523.9172737578044
 21
280.6887830650757
 31
0.0
  0
LINE
  5
2135
330
1A
100
AcDbEntity
  8
NOKITOI
  6
PHANTOM
 62
     8
 48
5.0
100
AcDbLine
 10
655.8288381756217
 20
242.0573081974592
 30
0.0
 11
655.2197381756216
 21
228.6573081974593
 31
0.0
  0
LINE
  5
2136
330
1A
100
AcDbEntity
  8
NOKITOI
  6
PHANTOM
 62
     8
 48
5.0
100
AcDbLine
 10
659.8606381756218
 20
228.6573081974593
 30
0.0
 11
659.8606381756218
 21
240.6399081974593
 31
0.0
  0
LINE
  5
2137
330
1A
100
AcDbEntity
  8
NOKITOI
  6
PHANTOM
 62
     8
 48
5.0
100
AcDbLine
 10
661.1606381756218
 20
241.3573081974593
 30
0.0
 11
661.1606381756218
 21
226.7404081974593
 31
0.0
  0
LINE
  5
2138
330
1A
100
AcDbEntity
  8
NOKITOI
  6
PHANTOM
 62
     8
 48
5.0
100
AcDbLine
 10
654.5649381756218
 20
242.8800081974593
 30
0.0
 11
652.0485381756216
 21
187.5210081974593
 31
0.0
  0
LINE
  5
2139
330
1A
100
AcDbEntity
  8
NOKITOI
  6
PHANTOM
 62
     8
 48
5.0
100
AcDbLine
 10
565.3952381756217
 20
183.3572081974592
 30
0.0
 11
651.2494381756218
 21
183.3572081974592
 31
0.0
  0
LINE
  5
213A
330
1A
100
AcDbEntity
  8
NOKITOI
  6
PHANTOM
 62
     8
 48
5.0
100
AcDbLine
 10
567.3900381756216
 20
184.6572081974593
 30
0.0
 11
649.0516381756216
 21
184.6572081974593
 31
0.0
  0
ARC
  5
213B
330
1A
100
AcDbEntity
  8
NOKITOI
  6
PHANTOM
 62
     8
 48
5.0
100
AcDbCircle
 10
565.3952329264071
 20
185.3572127499488
 30
0.0
 40
2.000004552496454
100
AcDbArc
 50
188.1318732947256
 51
270.0001503785762
  0
LINE
  5
213C
330
1A
100
AcDbEntity
  8
NOKITOI
  6
PHANTOM
 62
     8
 48
5.0
100
AcDbLine
 10
564.4202381756218
 20
187.2329081974592
 30
0.0
 11
560.6881381756218
 21
213.3573081974593
 31
0.0
  0
LINE
  5
213D
330
1A
100
AcDbEntity
  8
NOKITOI
  6
PHANTOM
 62
     8
 48
5.0
100
AcDbLine
 10
559.4977381756218
 20
212.4980081974593
 30
0.0
 11
561.4366381756217
 21
198.9254081974593
 31
0.0
  0
LINE
  5
213E
330
1A
100
AcDbEntity
  8
NOKITOI
  6
PHANTOM
 62
     8
 48
5.0
100
AcDbLine
 10
561.6606381756217
 20
197.3572081974593
 30
0.0
 11
563.4153381756217
 21
185.0743081974592
 31
0.0
  0
ARC
  5
213F
330
1A
100
AcDbEntity
  8
NOKITOI
  6
PHANTOM
 62
     8
 48
5.0
100
AcDbCircle
 10
567.3900629149357
 20
187.6571867414724
 30
0.0
 40
2.99997854411512
100
AcDbArc
 50
188.1304401609569
 51
269.9995275105243
  0
ARC
  5
2140
330
1A
100
AcDbEntity
  8
NOKITOI
  6
PHANTOM
 62
     8
 48
5.0
100
AcDbCircle
 10
651.2494706996388
 20
185.3572392769763
 30
0.0
 40
2.000031079781521
100
AcDbArc
 50
269.9990682700233
 51
357.3970263848204
  0
ARC
  5
2141
330
1A
100
AcDbEntity
  8
NOKITOI
  6
PHANTOM
 62
     8
 48
5.0
100
AcDbCircle
 10
649.0516346917143
 20
187.6572048682889
 30
0.0
 40
2.999996670831683
100
AcDbArc
 50
270.0000665378049
 51
357.397937947487
  0
LINE
  5
2142
330
1A
100
AcDbEntity
  8
NOKITOI
  6
PHANTOM
 62
     8
 48
5.0
100
AcDbLine
 10
655.1606381756217
 20
227.3573081974592
 30
0.0
 11
653.2474381756218
 21
185.2664081974593
 31
0.0
  0
ARC
  5
2143
330
1A
100
AcDbEntity
  8
NOKITOI
  6
PHANTOM
 62
     8
 48
5.0
100
AcDbCircle
 10
660.6606275358482
 20
226.740402172358
 30
0.0
 40
0.500010639809949
100
AcDbArc
 50
239.0447944605788
 51
0.0006904110642984
  0
LINE
  5
2144
330
1A
100
AcDbEntity
  8
NOKITOI
  6
PHANTOM
 62
     8
 48
5.0
100
AcDbLine
 10
655.2197381756216
 20
228.6573081974593
 30
0.0
 11
659.8606381756218
 21
228.6573081974593
 31
0.0
  0
LINE
  5
2145
330
1A
100
AcDbEntity
  8
NOKITOI
  6
PHANTOM
 62
     8
 48
5.0
100
AcDbLine
 10
658.6606381756217
 20
227.3573081974592
 30
0.0
 11
660.4034381756218
 21
226.3116081974592
 31
0.0
  0
LINE
  5
2146
330
1A
100
AcDbEntity
  8
NOKITOI
  6
PHANTOM
 62
     8
 48
5.0
100
AcDbLine
 10
655.1606381756217
 20
227.3573081974592
 30
0.0
 11
658.6606381756217
 21
227.3573081974592
 31
0.0
  0
LINE
  5
2147
330
1A
100
AcDbEntity
  8
NOKITOI
  6
PHANTOM
 62
     8
 48
5.0
100
AcDbLine
 10
659.8606381756218
 20
240.6399081974593
 30
0.0
 11
657.6111381756218
 21
242.0573081974592
 31
0.0
  0
LINE
  5
2148
330
1A
100
AcDbEntity
  8
NOKITOI
  6
PHANTOM
 62
     8
 48
5.0
100
AcDbLine
 10
657.9866381756218
 20
243.3573081974593
 30
0.0
 11
661.1606381756218
 21
241.3573081974593
 31
0.0
  0
ARC
  5
2149
330
1A
100
AcDbEntity
  8
NOKITOI
  6
PHANTOM
 62
     8
 48
5.0
100
AcDbCircle
 10
655.0643300446175
 20
242.8573004275801
 30
0.0
 40
0.5000077699453767
100
AcDbArc
 50
89.99906827002333
 51
177.3970263848204
  0
LINE
  5
214A
330
1A
100
AcDbEntity
  8
NOKITOI
  6
PHANTOM
 62
     8
 48
5.0
100
AcDbLine
 10
655.0643381756217
 20
243.3573081974593
 30
0.0
 11
657.9866381756218
 21
243.3573081974593
 31
0.0
  0
LINE
  5
214B
330
1A
100
AcDbEntity
  8
NOKITOI
  6
PHANTOM
 62
     8
 48
5.0
100
AcDbLine
 10
657.6111381756218
 20
242.0573081974592
 30
0.0
 11
655.8288381756217
 21
242.0573081974592
 31
0.0
  0
LINE
  5
214C
330
1A
100
AcDbEntity
  8
SEIHIN
100
AcDbLine
 10
515.8601339439044
 20
333.4174043542757
 30
0.0
 11
515.8686425070043
 21
333.5303030019757
 31
0.0
  0
LINE
  5
214D
330
1A
100
AcDbEntity
  8
SEIHIN
100
AcDbLine
 10
515.8235925714043
 20
332.9192622607757
 30
0.0
 11
515.8601339439044
 21
333.4174043542757
 31
0.0
  0
LINE
  5
214E
330
1A
100
AcDbEntity
  8
SEIHIN
100
AcDbLine
 10
515.7639543990044
 20
332.0551141208757
 30
0.0
 11
515.8235925714043
 21
332.9192622607757
 31
0.0
  0
LINE
  5
214F
330
1A
100
AcDbEntity
  8
SEIHIN
100
AcDbLine
 10
515.6872748862045
 20
330.8251760011756
 30
0.0
 11
515.7639543990044
 21
332.0551141208757
 31
0.0
  0
LINE
  5
2150
330
1A
100
AcDbEntity
  8
SEIHIN
100
AcDbLine
 10
513.7571479658044
 20
332.0185876494757
 30
0.0
 11
513.6839068959043
 21
330.8251760011756
 31
0.0
  0
LINE
  5
2151
330
1A
100
AcDbEntity
  8
SEIHIN
100
AcDbLine
 10
513.8151023070044
 20
332.8710458284756
 30
0.0
 11
513.7571479658044
 21
332.0185876494757
 31
0.0
  0
LINE
  5
2152
330
1A
100
AcDbEntity
  8
SEIHIN
100
AcDbLine
 10
513.8519007245044
 20
333.3821817344756
 30
0.0
 11
513.8151023070044
 21
332.8710458284756
 31
0.0
  0
LINE
  5
2153
330
1A
100
AcDbEntity
  8
SEIHIN
100
AcDbLine
 10
513.8646561185044
 20
333.5525765126757
 30
0.0
 11
513.8519007245044
 21
333.3821817344756
 31
0.0
  0
LINE
  5
2154
330
1A
100
AcDbEntity
  8
SEIHIN
100
AcDbLine
 10
515.6589105258045
 20
330.3261845415757
 30
0.0
 11
515.6399636994045
 21
329.9762642985756
 31
0.0
  0
LINE
  5
2155
330
1A
100
AcDbEntity
  8
SEIHIN
100
AcDbLine
 10
515.6788445542044
 20
330.6797592943757
 30
0.0
 11
515.6589105258045
 21
330.3261845415757
 31
0.0
  0
LINE
  5
2156
330
1A
100
AcDbEntity
  8
SEIHIN
100
AcDbLine
 10
515.6872748862045
 20
330.8251760011756
 30
0.0
 11
515.6788445542044
 21
330.6797592943757
 31
0.0
  0
LINE
  5
2157
330
1A
100
AcDbEntity
  8
SEIHIN
100
AcDbLine
 10
513.6794384102043
 20
330.7474068409757
 30
0.0
 11
513.6839068959043
 21
330.8251760011756
 31
0.0
  0
LINE
  5
2158
330
1A
100
AcDbEntity
  8
SEIHIN
100
AcDbLine
 10
513.6628888080044
 20
330.4533994799756
 30
0.0
 11
513.6794384102043
 21
330.7474068409757
 31
0.0
  0
LINE
  5
2159
330
1A
100
AcDbEntity
  8
SEIHIN
100
AcDbLine
 10
513.6371880303044
 20
329.9762642985756
 30
0.0
 11
513.6628888080044
 21
330.4533994799756
 31
0.0
  0
LINE
  5
215A
330
1A
100
AcDbEntity
  8
SEIHIN
100
AcDbLine
 10
518.4344054664043
 20
324.0424878007757
 30
0.0
 11
518.4340441132044
 21
324.0173607176757
 31
0.0
  0
LINE
  5
215B
330
1A
100
AcDbEntity
  8
SEIHIN
100
AcDbLine
 10
518.4438127557044
 20
324.6196134990757
 30
0.0
 11
518.4344054664043
 21
324.0424878007757
 31
0.0
  0
LINE
  5
215C
330
1A
100
AcDbEntity
  8
SEIHIN
100
AcDbLine
 10
518.4508079196044
 20
324.9814472204757
 30
0.0
 11
518.4438127557044
 21
324.6196134990757
 31
0.0
  0
LINE
  5
215D
330
1A
100
AcDbEntity
  8
SEIHIN
100
AcDbLine
 10
518.4554785023044
 20
325.2016640311757
 30
0.0
 11
518.4508079196044
 21
324.9814472204757
 31
0.0
  0
LINE
  5
215E
330
1A
100
AcDbEntity
  8
SEIHIN
100
AcDbLine
 10
518.4588312636045
 20
325.3512977665757
 30
0.0
 11
518.4554785023044
 21
325.2016640311757
 31
0.0
  0
LINE
  5
215F
330
1A
100
AcDbEntity
  8
SEIHIN
100
AcDbLine
 10
518.4305274392043
 20
323.7555510407757
 30
0.0
 11
518.4258130843044
 21
323.3358710116756
 31
0.0
  0
LINE
  5
2160
330
1A
100
AcDbEntity
  8
SEIHIN
100
AcDbLine
 10
518.4340441132044
 20
324.0173607176757
 30
0.0
 11
518.4305274392043
 21
323.7555510407757
 31
0.0
  0
LINE
  5
2161
330
1A
100
AcDbEntity
  8
SEIHIN
100
AcDbLine
 10
515.4948692302044
 20
326.5268168455756
 30
0.0
 11
515.6399636994045
 21
329.9762642985756
 31
0.0
  0
LINE
  5
2162
330
1A
100
AcDbEntity
  8
SEIHIN
100
AcDbLine
 10
515.4270112047044
 20
323.2726975387757
 30
0.0
 11
515.4948692302044
 21
326.5268168455756
 31
0.0
  0
LINE
  5
2163
330
1A
100
AcDbEntity
  8
SEIHIN
100
AcDbLine
 10
513.6371880303044
 20
329.9762642985756
 30
0.0
 11
513.4500629733044
 21
324.7993736571756
 31
0.0
  0
LINE
  5
2164
330
1A
100
AcDbEntity
  8
SEIHIN
100
AcDbLine
 10
515.8686425070043
 20
333.5525765126757
 30
0.0
 11
513.8646561185044
 21
333.5525765126757
 31
0.0
  0
LINE
  5
2165
330
1A
100
AcDbEntity
  8
SEIHIN
100
AcDbLine
 10
515.6399636994045
 20
329.9762642985756
 30
0.0
 11
513.6371880303044
 21
329.9762642985756
 31
0.0
  0
LINE
  5
2166
330
1A
100
AcDbEntity
  8
SEIHIN
100
AcDbLine
 10
516.3183362687043
 20
327.5525755292757
 30
0.0
 11
515.5613135079044
 21
328.3310941463757
 31
0.0
  0
LINE
  5
2167
330
1A
100
AcDbEntity
  8
SEIHIN
100
AcDbLine
 10
513.5286852250044
 20
327.5525755292757
 30
0.0
 11
513.5164420585044
 21
327.2135666614756
 31
0.0
  0
LINE
  5
2168
330
1A
100
AcDbEntity
  8
SEIHIN
100
AcDbLine
 10
513.6839068959043
 20
330.8251760011757
 30
0.0
 11
515.6872748862045
 21
330.8251760011757
 31
0.0
  0
LINE
  5
2169
330
1A
100
AcDbEntity
  8
SEIHIN
100
AcDbLine
 10
516.3183362687043
 20
327.5525755292757
 30
0.0
 11
518.4588312636045
 21
325.3512977665757
 31
0.0
  0
LINE
  5
216A
330
1A
100
AcDbEntity
  8
SEIHIN
100
AcDbLine
 10
518.4258130843044
 20
323.3358710116756
 30
0.0
 11
518.4278498868043
 21
323.3339897400757
 31
0.0
  0
LINE
  5
216B
330
1A
100
AcDbEntity
  8
SEIHIN
100
AcDbLine
 10
518.4278303290043
 20
323.3321829742757
 30
0.0
 11
518.4278498868043
 21
323.3339897400757
 31
0.0
  0
VIEWPORT
  5
22
330
17
100
AcDbEntity
 67
     1
  8
0
100
AcDbViewport
 10
313.6808219178083
 20
148.5
 30
0.0
 40
627.3616438356165
 41
297.0
 68
     2
 69
     1
 12
313.6808219178083
 22
148.5
 13
0.0
 23
0.0
 14
1.0
 24
1.0
 15
10.0
 25
10.0
 16
0.0
 26
0.0
 36
1.0
 17
0.0
 27
0.0
 37
0.0
 42
50.0
 43
0.0
 44
0.0
 45
297.0
 50
0.0
 51
0.0
 72
   100
 90
    32768
  1

281
     0
 71
     1
 74
     0
110
0.0
120
0.0
130
0.0
111
1.0
121
0.0
131
0.0
112
0.0
122
1.0
132
0.0
 79
     0
146
0.0
  0
VIEWPORT
  5
64
330
17
100
AcDbEntity
 67
     1
  8
VIEWPORT
100
AcDbViewport
 10
210.0
 20
148.5
 30
0.0
 40
420.0
 41
297.0
 68
     1
 69
     2
 12
420.0
 22
297.0
 13
0.0
 23
0.0
 14
10.0
 24
10.0
 15
0.0
 25
0.0
 16
0.0
 26
0.0
 36
1.0
 17
0.0
 27
0.0
 37
0.0
 42
50.0
 43
0.0
 44
0.0
 45
605.8799999999999
 50
0.0
 51
0.0
 72
   100
 90
    32768
  1

281
     0
 71
     1
 74
     0
110
0.0
120
0.0
130
0.0
111
1.0
121
0.0
131
0.0
112
0.0
122
1.0
132
0.0
 79
     0
146
0.0
  0
ENDSEC
  0
SECTION
  2
OBJECTS
  0
DICTIONARY
  5
C
330
0
100
AcDbDictionary
281
     1
  3
ACAD_GROUP
350
D
  3
ACAD_LAYOUT
350
4BC
  3
ACAD_MLINESTYLE
350
E
  3
ACAD_PLOTSETTINGS
350
4BD
  3
ACAD_PLOTSTYLENAME
350
4BA
  0
DICTIONARY
  5
D
102
{ACAD_REACTORS
330
C
102
}
330
C
100
AcDbDictionary
281
     1
  0
DICTIONARY
  5
4BC
102
{ACAD_REACTORS
330
C
102
}
330
C
100
AcDbDictionary
281
     1
  3
Model
350
4BE
  3
ﾚｲｱｳﾄ1
350
4BF
  0
DICTIONARY
  5
E
102
{ACAD_REACTORS
330
C
102
}
330
C
100
AcDbDictionary
281
     1
  3
STANDARD
350
13
  0
DICTIONARY
  5
4BD
102
{ACAD_REACTORS
330
C
102
}
330
C
100
AcDbDictionary
281
     1
  0
ACDBDICTIONARYWDFLT
  5
4BA
102
{ACAD_REACTORS
330
C
102
}
330
C
100
AcDbDictionary
281
     1
  3
Normal
350
4BB
100
AcDbDictionaryWithDefault
340
4BB
1001
ACAD
1000
TREAT_AS_HARD
1070
     0
1000
TREAT_AS_HARD
1070
     0
1000
TREAT_AS_HARD
1070
     0
1000
TREAT_AS_HARD
1070
     0
  0
LAYOUT
  5
4BE
102
{ACAD_REACTORS
330
4BC
102
}
330
4BC
100
AcDbPlotSettings
  1

  2
Canon LASER SHOT LBP-2360
  4
A3
  6

 40
5.873749732971191
 41
5.873747825622559
 42
5.873748779296875
 43
5.873748779296875
 44
296.9259948730469
 45
419.9466552734375
 46
0.0
 47
0.0
 48
0.0
 49
0.0
140
0.0
141
0.0
142
1.0
143
2.0
 70
 28336
 72
     1
 73
     1
 74
     2
  7
systemprinter.ctb
 75
    17
147
0.5
148
0.0
149
0.0
100
AcDbLayout
  1
Model
 70
     1
 71
     0
 10
0.0
 20
0.0
 11
12.0
 21
9.0
 12
0.0
 22
0.0
 32
0.0
 14
0.0
 24
0.0
 34
0.0
 15
0.0
 25
0.0
 35
0.0
146
0.0
 13
0.0
 23
0.0
 33
0.0
 16
1.0
 26
0.0
 36
0.0
 17
0.0
 27
1.0
 37
0.0
 76
     0
330
1A
  0
LAYOUT
  5
4BF
102
{ACAD_REACTORS
330
4BC
102
}
330
4BC
100
AcDbPlotSettings
  1

  2
Canon LBP-730 LIPS4
  4

  6

 40
0.0
 41
0.0
 42
0.0
 43
0.0
 44
0.0
 45
0.0
 46
0.0
 47
0.0
 48
0.0
 49
0.0
140
0.0
141
0.0
142
1.0
143
1.0
 70
   688
 72
     0
 73
     0
 74
     5
  7
systemprinter.ctb
 75
    16
147
1.0
148
0.0
149
0.0
100
AcDbLayout
  1
ﾚｲｱｳﾄ1
 70
     1
 71
     1
 10
0.0
 20
0.0
 11
420.0
 21
297.0
 12
0.0
 22
0.0
 32
0.0
 14
0.0
 24
0.0
 34
0.0
 15
420.0
 25
297.0
 35
0.0
146
0.0
 13
0.0
 23
0.0
 33
0.0
 16
1.0
 26
0.0
 36
0.0
 17
0.0
 27
1.0
 37
0.0
 76
     0
330
17
331
64
  0
MLINESTYLE
  5
13
102
{ACAD_REACTORS
330
E
102
}
330
E
100
AcDbMlineStyle
  2
STANDARD
 70
     0
  3

 62
     0
 51
90.0
 52
90.0
 71
     2
 49
0.5
 62
   256
  6
BYLAYER
 49
-0.5
 62
   256
  6
BYLAYER
  0
ACDBPLACEHOLDER
  5
4BB
102
{ACAD_REACTORS
330
4BA
102
}
330
4BA
  0
ENDSEC
  0
EOF
