  0
SECTION
  2
HEADER
  9
$ACADVER
  1
AC1015
  9
$ACADMAINTVER
 70
     6
  9
$DWGCODEPAGE
  3
ANSI_932
  9
$INSBASE
 10
0.0
 20
0.0
 30
0.0
  9
$EXTMIN
 10
10.05047808566086
 20
13.78258628282265
 30
0.0
  9
$EXTMAX
 10
807.6504780856607
 20
565.3825862828227
 30
0.0
  9
$LIMMIN
 10
0.0
 20
0.0
  9
$LIMMAX
 10
840.0
 20
594.0
  9
$ORTHOMODE
 70
     1
  9
$REGENMODE
 70
     1
  9
$FILLMODE
 70
     1
  9
$QTEXTMODE
 70
     0
  9
$MIRRTEXT
 70
     1
  9
$LTSCALE
 40
2.0
  9
$ATTMODE
 70
     1
  9
$TEXTSIZE
 40
5.0
  9
$TRACEWID
 40
1.0
  9
$TEXTSTYLE
  7
STANDARD
  9
$CLAYER
  8
SEIHIN
  9
$CELTYPE
  6
BYLAYER
  9
$CECOLOR
 62
   256
  9
$CELTSCALE
 40
1.0
  9
$DISPSILH
 70
     0
  9
$DIMSCALE
 40
1.0
  9
$DIMASZ
 40
7.0
  9
$DIMEXO
 40
6.0
  9
$DIMDLI
 40
14.0
  9
$DIMRND
 40
0.0
  9
$DIMDLE
 40
0.0
  9
$DIMEXE
 40
3.0
  9
$DIMTP
 40
0.0
  9
$DIMTM
 40
0.0
  9
$DIMTXT
 40
6.0
  9
$DIMCEN
 40
150.0
  9
$DIMTSZ
 40
0.0
  9
$DIMTOL
 70
     0
  9
$DIMLIM
 70
     0
  9
$DIMTIH
 70
     0
  9
$DIMTOH
 70
     0
  9
$DIMSE1
 70
     0
  9
$DIMSE2
 70
     0
  9
$DIMTAD
 70
     3
  9
$DIMZIN
 70
     0
  9
$DIMBLK
  1

  9
$DIMASO
 70
     1
  9
$DIMSHO
 70
     1
  9
$DIMPOST
  1

  9
$DIMAPOST
  1

  9
$DIMALT
 70
     0
  9
$DIMALTD
 70
     2
  9
$DIMALTF
 40
25.4
  9
$DIMLFAC
 40
1.0
  9
$DIMTOFL
 70
     1
  9
$DIMTVP
 40
0.0
  9
$DIMTIX
 70
     0
  9
$DIMSOXD
 70
     0
  9
$DIMSAH
 70
     1
  9
$DIMBLK1
  1
OPEN
  9
$DIMBLK2
  1
OPEN
  9
$DIMSTYLE
  2
STANDARD
  9
$DIMCLRD
 70
   256
  9
$DIMCLRE
 70
   256
  9
$DIMCLRT
 70
   256
  9
$DIMTFAC
 40
1.0
  9
$DIMGAP
 40
2.0
  9
$DIMJUST
 70
     0
  9
$DIMSD1
 70
     0
  9
$DIMSD2
 70
     0
  9
$DIMTOLJ
 70
     1
  9
$DIMTZIN
 70
     0
  9
$DIMALTZ
 70
     0
  9
$DIMALTTZ
 70
     0
  9
$DIMUPT
 70
     0
  9
$DIMDEC
 70
     0
  9
$DIMTDEC
 70
     0
  9
$DIMALTU
 70
     2
  9
$DIMALTTD
 70
     2
  9
$DIMTXSTY
  7
STANDARD
  9
$DIMAUNIT
 70
     0
  9
$DIMADEC
 70
     0
  9
$DIMALTRND
 40
0.0
  9
$DIMAZIN
 70
     0
  9
$DIMDSEP
 70
    46
  9
$DIMATFIT
 70
     3
  9
$DIMFRAC
 70
     0
  9
$DIMLDRBLK
  1
OPEN
  9
$DIMLUNIT
 70
     2
  9
$DIMLWD
 70
    -1
  9
$DIMLWE
 70
    -1
  9
$DIMTMOVE
 70
     0
  9
$LUNITS
 70
     2
  9
$LUPREC
 70
     4
  9
$SKETCHINC
 40
1.0
  9
$FILLETRAD
 40
0.5
  9
$AUNITS
 70
     0
  9
$AUPREC
 70
     0
  9
$MENU
  1
.
  9
$ELEVATION
 40
0.0
  9
$PELEVATION
 40
0.0
  9
$THICKNESS
 40
0.0
  9
$LIMCHECK
 70
     0
  9
$CHAMFERA
 40
20.0
  9
$CHAMFERB
 40
20.0
  9
$CHAMFERC
 40
40.0
  9
$CHAMFERD
 40
0.0
  9
$SKPOLY
 70
     0
  9
$TDCREATE
 40
2454866.469916053
  9
$TDUCREATE
 40
2454866.094916053
  9
$TDUPDATE
 40
2454876.402284953
  9
$TDUUPDATE
 40
2454876.027284953
  9
$TDINDWG
 40
0.0074169676
  9
$TDUSRTIMER
 40
0.0074169676
  9
$USRTIMER
 70
     1
  9
$ANGBASE
 50
0.0
  9
$ANGDIR
 70
     0
  9
$PDMODE
 70
     0
  9
$PDSIZE
 40
0.0
  9
$PLINEWID
 40
0.0
  9
$SPLFRAME
 70
     0
  9
$SPLINETYPE
 70
     6
  9
$SPLINESEGS
 70
     8
  9
$HANDSEED
  5
2FE0
  9
$SURFTAB1
 70
     6
  9
$SURFTAB2
 70
     6
  9
$SURFTYPE
 70
     6
  9
$SURFU
 70
     6
  9
$SURFV
 70
     6
  9
$UCSBASE
  2

  9
$UCSNAME
  2

  9
$UCSORG
 10
0.0
 20
0.0
 30
0.0
  9
$UCSXDIR
 10
1.0
 20
0.0
 30
0.0
  9
$UCSYDIR
 10
0.0
 20
1.0
 30
0.0
  9
$UCSORTHOREF
  2

  9
$UCSORTHOVIEW
 70
     0
  9
$UCSORGTOP
 10
0.0
 20
0.0
 30
0.0
  9
$UCSORGBOTTOM
 10
0.0
 20
0.0
 30
0.0
  9
$UCSORGLEFT
 10
0.0
 20
0.0
 30
0.0
  9
$UCSORGRIGHT
 10
0.0
 20
0.0
 30
0.0
  9
$UCSORGFRONT
 10
0.0
 20
0.0
 30
0.0
  9
$UCSORGBACK
 10
0.0
 20
0.0
 30
0.0
  9
$PUCSBASE
  2

  9
$PUCSNAME
  2

  9
$PUCSORG
 10
0.0
 20
0.0
 30
0.0
  9
$PUCSXDIR
 10
1.0
 20
0.0
 30
0.0
  9
$PUCSYDIR
 10
0.0
 20
1.0
 30
0.0
  9
$PUCSORTHOREF
  2

  9
$PUCSORTHOVIEW
 70
     0
  9
$PUCSORGTOP
 10
0.0
 20
0.0
 30
0.0
  9
$PUCSORGBOTTOM
 10
0.0
 20
0.0
 30
0.0
  9
$PUCSORGLEFT
 10
0.0
 20
0.0
 30
0.0
  9
$PUCSORGRIGHT
 10
0.0
 20
0.0
 30
0.0
  9
$PUCSORGFRONT
 10
0.0
 20
0.0
 30
0.0
  9
$PUCSORGBACK
 10
0.0
 20
0.0
 30
0.0
  9
$USERI1
 70
     0
  9
$USERI2
 70
     0
  9
$USERI3
 70
     0
  9
$USERI4
 70
     0
  9
$USERI5
 70
     0
  9
$USERR1
 40
0.0
  9
$USERR2
 40
0.0
  9
$USERR3
 40
0.0
  9
$USERR4
 40
0.0
  9
$USERR5
 40
0.0
  9
$WORLDVIEW
 70
     1
  9
$SHADEDGE
 70
     3
  9
$SHADEDIF
 70
    70
  9
$TILEMODE
 70
     1
  9
$MAXACTVP
 70
    16
  9
$PINSBASE
 10
0.0
 20
0.0
 30
0.0
  9
$PLIMCHECK
 70
     0
  9
$PEXTMIN
 10
0.0
 20
0.0
 30
0.0
  9
$PEXTMAX
 10
420.0
 20
297.0
 30
0.0
  9
$PLIMMIN
 10
0.0
 20
0.0
  9
$PLIMMAX
 10
420.0
 20
297.0
  9
$UNITMODE
 70
     0
  9
$VISRETAIN
 70
     0
  9
$PLINEGEN
 70
     0
  9
$PSLTSCALE
 70
     1
  9
$TREEDEPTH
 70
  3020
  9
$CMLSTYLE
  2
STANDARD
  9
$CMLJUST
 70
     0
  9
$CMLSCALE
 40
1.0
  9
$PROXYGRAPHICS
 70
     1
  9
$MEASUREMENT
 70
     1
  9
$CELWEIGHT
370
    -1
  9
$ENDCAPS
280
     0
  9
$JOINSTYLE
280
     0
  9
$LWDISPLAY
290
     0
  9
$INSUNITS
 70
     0
  9
$HYPERLINKBASE
  1

  9
$STYLESHEET
  1
print.ctb
  9
$XEDIT
290
     1
  9
$CEPSNTYPE
380
     0
  9
$PSTYLEMODE
290
     1
  9
$FINGERPRINTGUID
  2
{8D6CB018-5425-46D7-BA3D-129D74F567FA}
  9
$VERSIONGUID
  2
{0E819F29-CC86-4A47-AE0C-992779C60670}
  9
$EXTNAMES
290
     1
  9
$PSVPSCALE
 40
0.0
  9
$OLESTARTUP
290
     0
  0
ENDSEC
  0
SECTION
  2
CLASSES
  0
CLASS
  1
ACDBDICTIONARYWDFLT
  2
AcDbDictionaryWithDefault
  3
AutoCAD 2000
 90
        0
280
     0
281
     0
  0
CLASS
  1
ACDBPLACEHOLDER
  2
AcDbPlaceHolder
  3
AutoCAD 2000
 90
        0
280
     0
281
     0
  0
CLASS
  1
LAYOUT
  2
AcDbLayout
  3
AutoCAD 2000
 90
        0
280
     0
281
     0
  0
CLASS
  1
LONG_TRANSACTION
  2
AcDbLongTransaction
  3
AutoCAD 2000
 90
    32768
280
     0
281
     0
  0
CLASS
  1
LWPOLYLINE
  2
AcDbPolyline
  3
AutoCAD 2000
 90
    32768
280
     0
281
     1
  0
CLASS
  1
HATCH
  2
AcDbHatch
  3
AutoCAD 2000
 90
    32768
280
     0
281
     1
  0
CLASS
  1
XRECORD
  2
AcDbXrecord
  3
AutoCAD 2000
 90
    32768
280
     0
281
     0
  0
CLASS
  1
LONG_TRANSACTION
  2
AcDbLongTransaction
  3
AutoCAD 2000
 90
    32768
280
     0
281
     0
  0
CLASS
  1
LWPOLYLINE
  2
AcDbPolyline
  3
AutoCAD 2000
 90
    32768
280
     0
281
     1
  0
CLASS
  1
HATCH
  2
AcDbHatch
  3
AutoCAD 2000
 90
    32768
280
     0
281
     1
  0
CLASS
  1
XRECORD
  2
AcDbXrecord
  3
AutoCAD 2000
 90
    32768
280
     0
281
     0
  0
CLASS
  1
LONG_TRANSACTION
  2
AcDbLongTransaction
  3
AutoCAD 2000
 90
    32768
280
     0
281
     0
  0
CLASS
  1
LWPOLYLINE
  2
AcDbPolyline
  3
AutoCAD 2000
 90
    32768
280
     0
281
     1
  0
CLASS
  1
HATCH
  2
AcDbHatch
  3
AutoCAD 2000
 90
    32768
280
     0
281
     1
  0
CLASS
  1
XRECORD
  2
AcDbXrecord
  3
AutoCAD 2000
 90
    32768
280
     0
281
     0
  0
CLASS
  1
LONG_TRANSACTION
  2
AcDbLongTransaction
  3
AutoCAD 2000
 90
    32768
280
     0
281
     0
  0
CLASS
  1
LWPOLYLINE
  2
AcDbPolyline
  3
AutoCAD 2000
 90
    32768
280
     0
281
     1
  0
CLASS
  1
HATCH
  2
AcDbHatch
  3
AutoCAD 2000
 90
    32768
280
     0
281
     1
  0
CLASS
  1
XRECORD
  2
AcDbXrecord
  3
AutoCAD 2000
 90
    32768
280
     0
281
     0
  0
CLASS
  1
DICTIONARYVAR
  2
AcDbDictionaryVar
  3
AutoCAD 2000
 90
        0
280
     0
281
     0
  0
CLASS
  1
LONG_TRANSACTION
  2
AcDbLongTransaction
  3
AutoCAD 2000
 90
    32768
280
     0
281
     0
  0
CLASS
  1
LWPOLYLINE
  2
AcDbPolyline
  3
AutoCAD 2000
 90
    32768
280
     0
281
     1
  0
CLASS
  1
HATCH
  2
AcDbHatch
  3
AutoCAD 2000
 90
    32768
280
     0
281
     1
  0
CLASS
  1
XRECORD
  2
AcDbXrecord
  3
AutoCAD 2000
 90
    32768
280
     0
281
     0
  0
CLASS
  1
LONG_TRANSACTION
  2
AcDbLongTransaction
  3
AutoCAD 2000
 90
    32768
280
     0
281
     0
  0
CLASS
  1
LWPOLYLINE
  2
AcDbPolyline
  3
AutoCAD 2000
 90
    32768
280
     0
281
     1
  0
CLASS
  1
HATCH
  2
AcDbHatch
  3
AutoCAD 2000
 90
    32768
280
     0
281
     1
  0
CLASS
  1
XRECORD
  2
AcDbXrecord
  3
AutoCAD 2000
 90
    32768
280
     0
281
     0
  0
CLASS
  1
LONG_TRANSACTION
  2
AcDbLongTransaction
  3
AutoCAD 2000
 90
    32768
280
     0
281
     0
  0
CLASS
  1
LWPOLYLINE
  2
AcDbPolyline
  3
AutoCAD 2000
 90
    32768
280
     0
281
     1
  0
CLASS
  1
HATCH
  2
AcDbHatch
  3
AutoCAD 2000
 90
    32768
280
     0
281
     1
  0
CLASS
  1
XRECORD
  2
AcDbXrecord
  3
AutoCAD 2000
 90
    32768
280
     0
281
     0
  0
CLASS
  1
LONG_TRANSACTION
  2
AcDbLongTransaction
  3
AutoCAD 2000
 90
    32768
280
     0
281
     0
  0
CLASS
  1
LWPOLYLINE
  2
AcDbPolyline
  3
AutoCAD 2000
 90
    32768
280
     0
281
     1
  0
CLASS
  1
HATCH
  2
AcDbHatch
  3
AutoCAD 2000
 90
    32768
280
     0
281
     1
  0
CLASS
  1
XRECORD
  2
AcDbXrecord
  3
AutoCAD 2000
 90
    32768
280
     0
281
     0
  0
CLASS
  1
LONG_TRANSACTION
  2
AcDbLongTransaction
  3
AutoCAD 2000
 90
    32768
280
     0
281
     0
  0
CLASS
  1
LWPOLYLINE
  2
AcDbPolyline
  3
AutoCAD 2000
 90
    32768
280
     0
281
     1
  0
CLASS
  1
HATCH
  2
AcDbHatch
  3
AutoCAD 2000
 90
    32768
280
     0
281
     1
  0
CLASS
  1
XRECORD
  2
AcDbXrecord
  3
AutoCAD 2000
 90
    32768
280
     0
281
     0
  0
ENDSEC
  0
SECTION
  2
TABLES
  0
TABLE
  2
VPORT
  5
8
330
0
100
AcDbSymbolTable
 70
     2
  0
VPORT
  5
2FDF
330
8
100
AcDbSymbolTableRecord
100
AcDbViewportTableRecord
  2
*Active
 70
     0
 10
0.0
 20
0.0
 11
1.0
 21
1.0
 12
419.9999999999999
 22
311.3136066706732
 13
0.0
 23
0.0
 14
5.0
 24
5.0
 15
0.0
 25
0.0
 16
0.0
 26
0.0
 36
1.0
 17
0.0
 27
0.0
 37
0.0
 40
627.0435702186698
 41
1.553475935828877
 42
50.0
 43
0.0
 44
0.0
 50
0.0
 51
0.0
 71
     0
 72
   100
 73
     1
 74
     0
 75
     0
 76
     0
 77
     0
 78
     0
281
     0
 65
     1
110
0.0
120
0.0
130
0.0
111
1.0
121
0.0
131
0.0
112
0.0
122
1.0
132
0.0
 79
     0
146
0.0
  0
ENDTAB
  0
TABLE
  2
LTYPE
  5
5
330
0
100
AcDbSymbolTable
 70
     3
  0
LTYPE
  5
14
330
5
100
AcDbSymbolTableRecord
100
AcDbLinetypeTableRecord
  2
BYBLOCK
 70
     0
  3

 72
    65
 73
     0
 40
0.0
  0
LTYPE
  5
15
330
5
100
AcDbSymbolTableRecord
100
AcDbLinetypeTableRecord
  2
BYLAYER
 70
     0
  3

 72
    65
 73
     0
 40
0.0
  0
LTYPE
  5
16
330
5
100
AcDbSymbolTableRecord
100
AcDbLinetypeTableRecord
  2
CONTINUOUS
 70
     0
  3
Solid line
 72
    65
 73
     0
 40
0.0
  0
LTYPE
  5
135
330
5
100
AcDbSymbolTableRecord
100
AcDbLinetypeTableRecord
  2
CENTER
 70
     0
  3
____ _ ____ _ ____ _ ____ _ ____ _ ____ _ ____ 
 72
    65
 73
     4
 40
2.0
 49
1.25
 74
     0
 49
-0.25
 74
     0
 49
0.25
 74
     0
 49
-0.25
 74
     0
  0
LTYPE
  5
1527
330
5
100
AcDbSymbolTableRecord
100
AcDbLinetypeTableRecord
  2
SLDSECTION0
 70
     0
  3

 72
    65
 73
     4
 40
10.16
 49
6.349999999999999
 74
     0
 49
-1.27
 74
     0
 49
1.27
 74
     0
 49
-1.27
 74
     0
  0
ENDTAB
  0
TABLE
  2
LAYER
  5
2
330
0
100
AcDbSymbolTable
 70
     9
  0
LAYER
  5
F
330
2
100
AcDbSymbolTableRecord
100
AcDbLayerTableRecord
  2
0
 70
     0
 62
     7
  6
CONTINUOUS
370
    -3
390
33F
  0
LAYER
  5
62
330
2
100
AcDbSymbolTableRecord
100
AcDbLayerTableRecord
  2
VIEWPORT
 70
     0
 62
     7
  6
CONTINUOUS
370
    -3
390
33F
  0
LAYER
  5
65
330
2
100
AcDbSymbolTableRecord
100
AcDbLayerTableRecord
  2
ZUWAKU
 70
     0
 62
     7
  6
CONTINUOUS
370
    -3
390
33F
  0
LAYER
  5
153
330
2
100
AcDbSymbolTableRecord
100
AcDbLayerTableRecord
  2
SEIHIN
 70
     0
 62
     3
  6
CONTINUOUS
370
    -3
390
33F
  0
LAYER
  5
154
330
2
100
AcDbSymbolTableRecord
100
AcDbLayerTableRecord
  2
SUNPOU
 70
     0
 62
     4
  6
CONTINUOUS
370
    -3
390
33F
  0
LAYER
  5
155
330
2
100
AcDbSymbolTableRecord
100
AcDbLayerTableRecord
  2
CENTER L
 70
     0
 62
     1
  6
CENTER
370
    -3
390
33F
  0
LAYER
  5
24D
330
2
100
AcDbSymbolTableRecord
100
AcDbLayerTableRecord
  2
DEFPOINTS
 70
     0
 62
     7
  6
CONTINUOUS
290
     0
370
    -3
390
33F
  0
LAYER
  5
59A
330
2
100
AcDbSymbolTableRecord
100
AcDbLayerTableRecord
  2
moji
 70
     0
 62
     2
  6
CONTINUOUS
370
    -3
390
33F
  0
LAYER
  5
1528
330
2
100
AcDbSymbolTableRecord
100
AcDbLayerTableRecord
  2
NOKITOI
 70
     0
 62
     9
  6
SLDSECTION0
370
    -3
390
33F
  0
ENDTAB
  0
TABLE
  2
STYLE
  5
3
330
0
100
AcDbSymbolTable
 70
     2
  0
STYLE
  5
10
330
3
100
AcDbSymbolTableRecord
100
AcDbTextStyleTableRecord
  2
STANDARD
 70
     0
 40
0.0
 41
1.0
 50
0.0
 71
     0
 42
5.0
  3
TXT
  4
bigfont.shx
  0
STYLE
  5
59B
330
3
100
AcDbSymbolTableRecord
100
AcDbTextStyleTableRecord
  2
ｽﾀｲﾙ1
 70
     0
 40
0.0
 41
1.0
 50
0.0
 71
     0
 42
2.5
  3
MS PGothic.ttf
  4

1001
ACAD
1000
MS PGothic
1071
    32818
  0
ENDTAB
  0
TABLE
  2
VIEW
  5
6
330
0
100
AcDbSymbolTable
 70
     0
  0
ENDTAB
  0
TABLE
  2
UCS
  5
7
330
0
100
AcDbSymbolTable
 70
     0
  0
ENDTAB
  0
TABLE
  2
APPID
  5
9
330
0
100
AcDbSymbolTable
 70
     1
  0
APPID
  5
11
330
9
100
AcDbSymbolTableRecord
100
AcDbRegAppTableRecord
  2
ACAD
 70
     0
  0
ENDTAB
  0
TABLE
  2
DIMSTYLE
  5
A
330
0
100
AcDbSymbolTable
 70
     1
100
AcDbDimStyleTable
 71
     0
  0
DIMSTYLE
105
1D
102
{ACAD_REACTORS
330
20DB
330
211C
330
2157
330
2168
330
21AA
330
21D6
330
21E9
330
2217
330
2218
102
}
330
A
100
AcDbSymbolTableRecord
100
AcDbDimStyleTableRecord
  2
STANDARD
 70
     0
340
10
  0
ENDTAB
  0
TABLE
  2
BLOCK_RECORD
  5
1
330
0
100
AcDbSymbolTable
 70
    11
  0
BLOCK_RECORD
  5
1A
102
{ACAD_XDICTIONARY
360
385
102
}
330
1
100
AcDbSymbolTableRecord
100
AcDbBlockTableRecord
  2
*MODEL_SPACE
340
342
  0
BLOCK_RECORD
  5
17
102
{ACAD_XDICTIONARY
360
383
102
}
330
1
100
AcDbSymbolTableRecord
100
AcDbBlockTableRecord
  2
*PAPER_SPACE
340
343
  0
BLOCK_RECORD
  5
6D
330
1
100
AcDbSymbolTableRecord
100
AcDbBlockTableRecord
  2
_OPEN
340
0
102
{BLKREFS
331
23B2
331
23B3
331
23BB
331
23BC
331
23A9
331
23AA
331
23A0
331
23A1
331
23C4
331
23C5
331
23CD
331
23CE
331
2397
331
2398
331
23D6
331
23D7
331
23DF
331
23E0
102
}
  0
BLOCK_RECORD
  5
3A4
330
1
100
AcDbSymbolTableRecord
100
AcDbBlockTableRecord
  2
*X1
340
0
102
{BLKREFS
331
6D8
102
}
  0
BLOCK_RECORD
  5
2235
330
1
100
AcDbSymbolTableRecord
100
AcDbBlockTableRecord
  2
*D2
340
0
  0
BLOCK_RECORD
  5
2241
330
1
100
AcDbSymbolTableRecord
100
AcDbBlockTableRecord
  2
*D3
340
0
  0
BLOCK_RECORD
  5
224D
330
1
100
AcDbSymbolTableRecord
100
AcDbBlockTableRecord
  2
*D4
340
0
  0
BLOCK_RECORD
  5
2259
330
1
100
AcDbSymbolTableRecord
100
AcDbBlockTableRecord
  2
*D5
340
0
  0
BLOCK_RECORD
  5
2265
330
1
100
AcDbSymbolTableRecord
100
AcDbBlockTableRecord
  2
*D6
340
0
  0
BLOCK_RECORD
  5
2271
330
1
100
AcDbSymbolTableRecord
100
AcDbBlockTableRecord
  2
*D7
340
0
  0
BLOCK_RECORD
  5
227D
330
1
100
AcDbSymbolTableRecord
100
AcDbBlockTableRecord
  2
*D8
340
0
  0
BLOCK_RECORD
  5
2289
330
1
100
AcDbSymbolTableRecord
100
AcDbBlockTableRecord
  2
*D9
340
0
  0
BLOCK_RECORD
  5
2295
330
1
100
AcDbSymbolTableRecord
100
AcDbBlockTableRecord
  2
*D10
340
0
  0
ENDTAB
  0
ENDSEC
  0
SECTION
  2
BLOCKS
  0
BLOCK
  5
1B
330
1A
100
AcDbEntity
  8
0
100
AcDbBlockBegin
  2
*MODEL_SPACE
 70
     0
 10
0.0
 20
0.0
 30
0.0
  3
*MODEL_SPACE
  1

  0
ENDBLK
  5
1C
330
1A
100
AcDbEntity
  8
0
100
AcDbBlockEnd
  0
BLOCK
  5
18
330
17
100
AcDbEntity
 67
     1
  8
0
100
AcDbBlockBegin
  2
*PAPER_SPACE
 70
     0
 10
0.0
 20
0.0
 30
0.0
  3
*PAPER_SPACE
  1

  0
ENDBLK
  5
19
330
17
100
AcDbEntity
 67
     1
  8
0
100
AcDbBlockEnd
  0
BLOCK
  5
6E
330
6D
100
AcDbEntity
  8
0
100
AcDbBlockBegin
  2
_OPEN
 70
     0
 10
0.0
 20
0.0
 30
0.0
  3
_OPEN
  1

  0
LINE
  5
6F
330
6D
100
AcDbEntity
  8
0
  6
ByBlock
 62
     0
100
AcDbLine
 10
-1.0
 20
0.1666666666666666
 30
0.0
 11
0.0
 21
0.0
 31
0.0
  0
LINE
  5
70
330
6D
100
AcDbEntity
  8
0
  6
ByBlock
 62
     0
100
AcDbLine
 10
0.0
 20
0.0
 30
0.0
 11
-1.0
 21
-0.1666666666666666
 31
0.0
  0
LINE
  5
71
330
6D
100
AcDbEntity
  8
0
  6
ByBlock
 62
     0
100
AcDbLine
 10
0.0
 20
0.0
 30
0.0
 11
-1.0
 21
0.0
 31
0.0
  0
ENDBLK
  5
72
330
6D
100
AcDbEntity
  8
0
100
AcDbBlockEnd
  0
BLOCK
  5
538
330
3A4
100
AcDbEntity
  8
0
100
AcDbBlockBegin
  2
*X1
 70
     1
 10
0.0
 20
0.0
 30
0.0
  3
*X1
  1

  0
LINE
  5
3A5
330
3A4
100
AcDbEntity
  8
0
 62
     0
100
AcDbLine
 10
66.75047808566091
 20
28.71175535310772
 30
0.0
 11
66.10464715594599
 21
29.35758628282269
 31
0.0
  0
LINE
  5
3A6
330
3A4
100
AcDbEntity
  8
0
 62
     0
100
AcDbLine
 10
66.75047808566091
 20
27.81372974100082
 30
0.0
 11
65.20662154383905
 21
29.35758628282269
 31
0.0
  0
LINE
  5
3A7
330
3A4
100
AcDbEntity
  8
0
 62
     0
100
AcDbLine
 10
66.75047808566086
 20
26.91570412889388
 30
0.0
 11
64.32934413964591
 21
29.33683807490882
 31
0.0
  0
LINE
  5
3A8
330
3A4
100
AcDbEntity
  8
0
 62
     0
100
AcDbLine
 10
66.75047808566091
 20
26.01767851678704
 30
0.0
 11
63.95047808566085
 21
28.81767851678705
 31
0.0
  0
LINE
  5
3A9
330
3A4
100
AcDbEntity
  8
0
 62
     0
100
AcDbLine
 10
66.75047808566091
 20
25.11965290468009
 30
0.0
 11
63.95047808566085
 21
27.91965290468016
 31
0.0
  0
LINE
  5
3AA
330
3A4
100
AcDbEntity
  8
0
 62
     0
100
AcDbLine
 10
66.75047808566086
 20
24.22162729257314
 30
0.0
 11
63.95047808566079
 21
27.02162729257321
 31
0.0
  0
LINE
  5
3AB
330
3A4
100
AcDbEntity
  8
0
 62
     0
100
AcDbLine
 10
61.85047808566082
 20
28.22360168046634
 30
0.0
 11
60.71649348330453
 21
29.35758628282269
 31
0.0
  0
LINE
  5
3AC
330
3A4
100
AcDbEntity
  8
0
 62
     0
100
AcDbLine
 10
66.75047808566091
 20
23.32360168046631
 30
0.0
 11
63.95047808566085
 21
26.12360168046638
 31
0.0
  0
LINE
  5
3AD
330
3A4
100
AcDbEntity
  8
0
 62
     0
100
AcDbLine
 10
61.85047808566082
 20
27.32557606835945
 30
0.0
 11
59.81846787119758
 21
29.35758628282263
 31
0.0
  0
LINE
  5
3AE
330
3A4
100
AcDbEntity
  8
0
 62
     0
100
AcDbLine
 10
66.75047808566086
 20
22.42557606835936
 30
0.0
 11
63.95047808566085
 21
25.22557606835943
 31
0.0
  0
LINE
  5
3AF
330
3A4
100
AcDbEntity
  8
0
 62
     0
100
AcDbLine
 10
61.85047808566082
 20
26.4275504562525
 30
0.0
 11
59.14496712052375
 21
29.13306142138958
 31
0.0
  0
LINE
  5
3B0
330
3A4
100
AcDbEntity
  8
0
 62
     0
100
AcDbLine
 10
66.75047808566086
 20
21.52755045625247
 30
0.0
 11
63.95047808566079
 21
24.32755045625248
 31
0.0
  0
LINE
  5
3B1
330
3A4
100
AcDbEntity
  8
0
 62
     0
100
AcDbLine
 10
61.85047808566094
 20
25.5295248441455
 30
0.0
 11
59.05047808566076
 21
28.32952484414562
 31
0.0
  0
LINE
  5
3B2
330
3A4
100
AcDbEntity
  8
0
 62
     0
100
AcDbLine
 10
66.75047808566091
 20
20.62952484414552
 30
0.0
 11
63.95047808566085
 21
23.42952484414559
 31
0.0
  0
LINE
  5
3B3
330
3A4
100
AcDbEntity
  8
0
 62
     0
100
AcDbLine
 10
61.85047808566088
 20
24.6314992320386
 30
0.0
 11
59.05047808566076
 21
27.43149923203878
 31
0.0
  0
LINE
  5
3B4
330
3A4
100
AcDbEntity
  8
0
 62
     0
100
AcDbLine
 10
66.75047808566086
 20
19.73149923203862
 30
0.0
 11
63.95047808566079
 21
22.53149923203869
 31
0.0
  0
LINE
  5
3B5
330
3A4
100
AcDbEntity
  8
0
 62
     0
100
AcDbLine
 10
61.85047808566088
 20
23.73347361993171
 30
0.0
 11
59.05047808566076
 21
26.53347361993183
 31
0.0
  0
LINE
  5
3B6
330
3A4
100
AcDbEntity
  8
0
 62
     0
100
AcDbLine
 10
66.75047808566086
 20
18.83347361993173
 30
0.0
 11
63.95047808566079
 21
21.6334736199318
 31
0.0
  0
LINE
  5
3B7
330
3A4
100
AcDbEntity
  8
0
 62
     0
100
AcDbLine
 10
61.85047808566082
 20
22.83544800782476
 30
0.0
 11
59.0504780856607
 21
25.63544800782489
 31
0.0
  0
LINE
  5
3B8
330
3A4
100
AcDbEntity
  8
0
 62
     0
100
AcDbLine
 10
66.7504780856608
 20
17.93544800782479
 30
0.0
 11
63.95047808566079
 21
20.73544800782485
 31
0.0
  0
LINE
  5
3B9
330
3A4
100
AcDbEntity
  8
0
 62
     0
100
AcDbLine
 10
61.85047808566088
 20
21.93742239571793
 30
0.0
 11
59.05047808566076
 21
24.73742239571805
 31
0.0
  0
LINE
  5
3BA
330
3A4
100
AcDbEntity
  8
0
 62
     0
100
AcDbLine
 10
55.55047808566081
 20
28.23742239571799
 30
0.0
 11
54.43031419855618
 21
29.35758628282263
 31
0.0
  0
LINE
  5
3BB
330
3A4
100
AcDbEntity
  8
0
 62
     0
100
AcDbLine
 10
66.75047808566086
 20
17.03742239571795
 30
0.0
 11
63.95047808566079
 21
19.83742239571796
 31
0.0
  0
LINE
  5
3BC
330
3A4
100
AcDbEntity
  8
0
 62
     0
100
AcDbLine
 10
61.85047808566088
 20
21.03939678361098
 30
0.0
 11
59.0504780856607
 21
23.8393967836111
 31
0.0
  0
LINE
  5
3BD
330
3A4
100
AcDbEntity
  8
0
 62
     0
100
AcDbLine
 10
55.55047808566076
 20
27.33939678361105
 30
0.0
 11
53.53228858644922
 21
29.35758628282263
 31
0.0
  0
LINE
  5
3BE
330
3A4
100
AcDbEntity
  8
0
 62
     0
100
AcDbLine
 10
66.75047808566086
 20
16.139396783611
 30
0.0
 11
63.95047808566079
 21
18.93939678361107
 31
0.0
  0
LINE
  5
3BF
330
3A4
100
AcDbEntity
  8
0
 62
     0
100
AcDbLine
 10
61.85047808566082
 20
20.14137117150409
 30
0.0
 11
59.05047808566076
 21
22.9413711715041
 31
0.0
  0
LINE
  5
3C0
330
3A4
100
AcDbEntity
  8
0
 62
     0
100
AcDbLine
 10
55.55047808566076
 20
26.44137117150416
 30
0.0
 11
52.85071536233676
 21
29.14113389482816
 31
0.0
  0
LINE
  5
3C1
330
3A4
100
AcDbEntity
  8
0
 62
     0
100
AcDbLine
 10
66.7504780856608
 20
15.24137117150411
 30
0.0
 11
63.95047808566073
 21
18.04137117150412
 31
0.0
  0
LINE
  5
3C2
330
3A4
100
AcDbEntity
  8
0
 62
     0
100
AcDbLine
 10
61.85047808566088
 20
19.24334555939714
 30
0.0
 11
59.05047808566081
 21
22.04334555939721
 31
0.0
  0
LINE
  5
3C3
330
3A4
100
AcDbEntity
  8
0
 62
     0
100
AcDbLine
 10
55.55047808566081
 20
25.54334555939721
 30
0.0
 11
52.7504780856608
 21
28.34334555939722
 31
0.0
  0
LINE
  5
3C4
330
3A4
100
AcDbEntity
  8
0
 62
     0
100
AcDbLine
 10
66.75047808566086
 20
14.34334555939716
 30
0.0
 11
63.95047808566079
 21
17.14334555939723
 31
0.0
  0
LINE
  5
3C5
330
3A4
100
AcDbEntity
  8
0
 62
     0
100
AcDbLine
 10
61.85047808566082
 20
18.34531994729024
 30
0.0
 11
59.05047808566081
 21
21.14531994729031
 31
0.0
  0
LINE
  5
3C6
330
3A4
100
AcDbEntity
  8
0
 62
     0
100
AcDbLine
 10
55.55047808566087
 20
24.64531994729026
 30
0.0
 11
52.7504780856608
 21
27.44531994729033
 31
0.0
  0
LINE
  5
3C7
330
3A4
100
AcDbEntity
  8
0
 62
     0
100
AcDbLine
 10
66.67851273077104
 20
13.51728530218008
 30
0.0
 11
63.95047808566079
 21
16.24531994729034
 31
0.0
  0
LINE
  5
3C8
330
3A4
100
AcDbEntity
  8
0
 62
     0
100
AcDbLine
 10
61.85047808566088
 20
17.44729433518324
 30
0.0
 11
59.05047808566076
 21
20.24729433518337
 31
0.0
  0
LINE
  5
3C9
330
3A4
100
AcDbEntity
  8
0
 62
     0
100
AcDbLine
 10
55.55047808566081
 20
23.74729433518337
 30
0.0
 11
52.75047808566075
 21
26.54729433518338
 31
0.0
  0
LINE
  5
3CA
330
3A4
100
AcDbEntity
  8
0
 62
     0
100
AcDbLine
 10
66.04018613802157
 20
13.25758628282261
 30
0.0
 11
63.95047808566073
 21
15.34729433518345
 31
0.0
  0
LINE
  5
3CB
330
3A4
100
AcDbEntity
  8
0
 62
     0
100
AcDbLine
 10
55.55047808566081
 20
22.84926872307642
 30
0.0
 11
52.75047808566075
 21
25.64926872307649
 31
0.0
  0
LINE
  5
3CC
330
3A4
100
AcDbEntity
  8
0
 62
     0
100
AcDbLine
 10
61.85047808566088
 20
16.54926872307635
 30
0.0
 11
59.05047808566076
 21
19.34926872307647
 31
0.0
  0
LINE
  5
3CD
330
3A4
100
AcDbEntity
  8
0
 62
     0
100
AcDbLine
 10
50.1254780856608
 20
28.27426872307643
 30
0.0
 11
49.04216052591465
 21
29.35758628282252
 31
0.0
  0
LINE
  5
3CE
330
3A4
100
AcDbEntity
  8
0
 62
     0
100
AcDbLine
 10
65.14216052591468
 20
13.2575862828225
 30
0.0
 11
63.95047808566073
 21
14.4492687230765
 31
0.0
  0
LINE
  5
3CF
330
3A4
100
AcDbEntity
  8
0
 62
     0
100
AcDbLine
 10
55.55047808566081
 20
21.95124311096952
 30
0.0
 11
52.75047808566085
 21
24.75124311096954
 31
0.0
  0
LINE
  5
3D0
330
3A4
100
AcDbEntity
  8
0
 62
     0
100
AcDbLine
 10
50.1254780856608
 20
27.37624311096954
 30
0.0
 11
48.14413491380782
 21
29.35758628282258
 31
0.0
  0
LINE
  5
3D1
330
3A4
100
AcDbEntity
  8
0
 62
     0
100
AcDbLine
 10
61.82451978501529
 20
15.6772014116151
 30
0.0
 11
59.05047808566076
 21
18.45124311096958
 31
0.0
  0
LINE
  5
3D2
330
3A4
100
AcDbEntity
  8
0
 62
     0
100
AcDbLine
 10
55.55047808566081
 20
21.05321749886263
 30
0.0
 11
52.75047808566085
 21
23.85321749886259
 31
0.0
  0
LINE
  5
3D3
330
3A4
100
AcDbEntity
  8
0
 62
     0
100
AcDbLine
 10
49.92989753954697
 20
26.67379804497647
 30
0.0
 11
47.24610930170081
 21
29.35758628282263
 31
0.0
  0
LINE
  5
3D4
330
3A4
100
AcDbEntity
  8
0
 62
     0
100
AcDbLine
 10
61.63153448975805
 20
14.97216109476534
 30
0.0
 11
59.05047808566076
 21
17.55321749886269
 31
0.0
  0
LINE
  5
3D5
330
3A4
100
AcDbEntity
  8
0
 62
     0
100
AcDbLine
 10
55.55047808566081
 20
20.15519188675568
 30
0.0
 11
52.7504780856608
 21
22.95519188675569
 31
0.0
  0
LINE
  5
3D6
330
3A4
100
AcDbEntity
  8
0
 62
     0
100
AcDbLine
 10
49.14808368959382
 20
26.55758628282262
 30
0.0
 11
46.34808368959392
 21
29.35758628282252
 31
0.0
  0
LINE
  5
3D7
330
3A4
100
AcDbEntity
  8
0
 62
     0
100
AcDbLine
 10
61.30650261383448
 20
14.39916735858196
 30
0.0
 11
58.97896234650125
 21
16.72670762591525
 31
0.0
  0
LINE
  5
3D8
330
3A4
100
AcDbEntity
  8
0
 62
     0
100
AcDbLine
 10
55.55047808566081
 20
19.25716627464885
 30
0.0
 11
52.75047808566085
 21
22.0571662746488
 31
0.0
  0
LINE
  5
3D9
330
3A4
100
AcDbEntity
  8
0
 62
     0
100
AcDbLine
 10
48.25005807748704
 20
26.55758628282256
 30
0.0
 11
45.5124913483096
 21
29.29515301200007
 31
0.0
  0
LINE
  5
3DA
330
3A4
100
AcDbEntity
  8
0
 62
     0
100
AcDbLine
 10
60.87446081650944
 20
13.93318354380016
 30
0.0
 11
58.57737670803373
 21
16.23026765227587
 31
0.0
  0
LINE
  5
3DB
330
3A4
100
AcDbEntity
  8
0
 62
     0
100
AcDbLine
 10
55.55047808566081
 20
18.3591406625419
 30
0.0
 11
52.7504780856608
 21
21.15914066254185
 31
0.0
  0
LINE
  5
3DC
330
3A4
100
AcDbEntity
  8
0
 62
     0
100
AcDbLine
 10
47.35203246538015
 20
26.55758628282256
 30
0.0
 11
44.8478509237762
 21
29.06176782442645
 31
0.0
  0
LINE
  5
3DD
330
3A4
100
AcDbEntity
  8
0
 62
     0
100
AcDbLine
 10
60.33829847158341
 20
13.5713202766193
 30
0.0
 11
57.85203246538014
 21
16.05758628282257
 31
0.0
  0
LINE
  5
3DE
330
3A4
100
AcDbEntity
  8
0
 62
     0
100
AcDbLine
 10
55.55047808566076
 20
17.46111505043495
 30
0.0
 11
52.7504780856608
 21
20.26111505043496
 31
0.0
  0
LINE
  5
3DF
330
3A4
100
AcDbEntity
  8
0
 62
     0
100
AcDbLine
 10
46.47579668129123
 20
26.53579645480448
 30
0.0
 11
44.30524998656602
 21
28.70634314952969
 31
0.0
  0
LINE
  5
3E0
330
3A4
100
AcDbEntity
  8
0
 62
     0
100
AcDbLine
 10
59.68188591167211
 20
13.32970722442365
 30
0.0
 11
56.95400685327314
 21
16.05758628282262
 31
0.0
  0
LINE
  5
3E1
330
3A4
100
AcDbEntity
  8
0
 62
     0
100
AcDbLine
 10
46.10047808566088
 20
26.01308943832788
 30
0.0
 11
43.86713792752146
 21
28.24642959646729
 31
0.0
  0
LINE
  5
3E2
330
3A4
100
AcDbEntity
  8
0
 62
     0
100
AcDbLine
 10
58.85598124116626
 20
13.25758628282255
 30
0.0
 11
52.7504780856608
 21
19.36308943832801
 31
0.0
  0
LINE
  5
3E3
330
3A4
100
AcDbEntity
  8
0
 62
     0
100
AcDbLine
 10
46.10047808566088
 20
25.1150638262211
 30
0.0
 11
43.53536701516844
 21
27.68017489671354
 31
0.0
  0
LINE
  5
3E4
330
3A4
100
AcDbEntity
  8
0
 62
     0
100
AcDbLine
 10
57.95795562905937
 20
13.25758628282255
 30
0.0
 11
52.7504780856608
 21
18.46506382622118
 31
0.0
  0
LINE
  5
3E5
330
3A4
100
AcDbEntity
  8
0
 62
     0
100
AcDbLine
 10
46.30702236676467
 20
24.01049393301036
 30
0.0
 11
43.33318849580433
 21
26.98432780397064
 31
0.0
  0
LINE
  5
3E6
330
3A4
100
AcDbEntity
  8
0
 62
     0
100
AcDbLine
 10
57.05993001695247
 20
13.25758628282255
 30
0.0
 11
52.7504780856608
 21
17.56703821411423
 31
0.0
  0
LINE
  5
3E7
330
3A4
100
AcDbEntity
  8
0
 62
     0
100
AcDbLine
 10
50.52408178835225
 20
18.89540889931583
 30
0.0
 11
43.30047808566075
 21
26.11901260200733
 31
0.0
  0
LINE
  5
3E8
330
3A4
100
AcDbEntity
  8
0
 62
     0
100
AcDbLine
 10
41.20047808566073
 20
28.21901260200729
 30
0.0
 11
40.06190440484544
 21
29.35758628282263
 31
0.0
  0
LINE
  5
3E9
330
3A4
100
AcDbEntity
  8
0
 62
     0
100
AcDbLine
 10
56.16190440484553
 20
13.25758628282255
 30
0.0
 11
52.75047808566075
 21
16.66901260200728
 31
0.0
  0
LINE
  5
3EA
330
3A4
100
AcDbEntity
  8
0
 62
     0
100
AcDbLine
 10
50.65047808566089
 20
17.87098698990035
 30
0.0
 11
43.30047808566081
 21
25.22098698990044
 31
0.0
  0
LINE
  5
3EB
330
3A4
100
AcDbEntity
  8
0
 62
     0
100
AcDbLine
 10
41.20047808566084
 20
27.32098698990034
 30
0.0
 11
39.16387879273855
 21
29.35758628282269
 31
0.0
  0
LINE
  5
3EC
330
3A4
100
AcDbEntity
  8
0
 62
     0
100
AcDbLine
 10
55.24743091399376
 20
13.2740341615675
 30
0.0
 11
52.76692596440574
 21
15.7545391111555
 31
0.0
  0
LINE
  5
3ED
330
3A4
100
AcDbEntity
  8
0
 62
     0
100
AcDbLine
 10
41.20047808566084
 20
26.42296137779345
 30
0.0
 11
38.49308819788552
 21
29.13035126556872
 31
0.0
  0
LINE
  5
3EE
330
3A4
100
AcDbEntity
  8
0
 62
     0
100
AcDbLine
 10
50.65047808566084
 20
16.97296137779341
 30
0.0
 11
43.3238887535432
 21
24.2995507099111
 31
0.0
  0
LINE
  5
3EF
330
3A4
100
AcDbEntity
  8
0
 62
     0
100
AcDbLine
 10
41.20047808566084
 20
25.5249357656865
 30
0.0
 11
38.40047808566078
 21
28.32493576568657
 31
0.0
  0
LINE
  5
3F0
330
3A4
100
AcDbEntity
  8
0
 62
     0
100
AcDbLine
 10
50.65047808566072
 20
16.07493576568657
 30
0.0
 11
43.64200817138322
 21
23.08340567996413
 31
0.0
  0
LINE
  5
3F1
330
3A4
100
AcDbEntity
  8
0
 62
     0
100
AcDbLine
 10
41.20047808566084
 20
24.62691015357961
 30
0.0
 11
38.40047808566078
 21
27.42691015357962
 31
0.0
  0
LINE
  5
3F2
330
3A4
100
AcDbEntity
  8
0
 62
     0
100
AcDbLine
 10
50.54191626807176
 20
15.2854719711687
 30
0.0
 11
47.84628147903345
 21
17.98110676020701
 31
0.0
  0
LINE
  5
3F3
330
3A4
100
AcDbEntity
  8
0
 62
     0
100
AcDbLine
 10
41.20047808566084
 20
23.72888454147272
 30
0.0
 11
38.40047808566078
 21
26.52888454147279
 31
0.0
  0
LINE
  5
3F4
330
3A4
100
AcDbEntity
  8
0
 62
     0
100
AcDbLine
 10
36.10899118508382
 20
28.82037144204969
 30
0.0
 11
35.57177634431093
 21
29.35758628282263
 31
0.0
  0
LINE
  5
3F5
330
3A4
100
AcDbEntity
  8
0
 62
     0
100
AcDbLine
 10
50.2740405603102
 20
14.65532206682337
 30
0.0
 11
47.85047808566088
 21
17.07888454147268
 31
0.0
  0
LINE
  5
3F6
330
3A4
100
AcDbEntity
  8
0
 62
     0
100
AcDbLine
 10
41.20047808566079
 20
22.83085892936577
 30
0.0
 11
38.40047808566078
 21
25.63085892936584
 31
0.0
  0
LINE
  5
3F7
330
3A4
100
AcDbEntity
  8
0
 62
     0
100
AcDbLine
 10
35.91006352083121
 20
28.12127349419535
 30
0.0
 11
34.67375073220398
 21
29.35758628282263
 31
0.0
  0
LINE
  5
3F8
330
3A4
100
AcDbEntity
  8
0
 62
     0
100
AcDbLine
 10
49.8910537621349
 20
14.14028325289172
 30
0.0
 11
47.75319290277439
 21
16.27814411225222
 31
0.0
  0
LINE
  5
3F9
330
3A4
100
AcDbEntity
  8
0
 62
     0
100
AcDbLine
 10
41.20047808566079
 20
21.93283331725888
 30
0.0
 11
38.40047808566072
 21
24.73283331725889
 31
0.0
  0
LINE
  5
3FA
330
3A4
100
AcDbEntity
  8
0
 62
     0
100
AcDbLine
 10
35.69453737392553
 20
27.43877402899409
 30
0.0
 11
33.78532181045494
 21
29.34798959246473
 31
0.0
  0
LINE
  5
3FB
330
3A4
100
AcDbEntity
  8
0
 62
     0
100
AcDbLine
 10
49.40473479701927
 20
13.72857660590034
 30
0.0
 11
47.07572512009704
 21
16.05758628282262
 31
0.0
  0
LINE
  5
3FC
330
3A4
100
AcDbEntity
  8
0
 62
     0
100
AcDbLine
 10
41.20047808566084
 20
21.03480770515198
 30
0.0
 11
38.40047808566078
 21
23.83480770515205
 31
0.0
  0
LINE
  5
3FD
330
3A4
100
AcDbEntity
  8
0
 62
     0
100
AcDbLine
 10
35.47901122702
 20
26.75627456379283
 30
0.0
 11
33.35101122701996
 21
28.88427456379287
 31
0.0
  0
LINE
  5
3FE
330
3A4
100
AcDbEntity
  8
0
 62
     0
100
AcDbLine
 10
48.8086508485589
 20
13.42663494225388
 30
0.0
 11
46.17769950799015
 21
16.05758628282268
 31
0.0
  0
LINE
  5
3FF
330
3A4
100
AcDbEntity
  8
0
 62
     0
100
AcDbLine
 10
41.20047808566079
 20
20.13678209304509
 30
0.0
 11
38.40047808566072
 21
22.9367820930451
 31
0.0
  0
LINE
  5
400
330
3A4
100
AcDbEntity
  8
0
 62
     0
100
AcDbLine
 10
35.26348508011415
 20
26.07377509859174
 30
0.0
 11
33.13548508011416
 21
28.20177509859172
 31
0.0
  0
LINE
  5
401
330
3A4
100
AcDbEntity
  8
0
 62
     0
100
AcDbLine
 10
48.07097819691143
 20
13.26628198179446
 30
0.0
 11
45.27967389588326
 21
16.05758628282262
 31
0.0
  0
LINE
  5
402
330
3A4
100
AcDbEntity
  8
0
 62
     0
100
AcDbLine
 10
41.20047808566079
 20
19.23875648093815
 30
0.0
 11
38.40047808566078
 21
22.0387564809381
 31
0.0
  0
LINE
  5
403
330
3A4
100
AcDbEntity
  8
0
 62
     0
100
AcDbLine
 10
35.04795893320857
 20
25.39127563339036
 30
0.0
 11
32.91995893320847
 21
27.5192756333904
 31
0.0
  0
LINE
  5
404
330
3A4
100
AcDbEntity
  8
0
 62
     0
100
AcDbLine
 10
47.18164828377638
 20
13.25758628282255
 30
0.0
 11
44.38164828377631
 21
16.05758628282262
 31
0.0
  0
LINE
  5
405
330
3A4
100
AcDbEntity
  8
0
 62
     0
100
AcDbLine
 10
41.20047808566079
 20
18.34073086883125
 30
0.0
 11
38.40047808566083
 21
21.14073086883127
 31
0.0
  0
LINE
  5
406
330
3A4
100
AcDbEntity
  8
0
 62
     0
100
AcDbLine
 10
34.83243278630294
 20
24.70877616818916
 30
0.0
 11
32.70443278630284
 21
26.8367761681892
 31
0.0
  0
LINE
  5
407
330
3A4
100
AcDbEntity
  8
0
 62
     0
100
AcDbLine
 10
46.28362267166949
 20
13.25758628282261
 30
0.0
 11
43.8500109743731
 21
15.691197980119
 31
0.0
  0
LINE
  5
408
330
3A4
100
AcDbEntity
  8
0
 62
     0
100
AcDbLine
 10
34.61690663939731
 20
24.02627670298778
 30
0.0
 11
32.48890663939721
 21
26.15427670298794
 31
0.0
  0
LINE
  5
409
330
3A4
100
AcDbEntity
  8
0
 62
     0
100
AcDbLine
 10
41.20047808566079
 20
17.44270525672436
 30
0.0
 11
38.40047808566083
 21
20.24270525672432
 31
0.0
  0
LINE
  5
40A
330
3A4
100
AcDbEntity
  8
0
 62
     0
100
AcDbLine
 10
30.35047808566082
 20
28.29270525672433
 30
0.0
 11
29.28559705956251
 21
29.35758628282258
 31
0.0
  0
LINE
  5
40B
330
3A4
100
AcDbEntity
  8
0
 62
     0
100
AcDbLine
 10
45.38559705956259
 20
13.25758628282255
 30
0.0
 11
43.82547808566084
 21
14.8177052567243
 31
0.0
  0
LINE
  5
40C
330
3A4
100
AcDbEntity
  8
0
 62
     0
100
AcDbLine
 10
34.40138049249151
 20
23.34377723778669
 30
0.0
 11
32.27338049249158
 21
25.47177723778662
 31
0.0
  0
LINE
  5
40D
330
3A4
100
AcDbEntity
  8
0
 62
     0
100
AcDbLine
 10
41.20047808566079
 20
16.54467964461741
 30
0.0
 11
38.40047808566078
 21
19.34467964461743
 31
0.0
  0
LINE
  5
40E
330
3A4
100
AcDbEntity
  8
0
 62
     0
100
AcDbLine
 10
30.35047808566082
 20
27.39467964461738
 30
0.0
 11
28.38757144745562
 21
29.35758628282258
 31
0.0
  0
LINE
  5
40F
330
3A4
100
AcDbEntity
  8
0
 62
     0
100
AcDbLine
 10
44.48757144745559
 20
13.25758628282261
 30
0.0
 11
43.82547808566079
 21
13.91967964461736
 31
0.0
  0
LINE
  5
410
330
3A4
100
AcDbEntity
  8
0
 62
     0
100
AcDbLine
 10
34.18585434558588
 20
22.66127777258537
 30
0.0
 11
32.05785434558583
 21
24.78927777258542
 31
0.0
  0
LINE
  5
411
330
3A4
100
AcDbEntity
  8
0
 62
     0
100
AcDbLine
 10
30.35047808566076
 20
26.49665403251043
 30
0.0
 11
27.67503315676316
 21
29.17209896140809
 31
0.0
  0
LINE
  5
412
330
3A4
100
AcDbEntity
  8
0
 62
     0
100
AcDbLine
 10
41.20047808566073
 20
15.64665403251052
 30
0.0
 11
38.40047808566078
 21
18.44665403251048
 31
0.0
  0
LINE
  5
413
330
3A4
100
AcDbEntity
  8
0
 62
     0
100
AcDbLine
 10
33.97032819868025
 20
21.97877830738417
 30
0.0
 11
31.84232819868026
 21
24.10677830738416
 31
0.0
  0
LINE
  5
414
330
3A4
100
AcDbEntity
  8
0
 62
     0
100
AcDbLine
 10
30.35047808566082
 20
25.59862842040359
 30
0.0
 11
27.55047808566075
 21
28.39862842040361
 31
0.0
  0
LINE
  5
415
330
3A4
100
AcDbEntity
  8
0
 62
     0
100
AcDbLine
 10
41.20047808566079
 20
14.74862842040363
 30
0.0
 11
38.40047808566078
 21
17.54862842040358
 31
0.0
  0
LINE
  5
416
330
3A4
100
AcDbEntity
  8
0
 62
     0
100
AcDbLine
 10
33.76523968928819
 20
21.28584120466928
 30
0.0
 11
31.62680205177451
 21
23.42427884218295
 31
0.0
  0
LINE
  5
417
330
3A4
100
AcDbEntity
  8
0
 62
     0
100
AcDbLine
 10
30.35047808566082
 20
24.70060280829665
 30
0.0
 11
27.55047808566075
 21
27.50060280829671
 31
0.0
  0
LINE
  5
418
330
3A4
100
AcDbEntity
  8
0
 62
     0
100
AcDbLine
 10
41.20047808566073
 20
13.85060280829668
 30
0.0
 11
38.40047808566078
 21
16.65060280829669
 31
0.0
  0
LINE
  5
419
330
3A4
100
AcDbEntity
  8
0
 62
     0
100
AcDbLine
 10
34.17971304872219
 20
19.97334223312833
 30
0.0
 11
31.33625455608989
 21
22.81680072576063
 31
0.0
  0
LINE
  5
41A
330
3A4
100
AcDbEntity
  8
0
 62
     0
100
AcDbLine
 10
30.35047808566088
 20
23.80257719618964
 30
0.0
 11
27.5504780856607
 21
26.60257719618977
 31
0.0
  0
LINE
  5
41B
330
3A4
100
AcDbEntity
  8
0
 62
     0
100
AcDbLine
 10
40.8614330883284
 20
13.29162219352207
 30
0.0
 11
38.40047808566078
 21
15.75257719618974
 31
0.0
  0
LINE
  5
41C
330
3A4
100
AcDbEntity
  8
0
 62
     0
100
AcDbLine
 10
34.59418640815619
 20
18.6608432615875
 30
0.0
 11
27.55047808566075
 21
25.70455158408293
 31
0.0
  0
LINE
  5
41D
330
3A4
100
AcDbEntity
  8
0
 62
     0
100
AcDbLine
 10
25.10047808566088
 20
28.15455158408281
 30
0.0
 11
23.89744338692111
 21
29.35758628282258
 31
0.0
  0
LINE
  5
41E
330
3A4
100
AcDbEntity
  8
0
 62
     0
100
AcDbLine
 10
39.99744338692113
 20
13.25758628282255
 30
0.0
 11
38.40047808566089
 21
14.8545515840828
 31
0.0
  0
LINE
  5
41F
330
3A4
100
AcDbEntity
  8
0
 62
     0
100
AcDbLine
 10
35.00865976759024
 20
17.34834429004649
 30
0.0
 11
27.55047808566075
 21
24.80652597197599
 31
0.0
  0
LINE
  5
420
330
3A4
100
AcDbEntity
  8
0
 62
     0
100
AcDbLine
 10
25.10047808566088
 20
27.25652597197586
 30
0.0
 11
22.9994177748141
 21
29.35758628282263
 31
0.0
  0
LINE
  5
421
330
3A4
100
AcDbEntity
  8
0
 62
     0
100
AcDbLine
 10
39.09941777481418
 20
13.2575862828225
 30
0.0
 11
38.40047808566083
 21
13.9565259719759
 31
0.0
  0
LINE
  5
422
330
3A4
100
AcDbEntity
  8
0
 62
     0
100
AcDbLine
 10
24.83357139027077
 20
26.62540705525902
 30
0.0
 11
22.13334967205935
 21
29.32562877347038
 31
0.0
  0
LINE
  5
423
330
3A4
100
AcDbEntity
  8
0
 62
     0
100
AcDbLine
 10
35.42313312702418
 20
16.0358453185056
 30
0.0
 11
27.55047808566081
 21
23.90850035986898
 31
0.0
  0
LINE
  5
424
330
3A4
100
AcDbEntity
  8
0
 62
     0
100
AcDbLine
 10
30.68798700800243
 20
19.87296582542046
 30
0.0
 11
27.55047808566081
 21
23.01047474776209
 31
0.0
  0
LINE
  5
425
330
3A4
100
AcDbEntity
  8
0
 62
     0
100
AcDbLine
 10
24.00336655060033
 20
26.55758628282251
 30
0.0
 11
21.39530660247209
 21
29.16564623095081
 31
0.0
  0
LINE
  5
426
330
3A4
100
AcDbEntity
  8
0
 62
     0
100
AcDbLine
 10
35.83760648645824
 20
14.72334634696466
 30
0.0
 11
31.74529879415013
 21
18.81565403927277
 31
0.0
  0
LINE
  5
427
330
3A4
100
AcDbEntity
  8
0
 62
     0
100
AcDbLine
 10
30.35047808566088
 20
19.31244913565512
 30
0.0
 11
27.55047808566081
 21
22.11244913565519
 31
0.0
  0
LINE
  5
428
330
3A4
100
AcDbEntity
  8
0
 62
     0
100
AcDbLine
 10
23.10534093849332
 20
26.55758628282262
 30
0.0
 11
20.75658518664135
 21
28.90634203467459
 31
0.0
  0
LINE
  5
429
330
3A4
100
AcDbEntity
  8
0
 62
     0
100
AcDbLine
 10
36.07264534416884
 20
13.5902818771471
 30
0.0
 11
32.15977215358407
 21
17.50315506773193
 31
0.0
  0
LINE
  5
42A
330
3A4
100
AcDbEntity
  8
0
 62
     0
100
AcDbLine
 10
30.35047808566082
 20
18.41442352354823
 30
0.0
 11
27.55047808566075
 21
21.21442352354824
 31
0.0
  0
LINE
  5
42B
330
3A4
100
AcDbEntity
  8
0
 62
     0
100
AcDbLine
 10
22.26222743594979
 20
26.50267417325926
 30
0.0
 11
20.19783621130682
 21
28.56706539790224
 31
0.0
  0
LINE
  5
42C
330
3A4
100
AcDbEntity
  8
0
 62
     0
100
AcDbLine
 10
35.5073153263865
 20
13.25758628282255
 30
0.0
 11
32.57424551301812
 21
16.19065609619087
 31
0.0
  0
LINE
  5
42D
330
3A4
100
AcDbEntity
  8
0
 62
     0
100
AcDbLine
 10
30.35047808566082
 20
17.51639791144128
 30
0.0
 11
27.55047808566075
 21
20.31639791144135
 31
0.0
  0
LINE
  5
42E
330
3A4
100
AcDbEntity
  8
0
 62
     0
100
AcDbLine
 10
21.6903712431108
 20
26.1765047539913
 30
0.0
 11
19.71018100269503
 21
28.15669499440707
 31
0.0
  0
LINE
  5
42F
330
3A4
100
AcDbEntity
  8
0
 62
     0
100
AcDbLine
 10
34.60928971427955
 20
13.25758628282255
 30
0.0
 11
32.98871887245207
 21
14.87815712465004
 31
0.0
  0
LINE
  5
430
330
3A4
100
AcDbEntity
  8
0
 62
     0
100
AcDbLine
 10
25.43590721845856
 20
21.53294316653671
 30
0.0
 11
23.92583496937481
 21
23.04301541562046
 31
0.0
  0
LINE
  5
431
330
3A4
100
AcDbEntity
  8
0
 62
     0
100
AcDbLine
 10
30.35047808566094
 20
16.61837229933434
 30
0.0
 11
27.55047808566081
 21
19.41837229933446
 31
0.0
  0
LINE
  5
432
330
3A4
100
AcDbEntity
  8
0
 62
     0
100
AcDbLine
 10
21.33424967298185
 20
25.63460071201342
 30
0.0
 11
19.2908149766838
 21
27.67803540831147
 31
0.0
  0
LINE
  5
433
330
3A4
100
AcDbEntity
  8
0
 62
     0
100
AcDbLine
 10
33.66093109796804
 20
13.30791928702723
 30
0.0
 11
33.41057692637673
 21
13.55827345861854
 31
0.0
  0
LINE
  5
434
330
3A4
100
AcDbEntity
  8
0
 62
     0
100
AcDbLine
 10
25.34939355831665
 20
20.72143121457167
 30
0.0
 11
23.11432301740978
 21
22.95650175547854
 31
0.0
  0
LINE
  5
435
330
3A4
100
AcDbEntity
  8
0
 62
     0
100
AcDbLine
 10
21.25047808566091
 20
24.82034668722741
 30
0.0
 11
18.94187595572214
 21
27.12894881716619
 31
0.0
  0
LINE
  5
436
330
3A4
100
AcDbEntity
  8
0
 62
     0
100
AcDbLine
 10
30.35047808566088
 20
15.72034668722739
 30
0.0
 11
27.55047808566075
 21
18.52034668722757
 31
0.0
  0
LINE
  5
437
330
3A4
100
AcDbEntity
  8
0
 62
     0
100
AcDbLine
 10
25.0175379990186
 20
20.15526116176272
 30
0.0
 11
22.54815296460083
 21
22.62464619618049
 31
0.0
  0
LINE
  5
438
330
3A4
100
AcDbEntity
  8
0
 62
     0
100
AcDbLine
 10
21.25047808566091
 20
23.92232107512046
 30
0.0
 11
18.67129624851196
 21
26.50150291226941
 31
0.0
  0
LINE
  5
439
330
3A4
100
AcDbEntity
  8
0
 62
     0
100
AcDbLine
 10
30.35047808566088
 20
14.82232107512049
 30
0.0
 11
27.55047808566081
 21
17.62232107512056
 31
0.0
  0
LINE
  5
43A
330
3A4
100
AcDbEntity
  8
0
 62
     0
100
AcDbLine
 10
21.25047808566091
 20
23.02429546301357
 30
0.0
 11
18.49658237558611
 21
25.77819117308843
 31
0.0
  0
LINE
  5
43B
330
3A4
100
AcDbEntity
  8
0
 62
     0
100
AcDbLine
 10
24.51570455688215
 20
19.75906899179238
 30
0.0
 11
22.15196079463049
 21
22.12281275404405
 31
0.0
  0
LINE
  5
43C
330
3A4
100
AcDbEntity
  8
0
 62
     0
100
AcDbLine
 10
15.82547808566073
 20
28.44929546301375
 30
0.0
 11
14.91718726585185
 21
29.35758628282269
 31
0.0
  0
LINE
  5
43D
330
3A4
100
AcDbEntity
  8
0
 62
     0
100
AcDbLine
 10
30.35047808566094
 20
13.9242954630136
 30
0.0
 11
27.55047808566087
 21
16.72429546301367
 31
0.0
  0
LINE
  5
43E
330
3A4
100
AcDbEntity
  8
0
 62
     0
100
AcDbLine
 10
21.25047808566091
 20
22.12626985090668
 30
0.0
 11
18.45047808566084
 21
24.92626985090675
 31
0.0
  0
LINE
  5
43F
330
3A4
100
AcDbEntity
  8
0
 62
     0
100
AcDbLine
 10
23.81538511445473
 20
19.56136282211287
 30
0.0
 11
21.95425462495097
 21
21.42249331161662
 31
0.0
  0
LINE
  5
440
330
3A4
100
AcDbEntity
  8
0
 62
     0
100
AcDbLine
 10
15.82547808566073
 20
27.55126985090686
 30
0.0
 11
14.0191616537449
 21
29.35758628282263
 31
0.0
  0
LINE
  5
441
330
3A4
100
AcDbEntity
  8
0
 62
     0
100
AcDbLine
 10
30.06257428439022
 20
13.31417365217737
 30
0.0
 11
27.55047808566081
 21
15.82626985090672
 31
0.0
  0
LINE
  5
442
330
3A4
100
AcDbEntity
  8
0
 62
     0
100
AcDbLine
 10
21.25047808566091
 20
21.22824423879973
 30
0.0
 11
18.45047808566084
 21
24.0282442387998
 31
0.0
  0
LINE
  5
443
330
3A4
100
AcDbEntity
  8
0
 62
     0
100
AcDbLine
 10
15.71644411539045
 20
26.76227820907019
 30
0.0
 11
13.12113604163789
 21
29.35758628282269
 31
0.0
  0
LINE
  5
444
330
3A4
100
AcDbEntity
  8
0
 62
     0
100
AcDbLine
 10
29.22113604163809
 20
13.2575862828225
 30
0.0
 11
27.55047808566081
 21
14.92824423879983
 31
0.0
  0
LINE
  5
445
330
3A4
100
AcDbEntity
  8
0
 62
     0
100
AcDbLine
 10
21.25047808566085
 20
20.33021862669284
 30
0.0
 11
18.45047808566079
 21
23.13021862669285
 31
0.0
  0
LINE
  5
446
330
3A4
100
AcDbEntity
  8
0
 62
     0
100
AcDbLine
 10
15.02311042953112
 20
26.55758628282256
 30
0.0
 11
12.223110429531
 21
29.35758628282269
 31
0.0
  0
LINE
  5
447
330
3A4
100
AcDbEntity
  8
0
 62
     0
100
AcDbLine
 10
28.32311042953108
 20
13.25758628282255
 30
0.0
 11
27.55047808566081
 21
14.03021862669288
 31
0.0
  0
LINE
  5
448
330
3A4
100
AcDbEntity
  8
0
 62
     0
100
AcDbLine
 10
21.25047808566091
 20
19.43219301458595
 30
0.0
 11
18.45047808566084
 21
22.23219301458601
 31
0.0
  0
LINE
  5
449
330
3A4
100
AcDbEntity
  8
0
 62
     0
100
AcDbLine
 10
14.12508481742423
 20
26.55758628282256
 30
0.0
 11
11.35995554531933
 21
29.32271555492752
 31
0.0
  0
LINE
  5
44A
330
3A4
100
AcDbEntity
  8
0
 62
     0
100
AcDbLine
 10
25.09787563682391
 20
15.58479546342289
 30
0.0
 11
24.6276872662612
 21
16.05498383398566
 31
0.0
  0
LINE
  5
44B
330
3A4
100
AcDbEntity
  8
0
 62
     0
100
AcDbLine
 10
21.25047808566085
 20
18.53416740247899
 30
0.0
 11
18.45047808566084
 21
21.33416740247906
 31
0.0
  0
LINE
  5
44C
330
3A4
100
AcDbEntity
  8
0
 62
     0
100
AcDbLine
 10
13.22705920531734
 20
26.55758628282256
 30
0.0
 11
10.66682073684086
 21
29.11782475129905
 31
0.0
  0
LINE
  5
44D
330
3A4
100
AcDbEntity
  8
0
 62
     0
100
AcDbLine
 10
25.10047808566082
 20
14.68416740247903
 30
0.0
 11
23.72705920531728
 21
16.05758628282262
 31
0.0
  0
LINE
  5
44E
330
3A4
100
AcDbEntity
  8
0
 62
     0
100
AcDbLine
 10
21.25047808566085
 20
17.6361417903721
 30
0.0
 11
18.4504780856609
 21
20.43614179037206
 31
0.0
  0
LINE
  5
44F
330
3A4
100
AcDbEntity
  8
0
 62
     0
100
AcDbLine
 10
12.32903359321039
 20
26.55758628282251
 30
0.0
 11
10.10257407699362
 21
28.78404579903929
 31
0.0
  0
LINE
  5
450
330
3A4
100
AcDbEntity
  8
0
 62
     0
100
AcDbLine
 10
25.10047808566082
 20
13.78614179037214
 30
0.0
 11
22.82903359321039
 21
16.05758628282251
 31
0.0
  0
LINE
  5
451
330
3A4
100
AcDbEntity
  8
0
 62
     0
100
AcDbLine
 10
11.8187407655958
 20
26.16985349833032
 30
0.0
 11
9.644481264752869
 21
28.34411299917326
 31
0.0
  0
LINE
  5
452
330
3A4
100
AcDbEntity
  8
0
 62
     0
100
AcDbLine
 10
24.71274530116852
 20
13.2758489627576
 30
0.0
 11
18.4504780856609
 21
19.53811617826522
 31
0.0
  0
LINE
  5
453
330
3A4
100
AcDbEntity
  8
0
 62
     0
100
AcDbLine
 10
11.80047808566087
 20
25.29009056615831
 30
0.0
 11
9.291000062283785
 21
27.79956858953539
 31
0.0
  0
LINE
  5
454
330
3A4
100
AcDbEntity
  8
0
 62
     0
100
AcDbLine
 10
23.83298236899662
 20
13.25758628282255
 30
0.0
 11
18.4504780856609
 21
18.64009056615827
 31
0.0
  0
LINE
  5
455
330
3A4
100
AcDbEntity
  8
0
 62
     0
100
AcDbLine
 10
11.86261379379629
 20
24.32992924591587
 30
0.0
 11
9.060119959990061
 21
27.13242307972217
 31
0.0
  0
LINE
  5
456
330
3A4
100
AcDbEntity
  8
0
 62
     0
100
AcDbLine
 10
22.93495675688962
 20
13.25758628282261
 30
0.0
 11
18.45047808566084
 21
17.74206495405133
 31
0.0
  0
LINE
  5
457
330
3A4
100
AcDbEntity
  8
0
 62
     0
100
AcDbLine
 10
16.15485417688353
 20
19.13966325072181
 30
0.0
 11
9.000478085660915
 21
26.29403934194442
 31
0.0
  0
LINE
  5
458
330
3A4
100
AcDbEntity
  8
0
 62
     0
100
AcDbLine
 10
21.98365905772607
 20
13.31085836987927
 30
0.0
 11
18.5037501727175
 21
16.79076725488783
 31
0.0
  0
LINE
  5
459
330
3A4
100
AcDbEntity
  8
0
 62
     0
100
AcDbLine
 10
16.34674869096875
 20
18.04974312452969
 30
0.0
 11
9.000478085660802
 21
25.39601372983764
 31
0.0
  0
LINE
  5
45A
330
3A4
100
AcDbEntity
  8
0
 62
     0
100
AcDbLine
 10
20.60985114512448
 20
13.78664067037391
 30
0.0
 11
18.97953247321209
 21
15.41695934228636
 31
0.0
  0
LINE
  5
45B
330
3A4
100
AcDbEntity
  8
0
 62
     0
100
AcDbLine
 10
16.35047808566088
 20
17.14798811773062
 30
0.0
 11
9.008042533083198
 21
24.49042367030824
 31
0.0
  0
LINE
  5
45C
330
3A4
100
AcDbEntity
  8
0
 62
     0
100
AcDbLine
 10
16.35047808566082
 20
16.24996250562372
 30
0.0
 11
9.231333291407054
 21
23.36910729987744
 31
0.0
  0
LINE
  5
45D
330
3A4
100
AcDbEntity
  8
0
 62
     0
100
AcDbLine
 10
16.27795808952891
 20
15.4244568896488
 30
0.0
 11
13.51456644590985
 21
18.18784853326786
 31
0.0
  0
LINE
  5
45E
330
3A4
100
AcDbEntity
  8
0
 62
     0
100
AcDbLine
 10
16.03602015050006
 20
14.7683692165707
 30
0.0
 11
13.55047808566081
 21
17.25391128140995
 31
0.0
  0
LINE
  5
45F
330
3A4
100
AcDbEntity
  8
0
 62
     0
100
AcDbLine
 10
15.67390090311829
 20
14.23246285184552
 30
0.0
 11
13.51457905336013
 21
16.39178470160368
 31
0.0
  0
LINE
  5
460
330
3A4
100
AcDbEntity
  8
0
 62
     0
100
AcDbLine
 10
15.20767453085142
 20
13.8006636120055
 30
0.0
 11
12.9507518600343
 21
16.05758628282268
 31
0.0
  0
LINE
  5
461
330
3A4
100
AcDbEntity
  8
0
 62
     0
100
AcDbLine
 10
14.6344100831186
 20
13.47590244763142
 30
0.0
 11
12.05272624792735
 21
16.05758628282262
 31
0.0
  0
LINE
  5
462
330
3A4
100
AcDbEntity
  8
0
 62
     0
100
AcDbLine
 10
13.92899749403267
 20
13.28328942461041
 30
0.0
 11
11.15470063582046
 21
16.05758628282262
 31
0.0
  0
LINE
  5
463
330
3A4
100
AcDbEntity
  8
0
 62
     0
100
AcDbLine
 10
13.05667502371363
 20
13.25758628282244
 30
0.0
 11
10.25667502371351
 21
16.05758628282262
 31
0.0
  0
LINE
  5
464
330
3A4
100
AcDbEntity
  8
0
 62
     0
100
AcDbLine
 10
12.15864941160669
 20
13.25758628282255
 30
0.0
 11
9.605325516788809
 21
15.81091017764049
 31
0.0
  0
LINE
  5
465
330
3A4
100
AcDbEntity
  8
0
 62
     0
100
AcDbLine
 10
11.26062379949979
 20
13.25758628282255
 30
0.0
 11
9.525478085660836
 21
14.99273199666151
 31
0.0
  0
LINE
  5
466
330
3A4
100
AcDbEntity
  8
0
 62
     0
100
AcDbLine
 10
10.36259818739284
 20
13.25758628282255
 30
0.0
 11
9.525478085660836
 21
14.09470638455457
 31
0.0
  0
LINE
  5
467
330
3A4
100
AcDbEntity
  8
0
 62
     0
100
AcDbLine
 10
66.34216537032779
 20
13.27071805994012
 30
0.0
 11
66.73734630854358
 21
13.66589899815591
 31
0.0
  0
LINE
  5
468
330
3A4
100
AcDbEntity
  8
0
 62
     0
100
AcDbLine
 10
65.43100798110334
 20
13.2575862828225
 30
0.0
 11
66.75047808566103
 21
14.57705638738019
 31
0.0
  0
LINE
  5
469
330
3A4
100
AcDbEntity
  8
0
 62
     0
100
AcDbLine
 10
64.53298236899644
 20
13.2575862828225
 30
0.0
 11
66.75047808566103
 21
15.47508199948708
 31
0.0
  0
LINE
  5
46A
330
3A4
100
AcDbEntity
  8
0
 62
     0
100
AcDbLine
 10
63.9816756489127
 20
13.6043051748457
 30
0.0
 11
66.75047808566097
 21
16.37310761159403
 31
0.0
  0
LINE
  5
46B
330
3A4
100
AcDbEntity
  8
0
 62
     0
100
AcDbLine
 10
63.9504780856609
 20
14.47113322370086
 30
0.0
 11
66.75047808566097
 21
17.27113322370087
 31
0.0
  0
LINE
  5
46C
330
3A4
100
AcDbEntity
  8
0
 62
     0
100
AcDbLine
 10
63.95047808566096
 20
15.36915883580775
 30
0.0
 11
66.75047808566097
 21
18.16915883580782
 31
0.0
  0
LINE
  5
46D
330
3A4
100
AcDbEntity
  8
0
 62
     0
100
AcDbLine
 10
63.9504780856609
 20
16.2671844479147
 30
0.0
 11
66.75047808566097
 21
19.06718444791477
 31
0.0
  0
LINE
  5
46E
330
3A4
100
AcDbEntity
  8
0
 62
     0
100
AcDbLine
 10
63.9504780856609
 20
17.16521006002159
 30
0.0
 11
66.75047808566097
 21
19.96521006002166
 31
0.0
  0
LINE
  5
46F
330
3A4
100
AcDbEntity
  8
0
 62
     0
100
AcDbLine
 10
60.37704294772618
 20
13.59177492208686
 30
0.0
 11
61.51628944639674
 21
14.73102142075748
 31
0.0
  0
LINE
  5
470
330
3A4
100
AcDbEntity
  8
0
 62
     0
100
AcDbLine
 10
63.9504780856609
 20
18.06323567212848
 30
0.0
 11
66.75047808566097
 21
20.86323567212855
 31
0.0
  0
LINE
  5
471
330
3A4
100
AcDbEntity
  8
0
 62
     0
100
AcDbLine
 10
59.14647478120338
 20
13.25923236767096
 30
0.0
 11
61.8488320008127
 21
15.96158958728023
 31
0.0
  0
LINE
  5
472
330
3A4
100
AcDbEntity
  8
0
 62
     0
100
AcDbLine
 10
63.9504780856609
 20
18.96126128423543
 30
0.0
 11
66.75047808566097
 21
21.76126128423544
 31
0.0
  0
LINE
  5
473
330
3A4
100
AcDbEntity
  8
0
 62
     0
100
AcDbLine
 10
58.24680308424797
 20
13.2575862828225
 30
0.0
 11
61.850478085661
 21
16.86126128423546
 31
0.0
  0
LINE
  5
474
330
3A4
100
AcDbEntity
  8
0
 62
     0
100
AcDbLine
 10
63.9504780856609
 20
19.85928689634232
 30
0.0
 11
66.75047808566091
 21
22.65928689634239
 31
0.0
  0
LINE
  5
475
330
3A4
100
AcDbEntity
  8
0
 62
     0
100
AcDbLine
 10
57.34877747214108
 20
13.2575862828225
 30
0.0
 11
61.85047808566094
 21
17.75928689634241
 31
0.0
  0
LINE
  5
476
330
3A4
100
AcDbEntity
  8
0
 62
     0
100
AcDbLine
 10
63.9504780856609
 20
20.75731250844921
 30
0.0
 11
66.75047808566097
 21
23.55731250844928
 31
0.0
  0
LINE
  5
477
330
3A4
100
AcDbEntity
  8
0
 62
     0
100
AcDbLine
 10
56.45075186003424
 20
13.25758628282255
 30
0.0
 11
61.850478085661
 21
18.6573125084493
 31
0.0
  0
LINE
  5
478
330
3A4
100
AcDbEntity
  8
0
 62
     0
100
AcDbLine
 10
58.94588688357988
 20
16.65074691847513
 30
0.0
 11
61.850478085661
 21
19.5553381205562
 31
0.0
  0
LINE
  5
479
330
3A4
100
AcDbEntity
  8
0
 62
     0
100
AcDbLine
 10
63.9504780856609
 20
21.65533812055611
 30
0.0
 11
66.75047808566097
 21
24.45533812055618
 31
0.0
  0
LINE
  5
47A
330
3A4
100
AcDbEntity
  8
0
 62
     0
100
AcDbLine
 10
55.55272624792724
 20
13.2575862828225
 30
0.0
 11
58.45731745000836
 21
16.16217748490356
 31
0.0
  0
LINE
  5
47B
330
3A4
100
AcDbEntity
  8
0
 62
     0
100
AcDbLine
 10
59.05047808566087
 20
17.65336373266308
 30
0.0
 11
61.85047808566094
 21
20.45336373266315
 31
0.0
  0
LINE
  5
47C
330
3A4
100
AcDbEntity
  8
0
 62
     0
100
AcDbLine
 10
63.95047808566085
 20
22.55336373266306
 30
0.0
 11
66.75047808566091
 21
25.35336373266313
 31
0.0
  0
LINE
  5
47D
330
3A4
100
AcDbEntity
  8
0
 62
     0
100
AcDbLine
 10
54.76665038719755
 20
13.36953603419971
 30
0.0
 11
57.45470063582041
 21
16.05758628282257
 31
0.0
  0
LINE
  5
47E
330
3A4
100
AcDbEntity
  8
0
 62
     0
100
AcDbLine
 10
59.05047808566092
 20
18.55138934477008
 30
0.0
 11
61.85047808566094
 21
21.35138934477004
 31
0.0
  0
LINE
  5
47F
330
3A4
100
AcDbEntity
  8
0
 62
     0
100
AcDbLine
 10
63.95047808566085
 20
23.45138934477
 30
0.0
 11
66.75047808566091
 21
26.25138934477002
 31
0.0
  0
LINE
  5
480
330
3A4
100
AcDbEntity
  8
0
 62
     0
100
AcDbLine
 10
54.1386635199874
 20
13.63957477909656
 30
0.0
 11
56.55755280935784
 21
16.058464068467
 31
0.0
  0
LINE
  5
481
330
3A4
100
AcDbEntity
  8
0
 62
     0
100
AcDbLine
 10
59.05047808566099
 20
19.44941495687698
 30
0.0
 11
61.85047808566094
 21
22.24941495687693
 31
0.0
  0
LINE
  5
482
330
3A4
100
AcDbEntity
  8
0
 62
     0
100
AcDbLine
 10
63.9504780856609
 20
24.34941495687684
 30
0.0
 11
66.75047808566091
 21
27.14941495687691
 31
0.0
  0
LINE
  5
483
330
3A4
100
AcDbEntity
  8
0
 62
     0
100
AcDbLine
 10
53.62540363862234
 20
14.02434050983828
 30
0.0
 11
55.91407422064515
 21
16.31301109186114
 31
0.0
  0
LINE
  5
484
330
3A4
100
AcDbEntity
  8
0
 62
     0
100
AcDbLine
 10
59.05047808566099
 20
20.34744056898387
 30
0.0
 11
61.85047808566094
 21
23.14744056898388
 31
0.0
  0
LINE
  5
485
330
3A4
100
AcDbEntity
  8
0
 62
     0
100
AcDbLine
 10
63.95047808566085
 20
25.24744056898379
 30
0.0
 11
66.75047808566091
 21
28.04744056898385
 31
0.0
  0
LINE
  5
486
330
3A4
100
AcDbEntity
  8
0
 62
     0
100
AcDbLine
 10
53.21543946339722
 20
14.5124019467201
 30
0.0
 11
55.57683594223573
 21
16.87379842555867
 31
0.0
  0
LINE
  5
487
330
3A4
100
AcDbEntity
  8
0
 62
     0
100
AcDbLine
 10
59.05047808566092
 20
21.24546618109082
 30
0.0
 11
61.850478085661
 21
24.04546618109089
 31
0.0
  0
LINE
  5
488
330
3A4
100
AcDbEntity
  8
0
 62
     0
100
AcDbLine
 10
63.95047808566085
 20
26.14546618109068
 30
0.0
 11
66.74032893211045
 21
28.93531702754035
 31
0.0
  0
LINE
  5
489
330
3A4
100
AcDbEntity
  8
0
 62
     0
100
AcDbLine
 10
52.91551458496321
 20
15.11050268039309
 30
0.0
 11
55.55047808566093
 21
17.74546618109076
 31
0.0
  0
LINE
  5
48A
330
3A4
100
AcDbEntity
  8
0
 62
     0
100
AcDbLine
 10
59.05047808566099
 20
22.14349179319765
 30
0.0
 11
61.85047808566105
 21
24.94349179319772
 31
0.0
  0
LINE
  5
48B
330
3A4
100
AcDbEntity
  8
0
 62
     0
100
AcDbLine
 10
63.95047808566085
 20
27.04349179319757
 30
0.0
 11
66.26321458703097
 21
29.3562282945677
 31
0.0
  0
LINE
  5
48C
330
3A4
100
AcDbEntity
  8
0
 62
     0
100
AcDbLine
 10
52.75810105000676
 20
15.85111475754348
 30
0.0
 11
55.55047808566093
 21
18.64349179319765
 31
0.0
  0
LINE
  5
48D
330
3A4
100
AcDbEntity
  8
0
 62
     0
100
AcDbLine
 10
59.05047808566092
 20
23.0415174053046
 30
0.0
 11
61.850478085661
 21
25.84151740530467
 31
0.0
  0
LINE
  5
48E
330
3A4
100
AcDbEntity
  8
0
 62
     0
100
AcDbLine
 10
63.9504780856609
 20
27.94151740530458
 30
0.0
 11
65.3665469631789
 21
29.35758628282258
 31
0.0
  0
LINE
  5
48F
330
3A4
100
AcDbEntity
  8
0
 62
     0
100
AcDbLine
 10
52.75047808566097
 20
16.74151740530459
 30
0.0
 11
55.55047808566098
 21
19.54151740530465
 31
0.0
  0
LINE
  5
490
330
3A4
100
AcDbEntity
  8
0
 62
     0
100
AcDbLine
 10
59.05047808566092
 20
23.93954301741155
 30
0.0
 11
61.850478085661
 21
26.73954301741156
 31
0.0
  0
LINE
  5
491
330
3A4
100
AcDbEntity
  8
0
 62
     0
100
AcDbLine
 10
52.75047808566092
 20
17.63954301741154
 30
0.0
 11
55.55047808566098
 21
20.4395430174116
 31
0.0
  0
LINE
  5
492
330
3A4
100
AcDbEntity
  8
0
 62
     0
100
AcDbLine
 10
63.95052480040835
 20
28.83958973215897
 30
0.0
 11
64.46847463632463
 21
29.3575395680752
 31
0.0
  0
LINE
  5
493
330
3A4
100
AcDbEntity
  8
0
 62
     0
100
AcDbLine
 10
48.42892245494891
 20
13.31798738669948
 30
0.0
 11
50.59007698178408
 21
15.4791419135347
 31
0.0
  0
LINE
  5
494
330
3A4
100
AcDbEntity
  8
0
 62
     0
100
AcDbLine
 10
52.75047808566092
 20
18.53756862951843
 30
0.0
 11
55.55047808566098
 21
21.33756862951849
 31
0.0
  0
LINE
  5
495
330
3A4
100
AcDbEntity
  8
0
 62
     0
100
AcDbLine
 10
59.05047808566092
 20
24.83756862951844
 30
0.0
 11
61.85047808566094
 21
27.63756862951851
 31
0.0
  0
LINE
  5
496
330
3A4
100
AcDbEntity
  8
0
 62
     0
100
AcDbLine
 10
47.47049573896504
 20
13.25758628282261
 30
0.0
 11
50.65047808566089
 21
16.43756862951846
 31
0.0
  0
LINE
  5
497
330
3A4
100
AcDbEntity
  8
0
 62
     0
100
AcDbLine
 10
52.75047808566092
 20
19.43559424162532
 30
0.0
 11
55.55047808566098
 21
22.23559424162539
 31
0.0
  0
LINE
  5
498
330
3A4
100
AcDbEntity
  8
0
 62
     0
100
AcDbLine
 10
59.05047808566092
 20
25.73559424162533
 30
0.0
 11
61.850478085661
 21
28.5355942416254
 31
0.0
  0
LINE
  5
499
330
3A4
100
AcDbEntity
  8
0
 62
     0
100
AcDbLine
 10
46.57247012685814
 20
13.25758628282255
 30
0.0
 11
50.65047808566095
 21
17.3355942416253
 31
0.0
  0
LINE
  5
49A
330
3A4
100
AcDbEntity
  8
0
 62
     0
100
AcDbLine
 10
52.75047808566092
 20
20.33361985373227
 30
0.0
 11
55.55047808566098
 21
23.13361985373228
 31
0.0
  0
LINE
  5
49B
330
3A4
100
AcDbEntity
  8
0
 62
     0
100
AcDbLine
 10
59.05047808566092
 20
26.63361985373223
 30
0.0
 11
61.65674063082684
 21
29.2398823988982
 31
0.0
  0
LINE
  5
49C
330
3A4
100
AcDbEntity
  8
0
 62
     0
100
AcDbLine
 10
45.67444451475125
 20
13.25758628282261
 30
0.0
 11
50.63615948524807
 21
18.21930125331937
 31
0.0
  0
LINE
  5
49D
330
3A4
100
AcDbEntity
  8
0
 62
     0
100
AcDbLine
 10
52.75047808566092
 20
21.23164546583916
 30
0.0
 11
55.55047808566093
 21
24.03164546583923
 31
0.0
  0
LINE
  5
49E
330
3A4
100
AcDbEntity
  8
0
 62
     0
100
AcDbLine
 10
59.05047808566087
 20
27.53164546583917
 30
0.0
 11
60.87641890264433
 21
29.35758628282263
 31
0.0
  0
LINE
  5
49F
330
3A4
100
AcDbEntity
  8
0
 62
     0
100
AcDbLine
 10
44.77641890264431
 20
13.25758628282261
 30
0.0
 11
50.50124711461927
 21
18.98241449479758
 31
0.0
  0
LINE
  5
4A0
330
3A4
100
AcDbEntity
  8
0
 62
     0
100
AcDbLine
 10
52.75047808566092
 20
22.12967107794605
 30
0.0
 11
55.55047808566098
 21
24.92967107794612
 31
0.0
  0
LINE
  5
4A1
330
3A4
100
AcDbEntity
  8
0
 62
     0
100
AcDbLine
 10
47.85047808566105
 20
17.22967107794613
 30
0.0
 11
50.26065965770072
 21
19.63985264998586
 31
0.0
  0
LINE
  5
4A2
330
3A4
100
AcDbEntity
  8
0
 62
     0
100
AcDbLine
 10
59.05047808566092
 20
28.42967107794606
 30
0.0
 11
59.9783932905375
 21
29.35758628282263
 31
0.0
  0
LINE
  5
4A3
330
3A4
100
AcDbEntity
  8
0
 62
     0
100
AcDbLine
 10
44.00664864366854
 20
13.38584163595368
 30
0.0
 11
46.67839329053743
 21
16.05758628282257
 31
0.0
  0
LINE
  5
4A4
330
3A4
100
AcDbEntity
  8
0
 62
     0
100
AcDbLine
 10
47.83060751053364
 20
18.10782611492567
 30
0.0
 11
49.93716035284013
 21
20.21437895723215
 31
0.0
  0
LINE
  5
4A5
330
3A4
100
AcDbEntity
  8
0
 62
     0
100
AcDbLine
 10
52.75047808566092
 20
23.02769669005294
 30
0.0
 11
55.55047808566093
 21
25.82769669005301
 31
0.0
  0
LINE
  5
4A6
330
3A4
100
AcDbEntity
  8
0
 62
     0
100
AcDbLine
 10
43.82547808566096
 20
14.10269669005299
 30
0.0
 11
45.78036767843047
 21
16.05758628282257
 31
0.0
  0
LINE
  5
4A7
330
3A4
100
AcDbEntity
  8
0
 62
     0
100
AcDbLine
 10
47.55622267339475
 20
18.73146688989379
 30
0.0
 11
49.54128923491231
 21
20.71653345141135
 31
0.0
  0
LINE
  5
4A8
330
3A4
100
AcDbEntity
  8
0
 62
     0
100
AcDbLine
 10
52.75047808566085
 20
23.92572230215989
 30
0.0
 11
55.55047808566093
 21
26.72572230215996
 31
0.0
  0
LINE
  5
4A9
330
3A4
100
AcDbEntity
  8
0
 62
     0
100
AcDbLine
 10
43.8254780856609
 20
15.00072230215994
 30
0.0
 11
44.88234206632358
 21
16.05758628282262
 31
0.0
  0
LINE
  5
4AA
330
3A4
100
AcDbEntity
  8
0
 62
     0
100
AcDbLine
 10
52.75047808566092
 20
24.82374791426678
 30
0.0
 11
55.55047808566098
 21
27.6237479142668
 31
0.0
  0
LINE
  5
4AB
330
3A4
100
AcDbEntity
  8
0
 62
     0
100
AcDbLine
 10
47.11494777627769
 20
19.1882176048835
 30
0.0
 11
49.09484676360006
 21
21.16811659220593
 31
0.0
  0
LINE
  5
4AC
330
3A4
100
AcDbEntity
  8
0
 62
     0
100
AcDbLine
 10
46.66593497022421
 20
19.63723041093698
 30
0.0
 11
48.64583395754658
 21
21.6171293982594
 31
0.0
  0
LINE
  5
4AD
330
3A4
100
AcDbEntity
  8
0
 62
     0
100
AcDbLine
 10
52.75047808566085
 20
25.72177352637368
 30
0.0
 11
55.55047808566093
 21
28.52177352637374
 31
0.0
  0
LINE
  5
4AE
330
3A4
100
AcDbEntity
  8
0
 62
     0
100
AcDbLine
 10
40.28629084210973
 20
13.25758628282255
 30
0.0
 11
41.2004780856609
 21
14.17177352637366
 31
0.0
  0
LINE
  5
4AF
330
3A4
100
AcDbEntity
  8
0
 62
     0
100
AcDbLine
 10
46.21692216417073
 20
20.08624321699045
 30
0.0
 11
48.19682115149311
 21
22.06614220431288
 31
0.0
  0
LINE
  5
4B0
330
3A4
100
AcDbEntity
  8
0
 62
     0
100
AcDbLine
 10
52.75047808566085
 20
26.61979913848063
 30
0.0
 11
55.36429717756226
 21
29.23361823038197
 31
0.0
  0
LINE
  5
4B1
330
3A4
100
AcDbEntity
  8
0
 62
     0
100
AcDbLine
 10
39.38826523000278
 20
13.25758628282255
 30
0.0
 11
41.20047808566096
 21
15.06979913848067
 31
0.0
  0
LINE
  5
4B2
330
3A4
100
AcDbEntity
  8
0
 62
     0
100
AcDbLine
 10
45.76790935811726
 20
20.53525602304393
 30
0.0
 11
47.74780834543963
 21
22.51515501036635
 31
0.0
  0
LINE
  5
4B3
330
3A4
100
AcDbEntity
  8
0
 62
     0
100
AcDbLine
 10
52.75047808566085
 20
27.51782475058752
 30
0.0
 11
54.59023961789597
 21
29.35758628282269
 31
0.0
  0
LINE
  5
4B4
330
3A4
100
AcDbEntity
  8
0
 62
     0
100
AcDbLine
 10
38.60185075575788
 20
13.36919742068454
 30
0.0
 11
41.2004780856609
 21
15.96782475058762
 31
0.0
  0
LINE
  5
4B5
330
3A4
100
AcDbEntity
  8
0
 62
     0
100
AcDbLine
 10
45.31889655206384
 20
20.98426882909734
 30
0.0
 11
47.29879553938622
 21
22.96416781641977
 31
0.0
  0
LINE
  5
4B6
330
3A4
100
AcDbEntity
  8
0
 62
     0
100
AcDbLine
 10
52.75047808566085
 20
28.41585036269441
 30
0.0
 11
53.69221400578914
 21
29.35758628282263
 31
0.0
  0
LINE
  5
4B7
330
3A4
100
AcDbEntity
  8
0
 62
     0
100
AcDbLine
 10
38.40047808566095
 20
14.0658503626945
 30
0.0
 11
41.20047808566096
 21
16.86585036269446
 31
0.0
  0
LINE
  5
4B8
330
3A4
100
AcDbEntity
  8
0
 62
     0
100
AcDbLine
 10
44.86988374601037
 20
21.43328163515082
 30
0.0
 11
46.84978273333274
 21
23.41318062247324
 31
0.0
  0
LINE
  5
4B9
330
3A4
100
AcDbEntity
  8
0
 62
     0
100
AcDbLine
 10
38.40047808566095
 20
14.96387597480145
 30
0.0
 11
41.2004780856609
 21
17.7638759748014
 31
0.0
  0
LINE
  5
4BA
330
3A4
100
AcDbEntity
  8
0
 62
     0
100
AcDbLine
 10
44.42289984496904
 20
21.88432334621649
 30
0.0
 11
46.40687337835106
 21
23.86829687959846
 31
0.0
  0
LINE
  5
4BB
330
3A4
100
AcDbEntity
  8
0
 62
     0
100
AcDbLine
 10
38.40047808566095
 20
15.86190158690834
 30
0.0
 11
41.2004780856609
 21
18.66190158690835
 31
0.0
  0
LINE
  5
4BC
330
3A4
100
AcDbEntity
  8
0
 62
     0
100
AcDbLine
 10
49.09616278157511
 20
26.55758628282256
 30
0.0
 11
50.12547808566097
 21
27.58690158690837
 31
0.0
  0
LINE
  5
4BD
330
3A4
100
AcDbEntity
  8
0
 62
     0
100
AcDbLine
 10
35.90782186095072
 20
13.36924536219811
 30
0.0
 11
35.99747422240574
 21
13.45889772365319
 31
0.0
  0
LINE
  5
4BE
330
3A4
100
AcDbEntity
  8
0
 62
     0
100
AcDbLine
 10
44.02489766614706
 20
22.38434677950135
 30
0.0
 11
46.12453194356567
 21
24.48398105691996
 31
0.0
  0
LINE
  5
4BF
330
3A4
100
AcDbEntity
  8
0
 62
     0
100
AcDbLine
 10
38.40047808566095
 20
16.75992719901523
 30
0.0
 11
41.20047808566096
 21
19.55992719901519
 31
0.0
  0
LINE
  5
4C0
330
3A4
100
AcDbEntity
  8
0
 62
     0
100
AcDbLine
 10
48.19813716946834
 20
26.55758628282262
 30
0.0
 11
50.12547808566097
 21
28.48492719901526
 31
0.0
  0
LINE
  5
4C1
330
3A4
100
AcDbEntity
  8
0
 62
     0
100
AcDbLine
 10
34.89813716946827
 20
13.25758628282255
 30
0.0
 11
35.9639162657748
 21
14.32336537912908
 31
0.0
  0
LINE
  5
4C2
330
3A4
100
AcDbEntity
  8
0
 62
     0
100
AcDbLine
 10
43.69906340175037
 20
22.95653812721161
 30
0.0
 11
46.10047808566105
 21
25.35795281112228
 31
0.0
  0
LINE
  5
4C3
330
3A4
100
AcDbEntity
  8
0
 62
     0
100
AcDbLine
 10
38.40047808566095
 20
17.65795281112213
 30
0.0
 11
41.2004780856609
 21
20.45795281112213
 31
0.0
  0
LINE
  5
4C4
330
3A4
100
AcDbEntity
  8
0
 62
     0
100
AcDbLine
 10
47.30011155736133
 20
26.55758628282256
 30
0.0
 11
49.95880915386305
 21
29.21628387932429
 31
0.0
  0
LINE
  5
4C5
330
3A4
100
AcDbEntity
  8
0
 62
     0
100
AcDbLine
 10
34.00011155736126
 20
13.2575862828225
 30
0.0
 11
35.74839011886911
 21
15.00586484433034
 31
0.0
  0
LINE
  5
4C6
330
3A4
100
AcDbEntity
  8
0
 62
     0
100
AcDbLine
 10
38.40047808566089
 20
18.55597842322907
 30
0.0
 11
41.2004780856609
 21
21.35597842322903
 31
0.0
  0
LINE
  5
4C7
330
3A4
100
AcDbEntity
  8
0
 62
     0
100
AcDbLine
 10
43.45568133908028
 20
23.61118167664847
 30
0.0
 11
49.20208594525445
 21
29.35758628282263
 31
0.0
  0
LINE
  5
4C8
330
3A4
100
AcDbEntity
  8
0
 62
     0
100
AcDbLine
 10
33.40809724670629
 20
13.56359758427447
 30
0.0
 11
35.53286397196342
 21
15.6883643095316
 31
0.0
  0
LINE
  5
4C9
330
3A4
100
AcDbEntity
  8
0
 62
     0
100
AcDbLine
 10
38.40047808566089
 20
19.45400403533602
 30
0.0
 11
41.20047808566084
 21
22.25400403533598
 31
0.0
  0
LINE
  5
4CA
330
3A4
100
AcDbEntity
  8
0
 62
     0
100
AcDbLine
 10
43.31697447999459
 20
24.37050042966973
 30
0.0
 11
48.30406033314756
 21
29.35758628282263
 31
0.0
  0
LINE
  5
4CB
330
3A4
100
AcDbEntity
  8
0
 62
     0
100
AcDbLine
 10
33.18933782505769
 20
14.24286377473282
 30
0.0
 11
35.31733782505773
 21
16.37086377473286
 31
0.0
  0
LINE
  5
4CC
330
3A4
100
AcDbEntity
  8
0
 62
     0
100
AcDbLine
 10
38.40047808566095
 20
20.35202964744286
 30
0.0
 11
41.2004780856609
 21
23.15202964744287
 31
0.0
  0
LINE
  5
4CD
330
3A4
100
AcDbEntity
  8
0
 62
     0
100
AcDbLine
 10
43.30047808566092
 20
25.25202964744284
 30
0.0
 11
47.40603472104067
 21
29.35758628282263
 31
0.0
  0
LINE
  5
4CE
330
3A4
100
AcDbEntity
  8
0
 62
     0
100
AcDbLine
 10
32.97381167815206
 20
14.92536323993403
 30
0.0
 11
35.10181167815216
 21
17.05336323993407
 31
0.0
  0
LINE
  5
4CF
330
3A4
100
AcDbEntity
  8
0
 62
     0
100
AcDbLine
 10
38.40047808566089
 20
21.25005525954981
 30
0.0
 11
41.2004780856609
 21
24.05005525954976
 31
0.0
  0
LINE
  5
4D0
330
3A4
100
AcDbEntity
  8
0
 62
     0
100
AcDbLine
 10
43.30047808566098
 20
26.15005525954984
 30
0.0
 11
46.50800910893377
 21
29.35758628282263
 31
0.0
  0
LINE
  5
4D1
330
3A4
100
AcDbEntity
  8
0
 62
     0
100
AcDbLine
 10
32.75828553124631
 20
15.60786270513523
 30
0.0
 11
34.88628553124653
 21
17.73586270513544
 31
0.0
  0
LINE
  5
4D2
330
3A4
100
AcDbEntity
  8
0
 62
     0
100
AcDbLine
 10
38.40047808566089
 20
22.1480808716567
 30
0.0
 11
41.20047808566096
 21
24.94808087165677
 31
0.0
  0
LINE
  5
4D3
330
3A4
100
AcDbEntity
  8
0
 62
     0
100
AcDbLine
 10
32.54275938434068
 20
16.29036217033655
 30
0.0
 11
34.67075938434078
 21
18.41836217033659
 31
0.0
  0
LINE
  5
4D4
330
3A4
100
AcDbEntity
  8
0
 62
     0
100
AcDbLine
 10
43.35379475578213
 20
27.101397541778
 30
0.0
 11
45.55666682670545
 21
29.30426961270132
 31
0.0
  0
LINE
  5
4D5
330
3A4
100
AcDbEntity
  8
0
 62
     0
100
AcDbLine
 10
29.50998349682669
 20
13.25758628282255
 30
0.0
 11
30.35047808566088
 21
14.09808087165674
 31
0.0
  0
LINE
  5
4D6
330
3A4
100
AcDbEntity
  8
0
 62
     0
100
AcDbLine
 10
32.32723323743511
 20
16.97286163553775
 30
0.0
 11
34.45523323743515
 21
19.10086163553785
 31
0.0
  0
LINE
  5
4D7
330
3A4
100
AcDbEntity
  8
0
 62
     0
100
AcDbLine
 10
38.40047808566089
 20
23.04610648376359
 30
0.0
 11
41.20047808566096
 21
25.84610648376366
 31
0.0
  0
LINE
  5
4D8
330
3A4
100
AcDbEntity
  8
0
 62
     0
100
AcDbLine
 10
28.61195788471985
 20
13.2575862828225
 30
0.0
 11
30.35047808566094
 21
14.99610648376363
 31
0.0
  0
LINE
  5
4D9
330
3A4
100
AcDbEntity
  8
0
 62
     0
100
AcDbLine
 10
32.11170709052942
 20
17.65536110073901
 30
0.0
 11
34.23970709052946
 21
19.78336110073911
 31
0.0
  0
LINE
  5
4DA
330
3A4
100
AcDbEntity
  8
0
 62
     0
100
AcDbLine
 10
38.40047808566089
 20
23.94413209587054
 30
0.0
 11
41.20047808566096
 21
26.74413209587055
 31
0.0
  0
LINE
  5
4DB
330
3A4
100
AcDbEntity
  8
0
 62
     0
100
AcDbLine
 10
27.7950820202642
 20
13.33873603047385
 30
0.0
 11
30.35047808566094
 21
15.89413209587053
 31
0.0
  0
LINE
  5
4DC
330
3A4
100
AcDbEntity
  8
0
 62
     0
100
AcDbLine
 10
31.89618094362373
 20
18.33786056594027
 30
0.0
 11
34.02418094362377
 21
20.46586056594037
 31
0.0
  0
LINE
  5
4DD
330
3A4
100
AcDbEntity
  8
0
 62
     0
100
AcDbLine
 10
38.40047808566089
 20
24.84215770797743
 30
0.0
 11
41.2004780856609
 21
27.6421577079775
 31
0.0
  0
LINE
  5
4DE
330
3A4
100
AcDbEntity
  8
0
 62
     0
100
AcDbLine
 10
27.55047808566092
 20
13.99215770797747
 30
0.0
 11
30.35047808566099
 21
16.79215770797753
 31
0.0
  0
LINE
  5
4DF
330
3A4
100
AcDbEntity
  8
0
 62
     0
100
AcDbLine
 10
31.6806547967181
 20
19.02036003114147
 30
0.0
 11
33.80865479671825
 21
21.14836003114163
 31
0.0
  0
LINE
  5
4E0
330
3A4
100
AcDbEntity
  8
0
 62
     0
100
AcDbLine
 10
38.40047808566089
 20
25.74018332008432
 30
0.0
 11
41.20047808566096
 21
28.54018332008439
 31
0.0
  0
LINE
  5
4E1
330
3A4
100
AcDbEntity
  8
0
 62
     0
100
AcDbLine
 10
27.55047808566092
 20
14.89018332008436
 30
0.0
 11
30.35047808566099
 21
17.69018332008442
 31
0.0
  0
LINE
  5
4E2
330
3A4
100
AcDbEntity
  8
0
 62
     0
100
AcDbLine
 10
31.44585600974636
 20
19.68358685627674
 30
0.0
 11
34.07615007767736
 21
22.31388092420769
 31
0.0
  0
LINE
  5
4E3
330
3A4
100
AcDbEntity
  8
0
 62
     0
100
AcDbLine
 10
38.40047808566095
 20
26.63820893219133
 30
0.0
 11
41.00420266316251
 21
29.24193350969284
 31
0.0
  0
LINE
  5
4E4
330
3A4
100
AcDbEntity
  8
0
 62
     0
100
AcDbLine
 10
27.55047808566092
 20
15.7882089321913
 30
0.0
 11
30.35047808566099
 21
18.58820893219132
 31
0.0
  0
LINE
  5
4E5
330
3A4
100
AcDbEntity
  8
0
 62
     0
100
AcDbLine
 10
30.75867063987897
 20
19.8944270985163
 30
0.0
 11
34.49062343711125
 21
23.62637989574858
 31
0.0
  0
LINE
  5
4E6
330
3A4
100
AcDbEntity
  8
0
 62
     0
100
AcDbLine
 10
27.55047808566092
 20
16.6862345442982
 30
0.0
 11
30.36363726996722
 21
19.4993937286045
 31
0.0
  0
LINE
  5
4E7
330
3A4
100
AcDbEntity
  8
0
 62
     0
100
AcDbLine
 10
38.40047808566095
 20
27.53623454429822
 30
0.0
 11
40.2218298241853
 21
29.35758628282263
 31
0.0
  0
LINE
  5
4E8
330
3A4
100
AcDbEntity
  8
0
 62
     0
100
AcDbLine
 10
24.12182982418528
 20
13.25758628282255
 30
0.0
 11
25.10047808566094
 21
14.23623454429827
 31
0.0
  0
LINE
  5
4E9
330
3A4
100
AcDbEntity
  8
0
 62
     0
100
AcDbLine
 10
27.55047808566087
 20
17.58426015640515
 30
0.0
 11
34.90509679654519
 21
24.93887886728947
 31
0.0
  0
LINE
  5
4EA
330
3A4
100
AcDbEntity
  8
0
 62
     0
100
AcDbLine
 10
38.40047808566089
 20
28.43426015640517
 30
0.0
 11
39.3238042120783
 21
29.35758628282258
 31
0.0
  0
LINE
  5
4EB
330
3A4
100
AcDbEntity
  8
0
 62
     0
100
AcDbLine
 10
23.22380421207833
 20
13.25758628282261
 30
0.0
 11
25.10047808566099
 21
15.13426015640527
 31
0.0
  0
LINE
  5
4EC
330
3A4
100
AcDbEntity
  8
0
 62
     0
100
AcDbLine
 10
27.55047808566092
 20
18.48228576851198
 30
0.0
 11
35.3195701559793
 21
26.25137783883042
 31
0.0
  0
LINE
  5
4ED
330
3A4
100
AcDbEntity
  8
0
 62
     0
100
AcDbLine
 10
22.33745922432154
 20
13.26926690717266
 30
0.0
 11
24.95914380205476
 21
15.89095148490582
 31
0.0
  0
LINE
  5
4EE
330
3A4
100
AcDbEntity
  8
0
 62
     0
100
AcDbLine
 10
27.55047808566087
 20
19.38031138061893
 30
0.0
 11
30.87775298786453
 21
22.7075862828226
 31
0.0
  0
LINE
  5
4EF
330
3A4
100
AcDbEntity
  8
0
 62
     0
100
AcDbLine
 10
31.64173582310542
 20
23.47156911806348
 30
0.0
 11
35.73404351541324
 21
27.56387681037131
 31
0.0
  0
LINE
  5
4F0
330
3A4
100
AcDbEntity
  8
0
 62
     0
100
AcDbLine
 10
21.56929870687457
 20
13.39913200183258
 30
0.0
 11
24.2277529878645
 21
16.05758628282257
 31
0.0
  0
LINE
  5
4F1
330
3A4
100
AcDbEntity
  8
0
 62
     0
100
AcDbLine
 10
27.55047808566087
 20
20.27833699272588
 30
0.0
 11
30.3684686563692
 21
23.09632756343416
 31
0.0
  0
LINE
  5
4F2
330
3A4
100
AcDbEntity
  8
0
 62
     0
100
AcDbLine
 10
32.05620918253936
 20
24.78406808960432
 30
0.0
 11
36.10911496721456
 21
28.83697387427957
 31
0.0
  0
LINE
  5
4F3
330
3A4
100
AcDbEntity
  8
0
 62
     0
100
AcDbLine
 10
20.90816445004816
 20
13.63602335711317
 30
0.0
 11
23.32972737575761
 21
16.05758628282257
 31
0.0
  0
LINE
  5
4F4
330
3A4
100
AcDbEntity
  8
0
 62
     0
100
AcDbLine
 10
27.55047808566092
 20
21.17636260483271
 30
0.0
 11
30.35047808566094
 21
23.97636260483278
 31
0.0
  0
LINE
  5
4F5
330
3A4
100
AcDbEntity
  8
0
 62
     0
100
AcDbLine
 10
32.4706825419733
 20
26.09656706114515
 30
0.0
 11
35.71510309464537
 21
29.34098761381722
 31
0.0
  0
LINE
  5
4F6
330
3A4
100
AcDbEntity
  8
0
 62
     0
100
AcDbLine
 10
20.33056116588386
 20
13.95644568505565
 30
0.0
 11
22.44662302437672
 21
16.07250754354856
 31
0.0
  0
LINE
  5
4F7
330
3A4
100
AcDbEntity
  8
0
 62
     0
100
AcDbLine
 10
27.55047808566087
 20
22.07438821693966
 30
0.0
 11
30.35047808566094
 21
24.87438821693973
 31
0.0
  0
LINE
  5
4F8
330
3A4
100
AcDbEntity
  8
0
 62
     0
100
AcDbLine
 10
32.88515590140724
 20
27.40906603268598
 30
0.0
 11
34.83367615154378
 21
29.35758628282258
 31
0.0
  0
LINE
  5
4F9
330
3A4
100
AcDbEntity
  8
0
 62
     0
100
AcDbLine
 10
19.8256061995018
 20
14.34951633078054
 30
0.0
 11
21.81230688335841
 21
16.33621701463715
 31
0.0
  0
LINE
  5
4FA
330
3A4
100
AcDbEntity
  8
0
 62
     0
100
AcDbLine
 10
27.55047808566087
 20
22.97241382904656
 30
0.0
 11
30.35047808566094
 21
25.77241382904662
 31
0.0
  0
LINE
  5
4FB
330
3A4
100
AcDbEntity
  8
0
 62
     0
100
AcDbLine
 10
24.21211221743738
 20
19.63404796082312
 30
0.0
 11
25.37401640766046
 21
20.79595215104621
 31
0.0
  0
LINE
  5
4FC
330
3A4
100
AcDbEntity
  8
0
 62
     0
100
AcDbLine
 10
33.29962926084113
 20
28.72156500422687
 30
0.0
 11
33.93565053943683
 21
29.35758628282258
 31
0.0
  0
LINE
  5
4FD
330
3A4
100
AcDbEntity
  8
0
 62
     0
100
AcDbLine
 10
19.38916912617196
 20
14.8111048695577
 30
0.0
 11
21.40205593208623
 21
16.82399167547197
 31
0.0
  0
LINE
  5
4FE
330
3A4
100
AcDbEntity
  8
0
 62
     0
100
AcDbLine
 10
23.28713937580755
 20
19.60710073130025
 30
0.0
 11
25.40096363718333
 21
21.72092499267597
 31
0.0
  0
LINE
  5
4FF
330
3A4
100
AcDbEntity
  8
0
 62
     0
100
AcDbLine
 10
27.55047808566092
 20
23.87043944115356
 30
0.0
 11
30.35047808566099
 21
26.67043944115363
 31
0.0
  0
LINE
  5
500
330
3A4
100
AcDbEntity
  8
0
 62
     0
100
AcDbLine
 10
19.02214990122899
 20
15.34211125672163
 30
0.0
 11
21.25047808566091
 21
17.57043944115361
 31
0.0
  0
LINE
  5
501
330
3A4
100
AcDbEntity
  8
0
 62
     0
100
AcDbLine
 10
22.67299280638735
 20
19.89097977398682
 30
0.0
 11
25.1170845944967
 21
22.33507156209623
 31
0.0
  0
LINE
  5
502
330
3A4
100
AcDbEntity
  8
0
 62
     0
100
AcDbLine
 10
27.55047808566092
 20
24.76846505326045
 30
0.0
 11
30.35047808566099
 21
27.56846505326052
 31
0.0
  0
LINE
  5
503
330
3A4
100
AcDbEntity
  8
0
 62
     0
100
AcDbLine
 10
18.73083239130426
 20
15.94881935890379
 30
0.0
 11
21.25047808566091
 21
18.46846505326044
 31
0.0
  0
LINE
  5
504
330
3A4
100
AcDbEntity
  8
0
 62
     0
100
AcDbLine
 10
22.23503287939763
 20
20.35104545910411
 30
0.0
 11
24.65701890937947
 21
22.77303148908589
 31
0.0
  0
LINE
  5
505
330
3A4
100
AcDbEntity
  8
0
 62
     0
100
AcDbLine
 10
27.55047808566092
 20
25.6664906653674
 30
0.0
 11
30.35047808566099
 21
28.46649066536741
 31
0.0
  0
LINE
  5
506
330
3A4
100
AcDbEntity
  8
0
 62
     0
100
AcDbLine
 10
18.5296950271296
 20
16.64570760683608
 30
0.0
 11
21.25047808566091
 21
19.36649066536739
 31
0.0
  0
LINE
  5
507
330
3A4
100
AcDbEntity
  8
0
 62
     0
100
AcDbLine
 10
21.97898214698926
 20
20.99302033880263
 30
0.0
 11
24.01504402968089
 21
23.02908222149432
 31
0.0
  0
LINE
  5
508
330
3A4
100
AcDbEntity
  8
0
 62
     0
100
AcDbLine
 10
18.45047808566084
 20
17.46451627747427
 30
0.0
 11
21.25047808566091
 21
20.26451627747428
 31
0.0
  0
LINE
  5
509
330
3A4
100
AcDbEntity
  8
0
 62
     0
100
AcDbLine
 10
27.55047808566092
 20
26.56451627747429
 30
0.0
 11
30.1932279773058
 21
29.20726616911924
 31
0.0
  0
LINE
  5
50A
330
3A4
100
AcDbEntity
  8
0
 62
     0
100
AcDbLine
 10
14.36448132778525
 20
13.37851951959868
 30
0.0
 11
16.22954484888498
 21
15.24358304069841
 31
0.0
  0
LINE
  5
50B
330
3A4
100
AcDbEntity
  8
0
 62
     0
100
AcDbLine
 10
22.09739523047005
 20
22.00945903439031
 30
0.0
 11
22.99860533409327
 21
22.91066913801353
 31
0.0
  0
LINE
  5
50C
330
3A4
100
AcDbEntity
  8
0
 62
     0
100
AcDbLine
 10
18.45047808566084
 20
18.3625418895811
 30
0.0
 11
21.25047808566091
 21
21.16254188958117
 31
0.0
  0
LINE
  5
50D
330
3A4
100
AcDbEntity
  8
0
 62
     0
100
AcDbLine
 10
27.55047808566092
 20
27.46254188958118
 30
0.0
 11
29.44552247890232
 21
29.35758628282258
 31
0.0
  0
LINE
  5
50E
330
3A4
100
AcDbEntity
  8
0
 62
     0
100
AcDbLine
 10
13.34552247890229
 20
13.25758628282255
 30
0.0
 11
16.35047808566105
 21
16.26254188958125
 31
0.0
  0
LINE
  5
50F
330
3A4
100
AcDbEntity
  8
0
 62
     0
100
AcDbLine
 10
18.45047808566084
 20
19.26056750168805
 30
0.0
 11
21.25047808566091
 21
22.06056750168812
 31
0.0
  0
LINE
  5
510
330
3A4
100
AcDbEntity
  8
0
 62
     0
100
AcDbLine
 10
27.55047808566092
 20
28.36056750168808
 30
0.0
 11
28.54749686679543
 21
29.35758628282263
 31
0.0
  0
LINE
  5
511
330
3A4
100
AcDbEntity
  8
0
 62
     0
100
AcDbLine
 10
12.44749686679529
 20
13.2575862828225
 30
0.0
 11
16.35047808566099
 21
17.1605675016882
 31
0.0
  0
LINE
  5
512
330
3A4
100
AcDbEntity
  8
0
 62
     0
100
AcDbLine
 10
18.45047808566084
 20
20.15859311379494
 30
0.0
 11
21.25047808566085
 21
22.95859311379501
 31
0.0
  0
LINE
  5
513
330
3A4
100
AcDbEntity
  8
0
 62
     0
100
AcDbLine
 10
11.54947125468845
 20
13.25758628282261
 30
0.0
 11
16.34653873309974
 21
18.0546537612339
 31
0.0
  0
LINE
  5
514
330
3A4
100
AcDbEntity
  8
0
 62
     0
100
AcDbLine
 10
18.45047808566084
 20
21.05661872590189
 30
0.0
 11
21.25047808566091
 21
23.85661872590196
 31
0.0
  0
LINE
  5
515
330
3A4
100
AcDbEntity
  8
0
 62
     0
100
AcDbLine
 10
23.95144564258163
 20
26.55758628282268
 30
0.0
 11
25.10047808566105
 21
27.7066187259021
 31
0.0
  0
LINE
  5
516
330
3A4
100
AcDbEntity
  8
0
 62
     0
100
AcDbLine
 10
10.6514456425815
 20
13.25758628282255
 30
0.0
 11
16.23687689677842
 21
18.84301753701947
 31
0.0
  0
LINE
  5
517
330
3A4
100
AcDbEntity
  8
0
 62
     0
100
AcDbLine
 10
18.45047808566084
 20
21.95464433800879
 30
0.0
 11
21.25047808566091
 21
24.7546443380088
 31
0.0
  0
LINE
  5
518
330
3A4
100
AcDbEntity
  8
0
 62
     0
100
AcDbLine
 10
13.55047808566092
 20
17.05464433800887
 30
0.0
 11
16.0145381527343
 21
19.51870440508224
 31
0.0
  0
LINE
  5
519
330
3A4
100
AcDbEntity
  8
0
 62
     0
100
AcDbLine
 10
23.05342003047462
 20
26.55758628282256
 30
0.0
 11
25.10047808566105
 21
28.60464433800894
 31
0.0
  0
LINE
  5
51A
330
3A4
100
AcDbEntity
  8
0
 62
     0
100
AcDbLine
 10
9.811145905734576
 20
13.31531215808252
 30
0.0
 11
12.55342003047462
 21
16.05758628282257
 31
0.0
  0
LINE
  5
51B
330
3A4
100
AcDbEntity
  8
0
 62
     0
100
AcDbLine
 10
18.45047808566079
 20
22.85266995011568
 30
0.0
 11
21.41629279144058
 21
25.81848465589547
 31
0.0
  0
LINE
  5
51C
330
3A4
100
AcDbEntity
  8
0
 62
     0
100
AcDbLine
 10
13.54831899405167
 20
17.9505108585065
 30
0.0
 11
15.70610661806227
 21
20.10829848251717
 31
0.0
  0
LINE
  5
51D
330
3A4
100
AcDbEntity
  8
0
 62
     0
100
AcDbLine
 10
21.98957971258812
 20
26.39177157704301
 30
0.0
 11
24.86701067074113
 21
29.26920253519597
 31
0.0
  0
LINE
  5
51E
330
3A4
100
AcDbEntity
  8
0
 62
     0
100
AcDbLine
 10
9.52547808566095
 20
13.92766995011578
 30
0.0
 11
11.65539441836773
 21
16.05758628282257
 31
0.0
  0
LINE
  5
51F
330
3A4
100
AcDbEntity
  8
0
 62
     0
100
AcDbLine
 10
13.32871597455095
 20
18.6289334511128
 30
0.0
 11
15.32386465322338
 21
20.62408212978522
 31
0.0
  0
LINE
  5
520
330
3A4
100
AcDbEntity
  8
0
 62
     0
100
AcDbLine
 10
18.45047808566079
 20
23.75069556222263
 30
0.0
 11
24.05736880626085
 21
29.35758628282269
 31
0.0
  0
LINE
  5
521
330
3A4
100
AcDbEntity
  8
0
 62
     0
100
AcDbLine
 10
9.525478085660893
 20
14.82569556222273
 30
0.0
 11
10.75736880626078
 21
16.05758628282262
 31
0.0
  0
LINE
  5
522
330
3A4
100
AcDbEntity
  8
0
 62
     0
100
AcDbLine
 10
12.90246114624625
 20
19.10070423491492
 30
0.0
 11
14.88236013356862
 21
21.08060322223729
 31
0.0
  0
LINE
  5
523
330
3A4
100
AcDbEntity
  8
0
 62
     0
100
AcDbLine
 10
18.45047808566084
 20
24.64872117432946
 30
0.0
 11
23.15934319415379
 21
29.35758628282247
 31
0.0
  0
LINE
  5
524
330
3A4
100
AcDbEntity
  8
0
 62
     0
100
AcDbLine
 10
9.594430007680671
 20
15.79267309634934
 30
0.0
 11
9.790391272134286
 21
15.98863436080296
 31
0.0
  0
LINE
  5
525
330
3A4
100
AcDbEntity
  8
0
 62
     0
100
AcDbLine
 10
18.47045319981742
 20
25.56672190059299
 30
0.0
 11
22.24134246789043
 21
29.33761116866605
 31
0.0
  0
LINE
  5
526
330
3A4
100
AcDbEntity
  8
0
 62
     0
100
AcDbLine
 10
12.45344834019277
 20
19.5497170409684
 30
0.0
 11
14.43334732751515
 21
21.52961602829077
 31
0.0
  0
LINE
  5
527
330
3A4
100
AcDbEntity
  8
0
 62
     0
100
AcDbLine
 10
18.7699166320832
 20
26.76421094496578
 30
0.0
 11
21.0438534235177
 21
29.03814773640027
 31
0.0
  0
LINE
  5
528
330
3A4
100
AcDbEntity
  8
0
 62
     0
100
AcDbLine
 10
12.0044355341393
 20
19.99872984702187
 30
0.0
 11
13.98433452146167
 21
21.97862883434424
 31
0.0
  0
LINE
  5
529
330
3A4
100
AcDbEntity
  8
0
 62
     0
100
AcDbLine
 10
11.55542272808588
 20
20.44774265307529
 30
0.0
 11
13.5353217154082
 21
22.42764164039755
 31
0.0
  0
LINE
  5
52A
330
3A4
100
AcDbEntity
  8
0
 62
     0
100
AcDbLine
 10
11.10640992203241
 20
20.89675545912876
 30
0.0
 11
13.08630890935472
 21
22.87665444645103
 31
0.0
  0
LINE
  5
52B
330
3A4
100
AcDbEntity
  8
0
 62
     0
100
AcDbLine
 10
10.65739711597893
 20
21.34576826518224
 30
0.0
 11
12.63729610330125
 21
23.3256672525045
 31
0.0
  0
LINE
  5
52C
330
3A4
100
AcDbEntity
  8
0
 62
     0
100
AcDbLine
 10
14.97118952151237
 20
26.55758628282256
 30
0.0
 11
15.82547808566084
 21
27.4118748469711
 31
0.0
  0
LINE
  5
52D
330
3A4
100
AcDbEntity
  8
0
 62
     0
100
AcDbLine
 10
10.20846762395359
 20
21.79486438526385
 30
0.0
 11
12.18853326738605
 21
23.7749300286963
 31
0.0
  0
LINE
  5
52E
330
3A4
100
AcDbEntity
  8
0
 62
     0
100
AcDbLine
 10
14.07316390940548
 20
26.55758628282256
 30
0.0
 11
15.8254780856609
 21
28.30990045907799
 31
0.0
  0
LINE
  5
52F
330
3A4
100
AcDbEntity
  8
0
 62
     0
100
AcDbLine
 10
9.796999699402022
 20
22.28142207281905
 30
0.0
 11
11.85863638609811
 21
24.3430587595152
 31
0.0
  0
LINE
  5
530
330
3A4
100
AcDbEntity
  8
0
 62
     0
100
AcDbLine
 10
13.17513829729853
 20
26.55758628282256
 30
0.0
 11
15.73891918589976
 21
29.12136717142379
 31
0.0
  0
LINE
  5
531
330
3A4
100
AcDbEntity
  8
0
 62
     0
100
AcDbLine
 10
9.456539093139554
 20
22.83898707866353
 30
0.0
 11
11.80047808566098
 21
25.18292607118496
 31
0.0
  0
LINE
  5
532
330
3A4
100
AcDbEntity
  8
0
 62
     0
100
AcDbLine
 10
12.27464603602152
 20
26.55511963365245
 30
0.0
 11
15.0771126851917
 21
29.35758628282263
 31
0.0
  0
LINE
  5
533
330
3A4
100
AcDbEntity
  8
0
 62
     0
100
AcDbLine
 10
9.195845797407457
 20
23.47631939503838
 30
0.0
 11
11.80294473483104
 21
26.08341833246203
 31
0.0
  0
LINE
  5
534
330
3A4
100
AcDbEntity
  8
0
 62
     0
100
AcDbLine
 10
9.034033835159391
 20
24.21253304489721
 30
0.0
 11
14.17908707308481
 21
29.35758628282263
 31
0.0
  0
LINE
  5
535
330
3A4
100
AcDbEntity
  8
0
 62
     0
100
AcDbLine
 10
9.000478085660972
 20
25.07700290750574
 30
0.0
 11
13.2810614609778
 21
29.35758628282258
 31
0.0
  0
LINE
  5
536
330
3A4
100
AcDbEntity
  8
0
 62
     0
100
AcDbLine
 10
9.000478085660972
 20
25.97502851961263
 30
0.0
 11
12.38303584887086
 21
29.35758628282258
 31
0.0
  0
LINE
  5
537
330
3A4
100
AcDbEntity
  8
0
 62
     0
100
AcDbLine
 10
9.020670096099195
 20
26.8932461421578
 30
0.0
 11
11.4648182263258
 21
29.33739427238441
 31
0.0
  0
ENDBLK
  5
539
330
3A4
100
AcDbEntity
  8
0
100
AcDbBlockEnd
  0
BLOCK
  5
223F
330
2235
100
AcDbEntity
  8
0
100
AcDbBlockBegin
  2
*D2
 70
     1
 10
0.0
 20
0.0
 30
0.0
  3
*D2
  1

  0
LINE
  5
23AF
330
2235
100
AcDbEntity
  8
SUNPOU
370
    -2
100
AcDbLine
 10
182.1802445505659
 20
259.4820397652234
 30
0.0
 11
182.1802445505659
 21
306.5507950085186
 31
0.0
  0
LINE
  5
23B0
330
2235
100
AcDbEntity
  8
SUNPOU
370
    -2
100
AcDbLine
 10
396.4592595360295
 20
259.4820397652234
 30
0.0
 11
396.4592595360295
 21
306.5507950085186
 31
0.0
  0
LINE
  5
23B1
330
2235
100
AcDbEntity
  8
SUNPOU
370
    -2
100
AcDbLine
 10
188.1802445505659
 20
303.5507950085186
 30
0.0
 11
390.4592595360295
 21
303.5507950085186
 31
0.0
  0
INSERT
  5
23B2
330
2235
100
AcDbEntity
  8
SUNPOU
370
    -2
100
AcDbBlockReference
  2
_OPEN
 10
182.1802445505659
 20
303.5507950085186
 30
0.0
 41
6.0
 42
6.0
 43
6.0
 50
180.0
  0
INSERT
  5
23B3
330
2235
100
AcDbEntity
  8
SUNPOU
370
    -2
100
AcDbBlockReference
  2
_OPEN
 10
396.4592595360295
 20
303.5507950085186
 30
0.0
 41
6.0
 42
6.0
 43
6.0
  0
MTEXT
  5
23B4
330
2235
100
AcDbEntity
  8
SUNPOU
100
AcDbMText
 10
289.3197520432977
 20
308.5507950085186
 30
0.0
 40
6.0
 41
0.0
 71
     5
 72
     5
  1
\A1;214
 73
     1
 44
1.0
1001
ACAD
1000
MTEXTBEGIN
1070
    73
1070
     1
1070
    44
1040
1.0
1070
    74
1070
     0
1000
MTEXTEND
1000
MTEXTBEGIN
1070
    73
1070
     1
1070
    44
1040
1.0
1070
    74
1070
     0
1000
MTEXTEND
  0
POINT
  5
23B5
330
2235
100
AcDbEntity
  8
DEFPOINTS
 62
     0
100
AcDbPoint
 10
182.1802445505659
 20
253.4820397652234
 30
0.0
  0
POINT
  5
23B6
330
2235
100
AcDbEntity
  8
DEFPOINTS
 62
     0
100
AcDbPoint
 10
396.4592595360295
 20
253.4820397652234
 30
0.0
  0
POINT
  5
23B7
330
2235
100
AcDbEntity
  8
DEFPOINTS
 62
     0
100
AcDbPoint
 10
396.4592595360295
 20
303.5507950085186
 30
0.0
  0
ENDBLK
  5
2240
330
2235
100
AcDbEntity
  8
0
100
AcDbBlockEnd
  0
BLOCK
  5
224B
330
2241
100
AcDbEntity
  8
0
100
AcDbBlockBegin
  2
*D3
 70
     1
 10
0.0
 20
0.0
 30
0.0
  3
*D3
  1

  0
LINE
  5
23B8
330
2241
100
AcDbEntity
  8
SUNPOU
370
    -2
100
AcDbLine
 10
212.4660854040955
 20
124.0605436995879
 30
0.0
 11
212.4660854040955
 21
84.29824395898663
 31
0.0
  0
LINE
  5
23B9
330
2241
100
AcDbEntity
  8
SUNPOU
370
    -2
100
AcDbLine
 10
366.1734186825001
 20
124.0605436995879
 30
0.0
 11
366.1734186825001
 21
84.29824395898663
 31
0.0
  0
LINE
  5
23BA
330
2241
100
AcDbEntity
  8
SUNPOU
370
    -2
100
AcDbLine
 10
218.4660854040955
 20
87.29824395898663
 30
0.0
 11
360.1734186825001
 21
87.29824395898663
 31
0.0
  0
INSERT
  5
23BB
330
2241
100
AcDbEntity
  8
SUNPOU
370
    -2
100
AcDbBlockReference
  2
_OPEN
 10
212.4660854040955
 20
87.29824395898663
 30
0.0
 41
6.0
 42
6.0
 43
6.0
 50
180.0
  0
INSERT
  5
23BC
330
2241
100
AcDbEntity
  8
SUNPOU
370
    -2
100
AcDbBlockReference
  2
_OPEN
 10
366.1734186825001
 20
87.29824395898663
 30
0.0
 41
6.0
 42
6.0
 43
6.0
  0
MTEXT
  5
23BD
330
2241
100
AcDbEntity
  8
SUNPOU
100
AcDbMText
 10
289.3197520432978
 20
92.29824395898663
 30
0.0
 40
6.0
 41
0.0
 71
     5
 72
     5
  1
\A1;154
 73
     1
 44
1.0
1001
ACAD
1000
MTEXTBEGIN
1070
    73
1070
     1
1070
    44
1040
1.0
1070
    74
1070
     0
1000
MTEXTEND
1000
MTEXTBEGIN
1070
    73
1070
     1
1070
    44
1040
1.0
1070
    74
1070
     0
1000
MTEXTEND
  0
POINT
  5
23BE
330
2241
100
AcDbEntity
  8
DEFPOINTS
 62
     0
100
AcDbPoint
 10
212.4660854040955
 20
130.0605436995879
 30
0.0
  0
POINT
  5
23BF
330
2241
100
AcDbEntity
  8
DEFPOINTS
 62
     0
100
AcDbPoint
 10
366.1734186825001
 20
130.0605436995879
 30
0.0
  0
POINT
  5
23C0
330
2241
100
AcDbEntity
  8
DEFPOINTS
 62
     0
100
AcDbPoint
 10
366.1734186825001
 20
87.29824395898663
 30
0.0
  0
ENDBLK
  5
224C
330
2241
100
AcDbEntity
  8
0
100
AcDbBlockEnd
  0
BLOCK
  5
2257
330
224D
100
AcDbEntity
  8
0
100
AcDbBlockBegin
  2
*D4
 70
     1
 10
0.0
 20
0.0
 30
0.0
  3
*D4
  1

  0
LINE
  5
23A6
330
224D
100
AcDbEntity
  8
SUNPOU
370
    -2
100
AcDbLine
 10
400.9613152338976
 20
255.0605436995879
 30
0.0
 11
459.8983010046131
 21
255.0605436995879
 31
0.0
  0
LINE
  5
23A7
330
224D
100
AcDbEntity
  8
SUNPOU
370
    -2
100
AcDbLine
 10
369.0550199358697
 20
130.0632253130807
 30
0.0
 11
459.8983010046131
 21
130.0632253130807
 31
0.0
  0
LINE
  5
23A8
330
224D
100
AcDbEntity
  8
SUNPOU
370
    -2
100
AcDbLine
 10
456.8983010046131
 20
249.0605436995878
 30
0.0
 11
456.8983010046131
 21
136.0632253130807
 31
0.0
  0
INSERT
  5
23A9
330
224D
100
AcDbEntity
  8
SUNPOU
370
    -2
100
AcDbBlockReference
  2
_OPEN
 10
456.8983010046131
 20
255.0605436995879
 30
0.0
 41
6.0
 42
6.0
 43
6.0
 50
90.0
  0
INSERT
  5
23AA
330
224D
100
AcDbEntity
  8
SUNPOU
370
    -2
100
AcDbBlockReference
  2
_OPEN
 10
456.8983010046131
 20
130.0632253130807
 30
0.0
 41
6.0
 42
6.0
 43
6.0
 50
270.0
  0
MTEXT
  5
23AB
330
224D
100
AcDbEntity
  8
SUNPOU
100
AcDbMText
 10
451.898301004613
 20
192.5618845063343
 30
0.0
 40
6.0
 41
0.0
 71
     5
 72
     5
  1
\A1;125
 11
0.0000000000000001
 21
1.0
 31
0.0
 73
     1
 44
1.0
1001
ACAD
1000
MTEXTBEGIN
1070
    73
1070
     1
1070
    44
1040
1.0
1070
    74
1070
     0
1000
MTEXTEND
1000
MTEXTBEGIN
1070
    73
1070
     1
1070
    44
1040
1.0
1070
    74
1070
     0
1000
MTEXTEND
  0
POINT
  5
23AC
330
224D
100
AcDbEntity
  8
DEFPOINTS
 62
     0
100
AcDbPoint
 10
394.9613152338977
 20
255.0605436995879
 30
0.0
  0
POINT
  5
23AD
330
224D
100
AcDbEntity
  8
DEFPOINTS
 62
     0
100
AcDbPoint
 10
363.0550199358697
 20
130.0632253130807
 30
0.0
  0
POINT
  5
23AE
330
224D
100
AcDbEntity
  8
DEFPOINTS
 62
     0
100
AcDbPoint
 10
456.8983010046131
 20
130.0632253130807
 30
0.0
  0
ENDBLK
  5
2258
330
224D
100
AcDbEntity
  8
0
100
AcDbBlockEnd
  0
BLOCK
  5
2263
330
2259
100
AcDbEntity
  8
0
100
AcDbBlockBegin
  2
*D5
 70
     1
 10
0.0
 20
0.0
 30
0.0
  3
*D5
  1

  0
LINE
  5
239D
330
2259
100
AcDbEntity
  8
SUNPOU
370
    -2
100
AcDbLine
 10
400.9613152338976
 20
255.0605436995879
 30
0.0
 11
444.0489353247317
 21
255.0605436995879
 31
0.0
  0
LINE
  5
239E
330
2259
100
AcDbEntity
  8
SUNPOU
370
    -2
100
AcDbLine
 10
400.4952697598978
 20
225.0605436995879
 30
0.0
 11
444.0489353247317
 21
225.0605436995879
 31
0.0
  0
LINE
  5
239F
330
2259
100
AcDbEntity
  8
SUNPOU
370
    -2
100
AcDbLine
 10
441.0489353247316
 20
249.0605436995879
 30
0.0
 11
441.0489353247316
 21
231.0605436995879
 31
0.0
  0
INSERT
  5
23A0
330
2259
100
AcDbEntity
  8
SUNPOU
370
    -2
100
AcDbBlockReference
  2
_OPEN
 10
441.0489353247316
 20
255.0605436995879
 30
0.0
 41
6.0
 42
6.0
 43
6.0
 50
90.0
  0
INSERT
  5
23A1
330
2259
100
AcDbEntity
  8
SUNPOU
370
    -2
100
AcDbBlockReference
  2
_OPEN
 10
441.0489353247316
 20
225.0605436995879
 30
0.0
 41
6.0
 42
6.0
 43
6.0
 50
270.0
  0
MTEXT
  5
23A2
330
2259
100
AcDbEntity
  8
SUNPOU
100
AcDbMText
 10
436.0489353247316
 20
240.060543699588
 30
0.0
 40
6.0
 41
0.0
 71
     5
 72
     5
  1
\A1;30
 11
0.0000000000000001
 21
1.0
 31
0.0
 73
     1
 44
1.0
1001
ACAD
1000
MTEXTBEGIN
1070
    73
1070
     1
1070
    44
1040
1.0
1070
    74
1070
     0
1000
MTEXTEND
1000
MTEXTBEGIN
1070
    73
1070
     1
1070
    44
1040
1.0
1070
    74
1070
     0
1000
MTEXTEND
  0
POINT
  5
23A3
330
2259
100
AcDbEntity
  8
DEFPOINTS
 62
     0
100
AcDbPoint
 10
394.9613152338977
 20
255.0605436995879
 30
0.0
  0
POINT
  5
23A4
330
2259
100
AcDbEntity
  8
DEFPOINTS
 62
     0
100
AcDbPoint
 10
394.4952697598978
 20
225.0605436995879
 30
0.0
  0
POINT
  5
23A5
330
2259
100
AcDbEntity
  8
DEFPOINTS
 62
     0
100
AcDbPoint
 10
441.0489353247316
 20
225.0605436995879
 30
0.0
  0
ENDBLK
  5
2264
330
2259
100
AcDbEntity
  8
0
100
AcDbBlockEnd
  0
BLOCK
  5
226F
330
2265
100
AcDbEntity
  8
0
100
AcDbBlockBegin
  2
*D6
 70
     1
 10
0.0
 20
0.0
 30
0.0
  3
*D6
  1

  0
LINE
  5
23C1
330
2265
100
AcDbEntity
  8
SUNPOU
370
    -2
100
AcDbLine
 10
176.6781879769977
 20
482.0577883638389
 30
0.0
 11
140.0787448289452
 21
482.0577883638389
 31
0.0
  0
LINE
  5
23C2
330
2265
100
AcDbEntity
  8
SUNPOU
370
    -2
100
AcDbLine
 10
176.6781879769977
 20
372.0577889598388
 30
0.0
 11
140.0787448289452
 21
372.0577889598388
 31
0.0
  0
LINE
  5
23C3
330
2265
100
AcDbEntity
  8
SUNPOU
370
    -2
100
AcDbLine
 10
143.0787448289452
 20
476.0577883638388
 30
0.0
 11
143.0787448289452
 21
378.0577889598388
 31
0.0
  0
INSERT
  5
23C4
330
2265
100
AcDbEntity
  8
SUNPOU
370
    -2
100
AcDbBlockReference
  2
_OPEN
 10
143.0787448289452
 20
482.0577883638389
 30
0.0
 41
6.0
 42
6.0
 43
6.0
 50
90.0
  0
INSERT
  5
23C5
330
2265
100
AcDbEntity
  8
SUNPOU
370
    -2
100
AcDbBlockReference
  2
_OPEN
 10
143.0787448289452
 20
372.0577889598388
 30
0.0
 41
6.0
 42
6.0
 43
6.0
 50
270.0
  0
MTEXT
  5
23C6
330
2265
100
AcDbEntity
  8
SUNPOU
100
AcDbMText
 10
138.0787448289451
 20
427.0577886618389
 30
0.0
 40
6.0
 41
0.0
 71
     5
 72
     5
  1
\A1;110
 11
0.0000000000000001
 21
1.0
 31
0.0
 73
     1
 44
1.0
1001
ACAD
1000
MTEXTBEGIN
1070
    73
1070
     1
1070
    44
1040
1.0
1070
    74
1070
     0
1000
MTEXTEND
1000
MTEXTBEGIN
1070
    73
1070
     1
1070
    44
1040
1.0
1070
    74
1070
     0
1000
MTEXTEND
  0
POINT
  5
23C7
330
2265
100
AcDbEntity
  8
DEFPOINTS
 62
     0
100
AcDbPoint
 10
182.6781879769977
 20
482.0577883638389
 30
0.0
  0
POINT
  5
23C8
330
2265
100
AcDbEntity
  8
DEFPOINTS
 62
     0
100
AcDbPoint
 10
182.6781879769977
 20
372.0577889598388
 30
0.0
  0
POINT
  5
23C9
330
2265
100
AcDbEntity
  8
DEFPOINTS
 62
     0
100
AcDbPoint
 10
143.0787448289452
 20
372.0577889598388
 30
0.0
  0
ENDBLK
  5
2270
330
2265
100
AcDbEntity
  8
0
100
AcDbBlockEnd
  0
BLOCK
  5
227B
330
2271
100
AcDbEntity
  8
0
100
AcDbBlockBegin
  2
*D7
 70
     1
 10
0.0
 20
0.0
 30
0.0
  3
*D7
  1

  0
LINE
  5
23CA
330
2271
100
AcDbEntity
  8
SUNPOU
370
    -2
100
AcDbLine
 10
309.6222398354893
 20
451.0577888704388
 30
0.0
 11
326.0382409339658
 21
451.0577888704388
 31
0.0
  0
LINE
  5
23CB
330
2271
100
AcDbEntity
  8
SUNPOU
370
    -2
100
AcDbLine
 10
309.6222398354998
 20
403.0577847279387
 30
0.0
 11
326.0382409339658
 21
403.0577847279387
 31
0.0
  0
LINE
  5
23CC
330
2271
100
AcDbEntity
  8
SUNPOU
370
    -2
100
AcDbLine
 10
323.0382409339658
 20
445.0577888704389
 30
0.0
 11
323.0382409339658
 21
409.0577847279387
 31
0.0
  0
INSERT
  5
23CD
330
2271
100
AcDbEntity
  8
SUNPOU
370
    -2
100
AcDbBlockReference
  2
_OPEN
 10
323.0382409339658
 20
451.0577888704388
 30
0.0
 41
6.0
 42
6.0
 43
6.0
 50
90.0
  0
INSERT
  5
23CE
330
2271
100
AcDbEntity
  8
SUNPOU
370
    -2
100
AcDbBlockReference
  2
_OPEN
 10
323.0382409339658
 20
403.0577847279387
 30
0.0
 41
6.0
 42
6.0
 43
6.0
 50
270.0
  0
MTEXT
  5
23CF
330
2271
100
AcDbEntity
  8
SUNPOU
100
AcDbMText
 10
318.0382409339657
 20
427.0577867991888
 30
0.0
 40
6.0
 41
0.0
 71
     5
 72
     5
  1
\A1;48
 11
0.0000000000000001
 21
1.0
 31
0.0
 73
     1
 44
1.0
1001
ACAD
1000
MTEXTBEGIN
1070
    73
1070
     1
1070
    44
1040
1.0
1070
    74
1070
     0
1000
MTEXTEND
1000
MTEXTBEGIN
1070
    73
1070
     1
1070
    44
1040
1.0
1070
    74
1070
     0
1000
MTEXTEND
  0
POINT
  5
23D0
330
2271
100
AcDbEntity
  8
DEFPOINTS
 62
     0
100
AcDbPoint
 10
303.6222398354893
 20
451.0577888704388
 30
0.0
  0
POINT
  5
23D1
330
2271
100
AcDbEntity
  8
DEFPOINTS
 62
     0
100
AcDbPoint
 10
303.6222398354998
 20
403.0577847279387
 30
0.0
  0
POINT
  5
23D2
330
2271
100
AcDbEntity
  8
DEFPOINTS
 62
     0
100
AcDbPoint
 10
323.0382409339658
 20
403.0577847279387
 30
0.0
  0
ENDBLK
  5
227C
330
2271
100
AcDbEntity
  8
0
100
AcDbBlockEnd
  0
BLOCK
  5
2287
330
227D
100
AcDbEntity
  8
0
100
AcDbBlockBegin
  2
*D8
 70
     1
 10
0.0
 20
0.0
 30
0.0
  3
*D8
  1

  0
LINE
  5
2394
330
227D
100
AcDbEntity
  8
SUNPOU
370
    -2
100
AcDbLine
 10
401.9613095627978
 20
472.0577885873388
 30
0.0
 11
444.0489353247317
 21
472.0577885873388
 31
0.0
  0
LINE
  5
2395
330
227D
100
AcDbEntity
  8
SUNPOU
370
    -2
100
AcDbLine
 10
401.9613095627978
 20
382.0577868737388
 30
0.0
 11
444.0489353247317
 21
382.0577868737388
 31
0.0
  0
LINE
  5
2396
330
227D
100
AcDbEntity
  8
SUNPOU
370
    -2
100
AcDbLine
 10
441.0489353247317
 20
466.0577885873388
 30
0.0
 11
441.0489353247317
 21
388.0577868737388
 31
0.0
  0
INSERT
  5
2397
330
227D
100
AcDbEntity
  8
SUNPOU
370
    -2
100
AcDbBlockReference
  2
_OPEN
 10
441.0489353247317
 20
472.0577885873388
 30
0.0
 41
6.0
 42
6.0
 43
6.0
 50
90.0
  0
INSERT
  5
2398
330
227D
100
AcDbEntity
  8
SUNPOU
370
    -2
100
AcDbBlockReference
  2
_OPEN
 10
441.0489353247316
 20
382.0577868737388
 30
0.0
 41
6.0
 42
6.0
 43
6.0
 50
270.0
  0
MTEXT
  5
2399
330
227D
100
AcDbEntity
  8
SUNPOU
100
AcDbMText
 10
436.0489353247316
 20
427.0577877305389
 30
0.0
 40
6.0
 41
0.0
 71
     5
 72
     5
  1
\A1;90
 11
0.0000000000000001
 21
1.0
 31
0.0
 73
     1
 44
1.0
1001
ACAD
1000
MTEXTBEGIN
1070
    73
1070
     1
1070
    44
1040
1.0
1070
    74
1070
     0
1000
MTEXTEND
1000
MTEXTBEGIN
1070
    73
1070
     1
1070
    44
1040
1.0
1070
    74
1070
     0
1000
MTEXTEND
  0
POINT
  5
239A
330
227D
100
AcDbEntity
  8
DEFPOINTS
 62
     0
100
AcDbPoint
 10
395.9613095627978
 20
472.0577885873388
 30
0.0
  0
POINT
  5
239B
330
227D
100
AcDbEntity
  8
DEFPOINTS
 62
     0
100
AcDbPoint
 10
395.9613095627978
 20
382.0577868737388
 30
0.0
  0
POINT
  5
239C
330
227D
100
AcDbEntity
  8
DEFPOINTS
 62
     0
100
AcDbPoint
 10
441.0489353247316
 20
382.0577868737388
 30
0.0
  0
ENDBLK
  5
2288
330
227D
100
AcDbEntity
  8
0
100
AcDbBlockEnd
  0
BLOCK
  5
2293
330
2289
100
AcDbEntity
  8
0
100
AcDbBlockBegin
  2
*D9
 70
     1
 10
0.0
 20
0.0
 30
0.0
  3
*D9
  1

  0
LINE
  5
23D3
330
2289
100
AcDbEntity
  8
SUNPOU
370
    -2
100
AcDbLine
 10
559.3805828445447
 20
260.5605428608879
 30
0.0
 11
559.3805828445447
 21
322.6119235527603
 31
0.0
  0
LINE
  5
23D4
330
2289
100
AcDbEntity
  8
SUNPOU
370
    -2
100
AcDbLine
 10
669.3805837037452
 20
260.5605428608878
 30
0.0
 11
669.3805837037452
 21
322.6119235527603
 31
0.0
  0
LINE
  5
23D5
330
2289
100
AcDbEntity
  8
SUNPOU
370
    -2
100
AcDbLine
 10
565.3805828445447
 20
319.6119235527603
 30
0.0
 11
663.3805837037453
 21
319.6119235527603
 31
0.0
  0
INSERT
  5
23D6
330
2289
100
AcDbEntity
  8
SUNPOU
370
    -2
100
AcDbBlockReference
  2
_OPEN
 10
559.3805828445447
 20
319.6119235527603
 30
0.0
 41
6.0
 42
6.0
 43
6.0
 50
180.0
  0
INSERT
  5
23D7
330
2289
100
AcDbEntity
  8
SUNPOU
370
    -2
100
AcDbBlockReference
  2
_OPEN
 10
669.3805837037452
 20
319.6119235527603
 30
0.0
 41
6.0
 42
6.0
 43
6.0
  0
MTEXT
  5
23D8
330
2289
100
AcDbEntity
  8
SUNPOU
100
AcDbMText
 10
614.380583274145
 20
324.6119235527603
 30
0.0
 40
6.0
 41
0.0
 71
     5
 72
     5
  1
\A1;110
 73
     1
 44
1.0
1001
ACAD
1000
MTEXTBEGIN
1070
    73
1070
     1
1070
    44
1040
1.0
1070
    74
1070
     0
1000
MTEXTEND
1000
MTEXTBEGIN
1070
    73
1070
     1
1070
    44
1040
1.0
1070
    74
1070
     0
1000
MTEXTEND
  0
POINT
  5
23D9
330
2289
100
AcDbEntity
  8
DEFPOINTS
 62
     0
100
AcDbPoint
 10
559.3805828445447
 20
254.5605428608879
 30
0.0
  0
POINT
  5
23DA
330
2289
100
AcDbEntity
  8
DEFPOINTS
 62
     0
100
AcDbPoint
 10
669.3805837037452
 20
254.5605428608878
 30
0.0
  0
POINT
  5
23DB
330
2289
100
AcDbEntity
  8
DEFPOINTS
 62
     0
100
AcDbPoint
 10
669.3805837037452
 20
319.6119235527603
 30
0.0
  0
ENDBLK
  5
2294
330
2289
100
AcDbEntity
  8
0
100
AcDbBlockEnd
  0
BLOCK
  5
229F
330
2295
100
AcDbEntity
  8
0
100
AcDbBlockBegin
  2
*D10
 70
     1
 10
0.0
 20
0.0
 30
0.0
  3
*D10
  1

  0
LINE
  5
23DC
330
2295
100
AcDbEntity
  8
SUNPOU
370
    -2
100
AcDbLine
 10
569.4346491229448
 20
260.5605428608879
 30
0.0
 11
569.4346491229448
 21
306.5507950085186
 31
0.0
  0
LINE
  5
23DD
330
2295
100
AcDbEntity
  8
SUNPOU
370
    -2
100
AcDbLine
 10
659.3265174253452
 20
260.5605428608878
 30
0.0
 11
659.3265174253452
 21
306.5507950085186
 31
0.0
  0
LINE
  5
23DE
330
2295
100
AcDbEntity
  8
SUNPOU
370
    -2
100
AcDbLine
 10
575.4346491229448
 20
303.5507950085186
 30
0.0
 11
653.3265174253451
 21
303.5507950085186
 31
0.0
  0
INSERT
  5
23DF
330
2295
100
AcDbEntity
  8
SUNPOU
370
    -2
100
AcDbBlockReference
  2
_OPEN
 10
569.4346491229448
 20
303.5507950085186
 30
0.0
 41
6.0
 42
6.0
 43
6.0
 50
180.0
  0
INSERT
  5
23E0
330
2295
100
AcDbEntity
  8
SUNPOU
370
    -2
100
AcDbBlockReference
  2
_OPEN
 10
659.3265174253452
 20
303.5507950085186
 30
0.0
 41
6.0
 42
6.0
 43
6.0
  0
MTEXT
  5
23E1
330
2295
100
AcDbEntity
  8
SUNPOU
100
AcDbMText
 10
614.380583274145
 20
308.5507950085186
 30
0.0
 40
6.0
 41
0.0
 71
     5
 72
     5
  1
\A1;90
 73
     1
 44
1.0
1001
ACAD
1000
MTEXTBEGIN
1070
    73
1070
     1
1070
    44
1040
1.0
1070
    74
1070
     0
1000
MTEXTEND
1000
MTEXTBEGIN
1070
    73
1070
     1
1070
    44
1040
1.0
1070
    74
1070
     0
1000
MTEXTEND
  0
POINT
  5
23E2
330
2295
100
AcDbEntity
  8
DEFPOINTS
 62
     0
100
AcDbPoint
 10
569.4346491229448
 20
254.5605428608879
 30
0.0
  0
POINT
  5
23E3
330
2295
100
AcDbEntity
  8
DEFPOINTS
 62
     0
100
AcDbPoint
 10
659.3265174253452
 20
254.5605428608878
 30
0.0
  0
POINT
  5
23E4
330
2295
100
AcDbEntity
  8
DEFPOINTS
 62
     0
100
AcDbPoint
 10
659.3265174253452
 20
303.5507950085186
 30
0.0
  0
ENDBLK
  5
22A0
330
2295
100
AcDbEntity
  8
0
100
AcDbBlockEnd
  0
ENDSEC
  0
SECTION
  2
ENTITIES
  0
LWPOLYLINE
  5
6C0
330
1A
100
AcDbEntity
  8
ZUWAKU
100
AcDbPolyline
 90
        4
 70
     1
 43
0.0
 10
10.85047808566059
 20
564.5825862828226
 10
10.85047808566059
 20
14.58258628282271
 10
806.8504780856606
 20
14.58258628282271
 10
806.8504780856606
 20
564.5825862828226
  0
LWPOLYLINE
  5
6C1
330
1A
100
AcDbEntity
  8
ZUWAKU
100
AcDbPolyline
 90
        4
 70
     1
 43
0.0
 10
10.45047808566073
 20
564.9825862828227
 10
10.45047808566073
 20
14.18258628282274
 10
807.2504780856606
 20
14.18258628282272
 10
807.2504780856606
 20
564.9825862828227
  0
LWPOLYLINE
  5
6C2
330
1A
100
AcDbEntity
  8
ZUWAKU
100
AcDbPolyline
 90
        4
 70
     1
 43
0.0
 10
10.05047808566086
 20
565.3825862828226
 10
10.05047808566086
 20
13.78258628282265
 10
807.6504780856607
 20
13.78258628282271
 10
807.6504780856607
 20
565.3825862828227
  0
LWPOLYLINE
  5
6C3
330
1A
100
AcDbEntity
  8
ZUWAKU
100
AcDbPolyline
 90
        4
 70
     1
 43
0.0
 10
10.65047808566077
 20
564.7825862828227
 10
10.65047808566077
 20
14.38258628282267
 10
807.0504780856609
 20
14.38258628282271
 10
807.0504780856609
 20
564.7825862828227
  0
LWPOLYLINE
  5
6C4
330
1A
100
AcDbEntity
  8
ZUWAKU
100
AcDbPolyline
 90
        4
 70
     1
 43
0.0
 10
10.25047808566068
 20
565.1825862828227
 10
10.25047808566068
 20
13.98258628282269
 10
807.4504780856605
 20
13.98258628282271
 10
807.450478085661
 20
565.1825862828227
  0
LINE
  5
6C5
330
1A
100
AcDbEntity
  8
ZUWAKU
100
AcDbLine
 10
10.05047808566086
 20
43.78258628282265
 30
0.0
 11
807.4504780856605
 21
43.78258628282265
 31
0.0
  0
LINE
  5
6C6
330
1A
100
AcDbEntity
  8
ZUWAKU
100
AcDbLine
 10
10.05047808566086
 20
43.98258628282265
 30
0.0
 11
807.4504780856605
 21
43.98258628282265
 31
0.0
  0
LINE
  5
6C7
330
1A
100
AcDbEntity
  8
ZUWAKU
100
AcDbLine
 10
10.05047808566086
 20
44.18258628282266
 30
0.0
 11
807.4504780856605
 21
44.18258628282266
 31
0.0
  0
LINE
  5
6C8
330
1A
100
AcDbEntity
  8
ZUWAKU
100
AcDbLine
 10
10.05047808566086
 20
44.38258628282265
 30
0.0
 11
807.4504780856605
 21
44.38258628282265
 31
0.0
  0
LINE
  5
6C9
330
1A
100
AcDbEntity
  8
ZUWAKU
100
AcDbLine
 10
10.05047808566086
 20
44.58258628282266
 30
0.0
 11
807.4504780856605
 21
44.58258628282266
 31
0.0
  0
LINE
  5
6CA
330
1A
100
AcDbEntity
  8
ZUWAKU
100
AcDbLine
 10
218.6970793757286
 20
29.18258628282268
 30
0.0
 11
457.474842056652
 21
29.18258628282268
 31
0.0
  0
LINE
  5
6CB
330
1A
100
AcDbEntity
  8
ZUWAKU
100
AcDbLine
 10
218.6970793757286
 20
29.38258628282268
 30
0.0
 11
457.474842056652
 21
29.38258628282268
 31
0.0
  0
LINE
  5
6CC
330
1A
100
AcDbEntity
  8
ZUWAKU
100
AcDbLine
 10
218.6970793757286
 20
28.98258628282269
 30
0.0
 11
457.474842056652
 21
28.98258628282268
 31
0.0
  0
LINE
  5
6D2
330
1A
100
AcDbEntity
  8
ZUWAKU
100
AcDbLine
 10
22.57284175945824
 20
29.44753577648383
 30
0.0
 11
25.48263973410303
 21
26.53773780183917
 31
0.0
  0
LINE
  5
6D3
330
1A
100
AcDbEntity
  8
ZUWAKU
100
AcDbLine
 10
27.46253872142551
 20
28.51763678916148
 30
0.0
 11
24.55274074678072
 21
31.42743476380615
 31
0.0
  0
ARC
  5
6D4
330
1A
100
AcDbEntity
  8
ZUWAKU
100
AcDbCircle
 10
24.66769024044197
 20
33.70758628282265
 30
0.0
 40
0.525
100
AcDbArc
 50
90.0
 51
180.0
  0
LINE
  5
6D5
330
1A
100
AcDbEntity
  8
ZUWAKU
100
AcDbLine
 10
24.14269024044187
 20
37.03258628282265
 30
0.0
 11
27.64269024044188
 21
37.03258628282265
 31
0.0
  0
LINE
  5
6D6
330
1A
100
AcDbEntity
  8
ZUWAKU
100
AcDbLine
 10
22.39269024044188
 20
23.73258628282265
 30
0.0
 11
25.36769024044179
 21
23.73258628282265
 31
0.0
  0
LINE
  5
6D7
330
1A
100
AcDbEntity
  8
ZUWAKU
100
AcDbLine
 10
22.39269024044188
 20
20.93258628282265
 30
0.0
 11
25.89269024044188
 21
20.93258628282265
 31
0.0
  0
INSERT
  5
6D8
330
1A
100
AcDbEntity
  8
ZUWAKU
  6
Continuous
100
AcDbBlockReference
  2
*X1
 10
12.342212154781
 20
7.675000000000004
 30
0.0
1001
ACAD
1000
HATCH
1002
{
1070
    19
1000
ANSI37
1040
0.2
1040
0.0
1000
R14_HATCH_DATA
1000
4E4
1011
13.34221215478101
1021
7.675000000000004
1031
0.0
1011
12.342212154781
1021
8.675000000000004
1031
0.0
1011
12.342212154781
1021
7.675000000000004
1031
1.0
1040
0.0
1010
0.0
1020
0.0
1030
1.0
1000
ANSI37
1070
     0
1070
     0
1071
        8
1071
        7
1070
     1
1070
     1
1071
       24
1040
12.2105285919996
1040
23.75243476380622
1040
-0.1989123673796348
1040
11.80047808566087
1040
24.74238425746728
1040
0.0
1040
11.80047808566087
1040
26.03258628282265
1040
-0.4142135623730912
1040
12.32547808566084
1040
26.55758628282264
1040
0.0
1040
15.30047808566075
1040
26.55758628282264
1040
0.4142135623731546
1040
15.82547808566084
1040
27.08258628282264
1040
0.0
1040
15.82547808566084
1040
28.83258628282265
1040
0.4142135623731586
1040
15.30047808566075
1040
29.35758628282265
1040
0.0
1040
11.80047808566087
1040
29.35758628282265
1040
0.4142135623730928
1040
9.000478085660915
1040
26.55758628282267
1040
0.0
1040
9.000478085660915
1040
24.7423842574674
1040
0.1989123673796619
1040
10.23062960467734
1040
21.7725357764838
1040
0.0
1040
13.14042757932202
1040
18.86273780183914
1040
-0.1989123673796613
1040
13.55047808566087
1040
17.87278830817795
1040
0.0
1040
13.55047808566087
1040
16.58258628282264
1040
-0.4142135623730911
1040
13.02547808566089
1040
16.05758628282264
1040
0.0
1040
10.05047808566098
1040
16.05758628282264
1040
0.4142135623731526
1040
9.525478085660893
1040
15.53258628282265
1040
0.0
1040
9.525478085660893
1040
13.78258628282263
1040
0.4142135623731526
1040
10.05047808566098
1040
13.25758628282265
1040
0.0
1040
13.55047808566087
1040
13.25758628282265
1040
0.4142135623731044
1040
16.35047808566094
1040
16.05758628282262
1040
0.0
1040
16.35047808566094
1040
17.87278830817789
1040
0.1989123673796604
1040
15.12032656664439
1040
20.84263678916144
1040
0.0
1071
        0
1071
        7
1070
     1
1070
     1
1071
       16
1040
21.25047808566091
1040
25.15758628282265
1040
-0.4142135623730935
1040
22.65047808566089
1040
26.55758628282264
1040
0.0
1040
24.57547808566085
1040
26.55758628282264
1040
0.4142135623731546
1040
25.10047808566094
1040
27.08258628282264
1040
0.0
1040
25.10047808566094
1040
28.83258628282265
1040
0.4142135623730951
1040
24.57547808566096
1040
29.35758628282265
1040
0.0
1040
22.65047808566078
1040
29.35758628282261
1040
0.4142135623730892
1040
18.45047808566084
1040
25.15758628282258
1040
0.0
1040
18.45047808566084
1040
17.45758628282267
1040
0.4142135623730969
1040
22.65047808566089
1040
13.25758628282265
1040
0.0
1040
24.57547808566085
1040
13.25758628282265
1040
0.4142135623731526
1040
25.10047808566094
1040
13.78258628282263
1040
0.0
1040
25.10047808566094
1040
15.53258628282265
1040
0.4142135623730891
1040
24.57547808566096
1040
16.05758628282264
1040
0.0
1040
22.65047808566089
1040
16.05758628282264
1040
-0.4142135623730928
1040
21.25047808566091
1040
17.45758628282263
1040
0.0
1071
        0
1071
        7
1070
     1
1070
     1
1071
        2
1040
21.95047808566084
1040
21.30758628282265
1040
1.0
1040
25.45047808566085
1040
21.30758628282265
1040
1.0
1071
        0
1071
        7
1070
     1
1070
     1
1071
       26
1040
35.02312456783886
1040
25.31263347638607
1040
0.0
1040
36.08476420097668
1040
28.67449231465566
1040
0.5069206636600134
1040
35.58413330178132
1040
29.35758628282265
1040
0.0
1040
33.88524392217209
1040
29.35758628282265
1040
0.3272098845218764
1040
33.38461302297673
1040
28.99068025098962
1040
0.0
1040
31.51634314834495
1040
23.07449231465573
1040
-0.3272098845219541
1040
31.01571224914948
1040
22.70758628282264
1040
0.0
1040
30.87547808566103
1040
22.70758628282264
1040
-0.4142135623731526
1040
30.35047808566094
1040
23.23258628282263
1040
0.0
1040
30.35047808566094
1040
28.83258628282265
1040
0.4142135623730951
1040
29.82547808566096
1040
29.35758628282265
1040
0.0
1040
28.07547808566084
1040
29.35758628282265
1040
0.4142135623730871
1040
27.55047808566087
1040
28.83258628282266
1040
0.0
1040
27.55047808566087
1040
13.78258628282263
1040
0.4142135623730891
1040
28.07547808566084
1040
13.25758628282265
1040
0.0
1040
29.82547808566085
1040
13.25758628282265
1040
0.4142135623731526
1040
30.35047808566094
1040
13.78258628282263
1040
0.0
1040
30.35047808566094
1040
19.38258628282266
1040
-0.4142135623731526
1040
30.87547808566103
1040
19.90758628282264
1040
0.0
1040
31.0157122491496
1040
19.90758628282264
1040
-0.3272098845218915
1040
31.51634314834495
1040
19.54068025098957
1040
0.0
1040
33.38461302297673
1040
13.62449231465572
1040
0.3272098845218902
1040
33.88524392217209
1040
13.25758628282265
1040
0.0
1040
35.58413330178132
1040
13.25758628282265
1040
0.5069206636600335
1040
36.08476420097668
1040
13.94068025098965
1040
0.0
1040
33.75837282250301
1040
21.30758628282279
1040
0.0
1071
        0
1071
        7
1070
     1
1070
     1
1071
        8
1040
41.20047808566084
1040
28.83258628282266
1040
0.4142135623731546
1040
40.67547808566075
1040
29.35758628282265
1040
0.0
1040
38.92547808566098
1040
29.35758628282265
1040
0.4142135623731507
1040
38.40047808566089
1040
28.83258628282266
1040
0.0
1040
38.40047808566089
1040
13.78258628282263
1040
0.4142135623731526
1040
38.92547808566098
1040
13.25758628282265
1040
0.0
1040
40.67547808566075
1040
13.25758628282265
1040
0.4142135623731526
1040
41.20047808566084
1040
13.78258628282263
1040
0.0
1071
        0
1071
        7
1070
     1
1070
     1
1071
       24
1040
46.10047808566093
1040
26.03258628282265
1040
-0.4142135623731546
1040
46.62547808566102
1040
26.55758628282264
1040
0.0
1040
49.60047808566094
1040
26.55758628282264
1040
0.4142135623730911
1040
50.12547808566091
1040
27.08258628282264
1040
0.0
1040
50.12547808566091
1040
28.83258628282265
1040
0.4142135623730952
1040
49.60047808566094
1040
29.35758628282265
1040
0.0
1040
46.10047808566093
1040
29.35758628282265
1040
0.4142135623731048
1040
43.30047808566087
1040
26.55758628282267
1040
0.0
1040
43.30047808566087
1040
24.7423842574674
1040
0.1989123673796613
1040
44.53062960467741
1040
21.77253577648385
1040
0.0
1040
47.44042757932208
1040
18.86273780183918
1040
-0.1989123673796402
1040
47.85047808566093
1040
17.87278830817811
1040
0.0
1040
47.85047808566093
1040
16.58258628282264
1040
-0.4142135623730911
1040
47.32547808566096
1040
16.05758628282264
1040
0.0
1040
44.35047808566094
1040
16.05758628282264
1040
0.4142135623731526
1040
43.82547808566084
1040
15.53258628282265
1040
0.0
1040
43.82547808566084
1040
13.78258628282263
1040
0.4142135623730891
1040
44.35047808566082
1040
13.25758628282265
1040
0.0
1040
47.85047808566093
1040
13.25758628282265
1040
0.4142135623730925
1040
50.65047808566089
1040
16.05758628282262
1040
0.0
1040
50.65047808566089
1040
17.87278830817789
1040
0.1989123673796675
1040
49.42032656664435
1040
20.84263678916155
1040
0.0
1040
46.51052859199978
1040
23.75243476380607
1040
-0.1989123673796652
1040
46.10047808566093
1040
24.74238425746723
1040
0.0
1071
        0
1071
        7
1070
     1
1070
     1
1071
       16
1040
55.55047808566087
1040
28.83258628282264
1040
0.414213562373103
1040
55.02547808566089
1040
29.35758628282265
1040
0.0
1040
53.27547808566089
1040
29.35758628282265
1040
0.4142135623730871
1040
52.75047808566092
1040
28.83258628282266
1040
0.0
1040
52.75047808566092
1040
16.05758628282262
1040
0.4142135623730926
1040
55.55047808566087
1040
13.25758628282265
1040
0.0
1040
59.05047808566087
1040
13.25758628282265
1040
0.4142135623731044
1040
61.85047808566094
1040
16.05758628282262
1040
0.0
1040
61.85047808566094
1040
28.83258628282265
1040
0.4142135623730951
1040
61.32547808566096
1040
29.35758628282265
1040
0.0
1040
59.57547808566085
1040
29.35758628282265
1040
0.4142135623730871
1040
59.05047808566087
1040
28.83258628282266
1040
0.0
1040
59.05047808566087
1040
17.10758628282262
1040
-0.414213562373088
1040
58.00047808566091
1040
16.05758628282264
1040
0.0
1040
56.60047808566094
1040
16.05758628282264
1040
-0.4142135623731197
1040
55.55047808566087
1040
17.10758628282262
1040
0.0
1071
        0
1071
        7
1070
     1
1070
     1
1071
        8
1040
66.75047808566091
1040
28.83258628282266
1040
0.4142135623730871
1040
66.22547808566094
1040
29.35758628282265
1040
0.0
1040
64.47547808566094
1040
29.35758628282265
1040
0.4142135623731507
1040
63.95047808566085
1040
28.83258628282266
1040
0.0
1040
63.95047808566085
1040
13.78258628282263
1040
0.4142135623730891
1040
64.47547808566082
1040
13.25758628282265
1040
0.0
1040
66.22547808566094
1040
13.25758628282265
1040
0.4142135623730891
1040
66.75047808566091
1040
13.78258628282263
1040
0.0
1071
        0
1070
     0
1070
     1
1040
0.0
1040
0.2
1070
     0
1070
     2
1040
0.7853981633974483
1040
-903.2340384037992
1040
-7.092413717177286
1040
-0.4490128060534576
1040
0.4490128060534577
1070
     0
1040
2.356194490192344
1040
-903.2340384037992
1040
-7.092413717177286
1040
-0.4490128060534577
1040
-0.4490128060534576
1070
     0
1040
0.057451373970553
1071
        8
1040
13.78812089390305
1040
21.2747599287082
1040
0.0
1040
20.11278093731891
1040
24.95164846527365
1040
0.0
1040
22.8726338165394
1040
21.61946792889336
1040
0.0
1040
28.62232591251688
1040
22.30888392926414
1040
0.0
1040
39.54673794983648
1040
22.76849619680576
1040
0.0
1040
44.6064668260093
1040
25.52616259922985
1040
0.0
1040
54.2659519032801
1040
24.83674419791766
1040
0.0
1040
65.53534555050248
1040
25.29635646545927
1040
0.0
1002
}
  0
ARC
  5
6D9
330
1A
100
AcDbEntity
  8
ZUWAKU
100
AcDbCircle
 10
22.39269024044188
 20
23.20758628282265
 30
0.0
 40
0.525
100
AcDbArc
 50
90.0
 51
180.0
  0
ARC
  5
6DA
330
1A
100
AcDbEntity
  8
ZUWAKU
100
AcDbCircle
 10
22.39269024044188
 20
21.45758628282265
 30
0.0
 40
0.525
100
AcDbArc
 50
180.0
 51
270.0
  0
LINE
  5
6DB
330
1A
100
AcDbEntity
  8
ZUWAKU
100
AcDbLine
 10
21.86769024044179
 20
21.45758628282265
 30
0.0
 11
21.86769024044179
 21
23.20758628282265
 31
0.0
  0
ARC
  5
6DC
330
1A
100
AcDbEntity
  8
ZUWAKU
100
AcDbCircle
 10
25.54269024044197
 20
32.41738425746735
 30
0.0
 40
4.199999999999999
100
AcDbArc
 50
180.0
 51
224.9999999999996
  0
ARC
  5
6DD
330
1A
100
AcDbEntity
  8
ZUWAKU
100
AcDbCircle
 10
25.54269024044197
 20
32.41738425746735
 30
0.0
 40
1.399999999999999
100
AcDbArc
 50
180.0000000000016
 51
224.9999999999993
  0
ARC
  5
6DE
330
1A
100
AcDbEntity
  8
ZUWAKU
100
AcDbCircle
 10
24.14269024044187
 20
34.23258628282265
 30
0.0
 40
2.799999999999999
100
AcDbArc
 50
90.0
 51
180.0
  0
LINE
  5
6DF
330
1A
100
AcDbEntity
  8
ZUWAKU
100
AcDbLine
 10
21.34269024044192
 20
34.23258628282265
 30
0.0
 11
21.34269024044192
 21
32.41738425746731
 31
0.0
  0
LINE
  5
6E0
330
1A
100
AcDbEntity
  8
ZUWAKU
100
AcDbLine
 10
24.14269024044187
 20
33.70758628282265
 30
0.0
 11
24.14269024044187
 21
32.41738425746731
 31
0.0
  0
LINE
  5
6E1
330
1A
100
AcDbEntity
  8
ZUWAKU
100
AcDbLine
 10
89.17710763364903
 20
43.78258628282265
 30
0.0
 11
89.17710763364903
 21
14.58258628282271
 31
0.0
  0
LINE
  5
6E2
330
1A
100
AcDbEntity
  8
ZUWAKU
100
AcDbLine
 10
89.57710763364913
 20
43.78258628282265
 30
0.0
 11
89.57710763364913
 21
14.58258628282271
 31
0.0
  0
LINE
  5
6E3
330
1A
100
AcDbEntity
  8
ZUWAKU
100
AcDbLine
 10
89.37710763364885
 20
43.78258628282265
 30
0.0
 11
89.37710763364931
 21
14.58258628282271
 31
0.0
  0
LINE
  5
6E4
330
1A
100
AcDbEntity
  8
ZUWAKU
100
AcDbLine
 10
56.87284175945842
 20
29.44753577648383
 30
0.0
 11
59.78263973410321
 21
26.53773780183917
 31
0.0
  0
ARC
  5
6E5
330
1A
100
AcDbEntity
  8
ZUWAKU
100
AcDbCircle
 10
58.44269024044206
 20
34.23258628282265
 30
0.0
 40
2.799999999999999
100
AcDbArc
 50
90.0
 51
180.0
  0
LINE
  5
6E6
330
1A
100
AcDbEntity
  8
ZUWAKU
100
AcDbLine
 10
56.69269024044206
 20
20.93258628282265
 30
0.0
 11
60.19269024044206
 21
20.93258628282265
 31
0.0
  0
LINE
  5
6E7
330
1A
100
AcDbEntity
  8
ZUWAKU
100
AcDbLine
 10
56.69269024044206
 20
23.73258628282265
 30
0.0
 11
59.66769024044197
 21
23.73258628282265
 31
0.0
  0
LINE
  5
6E8
330
1A
100
AcDbEntity
  8
ZUWAKU
100
AcDbLine
 10
42.16769024044197
 20
37.03258628282265
 30
0.0
 11
40.41769024044197
 21
37.03258628282265
 31
0.0
  0
LINE
  5
6E9
330
1A
100
AcDbEntity
  8
ZUWAKU
100
AcDbLine
 10
40.41769024044197
 20
20.93258628282265
 30
0.0
 11
42.16769024044197
 21
20.93258628282265
 31
0.0
  0
LINE
  5
6EA
330
1A
100
AcDbEntity
  8
ZUWAKU
100
AcDbLine
 10
39.89269024044188
 20
36.50758628282265
 30
0.0
 11
39.89269024044188
 21
21.45758628282265
 31
0.0
  0
LINE
  5
6EB
330
1A
100
AcDbEntity
  8
ZUWAKU
100
AcDbLine
 10
30.79269024044197
 20
25.13258628282265
 30
0.0
 11
30.79269024044197
 21
32.83258628282261
 31
0.0
  0
LINE
  5
6EC
330
1A
100
AcDbEntity
  8
ZUWAKU
100
AcDbLine
 10
33.59269024044192
 20
32.83258628282265
 30
0.0
 11
33.59269024044192
 21
25.13258628282265
 31
0.0
  0
ARC
  5
6ED
330
1A
100
AcDbEntity
  8
ZUWAKU
100
AcDbCircle
 10
24.49269024044179
 20
25.54778830817795
 30
0.0
 40
4.199999999999999
100
AcDbArc
 50
0.0
 51
44.9999999999996
  0
CIRCLE
  5
6EE
330
1A
100
AcDbEntity
  8
ZUWAKU
100
AcDbCircle
 10
36.04269024044197
 20
28.98258628282265
 30
0.0
 40
1.75
  0
ARC
  5
6EF
330
1A
100
AcDbEntity
  8
ZUWAKU
100
AcDbCircle
 10
34.99269024044179
 20
25.13258628282265
 30
0.0
 40
4.199999999999999
100
AcDbArc
 50
180.0
 51
270.0
  0
LINE
  5
6F0
330
1A
100
AcDbEntity
  8
ZUWAKU
100
AcDbLine
 10
28.69269024044206
 20
23.73258628282265
 30
0.0
 11
28.69269024044206
 21
25.547788308178
 31
0.0
  0
ARC
  5
6F1
330
1A
100
AcDbEntity
  8
ZUWAKU
100
AcDbCircle
 10
25.36769024044179
 20
24.25758628282265
 30
0.0
 40
0.525
100
AcDbArc
 50
270.0
 51
0.0
  0
LINE
  5
6F2
330
1A
100
AcDbEntity
  8
ZUWAKU
100
AcDbLine
 10
25.89269024044188
 20
24.25758628282265
 30
0.0
 11
25.89269024044188
 21
25.547788308178
 31
0.0
  0
ARC
  5
6F3
330
1A
100
AcDbEntity
  8
ZUWAKU
100
AcDbCircle
 10
25.89269024044188
 20
23.73258628282265
 30
0.0
 40
2.799999999999999
100
AcDbArc
 50
270.0
 51
0.0
  0
ARC
  5
6F4
330
1A
100
AcDbEntity
  8
ZUWAKU
100
AcDbCircle
 10
24.49269024044179
 20
25.547788308178
 30
0.0
 40
1.399999999999999
100
AcDbArc
 50
0.0
 51
44.9999999999996
  0
ARC
  5
6F5
330
1A
100
AcDbEntity
  8
ZUWAKU
100
AcDbCircle
 10
40.41769024044197
 20
21.45758628282265
 30
0.0
 40
0.525
100
AcDbArc
 50
180.0
 51
270.0
  0
ARC
  5
6F6
330
1A
100
AcDbEntity
  8
ZUWAKU
100
AcDbCircle
 10
36.91769024044197
 20
23.20758628282265
 30
0.0
 40
0.525
100
AcDbArc
 50
0.0
 51
90.0
  0
ARC
  5
6F7
330
1A
100
AcDbEntity
  8
ZUWAKU
100
AcDbCircle
 10
36.91769024044197
 20
21.45758628282265
 30
0.0
 40
0.525
100
AcDbArc
 50
270.0
 51
0.0
  0
LINE
  5
6F8
330
1A
100
AcDbEntity
  8
ZUWAKU
100
AcDbLine
 10
37.44269024044206
 20
23.20758628282265
 30
0.0
 11
37.44269024044206
 21
21.45758628282265
 31
0.0
  0
ARC
  5
6F9
330
1A
100
AcDbEntity
  8
ZUWAKU
100
AcDbCircle
 10
34.99269024044179
 20
25.13258628282265
 30
0.0
 40
1.399999999999999
100
AcDbArc
 50
180.0
 51
270.0
  0
LINE
  5
6FA
330
1A
100
AcDbEntity
  8
ZUWAKU
100
AcDbLine
 10
36.91769024044197
 20
20.93258628282265
 30
0.0
 11
34.99269024044179
 21
20.93258628282265
 31
0.0
  0
LINE
  5
6FB
330
1A
100
AcDbEntity
  8
ZUWAKU
100
AcDbLine
 10
34.99269024044179
 20
23.73258628282265
 30
0.0
 11
36.91769024044197
 21
23.73258628282265
 31
0.0
  0
ARC
  5
6FC
330
1A
100
AcDbEntity
  8
ZUWAKU
100
AcDbCircle
 10
34.99269024044179
 20
32.83258628282261
 30
0.0
 40
4.199999999999999
100
AcDbArc
 50
90.0
 51
180.0
  0
LINE
  5
6FD
330
1A
100
AcDbEntity
  8
ZUWAKU
100
AcDbLine
 10
28.16769024044197
 20
36.50758628282265
 30
0.0
 11
28.16769024044197
 21
34.75758628282265
 31
0.0
  0
LINE
  5
6FE
330
1A
100
AcDbEntity
  8
ZUWAKU
100
AcDbLine
 10
27.64269024044188
 20
34.23258628282265
 30
0.0
 11
24.66769024044197
 21
34.23258628282265
 31
0.0
  0
ARC
  5
6FF
330
1A
100
AcDbEntity
  8
ZUWAKU
100
AcDbCircle
 10
27.64269024044188
 20
34.75758628282265
 30
0.0
 40
0.525
100
AcDbArc
 50
270.0
 51
0.0
  0
ARC
  5
700
330
1A
100
AcDbEntity
  8
ZUWAKU
100
AcDbCircle
 10
27.64269024044188
 20
36.50758628282265
 30
0.0
 40
0.525
100
AcDbArc
 50
0.0
 51
90.0
  0
LINE
  5
701
330
1A
100
AcDbEntity
  8
ZUWAKU
100
AcDbLine
 10
37.44269024044206
 20
36.50758628282265
 30
0.0
 11
37.44269024044206
 21
34.75758628282265
 31
0.0
  0
ARC
  5
702
330
1A
100
AcDbEntity
  8
ZUWAKU
100
AcDbCircle
 10
36.91769024044197
 20
34.75758628282265
 30
0.0
 40
0.525
100
AcDbArc
 50
270.0
 51
0.0
  0
ARC
  5
703
330
1A
100
AcDbEntity
  8
ZUWAKU
100
AcDbCircle
 10
40.41769024044197
 20
36.50758628282265
 30
0.0
 40
0.525
100
AcDbArc
 50
90.0
 51
180.0
  0
ARC
  5
704
330
1A
100
AcDbEntity
  8
ZUWAKU
100
AcDbCircle
 10
36.91769024044197
 20
36.50758628282265
 30
0.0
 40
0.525
100
AcDbArc
 50
0.0
 51
90.0
  0
ARC
  5
705
330
1A
100
AcDbEntity
  8
ZUWAKU
100
AcDbCircle
 10
34.99269024044179
 20
32.83258628282265
 30
0.0
 40
1.399999999999999
100
AcDbArc
 50
90.0
 51
180.0
  0
LINE
  5
706
330
1A
100
AcDbEntity
  8
ZUWAKU
100
AcDbLine
 10
36.91769024044197
 20
34.23258628282265
 30
0.0
 11
34.99269024044179
 21
34.23258628282265
 31
0.0
  0
LINE
  5
707
330
1A
100
AcDbEntity
  8
ZUWAKU
100
AcDbLine
 10
34.99269024044179
 20
37.03258628282261
 30
0.0
 11
36.91769024044197
 21
37.03258628282265
 31
0.0
  0
ARC
  5
708
330
1A
100
AcDbEntity
  8
ZUWAKU
100
AcDbCircle
 10
43.21769024044215
 20
27.05758628282265
 30
0.0
 40
0.525
100
AcDbArc
 50
90.0
 51
180.0
  0
ARC
  5
709
330
1A
100
AcDbEntity
  8
ZUWAKU
100
AcDbCircle
 10
43.35792440393061
 20
27.05758628282265
 30
0.0
 40
0.525
100
AcDbArc
 50
17.52556837372255
 51
90.0
  0
LINE
  5
70A
330
1A
100
AcDbEntity
  8
ZUWAKU
100
AcDbLine
 10
53.54269024044197
 20
21.45758628282265
 30
0.0
 11
53.54269024044197
 21
36.50758628282265
 31
0.0
  0
LINE
  5
70B
330
1A
100
AcDbEntity
  8
ZUWAKU
100
AcDbLine
 10
50.74269024044179
 20
36.50758628282265
 30
0.0
 11
50.74269024044179
 21
21.45758628282265
 31
0.0
  0
LINE
  5
70C
330
1A
100
AcDbEntity
  8
ZUWAKU
100
AcDbLine
 10
48.42697635575769
 20
21.61568025098962
 30
0.0
 11
46.10058497728414
 21
28.98258628282267
 31
0.0
  0
LINE
  5
70D
330
1A
100
AcDbEntity
  8
ZUWAKU
100
AcDbLine
 10
43.21769024044215
 20
27.58258628282265
 30
0.0
 11
43.35792440393061
 21
27.58258628282265
 31
0.0
  0
ARC
  5
70E
330
1A
100
AcDbEntity
  8
ZUWAKU
100
AcDbCircle
 10
46.22745607695333
 20
21.45758628282265
 30
0.0
 40
0.525
100
AcDbArc
 50
197.5255683737225
 51
270.0
  0
ARC
  5
70F
330
1A
100
AcDbEntity
  8
ZUWAKU
100
AcDbCircle
 10
47.9263454565621
 20
21.45758628282265
 30
0.0
 40
0.525
100
AcDbArc
 50
270.0
 51
17.52556837372255
  0
LINE
  5
710
330
1A
100
AcDbEntity
  8
ZUWAKU
100
AcDbLine
 10
46.22745607695333
 20
20.93258628282265
 30
0.0
 11
47.9263454565621
 21
20.93258628282265
 31
0.0
  0
ARC
  5
711
330
1A
100
AcDbEntity
  8
ZUWAKU
100
AcDbCircle
 10
42.16769024044197
 20
21.45758628282265
 30
0.0
 40
0.525
100
AcDbArc
 50
270.0
 51
0.0
  0
LINE
  5
712
330
1A
100
AcDbEntity
  8
ZUWAKU
100
AcDbLine
 10
45.72682517775774
 20
21.29949231465567
 30
0.0
 11
43.85855530312574
 21
27.21568025098962
 31
0.0
  0
LINE
  5
713
330
1A
100
AcDbEntity
  8
ZUWAKU
100
AcDbLine
 10
42.69269024044206
 20
21.45758628282265
 30
0.0
 11
42.69269024044206
 21
27.05758628282265
 31
0.0
  0
ARC
  5
714
330
1A
100
AcDbEntity
  8
ZUWAKU
100
AcDbCircle
 10
56.69269024044206
 20
23.20758628282265
 30
0.0
 40
0.525
100
AcDbArc
 50
90.0
 51
180.0
  0
ARC
  5
715
330
1A
100
AcDbEntity
  8
ZUWAKU
100
AcDbCircle
 10
53.01769024044188
 20
21.45758628282265
 30
0.0
 40
0.525
100
AcDbArc
 50
270.0
 51
0.0
  0
ARC
  5
716
330
1A
100
AcDbEntity
  8
ZUWAKU
100
AcDbCircle
 10
56.69269024044206
 20
21.45758628282265
 30
0.0
 40
0.525
100
AcDbArc
 50
180.0
 51
270.0
  0
LINE
  5
717
330
1A
100
AcDbEntity
  8
ZUWAKU
100
AcDbLine
 10
56.16769024044197
 20
21.45758628282265
 30
0.0
 11
56.16769024044197
 21
23.20758628282265
 31
0.0
  0
ARC
  5
718
330
1A
100
AcDbEntity
  8
ZUWAKU
100
AcDbCircle
 10
51.26769024044188
 20
21.45758628282265
 30
0.0
 40
0.525
100
AcDbArc
 50
180.0
 51
270.0
  0
LINE
  5
719
330
1A
100
AcDbEntity
  8
ZUWAKU
100
AcDbLine
 10
51.26769024044188
 20
20.93258628282265
 30
0.0
 11
53.01769024044188
 21
20.93258628282265
 31
0.0
  0
LINE
  5
71A
330
1A
100
AcDbEntity
  8
ZUWAKU
100
AcDbLine
 10
47.36533672261976
 20
32.98763347638608
 30
0.0
 11
46.10058497728414
 21
28.98258628282267
 31
0.0
  0
ARC
  5
71B
330
1A
100
AcDbEntity
  8
ZUWAKU
100
AcDbCircle
 10
46.22745607695333
 20
36.50758628282265
 30
0.0
 40
0.525
100
AcDbArc
 50
90.0
 51
162.4744316262773
  0
LINE
  5
71C
330
1A
100
AcDbEntity
  8
ZUWAKU
100
AcDbLine
 10
48.42697635575769
 20
36.34949231465568
 30
0.0
 11
47.36533672261976
 21
32.98763347638608
 31
0.0
  0
ARC
  5
71D
330
1A
100
AcDbEntity
  8
ZUWAKU
100
AcDbCircle
 10
47.9263454565621
 20
36.50758628282265
 30
0.0
 40
0.525
100
AcDbArc
 50
342.4744316262774
 51
90.0
  0
LINE
  5
71E
330
1A
100
AcDbEntity
  8
ZUWAKU
100
AcDbLine
 10
46.22745607695333
 20
37.03258628282265
 30
0.0
 11
47.9263454565621
 21
37.03258628282265
 31
0.0
  0
LINE
  5
71F
330
1A
100
AcDbEntity
  8
ZUWAKU
100
AcDbLine
 10
42.69269024044206
 20
30.90758628282265
 30
0.0
 11
42.69269024044206
 21
36.50758628282265
 31
0.0
  0
ARC
  5
720
330
1A
100
AcDbEntity
  8
ZUWAKU
100
AcDbCircle
 10
43.21769024044215
 20
30.90758628282265
 30
0.0
 40
0.525
100
AcDbArc
 50
180.0
 51
270.0
  0
LINE
  5
721
330
1A
100
AcDbEntity
  8
ZUWAKU
100
AcDbLine
 10
43.35792440393061
 20
30.38258628282265
 30
0.0
 11
43.21769024044215
 21
30.38258628282265
 31
0.0
  0
ARC
  5
722
330
1A
100
AcDbEntity
  8
ZUWAKU
100
AcDbCircle
 10
43.35792440393061
 20
30.90758628282265
 30
0.0
 40
0.525
100
AcDbArc
 50
270.0
 51
342.4744316262774
  0
ARC
  5
723
330
1A
100
AcDbEntity
  8
ZUWAKU
100
AcDbCircle
 10
42.16769024044197
 20
36.50758628282265
 30
0.0
 40
0.525
100
AcDbArc
 50
0.0
 51
90.0
  0
LINE
  5
724
330
1A
100
AcDbEntity
  8
ZUWAKU
100
AcDbLine
 10
45.72682517775774
 20
36.66568025098962
 30
0.0
 11
43.85855530312574
 21
30.74949231465568
 31
0.0
  0
ARC
  5
725
330
1A
100
AcDbEntity
  8
ZUWAKU
100
AcDbCircle
 10
59.84269024044215
 20
32.41738425746735
 30
0.0
 40
4.199999999999999
100
AcDbArc
 50
180.0
 51
224.9999999999996
  0
LINE
  5
726
330
1A
100
AcDbEntity
  8
ZUWAKU
100
AcDbLine
 10
55.64269024044188
 20
34.23258628282265
 30
0.0
 11
55.64269024044188
 21
32.41738425746731
 31
0.0
  0
ARC
  5
727
330
1A
100
AcDbEntity
  8
ZUWAKU
100
AcDbCircle
 10
53.01769024044188
 20
36.50758628282265
 30
0.0
 40
0.525
100
AcDbArc
 50
0.0
 51
90.0
  0
ARC
  5
728
330
1A
100
AcDbEntity
  8
ZUWAKU
100
AcDbCircle
 10
51.26769024044188
 20
36.50758628282265
 30
0.0
 40
0.525
100
AcDbArc
 50
90.0
 51
180.0
  0
LINE
  5
729
330
1A
100
AcDbEntity
  8
ZUWAKU
100
AcDbLine
 10
53.01769024044188
 20
37.03258628282265
 30
0.0
 11
51.26769024044188
 21
37.03258628282265
 31
0.0
  0
ARC
  5
72A
330
1A
100
AcDbEntity
  8
ZUWAKU
100
AcDbCircle
 10
73.66769024044197
 20
36.50758628282265
 30
0.0
 40
0.525
100
AcDbArc
 50
0.0
 51
90.0
  0
ARC
  5
72B
330
1A
100
AcDbEntity
  8
ZUWAKU
100
AcDbCircle
 10
71.39269024044188
 20
23.73258628282265
 30
0.0
 40
2.799999999999999
100
AcDbArc
 50
270.0
 51
0.0
  0
LINE
  5
72C
330
1A
100
AcDbEntity
  8
ZUWAKU
100
AcDbLine
 10
67.89269024044187
 20
24.78258628282265
 30
0.0
 11
67.89269024044187
 21
36.50758628282265
 31
0.0
  0
LINE
  5
72D
330
1A
100
AcDbEntity
  8
ZUWAKU
100
AcDbLine
 10
65.09269024044215
 20
36.50758628282265
 30
0.0
 11
65.09269024044215
 21
23.73258628282265
 31
0.0
  0
LINE
  5
72E
330
1A
100
AcDbEntity
  8
ZUWAKU
100
AcDbLine
 10
71.39269024044188
 20
36.50758628282265
 30
0.0
 11
71.39269024044188
 21
24.78258628282265
 31
0.0
  0
ARC
  5
72F
330
1A
100
AcDbEntity
  8
ZUWAKU
100
AcDbCircle
 10
58.79269024044197
 20
25.54778830817795
 30
0.0
 40
4.199999999999999
100
AcDbArc
 50
0.0
 51
44.9999999999996
  0
ARC
  5
730
330
1A
100
AcDbEntity
  8
ZUWAKU
100
AcDbCircle
 10
67.89269024044187
 20
23.73258628282265
 30
0.0
 40
2.799999999999999
100
AcDbArc
 50
180.0
 51
270.0
  0
LINE
  5
731
330
1A
100
AcDbEntity
  8
ZUWAKU
100
AcDbLine
 10
62.99269024044178
 20
23.73258628282265
 30
0.0
 11
62.99269024044178
 21
25.547788308178
 31
0.0
  0
ARC
  5
732
330
1A
100
AcDbEntity
  8
ZUWAKU
100
AcDbCircle
 10
59.66769024044197
 20
24.25758628282265
 30
0.0
 40
0.525
100
AcDbArc
 50
270.0
 51
0.0
  0
LINE
  5
733
330
1A
100
AcDbEntity
  8
ZUWAKU
100
AcDbLine
 10
60.19269024044206
 20
24.25758628282265
 30
0.0
 11
60.19269024044206
 21
25.547788308178
 31
0.0
  0
ARC
  5
734
330
1A
100
AcDbEntity
  8
ZUWAKU
100
AcDbCircle
 10
60.19269024044206
 20
23.73258628282265
 30
0.0
 40
2.799999999999999
100
AcDbArc
 50
270.0
 51
0.0
  0
ARC
  5
735
330
1A
100
AcDbEntity
  8
ZUWAKU
100
AcDbCircle
 10
58.79269024044197
 20
25.547788308178
 30
0.0
 40
1.399999999999999
100
AcDbArc
 50
0.0
 51
44.9999999999996
  0
ARC
  5
736
330
1A
100
AcDbEntity
  8
ZUWAKU
100
AcDbCircle
 10
70.34269024044215
 20
24.78258628282265
 30
0.0
 40
1.049999999999999
100
AcDbArc
 50
270.0
 51
0.0
  0
ARC
  5
737
330
1A
100
AcDbEntity
  8
ZUWAKU
100
AcDbCircle
 10
68.94269024044206
 20
24.78258628282265
 30
0.0
 40
1.049999999999999
100
AcDbArc
 50
180.0
 51
270.0
  0
LINE
  5
738
330
1A
100
AcDbEntity
  8
ZUWAKU
100
AcDbLine
 10
67.89269024044187
 20
20.93258628282265
 30
0.0
 11
71.39269024044188
 21
20.93258628282265
 31
0.0
  0
LINE
  5
739
330
1A
100
AcDbEntity
  8
ZUWAKU
100
AcDbLine
 10
70.34269024044215
 20
23.73258628282265
 30
0.0
 11
68.94269024044206
 21
23.73258628282265
 31
0.0
  0
LINE
  5
73A
330
1A
100
AcDbEntity
  8
ZUWAKU
100
AcDbLine
 10
67.36769024044178
 20
37.03258628282265
 30
0.0
 11
65.61769024044179
 21
37.03258628282265
 31
0.0
  0
LINE
  5
73B
330
1A
100
AcDbEntity
  8
ZUWAKU
100
AcDbLine
 10
62.46769024044215
 20
36.50758628282265
 30
0.0
 11
62.46769024044215
 21
34.75758628282265
 31
0.0
  0
ARC
  5
73C
330
1A
100
AcDbEntity
  8
ZUWAKU
100
AcDbCircle
 10
61.94269024044206
 20
34.75758628282265
 30
0.0
 40
0.525
100
AcDbArc
 50
270.0
 51
0.0
  0
ARC
  5
73D
330
1A
100
AcDbEntity
  8
ZUWAKU
100
AcDbCircle
 10
61.94269024044206
 20
36.50758628282265
 30
0.0
 40
0.525
100
AcDbArc
 50
0.0
 51
90.0
  0
ARC
  5
73E
330
1A
100
AcDbEntity
  8
ZUWAKU
100
AcDbCircle
 10
65.61769024044179
 20
36.50758628282265
 30
0.0
 40
0.525
100
AcDbArc
 50
90.0
 51
180.0
  0
ARC
  5
73F
330
1A
100
AcDbEntity
  8
ZUWAKU
100
AcDbCircle
 10
59.84269024044215
 20
32.41738425746735
 30
0.0
 40
1.399999999999999
100
AcDbArc
 50
180.0000000000016
 51
224.9999999999993
  0
LINE
  5
740
330
1A
100
AcDbEntity
  8
ZUWAKU
100
AcDbLine
 10
58.44269024044206
 20
33.70758628282265
 30
0.0
 11
58.44269024044206
 21
32.41738425746731
 31
0.0
  0
ARC
  5
741
330
1A
100
AcDbEntity
  8
ZUWAKU
100
AcDbCircle
 10
58.96769024044215
 20
33.70758628282265
 30
0.0
 40
0.525
100
AcDbArc
 50
90.0
 51
180.0
  0
LINE
  5
742
330
1A
100
AcDbEntity
  8
ZUWAKU
100
AcDbLine
 10
61.76253872142524
 20
28.51763678916148
 30
0.0
 11
58.85274074678045
 21
31.42743476380615
 31
0.0
  0
LINE
  5
743
330
1A
100
AcDbEntity
  8
ZUWAKU
100
AcDbLine
 10
61.94269024044206
 20
34.23258628282265
 30
0.0
 11
58.96769024044215
 21
34.23258628282265
 31
0.0
  0
LINE
  5
744
330
1A
100
AcDbEntity
  8
ZUWAKU
100
AcDbLine
 10
58.44269024044206
 20
37.03258628282265
 30
0.0
 11
61.94269024044206
 21
37.03258628282265
 31
0.0
  0
ARC
  5
745
330
1A
100
AcDbEntity
  8
ZUWAKU
100
AcDbCircle
 10
71.91769024044197
 20
36.50758628282265
 30
0.0
 40
0.525
100
AcDbArc
 50
90.0
 51
180.0
  0
LINE
  5
746
330
1A
100
AcDbEntity
  8
ZUWAKU
100
AcDbLine
 10
73.66769024044197
 20
37.03258628282265
 30
0.0
 11
71.91769024044197
 21
37.03258628282265
 31
0.0
  0
ARC
  5
747
330
1A
100
AcDbEntity
  8
ZUWAKU
100
AcDbCircle
 10
67.36769024044178
 20
36.50758628282265
 30
0.0
 40
0.525
100
AcDbArc
 50
0.0
 51
90.0
  0
LINE
  5
748
330
1A
100
AcDbEntity
  8
ZUWAKU
100
AcDbLine
 10
76.29269024044197
 20
36.50758628282265
 30
0.0
 11
76.29269024044197
 21
21.45758628282265
 31
0.0
  0
LINE
  5
749
330
1A
100
AcDbEntity
  8
ZUWAKU
100
AcDbLine
 10
79.09269024044215
 20
21.45758628282265
 30
0.0
 11
79.09269024044215
 21
36.50758628282265
 31
0.0
  0
LINE
  5
74A
330
1A
100
AcDbEntity
  8
ZUWAKU
100
AcDbLine
 10
74.19269024044206
 20
23.73258628282265
 30
0.0
 11
74.19269024044206
 21
36.50758628282265
 31
0.0
  0
ARC
  5
74B
330
1A
100
AcDbEntity
  8
ZUWAKU
100
AcDbCircle
 10
78.56769024044206
 20
21.45758628282265
 30
0.0
 40
0.525
100
AcDbArc
 50
270.0
 51
0.0
  0
ARC
  5
74C
330
1A
100
AcDbEntity
  8
ZUWAKU
100
AcDbCircle
 10
76.81769024044206
 20
21.45758628282265
 30
0.0
 40
0.525
100
AcDbArc
 50
180.0
 51
270.0
  0
LINE
  5
74D
330
1A
100
AcDbEntity
  8
ZUWAKU
100
AcDbLine
 10
76.81769024044206
 20
20.93258628282265
 30
0.0
 11
78.56769024044206
 21
20.93258628282265
 31
0.0
  0
ARC
  5
74E
330
1A
100
AcDbEntity
  8
ZUWAKU
100
AcDbCircle
 10
78.56769024044206
 20
36.50758628282265
 30
0.0
 40
0.525
100
AcDbArc
 50
0.0
 51
90.0
  0
ARC
  5
74F
330
1A
100
AcDbEntity
  8
ZUWAKU
100
AcDbCircle
 10
76.81769024044206
 20
36.50758628282265
 30
0.0
 40
0.525
100
AcDbArc
 50
90.0
 51
180.0
  0
LINE
  5
750
330
1A
100
AcDbEntity
  8
ZUWAKU
100
AcDbLine
 10
78.56769024044206
 20
37.03258628282265
 30
0.0
 11
76.81769024044206
 21
37.03258628282265
 31
0.0
  0
TEXT
  5
751
330
1A
100
AcDbEntity
  8
moji
100
AcDbText
 10
103.0082676738297
 20
26.52376441309741
 30
0.0
 40
6.0
  1
大型　のきとい
 41
0.9
  7
ｽﾀｲﾙ1
100
AcDbText
  0
TEXT
  5
756
330
1A
100
AcDbEntity
  8
moji
100
AcDbText
 10
249.8776807665117
 20
16.98750734023007
 30
0.0
 40
5.599999999999999
  1
Ｐ２５０
 41
0.9
  7
ｽﾀｲﾙ1
100
AcDbText
  0
LINE
  5
757
330
1A
100
AcDbEntity
  8
ZUWAKU
100
AcDbLine
 10
218.4970793757283
 20
43.78258628282265
 30
0.0
 11
218.4970793757288
 21
14.58258628282271
 31
0.0
  0
LINE
  5
758
330
1A
100
AcDbEntity
  8
ZUWAKU
100
AcDbLine
 10
218.6970793757286
 20
43.78258628282265
 30
0.0
 11
218.6970793757286
 21
14.58258628282271
 31
0.0
  0
LINE
  5
759
330
1A
100
AcDbEntity
  8
ZUWAKU
100
AcDbLine
 10
218.2970793757285
 20
43.78258628282265
 30
0.0
 11
218.2970793757285
 21
14.58258628282271
 31
0.0
  0
TEXT
  5
75A
330
1A
100
AcDbEntity
  8
ZUWAKU
100
AcDbText
 10
219.7745243979379
 20
37.83794282120823
 30
0.0
 40
4.0
  1
品名
 41
0.9
  7
ｽﾀｲﾙ1
100
AcDbText
  0
TEXT
  5
75B
330
1A
100
AcDbEntity
  8
ZUWAKU
100
AcDbText
 10
219.7745243979384
 20
23.43794282120826
 30
0.0
 40
4.0
  1
サイズ
 41
0.9
  7
ｽﾀｲﾙ1
100
AcDbText
  0
TEXT
  5
75C
330
1A
100
AcDbEntity
  8
moji
100
AcDbText
 10
249.8776807665117
 20
31.78750734023003
 30
0.0
 40
5.599999999999999
  1
ジョイント
 41
0.9
  7
ｽﾀｲﾙ1
100
AcDbText
  0
TEXT
  5
792
330
1A
100
AcDbEntity
  8
ZUWAKU
100
AcDbText
 10
668.254415772963
 20
31.78750734023003
 30
0.0
 40
5.599999999999999
  1
　　．　　．　　
 41
0.9
  7
ｽﾀｲﾙ1
100
AcDbText
  0
LINE
  5
793
330
1A
100
AcDbEntity
  8
ZUWAKU
100
AcDbLine
 10
658.8676805958648
 20
29.38258628282268
 30
0.0
 11
707.2994886342021
 21
29.38258628282268
 31
0.0
  0
LINE
  5
794
330
1A
100
AcDbEntity
  8
ZUWAKU
100
AcDbLine
 10
658.8676805958653
 20
29.18258628282268
 30
0.0
 11
707.2994886342021
 21
29.18258628282268
 31
0.0
  0
LINE
  5
795
330
1A
100
AcDbEntity
  8
ZUWAKU
100
AcDbLine
 10
658.8676805958648
 20
28.98258628282268
 30
0.0
 11
707.2994886342021
 21
28.98258628282268
 31
0.0
  0
LINE
  5
79A
330
1A
100
AcDbEntity
  8
ZUWAKU
100
AcDbLine
 10
515.2496575838017
 20
29.38258628282268
 30
0.0
 11
562.5774338517731
 21
29.38258628282268
 31
0.0
  0
LINE
  5
79B
330
1A
100
AcDbEntity
  8
ZUWAKU
100
AcDbLine
 10
515.2496575838017
 20
29.18258628282268
 30
0.0
 11
562.5774338517731
 21
29.18258628282268
 31
0.0
  0
LINE
  5
79C
330
1A
100
AcDbEntity
  8
ZUWAKU
100
AcDbLine
 10
515.2496575838017
 20
28.98258628282269
 30
0.0
 11
562.5774338517731
 21
28.98258628282269
 31
0.0
  0
TEXT
  5
79D
330
1A
100
AcDbEntity
  8
moji
100
AcDbText
 10
538.0913860579735
 20
16.98750734023007
 30
0.0
 40
5.599999999999999
  1
１/２
 41
0.9
  7
ｽﾀｲﾙ1
100
AcDbText
  0
LINE
  5
79E
330
1A
100
AcDbEntity
  8
ZUWAKU
100
AcDbLine
 10
514.8496575838017
 20
43.78258628282265
 30
0.0
 11
514.8496575838017
 21
14.58258628282271
 31
0.0
  0
LINE
  5
79F
330
1A
100
AcDbEntity
  8
ZUWAKU
100
AcDbLine
 10
515.2496575838017
 20
43.78258628282265
 30
0.0
 11
515.2496575838017
 21
14.58258628282271
 31
0.0
  0
LINE
  5
7A0
330
1A
100
AcDbEntity
  8
ZUWAKU
100
AcDbLine
 10
515.0496575838015
 20
43.78258628282265
 30
0.0
 11
515.0496575838019
 21
14.58258628282271
 31
0.0
  0
LINE
  5
7A1
330
1A
100
AcDbEntity
  8
ZUWAKU
100
AcDbLine
 10
457.474842056652
 20
43.78258628282265
 30
0.0
 11
457.474842056652
 21
14.58258628282271
 31
0.0
  0
LINE
  5
7A2
330
1A
100
AcDbEntity
  8
ZUWAKU
100
AcDbLine
 10
457.8748420566521
 20
43.78258628282265
 30
0.0
 11
457.8748420566521
 21
14.58258628282271
 31
0.0
  0
LINE
  5
7A3
330
1A
100
AcDbEntity
  8
ZUWAKU
100
AcDbLine
 10
457.6748420566518
 20
43.78258628282265
 30
0.0
 11
457.6748420566523
 21
14.58258628282271
 31
0.0
  0
TEXT
  5
7A4
330
1A
100
AcDbEntity
  8
moji
100
AcDbText
 10
472.1486881474166
 20
25.56402850121991
 30
0.0
 40
5.599999999999999
  1
ＧＳ５１
 41
0.9
  7
ｽﾀｲﾙ1
100
AcDbText
  0
TEXT
  5
7A5
330
1A
100
AcDbEntity
  8
ZUWAKU
100
AcDbText
 10
459.3522870788615
 20
37.83794282120823
 30
0.0
 40
4.0
  1
品番
 41
0.9
  7
ｽﾀｲﾙ1
100
AcDbText
  0
TEXT
  5
7A6
330
1A
100
AcDbEntity
  8
ZUWAKU
100
AcDbText
 10
516.7271026060111
 20
37.83794282120823
 30
0.0
 40
4.0
  1
用紙
 41
0.9
  7
ｽﾀｲﾙ1
100
AcDbText
  0
TEXT
  5
7A7
330
1A
100
AcDbEntity
  8
ZUWAKU
100
AcDbText
 10
516.7271026060116
 20
23.43794282120826
 30
0.0
 40
4.0
  1
縮尺
 41
0.9
  7
ｽﾀｲﾙ1
100
AcDbText
  0
TEXT
  5
7A8
330
1A
100
AcDbEntity
  8
moji
100
AcDbText
 10
538.0913860579735
 20
31.78750734023003
 30
0.0
 40
5.599999999999999
  1
Ａ３
 41
0.9
  7
ｽﾀｲﾙ1
100
AcDbText
  0
LINE
  5
7A9
330
1A
100
AcDbEntity
  8
ZUWAKU
100
AcDbLine
 10
562.9774338517732
 20
43.78258628282265
 30
0.0
 11
562.9774338517732
 21
14.58258628282271
 31
0.0
  0
LINE
  5
7AA
330
1A
100
AcDbEntity
  8
ZUWAKU
100
AcDbLine
 10
658.4676805958651
 20
43.78258628282265
 30
0.0
 11
658.4676805958651
 21
14.58258628282271
 31
0.0
  0
LINE
  5
7AB
330
1A
100
AcDbEntity
  8
ZUWAKU
100
AcDbLine
 10
658.8676805958653
 20
43.78258628282265
 30
0.0
 11
658.8676805958653
 21
14.58258628282271
 31
0.0
  0
LINE
  5
7AC
330
1A
100
AcDbEntity
  8
ZUWAKU
100
AcDbLine
 10
658.667680595865
 20
43.78258628282265
 30
0.0
 11
658.6676805958655
 21
14.58258628282271
 31
0.0
  0
LINE
  5
7AD
330
1A
100
AcDbEntity
  8
ZUWAKU
100
AcDbLine
 10
562.5774338517731
 20
43.78258628282265
 30
0.0
 11
562.5774338517731
 21
14.58258628282271
 31
0.0
  0
LINE
  5
7AE
330
1A
100
AcDbEntity
  8
ZUWAKU
100
AcDbLine
 10
562.7774338517729
 20
43.78258628282265
 30
0.0
 11
562.7774338517733
 21
14.58258628282271
 31
0.0
  0
TEXT
  5
7AF
330
1A
100
AcDbEntity
  8
ZUWAKU
100
AcDbText
 10
660.3451256180747
 20
37.83794282120823
 30
0.0
 40
4.0
  1
DATE
 41
0.9
  7
ｽﾀｲﾙ1
100
AcDbText
  0
LINE
  5
7BB
330
1A
100
AcDbEntity
  8
ZUWAKU
100
AcDbLine
 10
707.899488634202
 20
43.78258628282265
 30
0.0
 11
707.899488634202
 21
14.58258628282271
 31
0.0
  0
LINE
  5
7BC
330
1A
100
AcDbEntity
  8
ZUWAKU
100
AcDbLine
 10
707.6994886342017
 20
43.78258628282265
 30
0.0
 11
707.6994886342022
 21
14.58258628282271
 31
0.0
  0
LINE
  5
7BD
330
1A
100
AcDbEntity
  8
ZUWAKU
100
AcDbLine
 10
707.4994886342019
 20
43.78258628282265
 30
0.0
 11
707.4994886342019
 21
14.58258628282271
 31
0.0
  0
LINE
  5
7BE
330
1A
100
AcDbEntity
  8
ZUWAKU
100
AcDbLine
 10
707.2994886342021
 20
43.78258628282265
 30
0.0
 11
707.2994886342021
 21
14.58258628282271
 31
0.0
  0
TEXT
  5
7BF
330
1A
100
AcDbEntity
  8
ZUWAKU
100
AcDbText
 10
718.5785622779044
 20
31.33642561850945
 30
0.0
 40
6.0
  1
積水化学工業株式会社
 41
0.9
  7
ｽﾀｲﾙ1
100
AcDbText
  0
TEXT
  5
7C0
330
1A
100
AcDbEntity
  8
ZUWAKU
100
AcDbText
 10
718.5785622779044
 20
20.43142659667671
 30
0.0
 40
6.0
  1
建材事業部
 41
0.9
  7
ｽﾀｲﾙ1
100
AcDbText
  0
DIMENSION
  5
20DB
330
1A
100
AcDbEntity
  8
SUNPOU
100
AcDbDimension
  2
*D2
 10
396.4592595360295
 20
303.5507950085186
 30
0.0
 11
289.3197520432977
 21
308.5507950085186
 31
0.0
 70
    32
 71
     5
 42
-1.0
  3
STANDARD
100
AcDbAlignedDimension
 13
182.1802445505659
 23
253.4820397652234
 33
0.0
 14
396.4592595360295
 24
253.4820397652234
 34
0.0
100
AcDbRotatedDimension
1001
ACAD
1000
DSTYLE
1002
{
1070
    41
1040
6.0
1070
    42
1040
6.0
1070
    43
1040
14.0
1070
    44
1040
3.0
1070
    73
1070
     0
1070
    74
1070
     0
1070
    77
1070
     3
1070
   140
1040
6.0
1070
   141
1040
10.0
1070
   147
1040
2.0
1070
   172
1070
     1
1070
   173
1070
     1
1070
   176
1070
   256
1070
   177
1070
   256
1070
   178
1070
   256
1070
   271
1070
     0
1070
   272
1070
     0
1070
   341
1005
6D
1070
     6
1000
OPEN
1070
     7
1000
OPEN
1002
}
  0
LINE
  5
20DC
330
1A
100
AcDbEntity
  8
NOKITOI
100
AcDbLine
 10
199.0907375490299
 20
227.6392186995879
 30
0.0
 11
214.1183567490299
 21
133.3245186995879
 31
0.0
  0
LINE
  5
20DD
330
1A
100
AcDbEntity
  8
NOKITOI
100
AcDbLine
 10
197.02114734903
 20
250.7965687995879
 30
0.0
 11
215.0808132531533
 21
137.4524686737098
 31
0.0
  0
LINE
  5
20DE
330
1A
100
AcDbEntity
  8
NOKITOI
100
AcDbLine
 10
199.744891898283
 20
228.6178937056459
 30
0.0
 11
214.7338484982242
 21
134.5458436874719
 31
0.0
  0
LWPOLYLINE
  5
20DF
330
1A
100
AcDbEntity
  8
SEIHIN
100
AcDbPolyline
 90
        9
 70
   128
 43
0.0
 10
202.5568748460977
 20
224.4235930970879
 10
202.6424614941977
 20
224.3088093470879
 10
202.7393987656978
 20
224.1004978076879
 10
202.8445195267977
 20
223.8054644314879
 10
202.9543892729977
 20
223.4333485464879
 10
203.0654183407977
 20
222.9963079197879
 10
203.1739791895977
 20
222.5086215388879
 10
203.2765249200977
 20
221.9862230891879
 10
203.3697051591977
 20
221.4461803683879
  0
LINE
  5
20E0
330
1A
100
AcDbEntity
  8
SEIHIN
100
AcDbLine
 10
203.4314041597976
 20
227.0377850765879
 30
0.0
 11
198.2300490871977
 21
227.0377850765879
 31
0.0
  0
LINE
  5
20E1
330
1A
100
AcDbEntity
  8
SEIHIN
100
AcDbLine
 10
213.9665850465976
 20
133.3220381233879
 30
0.0
 11
199.0051967077977
 21
226.2195474169879
 31
0.0
  0
LINE
  5
20E2
330
1A
100
AcDbEntity
  8
SEIHIN
100
AcDbLine
 10
212.4856680704977
 20
133.0835325472879
 30
0.0
 11
197.7402507118539
 21
224.6400455583057
 31
0.0
  0
LINE
  5
20E3
330
1A
100
AcDbEntity
  8
SEIHIN
100
AcDbLine
 10
197.2338077362977
 20
224.6400455582878
 30
0.0
 11
211.9920290784977
 21
133.0040306885879
 31
0.0
  0
LINE
  5
20E4
330
1A
100
AcDbEntity
  8
SEIHIN
100
AcDbLine
 10
215.4953978554976
 20
139.8667704655879
 30
0.0
 11
201.7706186536977
 21
225.0859877313879
 31
0.0
  0
ARC
  5
20E5
330
1A
100
AcDbEntity
  8
NOKITOI
100
AcDbCircle
 10
195.5398329490299
 20
250.5605436995879
 30
0.0
 40
1.500000033246229
100
AcDbArc
 50
9.05311753349108
 51
90.0
  0
ARC
  5
20E6
330
1A
100
AcDbEntity
  8
NOKITOI
100
AcDbCircle
 10
188.3197520490299
 20
250.5605436995879
 30
0.0
 40
1.5
100
AcDbArc
 50
90.0
 51
180.0
  0
ARC
  5
20E7
330
1A
100
AcDbEntity
  8
NOKITOI
100
AcDbCircle
 10
189.9197520490299
 20
248.9605436995879
 30
0.0
 40
1.7
100
AcDbArc
 50
90.0
 51
180.0
  0
LINE
  5
20E8
330
1A
100
AcDbEntity
  8
SEIHIN
100
AcDbLine
 10
198.1697520432977
 20
252.5605436995879
 30
0.0
 11
198.1697520432977
 21
250.0605436995879
 31
0.0
  0
LINE
  5
20E9
330
1A
100
AcDbEntity
  8
SEIHIN
100
AcDbLine
 10
200.1697520432977
 20
250.0605436995879
 30
0.0
 11
200.1697520432977
 21
254.5605436995879
 31
0.0
  0
LINE
  5
20EB
330
1A
100
AcDbEntity
  8
SEIHIN
100
AcDbLine
 10
185.6697520432977
 20
227.5605436995879
 30
0.0
 11
185.6697520432977
 21
254.5605436995879
 31
0.0
  0
LINE
  5
20EC
330
1A
100
AcDbEntity
  8
SEIHIN
100
AcDbLine
 10
182.1802445505977
 20
253.4820397651879
 30
0.0
 11
183.6449195592977
 21
225.5343757214879
 31
0.0
  0
ARC
  5
20ED
330
1A
100
AcDbEntity
  8
NOKITOI
100
AcDbCircle
 10
198.5969661490299
 20
227.5605436995879
 30
0.0
 40
0.4999999755414839
100
AcDbArc
 50
9.05311496341941
 51
90.0
  0
ARC
  5
20EE
330
1A
100
AcDbEntity
  8
NOKITOI
100
AcDbCircle
 10
188.3197520490299
 20
229.5605436995879
 30
0.0
 40
1.5
100
AcDbArc
 50
180.0
 51
270.0
  0
LINE
  5
20F0
330
1A
100
AcDbEntity
  8
SEIHIN
100
AcDbLine
 10
198.0179187236977
 20
227.0605436995879
 30
0.0
 11
186.1697520432977
 21
227.0605436995879
 31
0.0
  0
LINE
  5
20F1
330
1A
100
AcDbEntity
  8
SEIHIN
100
AcDbLine
 10
184.1442343266977
 20
225.0605436995879
 30
0.0
 11
197.2466117198158
 21
225.0605436995879
 31
0.0
  0
ARC
  5
20F2
330
1A
100
AcDbEntity
  8
SEIHIN
100
AcDbCircle
 10
186.1697520432977
 20
227.5605436995879
 30
0.0
 40
0.5
100
AcDbArc
 50
180.0
 51
270.0
  0
ARC
  5
20F3
330
1A
100
AcDbEntity
  8
SEIHIN
100
AcDbCircle
 10
184.1442343266977
 20
225.5605436995879
 30
0.0
 40
0.5
100
AcDbArc
 50
182.9999999999997
 51
270.0
  0
LINE
  5
20F4
330
1A
100
AcDbEntity
  8
SEIHIN
100
AcDbLine
 10
202.5568748460977
 20
224.4235930970879
 30
0.0
 11
201.7706186536977
 21
225.0859877313879
 31
0.0
  0
ARC
  5
20F5
330
1A
100
AcDbEntity
  8
SEIHIN
100
AcDbCircle
 10
198.0179187236977
 20
226.0605436995879
 30
0.0
 40
1.0
100
AcDbArc
 50
9.149073160300286
 51
90.0
  0
ARC
  5
20F7
330
1A
100
AcDbEntity
  8
SEIHIN
100
AcDbCircle
 10
196.7401687441977
 20
224.5605436995879
 30
0.0
 40
0.5
100
AcDbArc
 50
9.149073160300286
 51
90.0
  0
LWPOLYLINE
  5
20F8
330
1A
100
AcDbEntity
  8
SEIHIN
100
AcDbPolyline
 90
        9
 70
   128
 43
0.0
 10
200.7463213067976
 20
226.8785104718879
 10
200.7305633252976
 20
226.8901002723878
 10
200.6971660699977
 20
226.9011614534879
 10
200.6473328809977
 20
226.9112954686879
 10
200.5828593030977
 20
226.9201371781879
 10
200.5060683902977
 20
226.9273680055879
 10
200.4197270040977
 20
226.9327274160879
 10
200.3269461196977
 20
226.9360223041879
 10
200.2310687347977
 20
226.9371339515879
  0
LINE
  5
20F9
330
1A
100
AcDbEntity
  8
SEIHIN
100
AcDbLine
 10
199.2351243472977
 20
226.9371339515879
 30
0.0
 11
200.2310687347977
 21
226.9371339515879
 31
0.0
  0
LWPOLYLINE
  5
20FA
330
1A
100
AcDbEntity
  8
SEIHIN
100
AcDbPolyline
 90
        7
 70
   128
 43
0.0
 10
199.2351243472977
 20
226.9371339515879
 10
198.9851243472977
 20
226.9320869597879
 10
198.7524386418977
 20
226.9166637044879
 10
198.6538822081977
 20
226.9038594379879
 10
198.6047162675977
 20
226.8915035123879
 10
198.5949182982977
 20
226.8777044805879
 10
198.5975408598977
 20
226.8754290775879
  0
LINE
  5
20FB
330
1A
100
AcDbEntity
  8
SEIHIN
100
AcDbLine
 10
201.7706186536977
 20
225.0859877313879
 30
0.0
 11
200.7463213067976
 21
226.8785104718879
 31
0.0
  0
LINE
  5
20FC
330
1A
100
AcDbEntity
  8
NOKITOI
100
AcDbLine
 10
188.4197520490299
 20
248.9605436995879
 30
0.0
 11
188.4197520490299
 21
231.1605436995879
 31
0.0
  0
LINE
  5
20FD
330
1A
100
AcDbEntity
  8
NOKITOI
100
AcDbLine
 10
186.8197520490299
 20
250.5605436995879
 30
0.0
 11
186.8197520490299
 21
229.5605436995879
 31
0.0
  0
LINE
  5
20FE
330
1A
100
AcDbEntity
  8
NOKITOI
100
AcDbLine
 10
195.6559003490299
 20
249.1965687995878
 30
0.0
 11
198.4920607490299
 21
231.3965687995879
 31
0.0
  0
LINE
  5
20FF
330
1A
100
AcDbEntity
  8
NOKITOI
100
AcDbLine
 10
188.2197520490299
 20
248.9605436995879
 30
0.0
 11
188.2197520490299
 21
231.1605436995879
 31
0.0
  0
LINE
  5
2100
330
1A
100
AcDbEntity
  8
NOKITOI
100
AcDbLine
 10
188.3197520490299
 20
228.0605436995879
 30
0.0
 11
198.5969661490299
 21
228.0605436995879
 31
0.0
  0
LINE
  5
2101
330
1A
100
AcDbEntity
  8
NOKITOI
100
AcDbLine
 10
189.9197520490299
 20
229.6605436995879
 30
0.0
 11
197.0107464490299
 21
229.6605436995879
 31
0.0
  0
LINE
  5
2102
330
1A
100
AcDbEntity
  8
NOKITOI
100
AcDbLine
 10
189.9197520490299
 20
229.4605436995879
 30
0.0
 11
198.75734900018
 21
229.4605436995879
 31
0.0
  0
ARC
  5
2103
330
1A
100
AcDbEntity
  8
NOKITOI
100
AcDbCircle
 10
189.9197520490299
 20
231.1605436995879
 30
0.0
 40
1.5
100
AcDbArc
 50
180.0
 51
270.0
  0
ARC
  5
2104
330
1A
100
AcDbEntity
  8
NOKITOI
100
AcDbCircle
 10
189.9197520490299
 20
231.1605436995879
 30
0.0
 40
1.7
100
AcDbArc
 50
180.0
 51
270.0
  0
ARC
  5
2105
330
1A
100
AcDbEntity
  8
NOKITOI
100
AcDbCircle
 10
198.75734900018
 20
228.4605436995879
 30
0.0
 40
1.0
100
AcDbArc
 50
9.053114421747329
 51
90.0
  0
ARC
  5
2106
330
1A
100
AcDbEntity
  8
NOKITOI
100
AcDbCircle
 10
197.0107464490299
 20
231.1605436995879
 30
0.0
 40
1.499999983869087
100
AcDbArc
 50
270.0
 51
9.053118134525018
  0
ARC
  5
2107
330
1A
100
AcDbEntity
  8
NOKITOI
100
AcDbCircle
 10
194.1745859490299
 20
248.9605436995879
 30
0.0
 40
1.500000033246229
100
AcDbArc
 50
9.05311753349108
 51
90.0
  0
ARC
  5
2108
330
1A
100
AcDbEntity
  8
NOKITOI
100
AcDbCircle
 10
194.1745859490299
 20
248.9605436995879
 30
0.0
 40
1.700000033246229
100
AcDbArc
 50
9.05311753349108
 51
90.0
  0
ARC
  5
2109
330
1A
100
AcDbEntity
  8
NOKITOI
100
AcDbCircle
 10
189.9197520490299
 20
248.9605436995879
 30
0.0
 40
1.5
100
AcDbArc
 50
90.0
 51
180.0
  0
LINE
  5
210A
330
1A
100
AcDbEntity
  8
NOKITOI
100
AcDbLine
 10
189.9197520490299
 20
250.4605436995879
 30
0.0
 11
194.1745859490299
 21
250.4605436995879
 31
0.0
  0
LINE
  5
210B
330
1A
100
AcDbEntity
  8
NOKITOI
100
AcDbLine
 10
189.9197520490299
 20
250.6605436995879
 30
0.0
 11
194.1745859490299
 21
250.6605436995879
 31
0.0
  0
ARC
  5
210C
330
1A
100
AcDbEntity
  8
SEIHIN
100
AcDbCircle
 10
199.6697520432977
 20
250.0605436995879
 30
0.0
 40
0.5
100
AcDbArc
 50
270.0
 51
0.0
  0
LINE
  5
210D
330
1A
100
AcDbEntity
  8
SEIHIN
100
AcDbLine
 10
198.1697520432977
 20
249.5605436995879
 30
0.0
 11
199.6697520432977
 21
249.5605436995879
 31
0.0
  0
LINE
  5
210E
330
1A
100
AcDbEntity
  8
SEIHIN
100
AcDbLine
 10
198.1697520432977
 20
250.0605436995879
 30
0.0
 11
198.1697520432977
 21
249.5605436995879
 31
0.0
  0
LINE
  5
210F
330
1A
100
AcDbEntity
  8
SEIHIN
100
AcDbLine
 10
186.1697520432977
 20
253.0605436995879
 30
0.0
 11
197.6697520432977
 21
253.0605436995879
 31
0.0
  0
LINE
  5
2110
330
1A
100
AcDbEntity
  8
SEIHIN
100
AcDbLine
 10
199.6697520432977
 20
255.0605436995879
 30
0.0
 11
185.1697520432977
 21
255.0605436995879
 31
0.0
  0
LINE
  5
2112
330
1A
100
AcDbEntity
  8
SEIHIN
100
AcDbLine
 10
185.1697520432977
 20
255.0605436995879
 30
0.0
 11
183.6781888526977
 21
255.0605436995879
 31
0.0
  0
LWPOLYLINE
  5
2113
330
1A
100
AcDbEntity
  8
SEIHIN
100
AcDbPolyline
 90
        9
 70
   128
 43
0.0
 10
185.1697520432977
 20
255.0605436995879
 10
185.2672972042977
 20
255.0509363397879
 10
185.3610937594977
 20
255.0224834658879
 10
185.4475371597977
 20
254.9762785057879
 10
185.5233054338977
 20
254.9140970901879
 10
185.5854868494977
 20
254.8383288160879
 10
185.6316918095976
 20
254.7518854157879
 10
185.6601446834977
 20
254.6580888605879
 10
185.6697520432977
 20
254.5605436995879
  0
LWPOLYLINE
  5
2116
330
1A
100
AcDbEntity
  8
SEIHIN
100
AcDbPolyline
 90
        6
 70
   128
 43
0.0
 10
186.1697520432977
 20
253.0605436995879
 10
185.9691227740977
 20
253.0185261187879
 10
185.7997506628977
 20
252.8968456152879
 10
185.6813869854977
 20
252.6677797490879
 10
185.6697653767977
 20
252.5641951751879
 10
185.6697520432977
 20
252.5605436995879
  0
ARC
  5
2118
330
1A
100
AcDbEntity
  8
SEIHIN
100
AcDbCircle
 10
183.6781888526977
 20
253.5605436995879
 30
0.0
 40
1.5
100
AcDbArc
 50
90.0
 51
182.9999999999997
  0
LINE
  5
2119
330
1A
100
AcDbEntity
  8
NOKITOI
100
AcDbLine
 10
188.3197520490299
 20
252.0605436995879
 30
0.0
 11
195.5398329490299
 21
252.0605436995879
 31
0.0
  0
ARC
  5
211A
330
1A
100
AcDbEntity
  8
SEIHIN
100
AcDbCircle
 10
199.6697520432977
 20
254.5605436995879
 30
0.0
 40
0.5
100
AcDbArc
 50
0.0
 51
90.0
  0
ARC
  5
211B
330
1A
100
AcDbEntity
  8
SEIHIN
100
AcDbCircle
 10
197.6697520432977
 20
252.5605436995879
 30
0.0
 40
0.5
100
AcDbArc
 50
0.0
 51
90.0
  0
DIMENSION
  5
211C
330
1A
100
AcDbEntity
  8
SUNPOU
100
AcDbDimension
  2
*D3
 10
366.1734186825001
 20
87.29824395898663
 30
0.0
 11
289.3197520432978
 21
92.29824395898663
 31
0.0
 70
    32
 71
     5
 42
-1.0
  3
STANDARD
100
AcDbAlignedDimension
 13
212.4660854040955
 23
130.0605436995879
 33
0.0
 14
366.1734186825001
 24
130.0605436995879
 34
0.0
100
AcDbRotatedDimension
1001
ACAD
1000
DSTYLE
1002
{
1070
    41
1040
6.0
1070
    42
1040
6.0
1070
    43
1040
14.0
1070
    44
1040
3.0
1070
    73
1070
     0
1070
    74
1070
     0
1070
    77
1070
     3
1070
   140
1040
6.0
1070
   141
1040
10.0
1070
   147
1040
2.0
1070
   172
1070
     1
1070
   173
1070
     1
1070
   176
1070
   256
1070
   177
1070
   256
1070
   178
1070
   256
1070
   271
1070
     0
1070
   272
1070
     0
1070
   341
1005
6D
1070
     6
1000
OPEN
1070
     7
1000
OPEN
1002
}
  0
LINE
  5
211D
330
1A
100
AcDbEntity
  8
NOKITOI
100
AcDbLine
 10
219.5247562948368
 20
133.6605436995879
 30
0.0
 11
359.1147478102229
 21
133.6605436995879
 31
0.0
  0
LINE
  5
211E
330
1A
100
AcDbEntity
  8
NOKITOI
100
AcDbLine
 10
215.599947076912
 20
132.0605436995879
 30
0.0
 11
363.0398329720299
 21
132.0605436995879
 31
0.0
  0
LINE
  5
211F
330
1A
100
AcDbEntity
  8
NOKITOI
100
AcDbLine
 10
216.70893429443
 20
132.8605436995879
 30
0.0
 11
361.9305697745021
 21
132.8605436995879
 31
0.0
  0
LINE
  5
2120
330
1A
100
AcDbEntity
  8
SEIHIN
100
AcDbLine
 10
363.1920020638976
 20
130.5605436995879
 30
0.0
 11
289.3197520432977
 21
130.5605436995879
 31
0.0
  0
LINE
  5
2121
330
1A
100
AcDbEntity
  8
SEIHIN
100
AcDbLine
 10
288.9828662980976
 20
130.0605436995879
 30
0.0
 11
363.1920020638976
 21
130.0605436995879
 31
0.0
  0
LINE
  5
2122
330
1A
100
AcDbEntity
  8
SEIHIN
100
AcDbLine
 10
363.1920020638976
 20
132.0605436995879
 30
0.0
 11
289.3197520432977
 21
132.0605436995879
 31
0.0
  0
LINE
  5
2123
330
1A
100
AcDbEntity
  8
SEIHIN
100
AcDbLine
 10
303.6222401285976
 20
136.5605436995879
 30
0.0
 11
356.9736188305978
 21
136.5605436995879
 31
0.0
  0
LINE
  5
2124
330
1A
100
AcDbEntity
  8
SEIHIN
100
AcDbLine
 10
356.9736188305978
 20
135.6105436995879
 30
0.0
 11
303.6222401285976
 21
135.6105436995879
 31
0.0
  0
LINE
  5
2125
330
1A
100
AcDbEntity
  8
SEIHIN
100
AcDbLine
 10
356.9736188305978
 20
134.6105436995879
 30
0.0
 11
300.9864187099976
 21
134.6105436995879
 31
0.0
  0
LINE
  5
2126
330
1A
100
AcDbEntity
  8
SEIHIN
100
AcDbLine
 10
216.4826758395977
 20
140.0257741830879
 30
0.0
 11
203.3697051591977
 21
221.4461803683879
 31
0.0
  0
LINE
  5
2127
330
1A
100
AcDbEntity
  8
SEIHIN
100
AcDbLine
 10
204.3319468127977
 20
221.4461803683879
 30
0.0
 11
217.4205899243977
 21
140.1768277145879
 31
0.0
  0
LINE
  5
2128
330
1A
100
AcDbEntity
  8
SEIHIN
100
AcDbLine
 10
289.3197520432977
 20
130.5605436995879
 30
0.0
 11
215.4475020226978
 21
130.5605436995879
 31
0.0
  0
LINE
  5
2129
330
1A
100
AcDbEntity
  8
SEIHIN
100
AcDbLine
 10
289.3197520432977
 20
132.0605436995879
 30
0.0
 11
215.4475020226978
 21
132.0605436995879
 31
0.0
  0
LINE
  5
212A
330
1A
100
AcDbEntity
  8
SEIHIN
100
AcDbLine
 10
215.4475020226978
 20
130.0605436995879
 30
0.0
 11
288.9828662980976
 21
130.0605436995879
 31
0.0
  0
LINE
  5
212B
330
1A
100
AcDbEntity
  8
SEIHIN
100
AcDbLine
 10
277.6530853765978
 20
134.6105436995879
 30
0.0
 11
221.6658852559976
 21
134.6105436995879
 31
0.0
  0
LINE
  5
212C
330
1A
100
AcDbEntity
  8
SEIHIN
100
AcDbLine
 10
275.0172639579977
 20
135.6105436995879
 30
0.0
 11
221.6658852559976
 21
135.6105436995879
 31
0.0
  0
LINE
  5
212D
330
1A
100
AcDbEntity
  8
SEIHIN
100
AcDbLine
 10
221.6658852559976
 20
136.5605436995879
 30
0.0
 11
275.0172639579977
 21
136.5605436995879
 31
0.0
  0
ARC
  5
212E
330
1A
100
AcDbEntity
  8
NOKITOI
100
AcDbCircle
 10
219.5247562948368
 20
138.1605436995879
 30
0.0
 40
4.5
100
AcDbArc
 50
189.0531144039197
 51
270.0
  0
ARC
  5
212F
330
1A
100
AcDbEntity
  8
SEIHIN
100
AcDbCircle
 10
221.6658852559976
 20
140.8605436995879
 30
0.0
 40
6.25
100
AcDbArc
 50
189.1490731603002
 51
270.0
  0
ARC
  5
2130
330
1A
100
AcDbEntity
  8
SEIHIN
100
AcDbCircle
 10
221.6658852559976
 20
140.8605436995879
 30
0.0
 40
5.25
100
AcDbArc
 50
189.1490731603002
 51
270.0
  0
ARC
  5
2131
330
1A
100
AcDbEntity
  8
NOKITOI
100
AcDbCircle
 10
215.5996711490299
 20
133.5605436995879
 30
0.0
 40
1.500000025378728
100
AcDbArc
 50
189.0531137613563
 51
270.0
  0
ARC
  5
2132
330
1A
100
AcDbEntity
  8
NOKITOI
100
AcDbCircle
 10
216.70893429443
 20
134.8605436995879
 30
0.0
 40
2.0
100
AcDbArc
 50
189.0531144217473
 51
270.0
  0
POINT
  5
2133
330
1A
100
AcDbEntity
  8
SEIHIN
100
AcDbPoint
 10
214.1697520432976
 20
132.0605436995879
 30
0.0
  0
ARC
  5
2134
330
1A
100
AcDbEntity
  8
SEIHIN
100
AcDbCircle
 10
215.4475020226978
 20
133.5605436995879
 30
0.0
 40
1.5
100
AcDbArc
 50
189.1490731603002
 51
270.0
  0
ARC
  5
2135
330
1A
100
AcDbEntity
  8
SEIHIN
100
AcDbCircle
 10
215.4475020226978
 20
133.5605436995879
 30
0.0
 40
3.0
100
AcDbArc
 50
189.1490731603002
 51
270.0
  0
ARC
  5
2136
330
1A
100
AcDbEntity
  8
SEIHIN
100
AcDbCircle
 10
215.4475020226978
 20
133.5605436995879
 30
0.0
 40
3.5
100
AcDbArc
 50
189.1490731603002
 51
270.0
  0
ARC
  5
2137
330
1A
100
AcDbEntity
  8
SEIHIN
100
AcDbCircle
 10
221.6658852559976
 20
140.8605436995879
 30
0.0
 40
4.299999999999999
100
AcDbArc
 50
189.1490731603002
 51
270.0
  0
LINE
  5
2138
330
1A
100
AcDbEntity
  8
SEIHIN
100
AcDbLine
 10
301.6330033108977
 20
135.3864452206879
 30
0.0
 11
300.9864187099976
 21
134.6105436995879
 31
0.0
  0
LINE
  5
2139
330
1A
100
AcDbEntity
  8
SEIHIN
100
AcDbLine
 10
299.3413366441977
 20
136.5605436995879
 30
0.0
 11
301.6330033108977
 21
136.5605436995879
 31
0.0
  0
LINE
  5
213A
330
1A
100
AcDbEntity
  8
CENTER L
100
AcDbLine
 10
289.3197520544333
 20
143.6605436995879
 30
0.0
 11
289.319752034466
 21
122.8605436995879
 31
0.0
  0
LINE
  5
213B
330
1A
100
AcDbEntity
  8
SEIHIN
100
AcDbLine
 10
299.3305734619975
 20
136.5605436995879
 30
0.0
 11
299.3305734619975
 21
134.8605436995879
 31
0.0
  0
LINE
  5
213C
330
1A
100
AcDbEntity
  8
SEIHIN
100
AcDbLine
 10
279.3089306245978
 20
134.8605436995879
 30
0.0
 11
279.3089306245978
 21
136.5605436995879
 31
0.0
  0
LINE
  5
213D
330
1A
100
AcDbEntity
  8
SEIHIN
100
AcDbLine
 10
277.6530853765978
 20
134.6105436995879
 30
0.0
 11
277.0065007756977
 21
135.3864452206879
 31
0.0
  0
LINE
  5
213E
330
1A
100
AcDbEntity
  8
CENTER L
100
AcDbLine
 10
289.3197520432977
 20
155.3699774405005
 30
0.0
 11
289.3197520432977
 21
114.5683254739879
 31
0.0
  0
LINE
  5
213F
330
1A
100
AcDbEntity
  8
CENTER L
 48
5.0
100
AcDbLine
 10
289.3197520432977
 20
155.3699774405005
 30
0.0
 11
289.3197520432977
 21
114.5683254739879
 31
0.0
  0
LINE
  5
2140
330
1A
100
AcDbEntity
  8
SEIHIN
100
AcDbLine
 10
298.4599383305976
 20
133.8605436995879
 30
0.0
 11
280.1795657559978
 21
133.8605436995879
 31
0.0
  0
LWPOLYLINE
  5
2141
330
1A
100
AcDbEntity
  8
SEIHIN
100
AcDbPolyline
 90
        6
 70
   128
 43
0.0
 10
280.3197520432977
 20
133.8605436995879
 10
280.1691515332977
 20
133.8719935160879
 10
279.8135164402976
 20
133.9953463322879
 10
279.5250708514977
 20
134.2429679297879
 10
279.3508019948976
 20
134.5767813318879
 10
279.3220317796976
 20
134.8629429802879
  0
LWPOLYLINE
  5
2142
330
1A
100
AcDbEntity
  8
SEIHIN
100
AcDbPolyline
 90
        4
 70
   128
 43
0.0
 10
279.1661029607976
 20
133.8842952591879
 10
279.1706573257977
 20
133.8801781996879
 10
279.1751564933977
 20
133.8722406023879
 10
279.1795657559978
 20
133.8605436995879
  0
LINE
  5
2143
330
1A
100
AcDbEntity
  8
SEIHIN
100
AcDbLine
 10
279.1661029607976
 20
133.8842952591879
 30
0.0
 11
277.6530853765978
 21
134.6105436995879
 31
0.0
  0
LINE
  5
2144
330
1A
100
AcDbEntity
  8
SEIHIN
100
AcDbLine
 10
279.1795657559978
 20
133.8605436995879
 30
0.0
 11
280.1795657559978
 21
133.8605436995879
 31
0.0
  0
LWPOLYLINE
  5
2145
330
1A
100
AcDbEntity
  8
SEIHIN
100
AcDbPolyline
 90
        6
 70
   128
 43
0.0
 10
299.3198529893977
 20
134.8630016388879
 10
299.2861425470978
 20
134.5683550187879
 10
299.1096069824978
 20
134.2369147615879
 10
298.8212874354976
 20
133.9926721899879
 10
298.4595454618977
 20
133.8704266245879
 10
298.3197520432977
 20
133.8605436995879
  0
LINE
  5
2146
330
1A
100
AcDbEntity
  8
SEIHIN
100
AcDbLine
 10
300.9864187099976
 20
134.6105436995879
 30
0.0
 11
299.4734011257978
 21
133.8842952591879
 31
0.0
  0
LWPOLYLINE
  5
2147
330
1A
100
AcDbEntity
  8
SEIHIN
100
AcDbPolyline
 90
        4
 70
   128
 43
0.0
 10
299.4599383305976
 20
133.8605436995879
 10
299.4643475931977
 20
133.8722406023879
 10
299.4688467607977
 20
133.8801781996879
 10
299.4734011257978
 20
133.8842952591879
  0
LINE
  5
2148
330
1A
100
AcDbEntity
  8
SEIHIN
100
AcDbLine
 10
299.4599383305976
 20
133.8605436995879
 30
0.0
 11
298.4599383305976
 21
133.8605436995879
 31
0.0
  0
LINE
  5
2149
330
1A
100
AcDbEntity
  8
SEIHIN
100
AcDbLine
 10
299.3413366441977
 20
134.8605436995879
 30
0.0
 11
299.3305734619975
 21
134.8605436995879
 31
0.0
  0
LWPOLYLINE
  5
214A
330
1A
100
AcDbEntity
  8
SEIHIN
100
AcDbPolyline
 90
        9
 70
   128
 43
0.0
 10
275.0172639579977
 20
135.6105436995879
 10
275.3819629777976
 20
135.6063521432879
 10
275.7344327458977
 20
135.5939180276879
 10
276.0628540873976
 20
135.5736582990879
 10
276.3562142301978
 20
135.5462523157879
 10
276.6046760897977
 20
135.5126190675879
 10
276.7999081313978
 20
135.4738863596879
 10
276.9353637461977
 20
135.4313529947879
 10
277.0065007756977
 20
135.3864452206879
  0
LINE
  5
214B
330
1A
100
AcDbEntity
  8
SEIHIN
100
AcDbLine
 10
277.0065007756977
 20
136.5605436995879
 30
0.0
 11
275.0172639579977
 21
136.5605436995879
 31
0.0
  0
LINE
  5
214C
330
1A
100
AcDbEntity
  8
SEIHIN
100
AcDbLine
 10
277.0065007756977
 20
136.5605436995879
 30
0.0
 11
279.2981674423976
 21
136.5605436995879
 31
0.0
  0
LINE
  5
214D
330
1A
100
AcDbEntity
  8
SEIHIN
100
AcDbLine
 10
279.2981674423976
 20
136.5605436995879
 30
0.0
 11
279.3089306245978
 21
136.5605436995879
 31
0.0
  0
LINE
  5
214E
330
1A
100
AcDbEntity
  8
SEIHIN
100
AcDbLine
 10
299.3305734619975
 20
136.5605436995879
 30
0.0
 11
299.3413366441977
 21
136.5605436995879
 31
0.0
  0
LINE
  5
214F
330
1A
100
AcDbEntity
  8
SEIHIN
100
AcDbLine
 10
303.6222401285976
 20
136.5605436995879
 30
0.0
 11
301.6330033108977
 21
136.5605436995879
 31
0.0
  0
LWPOLYLINE
  5
2150
330
1A
100
AcDbEntity
  8
SEIHIN
100
AcDbPolyline
 90
        9
 70
   128
 43
0.0
 10
301.6330033108977
 20
135.3864452206879
 10
301.7041403403977
 20
135.4313529947879
 10
301.8395959551976
 20
135.4738863596879
 10
302.0348279967977
 20
135.5126190675879
 10
302.2832898563976
 20
135.5462523157879
 10
302.5766499991977
 20
135.5736582990879
 10
302.9050713406977
 20
135.5939180276879
 10
303.2575411087977
 20
135.6063521432879
 10
303.6222401285976
 20
135.6105436995879
  0
LINE
  5
2151
330
1A
100
AcDbEntity
  8
SEIHIN
100
AcDbLine
 10
204.3319468127977
 20
221.4461803683879
 30
0.0
 11
203.8524266575977
 21
224.4235930970879
 31
0.0
  0
LINE
  5
2152
330
1A
100
AcDbEntity
  8
SEIHIN
100
AcDbLine
 10
203.4350418992976
 20
227.0151978052879
 30
0.0
 11
203.8524266575977
 21
224.4235930970879
 31
0.0
  0
LINE
  5
2153
330
1A
100
AcDbEntity
  8
SEIHIN
100
AcDbLine
 10
203.4314041597976
 20
227.0377850765879
 30
0.0
 11
203.4350418992976
 21
227.0151978052879
 31
0.0
  0
LINE
  5
2154
330
1A
100
AcDbEntity
  8
NOKITOI
100
AcDbLine
 10
379.5487665090299
 20
227.6392186995879
 30
0.0
 11
364.5211473200299
 21
133.3245186995879
 31
0.0
  0
LINE
  5
2155
330
1A
100
AcDbEntity
  8
NOKITOI
100
AcDbLine
 10
381.61835676903
 20
250.7965687995879
 30
0.0
 11
363.5586908518273
 21
137.4524686732127
 31
0.0
  0
LINE
  5
2156
330
1A
100
AcDbEntity
  8
NOKITOI
100
AcDbLine
 10
378.8946121596595
 20
228.6178937055335
 30
0.0
 11
363.9056555707438
 21
134.5458436876966
 31
0.0
  0
DIMENSION
  5
2157
330
1A
100
AcDbEntity
  8
SUNPOU
100
AcDbDimension
  2
*D4
 10
456.8983010046131
 20
130.0632253130807
 30
0.0
 11
451.898301004613
 21
192.5618845063343
 31
0.0
 70
    32
 71
     5
 42
-1.0
  3
STANDARD
100
AcDbAlignedDimension
 13
394.9613152338977
 23
255.0605436995879
 33
0.0
 14
363.0550199358697
 24
130.0632253130807
 34
0.0
 50
90.0
100
AcDbRotatedDimension
1001
ACAD
1000
DSTYLE
1002
{
1070
    41
1040
6.0
1070
    42
1040
6.0
1070
    43
1040
14.0
1070
    44
1040
3.0
1070
    73
1070
     0
1070
    74
1070
     0
1070
    77
1070
     3
1070
   140
1040
6.0
1070
   141
1040
10.0
1070
   147
1040
2.0
1070
   172
1070
     1
1070
   173
1070
     1
1070
   176
1070
   256
1070
   177
1070
   256
1070
   178
1070
   256
1070
   271
1070
     0
1070
   272
1070
     0
1070
   341
1005
6D
1070
     6
1000
OPEN
1070
     7
1000
OPEN
1002
}
  0
LINE
  5
2158
330
1A
100
AcDbEntity
  8
SEIHIN
100
AcDbLine
 10
380.8992533747415
 20
224.6400455583057
 30
0.0
 11
366.1538360160978
 21
133.0835325472879
 31
0.0
  0
LINE
  5
2159
330
1A
100
AcDbEntity
  8
SEIHIN
100
AcDbLine
 10
379.6343073787977
 20
226.2195474169879
 30
0.0
 11
364.6729190399978
 21
133.3220381233879
 31
0.0
  0
LINE
  5
215A
330
1A
100
AcDbEntity
  8
SEIHIN
100
AcDbLine
 10
366.6474750080976
 20
133.0040306885879
 30
0.0
 11
381.4056963502978
 21
224.6400455582878
 31
0.0
  0
LINE
  5
215B
330
1A
100
AcDbEntity
  8
SEIHIN
100
AcDbLine
 10
376.8688854328977
 20
225.0859877313879
 30
0.0
 11
363.1441062310977
 21
139.8667704655879
 31
0.0
  0
LINE
  5
215C
330
1A
100
AcDbEntity
  8
SEIHIN
100
AcDbLine
 10
375.2697989273976
 20
221.4461803683879
 30
0.0
 11
362.1568282469977
 21
140.0257741830879
 31
0.0
  0
LINE
  5
215D
330
1A
100
AcDbEntity
  8
SEIHIN
100
AcDbLine
 10
361.2189141621977
 20
140.1768277145879
 30
0.0
 11
374.3075572737978
 21
221.4461803683879
 31
0.0
  0
ARC
  5
215E
330
1A
100
AcDbEntity
  8
SEIHIN
100
AcDbCircle
 10
363.1920020638976
 20
133.5605436995879
 30
0.0
 40
3.5
100
AcDbArc
 50
267.7569991825971
 51
350.8509268397005
  0
ARC
  5
215F
330
1A
100
AcDbEntity
  8
NOKITOI
100
AcDbCircle
 10
359.1147478102229
 20
138.1605436995879
 30
0.0
 40
4.5
100
AcDbArc
 50
270.0
 51
350.9468855896721
  0
ARC
  5
2160
330
1A
100
AcDbEntity
  8
SEIHIN
100
AcDbCircle
 10
356.9736188305978
 20
140.8605436995879
 30
0.0
 40
5.25
100
AcDbArc
 50
270.0
 51
350.8509268397005
  0
ARC
  5
2161
330
1A
100
AcDbEntity
  8
SEIHIN
100
AcDbCircle
 10
356.9736188305978
 20
140.8605436995879
 30
0.0
 40
6.25
100
AcDbArc
 50
270.0
 51
350.8509268397005
  0
ARC
  5
2162
330
1A
100
AcDbEntity
  8
NOKITOI
100
AcDbCircle
 10
363.0398329720299
 20
133.5605436995879
 30
0.0
 40
1.499999999702612
100
AcDbArc
 50
270.0
 51
350.9468859261062
  0
ARC
  5
2163
330
1A
100
AcDbEntity
  8
NOKITOI
100
AcDbCircle
 10
361.9305697745021
 20
134.8605436995879
 30
0.0
 40
2.0
100
AcDbArc
 50
270.0
 51
350.9468855847684
  0
POINT
  5
2164
330
1A
100
AcDbEntity
  8
SEIHIN
100
AcDbPoint
 10
364.4697520432978
 20
132.0605436995879
 30
0.0
  0
ARC
  5
2165
330
1A
100
AcDbEntity
  8
SEIHIN
100
AcDbCircle
 10
363.1920020638976
 20
133.5605436995879
 30
0.0
 40
3.0
100
AcDbArc
 50
270.0
 51
350.8509268397005
  0
ARC
  5
2166
330
1A
100
AcDbEntity
  8
SEIHIN
100
AcDbCircle
 10
363.1920020638976
 20
133.5605436995879
 30
0.0
 40
1.5
100
AcDbArc
 50
270.0
 51
350.8509268397005
  0
ARC
  5
2167
330
1A
100
AcDbEntity
  8
SEIHIN
100
AcDbCircle
 10
356.9736188305978
 20
140.8605436995879
 30
0.0
 40
4.299999999999999
100
AcDbArc
 50
270.0
 51
350.8509268397005
  0
DIMENSION
  5
2168
330
1A
100
AcDbEntity
  8
SUNPOU
100
AcDbDimension
  2
*D5
 10
441.0489353247316
 20
225.0605436995879
 30
0.0
 11
436.0489353247316
 21
240.060543699588
 31
0.0
 70
    32
 71
     5
 42
-1.0
  3
STANDARD
100
AcDbAlignedDimension
 13
394.9613152338977
 23
255.0605436995879
 33
0.0
 14
394.4952697598978
 24
225.0605436995879
 34
0.0
 50
90.0
100
AcDbRotatedDimension
1001
ACAD
1000
DSTYLE
1002
{
1070
    41
1040
6.0
1070
    42
1040
6.0
1070
    43
1040
14.0
1070
    44
1040
3.0
1070
    73
1070
     0
1070
    74
1070
     0
1070
    77
1070
     3
1070
   140
1040
6.0
1070
   141
1040
10.0
1070
   147
1040
2.0
1070
   172
1070
     1
1070
   173
1070
     1
1070
   176
1070
   256
1070
   177
1070
   256
1070
   178
1070
   256
1070
   271
1070
     0
1070
   272
1070
     0
1070
   341
1005
6D
1070
     6
1000
OPEN
1070
     7
1000
OPEN
1002
}
  0
ARC
  5
2169
330
1A
100
AcDbEntity
  8
NOKITOI
100
AcDbCircle
 10
390.3197520490298
 20
250.5605436995879
 30
0.0
 40
1.5
100
AcDbArc
 50
0.0
 51
90.0
  0
ARC
  5
216A
330
1A
100
AcDbEntity
  8
NOKITOI
100
AcDbCircle
 10
383.09967111903
 20
250.5605436995879
 30
0.0
 40
1.500000008557655
100
AcDbArc
 50
90.0
 51
170.9468821659906
  0
ARC
  5
216B
330
1A
100
AcDbEntity
  8
NOKITOI
100
AcDbCircle
 10
388.7197520490299
 20
248.9605436995879
 30
0.0
 40
1.7
100
AcDbArc
 50
0.0
 51
90.0
  0
LINE
  5
216C
330
1A
100
AcDbEntity
  8
SEIHIN
100
AcDbLine
 10
380.4697520432978
 20
252.5605436995879
 30
0.0
 11
380.4697520432978
 21
250.0605436995879
 31
0.0
  0
LINE
  5
216D
330
1A
100
AcDbEntity
  8
SEIHIN
100
AcDbLine
 10
378.4697520432978
 20
254.5605436995879
 30
0.0
 11
378.4697520432978
 21
250.0605436995879
 31
0.0
  0
LINE
  5
216F
330
1A
100
AcDbEntity
  8
SEIHIN
100
AcDbLine
 10
392.9697520432978
 20
254.5605436995879
 30
0.0
 11
392.9697520432978
 21
227.5605436995879
 31
0.0
  0
LINE
  5
2170
330
1A
100
AcDbEntity
  8
SEIHIN
100
AcDbLine
 10
394.9945845272977
 20
225.5343757214879
 30
0.0
 11
396.4592595359977
 21
253.4820397651879
 31
0.0
  0
ARC
  5
2171
330
1A
100
AcDbEntity
  8
NOKITOI
100
AcDbCircle
 10
390.3197520490298
 20
229.5605436995879
 30
0.0
 40
1.5
100
AcDbArc
 50
270.0
 51
0.0
  0
ARC
  5
2172
330
1A
100
AcDbEntity
  8
NOKITOI
100
AcDbCircle
 10
380.0425379590299
 20
227.5605436995879
 30
0.0
 40
0.5000000002300496
100
AcDbArc
 50
90.0
 51
170.9468859381295
  0
LINE
  5
2174
330
1A
100
AcDbEntity
  8
SEIHIN
100
AcDbLine
 10
381.3928923667796
 20
225.0605436995879
 30
0.0
 11
394.4952697598978
 21
225.0605436995879
 31
0.0
  0
LINE
  5
2175
330
1A
100
AcDbEntity
  8
SEIHIN
100
AcDbLine
 10
392.4697520432978
 20
227.0605436995879
 30
0.0
 11
380.6215853628978
 21
227.0605436995879
 31
0.0
  0
LINE
  5
2176
330
1A
100
AcDbEntity
  8
SEIHIN
100
AcDbLine
 10
380.4094549993976
 20
227.0377850765879
 30
0.0
 11
375.2080999267978
 21
227.0377850765879
 31
0.0
  0
LWPOLYLINE
  5
2177
330
1A
100
AcDbEntity
  8
SEIHIN
100
AcDbPolyline
 90
        9
 70
   128
 43
0.0
 10
375.2697989273976
 20
221.4461803683879
 10
375.3629791664977
 20
221.9862230891879
 10
375.4655248969977
 20
222.5086215388879
 10
375.5740857457976
 20
222.9963079197879
 10
375.6851148135976
 20
223.4333485464879
 10
375.7949845597977
 20
223.8054644314879
 10
375.9001053208976
 20
224.1004978076879
 10
375.9970425923977
 20
224.3088093470879
 10
376.0826292404976
 20
224.4235930970879
  0
LINE
  5
2178
330
1A
100
AcDbEntity
  8
SEIHIN
100
AcDbLine
 10
374.7870774289976
 20
224.4235930970879
 30
0.0
 11
374.3075572737978
 21
221.4461803683879
 31
0.0
  0
LINE
  5
2179
330
1A
100
AcDbEntity
  8
SEIHIN
100
AcDbLine
 10
374.7870774289976
 20
224.4235930970879
 30
0.0
 11
375.2044621872978
 21
227.0151978052879
 31
0.0
  0
LINE
  5
217A
330
1A
100
AcDbEntity
  8
SEIHIN
100
AcDbLine
 10
375.2044621872978
 20
227.0151978052879
 30
0.0
 11
375.2080999267978
 21
227.0377850765879
 31
0.0
  0
ARC
  5
217C
330
1A
100
AcDbEntity
  8
SEIHIN
100
AcDbCircle
 10
381.8993353423977
 20
224.5605436995879
 30
0.0
 40
0.5
100
AcDbArc
 50
90.0
 51
170.8509268396997
  0
ARC
  5
217D
330
1A
100
AcDbEntity
  8
SEIHIN
100
AcDbCircle
 10
380.6215853628978
 20
226.0605436995879
 30
0.0
 40
1.0
100
AcDbArc
 50
90.0
 51
170.8509268396997
  0
LINE
  5
217E
330
1A
100
AcDbEntity
  8
SEIHIN
100
AcDbLine
 10
376.8688854328977
 20
225.0859877313879
 30
0.0
 11
376.0826292404976
 21
224.4235930970879
 31
0.0
  0
LWPOLYLINE
  5
217F
330
1A
100
AcDbEntity
  8
SEIHIN
100
AcDbPolyline
 90
        7
 70
   128
 43
0.0
 10
380.0419632266978
 20
226.8754290775879
 10
380.0402545734978
 20
226.8888266600879
 10
379.9995046244976
 20
226.9012340545879
 10
379.8996641500977
 20
226.9153707643879
 10
379.7014305997977
 20
226.9299543628879
 10
379.4691465717978
 20
226.9367958999879
 10
379.4043797392978
 20
226.9371339515879
  0
LINE
  5
2180
330
1A
100
AcDbEntity
  8
SEIHIN
100
AcDbLine
 10
378.4084353517978
 20
226.9371339515879
 30
0.0
 11
379.4043797392978
 21
226.9371339515879
 31
0.0
  0
LWPOLYLINE
  5
2181
330
1A
100
AcDbEntity
  8
SEIHIN
100
AcDbPolyline
 90
        9
 70
   128
 43
0.0
 10
378.4084353517978
 20
226.9371339515879
 10
378.3125579668976
 20
226.9360223041879
 10
378.2197770824978
 20
226.9327274160879
 10
378.1334356962977
 20
226.9273680055879
 10
378.0566447834976
 20
226.9201371781879
 10
377.9921712055977
 20
226.9112954686879
 10
377.9423380165976
 20
226.9011614534879
 10
377.9089407612977
 20
226.8901002723878
 10
377.8931827797978
 20
226.8785104718879
  0
LINE
  5
2182
330
1A
100
AcDbEntity
  8
SEIHIN
100
AcDbLine
 10
377.8931827797978
 20
226.8785104718879
 30
0.0
 11
376.8688854328977
 21
225.0859877313879
 31
0.0
  0
ARC
  5
2183
330
1A
100
AcDbEntity
  8
SEIHIN
100
AcDbCircle
 10
394.4952697598978
 20
225.5605436995879
 30
0.0
 40
0.5
100
AcDbArc
 50
270.0
 51
356.9999999998999
  0
ARC
  5
2184
330
1A
100
AcDbEntity
  8
SEIHIN
100
AcDbCircle
 10
392.4697520432978
 20
227.5605436995879
 30
0.0
 40
0.5
100
AcDbArc
 50
270.0
 51
0.0
  0
ARC
  5
2185
330
1A
100
AcDbEntity
  8
NOKITOI
100
AcDbCircle
 10
384.4649181290299
 20
248.9605436995879
 30
0.0
 40
1.500000008557656
100
AcDbArc
 50
90.0
 51
170.9468821659906
  0
ARC
  5
2186
330
1A
100
AcDbEntity
  8
NOKITOI
100
AcDbCircle
 10
384.4649181290299
 20
248.9605436995879
 30
0.0
 40
1.700000008557656
100
AcDbArc
 50
90.0
 51
170.9468821659906
  0
LINE
  5
2187
330
1A
100
AcDbEntity
  8
NOKITOI
100
AcDbLine
 10
388.7197520490299
 20
229.6605436995879
 30
0.0
 11
381.6287576890299
 21
229.6605436995879
 31
0.0
  0
LINE
  5
2188
330
1A
100
AcDbEntity
  8
NOKITOI
100
AcDbLine
 10
388.7197520490299
 20
229.4605436995879
 30
0.0
 11
379.8821550577804
 21
229.4605436995879
 31
0.0
  0
LINE
  5
2189
330
1A
100
AcDbEntity
  8
NOKITOI
100
AcDbLine
 10
390.3197520490298
 20
228.0605436995879
 30
0.0
 11
380.0425379590299
 21
228.0605436995879
 31
0.0
  0
LINE
  5
218A
330
1A
100
AcDbEntity
  8
NOKITOI
100
AcDbLine
 10
382.98360377903
 20
249.1965687995878
 30
0.0
 11
380.1474433390298
 21
231.3965687995879
 31
0.0
  0
ARC
  5
218B
330
1A
100
AcDbEntity
  8
NOKITOI
100
AcDbCircle
 10
381.6287576890299
 20
231.1605436995879
 30
0.0
 40
1.500000008557656
100
AcDbArc
 50
170.9468821659906
 51
270.0
  0
ARC
  5
218C
330
1A
100
AcDbEntity
  8
NOKITOI
100
AcDbCircle
 10
379.8821550577804
 20
228.4605436995879
 30
0.0
 40
1.0
100
AcDbArc
 50
90.0
 51
170.9468855847684
  0
LINE
  5
218D
330
1A
100
AcDbEntity
  8
SEIHIN
100
AcDbLine
 10
378.9697520432978
 20
249.5605436995879
 30
0.0
 11
380.4697520432978
 21
249.5605436995879
 31
0.0
  0
LINE
  5
218E
330
1A
100
AcDbEntity
  8
SEIHIN
100
AcDbLine
 10
380.4697520432978
 20
249.5605436995879
 30
0.0
 11
380.4697520432978
 21
250.0605436995879
 31
0.0
  0
ARC
  5
218F
330
1A
100
AcDbEntity
  8
SEIHIN
100
AcDbCircle
 10
378.9697520432978
 20
250.0605436995879
 30
0.0
 40
0.5
100
AcDbArc
 50
180.0
 51
270.0
  0
LINE
  5
2190
330
1A
100
AcDbEntity
  8
NOKITOI
100
AcDbLine
 10
390.2197520490299
 20
248.9605436995879
 30
0.0
 11
390.2197520490299
 21
231.1605436995879
 31
0.0
  0
LINE
  5
2191
330
1A
100
AcDbEntity
  8
NOKITOI
100
AcDbLine
 10
391.8197520490298
 20
250.5605436995879
 30
0.0
 11
391.8197520490298
 21
229.5605436995879
 31
0.0
  0
LINE
  5
2192
330
1A
100
AcDbEntity
  8
NOKITOI
100
AcDbLine
 10
390.4197520490299
 20
248.9605436995879
 30
0.0
 11
390.4197520490299
 21
231.1605436995879
 31
0.0
  0
ARC
  5
2193
330
1A
100
AcDbEntity
  8
NOKITOI
100
AcDbCircle
 10
388.7197520490299
 20
231.1605436995879
 30
0.0
 40
1.5
100
AcDbArc
 50
270.0
 51
0.0
  0
ARC
  5
2194
330
1A
100
AcDbEntity
  8
NOKITOI
100
AcDbCircle
 10
388.7197520490299
 20
231.1605436995879
 30
0.0
 40
1.7
100
AcDbArc
 50
270.0
 51
0.0
  0
LINE
  5
2195
330
1A
100
AcDbEntity
  8
NOKITOI
100
AcDbLine
 10
388.7197520490299
 20
250.4605436995879
 30
0.0
 11
384.4649181290299
 21
250.4605436995879
 31
0.0
  0
LINE
  5
2196
330
1A
100
AcDbEntity
  8
NOKITOI
100
AcDbLine
 10
388.7197520490299
 20
250.6605436995879
 30
0.0
 11
384.4649181290299
 21
250.6605436995879
 31
0.0
  0
ARC
  5
2197
330
1A
100
AcDbEntity
  8
NOKITOI
100
AcDbCircle
 10
388.7197520490299
 20
248.9605436995879
 30
0.0
 40
1.5
100
AcDbArc
 50
0.0
 51
90.0
  0
LINE
  5
2198
330
1A
100
AcDbEntity
  8
NOKITOI
100
AcDbLine
 10
390.3197520490298
 20
252.0605436995879
 30
0.0
 11
383.09967111903
 21
252.0605436995879
 31
0.0
  0
LINE
  5
2199
330
1A
100
AcDbEntity
  8
SEIHIN
100
AcDbLine
 10
392.4697520432978
 20
253.0605436995879
 30
0.0
 11
380.9697520432978
 21
253.0605436995879
 31
0.0
  0
LINE
  5
219A
330
1A
100
AcDbEntity
  8
SEIHIN
100
AcDbLine
 10
393.4697520432978
 20
255.0605436995879
 30
0.0
 11
378.9697520432978
 21
255.0605436995879
 31
0.0
  0
ARC
  5
219B
330
1A
100
AcDbEntity
  8
SEIHIN
100
AcDbCircle
 10
378.9697520432978
 20
254.5605436995879
 30
0.0
 40
0.5
100
AcDbArc
 50
90.0
 51
180.0
  0
ARC
  5
219C
330
1A
100
AcDbEntity
  8
SEIHIN
100
AcDbCircle
 10
380.9697520432978
 20
252.5605436995879
 30
0.0
 40
0.5
100
AcDbArc
 50
90.0
 51
180.0
  0
LWPOLYLINE
  5
219E
330
1A
100
AcDbEntity
  8
SEIHIN
100
AcDbPolyline
 90
       10
 70
   128
 43
0.0
 10
392.9697520432978
 20
254.5605436995879
 10
392.9773481667976
 20
254.6473677883879
 10
392.9999057328977
 20
254.7315537712879
 10
393.0367393413978
 20
254.8105436995879
 10
393.0867298216976
 20
254.8819375043879
 10
393.1483582384976
 20
254.9435659211878
 10
393.2197520432978
 20
254.9935564014879
 10
393.2987419715978
 20
255.0303900099879
 10
393.3829279544977
 20
255.0529475760879
 10
393.4697520432978
 20
255.0605436995879
  0
LINE
  5
219F
330
1A
100
AcDbEntity
  8
SEIHIN
100
AcDbLine
 10
394.9613152338977
 20
255.0605436995879
 30
0.0
 11
393.4697520432978
 21
255.0605436995879
 31
0.0
  0
LWPOLYLINE
  5
21A2
330
1A
100
AcDbEntity
  8
SEIHIN
100
AcDbPolyline
 90
        6
 70
   128
 43
0.0
 10
392.4697520432978
 20
253.0605436995879
 10
392.6703813124977
 20
253.0185261187879
 10
392.8397534236978
 20
252.8968456152879
 10
392.9581171010977
 20
252.6677797490879
 10
392.9697387097976
 20
252.5641951751879
 10
392.9697520432978
 20
252.5605436995879
  0
ARC
  5
21A4
330
1A
100
AcDbEntity
  8
SEIHIN
100
AcDbCircle
 10
394.9613152338977
 20
253.5605436995879
 30
0.0
 40
1.5
100
AcDbArc
 50
357.0000000000002
 51
90.0
  0
LINE
  5
21A5
330
1A
100
AcDbEntity
  8
SEIHIN
100
AcDbLine
 10
182.6781876980239
 20
372.0577917495925
 30
0.0
 11
289.3197520170983
 21
372.0577908225887
 31
0.0
  0
LINE
  5
21A6
330
1A
100
AcDbEntity
  8
CENTER L
 48
5.0
100
AcDbLine
 10
175.1781906889976
 20
427.0577900893133
 30
0.0
 11
403.4613180266976
 21
427.0577890971143
 31
0.0
  0
LINE
  5
21A7
330
1A
100
AcDbEntity
  8
SEIHIN
100
AcDbLine
 10
182.6781879769977
 20
482.0577883638389
 30
0.0
 11
289.319752495197
 21
482.0577883638389
 31
0.0
  0
LWPOLYLINE
  5
21A8
330
1A
100
AcDbEntity
  8
SEIHIN
100
AcDbPolyline
 90
        9
 70
   128
 43
0.0
 10
202.5568753139978
 20
448.4252305246388
 10
202.6424619959978
 20
448.9552052237388
 10
202.7393996374976
 20
449.4558581627388
 10
202.8445198790977
 20
449.9108353175388
 10
202.9543898658975
 20
450.3052690543388
 10
203.0654184179977
 20
450.6262698687388
 10
203.1739789651978
 20
450.8633585192389
 10
203.2765250312977
 20
451.0087808139389
 10
203.3697057174977
 20
451.0577888704388
  0
LWPOLYLINE
  5
21A9
330
1A
100
AcDbEntity
  8
SEIHIN
100
AcDbPolyline
 90
        9
 70
   128
 43
0.0
 10
202.5568753139978
 20
405.6903430737389
 10
202.6424619959978
 20
405.1603758253389
 10
202.7393996374976
 20
404.6597191609389
 10
202.8445198790977
 20
404.2047420062388
 10
202.9543898658975
 20
403.8103082694388
 10
203.0654184179977
 20
403.4893074549389
 10
203.1739789651978
 20
403.2522225298388
 10
203.2765250312977
 20
403.1067946471388
 10
203.3697057174977
 20
403.0577847279388
  0
DIMENSION
  5
21AA
330
1A
100
AcDbEntity
  8
SUNPOU
100
AcDbDimension
  2
*D6
 10
143.0787448289452
 20
372.0577889598388
 30
0.0
 11
138.0787448289451
 21
427.0577886618389
 31
0.0
 70
    32
 71
     5
 42
-1.0
  3
STANDARD
100
AcDbAlignedDimension
 13
182.6781879769977
 23
482.0577883638389
 33
0.0
 14
182.6781879769977
 24
372.0577889598388
 34
0.0
 50
90.0
100
AcDbRotatedDimension
1001
ACAD
1000
DSTYLE
1002
{
1070
    41
1040
6.0
1070
    42
1040
6.0
1070
    43
1040
14.0
1070
    44
1040
3.0
1070
    73
1070
     0
1070
    74
1070
     0
1070
    77
1070
     3
1070
   140
1040
6.0
1070
   141
1040
10.0
1070
   147
1040
2.0
1070
   172
1070
     1
1070
   173
1070
     1
1070
   176
1070
   256
1070
   177
1070
   256
1070
   178
1070
   256
1070
   271
1070
     0
1070
   272
1070
     0
1070
   341
1005
6D
1070
     6
1000
OPEN
1070
     7
1000
OPEN
1002
}
  0
LINE
  5
21AB
330
1A
100
AcDbEntity
  8
SEIHIN
100
AcDbLine
 10
198.8697520433374
 20
397.0577874697388
 30
0.0
 11
198.8697520433374
 21
372.0577889598388
 31
0.0
  0
LINE
  5
21AC
330
1A
100
AcDbEntity
  8
SEIHIN
100
AcDbLine
 10
185.6697525488977
 20
372.0577889598388
 30
0.0
 11
185.6697525488977
 21
396.0577854432388
 31
0.0
  0
LINE
  5
21AD
330
1A
100
AcDbEntity
  8
SEIHIN
100
AcDbLine
 10
182.1781906889976
 20
477.0577884756388
 30
0.0
 11
182.1781906889976
 21
377.0577916421389
 31
0.0
  0
LINE
  5
21AE
330
1A
100
AcDbEntity
  8
SEIHIN
100
AcDbLine
 10
185.1697515355976
 20
377.0577916421389
 30
0.0
 11
183.6781900035976
 21
377.0577916421389
 31
0.0
  0
LINE
  5
21AF
330
1A
100
AcDbEntity
  8
SEIHIN
100
AcDbLine
 10
183.6781900035976
 20
377.0577916421389
 30
0.0
 11
182.1781906889976
 21
377.0577916421389
 31
0.0
  0
LINE
  5
21B0
330
1A
100
AcDbEntity
  8
SEIHIN
100
AcDbLine
 10
182.1781906889976
 20
377.0577916421389
 30
0.0
 11
182.6781879769977
 21
372.0577889598388
 31
0.0
  0
LWPOLYLINE
  5
21B1
330
1A
100
AcDbEntity
  8
SEIHIN
100
AcDbPolyline
 90
        9
 70
   128
 43
0.0
 10
185.1697515355976
 20
377.0577916421389
 10
185.2672982619978
 20
376.9617164053389
 10
185.3610936211977
 20
376.6771861828388
 10
185.4475389825977
 20
376.2151384271389
 10
185.5233039365977
 20
375.5933204211389
 10
185.5854864822977
 20
374.8356410779389
 10
185.6316912578977
 20
373.9712023653389
 10
185.6601450251977
 20
373.0332413233388
 10
185.6697525488977
 20
372.0577889598388
  0
LINE
  5
21B2
330
1A
100
AcDbEntity
  8
SEIHIN
100
AcDbLine
 10
201.7706192688976
 20
443.0577875591389
 30
0.0
 11
200.7463208990977
 21
428.5328210808388
 31
0.0
  0
LINE
  5
21B3
330
1A
100
AcDbEntity
  8
SEIHIN
100
AcDbLine
 10
200.1697521315977
 20
456.5577888406388
 30
0.0
 11
200.1697521315977
 21
397.5577884830388
 31
0.0
  0
LINE
  5
21B4
330
1A
100
AcDbEntity
  8
SEIHIN
100
AcDbLine
 10
201.7706192688976
 20
411.0577860392388
 30
0.0
 11
200.7463208990977
 21
425.5827562429389
 31
0.0
  0
LINE
  5
21B5
330
1A
100
AcDbEntity
  8
SEIHIN
100
AcDbLine
 10
186.6697508500977
 20
397.0577874697388
 30
0.0
 11
199.6697511182977
 21
397.0577874697388
 31
0.0
  0
ARC
  5
21B6
330
1A
100
AcDbEntity
  8
SEIHIN
100
AcDbCircle
 10
186.6697520432977
 20
396.0577883638388
 30
0.0
 40
1.0
100
AcDbArc
 50
90.0
 51
180.0
  0
ARC
  5
21B7
330
1A
100
AcDbEntity
  8
SEIHIN
100
AcDbCircle
 10
199.6697520432977
 20
397.5577883638388
 30
0.0
 40
0.5
100
AcDbArc
 50
270.0
 51
0.0
  0
LINE
  5
21B8
330
1A
100
AcDbEntity
  8
SEIHIN
100
AcDbLine
 10
202.5568753139978
 20
405.6903430737389
 30
0.0
 11
201.7706192688976
 21
411.0577860392388
 31
0.0
  0
LINE
  5
21B9
330
1A
100
AcDbEntity
  8
SEIHIN
100
AcDbLine
 10
200.1697521315977
 20
428.0577869631388
 30
0.0
 11
200.2310685472977
 21
428.0577869631388
 31
0.0
  0
LWPOLYLINE
  5
21BA
330
1A
100
AcDbEntity
  8
SEIHIN
100
AcDbPolyline
 90
        9
 70
   128
 43
0.0
 10
200.7463208990977
 20
428.5328210808388
 10
200.7305629210977
 20
428.4389065124389
 10
200.6971656935977
 20
428.3492760278388
 10
200.6473324851977
 20
428.2671594537388
 10
200.5828588859977
 20
428.1955146707389
 10
200.5060676144977
 20
428.1369233049388
 10
200.4197265611977
 20
428.0934938706389
 10
200.3269463436977
 20
428.0667947150389
 10
200.2310685472977
 20
428.0577869631389
  0
LWPOLYLINE
  5
21BB
330
1A
100
AcDbEntity
  8
SEIHIN
100
AcDbPolyline
 90
        9
 70
   128
 43
0.0
 10
200.7463208990977
 20
425.5827562429389
 10
200.7305629210977
 20
425.6766708113389
 10
200.6971656935977
 20
425.7663012959389
 10
200.6473324851977
 20
425.8484178699388
 10
200.5828588859977
 20
425.9200626529389
 10
200.5060676144977
 20
425.9786540187388
 10
200.4197265611977
 20
426.0220834530389
 10
200.3269463436977
 20
426.0487788833388
 10
200.2310685472977
 20
426.0577866353389
  0
LINE
  5
21BC
330
1A
100
AcDbEntity
  8
SEIHIN
100
AcDbLine
 10
200.1697521315977
 20
426.0577866353388
 30
0.0
 11
200.2310685472977
 21
426.0577866353388
 31
0.0
  0
LINE
  5
21BD
330
1A
100
AcDbEntity
  8
SEIHIN
100
AcDbLine
 10
198.8697520433374
 20
482.0577883638389
 30
0.0
 11
198.8697520433374
 21
457.0577879913389
 31
0.0
  0
LINE
  5
21BE
330
1A
100
AcDbEntity
  8
SEIHIN
100
AcDbLine
 10
185.6697525488977
 20
482.0577883638389
 30
0.0
 11
185.6697525488977
 21
458.0577881552389
 31
0.0
  0
LINE
  5
21BF
330
1A
100
AcDbEntity
  8
SEIHIN
100
AcDbLine
 10
186.6697508500977
 20
457.0577879913389
 30
0.0
 11
199.6697511182977
 21
457.0577879913389
 31
0.0
  0
ARC
  5
21C0
330
1A
100
AcDbEntity
  8
SEIHIN
100
AcDbCircle
 10
186.6697520432977
 20
458.0577883638389
 30
0.0
 40
1.0
100
AcDbArc
 50
180.0
 51
270.0
  0
LINE
  5
21C1
330
1A
100
AcDbEntity
  8
SEIHIN
100
AcDbLine
 10
202.5568753139978
 20
448.4252305246388
 30
0.0
 11
201.7706192688976
 21
443.0577875591389
 31
0.0
  0
ARC
  5
21C2
330
1A
100
AcDbEntity
  8
SEIHIN
100
AcDbCircle
 10
199.6697520432977
 20
456.5577883638389
 30
0.0
 40
0.5
100
AcDbArc
 50
0.0
 51
90.0
  0
LINE
  5
21C3
330
1A
100
AcDbEntity
  8
SEIHIN
100
AcDbLine
 10
182.6781879769977
 20
482.0577883638389
 30
0.0
 11
182.1781906889976
 21
477.0577884756388
 31
0.0
  0
LWPOLYLINE
  5
21C4
330
1A
100
AcDbEntity
  8
SEIHIN
100
AcDbPolyline
 90
        9
 70
   128
 43
0.0
 10
185.1697515355976
 20
477.0577884756388
 10
185.2672982619978
 20
477.1538618497388
 10
185.3610936211977
 20
477.4383906751388
 10
185.4475389825977
 20
477.9004402935388
 10
185.5233039365977
 20
478.5222545743388
 10
185.5854864822977
 20
479.2799371771389
 10
185.6316912578977
 20
480.1443712331388
 10
185.6601450251977
 20
481.0823367570389
 10
185.6697525488977
 20
482.0577883638389
  0
LINE
  5
21C5
330
1A
100
AcDbEntity
  8
SEIHIN
100
AcDbLine
 10
185.1697515355976
 20
477.0577884756388
 30
0.0
 11
183.6781900035976
 21
477.0577884756388
 31
0.0
  0
LINE
  5
21C6
330
1A
100
AcDbEntity
  8
SEIHIN
100
AcDbLine
 10
183.6781900035976
 20
477.0577884756388
 30
0.0
 11
182.1781906889976
 21
477.0577884756388
 31
0.0
  0
LINE
  5
21C7
330
1A
100
AcDbEntity
  8
CENTER L
 48
5.0
100
AcDbLine
 10
289.3197520432977
 20
489.0577883638388
 30
0.0
 11
289.3197520432977
 21
365.0577908225888
 31
0.0
  0
LINE
  5
21C8
330
1A
100
AcDbEntity
  8
SEIHIN
100
AcDbLine
 10
303.6222398354893
 20
451.0577888704388
 30
0.0
 11
361.2189095126978
 21
451.0577888704388
 31
0.0
  0
LINE
  5
21C9
330
1A
100
AcDbEntity
  8
SEIHIN
100
AcDbLine
 10
303.6222398354998
 20
403.0577847279387
 30
0.0
 11
361.2189095126978
 21
403.0577847279388
 31
0.0
  0
LINE
  5
21CA
330
1A
100
AcDbEntity
  8
SEIHIN
100
AcDbLine
 10
363.1920020686977
 20
472.0577885873388
 30
0.0
 11
289.3197524951976
 21
482.0577883638389
 31
0.0
  0
LINE
  5
21CB
330
1A
100
AcDbEntity
  8
SEIHIN
100
AcDbLine
 10
363.1920020686977
 20
382.0577868737387
 30
0.0
 11
289.3197524951976
 21
372.0577889598388
 31
0.0
  0
LINE
  5
21CC
330
1A
100
AcDbEntity
  8
SEIHIN
100
AcDbLine
 10
214.1697520432719
 20
372.0577914758456
 30
0.0
 11
214.1697520432719
 21
403.0577847279388
 31
0.0
  0
LINE
  5
21CD
330
1A
100
AcDbEntity
  8
SEIHIN
100
AcDbLine
 10
203.3697057174977
 20
451.0577888704388
 30
0.0
 11
275.0172640787977
 21
451.0577888704388
 31
0.0
  0
LINE
  5
21CE
330
1A
100
AcDbEntity
  8
SEIHIN
100
AcDbLine
 10
203.3697057174977
 20
403.0577847279388
 30
0.0
 11
275.0172640787977
 21
403.0577847279388
 31
0.0
  0
LINE
  5
21CF
330
1A
100
AcDbEntity
  8
SEIHIN
100
AcDbLine
 10
218.0030019815499
 20
451.0577888704388
 30
0.0
 11
218.0030019815499
 21
403.0577847279388
 31
0.0
  0
LINE
  5
21D0
330
1A
100
AcDbEntity
  8
SEIHIN
100
AcDbLine
 10
203.4350417213977
 20
427.4252289451387
 30
0.0
 11
203.8524269716976
 21
448.4252305246388
 31
0.0
  0
LINE
  5
21D1
330
1A
100
AcDbEntity
  8
SEIHIN
100
AcDbLine
 10
203.4350417213977
 20
426.6903483785388
 30
0.0
 11
203.8524269716976
 21
405.6903430737389
 31
0.0
  0
LWPOLYLINE
  5
21D2
330
1A
100
AcDbEntity
  8
SEIHIN
100
AcDbPolyline
 90
        9
 70
   128
 43
0.0
 10
204.3319463388977
 20
403.0577847279388
 10
204.2449719862977
 20
403.1067946471388
 10
204.1608381675978
 20
403.2522225298388
 10
204.0822941468977
 20
403.4893074549389
 10
204.0119085119977
 20
403.8103082694388
 10
203.9519779043976
 20
404.2047420062388
 10
203.9044618265977
 20
404.6597191609389
 10
203.8709137247976
 20
405.1603758253389
 10
203.8524269716976
 20
405.6903430737389
  0
LWPOLYLINE
  5
21D3
330
1A
100
AcDbEntity
  8
SEIHIN
100
AcDbPolyline
 90
        4
 70
   128
 43
0.0
 10
203.4350417213977
 20
427.4252289451388
 10
203.4318081693977
 20
427.1805444277388
 10
203.4318081693977
 20
426.9350328959388
 10
203.4350417213977
 20
426.6903483785388
  0
LINE
  5
21D4
330
1A
100
AcDbEntity
  8
SEIHIN
100
AcDbLine
 10
214.1697520432719
 20
451.0577888704388
 30
0.0
 11
214.1697520432719
 21
482.0577883638389
 31
0.0
  0
LWPOLYLINE
  5
21D5
330
1A
100
AcDbEntity
  8
SEIHIN
100
AcDbPolyline
 90
        9
 70
   128
 43
0.0
 10
204.3319463388977
 20
451.0577888704388
 10
204.2449719862977
 20
451.0087808139389
 10
204.1608381675978
 20
450.8633585192389
 10
204.0822941468977
 20
450.6262698687388
 10
204.0119085119977
 20
450.3052690543388
 10
203.9519779043976
 20
449.9108353175388
 10
203.9044618265977
 20
449.4558581627388
 10
203.8709137247976
 20
448.9552052237388
 10
203.8524269716976
 20
448.4252305246388
  0
DIMENSION
  5
21D6
330
1A
100
AcDbEntity
  8
SUNPOU
100
AcDbDimension
  2
*D7
 10
323.0382409339658
 20
403.0577847279387
 30
0.0
 11
318.0382409339657
 21
427.0577867991888
 31
0.0
 70
    32
 71
     5
 42
-1.0
  3
STANDARD
100
AcDbAlignedDimension
 13
303.6222398354893
 23
451.0577888704388
 33
0.0
 14
303.6222398354998
 24
403.0577847279387
 34
0.0
 50
90.0
100
AcDbRotatedDimension
1001
ACAD
1000
DSTYLE
1002
{
1070
    41
1040
6.0
1070
    42
1040
6.0
1070
    43
1040
14.0
1070
    44
1040
3.0
1070
    73
1070
     0
1070
    74
1070
     0
1070
    77
1070
     3
1070
   140
1040
6.0
1070
   141
1040
10.0
1070
   147
1040
2.0
1070
   172
1070
     1
1070
   173
1070
     1
1070
   176
1070
   256
1070
   177
1070
   256
1070
   178
1070
   256
1070
   271
1070
     0
1070
   272
1070
     0
1070
   341
1005
6D
1070
     6
1000
OPEN
1070
     7
1000
OPEN
1002
}
  0
LINE
  5
21D7
330
1A
100
AcDbEntity
  8
SEIHIN
100
AcDbLine
 10
299.3413384662976
 20
427.2650004841388
 30
0.0
 11
301.6330029974601
 21
449.26500084458
 31
0.0
  0
LINE
  5
21D8
330
1A
100
AcDbEntity
  8
SEIHIN
100
AcDbLine
 10
277.0065020428978
 20
449.2650003649388
 30
0.0
 11
279.2981665240977
 21
427.2650004841388
 31
0.0
  0
ARC
  5
21D9
330
1A
100
AcDbEntity
  8
SEIHIN
100
AcDbCircle
 10
303.6222398354998
 20
405.0577847279387
 30
0.0
 40
2.0
100
AcDbArc
 50
185.9468564555565
 51
270.0
  0
LINE
  5
21DA
330
1A
100
AcDbEntity
  8
SEIHIN
100
AcDbLine
 10
299.3413384662976
 20
426.8505768396388
 30
0.0
 11
301.6330029938549
 21
404.8505727885084
 31
0.0
  0
LINE
  5
21DB
330
1A
100
AcDbEntity
  8
SEIHIN
100
AcDbLine
 10
277.0065020428978
 20
404.8505732335388
 30
0.0
 11
279.2981665240977
 21
426.8505768396388
 31
0.0
  0
ARC
  5
21DC
330
1A
100
AcDbEntity
  8
SEIHIN
100
AcDbCircle
 10
275.0172639579977
 20
405.0577883638388
 30
0.0
 40
2.0
100
AcDbArc
 50
270.0
 51
354.0531369459993
  0
LINE
  5
21DD
330
1A
100
AcDbEntity
  8
SEIHIN
100
AcDbLine
 10
298.4599347816977
 20
428.4035758592389
 30
0.0
 11
280.1795664833976
 21
428.4035758592389
 31
0.0
  0
LINE
  5
21DE
330
1A
100
AcDbEntity
  8
SEIHIN
100
AcDbLine
 10
298.4599347816977
 20
425.7120014645388
 30
0.0
 11
280.1795664833976
 21
425.7120014645388
 31
0.0
  0
POINT
  5
21DF
330
1A
100
AcDbEntity
  8
SEIHIN
100
AcDbPoint
 10
279.3081761914977
 20
427.1127170753389
 30
0.0
  0
ARC
  5
21E0
330
1A
100
AcDbEntity
  8
SEIHIN
100
AcDbCircle
 10
277.3089306245978
 20
427.0577883638388
 30
0.0
 40
2.0
100
AcDbArc
 50
354.0531369459993
 51
5.946863054000629
  0
LINE
  5
21E1
330
1A
100
AcDbEntity
  8
SEIHIN
100
AcDbLine
 10
280.1795664833976
 20
428.4035758592389
 30
0.0
 11
279.1795644568978
 21
428.4035758592389
 31
0.0
  0
LINE
  5
21E2
330
1A
100
AcDbEntity
  8
SEIHIN
100
AcDbLine
 10
280.1795664833976
 20
425.7120014645388
 30
0.0
 11
279.1795644568978
 21
425.7120014645388
 31
0.0
  0
POINT
  5
21E3
330
1A
100
AcDbEntity
  8
SEIHIN
100
AcDbPoint
 10
299.3306876274978
 20
427.0364190113387
 30
0.0
  0
ARC
  5
21E4
330
1A
100
AcDbEntity
  8
SEIHIN
100
AcDbCircle
 10
301.3305734619975
 20
427.0577883638388
 30
0.0
 40
2.0
100
AcDbArc
 50
174.0531369459993
 51
185.9468630539998
  0
LINE
  5
21E5
330
1A
100
AcDbEntity
  8
SEIHIN
100
AcDbLine
 10
299.4599368082976
 20
428.4035758592389
 30
0.0
 11
298.4599347816977
 21
428.4035758592389
 31
0.0
  0
LINE
  5
21E6
330
1A
100
AcDbEntity
  8
SEIHIN
100
AcDbLine
 10
299.4599368082976
 20
425.7120014645388
 30
0.0
 11
298.4599347816977
 21
425.7120014645388
 31
0.0
  0
ARC
  5
21E7
330
1A
100
AcDbEntity
  8
SEIHIN
100
AcDbCircle
 10
303.6222398354893
 20
449.0577888704389
 30
0.0
 40
2.0
100
AcDbArc
 50
90.0
 51
174.0531425446684
  0
ARC
  5
21E8
330
1A
100
AcDbEntity
  8
SEIHIN
100
AcDbCircle
 10
275.0172639579977
 20
449.0577883638389
 30
0.0
 40
2.0
100
AcDbArc
 50
5.946863054000629
 51
90.0
  0
DIMENSION
  5
21E9
330
1A
100
AcDbEntity
  8
SUNPOU
100
AcDbDimension
  2
*D8
 10
441.0489353247316
 20
382.0577868737388
 30
0.0
 11
436.0489353247316
 21
427.0577877305389
 31
0.0
 70
    32
 71
     5
 42
-1.0
  3
STANDARD
100
AcDbAlignedDimension
 13
395.9613095627978
 23
472.0577885873388
 33
0.0
 14
395.9613095627978
 24
382.0577868737388
 34
0.0
 50
90.0
100
AcDbRotatedDimension
1001
ACAD
1000
DSTYLE
1002
{
1070
    41
1040
6.0
1070
    42
1040
6.0
1070
    43
1040
14.0
1070
    44
1040
3.0
1070
    73
1070
     0
1070
    74
1070
     0
1070
    77
1070
     3
1070
   140
1040
6.0
1070
   141
1040
10.0
1070
   147
1040
2.0
1070
   172
1070
     1
1070
   173
1070
     1
1070
   176
1070
   256
1070
   177
1070
   256
1070
   178
1070
   256
1070
   271
1070
     0
1070
   272
1070
     0
1070
   341
1005
6D
1070
     6
1000
OPEN
1070
     7
1000
OPEN
1002
}
  0
LINE
  5
21EA
330
1A
100
AcDbEntity
  8
SEIHIN
100
AcDbLine
 10
364.4697520433235
 20
382.0577868737387
 30
0.0
 11
364.4697520433233
 21
403.0577847279388
 31
0.0
  0
LINE
  5
21EB
330
1A
100
AcDbEntity
  8
SEIHIN
100
AcDbLine
 10
379.769752043258
 20
382.0577868737387
 30
0.0
 11
379.769752043258
 21
397.0577874697388
 31
0.0
  0
LINE
  5
21EC
330
1A
100
AcDbEntity
  8
SEIHIN
100
AcDbLine
 10
392.9697524415978
 20
396.0577854432388
 30
0.0
 11
392.9697524415978
 21
382.0577868737387
 31
0.0
  0
LINE
  5
21ED
330
1A
100
AcDbEntity
  8
SEIHIN
100
AcDbLine
 10
396.4613180266979
 20
387.0577895559388
 30
0.0
 11
396.4613180266979
 21
467.0577886991388
 31
0.0
  0
LINE
  5
21EE
330
1A
100
AcDbEntity
  8
SEIHIN
100
AcDbLine
 10
395.9613095627976
 20
382.0577868737387
 30
0.0
 11
363.1920020686975
 21
382.0577868737389
 31
0.0
  0
LINE
  5
21EF
330
1A
100
AcDbEntity
  8
SEIHIN
100
AcDbLine
 10
396.4613180266979
 20
387.0577895559388
 30
0.0
 11
394.9613224373976
 21
387.0577895559388
 31
0.0
  0
LINE
  5
21F0
330
1A
100
AcDbEntity
  8
SEIHIN
100
AcDbLine
 10
394.9613224373976
 20
387.0577895559388
 30
0.0
 11
393.4697460042978
 21
387.0577895559388
 31
0.0
  0
LINE
  5
21F1
330
1A
100
AcDbEntity
  8
SEIHIN
100
AcDbLine
 10
395.9613095627978
 20
382.0577868737387
 30
0.0
 11
396.4613180266979
 21
387.0577895559388
 31
0.0
  0
LWPOLYLINE
  5
21F2
330
1A
100
AcDbEntity
  8
SEIHIN
100
AcDbPolyline
 90
       10
 70
   128
 43
0.0
 10
392.9697524415978
 20
382.0577868737388
 10
392.9773520337976
 20
382.9260328330388
 10
392.9999123917978
 20
383.7678888358388
 10
393.0367331610978
 20
384.5577919401388
 10
393.0867265568977
 20
385.2717289246389
 10
393.1483577595977
 20
385.8880111493389
 10
393.2197492228977
 20
386.3879153050389
 10
393.2987402783976
 20
386.7562496580388
 10
393.3829318391977
 20
386.9818234361389
 10
393.4697460042978
 20
387.0577895559388
  0
LINE
  5
21F3
330
1A
100
AcDbEntity
  8
SEIHIN
100
AcDbLine
 10
360.6365021050455
 20
451.0577888704388
 30
0.0
 11
360.6365021050455
 21
403.0577847279388
 31
0.0
  0
LINE
  5
21F4
330
1A
100
AcDbEntity
  8
SEIHIN
100
AcDbLine
 10
374.7870724307976
 20
448.4252305246388
 30
0.0
 11
375.2044688569976
 21
427.4252289451387
 31
0.0
  0
LINE
  5
21F5
330
1A
100
AcDbEntity
  8
SEIHIN
100
AcDbLine
 10
377.8931896792978
 20
428.5328210808388
 30
0.0
 11
376.8688838587977
 21
443.0577875591389
 31
0.0
  0
LINE
  5
21F6
330
1A
100
AcDbEntity
  8
SEIHIN
100
AcDbLine
 10
378.4697454081976
 20
397.5577884830388
 30
0.0
 11
378.4697454081976
 21
456.5577888406388
 31
0.0
  0
LINE
  5
21F7
330
1A
100
AcDbEntity
  8
SEIHIN
100
AcDbLine
 10
361.2189095126978
 20
403.0577847279388
 30
0.0
 11
374.3075530635976
 21
403.0577847279388
 31
0.0
  0
LINE
  5
21F8
330
1A
100
AcDbEntity
  8
SEIHIN
100
AcDbLine
 10
377.8931896792978
 20
425.5827562429389
 30
0.0
 11
376.8688838587977
 21
411.0577860392388
 31
0.0
  0
LINE
  5
21F9
330
1A
100
AcDbEntity
  8
SEIHIN
100
AcDbLine
 10
374.7870724307976
 20
405.6903430737389
 30
0.0
 11
375.2044688569976
 21
426.6903483785388
 31
0.0
  0
LINE
  5
21FA
330
1A
100
AcDbEntity
  8
SEIHIN
100
AcDbLine
 10
378.9697538720977
 20
397.0577874697388
 30
0.0
 11
391.9697504149976
 21
397.0577874697388
 31
0.0
  0
ARC
  5
21FB
330
1A
100
AcDbEntity
  8
SEIHIN
100
AcDbCircle
 10
378.9697520432978
 20
397.5577883638388
 30
0.0
 40
0.5
100
AcDbArc
 50
180.0
 51
270.0
  0
LWPOLYLINE
  5
21FC
330
1A
100
AcDbEntity
  8
SEIHIN
100
AcDbPolyline
 90
        9
 70
   128
 43
0.0
 10
375.2697955475978
 20
403.0577847279388
 10
375.3629725085977
 20
403.1067946471388
 10
375.4655222998976
 20
403.2522225298388
 10
375.5740921603978
 20
403.4893074549389
 10
375.6851207123977
 20
403.8103082694388
 10
375.7949869738977
 20
404.2047420062388
 10
375.9000997649977
 20
404.6597191609389
 10
375.9970467196976
 20
405.1603758253389
 10
376.0826240883977
 20
405.6903430737389
  0
LWPOLYLINE
  5
21FD
330
1A
100
AcDbEntity
  8
SEIHIN
100
AcDbPolyline
 90
        9
 70
   128
 43
0.0
 10
374.7870724307976
 20
405.6903430737389
 10
374.7685949908977
 20
405.1603758253389
 10
374.7350375758976
 20
404.6597191609389
 10
374.6875326739977
 20
404.2047420062388
 10
374.6276002036977
 20
403.8103082694388
 10
374.5572071181977
 20
403.4893074549389
 10
374.4786630974977
 20
403.2522225298388
 10
374.3945311413976
 20
403.1067946471388
 10
374.3075530635976
 20
403.0577847279388
  0
LINE
  5
21FE
330
1A
100
AcDbEntity
  8
SEIHIN
100
AcDbLine
 10
374.3075530635976
 20
403.0577847279388
 30
0.0
 11
375.2697955475978
 21
403.0577847279388
 31
0.0
  0
LINE
  5
21FF
330
1A
100
AcDbEntity
  8
SEIHIN
100
AcDbLine
 10
376.8688838587977
 20
411.0577860392388
 30
0.0
 11
376.0826240883977
 21
405.6903430737389
 31
0.0
  0
ARC
  5
2200
330
1A
100
AcDbEntity
  8
SEIHIN
100
AcDbCircle
 10
391.9697520432978
 20
396.0577883638388
 30
0.0
 40
1.0
100
AcDbArc
 50
0.0
 51
90.0
  0
LWPOLYLINE
  5
2201
330
1A
100
AcDbEntity
  8
SEIHIN
100
AcDbPolyline
 90
        4
 70
   128
 43
0.0
 10
375.2044688569976
 20
426.6903483785388
 10
375.2077024089976
 20
426.9350328959388
 10
375.2077024089976
 20
427.1805444277388
 10
375.2044688569976
 20
427.4252289451388
  0
LWPOLYLINE
  5
2202
330
1A
100
AcDbEntity
  8
SEIHIN
100
AcDbPolyline
 90
        9
 70
   128
 43
0.0
 10
378.4084420310978
 20
428.0577869631389
 10
378.3125530587976
 20
428.0667947150389
 10
378.2197784291977
 20
428.0934938706389
 10
378.1334411011978
 20
428.1369233049388
 10
378.0566405163976
 20
428.1955146707389
 10
377.9921780930976
 20
428.2671594537388
 10
377.9423337088978
 20
428.3492760278388
 10
377.9089402066976
 20
428.4389065124389
 10
377.8931896792978
 20
428.5328210808388
  0
LINE
  5
2203
330
1A
100
AcDbEntity
  8
SEIHIN
100
AcDbLine
 10
378.4084420310978
 20
428.0577869631388
 30
0.0
 11
378.4697454081976
 21
428.0577869631388
 31
0.0
  0
LINE
  5
2204
330
1A
100
AcDbEntity
  8
SEIHIN
100
AcDbLine
 10
378.4084420310978
 20
426.0577866353388
 30
0.0
 11
378.4697454081976
 21
426.0577866353388
 31
0.0
  0
LWPOLYLINE
  5
2205
330
1A
100
AcDbEntity
  8
SEIHIN
100
AcDbPolyline
 90
        9
 70
   128
 43
0.0
 10
378.4084420310978
 20
426.0577866353389
 10
378.3125530587976
 20
426.0487788833388
 10
378.2197784291977
 20
426.0220834530389
 10
378.1334411011978
 20
425.9786540187388
 10
378.0566405163976
 20
425.9200626529389
 10
377.9921780930976
 20
425.8484178699388
 10
377.9423337088978
 20
425.7663012959389
 10
377.9089402066976
 20
425.6766708113389
 10
377.8931896792978
 20
425.5827562429389
  0
LINE
  5
2206
330
1A
100
AcDbEntity
  8
SEIHIN
100
AcDbLine
 10
379.6343009577976
 20
472.0577885873388
 30
0.0
 11
363.1920020686973
 21
472.0577885873386
 31
0.0
  0
LINE
  5
2207
330
1A
100
AcDbEntity
  8
SEIHIN
100
AcDbLine
 10
361.2189095126978
 20
451.0577888704388
 30
0.0
 11
374.3075530635976
 21
451.0577888704388
 31
0.0
  0
LINE
  5
2208
330
1A
100
AcDbEntity
  8
SEIHIN
100
AcDbLine
 10
364.4697520433233
 20
451.0577888704388
 30
0.0
 11
364.4697520433233
 21
472.0577885873386
 31
0.0
  0
LINE
  5
2209
330
1A
100
AcDbEntity
  8
SEIHIN
100
AcDbLine
 10
379.769752043258
 20
457.0577879913389
 30
0.0
 11
379.769752043258
 21
472.0577885873388
 31
0.0
  0
LINE
  5
220A
330
1A
100
AcDbEntity
  8
SEIHIN
100
AcDbLine
 10
392.9697524415978
 20
458.0577881552389
 30
0.0
 11
392.9697524415978
 21
472.0577885873388
 31
0.0
  0
LINE
  5
220B
330
1A
100
AcDbEntity
  8
SEIHIN
100
AcDbLine
 10
378.9697538720977
 20
457.0577879913389
 30
0.0
 11
391.9697504149976
 21
457.0577879913389
 31
0.0
  0
LINE
  5
220C
330
1A
100
AcDbEntity
  8
SEIHIN
100
AcDbLine
 10
376.8688838587977
 20
443.0577875591389
 30
0.0
 11
376.0826240883977
 21
448.4252305246388
 31
0.0
  0
LWPOLYLINE
  5
220D
330
1A
100
AcDbEntity
  8
SEIHIN
100
AcDbPolyline
 90
        9
 70
   128
 43
0.0
 10
375.2697955475978
 20
451.0577888704388
 10
375.3629725085977
 20
451.0087808139389
 10
375.4655222998976
 20
450.8633585192389
 10
375.5740921603978
 20
450.6262698687388
 10
375.6851207123977
 20
450.3052690543388
 10
375.7949869738977
 20
449.9108353175388
 10
375.9000997649977
 20
449.4558581627388
 10
375.9970467196976
 20
448.9552052237388
 10
376.0826240883977
 20
448.4252305246388
  0
LWPOLYLINE
  5
220E
330
1A
100
AcDbEntity
  8
SEIHIN
100
AcDbPolyline
 90
        9
 70
   128
 43
0.0
 10
374.7870724307976
 20
448.4252305246388
 10
374.7685949908977
 20
448.9552052237388
 10
374.7350375758976
 20
449.4558581627388
 10
374.6875326739977
 20
449.9108353175388
 10
374.6276002036977
 20
450.3052690543388
 10
374.5572071181977
 20
450.6262698687388
 10
374.4786630974977
 20
450.8633585192389
 10
374.3945311413976
 20
451.0087808139389
 10
374.3075530635976
 20
451.0577888704388
  0
LINE
  5
220F
330
1A
100
AcDbEntity
  8
SEIHIN
100
AcDbLine
 10
374.3075530635976
 20
451.0577888704388
 30
0.0
 11
375.2697955475978
 21
451.0577888704388
 31
0.0
  0
ARC
  5
2210
330
1A
100
AcDbEntity
  8
SEIHIN
100
AcDbCircle
 10
378.9697520432978
 20
456.5577883638389
 30
0.0
 40
0.5
100
AcDbArc
 50
90.0
 51
180.0
  0
ARC
  5
2211
330
1A
100
AcDbEntity
  8
SEIHIN
100
AcDbCircle
 10
391.9697520432978
 20
458.0577883638389
 30
0.0
 40
1.0
100
AcDbArc
 50
270.0
 51
0.0
  0
LINE
  5
2212
330
1A
100
AcDbEntity
  8
SEIHIN
100
AcDbLine
 10
379.6343009577976
 20
472.0577885873388
 30
0.0
 11
395.9613095627978
 21
472.0577885873388
 31
0.0
  0
LINE
  5
2213
330
1A
100
AcDbEntity
  8
SEIHIN
100
AcDbLine
 10
396.4613180266979
 20
467.0577886991388
 30
0.0
 11
395.9613095627978
 21
472.0577885873388
 31
0.0
  0
LWPOLYLINE
  5
2214
330
1A
100
AcDbEntity
  8
SEIHIN
100
AcDbPolyline
 90
       10
 70
   128
 43
0.0
 10
392.9697524415978
 20
472.0577885873388
 10
392.9773520337976
 20
471.1895472846387
 10
392.9999123917978
 20
470.3476875566389
 10
393.0367331610978
 20
469.5577881775388
 10
393.0867265568977
 20
468.8438502617389
 10
393.1483577595977
 20
468.2275661744388
 10
393.2197492228977
 20
467.7276610873389
 10
393.2987402783976
 20
467.3593248717388
 10
393.3829318391977
 20
467.1337492309389
 10
393.4697460042978
 20
467.0577886991388
  0
LINE
  5
2215
330
1A
100
AcDbEntity
  8
SEIHIN
100
AcDbLine
 10
394.9613224373976
 20
467.0577886991388
 30
0.0
 11
393.4697460042978
 21
467.0577886991388
 31
0.0
  0
LINE
  5
2216
330
1A
100
AcDbEntity
  8
SEIHIN
100
AcDbLine
 10
396.4613180266979
 20
467.0577886991388
 30
0.0
 11
394.9613224373976
 21
467.0577886991388
 31
0.0
  0
DIMENSION
  5
2217
330
1A
100
AcDbEntity
  8
SUNPOU
100
AcDbDimension
  2
*D9
 10
669.3805837037452
 20
319.6119235527603
 30
0.0
 11
614.380583274145
 21
324.6119235527603
 31
0.0
 70
    32
 71
     5
 42
-1.0
  3
STANDARD
100
AcDbAlignedDimension
 13
559.3805828445447
 23
254.5605428608879
 33
0.0
 14
669.3805837037452
 24
254.5605428608878
 34
0.0
100
AcDbRotatedDimension
1001
ACAD
1000
DSTYLE
1002
{
1070
    41
1040
6.0
1070
    42
1040
6.0
1070
    43
1040
14.0
1070
    44
1040
3.0
1070
    73
1070
     0
1070
    74
1070
     0
1070
    77
1070
     3
1070
   140
1040
6.0
1070
   141
1040
10.0
1070
   147
1040
2.0
1070
   172
1070
     1
1070
   173
1070
     1
1070
   176
1070
   256
1070
   177
1070
   256
1070
   178
1070
   256
1070
   271
1070
     0
1070
   272
1070
     0
1070
   341
1005
6D
1070
     6
1000
OPEN
1070
     7
1000
OPEN
1002
}
  0
DIMENSION
  5
2218
330
1A
100
AcDbEntity
  8
SUNPOU
100
AcDbDimension
  2
*D10
 10
659.3265174253452
 20
303.5507950085186
 30
0.0
 11
614.380583274145
 21
308.5507950085186
 31
0.0
 70
    32
 71
     5
 42
-1.0
  3
STANDARD
100
AcDbAlignedDimension
 13
569.4346491229448
 23
254.5605428608879
 33
0.0
 14
659.3265174253452
 24
254.5605428608878
 34
0.0
100
AcDbRotatedDimension
1001
ACAD
1000
DSTYLE
1002
{
1070
    41
1040
6.0
1070
    42
1040
6.0
1070
    43
1040
14.0
1070
    44
1040
3.0
1070
    73
1070
     0
1070
    74
1070
     0
1070
    77
1070
     3
1070
   140
1040
6.0
1070
   141
1040
10.0
1070
   147
1040
2.0
1070
   172
1070
     1
1070
   173
1070
     1
1070
   176
1070
   256
1070
   177
1070
   256
1070
   178
1070
   256
1070
   271
1070
     0
1070
   272
1070
     0
1070
   341
1005
6D
1070
     6
1000
OPEN
1070
     7
1000
OPEN
1002
}
  0
LINE
  5
2219
330
1A
100
AcDbEntity
  8
SEIHIN
100
AcDbLine
 10
654.628053244046
 20
225.0605436995879
 30
0.0
 11
574.1331133042451
 21
225.0605436995879
 31
0.0
  0
LINE
  5
221A
330
1A
100
AcDbEntity
  8
SEIHIN
100
AcDbLine
 10
564.4802531326449
 20
130.0605407309879
 30
0.0
 11
664.334979946645
 21
130.0605407309879
 31
0.0
  0
LINE
  5
221B
330
1A
100
AcDbEntity
  8
SEIHIN
100
AcDbLine
 10
564.3805845372448
 20
255.0605466681879
 30
0.0
 11
664.3805856490448
 21
255.0605466681879
 31
0.0
  0
LINE
  5
221C
330
1A
100
AcDbEntity
  8
SEIHIN
100
AcDbLine
 10
559.3805828445447
 20
130.560544538288
 30
0.0
 11
559.3805828445447
 21
254.5605428608879
 31
0.0
  0
LINE
  5
221D
330
1A
100
AcDbEntity
  8
SEIHIN
100
AcDbLine
 10
569.4346491229448
 20
254.5605428608879
 30
0.0
 11
569.4346491229451
 21
130.5605445382879
 31
0.0
  0
LINE
  5
221E
330
1A
100
AcDbEntity
  8
SEIHIN
100
AcDbLine
 10
559.3805828445447
 20
130.560544538288
 30
0.0
 11
569.4346491229448
 21
130.5605445382879
 31
0.0
  0
LINE
  5
221F
330
1A
100
AcDbEntity
  8
SEIHIN
100
AcDbLine
 10
559.3805828445447
 20
132.0605436995879
 30
0.0
 11
569.4346491229448
 21
132.0605436995879
 31
0.0
  0
LINE
  5
2220
330
1A
100
AcDbEntity
  8
SEIHIN
100
AcDbLine
 10
559.4346493755451
 20
130.5605445382879
 30
0.0
 11
564.4802531326449
 21
130.0605407309879
 31
0.0
  0
LINE
  5
2221
330
1A
100
AcDbEntity
  8
SEIHIN
100
AcDbLine
 10
569.4346491229448
 20
130.5605445382879
 30
0.0
 11
574.1331133042451
 21
130.0605407309879
 31
0.0
  0
LINE
  5
2222
330
1A
100
AcDbEntity
  8
SEIHIN
100
AcDbLine
 10
559.3805828445447
 20
227.0605436995879
 30
0.0
 11
569.4346491229448
 21
227.0605436995879
 31
0.0
  0
LINE
  5
2223
330
1A
100
AcDbEntity
  8
SEIHIN
100
AcDbLine
 10
569.4346491229448
 20
225.5605436995879
 30
0.0
 11
574.1331133042449
 21
225.0605436995879
 31
0.0
  0
LINE
  5
2224
330
1A
100
AcDbEntity
  8
SEIHIN
100
AcDbLine
 10
569.4346491229448
 20
226.2195456283879
 30
0.0
 11
569.4346491229448
 21
227.0605444650878
 31
0.0
  0
LINE
  5
2225
330
1A
100
AcDbEntity
  8
SEIHIN
100
AcDbLine
 10
569.4346491229448
 20
227.0701487291879
 30
0.0
 11
569.4346491229448
 21
227.5605446343879
 31
0.0
  0
LWPOLYLINE
  5
2226
330
1A
100
AcDbEntity
  8
SEIHIN
100
AcDbPolyline
 90
       10
 70
   128
 43
0.0
 10
559.3805828445447
 20
254.5605428608879
 10
560.2488228666447
 20
254.6473668631879
 10
561.090683904445
 20
254.7315496927879
 10
561.880583690845
 20
254.8105447645879
 10
562.594518841845
 20
254.8819364606879
 10
563.210807003745
 20
254.9435638216879
 10
563.7107089475448
 20
254.9935569263879
 10
564.0790470258448
 20
255.0303878238879
 10
564.304623539745
 20
255.0529505683879
 10
564.3805845372448
 20
255.0605466681879
  0
LWPOLYLINE
  5
2227
330
1A
100
AcDbEntity
  8
SEIHIN
100
AcDbPolyline
 90
       10
 70
   128
 43
0.0
 10
569.4346491229448
 20
254.5605428608879
 10
570.3028891450449
 20
254.6473668631879
 10
571.1447501828452
 20
254.7315496927879
 10
571.9346499692451
 20
254.8105447645879
 10
572.6485851202451
 20
254.8819364606879
 10
573.2648732821451
 20
254.9435638216879
 10
573.7647752259449
 20
254.9935569263879
 10
574.1331133042449
 20
255.0303878238879
 10
574.3586898181452
 20
255.0529505683879
 10
574.434650815645
 20
255.0605466681879
  0
LINE
  5
2228
330
1A
100
AcDbEntity
  8
SEIHIN
100
AcDbLine
 10
669.3805837037452
 20
130.5605445382879
 30
0.0
 11
669.3805837037452
 21
254.5605428608878
 31
0.0
  0
LINE
  5
2229
330
1A
100
AcDbEntity
  8
SEIHIN
100
AcDbLine
 10
659.3265174253452
 20
254.5605428608878
 30
0.0
 11
659.3265174253446
 21
130.5605445382878
 31
0.0
  0
LINE
  5
222A
330
1A
100
AcDbEntity
  8
CENTER L
 48
5.0
100
AcDbLine
 10
614.380583274145
 20
262.0605466681879
 30
0.0
 11
614.380583274145
 21
123.0605407309878
 31
0.0
  0
LINE
  5
222B
330
1A
100
AcDbEntity
  8
SEIHIN
100
AcDbLine
 10
669.3805837037452
 20
132.0605436995877
 30
0.0
 11
659.3265174253449
 21
132.0605436995878
 31
0.0
  0
LINE
  5
222C
330
1A
100
AcDbEntity
  8
SEIHIN
100
AcDbLine
 10
669.3805837037452
 20
130.5605445382879
 30
0.0
 11
659.3265174253449
 21
130.5605445382878
 31
0.0
  0
LINE
  5
222D
330
1A
100
AcDbEntity
  8
SEIHIN
100
AcDbLine
 10
659.3265174253449
 20
130.5605445382878
 30
0.0
 11
654.6280532440446
 21
130.0605407309878
 31
0.0
  0
LINE
  5
222E
330
1A
100
AcDbEntity
  8
SEIHIN
100
AcDbLine
 10
669.3265171727448
 20
130.5605445382877
 30
0.0
 11
664.2809134156451
 21
130.0605407309878
 31
0.0
  0
LINE
  5
222F
330
1A
100
AcDbEntity
  8
SEIHIN
100
AcDbLine
 10
669.3805837037452
 20
227.0605436995878
 30
0.0
 11
659.3265174253452
 21
227.0605436995878
 31
0.0
  0
LINE
  5
2230
330
1A
100
AcDbEntity
  8
SEIHIN
100
AcDbLine
 10
659.3265174253452
 20
227.0701487291877
 30
0.0
 11
659.3265174253452
 21
227.5605446343878
 31
0.0
  0
LINE
  5
2231
330
1A
100
AcDbEntity
  8
SEIHIN
100
AcDbLine
 10
659.3265174253452
 20
226.2195456283878
 30
0.0
 11
659.3265174253452
 21
227.0605444650878
 31
0.0
  0
LINE
  5
2232
330
1A
100
AcDbEntity
  8
SEIHIN
100
AcDbLine
 10
659.3265174253452
 20
225.5605436995878
 30
0.0
 11
654.6280532440451
 21
225.0605436995878
 31
0.0
  0
LWPOLYLINE
  5
2233
330
1A
100
AcDbEntity
  8
SEIHIN
100
AcDbPolyline
 90
       10
 70
   128
 43
0.0
 10
659.3265174253452
 20
254.5605428608878
 10
658.4582774032451
 20
254.6473668631878
 10
657.616416365445
 20
254.7315496927877
 10
656.826516579045
 20
254.8105447645878
 10
656.1125814280451
 20
254.8819364606878
 10
655.4962932661451
 20
254.9435638216877
 10
654.996391322345
 20
254.9935569263878
 10
654.6280532440451
 20
255.0303878238878
 10
654.4024767301451
 20
255.0529505683878
 10
654.326515732645
 20
255.0605466681878
  0
LWPOLYLINE
  5
2234
330
1A
100
AcDbEntity
  8
SEIHIN
100
AcDbPolyline
 90
       10
 70
   128
 43
0.0
 10
669.3805837037452
 20
254.5605428608878
 10
668.5123436816452
 20
254.6473668631878
 10
667.6704826438451
 20
254.7315496927877
 10
666.8805828574452
 20
254.8105447645878
 10
666.1666477064452
 20
254.8819364606878
 10
665.5503595445452
 20
254.9435638216877
 10
665.0504576007452
 20
254.9935569263877
 10
664.6821195224451
 20
255.0303878238878
 10
664.4565430085451
 20
255.0529505683878
 10
664.3805820110451
 20
255.0605466681878
  0
ARC
  5
2E2C
330
1A
100
AcDbEntity
  8
SEIHIN
100
AcDbCircle
 10
197.2466117198158
 20
224.5605436995879
 30
0.0
 40
0.5
100
AcDbArc
 50
9.149073160270251
 51
90.0
  0
ARC
  5
2E2D
330
1A
100
AcDbEntity
  8
SEIHIN
100
AcDbCircle
 10
381.3928923667796
 20
224.5605436995879
 30
0.0
 40
0.5
100
AcDbArc
 50
90.0
 51
170.8509268397297
  0
VIEWPORT
  5
22
330
17
100
AcDbEntity
 67
     1
  8
0
100
AcDbViewport
 10
313.6808219178082
 20
148.5
 30
0.0
 40
627.3616438356165
 41
297.0
 68
     2
 69
     1
 12
313.6808219178082
 22
148.5
 13
0.0
 23
0.0
 14
1.0
 24
1.0
 15
10.0
 25
10.0
 16
0.0
 26
0.0
 36
1.0
 17
0.0
 27
0.0
 37
0.0
 42
50.0
 43
0.0
 44
0.0
 45
297.0
 50
0.0
 51
0.0
 72
   100
 90
    32768
  1

281
     0
 71
     1
 74
     0
110
0.0
120
0.0
130
0.0
111
1.0
121
0.0
131
0.0
112
0.0
122
1.0
132
0.0
 79
     0
146
0.0
  0
VIEWPORT
  5
64
330
17
100
AcDbEntity
 67
     1
  8
VIEWPORT
100
AcDbViewport
 10
210.0
 20
148.5
 30
0.0
 40
420.0
 41
297.0
 68
     1
 69
     2
 12
420.0
 22
297.0
 13
0.0
 23
0.0
 14
10.0
 24
10.0
 15
0.0
 25
0.0
 16
0.0
 26
0.0
 36
1.0
 17
0.0
 27
0.0
 37
0.0
 42
50.0
 43
0.0
 44
0.0
 45
605.8799999999998
 50
0.0
 51
0.0
 72
   100
 90
    32768
  1

281
     0
 71
     1
 74
     0
110
0.0
120
0.0
130
0.0
111
1.0
121
0.0
131
0.0
112
0.0
122
1.0
132
0.0
 79
     0
146
0.0
  0
ENDSEC
  0
SECTION
  2
OBJECTS
  0
DICTIONARY
  5
C
330
0
100
AcDbDictionary
281
     1
  3
ACAD_GROUP
350
D
  3
ACAD_LAYOUT
350
340
  3
ACAD_MLINESTYLE
350
E
  3
ACAD_PLOTSETTINGS
350
341
  3
ACAD_PLOTSTYLENAME
350
33E
  3
AcDbVariableDictionary
350
11E9
  0
DICTIONARY
  5
385
330
1A
100
AcDbDictionary
280
     1
281
     1
  3
ACAD_LAYOUTSELFREF
360
2E59
  0
DICTIONARY
  5
383
330
17
100
AcDbDictionary
280
     1
281
     1
  3
ACAD_LAYOUTSELFREF
360
2E58
  0
DICTIONARY
  5
D
102
{ACAD_REACTORS
330
C
102
}
330
C
100
AcDbDictionary
281
     1
  0
DICTIONARY
  5
340
102
{ACAD_REACTORS
330
C
102
}
330
C
100
AcDbDictionary
281
     1
  3
Model
350
342
  3
ﾚｲｱｳﾄ1
350
343
  0
DICTIONARY
  5
E
102
{ACAD_REACTORS
330
C
102
}
330
C
100
AcDbDictionary
281
     1
  3
STANDARD
350
13
  0
DICTIONARY
  5
341
102
{ACAD_REACTORS
330
C
102
}
330
C
100
AcDbDictionary
281
     1
  0
ACDBDICTIONARYWDFLT
  5
33E
102
{ACAD_REACTORS
330
C
102
}
330
C
100
AcDbDictionary
281
     1
  3
Normal
350
33F
100
AcDbDictionaryWithDefault
340
33F
1001
ACAD
1000
TREAT_AS_HARD
1070
     0
1000
TREAT_AS_HARD
1070
     0
1000
TREAT_AS_HARD
1070
     0
1000
TREAT_AS_HARD
1070
     0
1000
TREAT_AS_HARD
1070
     0
1000
TREAT_AS_HARD
1070
     0
1000
TREAT_AS_HARD
1070
     0
1000
TREAT_AS_HARD
1070
     0
1000
TREAT_AS_HARD
1070
     0
  0
DICTIONARY
  5
11E9
102
{ACAD_REACTORS
330
C
102
}
330
C
100
AcDbDictionary
281
     1
  3
SORTENTS
350
11EA
  0
XRECORD
  5
2E59
102
{ACAD_REACTORS
330
385
102
}
330
385
100
AcDbXrecord
280
     1
340
1A
  0
XRECORD
  5
2E58
102
{ACAD_REACTORS
330
383
102
}
330
383
100
AcDbXrecord
280
     1
340
17
  0
LAYOUT
  5
342
102
{ACAD_REACTORS
330
340
102
}
330
340
100
AcDbPlotSettings
  1

  2
Acrobat Distiller
  4
A3
  6

 40
3.174999952316284
 41
3.174999952316284
 42
3.17498779296875
 43
3.17498779296875
 44
297.0318298339843
 45
420.1583251953125
 46
0.0
 47
0.0
 48
0.0
 49
0.0
140
0.0
141
0.0
142
1.0
143
2.0
 70
 11952
 72
     1
 73
     1
 74
     2
  7
print.ctb
 75
    17
147
0.5
148
0.0
149
0.0
100
AcDbLayout
  1
Model
 70
     1
 71
     0
 10
0.0
 20
0.0
 11
12.0
 21
9.0
 12
0.0
 22
0.0
 32
0.0
 14
0.0
 24
0.0
 34
0.0
 15
0.0
 25
0.0
 35
0.0
146
0.0
 13
0.0
 23
0.0
 33
0.0
 16
1.0
 26
0.0
 36
0.0
 17
0.0
 27
1.0
 37
0.0
 76
     0
330
1A
  0
LAYOUT
  5
343
102
{ACAD_REACTORS
330
340
102
}
330
340
100
AcDbPlotSettings
  1

  2
Acrobat Distiller
  4

  6

 40
0.0
 41
0.0
 42
0.0
 43
0.0
 44
0.0
 45
0.0
 46
0.0
 47
0.0
 48
0.0
 49
0.0
140
0.0
141
0.0
142
1.0
143
1.0
 70
   688
 72
     0
 73
     0
 74
     5
  7
print.ctb
 75
    16
147
1.0
148
0.0
149
0.0
100
AcDbLayout
  1
ﾚｲｱｳﾄ1
 70
     1
 71
     1
 10
0.0
 20
0.0
 11
420.0
 21
297.0
 12
0.0
 22
0.0
 32
0.0
 14
0.0
 24
0.0
 34
0.0
 15
420.0
 25
297.0
 35
0.0
146
0.0
 13
0.0
 23
0.0
 33
0.0
 16
1.0
 26
0.0
 36
0.0
 17
0.0
 27
1.0
 37
0.0
 76
     0
330
17
331
64
  0
MLINESTYLE
  5
13
102
{ACAD_REACTORS
330
E
102
}
330
E
100
AcDbMlineStyle
  2
STANDARD
 70
     0
  3

 62
     0
 51
90.0
 52
90.0
 71
     2
 49
0.5
 62
   256
  6
BYLAYER
 49
-0.5
 62
   256
  6
BYLAYER
  0
ACDBPLACEHOLDER
  5
33F
102
{ACAD_REACTORS
330
33E
102
}
330
33E
  0
DICTIONARYVAR
  5
11EA
102
{ACAD_REACTORS
330
11E9
102
}
330
11E9
100
DictionaryVariables
280
     0
  1
96
  0
ENDSEC
  0
EOF
