  0
SECTION
  2
HEADER
  9
$ACADVER
  1
AC1024
  9
$ACADMAINTVER
 70
    37
  9
$DWGCODEPAGE
  3
ANSI_932
  9
$LASTSAVEDBY
  1
kogure009
  9
$INSBASE
 10
0.0
 20
0.0
 30
0.0
  9
$EXTMIN
 10
-7.985341692444308
 20
13.75872942637511
 30
-0.000000000000013
  9
$EXTMAX
 10
807.6787930429189
 20
565.4220899727918
 30
0.0000000000000023
  9
$LIMMIN
 10
0.0
 20
0.0
  9
$LIMMAX
 10
840.0
 20
594.0
  9
$ORTHOMODE
 70
     1
  9
$REGENMODE
 70
     1
  9
$FILLMODE
 70
     1
  9
$QTEXTMODE
 70
     0
  9
$MIRRTEXT
 70
     1
  9
$LTSCALE
 40
2.0
  9
$ATTMODE
 70
     1
  9
$TEXTSIZE
 40
5.0
  9
$TRACEWID
 40
1.0
  9
$TEXTSTYLE
  7
STANDARD
  9
$CLAYER
  8
SUNPOU
  9
$CELTYPE
  6
BYLAYER
  9
$CECOLOR
 62
   256
  9
$CELTSCALE
 40
1.0
  9
$DISPSILH
 70
     0
  9
$DIMSCALE
 40
1.0
  9
$DIMASZ
 40
7.0
  9
$DIMEXO
 40
6.0
  9
$DIMDLI
 40
14.0
  9
$DIMRND
 40
0.0
  9
$DIMDLE
 40
0.0
  9
$DIMEXE
 40
3.0
  9
$DIMTP
 40
0.0
  9
$DIMTM
 40
0.0
  9
$DIMTXT
 40
6.0
  9
$DIMCEN
 40
150.0
  9
$DIMTSZ
 40
0.0
  9
$DIMTOL
 70
     0
  9
$DIMLIM
 70
     0
  9
$DIMTIH
 70
     0
  9
$DIMTOH
 70
     0
  9
$DIMSE1
 70
     0
  9
$DIMSE2
 70
     0
  9
$DIMTAD
 70
     3
  9
$DIMZIN
 70
     0
  9
$DIMBLK
  1

  9
$DIMASO
 70
     1
  9
$DIMSHO
 70
     1
  9
$DIMPOST
  1

  9
$DIMAPOST
  1

  9
$DIMALT
 70
     0
  9
$DIMALTD
 70
     2
  9
$DIMALTF
 40
25.4
  9
$DIMLFAC
 40
1.0
  9
$DIMTOFL
 70
     1
  9
$DIMTVP
 40
0.0
  9
$DIMTIX
 70
     0
  9
$DIMSOXD
 70
     0
  9
$DIMSAH
 70
     1
  9
$DIMBLK1
  1
OPEN
  9
$DIMBLK2
  1
OPEN
  9
$DIMSTYLE
  2
STANDARD
  9
$DIMCLRD
 70
   256
  9
$DIMCLRE
 70
   256
  9
$DIMCLRT
 70
   256
  9
$DIMTFAC
 40
1.0
  9
$DIMGAP
 40
2.0
  9
$DIMJUST
 70
     0
  9
$DIMSD1
 70
     0
  9
$DIMSD2
 70
     0
  9
$DIMTOLJ
 70
     1
  9
$DIMTZIN
 70
     0
  9
$DIMALTZ
 70
     0
  9
$DIMALTTZ
 70
     0
  9
$DIMUPT
 70
     0
  9
$DIMDEC
 70
     0
  9
$DIMTDEC
 70
     0
  9
$DIMALTU
 70
     2
  9
$DIMALTTD
 70
     2
  9
$DIMTXSTY
  7
STANDARD
  9
$DIMAUNIT
 70
     0
  9
$DIMADEC
 70
     0
  9
$DIMALTRND
 40
0.0
  9
$DIMAZIN
 70
     0
  9
$DIMDSEP
 70
    46
  9
$DIMATFIT
 70
     3
  9
$DIMFRAC
 70
     0
  9
$DIMLDRBLK
  1
OPEN
  9
$DIMLUNIT
 70
     2
  9
$DIMLWD
 70
    -1
  9
$DIMLWE
 70
    -1
  9
$DIMTMOVE
 70
     0
  9
$DIMFXL
 40
1.0
  9
$DIMFXLON
 70
     0
  9
$DIMJOGANG
 40
0.7853981633974483
  9
$DIMTFILL
 70
     0
  9
$DIMTFILLCLR
 70
     0
  9
$DIMARCSYM
 70
     0
  9
$DIMLTYPE
  6

  9
$DIMLTEX1
  6

  9
$DIMLTEX2
  6

  9
$DIMTXTDIRECTION
 70
     0
  9
$LUNITS
 70
     2
  9
$LUPREC
 70
     4
  9
$SKETCHINC
 40
1.0
  9
$FILLETRAD
 40
0.5
  9
$AUNITS
 70
     0
  9
$AUPREC
 70
     0
  9
$MENU
  1
.
  9
$ELEVATION
 40
0.0
  9
$PELEVATION
 40
0.0
  9
$THICKNESS
 40
0.0
  9
$LIMCHECK
 70
     0
  9
$CHAMFERA
 40
20.0
  9
$CHAMFERB
 40
20.0
  9
$CHAMFERC
 40
40.0
  9
$CHAMFERD
 40
0.0
  9
$SKPOLY
 70
     0
  9
$TDCREATE
 40
2454866.469916053
  9
$TDUCREATE
 40
2454866.094916053
  9
$TDUPDATE
 40
2459426.700964688
  9
$TDUUPDATE
 40
2459426.325964687
  9
$TDINDWG
 40
0.0833983102
  9
$TDUSRTIMER
 40
0.0833983102
  9
$USRTIMER
 70
     1
  9
$ANGBASE
 50
0.0
  9
$ANGDIR
 70
     0
  9
$PDMODE
 70
     0
  9
$PDSIZE
 40
0.0
  9
$PLINEWID
 40
0.0
  9
$SPLFRAME
 70
     0
  9
$SPLINETYPE
 70
     6
  9
$SPLINESEGS
 70
     8
  9
$HANDSEED
  5
4747
  9
$SURFTAB1
 70
     6
  9
$SURFTAB2
 70
     6
  9
$SURFTYPE
 70
     6
  9
$SURFU
 70
     6
  9
$SURFV
 70
     6
  9
$UCSBASE
  2

  9
$UCSNAME
  2

  9
$UCSORG
 10
0.0
 20
0.0
 30
0.0
  9
$UCSXDIR
 10
1.0
 20
0.0
 30
0.0
  9
$UCSYDIR
 10
0.0
 20
1.0
 30
0.0
  9
$UCSORTHOREF
  2

  9
$UCSORTHOVIEW
 70
     0
  9
$UCSORGTOP
 10
0.0
 20
0.0
 30
0.0
  9
$UCSORGBOTTOM
 10
0.0
 20
0.0
 30
0.0
  9
$UCSORGLEFT
 10
0.0
 20
0.0
 30
0.0
  9
$UCSORGRIGHT
 10
0.0
 20
0.0
 30
0.0
  9
$UCSORGFRONT
 10
0.0
 20
0.0
 30
0.0
  9
$UCSORGBACK
 10
0.0
 20
0.0
 30
0.0
  9
$PUCSBASE
  2

  9
$PUCSNAME
  2

  9
$PUCSORG
 10
0.0
 20
0.0
 30
0.0
  9
$PUCSXDIR
 10
1.0
 20
0.0
 30
0.0
  9
$PUCSYDIR
 10
0.0
 20
1.0
 30
0.0
  9
$PUCSORTHOREF
  2

  9
$PUCSORTHOVIEW
 70
     0
  9
$PUCSORGTOP
 10
0.0
 20
0.0
 30
0.0
  9
$PUCSORGBOTTOM
 10
0.0
 20
0.0
 30
0.0
  9
$PUCSORGLEFT
 10
0.0
 20
0.0
 30
0.0
  9
$PUCSORGRIGHT
 10
0.0
 20
0.0
 30
0.0
  9
$PUCSORGFRONT
 10
0.0
 20
0.0
 30
0.0
  9
$PUCSORGBACK
 10
0.0
 20
0.0
 30
0.0
  9
$USERI1
 70
     0
  9
$USERI2
 70
     0
  9
$USERI3
 70
     0
  9
$USERI4
 70
     0
  9
$USERI5
 70
     0
  9
$USERR1
 40
0.0
  9
$USERR2
 40
0.0
  9
$USERR3
 40
0.0
  9
$USERR4
 40
0.0
  9
$USERR5
 40
0.0
  9
$WORLDVIEW
 70
     1
  9
$SHADEDGE
 70
     3
  9
$SHADEDIF
 70
    70
  9
$TILEMODE
 70
     1
  9
$MAXACTVP
 70
    16
  9
$PINSBASE
 10
0.0
 20
0.0
 30
0.0
  9
$PLIMCHECK
 70
     0
  9
$PEXTMIN
 10
0.0
 20
0.0
 30
0.0
  9
$PEXTMAX
 10
420.0
 20
297.0
 30
0.0
  9
$PLIMMIN
 10
0.0
 20
0.0
  9
$PLIMMAX
 10
420.0
 20
297.0
  9
$UNITMODE
 70
     0
  9
$VISRETAIN
 70
     0
  9
$PLINEGEN
 70
     0
  9
$PSLTSCALE
 70
     1
  9
$TREEDEPTH
 70
  3020
  9
$CMLSTYLE
  2
STANDARD
  9
$CMLJUST
 70
     0
  9
$CMLSCALE
 40
1.0
  9
$PROXYGRAPHICS
 70
     1
  9
$MEASUREMENT
 70
     1
  9
$CELWEIGHT
370
    -1
  9
$ENDCAPS
280
     0
  9
$JOINSTYLE
280
     0
  9
$LWDISPLAY
290
     0
  9
$INSUNITS
 70
     0
  9
$HYPERLINKBASE
  1

  9
$STYLESHEET
  1
monochrome.ctb
  9
$XEDIT
290
     1
  9
$CEPSNTYPE
380
     0
  9
$PSTYLEMODE
290
     1
  9
$FINGERPRINTGUID
  2
{8D6CB018-5425-46D7-BA3D-129D74F567FA}
  9
$VERSIONGUID
  2
{1BBA161E-F0E4-46AE-8652-E1D4D531E11E}
  9
$EXTNAMES
290
     1
  9
$PSVPSCALE
 40
0.0
  9
$OLESTARTUP
290
     0
  9
$SORTENTS
280
    96
  9
$INDEXCTL
280
     0
  9
$HIDETEXT
280
     0
  9
$XCLIPFRAME
280
     0
  9
$HALOGAP
280
     0
  9
$OBSCOLOR
 70
   257
  9
$OBSLTYPE
280
     0
  9
$INTERSECTIONDISPLAY
280
     0
  9
$INTERSECTIONCOLOR
 70
   257
  9
$DIMASSOC
280
     1
  9
$PROJECTNAME
  1

  9
$CAMERADISPLAY
290
     0
  9
$LENSLENGTH
 40
50.0
  9
$CAMERAHEIGHT
 40
0.0
  9
$STEPSPERSEC
 40
2.0
  9
$STEPSIZE
 40
6.0
  9
$3DDWFPREC
 40
2.0
  9
$PSOLWIDTH
 40
0.25
  9
$PSOLHEIGHT
 40
4.0
  9
$LOFTANG1
 40
1.570796326794896
  9
$LOFTANG2
 40
1.570796326794896
  9
$LOFTMAG1
 40
0.0
  9
$LOFTMAG2
 40
0.0
  9
$LOFTPARAM
 70
     7
  9
$LOFTNORMALS
280
     1
  9
$LATITUDE
 40
37.795
  9
$LONGITUDE
 40
-122.394
  9
$NORTHDIRECTION
 40
0.0
  9
$TIMEZONE
 70
 -8000
  9
$LIGHTGLYPHDISPLAY
280
     1
  9
$TILEMODELIGHTSYNCH
280
     1
  9
$CMATERIAL
347
46C9
  9
$SOLIDHIST
280
     1
  9
$SHOWHIST
280
     1
  9
$DWFFRAME
280
     2
  9
$DGNFRAME
280
     0
  9
$REALWORLDSCALE
290
     1
  9
$INTERFERECOLOR
 62
     1
  9
$INTERFEREOBJVS
345
46EB
  9
$INTERFEREVPVS
346
46E8
  9
$CSHADOW
280
     0
  9
$SHADOWPLANELOCATION
 40
0.0
  0
ENDSEC
  0
SECTION
  2
CLASSES
  0
CLASS
  1
ACDBDICTIONARYWDFLT
  2
AcDbDictionaryWithDefault
  3
ObjectDBX Classes
 90
        0
 91
        1
280
     0
281
     0
  0
CLASS
  1
DICTIONARYVAR
  2
AcDbDictionaryVar
  3
ObjectDBX Classes
 90
        0
 91
       15
280
     0
281
     0
  0
CLASS
  1
MATERIAL
  2
AcDbMaterial
  3
ObjectDBX Classes
 90
     1153
 91
        3
280
     0
281
     0
  0
CLASS
  1
VISUALSTYLE
  2
AcDbVisualStyle
  3
ObjectDBX Classes
 90
     4095
 91
       24
280
     0
281
     0
  0
CLASS
  1
TABLESTYLE
  2
AcDbTableStyle
  3
ObjectDBX Classes
 90
     4095
 91
        1
280
     0
281
     0
  0
CLASS
  1
SCALE
  2
AcDbScale
  3
ObjectDBX Classes
 90
     1153
 91
       17
280
     0
281
     0
  0
CLASS
  1
MLEADERSTYLE
  2
AcDbMLeaderStyle
  3
ACDB_MLEADERSTYLE_CLASS
 90
     4095
 91
        1
280
     0
281
     0
  0
CLASS
  1
CELLSTYLEMAP
  2
AcDbCellStyleMap
  3
ObjectDBX Classes
 90
     1152
 91
        1
280
     0
281
     0
  0
ENDSEC
  0
SECTION
  2
TABLES
  0
TABLE
  2
VPORT
  5
8
330
0
100
AcDbSymbolTable
 70
     1
  0
VPORT
  5
46C7
330
8
100
AcDbSymbolTableRecord
100
AcDbViewportTableRecord
  2
*Active
 70
     0
 10
0.0
 20
0.0
 11
1.0
 21
1.0
 12
453.1354714505576
 22
254.6595126771834
 13
0.0
 23
0.0
 14
5.0
 24
5.0
 15
0.0
 25
0.0
 16
0.0
 26
0.0
 36
1.0
 17
0.0
 27
0.0
 37
0.0
 40
526.4840438354792
 41
2.017003188097768
 42
50.0
 43
0.0
 44
0.0
 50
0.0
 51
0.0
 71
     0
 72
   100
 73
     1
 74
     0
 75
     0
 76
     0
 77
     0
 78
     0
281
     0
 65
     1
110
0.0
120
0.0
130
0.0
111
1.0
121
0.0
131
0.0
112
0.0
122
1.0
132
0.0
 79
     0
146
0.0
348
46E7
 60
     3
 61
     5
292
     1
282
     1
141
0.0
142
0.0
 63
   250
421
  3355443
  0
ENDTAB
  0
TABLE
  2
LTYPE
  5
5
330
0
100
AcDbSymbolTable
 70
     3
  0
LTYPE
  5
14
330
5
100
AcDbSymbolTableRecord
100
AcDbLinetypeTableRecord
  2
BYBLOCK
 70
     0
  3

 72
    65
 73
     0
 40
0.0
  0
LTYPE
  5
15
330
5
100
AcDbSymbolTableRecord
100
AcDbLinetypeTableRecord
  2
BYLAYER
 70
     0
  3

 72
    65
 73
     0
 40
0.0
  0
LTYPE
  5
16
330
5
100
AcDbSymbolTableRecord
100
AcDbLinetypeTableRecord
  2
CONTINUOUS
 70
     0
  3
Solid line
 72
    65
 73
     0
 40
0.0
  0
LTYPE
  5
135
330
5
100
AcDbSymbolTableRecord
100
AcDbLinetypeTableRecord
  2
CENTER
 70
     0
  3
____ _ ____ _ ____ _ ____ _ ____ _ ____ _ ____ 
 72
    65
 73
     4
 40
2.0
 49
1.25
 74
     0
 49
-0.25
 74
     0
 49
0.25
 74
     0
 49
-0.25
 74
     0
  0
LTYPE
  5
1527
330
5
100
AcDbSymbolTableRecord
100
AcDbLinetypeTableRecord
  2
SLDSECTION0
 70
     0
  3

 72
    65
 73
     4
 40
10.16
 49
6.349999999999999
 74
     0
 49
-1.27
 74
     0
 49
1.27
 74
     0
 49
-1.27
 74
     0
  0
ENDTAB
  0
TABLE
  2
LAYER
  5
2
330
0
100
AcDbSymbolTable
 70
     9
  0
LAYER
  5
F
102
{ACAD_XDICTIONARY
360
4726
102
}
330
2
100
AcDbSymbolTableRecord
100
AcDbLayerTableRecord
  2
0
 70
     0
 62
     7
  6
CONTINUOUS
370
    -3
390
33F
347
46D9
  0
LAYER
  5
62
102
{ACAD_XDICTIONARY
360
4728
102
}
330
2
100
AcDbSymbolTableRecord
100
AcDbLayerTableRecord
  2
VIEWPORT
 70
     0
 62
     7
  6
CONTINUOUS
370
    -3
390
33F
347
46D9
  0
LAYER
  5
65
102
{ACAD_XDICTIONARY
360
472A
102
}
330
2
100
AcDbSymbolTableRecord
100
AcDbLayerTableRecord
  2
ZUWAKU
 70
     0
 62
     7
  6
CONTINUOUS
370
    -3
390
33F
347
46D9
  0
LAYER
  5
153
102
{ACAD_XDICTIONARY
360
472C
102
}
330
2
100
AcDbSymbolTableRecord
100
AcDbLayerTableRecord
  2
SEIHIN
 70
     0
 62
     3
  6
CONTINUOUS
370
    -3
390
33F
347
46D9
  0
LAYER
  5
154
102
{ACAD_XDICTIONARY
360
472E
102
}
330
2
100
AcDbSymbolTableRecord
100
AcDbLayerTableRecord
  2
SUNPOU
 70
     0
 62
     4
  6
CONTINUOUS
370
    -3
390
33F
347
46D9
  0
LAYER
  5
155
102
{ACAD_XDICTIONARY
360
4730
102
}
330
2
100
AcDbSymbolTableRecord
100
AcDbLayerTableRecord
  2
CENTER L
 70
     0
 62
     1
  6
CENTER
370
    -3
390
33F
347
46D9
  0
LAYER
  5
24D
330
2
100
AcDbSymbolTableRecord
100
AcDbLayerTableRecord
  2
DEFPOINTS
 70
     0
 62
     7
  6
CONTINUOUS
290
     0
370
    -3
390
33F
347
46D9
  0
LAYER
  5
59A
102
{ACAD_XDICTIONARY
360
4732
102
}
330
2
100
AcDbSymbolTableRecord
100
AcDbLayerTableRecord
  2
moji
 70
     0
 62
     2
  6
CONTINUOUS
370
    -3
390
33F
347
46D9
  0
LAYER
  5
1528
102
{ACAD_XDICTIONARY
360
4734
102
}
330
2
100
AcDbSymbolTableRecord
100
AcDbLayerTableRecord
  2
NOKITOI
 70
     0
 62
     9
  6
SLDSECTION0
370
    -3
390
33F
347
46D9
  0
ENDTAB
  0
TABLE
  2
STYLE
  5
3
330
0
100
AcDbSymbolTable
 70
     2
  0
STYLE
  5
10
330
3
100
AcDbSymbolTableRecord
100
AcDbTextStyleTableRecord
  2
STANDARD
 70
     0
 40
0.0
 41
1.0
 50
0.0
 71
     0
 42
5.0
  3
TXT
  4
bigfont.shx
  0
STYLE
  5
59B
330
3
100
AcDbSymbolTableRecord
100
AcDbTextStyleTableRecord
  2
ｽﾀｲﾙ1
 70
     0
 40
0.0
 41
1.0
 50
0.0
 71
     0
 42
2.5
  3

  4

1001
ACAD
1000
MS PGothic
1071
    32818
  0
ENDTAB
  0
TABLE
  2
VIEW
  5
6
330
0
100
AcDbSymbolTable
 70
     0
  0
ENDTAB
  0
TABLE
  2
UCS
  5
7
330
0
100
AcDbSymbolTable
 70
     0
  0
ENDTAB
  0
TABLE
  2
APPID
  5
9
330
0
100
AcDbSymbolTable
 70
     1
  0
APPID
  5
11
330
9
100
AcDbSymbolTableRecord
100
AcDbRegAppTableRecord
  2
ACAD
 70
     0
  0
ENDTAB
  0
TABLE
  2
DIMSTYLE
  5
A
330
0
100
AcDbSymbolTable
 70
     1
100
AcDbDimStyleTable
 71
     1
340
1D
  0
DIMSTYLE
105
1D
102
{ACAD_REACTORS
330
3005
330
3006
330
3007
330
300A
330
300E
330
30EB
330
3156
330
3157
330
371F
102
}
330
A
100
AcDbSymbolTableRecord
100
AcDbDimStyleTableRecord
  2
STANDARD
 70
     0
340
10
  0
ENDTAB
  0
TABLE
  2
BLOCK_RECORD
  5
1
330
0
100
AcDbSymbolTable
 70
    13
  0
BLOCK_RECORD
  5
1A
102
{ACAD_XDICTIONARY
360
385
102
}
330
1
100
AcDbSymbolTableRecord
100
AcDbBlockTableRecord
  2
*MODEL_SPACE
340
342
 70
     0
280
     1
281
     0
  0
BLOCK_RECORD
  5
17
102
{ACAD_XDICTIONARY
360
383
102
}
330
1
100
AcDbSymbolTableRecord
100
AcDbBlockTableRecord
  2
*PAPER_SPACE
340
343
 70
     0
280
     1
281
     0
  0
BLOCK_RECORD
  5
6D
330
1
100
AcDbSymbolTableRecord
100
AcDbBlockTableRecord
  2
_OPEN
340
0
102
{BLKREFS
331
32B5
331
32B6
331
329A
331
329B
331
3291
331
3292
331
3288
331
3289
331
32A3
331
32A4
331
32AC
331
32AD
331
327F
331
3280
331
3276
331
3277
331
3A34
331
3A35
331
4720
331
4721
102
}
 70
     0
280
     1
281
     0
  0
BLOCK_RECORD
  5
3A4
330
1
100
AcDbSymbolTableRecord
100
AcDbBlockTableRecord
  2
*X1
340
0
102
{BLKREFS
331
6D8
102
}
 70
     0
280
     1
281
     0
  0
BLOCK_RECORD
  5
317A
330
1
100
AcDbSymbolTableRecord
100
AcDbBlockTableRecord
  2
*D2
340
0
 70
     0
280
     1
281
     0
  0
BLOCK_RECORD
  5
3186
330
1
100
AcDbSymbolTableRecord
100
AcDbBlockTableRecord
  2
*D3
340
0
 70
     0
280
     1
281
     0
  0
BLOCK_RECORD
  5
3192
330
1
100
AcDbSymbolTableRecord
100
AcDbBlockTableRecord
  2
*D4
340
0
 70
     0
280
     1
281
     0
  0
BLOCK_RECORD
  5
319E
330
1
100
AcDbSymbolTableRecord
100
AcDbBlockTableRecord
  2
*D5
340
0
 70
     0
280
     1
281
     0
  0
BLOCK_RECORD
  5
31AA
330
1
100
AcDbSymbolTableRecord
100
AcDbBlockTableRecord
  2
*D6
340
0
 70
     0
280
     1
281
     0
  0
BLOCK_RECORD
  5
31B6
330
1
100
AcDbSymbolTableRecord
100
AcDbBlockTableRecord
  2
*D7
340
0
 70
     0
280
     1
281
     0
  0
BLOCK_RECORD
  5
31C2
330
1
100
AcDbSymbolTableRecord
100
AcDbBlockTableRecord
  2
*D8
340
0
 70
     0
280
     1
281
     0
  0
BLOCK_RECORD
  5
31CE
330
1
100
AcDbSymbolTableRecord
100
AcDbBlockTableRecord
  2
*D9
340
0
 70
     0
280
     1
281
     0
  0
BLOCK_RECORD
  5
3720
330
1
100
AcDbSymbolTableRecord
100
AcDbBlockTableRecord
  2
*D10
340
0
 70
     0
280
     1
281
     0
  0
BLOCK_RECORD
  5
3F67
330
1
100
AcDbSymbolTableRecord
100
AcDbBlockTableRecord
  2
_Dot
340
0
 70
     0
280
     1
281
     0
  0
BLOCK_RECORD
  5
471A
330
1
100
AcDbSymbolTableRecord
100
AcDbBlockTableRecord
  2
*D12
340
0
 70
     0
280
     1
281
     0
  0
ENDTAB
  0
ENDSEC
  0
SECTION
  2
BLOCKS
  0
BLOCK
  5
1B
330
1A
100
AcDbEntity
  8
0
100
AcDbBlockBegin
  2
*MODEL_SPACE
 70
     0
 10
0.0
 20
0.0
 30
0.0
  3
*MODEL_SPACE
  1

  0
ENDBLK
  5
1C
330
1A
100
AcDbEntity
  8
0
100
AcDbBlockEnd
  0
BLOCK
  5
18
330
17
100
AcDbEntity
 67
     1
  8
0
100
AcDbBlockBegin
  2
*PAPER_SPACE
 70
     0
 10
0.0
 20
0.0
 30
0.0
  3
*PAPER_SPACE
  1

  0
ENDBLK
  5
19
330
17
100
AcDbEntity
 67
     1
  8
0
100
AcDbBlockEnd
  0
BLOCK
  5
6E
330
6D
100
AcDbEntity
  8
0
100
AcDbBlockBegin
  2
_OPEN
 70
     0
 10
0.0
 20
0.0
 30
0.0
  3
_OPEN
  1

  0
LINE
  5
6F
330
6D
100
AcDbEntity
  8
0
  6
ByBlock
 62
     0
100
AcDbLine
 10
-1.0
 20
0.1666666666666666
 30
0.0
 11
0.0
 21
0.0
 31
0.0
  0
LINE
  5
70
330
6D
100
AcDbEntity
  8
0
  6
ByBlock
 62
     0
100
AcDbLine
 10
0.0
 20
0.0
 30
0.0
 11
-1.0
 21
-0.1666666666666666
 31
0.0
  0
LINE
  5
71
330
6D
100
AcDbEntity
  8
0
  6
ByBlock
 62
     0
100
AcDbLine
 10
0.0
 20
0.0
 30
0.0
 11
-1.0
 21
0.0
 31
0.0
  0
ENDBLK
  5
72
330
6D
100
AcDbEntity
  8
0
100
AcDbBlockEnd
  0
BLOCK
  5
538
330
3A4
100
AcDbEntity
  8
0
100
AcDbBlockBegin
  2
*X1
 70
     1
 10
0.0
 20
0.0
 30
0.0
  3
*X1
  1

  0
LINE
  5
3A5
330
3A4
100
AcDbEntity
  8
0
 62
     0
100
AcDbLine
 10
66.75047808566091
 20
28.71175535310772
 30
0.0
 11
66.10464715594599
 21
29.3575862828227
 31
0.0
  0
LINE
  5
3A6
330
3A4
100
AcDbEntity
  8
0
 62
     0
100
AcDbLine
 10
66.75047808566091
 20
27.81372974100083
 30
0.0
 11
65.20662154383905
 21
29.3575862828227
 31
0.0
  0
LINE
  5
3A7
330
3A4
100
AcDbEntity
  8
0
 62
     0
100
AcDbLine
 10
66.75047808566086
 20
26.91570412889388
 30
0.0
 11
64.32934413964591
 21
29.33683807490883
 31
0.0
  0
LINE
  5
3A8
330
3A4
100
AcDbEntity
  8
0
 62
     0
100
AcDbLine
 10
66.75047808566091
 20
26.01767851678705
 30
0.0
 11
63.95047808566085
 21
28.81767851678706
 31
0.0
  0
LINE
  5
3A9
330
3A4
100
AcDbEntity
  8
0
 62
     0
100
AcDbLine
 10
66.75047808566091
 20
25.1196529046801
 30
0.0
 11
63.95047808566085
 21
27.91965290468017
 31
0.0
  0
LINE
  5
3AA
330
3A4
100
AcDbEntity
  8
0
 62
     0
100
AcDbLine
 10
66.75047808566086
 20
24.22162729257315
 30
0.0
 11
63.95047808566079
 21
27.02162729257322
 31
0.0
  0
LINE
  5
3AB
330
3A4
100
AcDbEntity
  8
0
 62
     0
100
AcDbLine
 10
61.85047808566082
 20
28.22360168046635
 30
0.0
 11
60.71649348330453
 21
29.3575862828227
 31
0.0
  0
LINE
  5
3AC
330
3A4
100
AcDbEntity
  8
0
 62
     0
100
AcDbLine
 10
66.75047808566091
 20
23.32360168046631
 30
0.0
 11
63.95047808566085
 21
26.12360168046638
 31
0.0
  0
LINE
  5
3AD
330
3A4
100
AcDbEntity
  8
0
 62
     0
100
AcDbLine
 10
61.85047808566082
 20
27.32557606835945
 30
0.0
 11
59.81846787119758
 21
29.35758628282264
 31
0.0
  0
LINE
  5
3AE
330
3A4
100
AcDbEntity
  8
0
 62
     0
100
AcDbLine
 10
66.75047808566086
 20
22.42557606835936
 30
0.0
 11
63.95047808566085
 21
25.22557606835943
 31
0.0
  0
LINE
  5
3AF
330
3A4
100
AcDbEntity
  8
0
 62
     0
100
AcDbLine
 10
61.85047808566082
 20
26.4275504562525
 30
0.0
 11
59.14496712052375
 21
29.13306142138959
 31
0.0
  0
LINE
  5
3B0
330
3A4
100
AcDbEntity
  8
0
 62
     0
100
AcDbLine
 10
66.75047808566086
 20
21.52755045625247
 30
0.0
 11
63.95047808566079
 21
24.32755045625248
 31
0.0
  0
LINE
  5
3B1
330
3A4
100
AcDbEntity
  8
0
 62
     0
100
AcDbLine
 10
61.85047808566094
 20
25.5295248441455
 30
0.0
 11
59.05047808566076
 21
28.32952484414562
 31
0.0
  0
LINE
  5
3B2
330
3A4
100
AcDbEntity
  8
0
 62
     0
100
AcDbLine
 10
66.75047808566091
 20
20.62952484414552
 30
0.0
 11
63.95047808566085
 21
23.42952484414559
 31
0.0
  0
LINE
  5
3B3
330
3A4
100
AcDbEntity
  8
0
 62
     0
100
AcDbLine
 10
61.85047808566088
 20
24.63149923203861
 30
0.0
 11
59.05047808566076
 21
27.43149923203879
 31
0.0
  0
LINE
  5
3B4
330
3A4
100
AcDbEntity
  8
0
 62
     0
100
AcDbLine
 10
66.75047808566086
 20
19.73149923203863
 30
0.0
 11
63.95047808566079
 21
22.5314992320387
 31
0.0
  0
LINE
  5
3B5
330
3A4
100
AcDbEntity
  8
0
 62
     0
100
AcDbLine
 10
61.85047808566088
 20
23.73347361993172
 30
0.0
 11
59.05047808566076
 21
26.53347361993184
 31
0.0
  0
LINE
  5
3B6
330
3A4
100
AcDbEntity
  8
0
 62
     0
100
AcDbLine
 10
66.75047808566086
 20
18.83347361993173
 30
0.0
 11
63.95047808566079
 21
21.63347361993181
 31
0.0
  0
LINE
  5
3B7
330
3A4
100
AcDbEntity
  8
0
 62
     0
100
AcDbLine
 10
61.85047808566082
 20
22.83544800782477
 30
0.0
 11
59.0504780856607
 21
25.63544800782489
 31
0.0
  0
LINE
  5
3B8
330
3A4
100
AcDbEntity
  8
0
 62
     0
100
AcDbLine
 10
66.7504780856608
 20
17.93544800782479
 30
0.0
 11
63.95047808566079
 21
20.73544800782486
 31
0.0
  0
LINE
  5
3B9
330
3A4
100
AcDbEntity
  8
0
 62
     0
100
AcDbLine
 10
61.85047808566088
 20
21.93742239571793
 30
0.0
 11
59.05047808566076
 21
24.73742239571806
 31
0.0
  0
LINE
  5
3BA
330
3A4
100
AcDbEntity
  8
0
 62
     0
100
AcDbLine
 10
55.55047808566081
 20
28.237422395718
 30
0.0
 11
54.43031419855618
 21
29.35758628282264
 31
0.0
  0
LINE
  5
3BB
330
3A4
100
AcDbEntity
  8
0
 62
     0
100
AcDbLine
 10
66.75047808566086
 20
17.03742239571795
 30
0.0
 11
63.95047808566079
 21
19.83742239571796
 31
0.0
  0
LINE
  5
3BC
330
3A4
100
AcDbEntity
  8
0
 62
     0
100
AcDbLine
 10
61.85047808566088
 20
21.03939678361098
 30
0.0
 11
59.0504780856607
 21
23.83939678361111
 31
0.0
  0
LINE
  5
3BD
330
3A4
100
AcDbEntity
  8
0
 62
     0
100
AcDbLine
 10
55.55047808566076
 20
27.33939678361105
 30
0.0
 11
53.53228858644922
 21
29.35758628282264
 31
0.0
  0
LINE
  5
3BE
330
3A4
100
AcDbEntity
  8
0
 62
     0
100
AcDbLine
 10
66.75047808566086
 20
16.139396783611
 30
0.0
 11
63.95047808566079
 21
18.93939678361107
 31
0.0
  0
LINE
  5
3BF
330
3A4
100
AcDbEntity
  8
0
 62
     0
100
AcDbLine
 10
61.85047808566082
 20
20.14137117150409
 30
0.0
 11
59.05047808566076
 21
22.9413711715041
 31
0.0
  0
LINE
  5
3C0
330
3A4
100
AcDbEntity
  8
0
 62
     0
100
AcDbLine
 10
55.55047808566076
 20
26.44137117150416
 30
0.0
 11
52.85071536233676
 21
29.14113389482816
 31
0.0
  0
LINE
  5
3C1
330
3A4
100
AcDbEntity
  8
0
 62
     0
100
AcDbLine
 10
66.7504780856608
 20
15.24137117150411
 30
0.0
 11
63.95047808566073
 21
18.04137117150412
 31
0.0
  0
LINE
  5
3C2
330
3A4
100
AcDbEntity
  8
0
 62
     0
100
AcDbLine
 10
61.85047808566088
 20
19.24334555939714
 30
0.0
 11
59.05047808566081
 21
22.04334555939721
 31
0.0
  0
LINE
  5
3C3
330
3A4
100
AcDbEntity
  8
0
 62
     0
100
AcDbLine
 10
55.55047808566081
 20
25.54334555939721
 30
0.0
 11
52.7504780856608
 21
28.34334555939722
 31
0.0
  0
LINE
  5
3C4
330
3A4
100
AcDbEntity
  8
0
 62
     0
100
AcDbLine
 10
66.75047808566086
 20
14.34334555939716
 30
0.0
 11
63.95047808566079
 21
17.14334555939723
 31
0.0
  0
LINE
  5
3C5
330
3A4
100
AcDbEntity
  8
0
 62
     0
100
AcDbLine
 10
61.85047808566082
 20
18.34531994729025
 30
0.0
 11
59.05047808566081
 21
21.14531994729032
 31
0.0
  0
LINE
  5
3C6
330
3A4
100
AcDbEntity
  8
0
 62
     0
100
AcDbLine
 10
55.55047808566087
 20
24.64531994729026
 30
0.0
 11
52.7504780856608
 21
27.44531994729033
 31
0.0
  0
LINE
  5
3C7
330
3A4
100
AcDbEntity
  8
0
 62
     0
100
AcDbLine
 10
66.67851273077104
 20
13.51728530218008
 30
0.0
 11
63.95047808566079
 21
16.24531994729034
 31
0.0
  0
LINE
  5
3C8
330
3A4
100
AcDbEntity
  8
0
 62
     0
100
AcDbLine
 10
61.85047808566088
 20
17.44729433518324
 30
0.0
 11
59.05047808566076
 21
20.24729433518337
 31
0.0
  0
LINE
  5
3C9
330
3A4
100
AcDbEntity
  8
0
 62
     0
100
AcDbLine
 10
55.55047808566081
 20
23.74729433518337
 30
0.0
 11
52.75047808566075
 21
26.54729433518338
 31
0.0
  0
LINE
  5
3CA
330
3A4
100
AcDbEntity
  8
0
 62
     0
100
AcDbLine
 10
66.04018613802157
 20
13.25758628282261
 30
0.0
 11
63.95047808566073
 21
15.34729433518345
 31
0.0
  0
LINE
  5
3CB
330
3A4
100
AcDbEntity
  8
0
 62
     0
100
AcDbLine
 10
55.55047808566081
 20
22.84926872307642
 30
0.0
 11
52.75047808566075
 21
25.64926872307649
 31
0.0
  0
LINE
  5
3CC
330
3A4
100
AcDbEntity
  8
0
 62
     0
100
AcDbLine
 10
61.85047808566088
 20
16.54926872307635
 30
0.0
 11
59.05047808566076
 21
19.34926872307648
 31
0.0
  0
LINE
  5
3CD
330
3A4
100
AcDbEntity
  8
0
 62
     0
100
AcDbLine
 10
50.1254780856608
 20
28.27426872307643
 30
0.0
 11
49.04216052591465
 21
29.35758628282253
 31
0.0
  0
LINE
  5
3CE
330
3A4
100
AcDbEntity
  8
0
 62
     0
100
AcDbLine
 10
65.14216052591468
 20
13.2575862828225
 30
0.0
 11
63.95047808566073
 21
14.4492687230765
 31
0.0
  0
LINE
  5
3CF
330
3A4
100
AcDbEntity
  8
0
 62
     0
100
AcDbLine
 10
55.55047808566081
 20
21.95124311096953
 30
0.0
 11
52.75047808566085
 21
24.75124311096954
 31
0.0
  0
LINE
  5
3D0
330
3A4
100
AcDbEntity
  8
0
 62
     0
100
AcDbLine
 10
50.1254780856608
 20
27.37624311096954
 30
0.0
 11
48.14413491380782
 21
29.35758628282258
 31
0.0
  0
LINE
  5
3D1
330
3A4
100
AcDbEntity
  8
0
 62
     0
100
AcDbLine
 10
61.82451978501529
 20
15.6772014116151
 30
0.0
 11
59.05047808566076
 21
18.45124311096958
 31
0.0
  0
LINE
  5
3D2
330
3A4
100
AcDbEntity
  8
0
 62
     0
100
AcDbLine
 10
55.55047808566081
 20
21.05321749886264
 30
0.0
 11
52.75047808566085
 21
23.85321749886259
 31
0.0
  0
LINE
  5
3D3
330
3A4
100
AcDbEntity
  8
0
 62
     0
100
AcDbLine
 10
49.92989753954697
 20
26.67379804497648
 30
0.0
 11
47.24610930170081
 21
29.35758628282264
 31
0.0
  0
LINE
  5
3D4
330
3A4
100
AcDbEntity
  8
0
 62
     0
100
AcDbLine
 10
61.63153448975805
 20
14.97216109476534
 30
0.0
 11
59.05047808566076
 21
17.55321749886269
 31
0.0
  0
LINE
  5
3D5
330
3A4
100
AcDbEntity
  8
0
 62
     0
100
AcDbLine
 10
55.55047808566081
 20
20.15519188675569
 30
0.0
 11
52.7504780856608
 21
22.9551918867557
 31
0.0
  0
LINE
  5
3D6
330
3A4
100
AcDbEntity
  8
0
 62
     0
100
AcDbLine
 10
49.14808368959382
 20
26.55758628282263
 30
0.0
 11
46.34808368959392
 21
29.35758628282253
 31
0.0
  0
LINE
  5
3D7
330
3A4
100
AcDbEntity
  8
0
 62
     0
100
AcDbLine
 10
61.30650261383448
 20
14.39916735858196
 30
0.0
 11
58.97896234650125
 21
16.72670762591525
 31
0.0
  0
LINE
  5
3D8
330
3A4
100
AcDbEntity
  8
0
 62
     0
100
AcDbLine
 10
55.55047808566081
 20
19.25716627464885
 30
0.0
 11
52.75047808566085
 21
22.05716627464881
 31
0.0
  0
LINE
  5
3D9
330
3A4
100
AcDbEntity
  8
0
 62
     0
100
AcDbLine
 10
48.25005807748704
 20
26.55758628282257
 30
0.0
 11
45.5124913483096
 21
29.29515301200007
 31
0.0
  0
LINE
  5
3DA
330
3A4
100
AcDbEntity
  8
0
 62
     0
100
AcDbLine
 10
60.87446081650944
 20
13.93318354380017
 30
0.0
 11
58.57737670803373
 21
16.23026765227587
 31
0.0
  0
LINE
  5
3DB
330
3A4
100
AcDbEntity
  8
0
 62
     0
100
AcDbLine
 10
55.55047808566081
 20
18.3591406625419
 30
0.0
 11
52.7504780856608
 21
21.15914066254186
 31
0.0
  0
LINE
  5
3DC
330
3A4
100
AcDbEntity
  8
0
 62
     0
100
AcDbLine
 10
47.35203246538015
 20
26.55758628282257
 30
0.0
 11
44.8478509237762
 21
29.06176782442646
 31
0.0
  0
LINE
  5
3DD
330
3A4
100
AcDbEntity
  8
0
 62
     0
100
AcDbLine
 10
60.33829847158341
 20
13.5713202766193
 30
0.0
 11
57.85203246538014
 21
16.05758628282257
 31
0.0
  0
LINE
  5
3DE
330
3A4
100
AcDbEntity
  8
0
 62
     0
100
AcDbLine
 10
55.55047808566076
 20
17.46111505043495
 30
0.0
 11
52.7504780856608
 21
20.26111505043497
 31
0.0
  0
LINE
  5
3DF
330
3A4
100
AcDbEntity
  8
0
 62
     0
100
AcDbLine
 10
46.47579668129123
 20
26.53579645480448
 30
0.0
 11
44.30524998656602
 21
28.70634314952969
 31
0.0
  0
LINE
  5
3E0
330
3A4
100
AcDbEntity
  8
0
 62
     0
100
AcDbLine
 10
59.68188591167211
 20
13.32970722442366
 30
0.0
 11
56.95400685327314
 21
16.05758628282262
 31
0.0
  0
LINE
  5
3E1
330
3A4
100
AcDbEntity
  8
0
 62
     0
100
AcDbLine
 10
46.10047808566088
 20
26.01308943832788
 30
0.0
 11
43.86713792752146
 21
28.24642959646729
 31
0.0
  0
LINE
  5
3E2
330
3A4
100
AcDbEntity
  8
0
 62
     0
100
AcDbLine
 10
58.85598124116626
 20
13.25758628282256
 30
0.0
 11
52.7504780856608
 21
19.36308943832802
 31
0.0
  0
LINE
  5
3E3
330
3A4
100
AcDbEntity
  8
0
 62
     0
100
AcDbLine
 10
46.10047808566088
 20
25.11506382622111
 30
0.0
 11
43.53536701516844
 21
27.68017489671354
 31
0.0
  0
LINE
  5
3E4
330
3A4
100
AcDbEntity
  8
0
 62
     0
100
AcDbLine
 10
57.95795562905937
 20
13.25758628282256
 30
0.0
 11
52.7504780856608
 21
18.46506382622118
 31
0.0
  0
LINE
  5
3E5
330
3A4
100
AcDbEntity
  8
0
 62
     0
100
AcDbLine
 10
46.30702236676467
 20
24.01049393301037
 30
0.0
 11
43.33318849580433
 21
26.98432780397065
 31
0.0
  0
LINE
  5
3E6
330
3A4
100
AcDbEntity
  8
0
 62
     0
100
AcDbLine
 10
57.05993001695247
 20
13.25758628282256
 30
0.0
 11
52.7504780856608
 21
17.56703821411423
 31
0.0
  0
LINE
  5
3E7
330
3A4
100
AcDbEntity
  8
0
 62
     0
100
AcDbLine
 10
50.52408178835225
 20
18.89540889931584
 30
0.0
 11
43.30047808566075
 21
26.11901260200733
 31
0.0
  0
LINE
  5
3E8
330
3A4
100
AcDbEntity
  8
0
 62
     0
100
AcDbLine
 10
41.20047808566073
 20
28.2190126020073
 30
0.0
 11
40.06190440484544
 21
29.35758628282264
 31
0.0
  0
LINE
  5
3E9
330
3A4
100
AcDbEntity
  8
0
 62
     0
100
AcDbLine
 10
56.16190440484553
 20
13.25758628282256
 30
0.0
 11
52.75047808566075
 21
16.66901260200728
 31
0.0
  0
LINE
  5
3EA
330
3A4
100
AcDbEntity
  8
0
 62
     0
100
AcDbLine
 10
50.65047808566089
 20
17.87098698990036
 30
0.0
 11
43.30047808566081
 21
25.22098698990044
 31
0.0
  0
LINE
  5
3EB
330
3A4
100
AcDbEntity
  8
0
 62
     0
100
AcDbLine
 10
41.20047808566084
 20
27.32098698990035
 30
0.0
 11
39.16387879273856
 21
29.3575862828227
 31
0.0
  0
LINE
  5
3EC
330
3A4
100
AcDbEntity
  8
0
 62
     0
100
AcDbLine
 10
55.24743091399376
 20
13.2740341615675
 30
0.0
 11
52.76692596440574
 21
15.75453911115551
 31
0.0
  0
LINE
  5
3ED
330
3A4
100
AcDbEntity
  8
0
 62
     0
100
AcDbLine
 10
41.20047808566084
 20
26.42296137779346
 30
0.0
 11
38.49308819788553
 21
29.13035126556872
 31
0.0
  0
LINE
  5
3EE
330
3A4
100
AcDbEntity
  8
0
 62
     0
100
AcDbLine
 10
50.65047808566084
 20
16.97296137779341
 30
0.0
 11
43.3238887535432
 21
24.2995507099111
 31
0.0
  0
LINE
  5
3EF
330
3A4
100
AcDbEntity
  8
0
 62
     0
100
AcDbLine
 10
41.20047808566084
 20
25.52493576568651
 30
0.0
 11
38.40047808566078
 21
28.32493576568658
 31
0.0
  0
LINE
  5
3F0
330
3A4
100
AcDbEntity
  8
0
 62
     0
100
AcDbLine
 10
50.65047808566072
 20
16.07493576568657
 30
0.0
 11
43.64200817138322
 21
23.08340567996413
 31
0.0
  0
LINE
  5
3F1
330
3A4
100
AcDbEntity
  8
0
 62
     0
100
AcDbLine
 10
41.20047808566084
 20
24.62691015357961
 30
0.0
 11
38.40047808566078
 21
27.42691015357963
 31
0.0
  0
LINE
  5
3F2
330
3A4
100
AcDbEntity
  8
0
 62
     0
100
AcDbLine
 10
50.54191626807176
 20
15.2854719711687
 30
0.0
 11
47.84628147903345
 21
17.98110676020701
 31
0.0
  0
LINE
  5
3F3
330
3A4
100
AcDbEntity
  8
0
 62
     0
100
AcDbLine
 10
41.20047808566084
 20
23.72888454147272
 30
0.0
 11
38.40047808566078
 21
26.52888454147279
 31
0.0
  0
LINE
  5
3F4
330
3A4
100
AcDbEntity
  8
0
 62
     0
100
AcDbLine
 10
36.10899118508382
 20
28.82037144204969
 30
0.0
 11
35.57177634431094
 21
29.35758628282264
 31
0.0
  0
LINE
  5
3F5
330
3A4
100
AcDbEntity
  8
0
 62
     0
100
AcDbLine
 10
50.2740405603102
 20
14.65532206682337
 30
0.0
 11
47.85047808566088
 21
17.07888454147269
 31
0.0
  0
LINE
  5
3F6
330
3A4
100
AcDbEntity
  8
0
 62
     0
100
AcDbLine
 10
41.20047808566079
 20
22.83085892936577
 30
0.0
 11
38.40047808566078
 21
25.63085892936584
 31
0.0
  0
LINE
  5
3F7
330
3A4
100
AcDbEntity
  8
0
 62
     0
100
AcDbLine
 10
35.91006352083122
 20
28.12127349419535
 30
0.0
 11
34.67375073220399
 21
29.35758628282264
 31
0.0
  0
LINE
  5
3F8
330
3A4
100
AcDbEntity
  8
0
 62
     0
100
AcDbLine
 10
49.8910537621349
 20
14.14028325289172
 30
0.0
 11
47.75319290277439
 21
16.27814411225222
 31
0.0
  0
LINE
  5
3F9
330
3A4
100
AcDbEntity
  8
0
 62
     0
100
AcDbLine
 10
41.20047808566079
 20
21.93283331725888
 30
0.0
 11
38.40047808566072
 21
24.7328333172589
 31
0.0
  0
LINE
  5
3FA
330
3A4
100
AcDbEntity
  8
0
 62
     0
100
AcDbLine
 10
35.69453737392553
 20
27.43877402899409
 30
0.0
 11
33.78532181045495
 21
29.34798959246473
 31
0.0
  0
LINE
  5
3FB
330
3A4
100
AcDbEntity
  8
0
 62
     0
100
AcDbLine
 10
49.40473479701927
 20
13.72857660590034
 30
0.0
 11
47.07572512009704
 21
16.05758628282262
 31
0.0
  0
LINE
  5
3FC
330
3A4
100
AcDbEntity
  8
0
 62
     0
100
AcDbLine
 10
41.20047808566084
 20
21.03480770515199
 30
0.0
 11
38.40047808566078
 21
23.83480770515206
 31
0.0
  0
LINE
  5
3FD
330
3A4
100
AcDbEntity
  8
0
 62
     0
100
AcDbLine
 10
35.47901122702001
 20
26.75627456379283
 30
0.0
 11
33.35101122701997
 21
28.88427456379287
 31
0.0
  0
LINE
  5
3FE
330
3A4
100
AcDbEntity
  8
0
 62
     0
100
AcDbLine
 10
48.8086508485589
 20
13.42663494225388
 30
0.0
 11
46.17769950799015
 21
16.05758628282268
 31
0.0
  0
LINE
  5
3FF
330
3A4
100
AcDbEntity
  8
0
 62
     0
100
AcDbLine
 10
41.20047808566079
 20
20.1367820930451
 30
0.0
 11
38.40047808566072
 21
22.93678209304511
 31
0.0
  0
LINE
  5
400
330
3A4
100
AcDbEntity
  8
0
 62
     0
100
AcDbLine
 10
35.26348508011415
 20
26.07377509859174
 30
0.0
 11
33.13548508011417
 21
28.20177509859173
 31
0.0
  0
LINE
  5
401
330
3A4
100
AcDbEntity
  8
0
 62
     0
100
AcDbLine
 10
48.07097819691143
 20
13.26628198179446
 30
0.0
 11
45.27967389588326
 21
16.05758628282262
 31
0.0
  0
LINE
  5
402
330
3A4
100
AcDbEntity
  8
0
 62
     0
100
AcDbLine
 10
41.20047808566079
 20
19.23875648093815
 30
0.0
 11
38.40047808566078
 21
22.03875648093811
 31
0.0
  0
LINE
  5
403
330
3A4
100
AcDbEntity
  8
0
 62
     0
100
AcDbLine
 10
35.04795893320858
 20
25.39127563339036
 30
0.0
 11
32.91995893320848
 21
27.51927563339041
 31
0.0
  0
LINE
  5
404
330
3A4
100
AcDbEntity
  8
0
 62
     0
100
AcDbLine
 10
47.18164828377638
 20
13.25758628282256
 30
0.0
 11
44.38164828377631
 21
16.05758628282262
 31
0.0
  0
LINE
  5
405
330
3A4
100
AcDbEntity
  8
0
 62
     0
100
AcDbLine
 10
41.20047808566079
 20
18.34073086883126
 30
0.0
 11
38.40047808566083
 21
21.14073086883127
 31
0.0
  0
LINE
  5
406
330
3A4
100
AcDbEntity
  8
0
 62
     0
100
AcDbLine
 10
34.83243278630295
 20
24.70877616818916
 30
0.0
 11
32.70443278630285
 21
26.83677616818921
 31
0.0
  0
LINE
  5
407
330
3A4
100
AcDbEntity
  8
0
 62
     0
100
AcDbLine
 10
46.28362267166949
 20
13.25758628282261
 30
0.0
 11
43.8500109743731
 21
15.691197980119
 31
0.0
  0
LINE
  5
408
330
3A4
100
AcDbEntity
  8
0
 62
     0
100
AcDbLine
 10
34.61690663939732
 20
24.02627670298779
 30
0.0
 11
32.48890663939722
 21
26.15427670298795
 31
0.0
  0
LINE
  5
409
330
3A4
100
AcDbEntity
  8
0
 62
     0
100
AcDbLine
 10
41.20047808566079
 20
17.44270525672436
 30
0.0
 11
38.40047808566083
 21
20.24270525672432
 31
0.0
  0
LINE
  5
40A
330
3A4
100
AcDbEntity
  8
0
 62
     0
100
AcDbLine
 10
30.35047808566083
 20
28.29270525672433
 30
0.0
 11
29.28559705956252
 21
29.35758628282258
 31
0.0
  0
LINE
  5
40B
330
3A4
100
AcDbEntity
  8
0
 62
     0
100
AcDbLine
 10
45.38559705956259
 20
13.25758628282256
 30
0.0
 11
43.82547808566084
 21
14.81770525672431
 31
0.0
  0
LINE
  5
40C
330
3A4
100
AcDbEntity
  8
0
 62
     0
100
AcDbLine
 10
34.40138049249152
 20
23.3437772377867
 30
0.0
 11
32.27338049249159
 21
25.47177723778663
 31
0.0
  0
LINE
  5
40D
330
3A4
100
AcDbEntity
  8
0
 62
     0
100
AcDbLine
 10
41.20047808566079
 20
16.54467964461742
 30
0.0
 11
38.40047808566078
 21
19.34467964461743
 31
0.0
  0
LINE
  5
40E
330
3A4
100
AcDbEntity
  8
0
 62
     0
100
AcDbLine
 10
30.35047808566083
 20
27.39467964461738
 30
0.0
 11
28.38757144745563
 21
29.35758628282258
 31
0.0
  0
LINE
  5
40F
330
3A4
100
AcDbEntity
  8
0
 62
     0
100
AcDbLine
 10
44.48757144745559
 20
13.25758628282261
 30
0.0
 11
43.82547808566079
 21
13.91967964461736
 31
0.0
  0
LINE
  5
410
330
3A4
100
AcDbEntity
  8
0
 62
     0
100
AcDbLine
 10
34.18585434558588
 20
22.66127777258538
 30
0.0
 11
32.05785434558584
 21
24.78927777258542
 31
0.0
  0
LINE
  5
411
330
3A4
100
AcDbEntity
  8
0
 62
     0
100
AcDbLine
 10
30.35047808566077
 20
26.49665403251044
 30
0.0
 11
27.67503315676317
 21
29.1720989614081
 31
0.0
  0
LINE
  5
412
330
3A4
100
AcDbEntity
  8
0
 62
     0
100
AcDbLine
 10
41.20047808566073
 20
15.64665403251052
 30
0.0
 11
38.40047808566078
 21
18.44665403251048
 31
0.0
  0
LINE
  5
413
330
3A4
100
AcDbEntity
  8
0
 62
     0
100
AcDbLine
 10
33.97032819868025
 20
21.97877830738418
 30
0.0
 11
31.84232819868026
 21
24.10677830738416
 31
0.0
  0
LINE
  5
414
330
3A4
100
AcDbEntity
  8
0
 62
     0
100
AcDbLine
 10
30.35047808566083
 20
25.5986284204036
 30
0.0
 11
27.55047808566076
 21
28.39862842040361
 31
0.0
  0
LINE
  5
415
330
3A4
100
AcDbEntity
  8
0
 62
     0
100
AcDbLine
 10
41.20047808566079
 20
14.74862842040363
 30
0.0
 11
38.40047808566078
 21
17.54862842040359
 31
0.0
  0
LINE
  5
416
330
3A4
100
AcDbEntity
  8
0
 62
     0
100
AcDbLine
 10
33.7652396892882
 20
21.28584120466928
 30
0.0
 11
31.62680205177452
 21
23.42427884218296
 31
0.0
  0
LINE
  5
417
330
3A4
100
AcDbEntity
  8
0
 62
     0
100
AcDbLine
 10
30.35047808566083
 20
24.70060280829665
 30
0.0
 11
27.55047808566076
 21
27.50060280829672
 31
0.0
  0
LINE
  5
418
330
3A4
100
AcDbEntity
  8
0
 62
     0
100
AcDbLine
 10
41.20047808566073
 20
13.85060280829668
 30
0.0
 11
38.40047808566078
 21
16.65060280829669
 31
0.0
  0
LINE
  5
419
330
3A4
100
AcDbEntity
  8
0
 62
     0
100
AcDbLine
 10
34.1797130487222
 20
19.97334223312833
 30
0.0
 11
31.3362545560899
 21
22.81680072576063
 31
0.0
  0
LINE
  5
41A
330
3A4
100
AcDbEntity
  8
0
 62
     0
100
AcDbLine
 10
30.35047808566088
 20
23.80257719618965
 30
0.0
 11
27.5504780856607
 21
26.60257719618977
 31
0.0
  0
LINE
  5
41B
330
3A4
100
AcDbEntity
  8
0
 62
     0
100
AcDbLine
 10
40.8614330883284
 20
13.29162219352207
 30
0.0
 11
38.40047808566078
 21
15.75257719618974
 31
0.0
  0
LINE
  5
41C
330
3A4
100
AcDbEntity
  8
0
 62
     0
100
AcDbLine
 10
34.59418640815619
 20
18.6608432615875
 30
0.0
 11
27.55047808566076
 21
25.70455158408293
 31
0.0
  0
LINE
  5
41D
330
3A4
100
AcDbEntity
  8
0
 62
     0
100
AcDbLine
 10
25.10047808566088
 20
28.15455158408281
 30
0.0
 11
23.89744338692111
 21
29.35758628282258
 31
0.0
  0
LINE
  5
41E
330
3A4
100
AcDbEntity
  8
0
 62
     0
100
AcDbLine
 10
39.99744338692114
 20
13.25758628282256
 30
0.0
 11
38.40047808566089
 21
14.8545515840828
 31
0.0
  0
LINE
  5
41F
330
3A4
100
AcDbEntity
  8
0
 62
     0
100
AcDbLine
 10
35.00865976759025
 20
17.34834429004649
 30
0.0
 11
27.55047808566076
 21
24.80652597197599
 31
0.0
  0
LINE
  5
420
330
3A4
100
AcDbEntity
  8
0
 62
     0
100
AcDbLine
 10
25.10047808566088
 20
27.25652597197586
 30
0.0
 11
22.99941777481411
 21
29.35758628282264
 31
0.0
  0
LINE
  5
421
330
3A4
100
AcDbEntity
  8
0
 62
     0
100
AcDbLine
 10
39.09941777481419
 20
13.2575862828225
 30
0.0
 11
38.40047808566083
 21
13.95652597197591
 31
0.0
  0
LINE
  5
422
330
3A4
100
AcDbEntity
  8
0
 62
     0
100
AcDbLine
 10
24.83357139027078
 20
26.62540705525902
 30
0.0
 11
22.13334967205935
 21
29.32562877347038
 31
0.0
  0
LINE
  5
423
330
3A4
100
AcDbEntity
  8
0
 62
     0
100
AcDbLine
 10
35.42313312702419
 20
16.03584531850561
 30
0.0
 11
27.55047808566081
 21
23.90850035986898
 31
0.0
  0
LINE
  5
424
330
3A4
100
AcDbEntity
  8
0
 62
     0
100
AcDbLine
 10
30.68798700800244
 20
19.87296582542046
 30
0.0
 11
27.55047808566081
 21
23.01047474776209
 31
0.0
  0
LINE
  5
425
330
3A4
100
AcDbEntity
  8
0
 62
     0
100
AcDbLine
 10
24.00336655060034
 20
26.55758628282252
 30
0.0
 11
21.39530660247209
 21
29.16564623095081
 31
0.0
  0
LINE
  5
426
330
3A4
100
AcDbEntity
  8
0
 62
     0
100
AcDbLine
 10
35.83760648645824
 20
14.72334634696466
 30
0.0
 11
31.74529879415013
 21
18.81565403927277
 31
0.0
  0
LINE
  5
427
330
3A4
100
AcDbEntity
  8
0
 62
     0
100
AcDbLine
 10
30.35047808566088
 20
19.31244913565513
 30
0.0
 11
27.55047808566081
 21
22.1124491356552
 31
0.0
  0
LINE
  5
428
330
3A4
100
AcDbEntity
  8
0
 62
     0
100
AcDbLine
 10
23.10534093849333
 20
26.55758628282263
 30
0.0
 11
20.75658518664136
 21
28.9063420346746
 31
0.0
  0
LINE
  5
429
330
3A4
100
AcDbEntity
  8
0
 62
     0
100
AcDbLine
 10
36.07264534416885
 20
13.59028187714711
 30
0.0
 11
32.15977215358407
 21
17.50315506773194
 31
0.0
  0
LINE
  5
42A
330
3A4
100
AcDbEntity
  8
0
 62
     0
100
AcDbLine
 10
30.35047808566083
 20
18.41442352354824
 30
0.0
 11
27.55047808566076
 21
21.21442352354825
 31
0.0
  0
LINE
  5
42B
330
3A4
100
AcDbEntity
  8
0
 62
     0
100
AcDbLine
 10
22.2622274359498
 20
26.50267417325927
 30
0.0
 11
20.19783621130682
 21
28.56706539790224
 31
0.0
  0
LINE
  5
42C
330
3A4
100
AcDbEntity
  8
0
 62
     0
100
AcDbLine
 10
35.5073153263865
 20
13.25758628282256
 30
0.0
 11
32.57424551301813
 21
16.19065609619088
 31
0.0
  0
LINE
  5
42D
330
3A4
100
AcDbEntity
  8
0
 62
     0
100
AcDbLine
 10
30.35047808566083
 20
17.51639791144128
 30
0.0
 11
27.55047808566076
 21
20.31639791144136
 31
0.0
  0
LINE
  5
42E
330
3A4
100
AcDbEntity
  8
0
 62
     0
100
AcDbLine
 10
21.6903712431108
 20
26.17650475399131
 30
0.0
 11
19.71018100269503
 21
28.15669499440708
 31
0.0
  0
LINE
  5
42F
330
3A4
100
AcDbEntity
  8
0
 62
     0
100
AcDbLine
 10
34.60928971427956
 20
13.25758628282256
 30
0.0
 11
32.98871887245207
 21
14.87815712465004
 31
0.0
  0
LINE
  5
430
330
3A4
100
AcDbEntity
  8
0
 62
     0
100
AcDbLine
 10
25.43590721845857
 20
21.53294316653671
 30
0.0
 11
23.92583496937482
 21
23.04301541562046
 31
0.0
  0
LINE
  5
431
330
3A4
100
AcDbEntity
  8
0
 62
     0
100
AcDbLine
 10
30.35047808566094
 20
16.61837229933434
 30
0.0
 11
27.55047808566081
 21
19.41837229933446
 31
0.0
  0
LINE
  5
432
330
3A4
100
AcDbEntity
  8
0
 62
     0
100
AcDbLine
 10
21.33424967298186
 20
25.63460071201343
 30
0.0
 11
19.2908149766838
 21
27.67803540831148
 31
0.0
  0
LINE
  5
433
330
3A4
100
AcDbEntity
  8
0
 62
     0
100
AcDbLine
 10
33.66093109796805
 20
13.30791928702723
 30
0.0
 11
33.41057692637674
 21
13.55827345861854
 31
0.0
  0
LINE
  5
434
330
3A4
100
AcDbEntity
  8
0
 62
     0
100
AcDbLine
 10
25.34939355831665
 20
20.72143121457168
 30
0.0
 11
23.11432301740979
 21
22.95650175547854
 31
0.0
  0
LINE
  5
435
330
3A4
100
AcDbEntity
  8
0
 62
     0
100
AcDbLine
 10
21.25047808566092
 20
24.82034668722742
 30
0.0
 11
18.94187595572214
 21
27.12894881716619
 31
0.0
  0
LINE
  5
436
330
3A4
100
AcDbEntity
  8
0
 62
     0
100
AcDbLine
 10
30.35047808566088
 20
15.72034668722739
 30
0.0
 11
27.55047808566076
 21
18.52034668722757
 31
0.0
  0
LINE
  5
437
330
3A4
100
AcDbEntity
  8
0
 62
     0
100
AcDbLine
 10
25.0175379990186
 20
20.15526116176272
 30
0.0
 11
22.54815296460083
 21
22.62464619618049
 31
0.0
  0
LINE
  5
438
330
3A4
100
AcDbEntity
  8
0
 62
     0
100
AcDbLine
 10
21.25047808566092
 20
23.92232107512047
 30
0.0
 11
18.67129624851196
 21
26.50150291226942
 31
0.0
  0
LINE
  5
439
330
3A4
100
AcDbEntity
  8
0
 62
     0
100
AcDbLine
 10
30.35047808566088
 20
14.8223210751205
 30
0.0
 11
27.55047808566081
 21
17.62232107512057
 31
0.0
  0
LINE
  5
43A
330
3A4
100
AcDbEntity
  8
0
 62
     0
100
AcDbLine
 10
21.25047808566092
 20
23.02429546301357
 30
0.0
 11
18.49658237558611
 21
25.77819117308843
 31
0.0
  0
LINE
  5
43B
330
3A4
100
AcDbEntity
  8
0
 62
     0
100
AcDbLine
 10
24.51570455688216
 20
19.75906899179239
 30
0.0
 11
22.1519607946305
 21
22.12281275404405
 31
0.0
  0
LINE
  5
43C
330
3A4
100
AcDbEntity
  8
0
 62
     0
100
AcDbLine
 10
15.82547808566073
 20
28.44929546301376
 30
0.0
 11
14.91718726585185
 21
29.3575862828227
 31
0.0
  0
LINE
  5
43D
330
3A4
100
AcDbEntity
  8
0
 62
     0
100
AcDbLine
 10
30.35047808566094
 20
13.9242954630136
 30
0.0
 11
27.55047808566087
 21
16.72429546301367
 31
0.0
  0
LINE
  5
43E
330
3A4
100
AcDbEntity
  8
0
 62
     0
100
AcDbLine
 10
21.25047808566092
 20
22.12626985090668
 30
0.0
 11
18.45047808566085
 21
24.92626985090675
 31
0.0
  0
LINE
  5
43F
330
3A4
100
AcDbEntity
  8
0
 62
     0
100
AcDbLine
 10
23.81538511445473
 20
19.56136282211287
 30
0.0
 11
21.95425462495098
 21
21.42249331161662
 31
0.0
  0
LINE
  5
440
330
3A4
100
AcDbEntity
  8
0
 62
     0
100
AcDbLine
 10
15.82547808566073
 20
27.55126985090686
 30
0.0
 11
14.0191616537449
 21
29.35758628282264
 31
0.0
  0
LINE
  5
441
330
3A4
100
AcDbEntity
  8
0
 62
     0
100
AcDbLine
 10
30.06257428439023
 20
13.31417365217737
 30
0.0
 11
27.55047808566081
 21
15.82626985090672
 31
0.0
  0
LINE
  5
442
330
3A4
100
AcDbEntity
  8
0
 62
     0
100
AcDbLine
 10
21.25047808566092
 20
21.22824423879973
 30
0.0
 11
18.45047808566085
 21
24.0282442387998
 31
0.0
  0
LINE
  5
443
330
3A4
100
AcDbEntity
  8
0
 62
     0
100
AcDbLine
 10
15.71644411539046
 20
26.76227820907019
 30
0.0
 11
13.12113604163789
 21
29.3575862828227
 31
0.0
  0
LINE
  5
444
330
3A4
100
AcDbEntity
  8
0
 62
     0
100
AcDbLine
 10
29.22113604163809
 20
13.2575862828225
 30
0.0
 11
27.55047808566081
 21
14.92824423879983
 31
0.0
  0
LINE
  5
445
330
3A4
100
AcDbEntity
  8
0
 62
     0
100
AcDbLine
 10
21.25047808566086
 20
20.33021862669284
 30
0.0
 11
18.45047808566079
 21
23.13021862669285
 31
0.0
  0
LINE
  5
446
330
3A4
100
AcDbEntity
  8
0
 62
     0
100
AcDbLine
 10
15.02311042953113
 20
26.55758628282257
 30
0.0
 11
12.223110429531
 21
29.3575862828227
 31
0.0
  0
LINE
  5
447
330
3A4
100
AcDbEntity
  8
0
 62
     0
100
AcDbLine
 10
28.32311042953108
 20
13.25758628282256
 30
0.0
 11
27.55047808566081
 21
14.03021862669288
 31
0.0
  0
LINE
  5
448
330
3A4
100
AcDbEntity
  8
0
 62
     0
100
AcDbLine
 10
21.25047808566092
 20
19.43219301458595
 30
0.0
 11
18.45047808566085
 21
22.23219301458602
 31
0.0
  0
LINE
  5
449
330
3A4
100
AcDbEntity
  8
0
 62
     0
100
AcDbLine
 10
14.12508481742424
 20
26.55758628282257
 30
0.0
 11
11.35995554531934
 21
29.32271555492753
 31
0.0
  0
LINE
  5
44A
330
3A4
100
AcDbEntity
  8
0
 62
     0
100
AcDbLine
 10
25.09787563682392
 20
15.58479546342289
 30
0.0
 11
24.62768726626121
 21
16.05498383398566
 31
0.0
  0
LINE
  5
44B
330
3A4
100
AcDbEntity
  8
0
 62
     0
100
AcDbLine
 10
21.25047808566086
 20
18.534167402479
 30
0.0
 11
18.45047808566085
 21
21.33416740247907
 31
0.0
  0
LINE
  5
44C
330
3A4
100
AcDbEntity
  8
0
 62
     0
100
AcDbLine
 10
13.22705920531734
 20
26.55758628282257
 30
0.0
 11
10.66682073684086
 21
29.11782475129906
 31
0.0
  0
LINE
  5
44D
330
3A4
100
AcDbEntity
  8
0
 62
     0
100
AcDbLine
 10
25.10047808566083
 20
14.68416740247903
 30
0.0
 11
23.72705920531729
 21
16.05758628282262
 31
0.0
  0
LINE
  5
44E
330
3A4
100
AcDbEntity
  8
0
 62
     0
100
AcDbLine
 10
21.25047808566086
 20
17.63614179037211
 30
0.0
 11
18.4504780856609
 21
20.43614179037206
 31
0.0
  0
LINE
  5
44F
330
3A4
100
AcDbEntity
  8
0
 62
     0
100
AcDbLine
 10
12.3290335932104
 20
26.55758628282252
 30
0.0
 11
10.10257407699362
 21
28.78404579903929
 31
0.0
  0
LINE
  5
450
330
3A4
100
AcDbEntity
  8
0
 62
     0
100
AcDbLine
 10
25.10047808566083
 20
13.78614179037214
 30
0.0
 11
22.8290335932104
 21
16.05758628282251
 31
0.0
  0
LINE
  5
451
330
3A4
100
AcDbEntity
  8
0
 62
     0
100
AcDbLine
 10
11.8187407655958
 20
26.16985349833033
 30
0.0
 11
9.644481264752869
 21
28.34411299917326
 31
0.0
  0
LINE
  5
452
330
3A4
100
AcDbEntity
  8
0
 62
     0
100
AcDbLine
 10
24.71274530116853
 20
13.27584896275761
 30
0.0
 11
18.4504780856609
 21
19.53811617826523
 31
0.0
  0
LINE
  5
453
330
3A4
100
AcDbEntity
  8
0
 62
     0
100
AcDbLine
 10
11.80047808566087
 20
25.29009056615831
 30
0.0
 11
9.291000062283785
 21
27.7995685895354
 31
0.0
  0
LINE
  5
454
330
3A4
100
AcDbEntity
  8
0
 62
     0
100
AcDbLine
 10
23.83298236899662
 20
13.25758628282256
 30
0.0
 11
18.4504780856609
 21
18.64009056615828
 31
0.0
  0
LINE
  5
455
330
3A4
100
AcDbEntity
  8
0
 62
     0
100
AcDbLine
 10
11.8626137937963
 20
24.32992924591588
 30
0.0
 11
9.060119959990061
 21
27.13242307972218
 31
0.0
  0
LINE
  5
456
330
3A4
100
AcDbEntity
  8
0
 62
     0
100
AcDbLine
 10
22.93495675688962
 20
13.25758628282261
 30
0.0
 11
18.45047808566085
 21
17.74206495405133
 31
0.0
  0
LINE
  5
457
330
3A4
100
AcDbEntity
  8
0
 62
     0
100
AcDbLine
 10
16.15485417688353
 20
19.13966325072181
 30
0.0
 11
9.000478085660915
 21
26.29403934194443
 31
0.0
  0
LINE
  5
458
330
3A4
100
AcDbEntity
  8
0
 62
     0
100
AcDbLine
 10
21.98365905772607
 20
13.31085836987927
 30
0.0
 11
18.5037501727175
 21
16.79076725488784
 31
0.0
  0
LINE
  5
459
330
3A4
100
AcDbEntity
  8
0
 62
     0
100
AcDbLine
 10
16.34674869096875
 20
18.04974312452969
 30
0.0
 11
9.000478085660802
 21
25.39601372983765
 31
0.0
  0
LINE
  5
45A
330
3A4
100
AcDbEntity
  8
0
 62
     0
100
AcDbLine
 10
20.60985114512448
 20
13.78664067037391
 30
0.0
 11
18.97953247321209
 21
15.41695934228636
 31
0.0
  0
LINE
  5
45B
330
3A4
100
AcDbEntity
  8
0
 62
     0
100
AcDbLine
 10
16.35047808566088
 20
17.14798811773062
 30
0.0
 11
9.008042533083198
 21
24.49042367030825
 31
0.0
  0
LINE
  5
45C
330
3A4
100
AcDbEntity
  8
0
 62
     0
100
AcDbLine
 10
16.35047808566082
 20
16.24996250562373
 30
0.0
 11
9.231333291407054
 21
23.36910729987744
 31
0.0
  0
LINE
  5
45D
330
3A4
100
AcDbEntity
  8
0
 62
     0
100
AcDbLine
 10
16.27795808952891
 20
15.42445688964881
 30
0.0
 11
13.51456644590985
 21
18.18784853326787
 31
0.0
  0
LINE
  5
45E
330
3A4
100
AcDbEntity
  8
0
 62
     0
100
AcDbLine
 10
16.03602015050006
 20
14.7683692165707
 30
0.0
 11
13.55047808566081
 21
17.25391128140995
 31
0.0
  0
LINE
  5
45F
330
3A4
100
AcDbEntity
  8
0
 62
     0
100
AcDbLine
 10
15.67390090311829
 20
14.23246285184552
 30
0.0
 11
13.51457905336014
 21
16.39178470160368
 31
0.0
  0
LINE
  5
460
330
3A4
100
AcDbEntity
  8
0
 62
     0
100
AcDbLine
 10
15.20767453085142
 20
13.80066361200551
 30
0.0
 11
12.9507518600343
 21
16.05758628282268
 31
0.0
  0
LINE
  5
461
330
3A4
100
AcDbEntity
  8
0
 62
     0
100
AcDbLine
 10
14.63441008311861
 20
13.47590244763142
 30
0.0
 11
12.05272624792735
 21
16.05758628282262
 31
0.0
  0
LINE
  5
462
330
3A4
100
AcDbEntity
  8
0
 62
     0
100
AcDbLine
 10
13.92899749403267
 20
13.28328942461041
 30
0.0
 11
11.15470063582046
 21
16.05758628282262
 31
0.0
  0
LINE
  5
463
330
3A4
100
AcDbEntity
  8
0
 62
     0
100
AcDbLine
 10
13.05667502371363
 20
13.25758628282244
 30
0.0
 11
10.25667502371351
 21
16.05758628282262
 31
0.0
  0
LINE
  5
464
330
3A4
100
AcDbEntity
  8
0
 62
     0
100
AcDbLine
 10
12.15864941160669
 20
13.25758628282256
 30
0.0
 11
9.605325516788809
 21
15.81091017764049
 31
0.0
  0
LINE
  5
465
330
3A4
100
AcDbEntity
  8
0
 62
     0
100
AcDbLine
 10
11.2606237994998
 20
13.25758628282256
 30
0.0
 11
9.525478085660836
 21
14.99273199666152
 31
0.0
  0
LINE
  5
466
330
3A4
100
AcDbEntity
  8
0
 62
     0
100
AcDbLine
 10
10.36259818739285
 20
13.25758628282256
 30
0.0
 11
9.525478085660836
 21
14.09470638455457
 31
0.0
  0
LINE
  5
467
330
3A4
100
AcDbEntity
  8
0
 62
     0
100
AcDbLine
 10
66.34216537032779
 20
13.27071805994012
 30
0.0
 11
66.73734630854358
 21
13.66589899815591
 31
0.0
  0
LINE
  5
468
330
3A4
100
AcDbEntity
  8
0
 62
     0
100
AcDbLine
 10
65.43100798110334
 20
13.2575862828225
 30
0.0
 11
66.75047808566103
 21
14.57705638738019
 31
0.0
  0
LINE
  5
469
330
3A4
100
AcDbEntity
  8
0
 62
     0
100
AcDbLine
 10
64.53298236899644
 20
13.2575862828225
 30
0.0
 11
66.75047808566103
 21
15.47508199948708
 31
0.0
  0
LINE
  5
46A
330
3A4
100
AcDbEntity
  8
0
 62
     0
100
AcDbLine
 10
63.9816756489127
 20
13.60430517484571
 30
0.0
 11
66.75047808566097
 21
16.37310761159404
 31
0.0
  0
LINE
  5
46B
330
3A4
100
AcDbEntity
  8
0
 62
     0
100
AcDbLine
 10
63.9504780856609
 20
14.47113322370086
 30
0.0
 11
66.75047808566097
 21
17.27113322370087
 31
0.0
  0
LINE
  5
46C
330
3A4
100
AcDbEntity
  8
0
 62
     0
100
AcDbLine
 10
63.95047808566096
 20
15.36915883580775
 30
0.0
 11
66.75047808566097
 21
18.16915883580782
 31
0.0
  0
LINE
  5
46D
330
3A4
100
AcDbEntity
  8
0
 62
     0
100
AcDbLine
 10
63.9504780856609
 20
16.2671844479147
 30
0.0
 11
66.75047808566097
 21
19.06718444791477
 31
0.0
  0
LINE
  5
46E
330
3A4
100
AcDbEntity
  8
0
 62
     0
100
AcDbLine
 10
63.9504780856609
 20
17.16521006002159
 30
0.0
 11
66.75047808566097
 21
19.96521006002166
 31
0.0
  0
LINE
  5
46F
330
3A4
100
AcDbEntity
  8
0
 62
     0
100
AcDbLine
 10
60.37704294772618
 20
13.59177492208687
 30
0.0
 11
61.51628944639674
 21
14.73102142075748
 31
0.0
  0
LINE
  5
470
330
3A4
100
AcDbEntity
  8
0
 62
     0
100
AcDbLine
 10
63.9504780856609
 20
18.06323567212848
 30
0.0
 11
66.75047808566097
 21
20.86323567212855
 31
0.0
  0
LINE
  5
471
330
3A4
100
AcDbEntity
  8
0
 62
     0
100
AcDbLine
 10
59.14647478120338
 20
13.25923236767096
 30
0.0
 11
61.8488320008127
 21
15.96158958728023
 31
0.0
  0
LINE
  5
472
330
3A4
100
AcDbEntity
  8
0
 62
     0
100
AcDbLine
 10
63.9504780856609
 20
18.96126128423543
 30
0.0
 11
66.75047808566097
 21
21.76126128423545
 31
0.0
  0
LINE
  5
473
330
3A4
100
AcDbEntity
  8
0
 62
     0
100
AcDbLine
 10
58.24680308424797
 20
13.2575862828225
 30
0.0
 11
61.850478085661
 21
16.86126128423547
 31
0.0
  0
LINE
  5
474
330
3A4
100
AcDbEntity
  8
0
 62
     0
100
AcDbLine
 10
63.9504780856609
 20
19.85928689634232
 30
0.0
 11
66.75047808566091
 21
22.6592868963424
 31
0.0
  0
LINE
  5
475
330
3A4
100
AcDbEntity
  8
0
 62
     0
100
AcDbLine
 10
57.34877747214108
 20
13.2575862828225
 30
0.0
 11
61.85047808566094
 21
17.75928689634241
 31
0.0
  0
LINE
  5
476
330
3A4
100
AcDbEntity
  8
0
 62
     0
100
AcDbLine
 10
63.9504780856609
 20
20.75731250844922
 30
0.0
 11
66.75047808566097
 21
23.55731250844929
 31
0.0
  0
LINE
  5
477
330
3A4
100
AcDbEntity
  8
0
 62
     0
100
AcDbLine
 10
56.45075186003424
 20
13.25758628282256
 30
0.0
 11
61.850478085661
 21
18.65731250844931
 31
0.0
  0
LINE
  5
478
330
3A4
100
AcDbEntity
  8
0
 62
     0
100
AcDbLine
 10
58.94588688357988
 20
16.65074691847513
 30
0.0
 11
61.850478085661
 21
19.5553381205562
 31
0.0
  0
LINE
  5
479
330
3A4
100
AcDbEntity
  8
0
 62
     0
100
AcDbLine
 10
63.9504780856609
 20
21.65533812055611
 30
0.0
 11
66.75047808566097
 21
24.45533812055618
 31
0.0
  0
LINE
  5
47A
330
3A4
100
AcDbEntity
  8
0
 62
     0
100
AcDbLine
 10
55.55272624792724
 20
13.2575862828225
 30
0.0
 11
58.45731745000836
 21
16.16217748490356
 31
0.0
  0
LINE
  5
47B
330
3A4
100
AcDbEntity
  8
0
 62
     0
100
AcDbLine
 10
59.05047808566087
 20
17.65336373266308
 30
0.0
 11
61.85047808566094
 21
20.45336373266315
 31
0.0
  0
LINE
  5
47C
330
3A4
100
AcDbEntity
  8
0
 62
     0
100
AcDbLine
 10
63.95047808566085
 20
22.55336373266306
 30
0.0
 11
66.75047808566091
 21
25.35336373266313
 31
0.0
  0
LINE
  5
47D
330
3A4
100
AcDbEntity
  8
0
 62
     0
100
AcDbLine
 10
54.76665038719755
 20
13.36953603419971
 30
0.0
 11
57.45470063582041
 21
16.05758628282257
 31
0.0
  0
LINE
  5
47E
330
3A4
100
AcDbEntity
  8
0
 62
     0
100
AcDbLine
 10
59.05047808566092
 20
18.55138934477009
 30
0.0
 11
61.85047808566094
 21
21.35138934477004
 31
0.0
  0
LINE
  5
47F
330
3A4
100
AcDbEntity
  8
0
 62
     0
100
AcDbLine
 10
63.95047808566085
 20
23.45138934477001
 30
0.0
 11
66.75047808566091
 21
26.25138934477002
 31
0.0
  0
LINE
  5
480
330
3A4
100
AcDbEntity
  8
0
 62
     0
100
AcDbLine
 10
54.1386635199874
 20
13.63957477909656
 30
0.0
 11
56.55755280935784
 21
16.058464068467
 31
0.0
  0
LINE
  5
481
330
3A4
100
AcDbEntity
  8
0
 62
     0
100
AcDbLine
 10
59.05047808566099
 20
19.44941495687698
 30
0.0
 11
61.85047808566094
 21
22.24941495687693
 31
0.0
  0
LINE
  5
482
330
3A4
100
AcDbEntity
  8
0
 62
     0
100
AcDbLine
 10
63.9504780856609
 20
24.34941495687684
 30
0.0
 11
66.75047808566091
 21
27.14941495687691
 31
0.0
  0
LINE
  5
483
330
3A4
100
AcDbEntity
  8
0
 62
     0
100
AcDbLine
 10
53.62540363862234
 20
14.02434050983828
 30
0.0
 11
55.91407422064515
 21
16.31301109186114
 31
0.0
  0
LINE
  5
484
330
3A4
100
AcDbEntity
  8
0
 62
     0
100
AcDbLine
 10
59.05047808566099
 20
20.34744056898387
 30
0.0
 11
61.85047808566094
 21
23.14744056898388
 31
0.0
  0
LINE
  5
485
330
3A4
100
AcDbEntity
  8
0
 62
     0
100
AcDbLine
 10
63.95047808566085
 20
25.24744056898379
 30
0.0
 11
66.75047808566091
 21
28.04744056898386
 31
0.0
  0
LINE
  5
486
330
3A4
100
AcDbEntity
  8
0
 62
     0
100
AcDbLine
 10
53.21543946339722
 20
14.5124019467201
 30
0.0
 11
55.57683594223573
 21
16.87379842555867
 31
0.0
  0
LINE
  5
487
330
3A4
100
AcDbEntity
  8
0
 62
     0
100
AcDbLine
 10
59.05047808566092
 20
21.24546618109082
 30
0.0
 11
61.850478085661
 21
24.04546618109089
 31
0.0
  0
LINE
  5
488
330
3A4
100
AcDbEntity
  8
0
 62
     0
100
AcDbLine
 10
63.95047808566085
 20
26.14546618109069
 30
0.0
 11
66.74032893211045
 21
28.93531702754035
 31
0.0
  0
LINE
  5
489
330
3A4
100
AcDbEntity
  8
0
 62
     0
100
AcDbLine
 10
52.91551458496321
 20
15.1105026803931
 30
0.0
 11
55.55047808566093
 21
17.74546618109076
 31
0.0
  0
LINE
  5
48A
330
3A4
100
AcDbEntity
  8
0
 62
     0
100
AcDbLine
 10
59.05047808566099
 20
22.14349179319766
 30
0.0
 11
61.85047808566105
 21
24.94349179319772
 31
0.0
  0
LINE
  5
48B
330
3A4
100
AcDbEntity
  8
0
 62
     0
100
AcDbLine
 10
63.95047808566085
 20
27.04349179319758
 30
0.0
 11
66.26321458703097
 21
29.3562282945677
 31
0.0
  0
LINE
  5
48C
330
3A4
100
AcDbEntity
  8
0
 62
     0
100
AcDbLine
 10
52.75810105000676
 20
15.85111475754348
 30
0.0
 11
55.55047808566093
 21
18.64349179319765
 31
0.0
  0
LINE
  5
48D
330
3A4
100
AcDbEntity
  8
0
 62
     0
100
AcDbLine
 10
59.05047808566092
 20
23.04151740530461
 30
0.0
 11
61.850478085661
 21
25.84151740530467
 31
0.0
  0
LINE
  5
48E
330
3A4
100
AcDbEntity
  8
0
 62
     0
100
AcDbLine
 10
63.9504780856609
 20
27.94151740530458
 30
0.0
 11
65.3665469631789
 21
29.35758628282258
 31
0.0
  0
LINE
  5
48F
330
3A4
100
AcDbEntity
  8
0
 62
     0
100
AcDbLine
 10
52.75047808566097
 20
16.74151740530459
 30
0.0
 11
55.55047808566098
 21
19.54151740530466
 31
0.0
  0
LINE
  5
490
330
3A4
100
AcDbEntity
  8
0
 62
     0
100
AcDbLine
 10
59.05047808566092
 20
23.93954301741155
 30
0.0
 11
61.850478085661
 21
26.73954301741157
 31
0.0
  0
LINE
  5
491
330
3A4
100
AcDbEntity
  8
0
 62
     0
100
AcDbLine
 10
52.75047808566092
 20
17.63954301741154
 30
0.0
 11
55.55047808566098
 21
20.43954301741161
 31
0.0
  0
LINE
  5
492
330
3A4
100
AcDbEntity
  8
0
 62
     0
100
AcDbLine
 10
63.95052480040835
 20
28.83958973215897
 30
0.0
 11
64.46847463632463
 21
29.3575395680752
 31
0.0
  0
LINE
  5
493
330
3A4
100
AcDbEntity
  8
0
 62
     0
100
AcDbLine
 10
48.42892245494891
 20
13.31798738669948
 30
0.0
 11
50.59007698178408
 21
15.4791419135347
 31
0.0
  0
LINE
  5
494
330
3A4
100
AcDbEntity
  8
0
 62
     0
100
AcDbLine
 10
52.75047808566092
 20
18.53756862951843
 30
0.0
 11
55.55047808566098
 21
21.3375686295185
 31
0.0
  0
LINE
  5
495
330
3A4
100
AcDbEntity
  8
0
 62
     0
100
AcDbLine
 10
59.05047808566092
 20
24.83756862951845
 30
0.0
 11
61.85047808566094
 21
27.63756862951851
 31
0.0
  0
LINE
  5
496
330
3A4
100
AcDbEntity
  8
0
 62
     0
100
AcDbLine
 10
47.47049573896504
 20
13.25758628282261
 30
0.0
 11
50.65047808566089
 21
16.43756862951846
 31
0.0
  0
LINE
  5
497
330
3A4
100
AcDbEntity
  8
0
 62
     0
100
AcDbLine
 10
52.75047808566092
 20
19.43559424162532
 30
0.0
 11
55.55047808566098
 21
22.23559424162539
 31
0.0
  0
LINE
  5
498
330
3A4
100
AcDbEntity
  8
0
 62
     0
100
AcDbLine
 10
59.05047808566092
 20
25.73559424162534
 30
0.0
 11
61.850478085661
 21
28.5355942416254
 31
0.0
  0
LINE
  5
499
330
3A4
100
AcDbEntity
  8
0
 62
     0
100
AcDbLine
 10
46.57247012685814
 20
13.25758628282256
 30
0.0
 11
50.65047808566095
 21
17.3355942416253
 31
0.0
  0
LINE
  5
49A
330
3A4
100
AcDbEntity
  8
0
 62
     0
100
AcDbLine
 10
52.75047808566092
 20
20.33361985373227
 30
0.0
 11
55.55047808566098
 21
23.13361985373228
 31
0.0
  0
LINE
  5
49B
330
3A4
100
AcDbEntity
  8
0
 62
     0
100
AcDbLine
 10
59.05047808566092
 20
26.63361985373223
 30
0.0
 11
61.65674063082684
 21
29.23988239889821
 31
0.0
  0
LINE
  5
49C
330
3A4
100
AcDbEntity
  8
0
 62
     0
100
AcDbLine
 10
45.67444451475125
 20
13.25758628282261
 30
0.0
 11
50.63615948524807
 21
18.21930125331937
 31
0.0
  0
LINE
  5
49D
330
3A4
100
AcDbEntity
  8
0
 62
     0
100
AcDbLine
 10
52.75047808566092
 20
21.23164546583916
 30
0.0
 11
55.55047808566093
 21
24.03164546583923
 31
0.0
  0
LINE
  5
49E
330
3A4
100
AcDbEntity
  8
0
 62
     0
100
AcDbLine
 10
59.05047808566087
 20
27.53164546583918
 30
0.0
 11
60.87641890264433
 21
29.35758628282264
 31
0.0
  0
LINE
  5
49F
330
3A4
100
AcDbEntity
  8
0
 62
     0
100
AcDbLine
 10
44.77641890264431
 20
13.25758628282261
 30
0.0
 11
50.50124711461927
 21
18.98241449479758
 31
0.0
  0
LINE
  5
4A0
330
3A4
100
AcDbEntity
  8
0
 62
     0
100
AcDbLine
 10
52.75047808566092
 20
22.12967107794606
 30
0.0
 11
55.55047808566098
 21
24.92967107794612
 31
0.0
  0
LINE
  5
4A1
330
3A4
100
AcDbEntity
  8
0
 62
     0
100
AcDbLine
 10
47.85047808566105
 20
17.22967107794613
 30
0.0
 11
50.26065965770072
 21
19.63985264998587
 31
0.0
  0
LINE
  5
4A2
330
3A4
100
AcDbEntity
  8
0
 62
     0
100
AcDbLine
 10
59.05047808566092
 20
28.42967107794607
 30
0.0
 11
59.9783932905375
 21
29.35758628282264
 31
0.0
  0
LINE
  5
4A3
330
3A4
100
AcDbEntity
  8
0
 62
     0
100
AcDbLine
 10
44.00664864366854
 20
13.38584163595368
 30
0.0
 11
46.67839329053743
 21
16.05758628282257
 31
0.0
  0
LINE
  5
4A4
330
3A4
100
AcDbEntity
  8
0
 62
     0
100
AcDbLine
 10
47.83060751053364
 20
18.10782611492567
 30
0.0
 11
49.93716035284013
 21
20.21437895723216
 31
0.0
  0
LINE
  5
4A5
330
3A4
100
AcDbEntity
  8
0
 62
     0
100
AcDbLine
 10
52.75047808566092
 20
23.02769669005295
 30
0.0
 11
55.55047808566093
 21
25.82769669005302
 31
0.0
  0
LINE
  5
4A6
330
3A4
100
AcDbEntity
  8
0
 62
     0
100
AcDbLine
 10
43.82547808566096
 20
14.10269669005299
 30
0.0
 11
45.78036767843047
 21
16.05758628282257
 31
0.0
  0
LINE
  5
4A7
330
3A4
100
AcDbEntity
  8
0
 62
     0
100
AcDbLine
 10
47.55622267339475
 20
18.73146688989379
 30
0.0
 11
49.54128923491231
 21
20.71653345141135
 31
0.0
  0
LINE
  5
4A8
330
3A4
100
AcDbEntity
  8
0
 62
     0
100
AcDbLine
 10
52.75047808566085
 20
23.9257223021599
 30
0.0
 11
55.55047808566093
 21
26.72572230215997
 31
0.0
  0
LINE
  5
4A9
330
3A4
100
AcDbEntity
  8
0
 62
     0
100
AcDbLine
 10
43.8254780856609
 20
15.00072230215994
 30
0.0
 11
44.88234206632358
 21
16.05758628282262
 31
0.0
  0
LINE
  5
4AA
330
3A4
100
AcDbEntity
  8
0
 62
     0
100
AcDbLine
 10
52.75047808566092
 20
24.82374791426679
 30
0.0
 11
55.55047808566098
 21
27.6237479142668
 31
0.0
  0
LINE
  5
4AB
330
3A4
100
AcDbEntity
  8
0
 62
     0
100
AcDbLine
 10
47.11494777627769
 20
19.1882176048835
 30
0.0
 11
49.09484676360006
 21
21.16811659220593
 31
0.0
  0
LINE
  5
4AC
330
3A4
100
AcDbEntity
  8
0
 62
     0
100
AcDbLine
 10
46.66593497022421
 20
19.63723041093698
 30
0.0
 11
48.64583395754658
 21
21.61712939825941
 31
0.0
  0
LINE
  5
4AD
330
3A4
100
AcDbEntity
  8
0
 62
     0
100
AcDbLine
 10
52.75047808566085
 20
25.72177352637368
 30
0.0
 11
55.55047808566093
 21
28.52177352637375
 31
0.0
  0
LINE
  5
4AE
330
3A4
100
AcDbEntity
  8
0
 62
     0
100
AcDbLine
 10
40.28629084210973
 20
13.25758628282256
 30
0.0
 11
41.2004780856609
 21
14.17177352637367
 31
0.0
  0
LINE
  5
4AF
330
3A4
100
AcDbEntity
  8
0
 62
     0
100
AcDbLine
 10
46.21692216417073
 20
20.08624321699045
 30
0.0
 11
48.19682115149311
 21
22.06614220431288
 31
0.0
  0
LINE
  5
4B0
330
3A4
100
AcDbEntity
  8
0
 62
     0
100
AcDbLine
 10
52.75047808566085
 20
26.61979913848063
 30
0.0
 11
55.36429717756226
 21
29.23361823038198
 31
0.0
  0
LINE
  5
4B1
330
3A4
100
AcDbEntity
  8
0
 62
     0
100
AcDbLine
 10
39.38826523000279
 20
13.25758628282256
 30
0.0
 11
41.20047808566096
 21
15.06979913848067
 31
0.0
  0
LINE
  5
4B2
330
3A4
100
AcDbEntity
  8
0
 62
     0
100
AcDbLine
 10
45.76790935811726
 20
20.53525602304393
 30
0.0
 11
47.74780834543963
 21
22.51515501036636
 31
0.0
  0
LINE
  5
4B3
330
3A4
100
AcDbEntity
  8
0
 62
     0
100
AcDbLine
 10
52.75047808566085
 20
27.51782475058752
 30
0.0
 11
54.59023961789597
 21
29.3575862828227
 31
0.0
  0
LINE
  5
4B4
330
3A4
100
AcDbEntity
  8
0
 62
     0
100
AcDbLine
 10
38.60185075575788
 20
13.36919742068454
 30
0.0
 11
41.2004780856609
 21
15.96782475058762
 31
0.0
  0
LINE
  5
4B5
330
3A4
100
AcDbEntity
  8
0
 62
     0
100
AcDbLine
 10
45.31889655206384
 20
20.98426882909735
 30
0.0
 11
47.29879553938622
 21
22.96416781641978
 31
0.0
  0
LINE
  5
4B6
330
3A4
100
AcDbEntity
  8
0
 62
     0
100
AcDbLine
 10
52.75047808566085
 20
28.41585036269441
 30
0.0
 11
53.69221400578914
 21
29.35758628282264
 31
0.0
  0
LINE
  5
4B7
330
3A4
100
AcDbEntity
  8
0
 62
     0
100
AcDbLine
 10
38.40047808566095
 20
14.0658503626945
 30
0.0
 11
41.20047808566096
 21
16.86585036269446
 31
0.0
  0
LINE
  5
4B8
330
3A4
100
AcDbEntity
  8
0
 62
     0
100
AcDbLine
 10
44.86988374601037
 20
21.43328163515082
 30
0.0
 11
46.84978273333274
 21
23.41318062247325
 31
0.0
  0
LINE
  5
4B9
330
3A4
100
AcDbEntity
  8
0
 62
     0
100
AcDbLine
 10
38.40047808566095
 20
14.96387597480145
 30
0.0
 11
41.2004780856609
 21
17.76387597480141
 31
0.0
  0
LINE
  5
4BA
330
3A4
100
AcDbEntity
  8
0
 62
     0
100
AcDbLine
 10
44.42289984496904
 20
21.88432334621649
 30
0.0
 11
46.40687337835106
 21
23.86829687959846
 31
0.0
  0
LINE
  5
4BB
330
3A4
100
AcDbEntity
  8
0
 62
     0
100
AcDbLine
 10
38.40047808566095
 20
15.86190158690834
 30
0.0
 11
41.2004780856609
 21
18.66190158690836
 31
0.0
  0
LINE
  5
4BC
330
3A4
100
AcDbEntity
  8
0
 62
     0
100
AcDbLine
 10
49.09616278157511
 20
26.55758628282257
 30
0.0
 11
50.12547808566097
 21
27.58690158690837
 31
0.0
  0
LINE
  5
4BD
330
3A4
100
AcDbEntity
  8
0
 62
     0
100
AcDbLine
 10
35.90782186095072
 20
13.36924536219811
 30
0.0
 11
35.99747422240574
 21
13.45889772365319
 31
0.0
  0
LINE
  5
4BE
330
3A4
100
AcDbEntity
  8
0
 62
     0
100
AcDbLine
 10
44.02489766614706
 20
22.38434677950136
 30
0.0
 11
46.12453194356567
 21
24.48398105691996
 31
0.0
  0
LINE
  5
4BF
330
3A4
100
AcDbEntity
  8
0
 62
     0
100
AcDbLine
 10
38.40047808566095
 20
16.75992719901524
 30
0.0
 11
41.20047808566096
 21
19.55992719901519
 31
0.0
  0
LINE
  5
4C0
330
3A4
100
AcDbEntity
  8
0
 62
     0
100
AcDbLine
 10
48.19813716946834
 20
26.55758628282263
 30
0.0
 11
50.12547808566097
 21
28.48492719901526
 31
0.0
  0
LINE
  5
4C1
330
3A4
100
AcDbEntity
  8
0
 62
     0
100
AcDbLine
 10
34.89813716946827
 20
13.25758628282256
 30
0.0
 11
35.9639162657748
 21
14.32336537912908
 31
0.0
  0
LINE
  5
4C2
330
3A4
100
AcDbEntity
  8
0
 62
     0
100
AcDbLine
 10
43.69906340175037
 20
22.95653812721162
 30
0.0
 11
46.10047808566105
 21
25.35795281112229
 31
0.0
  0
LINE
  5
4C3
330
3A4
100
AcDbEntity
  8
0
 62
     0
100
AcDbLine
 10
38.40047808566095
 20
17.65795281112213
 30
0.0
 11
41.2004780856609
 21
20.45795281112214
 31
0.0
  0
LINE
  5
4C4
330
3A4
100
AcDbEntity
  8
0
 62
     0
100
AcDbLine
 10
47.30011155736133
 20
26.55758628282257
 30
0.0
 11
49.95880915386305
 21
29.21628387932429
 31
0.0
  0
LINE
  5
4C5
330
3A4
100
AcDbEntity
  8
0
 62
     0
100
AcDbLine
 10
34.00011155736127
 20
13.2575862828225
 30
0.0
 11
35.74839011886911
 21
15.00586484433035
 31
0.0
  0
LINE
  5
4C6
330
3A4
100
AcDbEntity
  8
0
 62
     0
100
AcDbLine
 10
38.40047808566089
 20
18.55597842322907
 30
0.0
 11
41.2004780856609
 21
21.35597842322903
 31
0.0
  0
LINE
  5
4C7
330
3A4
100
AcDbEntity
  8
0
 62
     0
100
AcDbLine
 10
43.45568133908028
 20
23.61118167664847
 30
0.0
 11
49.20208594525445
 21
29.35758628282264
 31
0.0
  0
LINE
  5
4C8
330
3A4
100
AcDbEntity
  8
0
 62
     0
100
AcDbLine
 10
33.40809724670629
 20
13.56359758427447
 30
0.0
 11
35.53286397196342
 21
15.68836430953161
 31
0.0
  0
LINE
  5
4C9
330
3A4
100
AcDbEntity
  8
0
 62
     0
100
AcDbLine
 10
38.40047808566089
 20
19.45400403533603
 30
0.0
 11
41.20047808566084
 21
22.25400403533598
 31
0.0
  0
LINE
  5
4CA
330
3A4
100
AcDbEntity
  8
0
 62
     0
100
AcDbLine
 10
43.31697447999459
 20
24.37050042966973
 30
0.0
 11
48.30406033314756
 21
29.35758628282264
 31
0.0
  0
LINE
  5
4CB
330
3A4
100
AcDbEntity
  8
0
 62
     0
100
AcDbLine
 10
33.18933782505769
 20
14.24286377473282
 30
0.0
 11
35.31733782505773
 21
16.37086377473287
 31
0.0
  0
LINE
  5
4CC
330
3A4
100
AcDbEntity
  8
0
 62
     0
100
AcDbLine
 10
38.40047808566095
 20
20.35202964744286
 30
0.0
 11
41.2004780856609
 21
23.15202964744287
 31
0.0
  0
LINE
  5
4CD
330
3A4
100
AcDbEntity
  8
0
 62
     0
100
AcDbLine
 10
43.30047808566092
 20
25.25202964744284
 30
0.0
 11
47.40603472104067
 21
29.35758628282264
 31
0.0
  0
LINE
  5
4CE
330
3A4
100
AcDbEntity
  8
0
 62
     0
100
AcDbLine
 10
32.97381167815206
 20
14.92536323993403
 30
0.0
 11
35.10181167815216
 21
17.05336323993407
 31
0.0
  0
LINE
  5
4CF
330
3A4
100
AcDbEntity
  8
0
 62
     0
100
AcDbLine
 10
38.40047808566089
 20
21.25005525954981
 30
0.0
 11
41.2004780856609
 21
24.05005525954976
 31
0.0
  0
LINE
  5
4D0
330
3A4
100
AcDbEntity
  8
0
 62
     0
100
AcDbLine
 10
43.30047808566098
 20
26.15005525954984
 30
0.0
 11
46.50800910893377
 21
29.35758628282264
 31
0.0
  0
LINE
  5
4D1
330
3A4
100
AcDbEntity
  8
0
 62
     0
100
AcDbLine
 10
32.75828553124632
 20
15.60786270513523
 30
0.0
 11
34.88628553124653
 21
17.73586270513544
 31
0.0
  0
LINE
  5
4D2
330
3A4
100
AcDbEntity
  8
0
 62
     0
100
AcDbLine
 10
38.40047808566089
 20
22.1480808716567
 30
0.0
 11
41.20047808566096
 21
24.94808087165677
 31
0.0
  0
LINE
  5
4D3
330
3A4
100
AcDbEntity
  8
0
 62
     0
100
AcDbLine
 10
32.54275938434068
 20
16.29036217033655
 30
0.0
 11
34.67075938434078
 21
18.41836217033659
 31
0.0
  0
LINE
  5
4D4
330
3A4
100
AcDbEntity
  8
0
 62
     0
100
AcDbLine
 10
43.35379475578213
 20
27.101397541778
 30
0.0
 11
45.55666682670545
 21
29.30426961270132
 31
0.0
  0
LINE
  5
4D5
330
3A4
100
AcDbEntity
  8
0
 62
     0
100
AcDbLine
 10
29.50998349682669
 20
13.25758628282256
 30
0.0
 11
30.35047808566088
 21
14.09808087165675
 31
0.0
  0
LINE
  5
4D6
330
3A4
100
AcDbEntity
  8
0
 62
     0
100
AcDbLine
 10
32.32723323743511
 20
16.97286163553775
 30
0.0
 11
34.45523323743515
 21
19.10086163553785
 31
0.0
  0
LINE
  5
4D7
330
3A4
100
AcDbEntity
  8
0
 62
     0
100
AcDbLine
 10
38.40047808566089
 20
23.04610648376359
 30
0.0
 11
41.20047808566096
 21
25.84610648376366
 31
0.0
  0
LINE
  5
4D8
330
3A4
100
AcDbEntity
  8
0
 62
     0
100
AcDbLine
 10
28.61195788471986
 20
13.2575862828225
 30
0.0
 11
30.35047808566094
 21
14.99610648376364
 31
0.0
  0
LINE
  5
4D9
330
3A4
100
AcDbEntity
  8
0
 62
     0
100
AcDbLine
 10
32.11170709052942
 20
17.65536110073901
 30
0.0
 11
34.23970709052947
 21
19.78336110073911
 31
0.0
  0
LINE
  5
4DA
330
3A4
100
AcDbEntity
  8
0
 62
     0
100
AcDbLine
 10
38.40047808566089
 20
23.94413209587054
 30
0.0
 11
41.20047808566096
 21
26.74413209587056
 31
0.0
  0
LINE
  5
4DB
330
3A4
100
AcDbEntity
  8
0
 62
     0
100
AcDbLine
 10
27.7950820202642
 20
13.33873603047385
 30
0.0
 11
30.35047808566094
 21
15.89413209587053
 31
0.0
  0
LINE
  5
4DC
330
3A4
100
AcDbEntity
  8
0
 62
     0
100
AcDbLine
 10
31.89618094362373
 20
18.33786056594027
 30
0.0
 11
34.02418094362378
 21
20.46586056594037
 31
0.0
  0
LINE
  5
4DD
330
3A4
100
AcDbEntity
  8
0
 62
     0
100
AcDbLine
 10
38.40047808566089
 20
24.84215770797744
 30
0.0
 11
41.2004780856609
 21
27.64215770797751
 31
0.0
  0
LINE
  5
4DE
330
3A4
100
AcDbEntity
  8
0
 62
     0
100
AcDbLine
 10
27.55047808566093
 20
13.99215770797747
 30
0.0
 11
30.350478085661
 21
16.79215770797753
 31
0.0
  0
LINE
  5
4DF
330
3A4
100
AcDbEntity
  8
0
 62
     0
100
AcDbLine
 10
31.6806547967181
 20
19.02036003114148
 30
0.0
 11
33.80865479671826
 21
21.14836003114163
 31
0.0
  0
LINE
  5
4E0
330
3A4
100
AcDbEntity
  8
0
 62
     0
100
AcDbLine
 10
38.40047808566089
 20
25.74018332008433
 30
0.0
 11
41.20047808566096
 21
28.5401833200844
 31
0.0
  0
LINE
  5
4E1
330
3A4
100
AcDbEntity
  8
0
 62
     0
100
AcDbLine
 10
27.55047808566093
 20
14.89018332008436
 30
0.0
 11
30.350478085661
 21
17.69018332008443
 31
0.0
  0
LINE
  5
4E2
330
3A4
100
AcDbEntity
  8
0
 62
     0
100
AcDbLine
 10
31.44585600974636
 20
19.68358685627675
 30
0.0
 11
34.07615007767737
 21
22.3138809242077
 31
0.0
  0
LINE
  5
4E3
330
3A4
100
AcDbEntity
  8
0
 62
     0
100
AcDbLine
 10
38.40047808566095
 20
26.63820893219134
 30
0.0
 11
41.00420266316251
 21
29.24193350969284
 31
0.0
  0
LINE
  5
4E4
330
3A4
100
AcDbEntity
  8
0
 62
     0
100
AcDbLine
 10
27.55047808566093
 20
15.78820893219131
 30
0.0
 11
30.350478085661
 21
18.58820893219132
 31
0.0
  0
LINE
  5
4E5
330
3A4
100
AcDbEntity
  8
0
 62
     0
100
AcDbLine
 10
30.75867063987897
 20
19.8944270985163
 30
0.0
 11
34.49062343711125
 21
23.62637989574858
 31
0.0
  0
LINE
  5
4E6
330
3A4
100
AcDbEntity
  8
0
 62
     0
100
AcDbLine
 10
27.55047808566093
 20
16.6862345442982
 30
0.0
 11
30.36363726996723
 21
19.4993937286045
 31
0.0
  0
LINE
  5
4E7
330
3A4
100
AcDbEntity
  8
0
 62
     0
100
AcDbLine
 10
38.40047808566095
 20
27.53623454429823
 30
0.0
 11
40.2218298241853
 21
29.35758628282264
 31
0.0
  0
LINE
  5
4E8
330
3A4
100
AcDbEntity
  8
0
 62
     0
100
AcDbLine
 10
24.12182982418528
 20
13.25758628282256
 30
0.0
 11
25.10047808566094
 21
14.23623454429827
 31
0.0
  0
LINE
  5
4E9
330
3A4
100
AcDbEntity
  8
0
 62
     0
100
AcDbLine
 10
27.55047808566087
 20
17.58426015640515
 30
0.0
 11
34.9050967965452
 21
24.93887886728948
 31
0.0
  0
LINE
  5
4EA
330
3A4
100
AcDbEntity
  8
0
 62
     0
100
AcDbLine
 10
38.40047808566089
 20
28.43426015640517
 30
0.0
 11
39.3238042120783
 21
29.35758628282258
 31
0.0
  0
LINE
  5
4EB
330
3A4
100
AcDbEntity
  8
0
 62
     0
100
AcDbLine
 10
23.22380421207833
 20
13.25758628282261
 30
0.0
 11
25.10047808566099
 21
15.13426015640527
 31
0.0
  0
LINE
  5
4EC
330
3A4
100
AcDbEntity
  8
0
 62
     0
100
AcDbLine
 10
27.55047808566093
 20
18.48228576851198
 30
0.0
 11
35.31957015597931
 21
26.25137783883042
 31
0.0
  0
LINE
  5
4ED
330
3A4
100
AcDbEntity
  8
0
 62
     0
100
AcDbLine
 10
22.33745922432155
 20
13.26926690717266
 30
0.0
 11
24.95914380205477
 21
15.89095148490583
 31
0.0
  0
LINE
  5
4EE
330
3A4
100
AcDbEntity
  8
0
 62
     0
100
AcDbLine
 10
27.55047808566087
 20
19.38031138061893
 30
0.0
 11
30.87775298786454
 21
22.7075862828226
 31
0.0
  0
LINE
  5
4EF
330
3A4
100
AcDbEntity
  8
0
 62
     0
100
AcDbLine
 10
31.64173582310542
 20
23.47156911806349
 30
0.0
 11
35.73404351541325
 21
27.56387681037131
 31
0.0
  0
LINE
  5
4F0
330
3A4
100
AcDbEntity
  8
0
 62
     0
100
AcDbLine
 10
21.56929870687458
 20
13.39913200183258
 30
0.0
 11
24.22775298786451
 21
16.05758628282257
 31
0.0
  0
LINE
  5
4F1
330
3A4
100
AcDbEntity
  8
0
 62
     0
100
AcDbLine
 10
27.55047808566087
 20
20.27833699272588
 30
0.0
 11
30.3684686563692
 21
23.09632756343416
 31
0.0
  0
LINE
  5
4F2
330
3A4
100
AcDbEntity
  8
0
 62
     0
100
AcDbLine
 10
32.05620918253937
 20
24.78406808960432
 30
0.0
 11
36.10911496721457
 21
28.83697387427958
 31
0.0
  0
LINE
  5
4F3
330
3A4
100
AcDbEntity
  8
0
 62
     0
100
AcDbLine
 10
20.90816445004816
 20
13.63602335711317
 30
0.0
 11
23.32972737575762
 21
16.05758628282257
 31
0.0
  0
LINE
  5
4F4
330
3A4
100
AcDbEntity
  8
0
 62
     0
100
AcDbLine
 10
27.55047808566093
 20
21.17636260483272
 30
0.0
 11
30.35047808566094
 21
23.97636260483279
 31
0.0
  0
LINE
  5
4F5
330
3A4
100
AcDbEntity
  8
0
 62
     0
100
AcDbLine
 10
32.4706825419733
 20
26.09656706114515
 30
0.0
 11
35.71510309464537
 21
29.34098761381722
 31
0.0
  0
LINE
  5
4F6
330
3A4
100
AcDbEntity
  8
0
 62
     0
100
AcDbLine
 10
20.33056116588387
 20
13.95644568505565
 30
0.0
 11
22.44662302437672
 21
16.07250754354857
 31
0.0
  0
LINE
  5
4F7
330
3A4
100
AcDbEntity
  8
0
 62
     0
100
AcDbLine
 10
27.55047808566087
 20
22.07438821693967
 30
0.0
 11
30.35047808566094
 21
24.87438821693974
 31
0.0
  0
LINE
  5
4F8
330
3A4
100
AcDbEntity
  8
0
 62
     0
100
AcDbLine
 10
32.88515590140725
 20
27.40906603268598
 30
0.0
 11
34.83367615154378
 21
29.35758628282258
 31
0.0
  0
LINE
  5
4F9
330
3A4
100
AcDbEntity
  8
0
 62
     0
100
AcDbLine
 10
19.8256061995018
 20
14.34951633078054
 30
0.0
 11
21.81230688335842
 21
16.33621701463716
 31
0.0
  0
LINE
  5
4FA
330
3A4
100
AcDbEntity
  8
0
 62
     0
100
AcDbLine
 10
27.55047808566087
 20
22.97241382904656
 30
0.0
 11
30.35047808566094
 21
25.77241382904663
 31
0.0
  0
LINE
  5
4FB
330
3A4
100
AcDbEntity
  8
0
 62
     0
100
AcDbLine
 10
24.21211221743738
 20
19.63404796082312
 30
0.0
 11
25.37401640766046
 21
20.79595215104621
 31
0.0
  0
LINE
  5
4FC
330
3A4
100
AcDbEntity
  8
0
 62
     0
100
AcDbLine
 10
33.29962926084113
 20
28.72156500422688
 30
0.0
 11
33.93565053943684
 21
29.35758628282258
 31
0.0
  0
LINE
  5
4FD
330
3A4
100
AcDbEntity
  8
0
 62
     0
100
AcDbLine
 10
19.38916912617196
 20
14.81110486955771
 30
0.0
 11
21.40205593208623
 21
16.82399167547197
 31
0.0
  0
LINE
  5
4FE
330
3A4
100
AcDbEntity
  8
0
 62
     0
100
AcDbLine
 10
23.28713937580756
 20
19.60710073130025
 30
0.0
 11
25.40096363718334
 21
21.72092499267598
 31
0.0
  0
LINE
  5
4FF
330
3A4
100
AcDbEntity
  8
0
 62
     0
100
AcDbLine
 10
27.55047808566093
 20
23.87043944115356
 30
0.0
 11
30.350478085661
 21
26.67043944115363
 31
0.0
  0
LINE
  5
500
330
3A4
100
AcDbEntity
  8
0
 62
     0
100
AcDbLine
 10
19.022149901229
 20
15.34211125672164
 30
0.0
 11
21.25047808566092
 21
17.57043944115361
 31
0.0
  0
LINE
  5
501
330
3A4
100
AcDbEntity
  8
0
 62
     0
100
AcDbLine
 10
22.67299280638736
 20
19.89097977398683
 30
0.0
 11
25.1170845944967
 21
22.33507156209623
 31
0.0
  0
LINE
  5
502
330
3A4
100
AcDbEntity
  8
0
 62
     0
100
AcDbLine
 10
27.55047808566093
 20
24.76846505326046
 30
0.0
 11
30.350478085661
 21
27.56846505326052
 31
0.0
  0
LINE
  5
503
330
3A4
100
AcDbEntity
  8
0
 62
     0
100
AcDbLine
 10
18.73083239130426
 20
15.94881935890379
 30
0.0
 11
21.25047808566092
 21
18.46846505326044
 31
0.0
  0
LINE
  5
504
330
3A4
100
AcDbEntity
  8
0
 62
     0
100
AcDbLine
 10
22.23503287939764
 20
20.35104545910412
 30
0.0
 11
24.65701890937948
 21
22.7730314890859
 31
0.0
  0
LINE
  5
505
330
3A4
100
AcDbEntity
  8
0
 62
     0
100
AcDbLine
 10
27.55047808566093
 20
25.6664906653674
 30
0.0
 11
30.350478085661
 21
28.46649066536742
 31
0.0
  0
LINE
  5
506
330
3A4
100
AcDbEntity
  8
0
 62
     0
100
AcDbLine
 10
18.5296950271296
 20
16.64570760683608
 30
0.0
 11
21.25047808566092
 21
19.36649066536739
 31
0.0
  0
LINE
  5
507
330
3A4
100
AcDbEntity
  8
0
 62
     0
100
AcDbLine
 10
21.97898214698927
 20
20.99302033880264
 30
0.0
 11
24.0150440296809
 21
23.02908222149432
 31
0.0
  0
LINE
  5
508
330
3A4
100
AcDbEntity
  8
0
 62
     0
100
AcDbLine
 10
18.45047808566085
 20
17.46451627747427
 30
0.0
 11
21.25047808566092
 21
20.26451627747428
 31
0.0
  0
LINE
  5
509
330
3A4
100
AcDbEntity
  8
0
 62
     0
100
AcDbLine
 10
27.55047808566093
 20
26.5645162774743
 30
0.0
 11
30.19322797730581
 21
29.20726616911924
 31
0.0
  0
LINE
  5
50A
330
3A4
100
AcDbEntity
  8
0
 62
     0
100
AcDbLine
 10
14.36448132778525
 20
13.37851951959868
 30
0.0
 11
16.22954484888498
 21
15.24358304069841
 31
0.0
  0
LINE
  5
50B
330
3A4
100
AcDbEntity
  8
0
 62
     0
100
AcDbLine
 10
22.09739523047006
 20
22.00945903439032
 30
0.0
 11
22.99860533409327
 21
22.91066913801353
 31
0.0
  0
LINE
  5
50C
330
3A4
100
AcDbEntity
  8
0
 62
     0
100
AcDbLine
 10
18.45047808566085
 20
18.36254188958111
 30
0.0
 11
21.25047808566092
 21
21.16254188958118
 31
0.0
  0
LINE
  5
50D
330
3A4
100
AcDbEntity
  8
0
 62
     0
100
AcDbLine
 10
27.55047808566093
 20
27.46254188958119
 30
0.0
 11
29.44552247890232
 21
29.35758628282258
 31
0.0
  0
LINE
  5
50E
330
3A4
100
AcDbEntity
  8
0
 62
     0
100
AcDbLine
 10
13.34552247890229
 20
13.25758628282256
 30
0.0
 11
16.35047808566105
 21
16.26254188958126
 31
0.0
  0
LINE
  5
50F
330
3A4
100
AcDbEntity
  8
0
 62
     0
100
AcDbLine
 10
18.45047808566085
 20
19.26056750168806
 30
0.0
 11
21.25047808566092
 21
22.06056750168813
 31
0.0
  0
LINE
  5
510
330
3A4
100
AcDbEntity
  8
0
 62
     0
100
AcDbLine
 10
27.55047808566093
 20
28.36056750168808
 30
0.0
 11
28.54749686679543
 21
29.35758628282264
 31
0.0
  0
LINE
  5
511
330
3A4
100
AcDbEntity
  8
0
 62
     0
100
AcDbLine
 10
12.44749686679529
 20
13.2575862828225
 30
0.0
 11
16.35047808566099
 21
17.1605675016882
 31
0.0
  0
LINE
  5
512
330
3A4
100
AcDbEntity
  8
0
 62
     0
100
AcDbLine
 10
18.45047808566085
 20
20.15859311379495
 30
0.0
 11
21.25047808566086
 21
22.95859311379502
 31
0.0
  0
LINE
  5
513
330
3A4
100
AcDbEntity
  8
0
 62
     0
100
AcDbLine
 10
11.54947125468845
 20
13.25758628282261
 30
0.0
 11
16.34653873309975
 21
18.05465376123391
 31
0.0
  0
LINE
  5
514
330
3A4
100
AcDbEntity
  8
0
 62
     0
100
AcDbLine
 10
18.45047808566085
 20
21.0566187259019
 30
0.0
 11
21.25047808566092
 21
23.85661872590197
 31
0.0
  0
LINE
  5
515
330
3A4
100
AcDbEntity
  8
0
 62
     0
100
AcDbLine
 10
23.95144564258163
 20
26.55758628282268
 30
0.0
 11
25.10047808566105
 21
27.7066187259021
 31
0.0
  0
LINE
  5
516
330
3A4
100
AcDbEntity
  8
0
 62
     0
100
AcDbLine
 10
10.6514456425815
 20
13.25758628282256
 30
0.0
 11
16.23687689677842
 21
18.84301753701947
 31
0.0
  0
LINE
  5
517
330
3A4
100
AcDbEntity
  8
0
 62
     0
100
AcDbLine
 10
18.45047808566085
 20
21.95464433800879
 30
0.0
 11
21.25047808566092
 21
24.7546443380088
 31
0.0
  0
LINE
  5
518
330
3A4
100
AcDbEntity
  8
0
 62
     0
100
AcDbLine
 10
13.55047808566093
 20
17.05464433800887
 30
0.0
 11
16.0145381527343
 21
19.51870440508225
 31
0.0
  0
LINE
  5
519
330
3A4
100
AcDbEntity
  8
0
 62
     0
100
AcDbLine
 10
23.05342003047463
 20
26.55758628282257
 30
0.0
 11
25.10047808566105
 21
28.60464433800894
 31
0.0
  0
LINE
  5
51A
330
3A4
100
AcDbEntity
  8
0
 62
     0
100
AcDbLine
 10
9.811145905734576
 20
13.31531215808252
 30
0.0
 11
12.55342003047462
 21
16.05758628282257
 31
0.0
  0
LINE
  5
51B
330
3A4
100
AcDbEntity
  8
0
 62
     0
100
AcDbLine
 10
18.45047808566079
 20
22.85266995011568
 30
0.0
 11
21.41629279144058
 21
25.81848465589548
 31
0.0
  0
LINE
  5
51C
330
3A4
100
AcDbEntity
  8
0
 62
     0
100
AcDbLine
 10
13.54831899405167
 20
17.9505108585065
 30
0.0
 11
15.70610661806228
 21
20.10829848251717
 31
0.0
  0
LINE
  5
51D
330
3A4
100
AcDbEntity
  8
0
 62
     0
100
AcDbLine
 10
21.98957971258812
 20
26.39177157704302
 30
0.0
 11
24.86701067074114
 21
29.26920253519597
 31
0.0
  0
LINE
  5
51E
330
3A4
100
AcDbEntity
  8
0
 62
     0
100
AcDbLine
 10
9.52547808566095
 20
13.92766995011578
 30
0.0
 11
11.65539441836773
 21
16.05758628282257
 31
0.0
  0
LINE
  5
51F
330
3A4
100
AcDbEntity
  8
0
 62
     0
100
AcDbLine
 10
13.32871597455096
 20
18.6289334511128
 30
0.0
 11
15.32386465322338
 21
20.62408212978522
 31
0.0
  0
LINE
  5
520
330
3A4
100
AcDbEntity
  8
0
 62
     0
100
AcDbLine
 10
18.45047808566079
 20
23.75069556222263
 30
0.0
 11
24.05736880626085
 21
29.3575862828227
 31
0.0
  0
LINE
  5
521
330
3A4
100
AcDbEntity
  8
0
 62
     0
100
AcDbLine
 10
9.525478085660893
 20
14.82569556222273
 30
0.0
 11
10.75736880626078
 21
16.05758628282262
 31
0.0
  0
LINE
  5
522
330
3A4
100
AcDbEntity
  8
0
 62
     0
100
AcDbLine
 10
12.90246114624625
 20
19.10070423491493
 30
0.0
 11
14.88236013356862
 21
21.0806032222373
 31
0.0
  0
LINE
  5
523
330
3A4
100
AcDbEntity
  8
0
 62
     0
100
AcDbLine
 10
18.45047808566085
 20
24.64872117432947
 30
0.0
 11
23.15934319415379
 21
29.35758628282247
 31
0.0
  0
LINE
  5
524
330
3A4
100
AcDbEntity
  8
0
 62
     0
100
AcDbLine
 10
9.594430007680671
 20
15.79267309634935
 30
0.0
 11
9.790391272134286
 21
15.98863436080296
 31
0.0
  0
LINE
  5
525
330
3A4
100
AcDbEntity
  8
0
 62
     0
100
AcDbLine
 10
18.47045319981743
 20
25.566721900593
 30
0.0
 11
22.24134246789043
 21
29.33761116866606
 31
0.0
  0
LINE
  5
526
330
3A4
100
AcDbEntity
  8
0
 62
     0
100
AcDbLine
 10
12.45344834019278
 20
19.5497170409684
 30
0.0
 11
14.43334732751515
 21
21.52961602829078
 31
0.0
  0
LINE
  5
527
330
3A4
100
AcDbEntity
  8
0
 62
     0
100
AcDbLine
 10
18.76991663208321
 20
26.76421094496578
 30
0.0
 11
21.0438534235177
 21
29.03814773640028
 31
0.0
  0
LINE
  5
528
330
3A4
100
AcDbEntity
  8
0
 62
     0
100
AcDbLine
 10
12.0044355341393
 20
19.99872984702188
 30
0.0
 11
13.98433452146167
 21
21.97862883434425
 31
0.0
  0
LINE
  5
529
330
3A4
100
AcDbEntity
  8
0
 62
     0
100
AcDbLine
 10
11.55542272808588
 20
20.4477426530753
 30
0.0
 11
13.5353217154082
 21
22.42764164039755
 31
0.0
  0
LINE
  5
52A
330
3A4
100
AcDbEntity
  8
0
 62
     0
100
AcDbLine
 10
11.10640992203241
 20
20.89675545912877
 30
0.0
 11
13.08630890935473
 21
22.87665444645103
 31
0.0
  0
LINE
  5
52B
330
3A4
100
AcDbEntity
  8
0
 62
     0
100
AcDbLine
 10
10.65739711597894
 20
21.34576826518225
 30
0.0
 11
12.63729610330125
 21
23.3256672525045
 31
0.0
  0
LINE
  5
52C
330
3A4
100
AcDbEntity
  8
0
 62
     0
100
AcDbLine
 10
14.97118952151237
 20
26.55758628282257
 30
0.0
 11
15.82547808566085
 21
27.4118748469711
 31
0.0
  0
LINE
  5
52D
330
3A4
100
AcDbEntity
  8
0
 62
     0
100
AcDbLine
 10
10.20846762395359
 20
21.79486438526385
 30
0.0
 11
12.18853326738605
 21
23.77493002869631
 31
0.0
  0
LINE
  5
52E
330
3A4
100
AcDbEntity
  8
0
 62
     0
100
AcDbLine
 10
14.07316390940548
 20
26.55758628282257
 30
0.0
 11
15.8254780856609
 21
28.309900459078
 31
0.0
  0
LINE
  5
52F
330
3A4
100
AcDbEntity
  8
0
 62
     0
100
AcDbLine
 10
9.796999699402022
 20
22.28142207281905
 30
0.0
 11
11.85863638609811
 21
24.3430587595152
 31
0.0
  0
LINE
  5
530
330
3A4
100
AcDbEntity
  8
0
 62
     0
100
AcDbLine
 10
13.17513829729853
 20
26.55758628282257
 30
0.0
 11
15.73891918589976
 21
29.1213671714238
 31
0.0
  0
LINE
  5
531
330
3A4
100
AcDbEntity
  8
0
 62
     0
100
AcDbLine
 10
9.456539093139554
 20
22.83898707866354
 30
0.0
 11
11.80047808566098
 21
25.18292607118497
 31
0.0
  0
LINE
  5
532
330
3A4
100
AcDbEntity
  8
0
 62
     0
100
AcDbLine
 10
12.27464603602152
 20
26.55511963365245
 30
0.0
 11
15.07711268519171
 21
29.35758628282264
 31
0.0
  0
LINE
  5
533
330
3A4
100
AcDbEntity
  8
0
 62
     0
100
AcDbLine
 10
9.195845797407457
 20
23.47631939503839
 30
0.0
 11
11.80294473483104
 21
26.08341833246203
 31
0.0
  0
LINE
  5
534
330
3A4
100
AcDbEntity
  8
0
 62
     0
100
AcDbLine
 10
9.034033835159391
 20
24.21253304489721
 30
0.0
 11
14.17908707308481
 21
29.35758628282264
 31
0.0
  0
LINE
  5
535
330
3A4
100
AcDbEntity
  8
0
 62
     0
100
AcDbLine
 10
9.000478085660972
 20
25.07700290750574
 30
0.0
 11
13.28106146097781
 21
29.35758628282258
 31
0.0
  0
LINE
  5
536
330
3A4
100
AcDbEntity
  8
0
 62
     0
100
AcDbLine
 10
9.000478085660972
 20
25.97502851961264
 30
0.0
 11
12.38303584887086
 21
29.35758628282258
 31
0.0
  0
LINE
  5
537
330
3A4
100
AcDbEntity
  8
0
 62
     0
100
AcDbLine
 10
9.020670096099195
 20
26.89324614215781
 30
0.0
 11
11.4648182263258
 21
29.33739427238442
 31
0.0
  0
ENDBLK
  5
539
330
3A4
100
AcDbEntity
  8
0
100
AcDbBlockEnd
  0
BLOCK
  5
3184
330
317A
100
AcDbEntity
  8
0
100
AcDbBlockBegin
  2
*D2
 70
     1
 10
0.0
 20
0.0
 30
0.0
  3
*D2
  1

  0
LINE
  5
32B2
330
317A
100
AcDbEntity
  8
SUNPOU
440
 16777216
370
    -2
100
AcDbLine
 10
436.208842556145
 20
463.3634748647379
 30
0.0
 11
477.6381461451797
 21
463.3634748647379
 31
0.0
  0
LINE
  5
32B3
330
317A
100
AcDbEntity
  8
SUNPOU
440
 16777216
370
    -2
100
AcDbLine
 10
436.208842556145
 20
373.3634731511378
 30
0.0
 11
477.6381461451797
 21
373.3634731511378
 31
0.0
  0
LINE
  5
32B4
330
317A
100
AcDbEntity
  8
SUNPOU
440
 16777216
370
    -2
100
AcDbLine
 10
474.6381461451797
 20
457.3634748647379
 30
0.0
 11
474.6381461451797
 21
379.3634731511378
 31
0.0
  0
INSERT
  5
32B5
330
317A
100
AcDbEntity
  8
SUNPOU
440
 16777216
370
    -2
100
AcDbBlockReference
  2
_OPEN
 10
474.6381461451797
 20
463.3634748647379
 30
0.0
 41
6.0
 42
6.0
 43
6.0
 50
90.0
  0
INSERT
  5
32B6
330
317A
100
AcDbEntity
  8
SUNPOU
440
 16777216
370
    -2
100
AcDbBlockReference
  2
_OPEN
 10
474.6381461451797
 20
373.3634731511378
 30
0.0
 41
6.0
 42
6.0
 43
6.0
 50
270.0
  0
MTEXT
  5
32B7
330
317A
100
AcDbEntity
  8
SUNPOU
440
 16777216
100
AcDbMText
 10
469.6381461451796
 20
418.3634740079379
 30
0.0
 40
6.0
 41
0.0
 46
0.0
 71
     5
 72
     5
  1
\A1;90
 11
0.0000000000000001
 21
1.0
 31
0.0
 73
     1
 44
1.0
  0
POINT
  5
32B8
330
317A
100
AcDbEntity
  8
DEFPOINTS
 62
     0
440
 16777216
100
AcDbPoint
 10
430.2088425561451
 20
463.3634748647379
 30
0.0
  0
POINT
  5
32B9
330
317A
100
AcDbEntity
  8
DEFPOINTS
 62
     0
440
 16777216
100
AcDbPoint
 10
430.2088425561451
 20
373.3634731511378
 30
0.0
  0
POINT
  5
32BA
330
317A
100
AcDbEntity
  8
DEFPOINTS
 62
     0
440
 16777216
100
AcDbPoint
 10
474.6381461451797
 20
373.3634731511378
 30
0.0
  0
ENDBLK
  5
3185
330
317A
100
AcDbEntity
  8
0
100
AcDbBlockEnd
  0
BLOCK
  5
3190
330
3186
100
AcDbEntity
  8
0
100
AcDbBlockBegin
  2
*D3
 70
     1
 10
0.0
 20
0.0
 30
0.0
  3
*D3
  1

  0
LINE
  5
3297
330
3186
100
AcDbEntity
  8
SUNPOU
440
 16777216
370
    -2
100
AcDbLine
 10
435.2088405296451
 20
271.8582509271378
 30
0.0
 11
495.043880744503
 21
271.8582509271378
 31
0.0
  0
LINE
  5
3298
330
3186
100
AcDbEntity
  8
SUNPOU
440
 16777216
370
    -2
100
AcDbLine
 10
403.3936917619566
 20
116.8582534603378
 30
0.0
 11
495.043880744503
 21
116.8582534603378
 31
0.0
  0
LINE
  5
3299
330
3186
100
AcDbEntity
  8
SUNPOU
440
 16777216
370
    -2
100
AcDbLine
 10
492.043880744503
 20
265.8582509271378
 30
0.0
 11
492.0438807445029
 21
122.8582534603378
 31
0.0
  0
INSERT
  5
329A
330
3186
100
AcDbEntity
  8
SUNPOU
440
 16777216
370
    -2
100
AcDbBlockReference
  2
_OPEN
 10
492.043880744503
 20
271.8582509271378
 30
0.0
 41
6.0
 42
6.0
 43
6.0
 50
90.0
  0
INSERT
  5
329B
330
3186
100
AcDbEntity
  8
SUNPOU
440
 16777216
370
    -2
100
AcDbBlockReference
  2
_OPEN
 10
492.0438807445029
 20
116.8582534603378
 30
0.0
 41
6.0
 42
6.0
 43
6.0
 50
270.0
  0
MTEXT
  5
329C
330
3186
100
AcDbEntity
  8
SUNPOU
440
 16777216
100
AcDbMText
 10
487.0438807445029
 20
194.3582521937379
 30
0.0
 40
6.0
 41
0.0
 46
0.0
 71
     5
 72
     5
  1
\A1;155
 11
0.0000000000000001
 21
1.0
 31
0.0
 73
     1
 44
1.0
  0
POINT
  5
329D
330
3186
100
AcDbEntity
  8
DEFPOINTS
 62
     0
440
 16777216
100
AcDbPoint
 10
429.2088405296452
 20
271.8582509271378
 30
0.0
  0
POINT
  5
329E
330
3186
100
AcDbEntity
  8
DEFPOINTS
 62
     0
440
 16777216
100
AcDbPoint
 10
397.3936917619567
 20
116.8582534603378
 30
0.0
  0
POINT
  5
329F
330
3186
100
AcDbEntity
  8
DEFPOINTS
 62
     0
440
 16777216
100
AcDbPoint
 10
492.0438807445029
 20
116.8582534603378
 30
0.0
  0
ENDBLK
  5
3191
330
3186
100
AcDbEntity
  8
0
100
AcDbBlockEnd
  0
BLOCK
  5
319C
330
3192
100
AcDbEntity
  8
0
100
AcDbBlockBegin
  2
*D4
 70
     1
 10
0.0
 20
0.0
 30
0.0
  3
*D4
  1

  0
LINE
  5
328E
330
3192
100
AcDbEntity
  8
SUNPOU
440
 16777216
370
    -2
100
AcDbLine
 10
435.2088405296451
 20
271.8582509271378
 30
0.0
 11
477.6381461451797
 21
271.8582509271378
 31
0.0
  0
LINE
  5
328F
330
3192
100
AcDbEntity
  8
SUNPOU
440
 16777216
370
    -2
100
AcDbLine
 10
434.742791812145
 20
241.8582497350378
 30
0.0
 11
477.6381461451797
 21
241.8582497350378
 31
0.0
  0
LINE
  5
3290
330
3192
100
AcDbEntity
  8
SUNPOU
440
 16777216
370
    -2
100
AcDbLine
 10
474.6381461451797
 20
265.8582509271378
 30
0.0
 11
474.6381461451797
 21
247.8582497350378
 31
0.0
  0
INSERT
  5
3291
330
3192
100
AcDbEntity
  8
SUNPOU
440
 16777216
370
    -2
100
AcDbBlockReference
  2
_OPEN
 10
474.6381461451797
 20
271.8582509271378
 30
0.0
 41
6.0
 42
6.0
 43
6.0
 50
90.0
  0
INSERT
  5
3292
330
3192
100
AcDbEntity
  8
SUNPOU
440
 16777216
370
    -2
100
AcDbBlockReference
  2
_OPEN
 10
474.6381461451797
 20
241.8582497350378
 30
0.0
 41
6.0
 42
6.0
 43
6.0
 50
270.0
  0
MTEXT
  5
3293
330
3192
100
AcDbEntity
  8
SUNPOU
440
 16777216
100
AcDbMText
 10
469.6381461451796
 20
256.8582503310878
 30
0.0
 40
6.0
 41
0.0
 46
0.0
 71
     5
 72
     5
  1
\A1;30
 11
0.0000000000000001
 21
1.0
 31
0.0
 73
     1
 44
1.0
  0
POINT
  5
3294
330
3192
100
AcDbEntity
  8
DEFPOINTS
 62
     0
440
 16777216
100
AcDbPoint
 10
429.2088405296452
 20
271.8582509271378
 30
0.0
  0
POINT
  5
3295
330
3192
100
AcDbEntity
  8
DEFPOINTS
 62
     0
440
 16777216
100
AcDbPoint
 10
428.742791812145
 20
241.8582497350378
 30
0.0
  0
POINT
  5
3296
330
3192
100
AcDbEntity
  8
DEFPOINTS
 62
     0
440
 16777216
100
AcDbPoint
 10
474.6381461451797
 20
241.8582497350378
 30
0.0
  0
ENDBLK
  5
319D
330
3192
100
AcDbEntity
  8
0
100
AcDbBlockEnd
  0
BLOCK
  5
31A8
330
319E
100
AcDbEntity
  8
0
100
AcDbBlockBegin
  2
*D5
 70
     1
 10
0.0
 20
0.0
 30
0.0
  3
*D5
  1

  0
LINE
  5
3285
330
319E
100
AcDbEntity
  8
SUNPOU
440
 16777216
370
    -2
100
AcDbLine
 10
216.427768866745
 20
276.2797448448378
 30
0.0
 11
216.427768866745
 21
322.4901805990692
 31
0.0
  0
LINE
  5
3286
330
319E
100
AcDbEntity
  8
SUNPOU
440
 16777216
370
    -2
100
AcDbLine
 10
430.7067797586451
 20
276.2797448448378
 30
0.0
 11
430.7067797586451
 21
322.4901805990692
 31
0.0
  0
LINE
  5
3287
330
319E
100
AcDbEntity
  8
SUNPOU
440
 16777216
370
    -2
100
AcDbLine
 10
222.427768866745
 20
319.4901805990692
 30
0.0
 11
424.7067797586451
 21
319.4901805990692
 31
0.0
  0
INSERT
  5
3288
330
319E
100
AcDbEntity
  8
SUNPOU
440
 16777216
370
    -2
100
AcDbBlockReference
  2
_OPEN
 10
216.427768866745
 20
319.4901805990692
 30
0.0
 41
6.0
 42
6.0
 43
6.0
 50
180.0
  0
INSERT
  5
3289
330
319E
100
AcDbEntity
  8
SUNPOU
440
 16777216
370
    -2
100
AcDbBlockReference
  2
_OPEN
 10
430.7067797586451
 20
319.4901805990692
 30
0.0
 41
6.0
 42
6.0
 43
6.0
  0
MTEXT
  5
328A
330
319E
100
AcDbEntity
  8
SUNPOU
440
 16777216
100
AcDbMText
 10
323.5672743126951
 20
324.4901805990692
 30
0.0
 40
6.0
 41
0.0
 46
0.0
 71
     5
 72
     5
  1
\A1;214
 73
     1
 44
1.0
  0
POINT
  5
328B
330
319E
100
AcDbEntity
  8
DEFPOINTS
 62
     0
440
 16777216
100
AcDbPoint
 10
216.427768866745
 20
270.2797448448378
 30
0.0
  0
POINT
  5
328C
330
319E
100
AcDbEntity
  8
DEFPOINTS
 62
     0
440
 16777216
100
AcDbPoint
 10
430.7067797586451
 20
270.2797448448378
 30
0.0
  0
POINT
  5
328D
330
319E
100
AcDbEntity
  8
DEFPOINTS
 62
     0
440
 16777216
100
AcDbPoint
 10
430.7067797586451
 20
319.4901805990692
 30
0.0
  0
ENDBLK
  5
31A9
330
319E
100
AcDbEntity
  8
0
100
AcDbBlockEnd
  0
BLOCK
  5
31B4
330
31AA
100
AcDbEntity
  8
0
100
AcDbBlockBegin
  2
*D6
 70
     1
 10
0.0
 20
0.0
 30
0.0
  3
*D6
  1

  0
LINE
  5
32A0
330
31AA
100
AcDbEntity
  8
SUNPOU
440
 16777216
370
    -2
100
AcDbLine
 10
246.6589127254711
 20
110.8582534603378
 30
0.0
 11
246.6589127254711
 21
77.57566984656733
 31
0.0
  0
LINE
  5
32A1
330
31AA
100
AcDbEntity
  8
SUNPOU
440
 16777216
370
    -2
100
AcDbLine
 10
400.4756452598985
 20
110.8582534603378
 30
0.0
 11
400.4756452598985
 21
77.57566984656733
 31
0.0
  0
LINE
  5
32A2
330
31AA
100
AcDbEntity
  8
SUNPOU
440
 16777216
370
    -2
100
AcDbLine
 10
252.6589127254711
 20
80.57566984656734
 30
0.0
 11
394.4756452598986
 21
80.57566984656734
 31
0.0
  0
INSERT
  5
32A3
330
31AA
100
AcDbEntity
  8
SUNPOU
440
 16777216
370
    -2
100
AcDbBlockReference
  2
_OPEN
 10
246.6589127254711
 20
80.57566984656734
 30
0.0
 41
6.0
 42
6.0
 43
6.0
 50
180.0
  0
INSERT
  5
32A4
330
31AA
100
AcDbEntity
  8
SUNPOU
440
 16777216
370
    -2
100
AcDbBlockReference
  2
_OPEN
 10
400.4756452598985
 20
80.57566984656734
 30
0.0
 41
6.0
 42
6.0
 43
6.0
  0
MTEXT
  5
32A5
330
31AA
100
AcDbEntity
  8
SUNPOU
440
 16777216
100
AcDbMText
 10
323.5672789926848
 20
85.57566984656734
 30
0.0
 40
6.0
 41
0.0
 46
0.0
 71
     5
 72
     5
  1
\A1;154
 73
     1
 44
1.0
  0
POINT
  5
32A6
330
31AA
100
AcDbEntity
  8
DEFPOINTS
 62
     0
440
 16777216
100
AcDbPoint
 10
246.6589127254711
 20
116.8582534603378
 30
0.0
  0
POINT
  5
32A7
330
31AA
100
AcDbEntity
  8
DEFPOINTS
 62
     0
440
 16777216
100
AcDbPoint
 10
400.4756452598985
 20
116.8582534603378
 30
0.0
  0
POINT
  5
32A8
330
31AA
100
AcDbEntity
  8
DEFPOINTS
 62
     0
440
 16777216
100
AcDbPoint
 10
400.4756452598985
 20
80.57566984656734
 30
0.0
  0
ENDBLK
  5
31B5
330
31AA
100
AcDbEntity
  8
0
100
AcDbBlockEnd
  0
BLOCK
  5
31C0
330
31B6
100
AcDbEntity
  8
0
100
AcDbBlockBegin
  2
*D7
 70
     1
 10
0.0
 20
0.0
 30
0.0
  3
*D7
  1

  0
LINE
  5
32A9
330
31B6
100
AcDbEntity
  8
SUNPOU
440
 16777216
370
    -2
100
AcDbLine
 10
210.925713519745
 20
473.3634746412376
 30
0.0
 11
165.9330041318972
 21
473.3634746412376
 31
0.0
  0
LINE
  5
32AA
330
31B6
100
AcDbEntity
  8
SUNPOU
440
 16777216
370
    -2
100
AcDbLine
 10
210.925713519745
 20
363.3634752373378
 30
0.0
 11
165.9330041318971
 21
363.3634752373378
 31
0.0
  0
LINE
  5
32AB
330
31B6
100
AcDbEntity
  8
SUNPOU
440
 16777216
370
    -2
100
AcDbLine
 10
168.9330041318972
 20
467.3634746412377
 30
0.0
 11
168.9330041318972
 21
369.3634752373378
 31
0.0
  0
INSERT
  5
32AC
330
31B6
100
AcDbEntity
  8
SUNPOU
440
 16777216
370
    -2
100
AcDbBlockReference
  2
_OPEN
 10
168.9330041318972
 20
473.3634746412376
 30
0.0
 41
6.0
 42
6.0
 43
6.0
 50
90.0
  0
INSERT
  5
32AD
330
31B6
100
AcDbEntity
  8
SUNPOU
440
 16777216
370
    -2
100
AcDbBlockReference
  2
_OPEN
 10
168.9330041318972
 20
363.3634752373378
 30
0.0
 41
6.0
 42
6.0
 43
6.0
 50
270.0
  0
MTEXT
  5
32AE
330
31B6
100
AcDbEntity
  8
SUNPOU
440
 16777216
100
AcDbMText
 10
163.9330041318971
 20
418.3634749392878
 30
0.0
 40
6.0
 41
0.0
 46
0.0
 71
     5
 72
     5
  1
\A1;110
 11
0.0000000000000001
 21
1.0
 31
0.0
 73
     1
 44
1.0
  0
POINT
  5
32AF
330
31B6
100
AcDbEntity
  8
DEFPOINTS
 62
     0
440
 16777216
100
AcDbPoint
 10
216.9257135197451
 20
473.3634746412376
 30
0.0
  0
POINT
  5
32B0
330
31B6
100
AcDbEntity
  8
DEFPOINTS
 62
     0
440
 16777216
100
AcDbPoint
 10
216.9257135197451
 20
363.3634752373378
 30
0.0
  0
POINT
  5
32B1
330
31B6
100
AcDbEntity
  8
DEFPOINTS
 62
     0
440
 16777216
100
AcDbPoint
 10
168.9330041318972
 20
363.3634752373378
 30
0.0
  0
ENDBLK
  5
31C1
330
31B6
100
AcDbEntity
  8
0
100
AcDbBlockEnd
  0
BLOCK
  5
31CC
330
31C2
100
AcDbEntity
  8
0
100
AcDbBlockBegin
  2
*D8
 70
     1
 10
0.0
 20
0.0
 30
0.0
  3
*D8
  1

  0
LINE
  5
327C
330
31C2
100
AcDbEntity
  8
SUNPOU
440
 16777216
370
    -2
100
AcDbLine
 10
559.331072783345
 20
277.3532987986056
 30
0.0
 11
559.331072783345
 21
337.7947939128069
 31
0.0
  0
LINE
  5
327D
330
31C2
100
AcDbEntity
  8
SUNPOU
440
 16777216
370
    -2
100
AcDbLine
 10
669.4300937649448
 20
277.3532987986056
 30
0.0
 11
669.4300937649448
 21
337.7947939128069
 31
0.0
  0
LINE
  5
327E
330
31C2
100
AcDbEntity
  8
SUNPOU
440
 16777216
370
    -2
100
AcDbLine
 10
565.3310727833449
 20
334.7947939128069
 30
0.0
 11
663.4300937649448
 21
334.7947939128069
 31
0.0
  0
INSERT
  5
327F
330
31C2
100
AcDbEntity
  8
SUNPOU
440
 16777216
370
    -2
100
AcDbBlockReference
  2
_OPEN
 10
559.331072783345
 20
334.7947939128069
 30
0.0
 41
6.0
 42
6.0
 43
6.0
 50
180.0
  0
INSERT
  5
3280
330
31C2
100
AcDbEntity
  8
SUNPOU
440
 16777216
370
    -2
100
AcDbBlockReference
  2
_OPEN
 10
669.4300937649448
 20
334.7947939128069
 30
0.0
 41
6.0
 42
6.0
 43
6.0
  0
MTEXT
  5
3281
330
31C2
100
AcDbEntity
  8
SUNPOU
440
 16777216
100
AcDbMText
 10
614.3805832741449
 20
339.7947939128069
 30
0.0
 40
6.0
 41
0.0
 46
0.0
 71
     5
 72
     5
  1
\A1;110
 73
     1
 44
1.0
  0
POINT
  5
3282
330
31C2
100
AcDbEntity
  8
DEFPOINTS
 62
     0
440
 16777216
100
AcDbPoint
 10
559.331072783345
 20
271.3532987986056
 30
0.0
  0
POINT
  5
3283
330
31C2
100
AcDbEntity
  8
DEFPOINTS
 62
     0
440
 16777216
100
AcDbPoint
 10
669.4300937649448
 20
271.3532987986056
 30
0.0
  0
POINT
  5
3284
330
31C2
100
AcDbEntity
  8
DEFPOINTS
 62
     0
440
 16777216
100
AcDbPoint
 10
669.4300937649448
 20
334.7947939128069
 30
0.0
  0
ENDBLK
  5
31CD
330
31C2
100
AcDbEntity
  8
0
100
AcDbBlockEnd
  0
BLOCK
  5
31D8
330
31CE
100
AcDbEntity
  8
0
100
AcDbBlockBegin
  2
*D9
 70
     1
 10
0.0
 20
0.0
 30
0.0
  3
*D9
  1

  0
LINE
  5
3273
330
31CE
100
AcDbEntity
  8
SUNPOU
440
 16777216
370
    -2
100
AcDbLine
 10
569.380583274145
 20
277.3582497342378
 30
0.0
 11
569.380583274145
 21
322.4901805990692
 31
0.0
  0
LINE
  5
3274
330
31CE
100
AcDbEntity
  8
SUNPOU
440
 16777216
370
    -2
100
AcDbLine
 10
659.380583274145
 20
277.3582497342378
 30
0.0
 11
659.380583274145
 21
322.4901805990692
 31
0.0
  0
LINE
  5
3275
330
31CE
100
AcDbEntity
  8
SUNPOU
440
 16777216
370
    -2
100
AcDbLine
 10
575.3805832741449
 20
319.4901805990692
 30
0.0
 11
653.380583274145
 21
319.4901805990692
 31
0.0
  0
INSERT
  5
3276
330
31CE
100
AcDbEntity
  8
SUNPOU
440
 16777216
370
    -2
100
AcDbBlockReference
  2
_OPEN
 10
569.380583274145
 20
319.4901805990692
 30
0.0
 41
6.0
 42
6.0
 43
6.0
 50
180.0
  0
INSERT
  5
3277
330
31CE
100
AcDbEntity
  8
SUNPOU
440
 16777216
370
    -2
100
AcDbBlockReference
  2
_OPEN
 10
659.380583274145
 20
319.4901805990692
 30
0.0
 41
6.0
 42
6.0
 43
6.0
  0
MTEXT
  5
3278
330
31CE
100
AcDbEntity
  8
SUNPOU
440
 16777216
100
AcDbMText
 10
614.380583274145
 20
324.4901805990692
 30
0.0
 40
6.0
 41
0.0
 46
0.0
 71
     5
 72
     5
  1
\A1;90
 73
     1
 44
1.0
  0
POINT
  5
3279
330
31CE
100
AcDbEntity
  8
DEFPOINTS
 62
     0
440
 16777216
100
AcDbPoint
 10
569.380583274145
 20
271.3582497342378
 30
0.0
  0
POINT
  5
327A
330
31CE
100
AcDbEntity
  8
DEFPOINTS
 62
     0
440
 16777216
100
AcDbPoint
 10
659.380583274145
 20
271.3582497342378
 30
0.0
  0
POINT
  5
327B
330
31CE
100
AcDbEntity
  8
DEFPOINTS
 62
     0
440
 16777216
100
AcDbPoint
 10
659.380583274145
 20
319.4901805990692
 30
0.0
  0
ENDBLK
  5
31D9
330
31CE
100
AcDbEntity
  8
0
100
AcDbBlockEnd
  0
BLOCK
  5
372A
330
3720
100
AcDbEntity
  8
0
100
AcDbBlockBegin
  2
*D10
 70
     1
 10
0.0
 20
0.0
 30
0.0
  3
*D10
  1

  0
LINE
  5
3A31
330
3720
100
AcDbEntity
  8
SUNPOU
440
 16777216
100
AcDbLine
 10
371.631162475045
 20
442.3634751479378
 30
0.0
 11
373.8666325917689
 21
442.3634751479378
 31
0.0
  0
LINE
  5
3A32
330
3720
100
AcDbEntity
  8
SUNPOU
440
 16777216
100
AcDbLine
 10
371.631162475045
 20
394.3634710053378
 30
0.0
 11
373.8666325917689
 21
394.3634710053378
 31
0.0
  0
LINE
  5
3A33
330
3720
100
AcDbEntity
  8
SUNPOU
440
 16777216
100
AcDbLine
 10
370.8666325917688
 20
435.3634751479378
 30
0.0
 11
370.8666325917688
 21
401.3634710053378
 31
0.0
  0
INSERT
  5
3A34
330
3720
100
AcDbEntity
  8
SUNPOU
440
 16777216
100
AcDbBlockReference
  2
_OPEN
 10
370.8666325917688
 20
442.3634751479378
 30
0.0
 41
7.0
 42
7.0
 43
7.0
 50
90.0
  0
INSERT
  5
3A35
330
3720
100
AcDbEntity
  8
SUNPOU
440
 16777216
100
AcDbBlockReference
  2
_OPEN
 10
370.8666325917688
 20
394.3634710053378
 30
0.0
 41
7.0
 42
7.0
 43
7.0
 50
270.0
  0
MTEXT
  5
3A36
330
3720
100
AcDbEntity
  8
SUNPOU
440
 16777216
100
AcDbMText
 10
365.8666325917687
 20
418.3634730766378
 30
0.0
 40
6.0
 41
0.0
 46
0.0
 71
     5
 72
     5
  1
\A1;48
 11
0.0000000000000001
 21
1.0
 31
0.0
 73
     1
 44
1.0
  0
POINT
  5
3A37
330
3720
100
AcDbEntity
  8
DEFPOINTS
 62
     0
440
 16777216
100
AcDbPoint
 10
365.631162475045
 20
442.3634751479378
 30
0.0
  0
POINT
  5
3A38
330
3720
100
AcDbEntity
  8
DEFPOINTS
 62
     0
440
 16777216
100
AcDbPoint
 10
365.631162475045
 20
394.3634710053378
 30
0.0
  0
POINT
  5
3A39
330
3720
100
AcDbEntity
  8
DEFPOINTS
 62
     0
440
 16777216
100
AcDbPoint
 10
370.8666325917688
 20
394.3634710053378
 30
0.0
  0
ENDBLK
  5
372B
330
3720
100
AcDbEntity
  8
0
100
AcDbBlockEnd
  0
BLOCK
  5
3F68
330
3F67
100
AcDbEntity
  8
0
100
AcDbBlockBegin
  2
_Dot
 70
     0
 10
0.0
 20
0.0
 30
0.0
  3
_Dot
  1

  0
LWPOLYLINE
  5
3F69
330
3F67
100
AcDbEntity
  8
0
  6
ByBlock
 62
     0
100
AcDbPolyline
 90
        2
 70
     1
 43
0.5
 10
-0.25
 20
0.0
 42
1.0
 10
0.25
 20
0.0
 42
1.0
  0
LINE
  5
3F6A
330
3F67
100
AcDbEntity
  8
0
  6
ByBlock
 62
     0
370
    -2
100
AcDbLine
 10
-0.5
 20
0.0
 30
0.0
 11
-1.0
 21
0.0
 31
0.0
  0
ENDBLK
  5
3F6B
330
3F67
100
AcDbEntity
  8
0
100
AcDbBlockEnd
  0
BLOCK
  5
471B
330
471A
100
AcDbEntity
  8
0
100
AcDbBlockBegin
  2
*D12
 70
     1
 10
0.0
 20
0.0
 30
0.0
  3
*D12
  1

  0
LINE
  5
471D
330
471A
100
AcDbEntity
  8
SUNPOU
440
 16777216
100
AcDbLine
 10
10.05047808566087
 20
559.3825862828226
 30
0.0
 11
10.05047808566086
 21
506.1671011883176
 31
0.0
  0
LINE
  5
471E
330
471A
100
AcDbEntity
  8
SUNPOU
440
 16777216
100
AcDbLine
 10
806.8504780856606
 20
558.5825862828227
 30
0.0
 11
806.8504780856606
 21
506.1671011883176
 31
0.0
  0
LINE
  5
471F
330
471A
100
AcDbEntity
  8
SUNPOU
440
 16777216
100
AcDbLine
 10
17.05047808566086
 20
509.1671011883176
 30
0.0
 11
799.8504780856606
 21
509.1671011883176
 31
0.0
  0
INSERT
  5
4720
330
471A
100
AcDbEntity
  8
SUNPOU
440
 16777216
100
AcDbBlockReference
  2
_OPEN
 10
10.05047808566086
 20
509.1671011883176
 30
0.0
 41
7.0
 42
7.0
 43
7.0
 50
180.0
  0
INSERT
  5
4721
330
471A
100
AcDbEntity
  8
SUNPOU
440
 16777216
100
AcDbBlockReference
  2
_OPEN
 10
806.8504780856606
 20
509.1671011883176
 30
0.0
 41
7.0
 42
7.0
 43
7.0
  0
MTEXT
  5
4722
330
471A
100
AcDbEntity
  8
SUNPOU
440
 16777216
100
AcDbMText
 10
408.4504780856607
 20
514.1671011883176
 30
0.0
 40
6.0
 41
0.0
 46
0.0
 71
     5
 72
     1
  1
\A1;797
 73
     1
 44
1.0
  0
POINT
  5
4723
330
471A
100
AcDbEntity
  8
DEFPOINTS
 62
     0
440
 16777216
100
AcDbPoint
 10
10.05047808566087
 20
565.3825862828226
 30
0.0
  0
POINT
  5
4724
330
471A
100
AcDbEntity
  8
DEFPOINTS
 62
     0
440
 16777216
100
AcDbPoint
 10
806.8504780856606
 20
564.5825862828226
 30
0.0
  0
POINT
  5
4725
330
471A
100
AcDbEntity
  8
DEFPOINTS
 62
     0
440
 16777216
100
AcDbPoint
 10
806.8504780856606
 20
509.1671011883176
 30
0.0
  0
ENDBLK
  5
471C
330
471A
100
AcDbEntity
  8
0
100
AcDbBlockEnd
  0
ENDSEC
  0
SECTION
  2
ENTITIES
  0
LWPOLYLINE
  5
6C0
330
1A
100
AcDbEntity
  8
ZUWAKU
100
AcDbPolyline
 90
        4
 70
     1
 43
0.0
 10
10.85047808566059
 20
564.5825862828226
 10
10.85047808566059
 20
14.58258628282272
 10
806.8504780856606
 20
14.58258628282272
 10
806.8504780856606
 20
564.5825862828226
  0
LWPOLYLINE
  5
6C1
330
1A
100
AcDbEntity
  8
ZUWAKU
100
AcDbPolyline
 90
        4
 70
     1
 43
0.0
 10
10.45047808566073
 20
564.9825862828227
 10
10.45047808566073
 20
14.18258628282274
 10
807.2504780856606
 20
14.18258628282272
 10
807.2504780856606
 20
564.9825862828227
  0
LWPOLYLINE
  5
6C2
330
1A
100
AcDbEntity
  8
ZUWAKU
100
AcDbPolyline
 90
        4
 70
     1
 43
0.0
 10
10.05047808566087
 20
565.3825862828226
 10
10.05047808566087
 20
13.78258628282265
 10
807.6504780856607
 20
13.78258628282271
 10
807.6504780856607
 20
565.3825862828227
  0
LWPOLYLINE
  5
6C3
330
1A
100
AcDbEntity
  8
ZUWAKU
100
AcDbPolyline
 90
        4
 70
     1
 43
0.0
 10
10.65047808566078
 20
564.7825862828227
 10
10.65047808566078
 20
14.38258628282267
 10
807.0504780856609
 20
14.38258628282271
 10
807.0504780856609
 20
564.7825862828227
  0
LWPOLYLINE
  5
6C4
330
1A
100
AcDbEntity
  8
ZUWAKU
100
AcDbPolyline
 90
        4
 70
     1
 43
0.0
 10
10.25047808566069
 20
565.1825862828227
 10
10.25047808566069
 20
13.98258628282269
 10
807.4504780856605
 20
13.98258628282271
 10
807.450478085661
 20
565.1825862828227
  0
LINE
  5
6C5
330
1A
100
AcDbEntity
  8
ZUWAKU
100
AcDbLine
 10
10.05047808566087
 20
43.78258628282265
 30
0.0
 11
807.4504780856605
 21
43.78258628282265
 31
0.0
  0
LINE
  5
6C6
330
1A
100
AcDbEntity
  8
ZUWAKU
100
AcDbLine
 10
10.05047808566087
 20
43.98258628282265
 30
0.0
 11
807.4504780856605
 21
43.98258628282265
 31
0.0
  0
LINE
  5
6C7
330
1A
100
AcDbEntity
  8
ZUWAKU
100
AcDbLine
 10
10.05047808566087
 20
44.18258628282266
 30
0.0
 11
807.4504780856605
 21
44.18258628282266
 31
0.0
  0
LINE
  5
6C8
330
1A
100
AcDbEntity
  8
ZUWAKU
100
AcDbLine
 10
10.05047808566087
 20
44.38258628282265
 30
0.0
 11
807.4504780856605
 21
44.38258628282265
 31
0.0
  0
LINE
  5
6C9
330
1A
100
AcDbEntity
  8
ZUWAKU
100
AcDbLine
 10
10.05047808566087
 20
44.58258628282266
 30
0.0
 11
807.4504780856605
 21
44.58258628282266
 31
0.0
  0
LINE
  5
6CA
330
1A
100
AcDbEntity
  8
ZUWAKU
100
AcDbLine
 10
218.6970793757287
 20
29.18258628282269
 30
0.0
 11
457.474842056652
 21
29.18258628282269
 31
0.0
  0
LINE
  5
6CB
330
1A
100
AcDbEntity
  8
ZUWAKU
100
AcDbLine
 10
218.6970793757287
 20
29.38258628282269
 30
0.0
 11
457.474842056652
 21
29.38258628282269
 31
0.0
  0
LINE
  5
6CC
330
1A
100
AcDbEntity
  8
ZUWAKU
100
AcDbLine
 10
218.6970793757287
 20
28.98258628282269
 30
0.0
 11
457.474842056652
 21
28.98258628282268
 31
0.0
  0
LINE
  5
6D2
330
1A
100
AcDbEntity
  8
ZUWAKU
100
AcDbLine
 10
22.57284175945824
 20
29.44753577648383
 30
0.0
 11
25.48263973410303
 21
26.53773780183917
 31
0.0
  0
LINE
  5
6D3
330
1A
100
AcDbEntity
  8
ZUWAKU
100
AcDbLine
 10
27.46253872142552
 20
28.51763678916148
 30
0.0
 11
24.55274074678073
 21
31.42743476380616
 31
0.0
  0
ARC
  5
6D4
330
1A
100
AcDbEntity
  8
ZUWAKU
100
AcDbCircle
 10
24.66769024044197
 20
33.70758628282266
 30
0.0
 40
0.525
100
AcDbArc
 50
90.0
 51
180.0
  0
LINE
  5
6D5
330
1A
100
AcDbEntity
  8
ZUWAKU
100
AcDbLine
 10
24.14269024044188
 20
37.03258628282266
 30
0.0
 11
27.64269024044188
 21
37.03258628282266
 31
0.0
  0
LINE
  5
6D6
330
1A
100
AcDbEntity
  8
ZUWAKU
100
AcDbLine
 10
22.39269024044188
 20
23.73258628282265
 30
0.0
 11
25.36769024044179
 21
23.73258628282265
 31
0.0
  0
LINE
  5
6D7
330
1A
100
AcDbEntity
  8
ZUWAKU
100
AcDbLine
 10
22.39269024044188
 20
20.93258628282265
 30
0.0
 11
25.89269024044188
 21
20.93258628282265
 31
0.0
  0
INSERT
  5
6D8
330
1A
100
AcDbEntity
  8
ZUWAKU
  6
Continuous
100
AcDbBlockReference
  2
*X1
 10
12.34221215478101
 20
7.675000000000004
 30
0.0
1001
ACAD
1000
HATCH
1002
{
1070
    19
1000
ANSI37
1040
0.2
1040
0.0
1000
R14_HATCH_DATA
1000
4E4
1011
13.34221215478101
1021
7.675000000000004
1031
0.0
1011
12.34221215478101
1021
8.675000000000004
1031
0.0
1011
12.34221215478101
1021
7.675000000000004
1031
1.0
1040
0.0
1010
0.0
1020
0.0
1030
1.0
1000
ANSI37
1070
     0
1070
     0
1071
        8
1071
        7
1070
     1
1070
     1
1071
       24
1040
12.2105285919996
1040
23.75243476380623
1040
-0.1989123673796348
1040
11.80047808566087
1040
24.74238425746728
1040
0.0
1040
11.80047808566087
1040
26.03258628282266
1040
-0.4142135623730912
1040
12.32547808566085
1040
26.55758628282265
1040
0.0
1040
15.30047808566076
1040
26.55758628282265
1040
0.4142135623731546
1040
15.82547808566085
1040
27.08258628282264
1040
0.0
1040
15.82547808566085
1040
28.83258628282265
1040
0.4142135623731586
1040
15.30047808566076
1040
29.35758628282265
1040
0.0
1040
11.80047808566087
1040
29.35758628282265
1040
0.4142135623730928
1040
9.000478085660915
1040
26.55758628282268
1040
0.0
1040
9.000478085660915
1040
24.74238425746741
1040
0.1989123673796619
1040
10.23062960467735
1040
21.7725357764838
1040
0.0
1040
13.14042757932202
1040
18.86273780183914
1040
-0.1989123673796613
1040
13.55047808566087
1040
17.87278830817795
1040
0.0
1040
13.55047808566087
1040
16.58258628282264
1040
-0.4142135623730911
1040
13.02547808566089
1040
16.05758628282265
1040
0.0
1040
10.05047808566098
1040
16.05758628282265
1040
0.4142135623731526
1040
9.525478085660893
1040
15.53258628282266
1040
0.0
1040
9.525478085660893
1040
13.78258628282264
1040
0.4142135623731526
1040
10.05047808566098
1040
13.25758628282265
1040
0.0
1040
13.55047808566087
1040
13.25758628282265
1040
0.4142135623731044
1040
16.35047808566094
1040
16.05758628282262
1040
0.0
1040
16.35047808566094
1040
17.87278830817789
1040
0.1989123673796604
1040
15.12032656664439
1040
20.84263678916144
1040
0.0
1071
        0
1071
        7
1070
     1
1070
     1
1071
       16
1040
21.25047808566092
1040
25.15758628282266
1040
-0.4142135623730935
1040
22.65047808566089
1040
26.55758628282265
1040
0.0
1040
24.57547808566085
1040
26.55758628282265
1040
0.4142135623731546
1040
25.10047808566094
1040
27.08258628282264
1040
0.0
1040
25.10047808566094
1040
28.83258628282265
1040
0.4142135623730951
1040
24.57547808566096
1040
29.35758628282265
1040
0.0
1040
22.65047808566078
1040
29.35758628282261
1040
0.4142135623730892
1040
18.45047808566085
1040
25.15758628282259
1040
0.0
1040
18.45047808566085
1040
17.45758628282267
1040
0.4142135623730969
1040
22.65047808566089
1040
13.25758628282265
1040
0.0
1040
24.57547808566085
1040
13.25758628282265
1040
0.4142135623731526
1040
25.10047808566094
1040
13.78258628282264
1040
0.0
1040
25.10047808566094
1040
15.53258628282266
1040
0.4142135623730891
1040
24.57547808566096
1040
16.05758628282265
1040
0.0
1040
22.65047808566089
1040
16.05758628282265
1040
-0.4142135623730928
1040
21.25047808566092
1040
17.45758628282264
1040
0.0
1071
        0
1071
        7
1070
     1
1070
     1
1071
        2
1040
21.95047808566085
1040
21.30758628282265
1040
1.0
1040
25.45047808566085
1040
21.30758628282265
1040
1.0
1071
        0
1071
        7
1070
     1
1070
     1
1071
       26
1040
35.02312456783887
1040
25.31263347638608
1040
0.0
1040
36.08476420097668
1040
28.67449231465567
1040
0.5069206636600134
1040
35.58413330178132
1040
29.35758628282265
1040
0.0
1040
33.8852439221721
1040
29.35758628282265
1040
0.3272098845218764
1040
33.38461302297674
1040
28.99068025098962
1040
0.0
1040
31.51634314834496
1040
23.07449231465573
1040
-0.3272098845219541
1040
31.01571224914949
1040
22.70758628282265
1040
0.0
1040
30.87547808566103
1040
22.70758628282265
1040
-0.4142135623731526
1040
30.35047808566094
1040
23.23258628282263
1040
0.0
1040
30.35047808566094
1040
28.83258628282265
1040
0.4142135623730951
1040
29.82547808566096
1040
29.35758628282265
1040
0.0
1040
28.07547808566085
1040
29.35758628282265
1040
0.4142135623730871
1040
27.55047808566087
1040
28.83258628282267
1040
0.0
1040
27.55047808566087
1040
13.78258628282264
1040
0.4142135623730891
1040
28.07547808566085
1040
13.25758628282265
1040
0.0
1040
29.82547808566085
1040
13.25758628282265
1040
0.4142135623731526
1040
30.35047808566094
1040
13.78258628282264
1040
0.0
1040
30.35047808566094
1040
19.38258628282266
1040
-0.4142135623731526
1040
30.87547808566103
1040
19.90758628282265
1040
0.0
1040
31.0157122491496
1040
19.90758628282265
1040
-0.3272098845218915
1040
31.51634314834496
1040
19.54068025098957
1040
0.0
1040
33.38461302297674
1040
13.62449231465572
1040
0.3272098845218902
1040
33.8852439221721
1040
13.25758628282265
1040
0.0
1040
35.58413330178132
1040
13.25758628282265
1040
0.5069206636600335
1040
36.08476420097668
1040
13.94068025098966
1040
0.0
1040
33.75837282250302
1040
21.30758628282279
1040
0.0
1071
        0
1071
        7
1070
     1
1070
     1
1071
        8
1040
41.20047808566084
1040
28.83258628282266
1040
0.4142135623731546
1040
40.67547808566075
1040
29.35758628282265
1040
0.0
1040
38.92547808566098
1040
29.35758628282265
1040
0.4142135623731507
1040
38.40047808566089
1040
28.83258628282267
1040
0.0
1040
38.40047808566089
1040
13.78258628282264
1040
0.4142135623731526
1040
38.92547808566098
1040
13.25758628282265
1040
0.0
1040
40.67547808566075
1040
13.25758628282265
1040
0.4142135623731526
1040
41.20047808566084
1040
13.78258628282264
1040
0.0
1071
        0
1071
        7
1070
     1
1070
     1
1071
       24
1040
46.10047808566093
1040
26.03258628282266
1040
-0.4142135623731546
1040
46.62547808566102
1040
26.55758628282265
1040
0.0
1040
49.60047808566094
1040
26.55758628282265
1040
0.4142135623730911
1040
50.12547808566091
1040
27.08258628282264
1040
0.0
1040
50.12547808566091
1040
28.83258628282265
1040
0.4142135623730952
1040
49.60047808566094
1040
29.35758628282265
1040
0.0
1040
46.10047808566093
1040
29.35758628282265
1040
0.4142135623731048
1040
43.30047808566087
1040
26.55758628282268
1040
0.0
1040
43.30047808566087
1040
24.74238425746741
1040
0.1989123673796613
1040
44.53062960467741
1040
21.77253577648386
1040
0.0
1040
47.44042757932208
1040
18.86273780183919
1040
-0.1989123673796402
1040
47.85047808566093
1040
17.87278830817811
1040
0.0
1040
47.85047808566093
1040
16.58258628282264
1040
-0.4142135623730911
1040
47.32547808566096
1040
16.05758628282265
1040
0.0
1040
44.35047808566094
1040
16.05758628282265
1040
0.4142135623731526
1040
43.82547808566084
1040
15.53258628282266
1040
0.0
1040
43.82547808566084
1040
13.78258628282264
1040
0.4142135623730891
1040
44.35047808566082
1040
13.25758628282265
1040
0.0
1040
47.85047808566093
1040
13.25758628282265
1040
0.4142135623730925
1040
50.65047808566089
1040
16.05758628282262
1040
0.0
1040
50.65047808566089
1040
17.87278830817789
1040
0.1989123673796675
1040
49.42032656664435
1040
20.84263678916155
1040
0.0
1040
46.51052859199978
1040
23.75243476380607
1040
-0.1989123673796652
1040
46.10047808566093
1040
24.74238425746724
1040
0.0
1071
        0
1071
        7
1070
     1
1070
     1
1071
       16
1040
55.55047808566087
1040
28.83258628282264
1040
0.414213562373103
1040
55.02547808566089
1040
29.35758628282265
1040
0.0
1040
53.27547808566089
1040
29.35758628282265
1040
0.4142135623730871
1040
52.75047808566092
1040
28.83258628282267
1040
0.0
1040
52.75047808566092
1040
16.05758628282262
1040
0.4142135623730926
1040
55.55047808566087
1040
13.25758628282265
1040
0.0
1040
59.05047808566087
1040
13.25758628282265
1040
0.4142135623731044
1040
61.85047808566094
1040
16.05758628282262
1040
0.0
1040
61.85047808566094
1040
28.83258628282265
1040
0.4142135623730951
1040
61.32547808566096
1040
29.35758628282265
1040
0.0
1040
59.57547808566085
1040
29.35758628282265
1040
0.4142135623730871
1040
59.05047808566087
1040
28.83258628282267
1040
0.0
1040
59.05047808566087
1040
17.10758628282262
1040
-0.414213562373088
1040
58.00047808566091
1040
16.05758628282265
1040
0.0
1040
56.60047808566094
1040
16.05758628282265
1040
-0.4142135623731197
1040
55.55047808566087
1040
17.10758628282262
1040
0.0
1071
        0
1071
        7
1070
     1
1070
     1
1071
        8
1040
66.75047808566091
1040
28.83258628282267
1040
0.4142135623730871
1040
66.22547808566094
1040
29.35758628282265
1040
0.0
1040
64.47547808566094
1040
29.35758628282265
1040
0.4142135623731507
1040
63.95047808566085
1040
28.83258628282267
1040
0.0
1040
63.95047808566085
1040
13.78258628282264
1040
0.4142135623730891
1040
64.47547808566082
1040
13.25758628282265
1040
0.0
1040
66.22547808566094
1040
13.25758628282265
1040
0.4142135623730891
1040
66.75047808566091
1040
13.78258628282264
1040
0.0
1071
        0
1070
     0
1070
     1
1040
0.0
1040
0.2
1070
     0
1070
     2
1040
0.7853981633974483
1040
-903.2340384037992
1040
-7.092413717177286
1040
-0.4490128060534576
1040
0.4490128060534577
1070
     0
1040
2.356194490192344
1040
-903.2340384037992
1040
-7.092413717177286
1040
-0.4490128060534577
1040
-0.4490128060534576
1070
     0
1040
0.057451373970553
1071
        8
1040
13.78812089390305
1040
21.2747599287082
1040
0.0
1040
20.11278093731892
1040
24.95164846527366
1040
0.0
1040
22.87263381653941
1040
21.61946792889336
1040
0.0
1040
28.62232591251689
1040
22.30888392926415
1040
0.0
1040
39.54673794983648
1040
22.76849619680576
1040
0.0
1040
44.6064668260093
1040
25.52616259922986
1040
0.0
1040
54.2659519032801
1040
24.83674419791766
1040
0.0
1040
65.53534555050248
1040
25.29635646545928
1040
0.0
1002
}
  0
ARC
  5
6D9
330
1A
100
AcDbEntity
  8
ZUWAKU
100
AcDbCircle
 10
22.39269024044188
 20
23.20758628282265
 30
0.0
 40
0.525
100
AcDbArc
 50
90.0
 51
180.0
  0
ARC
  5
6DA
330
1A
100
AcDbEntity
  8
ZUWAKU
100
AcDbCircle
 10
22.39269024044188
 20
21.45758628282266
 30
0.0
 40
0.525
100
AcDbArc
 50
180.0
 51
270.0
  0
LINE
  5
6DB
330
1A
100
AcDbEntity
  8
ZUWAKU
100
AcDbLine
 10
21.86769024044179
 20
21.45758628282266
 30
0.0
 11
21.86769024044179
 21
23.20758628282265
 31
0.0
  0
ARC
  5
6DC
330
1A
100
AcDbEntity
  8
ZUWAKU
100
AcDbCircle
 10
25.54269024044197
 20
32.41738425746735
 30
0.0
 40
4.199999999999999
100
AcDbArc
 50
180.0
 51
224.9999999999996
  0
ARC
  5
6DD
330
1A
100
AcDbEntity
  8
ZUWAKU
100
AcDbCircle
 10
25.54269024044197
 20
32.41738425746735
 30
0.0
 40
1.399999999999999
100
AcDbArc
 50
180.0000000000016
 51
224.9999999999994
  0
ARC
  5
6DE
330
1A
100
AcDbEntity
  8
ZUWAKU
100
AcDbCircle
 10
24.14269024044188
 20
34.23258628282265
 30
0.0
 40
2.799999999999999
100
AcDbArc
 50
90.0
 51
180.0
  0
LINE
  5
6DF
330
1A
100
AcDbEntity
  8
ZUWAKU
100
AcDbLine
 10
21.34269024044193
 20
34.23258628282265
 30
0.0
 11
21.34269024044193
 21
32.41738425746731
 31
0.0
  0
LINE
  5
6E0
330
1A
100
AcDbEntity
  8
ZUWAKU
100
AcDbLine
 10
24.14269024044188
 20
33.70758628282266
 30
0.0
 11
24.14269024044188
 21
32.41738425746731
 31
0.0
  0
LINE
  5
6E1
330
1A
100
AcDbEntity
  8
ZUWAKU
100
AcDbLine
 10
89.17710763364903
 20
43.78258628282265
 30
0.0
 11
89.17710763364903
 21
14.58258628282272
 31
0.0
  0
LINE
  5
6E2
330
1A
100
AcDbEntity
  8
ZUWAKU
100
AcDbLine
 10
89.57710763364913
 20
43.78258628282265
 30
0.0
 11
89.57710763364913
 21
14.58258628282272
 31
0.0
  0
LINE
  5
6E3
330
1A
100
AcDbEntity
  8
ZUWAKU
100
AcDbLine
 10
89.37710763364885
 20
43.78258628282265
 30
0.0
 11
89.37710763364931
 21
14.58258628282272
 31
0.0
  0
LINE
  5
6E4
330
1A
100
AcDbEntity
  8
ZUWAKU
100
AcDbLine
 10
56.87284175945842
 20
29.44753577648383
 30
0.0
 11
59.78263973410321
 21
26.53773780183917
 31
0.0
  0
ARC
  5
6E5
330
1A
100
AcDbEntity
  8
ZUWAKU
100
AcDbCircle
 10
58.44269024044206
 20
34.23258628282265
 30
0.0
 40
2.799999999999999
100
AcDbArc
 50
90.0
 51
180.0
  0
LINE
  5
6E6
330
1A
100
AcDbEntity
  8
ZUWAKU
100
AcDbLine
 10
56.69269024044206
 20
20.93258628282265
 30
0.0
 11
60.19269024044206
 21
20.93258628282265
 31
0.0
  0
LINE
  5
6E7
330
1A
100
AcDbEntity
  8
ZUWAKU
100
AcDbLine
 10
56.69269024044206
 20
23.73258628282265
 30
0.0
 11
59.66769024044197
 21
23.73258628282265
 31
0.0
  0
LINE
  5
6E8
330
1A
100
AcDbEntity
  8
ZUWAKU
100
AcDbLine
 10
42.16769024044197
 20
37.03258628282266
 30
0.0
 11
40.41769024044197
 21
37.03258628282266
 31
0.0
  0
LINE
  5
6E9
330
1A
100
AcDbEntity
  8
ZUWAKU
100
AcDbLine
 10
40.41769024044197
 20
20.93258628282265
 30
0.0
 11
42.16769024044197
 21
20.93258628282265
 31
0.0
  0
LINE
  5
6EA
330
1A
100
AcDbEntity
  8
ZUWAKU
100
AcDbLine
 10
39.89269024044188
 20
36.50758628282265
 30
0.0
 11
39.89269024044188
 21
21.45758628282266
 31
0.0
  0
LINE
  5
6EB
330
1A
100
AcDbEntity
  8
ZUWAKU
100
AcDbLine
 10
30.79269024044197
 20
25.13258628282266
 30
0.0
 11
30.79269024044197
 21
32.83258628282261
 31
0.0
  0
LINE
  5
6EC
330
1A
100
AcDbEntity
  8
ZUWAKU
100
AcDbLine
 10
33.59269024044193
 20
32.83258628282265
 30
0.0
 11
33.59269024044193
 21
25.13258628282266
 31
0.0
  0
ARC
  5
6ED
330
1A
100
AcDbEntity
  8
ZUWAKU
100
AcDbCircle
 10
24.49269024044179
 20
25.54778830817796
 30
0.0
 40
4.199999999999999
100
AcDbArc
 50
0.0
 51
44.9999999999996
  0
CIRCLE
  5
6EE
330
1A
100
AcDbEntity
  8
ZUWAKU
100
AcDbCircle
 10
36.04269024044197
 20
28.98258628282265
 30
0.0
 40
1.75
  0
ARC
  5
6EF
330
1A
100
AcDbEntity
  8
ZUWAKU
100
AcDbCircle
 10
34.99269024044179
 20
25.13258628282266
 30
0.0
 40
4.199999999999999
100
AcDbArc
 50
180.0
 51
270.0
  0
LINE
  5
6F0
330
1A
100
AcDbEntity
  8
ZUWAKU
100
AcDbLine
 10
28.69269024044206
 20
23.73258628282265
 30
0.0
 11
28.69269024044206
 21
25.547788308178
 31
0.0
  0
ARC
  5
6F1
330
1A
100
AcDbEntity
  8
ZUWAKU
100
AcDbCircle
 10
25.36769024044179
 20
24.25758628282266
 30
0.0
 40
0.525
100
AcDbArc
 50
270.0
 51
0.0
  0
LINE
  5
6F2
330
1A
100
AcDbEntity
  8
ZUWAKU
100
AcDbLine
 10
25.89269024044188
 20
24.25758628282266
 30
0.0
 11
25.89269024044188
 21
25.547788308178
 31
0.0
  0
ARC
  5
6F3
330
1A
100
AcDbEntity
  8
ZUWAKU
100
AcDbCircle
 10
25.89269024044188
 20
23.73258628282265
 30
0.0
 40
2.799999999999999
100
AcDbArc
 50
270.0
 51
0.0
  0
ARC
  5
6F4
330
1A
100
AcDbEntity
  8
ZUWAKU
100
AcDbCircle
 10
24.49269024044179
 20
25.547788308178
 30
0.0
 40
1.399999999999999
100
AcDbArc
 50
0.0
 51
44.9999999999996
  0
ARC
  5
6F5
330
1A
100
AcDbEntity
  8
ZUWAKU
100
AcDbCircle
 10
40.41769024044197
 20
21.45758628282266
 30
0.0
 40
0.525
100
AcDbArc
 50
180.0
 51
270.0
  0
ARC
  5
6F6
330
1A
100
AcDbEntity
  8
ZUWAKU
100
AcDbCircle
 10
36.91769024044197
 20
23.20758628282265
 30
0.0
 40
0.525
100
AcDbArc
 50
0.0
 51
90.0
  0
ARC
  5
6F7
330
1A
100
AcDbEntity
  8
ZUWAKU
100
AcDbCircle
 10
36.91769024044197
 20
21.45758628282266
 30
0.0
 40
0.525
100
AcDbArc
 50
270.0
 51
0.0
  0
LINE
  5
6F8
330
1A
100
AcDbEntity
  8
ZUWAKU
100
AcDbLine
 10
37.44269024044206
 20
23.20758628282265
 30
0.0
 11
37.44269024044206
 21
21.45758628282266
 31
0.0
  0
ARC
  5
6F9
330
1A
100
AcDbEntity
  8
ZUWAKU
100
AcDbCircle
 10
34.99269024044179
 20
25.13258628282266
 30
0.0
 40
1.399999999999999
100
AcDbArc
 50
180.0
 51
270.0
  0
LINE
  5
6FA
330
1A
100
AcDbEntity
  8
ZUWAKU
100
AcDbLine
 10
36.91769024044197
 20
20.93258628282265
 30
0.0
 11
34.99269024044179
 21
20.93258628282265
 31
0.0
  0
LINE
  5
6FB
330
1A
100
AcDbEntity
  8
ZUWAKU
100
AcDbLine
 10
34.99269024044179
 20
23.73258628282265
 30
0.0
 11
36.91769024044197
 21
23.73258628282265
 31
0.0
  0
ARC
  5
6FC
330
1A
100
AcDbEntity
  8
ZUWAKU
100
AcDbCircle
 10
34.99269024044179
 20
32.83258628282261
 30
0.0
 40
4.199999999999999
100
AcDbArc
 50
90.0
 51
180.0
  0
LINE
  5
6FD
330
1A
100
AcDbEntity
  8
ZUWAKU
100
AcDbLine
 10
28.16769024044197
 20
36.50758628282265
 30
0.0
 11
28.16769024044197
 21
34.75758628282265
 31
0.0
  0
LINE
  5
6FE
330
1A
100
AcDbEntity
  8
ZUWAKU
100
AcDbLine
 10
27.64269024044188
 20
34.23258628282265
 30
0.0
 11
24.66769024044197
 21
34.23258628282265
 31
0.0
  0
ARC
  5
6FF
330
1A
100
AcDbEntity
  8
ZUWAKU
100
AcDbCircle
 10
27.64269024044188
 20
34.75758628282265
 30
0.0
 40
0.525
100
AcDbArc
 50
270.0
 51
0.0
  0
ARC
  5
700
330
1A
100
AcDbEntity
  8
ZUWAKU
100
AcDbCircle
 10
27.64269024044188
 20
36.50758628282265
 30
0.0
 40
0.525
100
AcDbArc
 50
0.0
 51
90.0
  0
LINE
  5
701
330
1A
100
AcDbEntity
  8
ZUWAKU
100
AcDbLine
 10
37.44269024044206
 20
36.50758628282265
 30
0.0
 11
37.44269024044206
 21
34.75758628282265
 31
0.0
  0
ARC
  5
702
330
1A
100
AcDbEntity
  8
ZUWAKU
100
AcDbCircle
 10
36.91769024044197
 20
34.75758628282265
 30
0.0
 40
0.525
100
AcDbArc
 50
270.0
 51
0.0
  0
ARC
  5
703
330
1A
100
AcDbEntity
  8
ZUWAKU
100
AcDbCircle
 10
40.41769024044197
 20
36.50758628282265
 30
0.0
 40
0.525
100
AcDbArc
 50
90.0
 51
180.0
  0
ARC
  5
704
330
1A
100
AcDbEntity
  8
ZUWAKU
100
AcDbCircle
 10
36.91769024044197
 20
36.50758628282265
 30
0.0
 40
0.525
100
AcDbArc
 50
0.0
 51
90.0
  0
ARC
  5
705
330
1A
100
AcDbEntity
  8
ZUWAKU
100
AcDbCircle
 10
34.99269024044179
 20
32.83258628282265
 30
0.0
 40
1.399999999999999
100
AcDbArc
 50
90.0
 51
180.0
  0
LINE
  5
706
330
1A
100
AcDbEntity
  8
ZUWAKU
100
AcDbLine
 10
36.91769024044197
 20
34.23258628282265
 30
0.0
 11
34.99269024044179
 21
34.23258628282265
 31
0.0
  0
LINE
  5
707
330
1A
100
AcDbEntity
  8
ZUWAKU
100
AcDbLine
 10
34.99269024044179
 20
37.03258628282262
 30
0.0
 11
36.91769024044197
 21
37.03258628282266
 31
0.0
  0
ARC
  5
708
330
1A
100
AcDbEntity
  8
ZUWAKU
100
AcDbCircle
 10
43.21769024044215
 20
27.05758628282266
 30
0.0
 40
0.525
100
AcDbArc
 50
90.0
 51
180.0
  0
ARC
  5
709
330
1A
100
AcDbEntity
  8
ZUWAKU
100
AcDbCircle
 10
43.35792440393061
 20
27.05758628282266
 30
0.0
 40
0.525
100
AcDbArc
 50
17.52556837372255
 51
90.0
  0
LINE
  5
70A
330
1A
100
AcDbEntity
  8
ZUWAKU
100
AcDbLine
 10
53.54269024044197
 20
21.45758628282266
 30
0.0
 11
53.54269024044197
 21
36.50758628282265
 31
0.0
  0
LINE
  5
70B
330
1A
100
AcDbEntity
  8
ZUWAKU
100
AcDbLine
 10
50.74269024044179
 20
36.50758628282265
 30
0.0
 11
50.74269024044179
 21
21.45758628282266
 31
0.0
  0
LINE
  5
70C
330
1A
100
AcDbEntity
  8
ZUWAKU
100
AcDbLine
 10
48.42697635575769
 20
21.61568025098963
 30
0.0
 11
46.10058497728414
 21
28.98258628282267
 31
0.0
  0
LINE
  5
70D
330
1A
100
AcDbEntity
  8
ZUWAKU
100
AcDbLine
 10
43.21769024044215
 20
27.58258628282265
 30
0.0
 11
43.35792440393061
 21
27.58258628282265
 31
0.0
  0
ARC
  5
70E
330
1A
100
AcDbEntity
  8
ZUWAKU
100
AcDbCircle
 10
46.22745607695333
 20
21.45758628282266
 30
0.0
 40
0.525
100
AcDbArc
 50
197.5255683737225
 51
270.0
  0
ARC
  5
70F
330
1A
100
AcDbEntity
  8
ZUWAKU
100
AcDbCircle
 10
47.9263454565621
 20
21.45758628282266
 30
0.0
 40
0.525
100
AcDbArc
 50
270.0
 51
17.52556837372255
  0
LINE
  5
710
330
1A
100
AcDbEntity
  8
ZUWAKU
100
AcDbLine
 10
46.22745607695333
 20
20.93258628282265
 30
0.0
 11
47.9263454565621
 21
20.93258628282265
 31
0.0
  0
ARC
  5
711
330
1A
100
AcDbEntity
  8
ZUWAKU
100
AcDbCircle
 10
42.16769024044197
 20
21.45758628282266
 30
0.0
 40
0.525
100
AcDbArc
 50
270.0
 51
0.0
  0
LINE
  5
712
330
1A
100
AcDbEntity
  8
ZUWAKU
100
AcDbLine
 10
45.72682517775774
 20
21.29949231465568
 30
0.0
 11
43.85855530312574
 21
27.21568025098962
 31
0.0
  0
LINE
  5
713
330
1A
100
AcDbEntity
  8
ZUWAKU
100
AcDbLine
 10
42.69269024044206
 20
21.45758628282266
 30
0.0
 11
42.69269024044206
 21
27.05758628282266
 31
0.0
  0
ARC
  5
714
330
1A
100
AcDbEntity
  8
ZUWAKU
100
AcDbCircle
 10
56.69269024044206
 20
23.20758628282265
 30
0.0
 40
0.525
100
AcDbArc
 50
90.0
 51
180.0
  0
ARC
  5
715
330
1A
100
AcDbEntity
  8
ZUWAKU
100
AcDbCircle
 10
53.01769024044188
 20
21.45758628282266
 30
0.0
 40
0.525
100
AcDbArc
 50
270.0
 51
0.0
  0
ARC
  5
716
330
1A
100
AcDbEntity
  8
ZUWAKU
100
AcDbCircle
 10
56.69269024044206
 20
21.45758628282266
 30
0.0
 40
0.525
100
AcDbArc
 50
180.0
 51
270.0
  0
LINE
  5
717
330
1A
100
AcDbEntity
  8
ZUWAKU
100
AcDbLine
 10
56.16769024044197
 20
21.45758628282266
 30
0.0
 11
56.16769024044197
 21
23.20758628282265
 31
0.0
  0
ARC
  5
718
330
1A
100
AcDbEntity
  8
ZUWAKU
100
AcDbCircle
 10
51.26769024044188
 20
21.45758628282266
 30
0.0
 40
0.525
100
AcDbArc
 50
180.0
 51
270.0
  0
LINE
  5
719
330
1A
100
AcDbEntity
  8
ZUWAKU
100
AcDbLine
 10
51.26769024044188
 20
20.93258628282265
 30
0.0
 11
53.01769024044188
 21
20.93258628282265
 31
0.0
  0
LINE
  5
71A
330
1A
100
AcDbEntity
  8
ZUWAKU
100
AcDbLine
 10
47.36533672261976
 20
32.98763347638608
 30
0.0
 11
46.10058497728414
 21
28.98258628282267
 31
0.0
  0
ARC
  5
71B
330
1A
100
AcDbEntity
  8
ZUWAKU
100
AcDbCircle
 10
46.22745607695333
 20
36.50758628282265
 30
0.0
 40
0.525
100
AcDbArc
 50
90.0
 51
162.4744316262773
  0
LINE
  5
71C
330
1A
100
AcDbEntity
  8
ZUWAKU
100
AcDbLine
 10
48.42697635575769
 20
36.34949231465569
 30
0.0
 11
47.36533672261976
 21
32.98763347638608
 31
0.0
  0
ARC
  5
71D
330
1A
100
AcDbEntity
  8
ZUWAKU
100
AcDbCircle
 10
47.9263454565621
 20
36.50758628282265
 30
0.0
 40
0.525
100
AcDbArc
 50
342.4744316262774
 51
90.0
  0
LINE
  5
71E
330
1A
100
AcDbEntity
  8
ZUWAKU
100
AcDbLine
 10
46.22745607695333
 20
37.03258628282266
 30
0.0
 11
47.9263454565621
 21
37.03258628282266
 31
0.0
  0
LINE
  5
71F
330
1A
100
AcDbEntity
  8
ZUWAKU
100
AcDbLine
 10
42.69269024044206
 20
30.90758628282266
 30
0.0
 11
42.69269024044206
 21
36.50758628282265
 31
0.0
  0
ARC
  5
720
330
1A
100
AcDbEntity
  8
ZUWAKU
100
AcDbCircle
 10
43.21769024044215
 20
30.90758628282266
 30
0.0
 40
0.525
100
AcDbArc
 50
180.0
 51
270.0
  0
LINE
  5
721
330
1A
100
AcDbEntity
  8
ZUWAKU
100
AcDbLine
 10
43.35792440393061
 20
30.38258628282265
 30
0.0
 11
43.21769024044215
 21
30.38258628282265
 31
0.0
  0
ARC
  5
722
330
1A
100
AcDbEntity
  8
ZUWAKU
100
AcDbCircle
 10
43.35792440393061
 20
30.90758628282266
 30
0.0
 40
0.525
100
AcDbArc
 50
270.0
 51
342.4744316262774
  0
ARC
  5
723
330
1A
100
AcDbEntity
  8
ZUWAKU
100
AcDbCircle
 10
42.16769024044197
 20
36.50758628282265
 30
0.0
 40
0.525
100
AcDbArc
 50
0.0
 51
90.0
  0
LINE
  5
724
330
1A
100
AcDbEntity
  8
ZUWAKU
100
AcDbLine
 10
45.72682517775774
 20
36.66568025098963
 30
0.0
 11
43.85855530312574
 21
30.74949231465569
 31
0.0
  0
ARC
  5
725
330
1A
100
AcDbEntity
  8
ZUWAKU
100
AcDbCircle
 10
59.84269024044215
 20
32.41738425746735
 30
0.0
 40
4.199999999999999
100
AcDbArc
 50
180.0
 51
224.9999999999996
  0
LINE
  5
726
330
1A
100
AcDbEntity
  8
ZUWAKU
100
AcDbLine
 10
55.64269024044188
 20
34.23258628282265
 30
0.0
 11
55.64269024044188
 21
32.41738425746731
 31
0.0
  0
ARC
  5
727
330
1A
100
AcDbEntity
  8
ZUWAKU
100
AcDbCircle
 10
53.01769024044188
 20
36.50758628282265
 30
0.0
 40
0.525
100
AcDbArc
 50
0.0
 51
90.0
  0
ARC
  5
728
330
1A
100
AcDbEntity
  8
ZUWAKU
100
AcDbCircle
 10
51.26769024044188
 20
36.50758628282265
 30
0.0
 40
0.525
100
AcDbArc
 50
90.0
 51
180.0
  0
LINE
  5
729
330
1A
100
AcDbEntity
  8
ZUWAKU
100
AcDbLine
 10
53.01769024044188
 20
37.03258628282266
 30
0.0
 11
51.26769024044188
 21
37.03258628282266
 31
0.0
  0
ARC
  5
72A
330
1A
100
AcDbEntity
  8
ZUWAKU
100
AcDbCircle
 10
73.66769024044197
 20
36.50758628282265
 30
0.0
 40
0.525
100
AcDbArc
 50
0.0
 51
90.0
  0
ARC
  5
72B
330
1A
100
AcDbEntity
  8
ZUWAKU
100
AcDbCircle
 10
71.39269024044188
 20
23.73258628282265
 30
0.0
 40
2.799999999999999
100
AcDbArc
 50
270.0
 51
0.0
  0
LINE
  5
72C
330
1A
100
AcDbEntity
  8
ZUWAKU
100
AcDbLine
 10
67.89269024044187
 20
24.78258628282265
 30
0.0
 11
67.89269024044187
 21
36.50758628282265
 31
0.0
  0
LINE
  5
72D
330
1A
100
AcDbEntity
  8
ZUWAKU
100
AcDbLine
 10
65.09269024044215
 20
36.50758628282265
 30
0.0
 11
65.09269024044215
 21
23.73258628282265
 31
0.0
  0
LINE
  5
72E
330
1A
100
AcDbEntity
  8
ZUWAKU
100
AcDbLine
 10
71.39269024044188
 20
36.50758628282265
 30
0.0
 11
71.39269024044188
 21
24.78258628282265
 31
0.0
  0
ARC
  5
72F
330
1A
100
AcDbEntity
  8
ZUWAKU
100
AcDbCircle
 10
58.79269024044197
 20
25.54778830817796
 30
0.0
 40
4.199999999999999
100
AcDbArc
 50
0.0
 51
44.9999999999996
  0
ARC
  5
730
330
1A
100
AcDbEntity
  8
ZUWAKU
100
AcDbCircle
 10
67.89269024044187
 20
23.73258628282265
 30
0.0
 40
2.799999999999999
100
AcDbArc
 50
180.0
 51
270.0
  0
LINE
  5
731
330
1A
100
AcDbEntity
  8
ZUWAKU
100
AcDbLine
 10
62.99269024044178
 20
23.73258628282265
 30
0.0
 11
62.99269024044178
 21
25.547788308178
 31
0.0
  0
ARC
  5
732
330
1A
100
AcDbEntity
  8
ZUWAKU
100
AcDbCircle
 10
59.66769024044197
 20
24.25758628282266
 30
0.0
 40
0.525
100
AcDbArc
 50
270.0
 51
0.0
  0
LINE
  5
733
330
1A
100
AcDbEntity
  8
ZUWAKU
100
AcDbLine
 10
60.19269024044206
 20
24.25758628282266
 30
0.0
 11
60.19269024044206
 21
25.547788308178
 31
0.0
  0
ARC
  5
734
330
1A
100
AcDbEntity
  8
ZUWAKU
100
AcDbCircle
 10
60.19269024044206
 20
23.73258628282265
 30
0.0
 40
2.799999999999999
100
AcDbArc
 50
270.0
 51
0.0
  0
ARC
  5
735
330
1A
100
AcDbEntity
  8
ZUWAKU
100
AcDbCircle
 10
58.79269024044197
 20
25.547788308178
 30
0.0
 40
1.399999999999999
100
AcDbArc
 50
0.0
 51
44.9999999999996
  0
ARC
  5
736
330
1A
100
AcDbEntity
  8
ZUWAKU
100
AcDbCircle
 10
70.34269024044215
 20
24.78258628282265
 30
0.0
 40
1.049999999999999
100
AcDbArc
 50
270.0
 51
0.0
  0
ARC
  5
737
330
1A
100
AcDbEntity
  8
ZUWAKU
100
AcDbCircle
 10
68.94269024044206
 20
24.78258628282265
 30
0.0
 40
1.049999999999999
100
AcDbArc
 50
180.0
 51
270.0
  0
LINE
  5
738
330
1A
100
AcDbEntity
  8
ZUWAKU
100
AcDbLine
 10
67.89269024044187
 20
20.93258628282265
 30
0.0
 11
71.39269024044188
 21
20.93258628282265
 31
0.0
  0
LINE
  5
739
330
1A
100
AcDbEntity
  8
ZUWAKU
100
AcDbLine
 10
70.34269024044215
 20
23.73258628282265
 30
0.0
 11
68.94269024044206
 21
23.73258628282265
 31
0.0
  0
LINE
  5
73A
330
1A
100
AcDbEntity
  8
ZUWAKU
100
AcDbLine
 10
67.36769024044178
 20
37.03258628282266
 30
0.0
 11
65.61769024044179
 21
37.03258628282266
 31
0.0
  0
LINE
  5
73B
330
1A
100
AcDbEntity
  8
ZUWAKU
100
AcDbLine
 10
62.46769024044215
 20
36.50758628282265
 30
0.0
 11
62.46769024044215
 21
34.75758628282265
 31
0.0
  0
ARC
  5
73C
330
1A
100
AcDbEntity
  8
ZUWAKU
100
AcDbCircle
 10
61.94269024044206
 20
34.75758628282265
 30
0.0
 40
0.525
100
AcDbArc
 50
270.0
 51
0.0
  0
ARC
  5
73D
330
1A
100
AcDbEntity
  8
ZUWAKU
100
AcDbCircle
 10
61.94269024044206
 20
36.50758628282265
 30
0.0
 40
0.525
100
AcDbArc
 50
0.0
 51
90.0
  0
ARC
  5
73E
330
1A
100
AcDbEntity
  8
ZUWAKU
100
AcDbCircle
 10
65.61769024044179
 20
36.50758628282265
 30
0.0
 40
0.525
100
AcDbArc
 50
90.0
 51
180.0
  0
ARC
  5
73F
330
1A
100
AcDbEntity
  8
ZUWAKU
100
AcDbCircle
 10
59.84269024044215
 20
32.41738425746735
 30
0.0
 40
1.399999999999999
100
AcDbArc
 50
180.0000000000016
 51
224.9999999999994
  0
LINE
  5
740
330
1A
100
AcDbEntity
  8
ZUWAKU
100
AcDbLine
 10
58.44269024044206
 20
33.70758628282266
 30
0.0
 11
58.44269024044206
 21
32.41738425746731
 31
0.0
  0
ARC
  5
741
330
1A
100
AcDbEntity
  8
ZUWAKU
100
AcDbCircle
 10
58.96769024044215
 20
33.70758628282266
 30
0.0
 40
0.525
100
AcDbArc
 50
90.0
 51
180.0
  0
LINE
  5
742
330
1A
100
AcDbEntity
  8
ZUWAKU
100
AcDbLine
 10
61.76253872142524
 20
28.51763678916148
 30
0.0
 11
58.85274074678045
 21
31.42743476380616
 31
0.0
  0
LINE
  5
743
330
1A
100
AcDbEntity
  8
ZUWAKU
100
AcDbLine
 10
61.94269024044206
 20
34.23258628282265
 30
0.0
 11
58.96769024044215
 21
34.23258628282265
 31
0.0
  0
LINE
  5
744
330
1A
100
AcDbEntity
  8
ZUWAKU
100
AcDbLine
 10
58.44269024044206
 20
37.03258628282266
 30
0.0
 11
61.94269024044206
 21
37.03258628282266
 31
0.0
  0
ARC
  5
745
330
1A
100
AcDbEntity
  8
ZUWAKU
100
AcDbCircle
 10
71.91769024044197
 20
36.50758628282265
 30
0.0
 40
0.525
100
AcDbArc
 50
90.0
 51
180.0
  0
LINE
  5
746
330
1A
100
AcDbEntity
  8
ZUWAKU
100
AcDbLine
 10
73.66769024044197
 20
37.03258628282266
 30
0.0
 11
71.91769024044197
 21
37.03258628282266
 31
0.0
  0
ARC
  5
747
330
1A
100
AcDbEntity
  8
ZUWAKU
100
AcDbCircle
 10
67.36769024044178
 20
36.50758628282265
 30
0.0
 40
0.525
100
AcDbArc
 50
0.0
 51
90.0
  0
LINE
  5
748
330
1A
100
AcDbEntity
  8
ZUWAKU
100
AcDbLine
 10
76.29269024044197
 20
36.50758628282265
 30
0.0
 11
76.29269024044197
 21
21.45758628282266
 31
0.0
  0
LINE
  5
749
330
1A
100
AcDbEntity
  8
ZUWAKU
100
AcDbLine
 10
79.09269024044215
 20
21.45758628282266
 30
0.0
 11
79.09269024044215
 21
36.50758628282265
 31
0.0
  0
LINE
  5
74A
330
1A
100
AcDbEntity
  8
ZUWAKU
100
AcDbLine
 10
74.19269024044206
 20
23.73258628282265
 30
0.0
 11
74.19269024044206
 21
36.50758628282265
 31
0.0
  0
ARC
  5
74B
330
1A
100
AcDbEntity
  8
ZUWAKU
100
AcDbCircle
 10
78.56769024044206
 20
21.45758628282266
 30
0.0
 40
0.525
100
AcDbArc
 50
270.0
 51
0.0
  0
ARC
  5
74C
330
1A
100
AcDbEntity
  8
ZUWAKU
100
AcDbCircle
 10
76.81769024044206
 20
21.45758628282266
 30
0.0
 40
0.525
100
AcDbArc
 50
180.0
 51
270.0
  0
LINE
  5
74D
330
1A
100
AcDbEntity
  8
ZUWAKU
100
AcDbLine
 10
76.81769024044206
 20
20.93258628282265
 30
0.0
 11
78.56769024044206
 21
20.93258628282265
 31
0.0
  0
ARC
  5
74E
330
1A
100
AcDbEntity
  8
ZUWAKU
100
AcDbCircle
 10
78.56769024044206
 20
36.50758628282265
 30
0.0
 40
0.525
100
AcDbArc
 50
0.0
 51
90.0
  0
ARC
  5
74F
330
1A
100
AcDbEntity
  8
ZUWAKU
100
AcDbCircle
 10
76.81769024044206
 20
36.50758628282265
 30
0.0
 40
0.525
100
AcDbArc
 50
90.0
 51
180.0
  0
LINE
  5
750
330
1A
100
AcDbEntity
  8
ZUWAKU
100
AcDbLine
 10
78.56769024044206
 20
37.03258628282266
 30
0.0
 11
76.81769024044206
 21
37.03258628282266
 31
0.0
  0
TEXT
  5
751
330
1A
100
AcDbEntity
  8
moji
100
AcDbText
 10
103.0082676738298
 20
26.52376441309741
 30
0.0
 40
6.0
  1
大型　のきとい
 41
0.9
  7
ｽﾀｲﾙ1
100
AcDbText
  0
TEXT
  5
756
330
1A
100
AcDbEntity
  8
moji
100
AcDbText
 10
249.8776807665117
 20
16.98750734023007
 30
0.0
 40
5.599999999999999
  1
Ｐ３００
 41
0.9
  7
ｽﾀｲﾙ1
100
AcDbText
  0
LINE
  5
757
330
1A
100
AcDbEntity
  8
ZUWAKU
100
AcDbLine
 10
218.4970793757284
 20
43.78258628282265
 30
0.0
 11
218.4970793757289
 21
14.58258628282272
 31
0.0
  0
LINE
  5
758
330
1A
100
AcDbEntity
  8
ZUWAKU
100
AcDbLine
 10
218.6970793757287
 20
43.78258628282265
 30
0.0
 11
218.6970793757287
 21
14.58258628282272
 31
0.0
  0
LINE
  5
759
330
1A
100
AcDbEntity
  8
ZUWAKU
100
AcDbLine
 10
218.2970793757286
 20
43.78258628282265
 30
0.0
 11
218.2970793757286
 21
14.58258628282272
 31
0.0
  0
TEXT
  5
75A
330
1A
100
AcDbEntity
  8
ZUWAKU
100
AcDbText
 10
219.774524397938
 20
37.83794282120823
 30
0.0
 40
4.0
  1
品名
 41
0.9
  7
ｽﾀｲﾙ1
100
AcDbText
  0
TEXT
  5
75B
330
1A
100
AcDbEntity
  8
ZUWAKU
100
AcDbText
 10
219.7745243979384
 20
23.43794282120827
 30
0.0
 40
4.0
  1
サイズ
 41
0.9
  7
ｽﾀｲﾙ1
100
AcDbText
  0
TEXT
  5
75C
330
1A
100
AcDbEntity
  8
moji
100
AcDbText
 10
249.8776807665117
 20
31.78750734023004
 30
0.0
 40
5.599999999999999
  1
ジョイント
 41
0.9
  7
ｽﾀｲﾙ1
100
AcDbText
  0
TEXT
  5
792
330
1A
100
AcDbEntity
  8
ZUWAKU
100
AcDbText
 10
668.254415772963
 20
31.78750734023004
 30
0.0
 40
5.599999999999999
  1
　　．　　．　　
 41
0.9
  7
ｽﾀｲﾙ1
100
AcDbText
  0
LINE
  5
793
330
1A
100
AcDbEntity
  8
ZUWAKU
100
AcDbLine
 10
658.8676805958648
 20
29.38258628282269
 30
0.0
 11
707.2994886342021
 21
29.38258628282269
 31
0.0
  0
LINE
  5
794
330
1A
100
AcDbEntity
  8
ZUWAKU
100
AcDbLine
 10
658.8676805958653
 20
29.18258628282269
 30
0.0
 11
707.2994886342021
 21
29.18258628282269
 31
0.0
  0
LINE
  5
795
330
1A
100
AcDbEntity
  8
ZUWAKU
100
AcDbLine
 10
658.8676805958648
 20
28.98258628282268
 30
0.0
 11
707.2994886342021
 21
28.98258628282268
 31
0.0
  0
LINE
  5
79A
330
1A
100
AcDbEntity
  8
ZUWAKU
100
AcDbLine
 10
515.2496575838017
 20
29.38258628282269
 30
0.0
 11
562.5774338517731
 21
29.38258628282269
 31
0.0
  0
LINE
  5
79B
330
1A
100
AcDbEntity
  8
ZUWAKU
100
AcDbLine
 10
515.2496575838017
 20
29.18258628282269
 30
0.0
 11
562.5774338517731
 21
29.18258628282269
 31
0.0
  0
LINE
  5
79C
330
1A
100
AcDbEntity
  8
ZUWAKU
100
AcDbLine
 10
515.2496575838017
 20
28.98258628282269
 30
0.0
 11
562.5774338517731
 21
28.98258628282269
 31
0.0
  0
TEXT
  5
79D
330
1A
100
AcDbEntity
  8
moji
100
AcDbText
 10
538.0913860579735
 20
16.98750734023007
 30
0.0
 40
5.599999999999999
  1
１/２
 41
0.9
  7
ｽﾀｲﾙ1
100
AcDbText
  0
LINE
  5
79E
330
1A
100
AcDbEntity
  8
ZUWAKU
100
AcDbLine
 10
514.8496575838017
 20
43.78258628282265
 30
0.0
 11
514.8496575838017
 21
14.58258628282272
 31
0.0
  0
LINE
  5
79F
330
1A
100
AcDbEntity
  8
ZUWAKU
100
AcDbLine
 10
515.2496575838017
 20
43.78258628282265
 30
0.0
 11
515.2496575838017
 21
14.58258628282272
 31
0.0
  0
LINE
  5
7A0
330
1A
100
AcDbEntity
  8
ZUWAKU
100
AcDbLine
 10
515.0496575838015
 20
43.78258628282265
 30
0.0
 11
515.0496575838019
 21
14.58258628282272
 31
0.0
  0
LINE
  5
7A1
330
1A
100
AcDbEntity
  8
ZUWAKU
100
AcDbLine
 10
457.474842056652
 20
43.78258628282265
 30
0.0
 11
457.474842056652
 21
14.58258628282272
 31
0.0
  0
LINE
  5
7A2
330
1A
100
AcDbEntity
  8
ZUWAKU
100
AcDbLine
 10
457.8748420566521
 20
43.78258628282265
 30
0.0
 11
457.8748420566521
 21
14.58258628282272
 31
0.0
  0
LINE
  5
7A3
330
1A
100
AcDbEntity
  8
ZUWAKU
100
AcDbLine
 10
457.6748420566518
 20
43.78258628282265
 30
0.0
 11
457.6748420566523
 21
14.58258628282272
 31
0.0
  0
TEXT
  5
7A4
330
1A
100
AcDbEntity
  8
moji
100
AcDbText
 10
472.1486881474166
 20
25.56402850121992
 30
0.0
 40
5.599999999999999
  1
ＧＳ５２
 41
0.9
  7
ｽﾀｲﾙ1
100
AcDbText
  0
TEXT
  5
7A5
330
1A
100
AcDbEntity
  8
ZUWAKU
100
AcDbText
 10
459.3522870788615
 20
37.83794282120823
 30
0.0
 40
4.0
  1
品番
 41
0.9
  7
ｽﾀｲﾙ1
100
AcDbText
  0
TEXT
  5
7A6
330
1A
100
AcDbEntity
  8
ZUWAKU
100
AcDbText
 10
516.7271026060111
 20
37.83794282120823
 30
0.0
 40
4.0
  1
用紙
 41
0.9
  7
ｽﾀｲﾙ1
100
AcDbText
  0
TEXT
  5
7A7
330
1A
100
AcDbEntity
  8
ZUWAKU
100
AcDbText
 10
516.7271026060116
 20
23.43794282120827
 30
0.0
 40
4.0
  1
縮尺
 41
0.9
  7
ｽﾀｲﾙ1
100
AcDbText
  0
TEXT
  5
7A8
330
1A
100
AcDbEntity
  8
moji
100
AcDbText
 10
538.0913860579735
 20
31.78750734023004
 30
0.0
 40
5.599999999999999
  1
Ａ３
 41
0.9
  7
ｽﾀｲﾙ1
100
AcDbText
  0
LINE
  5
7A9
330
1A
100
AcDbEntity
  8
ZUWAKU
100
AcDbLine
 10
562.9774338517732
 20
43.78258628282265
 30
0.0
 11
562.9774338517732
 21
14.58258628282272
 31
0.0
  0
LINE
  5
7AA
330
1A
100
AcDbEntity
  8
ZUWAKU
100
AcDbLine
 10
658.4676805958651
 20
43.78258628282265
 30
0.0
 11
658.4676805958651
 21
14.58258628282272
 31
0.0
  0
LINE
  5
7AB
330
1A
100
AcDbEntity
  8
ZUWAKU
100
AcDbLine
 10
658.8676805958653
 20
43.78258628282265
 30
0.0
 11
658.8676805958653
 21
14.58258628282272
 31
0.0
  0
LINE
  5
7AC
330
1A
100
AcDbEntity
  8
ZUWAKU
100
AcDbLine
 10
658.667680595865
 20
43.78258628282265
 30
0.0
 11
658.6676805958655
 21
14.58258628282272
 31
0.0
  0
LINE
  5
7AD
330
1A
100
AcDbEntity
  8
ZUWAKU
100
AcDbLine
 10
562.5774338517731
 20
43.78258628282265
 30
0.0
 11
562.5774338517731
 21
14.58258628282272
 31
0.0
  0
LINE
  5
7AE
330
1A
100
AcDbEntity
  8
ZUWAKU
100
AcDbLine
 10
562.7774338517729
 20
43.78258628282265
 30
0.0
 11
562.7774338517733
 21
14.58258628282272
 31
0.0
  0
TEXT
  5
7AF
330
1A
100
AcDbEntity
  8
ZUWAKU
100
AcDbText
 10
660.3451256180747
 20
37.83794282120823
 30
0.0
 40
4.0
  1
DATE
 41
0.9
  7
ｽﾀｲﾙ1
100
AcDbText
  0
LINE
  5
7BB
330
1A
100
AcDbEntity
  8
ZUWAKU
100
AcDbLine
 10
707.899488634202
 20
43.78258628282265
 30
0.0
 11
707.899488634202
 21
14.58258628282272
 31
0.0
  0
LINE
  5
7BC
330
1A
100
AcDbEntity
  8
ZUWAKU
100
AcDbLine
 10
707.6994886342017
 20
43.78258628282265
 30
0.0
 11
707.6994886342022
 21
14.58258628282272
 31
0.0
  0
LINE
  5
7BD
330
1A
100
AcDbEntity
  8
ZUWAKU
100
AcDbLine
 10
707.4994886342019
 20
43.78258628282265
 30
0.0
 11
707.4994886342019
 21
14.58258628282272
 31
0.0
  0
LINE
  5
7BE
330
1A
100
AcDbEntity
  8
ZUWAKU
100
AcDbLine
 10
707.2994886342021
 20
43.78258628282265
 30
0.0
 11
707.2994886342021
 21
14.58258628282272
 31
0.0
  0
TEXT
  5
7BF
330
1A
100
AcDbEntity
  8
ZUWAKU
100
AcDbText
 10
717.1194535059616
 20
26.18320202032521
 30
0.0
 40
6.0
  1
積水化学工業株式会社
 41
0.9
  7
ｽﾀｲﾙ1
100
AcDbText
  0
DIMENSION
  5
3005
330
1A
100
AcDbEntity
  8
SUNPOU
100
AcDbDimension
280
     0
  2
*D2
 10
474.6381461451797
 20
373.3634731511378
 30
0.0
 11
469.6381461451796
 21
418.3634740079379
 31
0.0
 70
    32
 71
     5
 42
-1.0
 73
     0
 74
     0
 75
     0
  3
STANDARD
100
AcDbAlignedDimension
 13
430.2088425561451
 23
463.3634748647379
 33
0.0
 14
430.2088425561451
 24
373.3634731511378
 34
0.0
 50
90.0
100
AcDbRotatedDimension
1001
ACAD
1000
DSTYLE
1002
{
1070
    41
1040
6.0
1070
    42
1040
6.0
1070
    43
1040
14.0
1070
    44
1040
3.0
1070
    73
1070
     0
1070
    74
1070
     0
1070
    77
1070
     3
1070
   140
1040
6.0
1070
   141
1040
10.0
1070
   147
1040
2.0
1070
   172
1070
     1
1070
   173
1070
     1
1070
   176
1070
   256
1070
   177
1070
   256
1070
   178
1070
   256
1070
   271
1070
     0
1070
   272
1070
     0
1070
   341
1005
6D
1070
     6
1000
OPEN
1070
     7
1000
OPEN
1002
}
  0
DIMENSION
  5
3006
330
1A
100
AcDbEntity
  8
SUNPOU
100
AcDbDimension
280
     0
  2
*D3
 10
492.0438807445029
 20
116.8582534603378
 30
0.0
 11
487.0438807445029
 21
194.3582521937379
 31
0.0
 70
    32
 71
     5
 42
-1.0
 73
     0
 74
     0
 75
     0
  3
STANDARD
100
AcDbAlignedDimension
 13
429.2088405296452
 23
271.8582509271378
 33
0.0
 14
397.3936917619567
 24
116.8582534603378
 34
0.0
 50
90.0
100
AcDbRotatedDimension
1001
ACAD
1000
DSTYLE
1002
{
1070
    41
1040
6.0
1070
    42
1040
6.0
1070
    43
1040
14.0
1070
    44
1040
3.0
1070
    73
1070
     0
1070
    74
1070
     0
1070
    77
1070
     3
1070
   140
1040
6.0
1070
   141
1040
10.0
1070
   147
1040
2.0
1070
   172
1070
     1
1070
   173
1070
     1
1070
   176
1070
   256
1070
   177
1070
   256
1070
   178
1070
   256
1070
   271
1070
     0
1070
   272
1070
     0
1070
   341
1005
6D
1070
     6
1000
OPEN
1070
     7
1000
OPEN
1002
}
  0
DIMENSION
  5
3007
330
1A
100
AcDbEntity
  8
SUNPOU
100
AcDbDimension
280
     0
  2
*D4
 10
474.6381461451797
 20
241.8582497350378
 30
0.0
 11
469.6381461451796
 21
256.8582503310878
 31
0.0
 70
    32
 71
     5
 42
-1.0
 73
     0
 74
     0
 75
     0
  3
STANDARD
100
AcDbAlignedDimension
 13
429.2088405296452
 23
271.8582509271378
 33
0.0
 14
428.742791812145
 24
241.8582497350378
 34
0.0
 50
90.0
100
AcDbRotatedDimension
1001
ACAD
1000
DSTYLE
1002
{
1070
    41
1040
6.0
1070
    42
1040
6.0
1070
    43
1040
14.0
1070
    44
1040
3.0
1070
    73
1070
     0
1070
    74
1070
     0
1070
    77
1070
     3
1070
   140
1040
6.0
1070
   141
1040
10.0
1070
   147
1040
2.0
1070
   172
1070
     1
1070
   173
1070
     1
1070
   176
1070
   256
1070
   177
1070
   256
1070
   178
1070
   256
1070
   271
1070
     0
1070
   272
1070
     0
1070
   341
1005
6D
1070
     6
1000
OPEN
1070
     7
1000
OPEN
1002
}
  0
DIMENSION
  5
300A
330
1A
100
AcDbEntity
  8
SUNPOU
100
AcDbDimension
280
     0
  2
*D5
 10
430.7067797586451
 20
319.4901805990692
 30
0.0
 11
323.5672743126951
 21
324.4901805990692
 31
0.0
 70
    32
 71
     5
 42
-1.0
 73
     0
 74
     0
 75
     0
  3
STANDARD
100
AcDbAlignedDimension
 13
216.427768866745
 23
270.2797448448378
 33
0.0
 14
430.7067797586451
 24
270.2797448448378
 34
0.0
100
AcDbRotatedDimension
1001
ACAD
1000
DSTYLE
1002
{
1070
    41
1040
6.0
1070
    42
1040
6.0
1070
    43
1040
14.0
1070
    44
1040
3.0
1070
    73
1070
     0
1070
    74
1070
     0
1070
    77
1070
     3
1070
   140
1040
6.0
1070
   141
1040
10.0
1070
   147
1040
2.0
1070
   172
1070
     1
1070
   173
1070
     1
1070
   176
1070
   256
1070
   177
1070
   256
1070
   178
1070
   256
1070
   271
1070
     0
1070
   272
1070
     0
1070
   341
1005
6D
1070
     6
1000
OPEN
1070
     7
1000
OPEN
1002
}
  0
DIMENSION
  5
300E
330
1A
100
AcDbEntity
  8
SUNPOU
100
AcDbDimension
280
     0
  2
*D6
 10
400.4756452598985
 20
80.57566984656734
 30
0.0
 11
323.5672789926848
 21
85.57566984656734
 31
0.0
 70
    32
 71
     5
 42
-1.0
 73
     0
 74
     0
 75
     0
  3
STANDARD
100
AcDbAlignedDimension
 13
246.6589127254711
 23
116.8582534603378
 33
0.0
 14
400.4756452598985
 24
116.8582534603378
 34
0.0
100
AcDbRotatedDimension
1001
ACAD
1000
DSTYLE
1002
{
1070
    41
1040
6.0
1070
    42
1040
6.0
1070
    43
1040
14.0
1070
    44
1040
3.0
1070
    73
1070
     0
1070
    74
1070
     0
1070
    77
1070
     3
1070
   140
1040
6.0
1070
   141
1040
10.0
1070
   147
1040
2.0
1070
   172
1070
     1
1070
   173
1070
     1
1070
   176
1070
   256
1070
   177
1070
   256
1070
   178
1070
   256
1070
   271
1070
     0
1070
   272
1070
     0
1070
   341
1005
6D
1070
     6
1000
OPEN
1070
     7
1000
OPEN
1002
}
  0
LINE
  5
3013
330
1A
100
AcDbEntity
  8
NOKITOI
100
AcDbLine
 10
397.2461666164365
 20
118.8582500629378
 30
0.0
 11
249.8883894870887
 21
118.8582500629378
 31
0.0
  0
LINE
  5
3014
330
1A
100
AcDbEntity
  8
NOKITOI
100
AcDbLine
 10
393.1066841164366
 20
120.5582500629378
 30
0.0
 11
254.0278719271203
 21
120.5582500629378
 31
0.0
  0
LINE
  5
3015
330
1A
100
AcDbEntity
  8
NOKITOI
100
AcDbLine
 10
396.0571662522782
 20
119.7082500629378
 30
0.0
 11
251.0773897805948
 21
119.7082500629378
 31
0.0
  0
LINE
  5
3016
330
1A
100
AcDbEntity
  8
SEIHIN
100
AcDbLine
 10
340.3697640702451
 20
123.4582534246378
 30
0.0
 11
390.8925608798449
 21
123.4582534246378
 31
0.0
  0
LINE
  5
3017
330
1A
100
AcDbEntity
  8
SEIHIN
100
AcDbLine
 10
390.8925608798449
 20
122.5082522444378
 30
0.0
 11
340.3697640702451
 21
122.5082522444378
 31
0.0
  0
LINE
  5
3019
330
1A
100
AcDbEntity
  8
SEIHIN
100
AcDbLine
 10
323.230206321145
 20
116.8582534603378
 30
0.0
 11
397.3984972640451
 21
116.8582534603378
 31
0.0
  0
LINE
  5
301A
330
1A
100
AcDbEntity
  8
SEIHIN
100
AcDbLine
 10
397.3984972640451
 20
118.8582500629378
 30
0.0
 11
323.567278037945
 21
118.8582500629378
 31
0.0
  0
LINE
  5
301B
330
1A
100
AcDbEntity
  8
SEIHIN
100
AcDbLine
 10
390.8925608798449
 20
120.7820048741378
 30
0.0
 11
336.2209231659449
 21
120.7820048741378
 31
0.0
  0
LINE
  5
301C
330
1A
100
AcDbEntity
  8
NOKITOI
100
AcDbLine
 10
231.3478784164365
 20
267.5477202229379
 30
0.0
 11
249.5639152161534
 21
124.4898395751611
 31
0.0
  0
LINE
  5
301D
330
1A
100
AcDbEntity
  8
NOKITOI
100
AcDbLine
 10
248.400403916836
 20
120.1687798997993
 30
0.0
 11
232.5789027164365
 21
244.4214067829379
 31
0.0
  0
LINE
  5
301E
330
1A
100
AcDbEntity
  8
NOKITOI
100
AcDbLine
 10
249.0934090202578
 20
121.4556231787532
 30
0.0
 11
233.3003905748444
 21
245.4845635050302
 31
0.0
  0
LINE
  5
301F
330
1A
100
AcDbEntity
  8
SEIHIN
100
AcDbLine
 10
248.2483985900451
 20
120.1661622337378
 30
0.0
 11
232.389862935245
 21
242.9863067529378
 31
0.0
  0
LINE
  5
3021
330
1A
100
AcDbEntity
  8
SEIHIN
100
AcDbLine
 10
230.5752069756451
 20
241.4222790114378
 30
0.0
 11
246.264864976745
 21
119.9100485257378
 31
0.0
  0
LINE
  5
3022
330
1A
100
AcDbEntity
  8
SEIHIN
100
AcDbLine
 10
251.0352165505451
 20
127.0859485678378
 30
0.0
 11
245.6602501459424
 21
168.7136314129715
 31
0.0
  0
LINE
  5
3023
330
1A
100
AcDbEntity
  8
SEIHIN
100
AcDbLine
 10
237.641939248145
 20
238.2318975590378
 30
0.0
 11
251.9773946210451
 21
127.2076016478378
 31
0.0
  0
LINE
  5
3024
330
1A
100
AcDbEntity
  8
SEIHIN
100
AcDbLine
 10
249.323180231445
 20
126.8648898415378
 30
0.0
 11
234.240609507245
 21
243.6753886006378
 31
0.0
  0
LINE
  5
3026
330
1A
100
AcDbEntity
  8
SEIHIN
100
AcDbLine
 10
323.567278037945
 20
118.8582500629378
 30
0.0
 11
249.7360494986451
 21
118.8582500629378
 31
0.0
  0
LINE
  5
3027
330
1A
100
AcDbEntity
  8
SEIHIN
100
AcDbLine
 10
249.7360494986451
 20
116.8582534603378
 30
0.0
 11
323.230206321145
 21
116.8582534603378
 31
0.0
  0
LINE
  5
3028
330
1A
100
AcDbEntity
  8
SEIHIN
100
AcDbLine
 10
306.7647882804449
 20
122.5082522444378
 30
0.0
 11
256.2419924020451
 21
122.5082522444378
 31
0.0
  0
LINE
  5
3029
330
1A
100
AcDbEntity
  8
SEIHIN
100
AcDbLine
 10
256.2419924020451
 20
123.4582534246378
 30
0.0
 11
306.7647882804449
 21
123.4582534246378
 31
0.0
  0
LINE
  5
302A
330
1A
100
AcDbEntity
  8
SEIHIN
100
AcDbLine
 10
310.913629184645
 20
120.7820048741378
 30
0.0
 11
256.2419924020451
 21
120.7820048741378
 31
0.0
  0
ARC
  5
302C
330
1A
100
AcDbEntity
  8
SEIHIN
100
AcDbCircle
 10
249.736049072045
 20
120.3582501514378
 30
0.0
 40
3.5
100
AcDbArc
 50
187.3573242179
 51
270.0
  0
ARC
  5
302D
330
1A
100
AcDbEntity
  8
SEIHIN
100
AcDbCircle
 10
256.241992390445
 20
127.7582501514378
 30
0.0
 40
5.25
100
AcDbArc
 50
187.3573242179
 51
270.0
  0
ARC
  5
302E
330
1A
100
AcDbEntity
  8
SEIHIN
100
AcDbCircle
 10
256.241992390445
 20
127.7582501514378
 30
0.0
 40
4.299999999999999
100
AcDbArc
 50
187.3573242179
 51
270.0
  0
ARC
  5
302F
330
1A
100
AcDbEntity
  8
SEIHIN
100
AcDbCircle
 10
256.241992390445
 20
127.7582501514378
 30
0.0
 40
6.9762484404
100
AcDbArc
 50
187.3573242179
 51
270.0
  0
ARC
  5
3030
330
1A
100
AcDbEntity
  8
NOKITOI
100
AcDbCircle
 10
251.0773897805948
 20
121.7082500629378
 30
0.0
 40
2.0
100
AcDbArc
 50
187.2566117265178
 51
270.0
  0
ARC
  5
3031
330
1A
100
AcDbEntity
  8
NOKITOI
100
AcDbCircle
 10
249.8883894870887
 20
120.3582500629378
 30
0.0
 40
1.5
100
AcDbArc
 50
187.2566117265178
 51
270.0
  0
ARC
  5
3032
330
1A
100
AcDbEntity
  8
NOKITOI
100
AcDbCircle
 10
254.0278719271203
 20
125.0582500629378
 30
0.0
 40
4.5
100
AcDbArc
 50
187.2566117054866
 51
270.0
  0
ARC
  5
3033
330
1A
100
AcDbEntity
  8
SEIHIN
100
AcDbCircle
 10
249.736049072045
 20
120.3582501514378
 30
0.0
 40
1.5
100
AcDbArc
 50
187.3573242180004
 51
270.0
  0
LINE
  5
3034
330
1A
100
AcDbEntity
  8
CENTER L
 48
5.0
100
AcDbLine
 10
323.5672767778451
 20
104.9747878681378
 30
0.0
 11
323.5672767778451
 21
145.2840990398583
 31
0.0
  0
LINE
  5
3035
330
1A
100
AcDbEntity
  8
SEIHIN
100
AcDbLine
 10
335.2074653908451
 20
120.7582524232378
 30
0.0
 11
311.9270906850452
 21
120.7582524232378
 31
0.0
  0
LWPOLYLINE
  5
3036
330
1A
100
AcDbEntity
  8
SEIHIN
100
AcDbPolyline
 90
        6
 70
   128
 43
0.0
 10
312.067277084245
 20
120.7582524232378
 10
311.9125508770451
 20
120.7703298143378
 10
311.557255040145
 20
120.8952313475378
 10
311.2699271246452
 20
121.1440658382378
 10
311.0971071824451
 20
121.4785969070378
 10
311.0699796184449
 20
121.7605864815378
  0
LINE
  5
3037
330
1A
100
AcDbEntity
  8
SEIHIN
100
AcDbLine
 10
311.0564568147452
 20
121.7582469992378
 30
0.0
 11
311.0564568147452
 21
123.4582534246378
 31
0.0
  0
LWPOLYLINE
  5
3038
330
1A
100
AcDbEntity
  8
SEIHIN
100
AcDbPolyline
 90
        4
 70
   128
 43
0.0
 10
310.913629184645
 20
120.7820048741378
 10
310.9181814894451
 20
120.7778847031378
 10
310.9226816400451
 20
120.7699498347378
 10
310.927088658545
 20
120.7582524232378
  0
LINE
  5
3039
330
1A
100
AcDbEntity
  8
SEIHIN
100
AcDbLine
 10
311.0456907257451
 20
121.7582469992378
 30
0.0
 11
311.0456907257451
 21
123.4582534246378
 31
0.0
  0
LINE
  5
303A
330
1A
100
AcDbEntity
  8
SEIHIN
100
AcDbLine
 10
310.927088658545
 20
120.7582524232378
 30
0.0
 11
311.9270906850452
 21
120.7582524232378
 31
0.0
  0
LWPOLYLINE
  5
303B
330
1A
100
AcDbEntity
  8
SEIHIN
100
AcDbPolyline
 90
        7
 70
   128
 43
0.0
 10
312.067277084245
 20
120.7582524232378
 10
311.993870238945
 20
120.7608377747378
 10
311.6649755343451
 20
120.8390390686378
 10
311.364512245345
 20
121.0324188880378
 10
311.1536086604451
 20
121.3108694367378
 10
311.0537932321449
 20
121.6325482539378
 10
311.0456907257451
 20
121.7582469992378
  0
LINE
  5
303C
330
1A
100
AcDbEntity
  8
SEIHIN
100
AcDbLine
 10
311.0564568147452
 20
121.7582469992378
 30
0.0
 11
311.0456907257451
 21
121.7582469992378
 31
0.0
  0
LINE
  5
303D
330
1A
100
AcDbEntity
  8
SEIHIN
100
AcDbLine
 10
311.0456907257451
 20
123.4582534246378
 30
0.0
 11
311.0564568147452
 21
123.4582534246378
 31
0.0
  0
LWPOLYLINE
  5
303E
330
1A
100
AcDbEntity
  8
SEIHIN
100
AcDbPolyline
 90
        9
 70
   128
 43
0.0
 10
306.7647882804449
 20
122.5082522444378
 10
307.1294867500451
 20
122.5040575675378
 10
307.4819588169451
 20
122.4916225485378
 10
307.8103804096449
 20
122.4713644198378
 10
308.103739570045
 20
122.4439611844378
 10
308.3522015318449
 20
122.4103218130378
 10
308.547432820545
 20
122.3715936951378
 10
308.6828881010451
 20
122.3290583304378
 10
308.754026244545
 20
122.2841536812378
  0
LINE
  5
303F
330
1A
100
AcDbEntity
  8
SEIHIN
100
AcDbLine
 10
309.4006099805451
 20
121.5082502178378
 30
0.0
 11
308.754026244545
 21
122.2841536812378
 31
0.0
  0
LINE
  5
3040
330
1A
100
AcDbEntity
  8
SEIHIN
100
AcDbLine
 10
306.7647882804449
 20
123.4582534246378
 30
0.0
 11
306.7647882804449
 21
122.5082522444378
 31
0.0
  0
LINE
  5
3041
330
1A
100
AcDbEntity
  8
SEIHIN
100
AcDbLine
 10
308.754026244545
 20
122.2841536812378
 30
0.0
 11
308.754026244545
 21
123.4582534246378
 31
0.0
  0
LINE
  5
3042
330
1A
100
AcDbEntity
  8
SEIHIN
100
AcDbLine
 10
308.754026244545
 20
123.4582534246378
 30
0.0
 11
306.7647882804449
 21
123.4582534246378
 31
0.0
  0
LINE
  5
3043
330
1A
100
AcDbEntity
  8
SEIHIN
100
AcDbLine
 10
310.913629184645
 20
120.7820048741378
 30
0.0
 11
309.4006099805451
 21
121.5082502178378
 31
0.0
  0
LINE
  5
3044
330
1A
100
AcDbEntity
  8
SEIHIN
100
AcDbLine
 10
308.754026244545
 20
123.4582534246378
 30
0.0
 11
311.0456907257451
 21
123.4582534246378
 31
0.0
  0
LINE
  5
3045
330
1A
100
AcDbEntity
  8
SEIHIN
100
AcDbLine
 10
338.3805261060452
 20
122.2841536812378
 30
0.0
 11
337.7339423701451
 21
121.5082502178378
 31
0.0
  0
LINE
  5
3046
330
1A
100
AcDbEntity
  8
SEIHIN
100
AcDbLine
 10
336.0888616249449
 20
123.4582534246378
 30
0.0
 11
338.3805261060452
 21
123.4582534246378
 31
0.0
  0
LWPOLYLINE
  5
3047
330
1A
100
AcDbEntity
  8
SEIHIN
100
AcDbPolyline
 90
        6
 70
   128
 43
0.0
 10
336.0678435370451
 20
121.7607429437378
 10
336.0324160263451
 20
121.4620268158378
 10
335.8544738099449
 20
121.1313327960378
 10
335.565063457145
 20
120.8882725052378
 10
335.202786426245
 20
120.7675432972378
 10
335.067275266345
 20
120.7582524232378
  0
LINE
  5
3048
330
1A
100
AcDbEntity
  8
SEIHIN
100
AcDbLine
 10
336.0780955359451
 20
123.4582534246378
 30
0.0
 11
336.0780955359451
 21
121.7582469992378
 31
0.0
  0
LWPOLYLINE
  5
3049
330
1A
100
AcDbEntity
  8
SEIHIN
100
AcDbPolyline
 90
        4
 70
   128
 43
0.0
 10
336.2074599668449
 20
120.7582524232378
 10
336.2118707105451
 20
120.7699498347378
 10
336.216370861245
 20
120.7778847031378
 10
336.2209231659449
 20
120.7820048741378
  0
LINE
  5
304A
330
1A
100
AcDbEntity
  8
SEIHIN
100
AcDbLine
 10
336.0888616249449
 20
123.4582534246378
 30
0.0
 11
336.0888616249449
 21
121.7582469992378
 31
0.0
  0
LINE
  5
304B
330
1A
100
AcDbEntity
  8
SEIHIN
100
AcDbLine
 10
336.2074599668449
 20
120.7582524232378
 30
0.0
 11
335.2074653908451
 21
120.7582524232378
 31
0.0
  0
LWPOLYLINE
  5
304C
330
1A
100
AcDbEntity
  8
SEIHIN
100
AcDbPolyline
 90
        7
 70
   128
 43
0.0
 10
336.0888616249449
 20
121.7582469992378
 10
336.035798589845
 20
121.4401295594378
 10
335.883240501545
 20
121.1565083078378
 10
335.644054512645
 20
120.9328493289378
 10
335.336226324745
 20
120.7935160212378
 10
335.1406858369451
 20
120.7608377747378
 10
335.067275266345
 20
120.7582524232378
  0
LINE
  5
304D
330
1A
100
AcDbEntity
  8
SEIHIN
100
AcDbLine
 10
336.0780955359451
 20
121.7582469992378
 30
0.0
 11
336.0888616249449
 21
121.7582469992378
 31
0.0
  0
LINE
  5
304E
330
1A
100
AcDbEntity
  8
SEIHIN
100
AcDbLine
 10
336.0780955359451
 20
123.4582534246378
 30
0.0
 11
336.0888616249449
 21
123.4582534246378
 31
0.0
  0
LINE
  5
304F
330
1A
100
AcDbEntity
  8
SEIHIN
100
AcDbLine
 10
337.7339423701451
 20
121.5082502178378
 30
0.0
 11
336.2209231659449
 21
120.7820048741378
 31
0.0
  0
LINE
  5
3050
330
1A
100
AcDbEntity
  8
SEIHIN
100
AcDbLine
 10
338.3805261060452
 20
123.4582534246378
 30
0.0
 11
338.3805261060452
 21
122.2841536812378
 31
0.0
  0
LINE
  5
3051
330
1A
100
AcDbEntity
  8
SEIHIN
100
AcDbLine
 10
340.3697640702451
 20
123.4582534246378
 30
0.0
 11
338.3805261060452
 21
123.4582534246378
 31
0.0
  0
LINE
  5
3052
330
1A
100
AcDbEntity
  8
SEIHIN
100
AcDbLine
 10
340.3697640702451
 20
122.5082522444378
 30
0.0
 11
340.3697640702451
 21
123.4582534246378
 31
0.0
  0
LWPOLYLINE
  5
3053
330
1A
100
AcDbEntity
  8
SEIHIN
100
AcDbPolyline
 90
        9
 70
   128
 43
0.0
 10
338.3805261060452
 20
122.2841536812378
 10
338.4516642496451
 20
122.3290583304378
 10
338.587123255445
 20
122.3715936951378
 10
338.7823508188451
 20
122.4103218130378
 10
339.0308127805452
 20
122.4439611844378
 10
339.324171940945
 20
122.4713644198378
 10
339.652593533745
 20
122.4916225485378
 10
340.0050656005451
 20
122.5040575675378
 10
340.3697640702451
 20
122.5082522444378
  0
LINE
  5
3054
330
1A
100
AcDbEntity
  8
NOKITOI
100
AcDbLine
 10
221.0672780164365
 20
267.3582500629378
 30
0.0
 11
221.0672780164365
 21
246.3582500629378
 31
0.0
  0
LINE
  5
3055
330
1A
100
AcDbEntity
  8
NOKITOI
100
AcDbLine
 10
222.7672780164364
 20
265.6582500629379
 30
0.0
 11
222.7672780164364
 21
248.0582500629379
 31
0.0
  0
LINE
  5
3056
330
1A
100
AcDbEntity
  8
NOKITOI
100
AcDbLine
 10
229.8506188164365
 20
265.8477202229378
 30
0.0
 11
232.0916855164364
 21
248.2477202229379
 31
0.0
  0
LINE
  5
3057
330
1A
100
AcDbEntity
  8
NOKITOI
100
AcDbLine
 10
222.5672780164365
 20
265.6582500629379
 30
0.0
 11
222.5672780164365
 21
248.0582500629379
 31
0.0
  0
LINE
  5
3059
330
1A
100
AcDbEntity
  8
SEIHIN
100
AcDbLine
 10
219.917278091645
 20
244.3582510761378
 30
0.0
 11
219.917278091645
 21
271.3582499138378
 31
0.0
  0
LINE
  5
305A
330
1A
100
AcDbEntity
  8
SEIHIN
100
AcDbLine
 10
216.427768866745
 20
270.2797448448378
 30
0.0
 11
217.892444978645
 21
242.3320824466379
 31
0.0
  0
ARC
  5
305B
330
1A
100
AcDbEntity
  8
NOKITOI
100
AcDbCircle
 10
230.6036999164364
 20
248.0582500629379
 30
0.0
 40
1.500000014556298
100
AcDbArc
 50
270.0
 51
7.256611464072712
  0
LINE
  5
305C
330
1A
100
AcDbEntity
  8
NOKITOI
100
AcDbLine
 10
224.2672780164364
 20
246.3582500629378
 30
0.0
 11
232.3084001946759
 21
246.3582500629379
 31
0.0
  0
LINE
  5
305D
330
1A
100
AcDbEntity
  8
NOKITOI
100
AcDbLine
 10
222.5672780164365
 20
244.8582500629378
 30
0.0
 11
232.0829075164365
 21
244.8582500629378
 31
0.0
  0
LINE
  5
305F
330
1A
100
AcDbEntity
  8
SEIHIN
100
AcDbLine
 10
231.398095662945
 20
243.8582500629378
 30
0.0
 11
220.417275379645
 21
243.8582500629378
 31
0.0
  0
ARC
  5
3060
330
1A
100
AcDbEntity
  8
NOKITOI
100
AcDbCircle
 10
224.2672780164364
 20
248.0582500629379
 30
0.0
 40
1.5
100
AcDbArc
 50
180.0
 51
270.0
  0
ARC
  5
3061
330
1A
100
AcDbEntity
  8
NOKITOI
100
AcDbCircle
 10
224.2672780164364
 20
248.0582500629379
 30
0.0
 40
1.7
100
AcDbArc
 50
180.0
 51
270.0
  0
LINE
  5
3063
330
1A
100
AcDbEntity
  8
SEIHIN
100
AcDbLine
 10
218.391760538545
 20
241.8582497350378
 30
0.0
 11
230.5834744351819
 21
241.8582497350378
 31
0.0
  0
ARC
  5
3064
330
1A
100
AcDbEntity
  8
NOKITOI
100
AcDbCircle
 10
222.5672780164365
 20
246.3582500629378
 30
0.0
 40
1.5
100
AcDbArc
 50
180.0
 51
270.0
  0
ARC
  5
3065
330
1A
100
AcDbEntity
  8
SEIHIN
100
AcDbCircle
 10
220.417276777845
 20
244.3582501514378
 30
0.0
 40
0.5
100
AcDbArc
 50
180.0
 51
270.0
  0
ARC
  5
3066
330
1A
100
AcDbEntity
  8
SEIHIN
100
AcDbCircle
 10
218.3917590611451
 20
242.3582501514378
 30
0.0
 40
0.5
100
AcDbArc
 50
183.0000000001001
 51
270.0
  0
LINE
  5
3067
330
1A
100
AcDbEntity
  8
NOKITOI
100
AcDbLine
 10
224.2672780164364
 20
246.5582500629379
 30
0.0
 11
230.6036999164364
 21
246.5582500629379
 31
0.0
  0
ARC
  5
3068
330
1A
100
AcDbEntity
  8
SEIHIN
100
AcDbCircle
 10
230.079322954045
 20
241.3582501514378
 30
0.0
 40
0.5
100
AcDbArc
 50
7.357324218000402
 51
90.0
  0
LWPOLYLINE
  5
3069
330
1A
100
AcDbEntity
  8
SEIHIN
100
AcDbPolyline
 90
        9
 70
   128
 43
0.0
 10
235.968041519845
 20
241.2091067246378
 10
236.049655179645
 20
241.0940921120378
 10
236.139635841545
 20
240.8856341801378
 10
236.2350479766451
 20
240.5905408970379
 10
236.3327716544451
 20
240.2184440009378
 10
236.4296217516451
 20
239.7814916632378
 10
236.5224317714451
 20
239.2939498834378
 10
236.608176778245
 20
238.7717349640378
 10
236.6840516284451
 20
238.2318975590378
  0
LWPOLYLINE
  5
306A
330
1A
100
AcDbEntity
  8
SEIHIN
100
AcDbPolyline
 90
        9
 70
   128
 43
0.0
 10
237.641939248145
 20
238.2318975590378
 10
237.5722353413451
 20
238.7717349640378
 10
237.504805724345
 20
239.2939498834378
 10
237.441853906245
 20
239.7814916632378
 10
237.385436247245
 20
240.2184440009378
 10
237.3373911783451
 20
240.5905408970379
 10
237.299287046545
 20
240.8856341801378
 10
237.2723718240451
 20
241.0940921120378
 10
237.2575209543451
 20
241.2091067246378
  0
LINE
  5
306B
330
1A
100
AcDbEntity
  8
SEIHIN
100
AcDbLine
 10
236.6840516284451
 20
238.2318975590378
 30
0.0
 11
237.641939248145
 21
238.2318975590378
 31
0.0
  0
ARC
  5
306C
330
1A
100
AcDbEntity
  8
NOKITOI
100
AcDbCircle
 10
232.3084001946759
 20
245.3582500629379
 30
0.0
 40
1.0
100
AcDbArc
 50
7.256611726518608
 51
90.0
  0
ARC
  5
306D
330
1A
100
AcDbEntity
  8
NOKITOI
100
AcDbCircle
 10
232.0829075164365
 20
244.3582500629378
 30
0.0
 40
0.5000000048520898
100
AcDbArc
 50
7.256611464071905
 51
90.0
  0
LINE
  5
306E
330
1A
100
AcDbEntity
  8
SEIHIN
100
AcDbLine
 10
235.968041519845
 20
241.2091067246378
 30
0.0
 11
235.205388914045
 21
241.8747173808378
 31
0.0
  0
LINE
  5
306F
330
1A
100
AcDbEntity
  8
SEIHIN
100
AcDbLine
 10
237.2575209543451
 20
241.2091067246378
 30
0.0
 11
235.968041519845
 21
241.2091067246378
 31
0.0
  0
LINE
  5
3070
330
1A
100
AcDbEntity
  8
SEIHIN
100
AcDbLine
 10
235.205388914045
 20
241.8747173808378
 30
0.0
 11
234.240609507245
 21
243.6753886006378
 31
0.0
  0
LWPOLYLINE
  5
3071
330
1A
100
AcDbEntity
  8
SEIHIN
100
AcDbPolyline
 90
        9
 70
   128
 43
0.0
 10
234.240609507245
 20
243.6753886006378
 10
234.225278075045
 20
243.6870319954378
 10
234.192370723145
 20
243.6981426738378
 10
234.143072094045
 20
243.7083238921379
 10
234.079161013645
 20
243.7172049842378
 10
234.0029397115451
 20
243.7244693003378
 10
233.9171537265451
 20
243.7298523448378
 10
233.824893186945
 20
243.7331622652379
 10
233.7294829145451
 20
243.7342798523379
  0
LINE
  5
3072
330
1A
100
AcDbEntity
  8
SEIHIN
100
AcDbLine
 10
232.6157049343451
 20
243.7342798523379
 30
0.0
 11
233.7294829145451
 21
243.7342798523379
 31
0.0
  0
LWPOLYLINE
  5
3073
330
1A
100
AcDbEntity
  8
SEIHIN
100
AcDbPolyline
 90
        7
 70
   128
 43
0.0
 10
232.6157049343451
 20
243.7342798523379
 10
232.365704427645
 20
243.7292041443378
 10
232.1333524838451
 20
243.7137143872378
 10
232.0349731549451
 20
243.7008490972378
 10
231.985952059945
 20
243.6884289793379
 10
231.9762793436451
 20
243.6745690368379
 10
231.9788982227451
 20
243.6722947470378
  0
LINE
  5
3074
330
1A
100
AcDbEntity
  8
SEIHIN
100
AcDbLine
 10
236.9213712468451
 20
243.8124941848379
 30
0.0
 11
237.2575209543451
 21
241.2091067246378
 31
0.0
  0
LWPOLYLINE
  5
3075
330
1A
100
AcDbEntity
  8
SEIHIN
100
AcDbPolyline
 90
        3
 70
   128
 43
0.0
 10
236.9184282675451
 20
243.8352855108378
 10
236.918756093045
 20
243.8327504508378
 10
236.9213712468451
 20
243.8124941848379
  0
LINE
  5
3076
330
1A
100
AcDbEntity
  8
SEIHIN
100
AcDbLine
 10
236.9184282675451
 20
243.8352855108378
 30
0.0
 11
231.6111748173451
 21
243.8352855108378
 31
0.0
  0
ARC
  5
3077
330
1A
100
AcDbEntity
  8
SEIHIN
100
AcDbCircle
 10
231.3980952483451
 20
242.8582501514378
 30
0.0
 40
1.0
100
AcDbArc
 50
7.357324217900015
 51
90.0
  0
ARC
  5
3078
330
1A
100
AcDbEntity
  8
NOKITOI
100
AcDbCircle
 10
229.8598929164365
 20
267.3582500629378
 30
0.0
 40
1.499999964956768
100
AcDbArc
 50
7.256611946555499
 51
90.0
  0
LINE
  5
307A
330
1A
100
AcDbEntity
  8
SEIHIN
100
AcDbLine
 10
220.417275379645
 20
269.8582505993378
 30
0.0
 11
231.917276333245
 21
269.8582505993378
 31
0.0
  0
LINE
  5
307B
330
1A
100
AcDbEntity
  8
SEIHIN
100
AcDbLine
 10
233.917276661145
 20
271.8582509271378
 30
0.0
 11
219.417277078345
 21
271.8582509271378
 31
0.0
  0
LINE
  5
307C
330
1A
100
AcDbEntity
  8
NOKITOI
100
AcDbLine
 10
222.5672780164365
 20
268.8582500629378
 30
0.0
 11
229.8598929164365
 21
268.8582500629378
 31
0.0
  0
ARC
  5
307D
330
1A
100
AcDbEntity
  8
NOKITOI
100
AcDbCircle
 10
224.2672780164364
 20
265.6582500629379
 30
0.0
 40
1.5
100
AcDbArc
 50
90.0
 51
180.0
  0
ARC
  5
307E
330
1A
100
AcDbEntity
  8
NOKITOI
100
AcDbCircle
 10
224.2672780164364
 20
265.6582500629379
 30
0.0
 40
1.7
100
AcDbArc
 50
90.0
 51
180.0
  0
ARC
  5
307F
330
1A
100
AcDbEntity
  8
NOKITOI
100
AcDbCircle
 10
222.5672780164365
 20
267.3582500629378
 30
0.0
 40
1.5
100
AcDbArc
 50
90.0
 51
180.0
  0
LWPOLYLINE
  5
3080
330
1A
100
AcDbEntity
  8
SEIHIN
100
AcDbPolyline
 90
        9
 70
   128
 43
0.0
 10
219.417277078345
 20
271.8582509271378
 10
219.5148200795451
 20
271.8486434034379
 10
219.608619163945
 20
271.8201896361378
 10
219.695060800045
 20
271.7739848606378
 10
219.7708294794451
 20
271.7118023149378
 10
219.833012025045
 20
271.6360336355378
 10
219.8792168006451
 20
271.5495919994378
 10
219.9076705679451
 20
271.4557966403378
 10
219.917278091645
 20
271.3582499138378
  0
LWPOLYLINE
  5
3083
330
1A
100
AcDbEntity
  8
SEIHIN
100
AcDbPolyline
 90
        6
 70
   128
 43
0.0
 10
220.417275379645
 20
269.8582505993378
 10
220.216646145245
 20
269.8162330500379
 10
220.047275821845
 20
269.6945538930378
 10
219.9289121732451
 20
269.4654857925378
 10
219.9172892674451
 20
269.3619003705379
 10
219.917278091645
 20
269.3582495860378
  0
ARC
  5
3086
330
1A
100
AcDbEntity
  8
SEIHIN
100
AcDbCircle
 10
217.925713587245
 20
270.3582501514379
 30
0.0
 40
1.5
100
AcDbArc
 50
90.0
 51
183.0000000000003
  0
LINE
  5
3088
330
1A
100
AcDbEntity
  8
SEIHIN
100
AcDbLine
 10
219.417277078345
 20
271.8582509271378
 30
0.0
 11
217.925711821045
 21
271.8582509271378
 31
0.0
  0
ARC
  5
3089
330
1A
100
AcDbEntity
  8
NOKITOI
100
AcDbCircle
 10
228.3626332164365
 20
265.6582500629379
 30
0.0
 40
1.500000014556298
100
AcDbArc
 50
7.256611464072712
 51
90.0
  0
ARC
  5
308A
330
1A
100
AcDbEntity
  8
NOKITOI
100
AcDbCircle
 10
228.3626332164365
 20
265.6582500629379
 30
0.0
 40
1.500000014556298
100
AcDbArc
 50
7.256611464072712
 51
90.0
  0
ARC
  5
308B
330
1A
100
AcDbEntity
  8
NOKITOI
100
AcDbCircle
 10
228.3626332164365
 20
265.6582500629379
 30
0.0
 40
1.700000014556298
100
AcDbArc
 50
7.256611464072712
 51
90.0
  0
LINE
  5
308C
330
1A
100
AcDbEntity
  8
NOKITOI
100
AcDbLine
 10
224.2672780164364
 20
267.1582500629378
 30
0.0
 11
228.3626332164365
 21
267.1582500629378
 31
0.0
  0
LINE
  5
308D
330
1A
100
AcDbEntity
  8
NOKITOI
100
AcDbLine
 10
224.2672780164364
 20
267.3582500629378
 30
0.0
 11
228.3626332164365
 21
267.3582500629378
 31
0.0
  0
LINE
  5
308F
330
1A
100
AcDbEntity
  8
SEIHIN
100
AcDbLine
 10
232.417277346545
 20
269.3582495860378
 30
0.0
 11
232.417277346545
 21
266.3582509569378
 31
0.0
  0
ARC
  5
3090
330
1A
100
AcDbEntity
  8
SEIHIN
100
AcDbCircle
 10
231.917276777845
 20
269.3582501514379
 30
0.0
 40
0.5
100
AcDbArc
 50
0.0
 51
90.0
  0
LINE
  5
3092
330
1A
100
AcDbEntity
  8
SEIHIN
100
AcDbLine
 10
232.417277346545
 20
266.3582509569378
 30
0.0
 11
233.917276661145
 21
266.3582509569378
 31
0.0
  0
ARC
  5
3094
330
1A
100
AcDbEntity
  8
SEIHIN
100
AcDbCircle
 10
233.917276777845
 20
266.8582501514379
 30
0.0
 40
0.5
100
AcDbArc
 50
270.0
 51
0.0
  0
LINE
  5
3095
330
1A
100
AcDbEntity
  8
SEIHIN
100
AcDbLine
 10
234.4172776743451
 20
266.8582519702379
 30
0.0
 11
234.4172776743451
 21
271.3582499138378
 31
0.0
  0
ARC
  5
3096
330
1A
100
AcDbEntity
  8
SEIHIN
100
AcDbCircle
 10
233.917276777845
 20
271.3582501514379
 30
0.0
 40
0.5
100
AcDbArc
 50
0.0
 51
90.0
  0
LINE
  5
3097
330
1A
100
AcDbEntity
  8
NOKITOI
100
AcDbLine
 10
414.5556533164365
 20
244.4214067829379
 30
0.0
 11
398.7341521164365
 21
120.1687799029378
 31
0.0
  0
LINE
  5
3098
330
1A
100
AcDbEntity
  8
NOKITOI
100
AcDbLine
 10
415.7866776164365
 20
267.5477202229379
 30
0.0
 11
397.5706408164365
 21
124.4898395729378
 31
0.0
  0
LINE
  5
3099
330
1A
100
AcDbEntity
  8
NOKITOI
100
AcDbLine
 10
413.8341654580285
 20
245.4845635050302
 30
0.0
 11
398.0411470126151
 21
121.4556231787532
 31
0.0
  0
LINE
  5
309B
330
1A
100
AcDbEntity
  8
SEIHIN
100
AcDbLine
 10
414.7446856901451
 20
242.9863067529378
 30
0.0
 11
398.8861546918451
 21
120.1661622337378
 31
0.0
  0
LINE
  5
309C
330
1A
100
AcDbEntity
  8
SEIHIN
100
AcDbLine
 10
400.869692961845
 20
119.9100485257378
 30
0.0
 11
416.5593491003451
 21
241.4222790114378
 31
0.0
  0
LINE
  5
309D
330
1A
100
AcDbEntity
  8
SEIHIN
100
AcDbLine
 10
410.4504988595449
 20
238.2318975590378
 30
0.0
 11
405.3479023364812
 21
198.7136314962022
 31
0.0
  0
LINE
  5
309E
330
1A
100
AcDbEntity
  8
SEIHIN
100
AcDbLine
 10
395.1571540042451
 20
127.2076016478378
 30
0.0
 11
409.492622415745
 21
238.2318975590378
 31
0.0
  0
LINE
  5
309F
330
1A
100
AcDbEntity
  8
SEIHIN
100
AcDbLine
 10
412.8939465686451
 20
243.6753886006378
 30
0.0
 11
397.8113786384452
 21
126.8648898415378
 31
0.0
  0
ARC
  5
30A0
330
1A
100
AcDbEntity
  8
NOKITOI
100
AcDbCircle
 10
393.1066841164366
 20
125.0582500629378
 30
0.0
 40
4.499999994700932
100
AcDbArc
 50
270.0
 51
352.7433882487963
  0
ARC
  5
30A1
330
1A
100
AcDbEntity
  8
SEIHIN
100
AcDbCircle
 10
390.8925611652451
 20
127.7582501514378
 30
0.0
 40
4.299999999999999
100
AcDbArc
 50
270.0
 51
352.6426757820998
  0
ARC
  5
30A2
330
1A
100
AcDbEntity
  8
SEIHIN
100
AcDbCircle
 10
390.8925611652451
 20
127.7582501514378
 30
0.0
 40
5.25
100
AcDbArc
 50
270.0
 51
352.6426757820998
  0
ARC
  5
30A3
330
1A
100
AcDbEntity
  8
SEIHIN
100
AcDbCircle
 10
390.8925611652451
 20
127.7582501514378
 30
0.0
 40
6.9762484404
100
AcDbArc
 50
270.0
 51
352.6426757820998
  0
ARC
  5
30A4
330
1A
100
AcDbEntity
  8
NOKITOI
100
AcDbCircle
 10
397.2461666164365
 20
120.3582500629378
 30
0.0
 40
1.499999964956768
100
AcDbArc
 50
270.0
 51
352.7433880534445
  0
ARC
  5
30A5
330
1A
100
AcDbEntity
  8
NOKITOI
100
AcDbCircle
 10
396.0571662522782
 20
121.7082500629378
 30
0.0
 40
2.0
100
AcDbArc
 50
270.0
 51
352.743388273481
  0
ARC
  5
30A7
330
1A
100
AcDbEntity
  8
SEIHIN
100
AcDbCircle
 10
397.3985044835449
 20
120.3582501514378
 30
0.0
 40
1.5
100
AcDbArc
 50
270.0
 51
352.6426757820998
  0
ARC
  5
30A8
330
1A
100
AcDbEntity
  8
SEIHIN
100
AcDbCircle
 10
397.3985044835449
 20
120.3582501514378
 30
0.0
 40
3.5
100
AcDbArc
 50
269.921214650893
 51
352.6426757820998
  0
LINE
  5
30A9
330
1A
100
AcDbEntity
  8
SEIHIN
100
AcDbLine
 10
415.523375670645
 20
243.8352855108378
 30
0.0
 11
410.2161184951451
 21
243.8352855108378
 31
0.0
  0
LINE
  5
30AA
330
1A
100
AcDbEntity
  8
SEIHIN
100
AcDbLine
 10
411.929170887145
 20
241.8747173808378
 30
0.0
 11
411.1665145561451
 21
241.2091067246378
 31
0.0
  0
LWPOLYLINE
  5
30AB
330
1A
100
AcDbEntity
  8
SEIHIN
100
AcDbPolyline
 90
        9
 70
   128
 43
0.0
 10
410.4504988595449
 20
238.2318975590378
 10
410.5263755723449
 20
238.7717349640378
 10
410.612116853945
 20
239.2939498834378
 10
410.7049361869449
 20
239.7814916632378
 10
410.801778833545
 20
240.2184440009378
 10
410.899500648645
 20
240.5905408970379
 10
410.9949127838449
 20
240.8856341801378
 10
411.084900896245
 20
241.0940921120378
 10
411.1665145561451
 20
241.2091067246378
  0
LWPOLYLINE
  5
30AC
330
1A
100
AcDbEntity
  8
SEIHIN
100
AcDbPolyline
 90
        9
 70
   128
 43
0.0
 10
409.877027671045
 20
241.2091067246378
 10
409.8621861144449
 20
241.0940921120378
 10
409.835259716245
 20
240.8856341801378
 10
409.797157447045
 20
240.5905408970379
 10
409.7491161033449
 20
240.2184440009378
 10
409.692700307045
 20
239.7814916632378
 10
409.6297429010451
 20
239.2939498834378
 10
409.5623151466449
 20
238.7717349640378
 10
409.492622415745
 20
238.2318975590378
  0
LINE
  5
30AD
330
1A
100
AcDbEntity
  8
SEIHIN
100
AcDbLine
 10
409.492622415745
 20
238.2318975590378
 30
0.0
 11
410.4504988595449
 21
238.2318975590378
 31
0.0
  0
LINE
  5
30AE
330
1A
100
AcDbEntity
  8
SEIHIN
100
AcDbLine
 10
411.1665145561451
 20
241.2091067246378
 30
0.0
 11
409.877027671045
 21
241.2091067246378
 31
0.0
  0
LINE
  5
30AF
330
1A
100
AcDbEntity
  8
SEIHIN
100
AcDbLine
 10
409.877027671045
 20
241.2091067246378
 30
0.0
 11
410.2131829664449
 21
243.8124941848379
 31
0.0
  0
LWPOLYLINE
  5
30B0
330
1A
100
AcDbEntity
  8
SEIHIN
100
AcDbPolyline
 90
        3
 70
   128
 43
0.0
 10
410.2131829664449
 20
243.8124941848379
 10
410.215790669645
 20
243.8327504508378
 10
410.2161184951451
 20
243.8352855108378
  0
LINE
  5
30B1
330
1A
100
AcDbEntity
  8
NOKITOI
100
AcDbLine
 10
424.3672780164365
 20
265.6582500629379
 30
0.0
 11
424.3672780164365
 21
248.0582500629379
 31
0.0
  0
LINE
  5
30B2
330
1A
100
AcDbEntity
  8
NOKITOI
100
AcDbLine
 10
426.0672780164363
 20
267.3582500629378
 30
0.0
 11
426.0672780164363
 21
246.3582500629378
 31
0.0
  0
LINE
  5
30B3
330
1A
100
AcDbEntity
  8
NOKITOI
100
AcDbLine
 10
417.2839372164364
 20
265.8477202229378
 30
0.0
 11
415.0428705164365
 21
248.2477202229379
 31
0.0
  0
LINE
  5
30B4
330
1A
100
AcDbEntity
  8
NOKITOI
100
AcDbLine
 10
424.5672780164364
 20
265.6582500629379
 30
0.0
 11
424.5672780164364
 21
248.0582500629379
 31
0.0
  0
LINE
  5
30B6
330
1A
100
AcDbEntity
  8
SEIHIN
100
AcDbLine
 10
427.217270533745
 20
271.3582499138378
 30
0.0
 11
427.217270533745
 21
244.3582510761378
 31
0.0
  0
LINE
  5
30B7
330
1A
100
AcDbEntity
  8
SEIHIN
100
AcDbLine
 10
429.242114822545
 20
242.3320824466379
 30
0.0
 11
430.7067797586451
 21
270.2797448448378
 31
0.0
  0
LINE
  5
30B9
330
1A
100
AcDbEntity
  8
SEIHIN
100
AcDbLine
 10
416.5510816417897
 20
241.8582497350378
 30
0.0
 11
428.742791812145
 21
241.8582497350378
 31
0.0
  0
LINE
  5
30BA
330
1A
100
AcDbEntity
  8
NOKITOI
100
AcDbLine
 10
424.5672780164364
 20
244.8582500629378
 30
0.0
 11
415.0516485164364
 21
244.8582500629378
 31
0.0
  0
LINE
  5
30BB
330
1A
100
AcDbEntity
  8
NOKITOI
100
AcDbLine
 10
422.8672780164365
 20
246.5582500629379
 30
0.0
 11
416.5308561164365
 21
246.5582500629379
 31
0.0
  0
LINE
  5
30BC
330
1A
100
AcDbEntity
  8
NOKITOI
100
AcDbLine
 10
422.8672780164365
 20
246.3582500629378
 30
0.0
 11
414.8261558381971
 21
246.3582500629378
 31
0.0
  0
LINE
  5
30BD
330
1A
100
AcDbEntity
  8
SEIHIN
100
AcDbLine
 10
426.717276971045
 20
243.8582500629378
 30
0.0
 11
415.7364622756449
 21
243.8582500629378
 31
0.0
  0
ARC
  5
30BE
330
1A
100
AcDbEntity
  8
NOKITOI
100
AcDbCircle
 10
414.8261558381971
 20
245.3582500629378
 30
0.0
 40
1.0
100
AcDbArc
 50
90.0
 51
172.7433882734812
  0
ARC
  5
30BF
330
1A
100
AcDbEntity
  8
NOKITOI
100
AcDbCircle
 10
416.5308561164365
 20
248.0582500629379
 30
0.0
 40
1.500000014556298
100
AcDbArc
 50
172.7433885359273
 51
270.0
  0
ARC
  5
30C0
330
1A
100
AcDbEntity
  8
NOKITOI
100
AcDbCircle
 10
415.0516485164364
 20
244.3582500629378
 30
0.0
 40
0.5000000048521179
100
AcDbArc
 50
90.0
 51
172.7433885359289
  0
ARC
  5
30C1
330
1A
100
AcDbEntity
  8
SEIHIN
100
AcDbCircle
 10
417.0552306015451
 20
241.3582501514378
 30
0.0
 40
0.5
100
AcDbArc
 50
90.0
 51
172.6426757819996
  0
ARC
  5
30C2
330
1A
100
AcDbEntity
  8
SEIHIN
100
AcDbCircle
 10
415.7364583073449
 20
242.8582501514378
 30
0.0
 40
1.0
100
AcDbArc
 50
90.0
 51
172.6426757819996
  0
LWPOLYLINE
  5
30C3
330
1A
100
AcDbEntity
  8
SEIHIN
100
AcDbPolyline
 90
        7
 70
   128
 43
0.0
 10
415.155659715845
 20
243.6722947470378
 10
415.1540056869451
 20
243.6857616715378
 10
415.113295714545
 20
243.6982376687378
 10
415.0136218473451
 20
243.7124310247378
 10
414.815898339445
 20
243.7270602397378
 10
414.584170381745
 20
243.7339334003378
 10
414.518843691045
 20
243.7342798523379
  0
LINE
  5
30C4
330
1A
100
AcDbEntity
  8
SEIHIN
100
AcDbLine
 10
413.405071298745
 20
243.7342798523379
 30
0.0
 11
414.518843691045
 21
243.7342798523379
 31
0.0
  0
LWPOLYLINE
  5
30C5
330
1A
100
AcDbEntity
  8
SEIHIN
100
AcDbPolyline
 90
        9
 70
   128
 43
0.0
 10
413.405071298745
 20
243.7342798523379
 10
413.3096591636449
 20
243.7331622652379
 10
413.2174060747449
 20
243.7298523448378
 10
413.1316200897449
 20
243.7244693003378
 10
413.0553857490449
 20
243.7172049842378
 10
412.9914746686449
 20
243.7083238921379
 10
412.942181627445
 20
243.6981426738378
 10
412.9092798635449
 20
243.6870319954378
 10
412.8939465686451
 20
243.6753886006378
  0
LINE
  5
30C6
330
1A
100
AcDbEntity
  8
SEIHIN
100
AcDbLine
 10
412.8939465686451
 20
243.6753886006378
 30
0.0
 11
411.929170887145
 21
241.8747173808378
 31
0.0
  0
ARC
  5
30C8
330
1A
100
AcDbEntity
  8
NOKITOI
100
AcDbCircle
 10
422.8672780164365
 20
248.0582500629379
 30
0.0
 40
1.5
100
AcDbArc
 50
270.0
 51
0.0
  0
ARC
  5
30C9
330
1A
100
AcDbEntity
  8
NOKITOI
100
AcDbCircle
 10
422.8672780164365
 20
248.0582500629379
 30
0.0
 40
1.7
100
AcDbArc
 50
270.0
 51
0.0
  0
ARC
  5
30CA
330
1A
100
AcDbEntity
  8
NOKITOI
100
AcDbCircle
 10
424.5672780164364
 20
246.3582500629378
 30
0.0
 40
1.5
100
AcDbArc
 50
270.0
 51
0.0
  0
ARC
  5
30CB
330
1A
100
AcDbEntity
  8
SEIHIN
100
AcDbCircle
 10
426.717276777845
 20
244.3582501514378
 30
0.0
 40
0.5
100
AcDbArc
 50
270.0
 51
0.0
  0
ARC
  5
30CC
330
1A
100
AcDbEntity
  8
SEIHIN
100
AcDbCircle
 10
428.7427944944449
 20
242.3582501514378
 30
0.0
 40
0.5
100
AcDbArc
 50
270.0
 51
356.9999999999
  0
LINE
  5
30CE
330
1A
100
AcDbEntity
  8
SEIHIN
100
AcDbLine
 10
429.2088405296452
 20
271.8582509271378
 30
0.0
 11
427.717278997645
 21
271.8582509271378
 31
0.0
  0
LINE
  5
30CF
330
1A
100
AcDbEntity
  8
NOKITOI
100
AcDbLine
 10
424.5672780164364
 20
268.8582500629378
 30
0.0
 11
417.2746631164363
 21
268.8582500629378
 31
0.0
  0
LINE
  5
30D0
330
1A
100
AcDbEntity
  8
NOKITOI
100
AcDbLine
 10
422.8672780164365
 20
267.1582500629378
 30
0.0
 11
418.7719228164365
 21
267.1582500629378
 31
0.0
  0
LINE
  5
30D1
330
1A
100
AcDbEntity
  8
NOKITOI
100
AcDbLine
 10
422.8672780164365
 20
267.3582500629378
 30
0.0
 11
418.7719228164365
 21
267.3582500629378
 31
0.0
  0
LINE
  5
30D3
330
1A
100
AcDbEntity
  8
SEIHIN
100
AcDbLine
 10
427.717278997645
 20
271.8582509271378
 30
0.0
 11
413.2172719642449
 21
271.8582509271378
 31
0.0
  0
LINE
  5
30D4
330
1A
100
AcDbEntity
  8
SEIHIN
100
AcDbLine
 10
426.717276971045
 20
269.8582505993378
 30
0.0
 11
415.217276017345
 21
269.8582505993378
 31
0.0
  0
ARC
  5
30D5
330
1A
100
AcDbEntity
  8
NOKITOI
100
AcDbCircle
 10
418.7719228164365
 20
265.6582500629379
 30
0.0
 40
1.500000014556298
100
AcDbArc
 50
90.0
 51
172.7433885359273
  0
ARC
  5
30D6
330
1A
100
AcDbEntity
  8
NOKITOI
100
AcDbCircle
 10
418.7719228164365
 20
265.6582500629379
 30
0.0
 40
1.700000014556298
100
AcDbArc
 50
90.0
 51
172.7433885359273
  0
ARC
  5
30D7
330
1A
100
AcDbEntity
  8
NOKITOI
100
AcDbCircle
 10
417.2746631164363
 20
267.3582500629378
 30
0.0
 40
1.499999964956796
100
AcDbArc
 50
90.0
 51
172.7433880534453
  0
ARC
  5
30D8
330
1A
100
AcDbEntity
  8
SEIHIN
100
AcDbCircle
 10
413.2172767778449
 20
266.8582501514379
 30
0.0
 40
0.5
100
AcDbArc
 50
180.0
 51
270.0
  0
LINE
  5
30D9
330
1A
100
AcDbEntity
  8
SEIHIN
100
AcDbLine
 10
413.2172719642449
 20
266.3582509569378
 30
0.0
 11
414.717282454645
 21
266.3582509569378
 31
0.0
  0
LINE
  5
30DB
330
1A
100
AcDbEntity
  8
SEIHIN
100
AcDbLine
 10
414.717282454645
 20
266.3582509569378
 30
0.0
 11
414.717282454645
 21
266.8582519702379
 31
0.0
  0
ARC
  5
30DC
330
1A
100
AcDbEntity
  8
SEIHIN
100
AcDbCircle
 10
413.2172767778449
 20
271.3582501514379
 30
0.0
 40
0.5
100
AcDbArc
 50
90.0
 51
180.0
  0
LINE
  5
30DD
330
1A
100
AcDbEntity
  8
SEIHIN
100
AcDbLine
 10
412.7172784015451
 20
271.3582499138378
 30
0.0
 11
412.7172784015451
 21
266.8582519702379
 31
0.0
  0
ARC
  5
30DF
330
1A
100
AcDbEntity
  8
SEIHIN
100
AcDbCircle
 10
415.2172767778449
 20
269.3582501514379
 30
0.0
 40
0.5
100
AcDbArc
 50
90.0
 51
180.0
  0
LINE
  5
30E0
330
1A
100
AcDbEntity
  8
SEIHIN
100
AcDbLine
 10
414.717282454645
 20
269.3582495860378
 30
0.0
 11
414.717282454645
 21
266.8582519702379
 31
0.0
  0
ARC
  5
30E1
330
1A
100
AcDbEntity
  8
NOKITOI
100
AcDbCircle
 10
422.8672780164365
 20
265.6582500629379
 30
0.0
 40
1.5
100
AcDbArc
 50
0.0
 51
90.0
  0
ARC
  5
30E2
330
1A
100
AcDbEntity
  8
NOKITOI
100
AcDbCircle
 10
422.8672780164365
 20
265.6582500629379
 30
0.0
 40
1.7
100
AcDbArc
 50
0.0
 51
90.0
  0
ARC
  5
30E3
330
1A
100
AcDbEntity
  8
NOKITOI
100
AcDbCircle
 10
424.5672780164364
 20
267.3582500629378
 30
0.0
 40
1.5
100
AcDbArc
 50
0.0
 51
90.0
  0
LWPOLYLINE
  5
30E4
330
1A
100
AcDbEntity
  8
SEIHIN
100
AcDbPolyline
 90
        9
 70
   128
 43
0.0
 10
427.217270533745
 20
271.3582499138378
 10
427.226881782745
 20
271.4557966403378
 10
427.2553430005451
 20
271.5495919994378
 10
427.3015366003451
 20
271.6360336355378
 10
427.3637191459449
 20
271.7118023149378
 10
427.439491550645
 20
271.7739848606378
 10
427.525933186745
 20
271.8201896361378
 10
427.619735996445
 20
271.8486434034379
 10
427.717278997645
 20
271.8582509271378
  0
LWPOLYLINE
  5
30E8
330
1A
100
AcDbEntity
  8
SEIHIN
100
AcDbPolyline
 90
        6
 70
   128
 43
0.0
 10
426.717276971045
 20
269.8582505993378
 10
426.9179062053449
 20
269.8162330500379
 10
427.0872728034451
 20
269.6945538930378
 10
427.2056476280449
 20
269.4654857925378
 10
427.217270533745
 20
269.3619003705379
 10
427.217270533745
 20
269.3582495860378
  0
ARC
  5
30EA
330
1A
100
AcDbEntity
  8
SEIHIN
100
AcDbCircle
 10
429.208839968345
 20
270.3582501514379
 30
0.0
 40
1.5
100
AcDbArc
 50
356.9999999999
 51
90.0
  0
DIMENSION
  5
30EB
330
1A
100
AcDbEntity
  8
SUNPOU
100
AcDbDimension
280
     0
  2
*D7
 10
168.9330041318972
 20
363.3634752373378
 30
0.0
 11
163.9330041318971
 21
418.3634749392878
 31
0.0
 70
    32
 71
     5
 42
-1.0
 73
     0
 74
     0
 75
     0
  3
STANDARD
100
AcDbAlignedDimension
 13
216.9257135197451
 23
473.3634746412376
 33
0.0
 14
216.9257135197451
 24
363.3634752373378
 34
0.0
 50
90.0
100
AcDbRotatedDimension
1001
ACAD
1000
DSTYLE
1002
{
1070
    41
1040
6.0
1070
    42
1040
6.0
1070
    43
1040
14.0
1070
    44
1040
3.0
1070
    73
1070
     0
1070
    74
1070
     0
1070
    77
1070
     3
1070
   140
1040
6.0
1070
   141
1040
10.0
1070
   147
1040
2.0
1070
   172
1070
     1
1070
   173
1070
     1
1070
   176
1070
   256
1070
   177
1070
   256
1070
   178
1070
   256
1070
   271
1070
     0
1070
   272
1070
     0
1070
   341
1005
6D
1070
     6
1000
OPEN
1070
     7
1000
OPEN
1002
}
  0
LINE
  5
30EC
330
1A
100
AcDbEntity
  8
CENTER L
 48
5.0
100
AcDbLine
 10
209.4257125064451
 20
418.3634763667122
 30
0.0
 11
437.708836118845
 21
418.3634753745135
 31
0.0
  0
LINE
  5
30ED
330
1A
100
AcDbEntity
  8
SEIHIN
100
AcDbLine
 10
398.7172773611187
 20
442.3634751479378
 30
0.0
 11
398.7172773611185
 21
463.3634748647376
 31
0.0
  0
LINE
  5
30EE
330
1A
100
AcDbEntity
  8
SEIHIN
100
AcDbLine
 10
414.8572755394822
 20
463.3634748647378
 30
0.0
 11
414.8572756698727
 21
448.3634787876448
 31
0.0
  0
LINE
  5
30EF
330
1A
100
AcDbEntity
  8
CENTER L
 48
5.0
100
AcDbLine
 10
323.5672767778451
 20
356.3634752373378
 30
0.0
 11
323.5672767778451
 21
480.3634746412377
 31
0.0
  0
LINE
  5
30F0
330
1A
100
AcDbEntity
  8
SEIHIN
100
AcDbLine
 10
232.2772781031348
 20
473.3634772974449
 30
0.0
 11
232.2772778858172
 21
448.3634787876448
 31
0.0
  0
LINE
  5
30F1
330
1A
100
AcDbEntity
  8
SEIHIN
100
AcDbLine
 10
248.4172761945714
 20
442.3634751479378
 30
0.0
 11
248.4172761945714
 21
473.3634746412376
 31
0.0
  0
LINE
  5
30F2
330
1A
100
AcDbEntity
  8
SEIHIN
100
AcDbLine
 10
430.708836118845
 20
458.3634749765378
 30
0.0
 11
430.2088425561451
 21
463.3634748647379
 31
0.0
  0
LWPOLYLINE
  5
30F3
330
1A
100
AcDbEntity
  8
SEIHIN
100
AcDbPolyline
 90
        9
 70
   128
 43
0.0
 10
427.217270533745
 20
463.3634748647379
 10
427.226881782745
 20
462.3880234326378
 10
427.2553430005451
 20
461.4500577340378
 10
427.3015366003451
 20
460.5856236780377
 10
427.3637191459449
 20
459.8279406095378
 10
427.439491550645
 20
459.2061263288377
 10
427.525933186745
 20
458.7440767104379
 10
427.619735996445
 20
458.4595483506379
 10
427.717278997645
 20
458.3634749765378
  0
LINE
  5
30F4
330
1A
100
AcDbEntity
  8
SEIHIN
100
AcDbLine
 10
427.217270533745
 20
449.3634744326378
 30
0.0
 11
427.217270533745
 21
463.3634748647379
 31
0.0
  0
LINE
  5
30F5
330
1A
100
AcDbEntity
  8
SEIHIN
100
AcDbLine
 10
216.425712506445
 20
468.3634747530378
 30
0.0
 11
216.425712506445
 21
368.3634779195378
 31
0.0
  0
LINE
  5
30F6
330
1A
100
AcDbEntity
  8
SEIHIN
100
AcDbLine
 10
219.917278091645
 20
473.3634746412377
 30
0.0
 11
219.917278091645
 21
449.3634744326378
 31
0.0
  0
LINE
  5
30F7
330
1A
100
AcDbEntity
  8
SEIHIN
100
AcDbLine
 10
340.3697640702451
 20
442.3634751479378
 30
0.0
 11
390.8925608798449
 21
442.3634751479378
 31
0.0
  0
LINE
  5
30F8
330
1A
100
AcDbEntity
  8
SEIHIN
100
AcDbLine
 10
340.3697640702451
 20
394.3634710053378
 30
0.0
 11
390.8925608798449
 21
394.3634710053378
 31
0.0
  0
LINE
  5
30F9
330
1A
100
AcDbEntity
  8
SEIHIN
100
AcDbLine
 10
397.3984972640451
 20
373.3634731511378
 30
0.0
 11
323.567278037945
 21
363.3634752373378
 31
0.0
  0
LINE
  5
30FA
330
1A
100
AcDbEntity
  8
SEIHIN
100
AcDbLine
 10
248.4172761945714
 20
363.3634752373378
 30
0.0
 11
248.4172761945714
 21
394.3634710053378
 31
0.0
  0
LINE
  5
30FB
330
1A
100
AcDbEntity
  8
SEIHIN
100
AcDbLine
 10
232.277277625036
 20
363.3634752373378
 30
0.0
 11
232.277277625036
 21
388.3634737471378
 31
0.0
  0
LINE
  5
30FC
330
1A
100
AcDbEntity
  8
SEIHIN
100
AcDbLine
 10
219.917278091645
 20
363.3634752373378
 30
0.0
 11
219.917278091645
 21
387.3634717206378
 31
0.0
  0
LINE
  5
30FD
330
1A
100
AcDbEntity
  8
SEIHIN
100
AcDbLine
 10
323.567278037945
 20
363.3634752373378
 30
0.0
 11
216.9257135197451
 21
363.3634752373378
 31
0.0
  0
LINE
  5
30FE
330
1A
100
AcDbEntity
  8
SEIHIN
100
AcDbLine
 10
323.567278037945
 20
363.3634752373378
 30
0.0
 11
216.9257135197451
 21
363.3634752373378
 31
0.0
  0
LINE
  5
30FF
330
1A
100
AcDbEntity
  8
SEIHIN
100
AcDbLine
 10
217.925711821045
 20
368.3634779195378
 30
0.0
 11
216.425712506445
 21
368.3634779195378
 31
0.0
  0
LINE
  5
3100
330
1A
100
AcDbEntity
  8
SEIHIN
100
AcDbLine
 10
219.417277078345
 20
368.3634779195378
 30
0.0
 11
217.925711821045
 21
368.3634779195378
 31
0.0
  0
LINE
  5
3101
330
1A
100
AcDbEntity
  8
SEIHIN
100
AcDbLine
 10
216.425712506445
 20
368.3634779195378
 30
0.0
 11
216.9257135197451
 21
363.3634752373378
 31
0.0
  0
LWPOLYLINE
  5
3102
330
1A
100
AcDbEntity
  8
SEIHIN
100
AcDbPolyline
 90
        9
 70
   128
 43
0.0
 10
219.417277078345
 20
368.3634779195378
 10
219.5148200795451
 20
368.2674026827378
 10
219.608619163945
 20
367.9828724603378
 10
219.695060800045
 20
367.5208247045378
 10
219.7708294794451
 20
366.8990066985378
 10
219.833012025045
 20
366.1413273553378
 10
219.8792168006451
 20
365.2768886427378
 10
219.9076705679451
 20
364.3389276008378
 10
219.917278091645
 20
363.3634752373378
  0
LINE
  5
3103
330
1A
100
AcDbEntity
  8
SEIHIN
100
AcDbLine
 10
236.6840516284451
 20
442.3634751479378
 30
0.0
 11
242.7288281414509
 21
442.3634751479378
 31
0.0
  0
LINE
  5
3104
330
1A
100
AcDbEntity
  8
SEIHIN
100
AcDbLine
 10
236.6840516284451
 20
394.3634710053378
 30
0.0
 11
237.641939248145
 21
394.3634710053378
 31
0.0
  0
LINE
  5
3105
330
1A
100
AcDbEntity
  8
SEIHIN
100
AcDbLine
 10
252.4615104057029
 20
442.3634751479378
 30
0.0
 11
252.4615104057029
 21
394.3634710053378
 31
0.0
  0
LINE
  5
3106
330
1A
100
AcDbEntity
  8
SEIHIN
100
AcDbLine
 10
236.9213712468451
 20
417.9943880776378
 30
0.0
 11
237.2575209543451
 21
396.9943902234378
 31
0.0
  0
LINE
  5
3107
330
1A
100
AcDbEntity
  8
SEIHIN
100
AcDbLine
 10
234.4172776743451
 20
447.8634751181378
 30
0.0
 11
234.4172776743451
 21
388.8634747604378
 31
0.0
  0
LINE
  5
3108
330
1A
100
AcDbEntity
  8
SEIHIN
100
AcDbLine
 10
220.917276392845
 20
388.3634737471378
 30
0.0
 11
233.917276661145
 21
388.3634737471378
 31
0.0
  0
ARC
  5
3109
330
1A
100
AcDbEntity
  8
SEIHIN
100
AcDbCircle
 10
220.917276777845
 20
387.3634746412378
 30
0.0
 40
1.0
100
AcDbArc
 50
90.0
 51
180.0
  0
ARC
  5
310A
330
1A
100
AcDbEntity
  8
SEIHIN
100
AcDbCircle
 10
233.917276777845
 20
388.8634746412378
 30
0.0
 40
0.5
100
AcDbArc
 50
270.0
 51
0.0
  0
LINE
  5
310B
330
1A
100
AcDbEntity
  8
SEIHIN
100
AcDbLine
 10
235.205388914045
 20
402.3634723166377
 30
0.0
 11
234.4172776743451
 21
414.2286783794378
 31
0.0
  0
LWPOLYLINE
  5
310C
330
1A
100
AcDbEntity
  8
SEIHIN
100
AcDbPolyline
 90
        9
 70
   128
 43
0.0
 10
237.641939248145
 20
394.3634710053378
 10
237.5722353413451
 20
394.4124436716378
 10
237.504805724345
 20
394.5577597956378
 10
237.441853906245
 20
394.7946733574378
 10
237.385436247245
 20
395.1154432038378
 10
237.3373911783451
 20
395.5096161703378
 10
237.299287046545
 20
395.9643027524379
 10
237.2723718240451
 20
396.4646762947379
 10
237.2575209543451
 20
396.9943902234378
  0
LWPOLYLINE
  5
310D
330
1A
100
AcDbEntity
  8
SEIHIN
100
AcDbPolyline
 90
        9
 70
   128
 43
0.0
 10
235.968041519845
 20
396.9943902234378
 10
236.049655179645
 20
396.4646762947379
 10
236.139635841545
 20
395.9643027524379
 10
236.2350479766451
 20
395.5096161703378
 10
236.3327716544451
 20
395.1154432038378
 10
236.4296217516451
 20
394.7946733574378
 10
236.5224317714451
 20
394.5577597956378
 10
236.608176778245
 20
394.4124436716378
 10
236.6840516284451
 20
394.3634710053378
  0
LINE
  5
310E
330
1A
100
AcDbEntity
  8
SEIHIN
100
AcDbLine
 10
235.968041519845
 20
396.9943902234378
 30
0.0
 11
235.205388914045
 21
402.3634723166377
 31
0.0
  0
LINE
  5
310F
330
1A
100
AcDbEntity
  8
SEIHIN
100
AcDbLine
 10
235.968041519845
 20
439.7325633804379
 30
0.0
 11
235.205388914045
 21
434.3634738366378
 31
0.0
  0
LINE
  5
3110
330
1A
100
AcDbEntity
  8
SEIHIN
100
AcDbLine
 10
236.9213712468451
 20
418.7325618009378
 30
0.0
 11
237.2575209543451
 21
439.7325633804379
 31
0.0
  0
LINE
  5
3111
330
1A
100
AcDbEntity
  8
SEIHIN
100
AcDbLine
 10
235.205388914045
 20
434.3634738366378
 30
0.0
 11
234.4172776743451
 21
422.4982714991377
 31
0.0
  0
LWPOLYLINE
  5
3112
330
1A
100
AcDbEntity
  8
SEIHIN
100
AcDbPolyline
 90
        4
 70
   128
 43
0.0
 10
236.9213712468451
 20
418.7325618009378
 10
236.918756093045
 20
418.4867820481377
 10
236.918756093045
 20
418.2401678304378
 10
236.9213712468451
 20
417.9943880776378
  0
LINE
  5
3113
330
1A
100
AcDbEntity
  8
SEIHIN
100
AcDbLine
 10
220.917276392845
 20
448.3634742687378
 30
0.0
 11
233.917276661145
 21
448.3634742687378
 31
0.0
  0
ARC
  5
3114
330
1A
100
AcDbEntity
  8
SEIHIN
100
AcDbCircle
 10
220.917276777845
 20
449.3634746412377
 30
0.0
 40
1.0
100
AcDbArc
 50
180.0
 51
270.0
  0
ARC
  5
3115
330
1A
100
AcDbEntity
  8
SEIHIN
100
AcDbCircle
 10
233.917276777845
 20
447.8634746412377
 30
0.0
 40
0.5
100
AcDbArc
 50
0.0
 51
90.0
  0
LWPOLYLINE
  5
3116
330
1A
100
AcDbEntity
  8
SEIHIN
100
AcDbPolyline
 90
        9
 70
   128
 43
0.0
 10
237.641939248145
 20
442.3634751479378
 10
237.5722353413451
 20
442.3145043442379
 10
237.504805724345
 20
442.1691900829379
 10
237.441853906245
 20
441.9322802464377
 10
237.385436247245
 20
441.6115029494378
 10
237.3373911783451
 20
441.2173337082378
 10
237.299287046545
 20
440.7626434008379
 10
237.2723718240451
 20
440.2622735838377
 10
237.2575209543451
 20
439.7325633804379
  0
LWPOLYLINE
  5
3117
330
1A
100
AcDbEntity
  8
SEIHIN
100
AcDbPolyline
 90
        9
 70
   128
 43
0.0
 10
235.968041519845
 20
439.7325633804379
 10
236.049655179645
 20
440.2622735838377
 10
236.139635841545
 20
440.7626434008379
 10
236.2350479766451
 20
441.2173337082378
 10
236.3327716544451
 20
441.6115029494378
 10
236.4296217516451
 20
441.9322802464377
 10
236.5224317714451
 20
442.1691900829379
 10
236.608176778245
 20
442.3145043442379
 10
236.6840516284451
 20
442.3634751479378
  0
LINE
  5
3118
330
1A
100
AcDbEntity
  8
SEIHIN
100
AcDbLine
 10
308.754026244545
 20
396.1562595109377
 30
0.0
 11
311.0456907257451
 21
418.1562631170378
 31
0.0
  0
LINE
  5
3119
330
1A
100
AcDbEntity
  8
SEIHIN
100
AcDbLine
 10
336.0888616249449
 20
418.1562631170378
 30
0.0
 11
338.3805261060452
 21
396.1562595109377
 31
0.0
  0
ARC
  5
311A
330
1A
100
AcDbEntity
  8
SEIHIN
100
AcDbCircle
 10
306.7647886924451
 20
396.3634746412378
 30
0.0
 40
2.0
100
AcDbArc
 50
270.0
 51
354.0531369459989
  0
ARC
  5
311B
330
1A
100
AcDbEntity
  8
SEIHIN
100
AcDbCircle
 10
340.369764863145
 20
396.3634746412378
 30
0.0
 40
2.0
100
AcDbArc
 50
185.9468630540008
 51
270.0
  0
LINE
  5
311C
330
1A
100
AcDbEntity
  8
SEIHIN
100
AcDbLine
 10
335.2074653908451
 20
419.7092621366378
 30
0.0
 11
311.9270906850452
 21
419.7092621366378
 31
0.0
  0
LINE
  5
311D
330
1A
100
AcDbEntity
  8
SEIHIN
100
AcDbLine
 10
335.2074653908451
 20
417.0176877419379
 30
0.0
 11
311.9270906850452
 21
417.0176877419379
 31
0.0
  0
LINE
  5
311E
330
1A
100
AcDbEntity
  8
SEIHIN
100
AcDbLine
 10
308.754026244545
 20
440.5706866423378
 30
0.0
 11
311.0456907257451
 21
418.5706867615378
 31
0.0
  0
ARC
  5
311F
330
1A
100
AcDbEntity
  8
SEIHIN
100
AcDbCircle
 10
309.056455359145
 20
418.3634746412377
 30
0.0
 40
2.0
100
AcDbArc
 50
354.0531369459989
 51
5.946863054000831
  0
LINE
  5
3120
330
1A
100
AcDbEntity
  8
SEIHIN
100
AcDbLine
 10
311.9270906850452
 20
419.7092621366378
 30
0.0
 11
310.927088658545
 21
419.7092621366378
 31
0.0
  0
LINE
  5
3121
330
1A
100
AcDbEntity
  8
SEIHIN
100
AcDbLine
 10
311.9270906850452
 20
417.0176877419379
 30
0.0
 11
310.927088658545
 21
417.0176877419379
 31
0.0
  0
POINT
  5
3122
330
1A
100
AcDbEntity
  8
SEIHIN
100
AcDbPoint
 10
308.5672767778451
 20
442.3634746412377
 30
0.0
  0
ARC
  5
3123
330
1A
100
AcDbEntity
  8
SEIHIN
100
AcDbCircle
 10
306.7647886924451
 20
440.3634746412377
 30
0.0
 40
2.0
100
AcDbArc
 50
5.946863054000831
 51
90.0
  0
LINE
  5
3124
330
1A
100
AcDbEntity
  8
SEIHIN
100
AcDbLine
 10
336.0888616249449
 20
418.5706867615378
 30
0.0
 11
338.3805261060452
 21
440.5706866423378
 31
0.0
  0
ARC
  5
3125
330
1A
100
AcDbEntity
  8
SEIHIN
100
AcDbCircle
 10
338.0780981964449
 20
418.3634746412377
 30
0.0
 40
2.0
100
AcDbArc
 50
174.0531369459992
 51
185.9468630540008
  0
LINE
  5
3126
330
1A
100
AcDbEntity
  8
SEIHIN
100
AcDbLine
 10
336.2074599668449
 20
419.7092621366378
 30
0.0
 11
335.2074653908451
 21
419.7092621366378
 31
0.0
  0
LINE
  5
3127
330
1A
100
AcDbEntity
  8
SEIHIN
100
AcDbLine
 10
336.2074599668449
 20
417.0176877419379
 30
0.0
 11
335.2074653908451
 21
417.0176877419379
 31
0.0
  0
POINT
  5
3128
330
1A
100
AcDbEntity
  8
SEIHIN
100
AcDbPoint
 10
338.5672767778451
 20
442.3634746412377
 30
0.0
  0
ARC
  5
3129
330
1A
100
AcDbEntity
  8
SEIHIN
100
AcDbCircle
 10
340.369764863145
 20
440.3634746412377
 30
0.0
 40
2.0
100
AcDbArc
 50
90.0
 51
174.0531369459992
  0
LINE
  5
312A
330
1A
100
AcDbEntity
  8
SEIHIN
100
AcDbLine
 10
411.929170887145
 20
434.3634738366378
 30
0.0
 11
411.1665145561451
 21
439.7325633804379
 31
0.0
  0
LINE
  5
312B
330
1A
100
AcDbEntity
  8
SEIHIN
100
AcDbLine
 10
411.929170887145
 20
402.3634723166377
 30
0.0
 11
411.1665145561451
 21
396.9943902234378
 31
0.0
  0
LINE
  5
312C
330
1A
100
AcDbEntity
  8
SEIHIN
100
AcDbLine
 10
430.2088425561451
 20
373.3634731511378
 30
0.0
 11
397.3984972640455
 21
373.3634731511378
 31
0.0
  0
LINE
  5
312D
330
1A
100
AcDbEntity
  8
SEIHIN
100
AcDbLine
 10
394.6730431499871
 20
442.3634751479378
 30
0.0
 11
394.6730431499871
 21
394.3634710053378
 31
0.0
  0
LINE
  5
312E
330
1A
100
AcDbEntity
  8
SEIHIN
100
AcDbLine
 10
409.877027671045
 20
396.9943902234378
 30
0.0
 11
410.2131829664449
 21
417.9943880776378
 31
0.0
  0
LINE
  5
312F
330
1A
100
AcDbEntity
  8
SEIHIN
100
AcDbLine
 10
398.7172773611187
 20
373.3634731511378
 30
0.0
 11
398.7172773611187
 21
394.3634710053378
 31
0.0
  0
LINE
  5
3130
330
1A
100
AcDbEntity
  8
SEIHIN
100
AcDbLine
 10
395.1571540042451
 20
394.3634710053378
 30
0.0
 11
400.532123860186
 21
394.3634710053379
 31
0.0
  0
LINE
  5
3131
330
1A
100
AcDbEntity
  8
SEIHIN
100
AcDbLine
 10
390.8925608798449
 20
394.3634710053378
 30
0.0
 11
395.1571540042451
 21
394.3634710053378
 31
0.0
  0
LWPOLYLINE
  5
3132
330
1A
100
AcDbEntity
  8
SEIHIN
100
AcDbPolyline
 90
        9
 70
   128
 43
0.0
 10
409.877027671045
 20
396.9943902234378
 10
409.8621861144449
 20
396.4646762947379
 10
409.835259716245
 20
395.9643027524379
 10
409.797157447045
 20
395.5096161703378
 10
409.7491161033449
 20
395.1154432038378
 10
409.692700307045
 20
394.7946733574378
 10
409.6297429010451
 20
394.5577597956378
 10
409.5623151466449
 20
394.4124436716378
 10
409.492622415745
 20
394.3634710053378
  0
LINE
  5
3133
330
1A
100
AcDbEntity
  8
SEIHIN
100
AcDbLine
 10
409.492622415745
 20
394.3634710053378
 30
0.0
 11
410.4504988595449
 21
394.3634710053378
 31
0.0
  0
LWPOLYLINE
  5
3134
330
1A
100
AcDbEntity
  8
SEIHIN
100
AcDbPolyline
 90
        9
 70
   128
 43
0.0
 10
410.4504988595449
 20
394.3634710053378
 10
410.5263755723449
 20
394.4124436716378
 10
410.612116853945
 20
394.5577597956378
 10
410.7049361869449
 20
394.7946733574378
 10
410.801778833545
 20
395.1154432038378
 10
410.899500648645
 20
395.5096161703378
 10
410.9949127838449
 20
395.9643027524379
 10
411.084900896245
 20
396.4646762947379
 10
411.1665145561451
 20
396.9943902234378
  0
LINE
  5
3135
330
1A
100
AcDbEntity
  8
SEIHIN
100
AcDbLine
 10
409.877027671045
 20
439.7325633804379
 30
0.0
 11
410.2131829664449
 21
418.7325618009378
 31
0.0
  0
LWPOLYLINE
  5
3136
330
1A
100
AcDbEntity
  8
SEIHIN
100
AcDbPolyline
 90
        4
 70
   128
 43
0.0
 10
410.2131829664449
 20
417.9943880776378
 10
410.215790669645
 20
418.2401678304378
 10
410.215790669645
 20
418.4867820481377
 10
410.2131829664449
 20
418.7325618009378
  0
LINE
  5
3137
330
1A
100
AcDbEntity
  8
SEIHIN
100
AcDbLine
 10
395.1571540042451
 20
442.3634751479378
 30
0.0
 11
400.5321237862112
 21
442.3634751479378
 31
0.0
  0
LINE
  5
3138
330
1A
100
AcDbEntity
  8
SEIHIN
100
AcDbLine
 10
390.8925608798449
 20
442.3634751479378
 30
0.0
 11
395.1571540042451
 21
442.3634751479378
 31
0.0
  0
LWPOLYLINE
  5
3139
330
1A
100
AcDbEntity
  8
SEIHIN
100
AcDbPolyline
 90
        9
 70
   128
 43
0.0
 10
409.877027671045
 20
439.7325633804379
 10
409.8621861144449
 20
440.2622735838377
 10
409.835259716245
 20
440.7626434008379
 10
409.797157447045
 20
441.2173337082378
 10
409.7491161033449
 20
441.6115029494378
 10
409.692700307045
 20
441.9322802464377
 10
409.6297429010451
 20
442.1691900829379
 10
409.5623151466449
 20
442.3145043442379
 10
409.492622415745
 20
442.3634751479378
  0
LINE
  5
313A
330
1A
100
AcDbEntity
  8
SEIHIN
100
AcDbLine
 10
409.492622415745
 20
442.3634751479378
 30
0.0
 11
410.4504988595449
 21
442.3634751479378
 31
0.0
  0
LWPOLYLINE
  5
313B
330
1A
100
AcDbEntity
  8
SEIHIN
100
AcDbPolyline
 90
        9
 70
   128
 43
0.0
 10
410.4504988595449
 20
442.3634751479378
 10
410.5263755723449
 20
442.3145043442379
 10
410.612116853945
 20
442.1691900829379
 10
410.7049361869449
 20
441.9322802464377
 10
410.801778833545
 20
441.6115029494378
 10
410.899500648645
 20
441.2173337082378
 10
410.9949127838449
 20
440.7626434008379
 10
411.084900896245
 20
440.2622735838377
 10
411.1665145561451
 20
439.7325633804379
  0
LINE
  5
313C
330
1A
100
AcDbEntity
  8
SEIHIN
100
AcDbLine
 10
430.708836118845
 20
378.3634758333379
 30
0.0
 11
430.708836118845
 21
458.3634749765378
 31
0.0
  0
LINE
  5
313D
330
1A
100
AcDbEntity
  8
SEIHIN
100
AcDbLine
 10
412.7172784015451
 20
388.8634747604378
 30
0.0
 11
412.7172784015451
 21
447.8634751181378
 31
0.0
  0
LINE
  5
313E
330
1A
100
AcDbEntity
  8
SEIHIN
100
AcDbLine
 10
429.2088405296452
 20
378.3634758333379
 30
0.0
 11
427.717278997645
 21
378.3634758333379
 31
0.0
  0
LINE
  5
313F
330
1A
100
AcDbEntity
  8
SEIHIN
100
AcDbLine
 10
414.8572759306539
 20
373.3634731511378
 30
0.0
 11
414.8572759306539
 21
388.3634737471378
 31
0.0
  0
LINE
  5
3140
330
1A
100
AcDbEntity
  8
SEIHIN
100
AcDbLine
 10
427.217270533745
 20
387.3634717206378
 30
0.0
 11
427.217270533745
 21
373.3634731511378
 31
0.0
  0
LWPOLYLINE
  5
3141
330
1A
100
AcDbEntity
  8
SEIHIN
100
AcDbPolyline
 90
        9
 70
   128
 43
0.0
 10
427.217270533745
 20
373.3634731511378
 10
427.226881782745
 20
374.3389255146378
 10
427.2553430005451
 20
375.2768940071379
 10
427.3015366003451
 20
376.1413252691378
 10
427.3637191459449
 20
376.8990120629378
 10
427.439491550645
 20
377.5208226184378
 10
427.525933186745
 20
377.9828703741378
 10
427.619735996445
 20
378.2674005965379
 10
427.717278997645
 20
378.3634758333379
  0
LINE
  5
3142
330
1A
100
AcDbEntity
  8
SEIHIN
100
AcDbLine
 10
413.2172719642449
 20
388.3634737471378
 30
0.0
 11
426.217283408345
 21
388.3634737471378
 31
0.0
  0
ARC
  5
3143
330
1A
100
AcDbEntity
  8
SEIHIN
100
AcDbCircle
 10
413.2172767778449
 20
388.8634746412378
 30
0.0
 40
0.5
100
AcDbArc
 50
180.0
 51
270.0
  0
ARC
  5
3144
330
1A
100
AcDbEntity
  8
SEIHIN
100
AcDbCircle
 10
426.217276777845
 20
387.3634746412378
 30
0.0
 40
1.0
100
AcDbArc
 50
0.0
 51
90.0
  0
LINE
  5
3145
330
1A
100
AcDbEntity
  8
SEIHIN
100
AcDbLine
 10
430.708836118845
 20
378.3634758333379
 30
0.0
 11
429.2088405296452
 21
378.3634758333379
 31
0.0
  0
LINE
  5
3146
330
1A
100
AcDbEntity
  8
SEIHIN
100
AcDbLine
 10
430.2088425561451
 20
373.3634731511378
 30
0.0
 11
430.708836118845
 21
378.3634758333379
 31
0.0
  0
LINE
  5
3147
330
1A
100
AcDbEntity
  8
SEIHIN
100
AcDbLine
 10
412.7172784015451
 20
414.2286783794378
 30
0.0
 11
411.929170887145
 21
402.3634723166377
 31
0.0
  0
LINE
  5
3148
330
1A
100
AcDbEntity
  8
SEIHIN
100
AcDbLine
 10
412.7172784015451
 20
422.4982714991377
 30
0.0
 11
411.929170887145
 21
434.3634738366378
 31
0.0
  0
LINE
  5
3149
330
1A
100
AcDbEntity
  8
SEIHIN
100
AcDbLine
 10
429.2088405296452
 20
458.3634749765378
 30
0.0
 11
427.717278997645
 21
458.3634749765378
 31
0.0
  0
LINE
  5
314A
330
1A
100
AcDbEntity
  8
SEIHIN
100
AcDbLine
 10
413.2172719642449
 20
448.3634742687378
 30
0.0
 11
426.217283408345
 21
448.3634742687378
 31
0.0
  0
ARC
  5
314B
330
1A
100
AcDbEntity
  8
SEIHIN
100
AcDbCircle
 10
413.2172767778449
 20
447.8634746412377
 30
0.0
 40
0.5
100
AcDbArc
 50
90.0
 51
180.0
  0
ARC
  5
314C
330
1A
100
AcDbEntity
  8
SEIHIN
100
AcDbCircle
 10
426.217276777845
 20
449.3634746412377
 30
0.0
 40
1.0
100
AcDbArc
 50
270.0
 51
0.0
  0
LINE
  5
314D
330
1A
100
AcDbEntity
  8
SEIHIN
100
AcDbLine
 10
430.708836118845
 20
458.3634749765378
 30
0.0
 11
429.2088405296452
 21
458.3634749765378
 31
0.0
  0
LINE
  5
314E
330
1A
100
AcDbEntity
  8
SEIHIN
100
AcDbLine
 10
397.3984972640451
 20
463.3634748647379
 30
0.0
 11
323.567278037945
 21
473.3634746412377
 31
0.0
  0
LINE
  5
314F
330
1A
100
AcDbEntity
  8
SEIHIN
100
AcDbLine
 10
323.567278037945
 20
473.3634746412377
 30
0.0
 11
216.9257135197451
 21
473.3634746412376
 31
0.0
  0
LWPOLYLINE
  5
3150
330
1A
100
AcDbEntity
  8
SEIHIN
100
AcDbPolyline
 90
        9
 70
   128
 43
0.0
 10
219.417277078345
 20
468.3634747530378
 10
219.5148200795451
 20
468.4595481271379
 10
219.608619163945
 20
468.7440769526378
 10
219.695060800045
 20
469.2061265709376
 10
219.7708294794451
 20
469.8279408517378
 10
219.833012025045
 20
470.5856234545377
 10
219.8792168006451
 20
471.4500575105378
 10
219.9076705679451
 20
472.3880230344378
 10
219.917278091645
 20
473.3634746412377
  0
LINE
  5
3151
330
1A
100
AcDbEntity
  8
SEIHIN
100
AcDbLine
 10
216.9257135197451
 20
473.3634746412377
 30
0.0
 11
216.425712506445
 21
468.3634747530378
 31
0.0
  0
LINE
  5
3152
330
1A
100
AcDbEntity
  8
SEIHIN
100
AcDbLine
 10
217.925711821045
 20
468.3634747530378
 30
0.0
 11
216.425712506445
 21
468.3634747530378
 31
0.0
  0
LINE
  5
3153
330
1A
100
AcDbEntity
  8
SEIHIN
100
AcDbLine
 10
219.417277078345
 20
468.3634747530378
 30
0.0
 11
217.925711821045
 21
468.3634747530378
 31
0.0
  0
LINE
  5
3154
330
1A
100
AcDbEntity
  8
SEIHIN
100
AcDbLine
 10
430.2088425561451
 20
463.3634748647379
 30
0.0
 11
397.3984972640447
 21
463.3634748647377
 31
0.0
  0
LINE
  5
3155
330
1A
100
AcDbEntity
  8
SEIHIN
100
AcDbLine
 10
414.7446856901451
 20
463.3634748647379
 30
0.0
 11
415.7364622756449
 21
463.3634748647379
 31
0.0
  0
DIMENSION
  5
3156
330
1A
100
AcDbEntity
  8
SUNPOU
100
AcDbDimension
280
     0
  2
*D8
 10
669.4300937649448
 20
334.7947939128069
 30
0.0
 11
614.3805832741449
 21
339.7947939128069
 31
0.0
 70
    32
 71
     5
 42
-1.0
 73
     0
 74
     0
 75
     0
  3
STANDARD
100
AcDbAlignedDimension
 13
559.331072783345
 23
271.3532987986056
 33
0.0
 14
669.4300937649448
 24
271.3532987986056
 34
0.0
100
AcDbRotatedDimension
1001
ACAD
1000
DSTYLE
1002
{
1070
    41
1040
6.0
1070
    42
1040
6.0
1070
    43
1040
14.0
1070
    44
1040
3.0
1070
    73
1070
     0
1070
    74
1070
     0
1070
    77
1070
     3
1070
   140
1040
6.0
1070
   141
1040
10.0
1070
   147
1040
2.0
1070
   172
1070
     1
1070
   173
1070
     1
1070
   176
1070
   256
1070
   177
1070
   256
1070
   178
1070
   256
1070
   271
1070
     0
1070
   272
1070
     0
1070
   341
1005
6D
1070
     6
1000
OPEN
1070
     7
1000
OPEN
1002
}
  0
DIMENSION
  5
3157
330
1A
100
AcDbEntity
  8
SUNPOU
100
AcDbDimension
280
     0
  2
*D9
 10
659.380583274145
 20
319.4901805990692
 30
0.0
 11
614.380583274145
 21
324.4901805990692
 31
0.0
 70
    32
 71
     5
 42
-1.0
 73
     0
 74
     0
 75
     0
  3
STANDARD
100
AcDbAlignedDimension
 13
569.380583274145
 23
271.3582497342378
 33
0.0
 14
659.380583274145
 24
271.3582497342378
 34
0.0
100
AcDbRotatedDimension
1001
ACAD
1000
DSTYLE
1002
{
1070
    41
1040
6.0
1070
    42
1040
6.0
1070
    43
1040
14.0
1070
    44
1040
3.0
1070
    73
1070
     0
1070
    74
1070
     0
1070
    77
1070
     3
1070
   140
1040
6.0
1070
   141
1040
10.0
1070
   147
1040
2.0
1070
   172
1070
     1
1070
   173
1070
     1
1070
   176
1070
   256
1070
   177
1070
   256
1070
   178
1070
   256
1070
   271
1070
     0
1070
   272
1070
     0
1070
   341
1005
6D
1070
     6
1000
OPEN
1070
     7
1000
OPEN
1002
}
  0
LINE
  5
3158
330
1A
100
AcDbEntity
  8
CENTER L
 48
5.0
100
AcDbLine
 10
614.380583274145
 20
106.262836651638
 30
0.0
 11
614.380583274145
 21
278.8582507475378
 31
0.0
  0
LINE
  5
315E
330
1A
100
AcDbEntity
  8
SEIHIN
100
AcDbLine
 10
574.3767230866451
 20
241.8631566166762
 30
0.0
 11
654.3844434616453
 21
241.8631566166762
 31
0.0
  0
LINE
  5
315F
330
1A
100
AcDbEntity
  8
SEIHIN
100
AcDbLine
 10
564.3805822310446
 20
271.8582507475379
 30
0.0
 11
664.3805843172449
 21
271.8582507475379
 31
0.0
  0
LINE
  5
3160
330
1A
100
AcDbEntity
  8
SEIHIN
100
AcDbLine
 10
564.3767251728454
 20
116.8582495554378
 30
0.0
 11
664.334930884645
 21
116.8582495554378
 31
0.0
  0
LINE
  5
3161
330
1A
100
AcDbEntity
  8
SEIHIN
100
AcDbLine
 10
559.331072783345
 20
117.3582505687378
 30
0.0
 11
559.331072783345
 21
271.3532987986056
 31
0.0
  0
LINE
  5
3162
330
1A
100
AcDbEntity
  8
SEIHIN
100
AcDbLine
 10
569.380583274145
 20
271.3582497342378
 30
0.0
 11
569.380583274145
 21
117.3582505687378
 31
0.0
  0
LINE
  5
3163
330
1A
100
AcDbEntity
  8
SEIHIN
100
AcDbLine
 10
559.331072783345
 20
117.3582505687378
 30
0.0
 11
569.3805832741447
 21
117.3582505687378
 31
0.0
  0
LINE
  5
3164
330
1A
100
AcDbEntity
  8
SEIHIN
100
AcDbLine
 10
569.3805832741447
 20
118.8582536085379
 30
0.0
 11
559.331072783345
 21
118.8582536085379
 31
0.0
  0
LINE
  5
3165
330
1A
100
AcDbEntity
  8
SEIHIN
100
AcDbLine
 10
564.376725172845
 20
116.8582495554378
 30
0.0
 11
559.331072783345
 21
117.3582505687378
 31
0.0
  0
LINE
  5
3166
330
1A
100
AcDbEntity
  8
SEIHIN
100
AcDbLine
 10
569.3805832741447
 20
117.3582505687378
 30
0.0
 11
574.3767230866451
 21
116.8582495554378
 31
0.0
  0
LINE
  5
3167
330
1A
100
AcDbEntity
  8
SEIHIN
100
AcDbLine
 10
559.331072783345
 20
243.8582500629378
 30
0.0
 11
569.3310706971451
 21
243.8582500629378
 31
0.0
  0
LINE
  5
3168
330
1A
100
AcDbEntity
  8
SEIHIN
100
AcDbLine
 10
569.380583274145
 20
242.3582507483378
 30
0.0
 11
574.3767230866446
 21
241.8631566166762
 31
0.0
  0
LWPOLYLINE
  5
3169
330
1A
100
AcDbEntity
  8
SEIHIN
100
AcDbPolyline
 90
        9
 70
   128
 43
0.0
 10
564.3805822310446
 20
271.8582507475379
 10
564.2845107195448
 20
271.8486394985378
 10
563.9999804970448
 20
271.8201931818378
 10
563.5379327413447
 20
271.7739846809378
 10
562.9161184606446
 20
271.7118021353378
 10
562.1584353921448
 20
271.6360371812378
 10
561.2940004048446
 20
271.5495955451378
 10
560.3560356375446
 20
271.4557927354378
 10
559.3805832741447
 20
271.3582497342378
  0
LWPOLYLINE
  5
316A
330
1A
100
AcDbEntity
  8
SEIHIN
100
AcDbPolyline
 90
        9
 70
   128
 43
0.0
 10
569.380583274145
 20
271.3582497342378
 10
570.3560356376446
 20
271.4557927354378
 10
571.2940004048448
 20
271.5495955451378
 10
572.1584353921448
 20
271.6360371812378
 10
572.9161184606446
 20
271.7118021353378
 10
573.5379327414448
 20
271.7739846809378
 10
573.9999842224447
 20
271.8201931818378
 10
574.2845107195448
 20
271.8486394985378
 10
574.3805859563449
 20
271.8582507475379
  0
LINE
  5
316B
330
1A
100
AcDbEntity
  8
SEIHIN
100
AcDbLine
 10
669.4300937649448
 20
117.3582505687378
 30
0.0
 11
669.4300937649448
 21
271.3532987986056
 31
0.0
  0
LINE
  5
316C
330
1A
100
AcDbEntity
  8
SEIHIN
100
AcDbLine
 10
659.380583274145
 20
271.3582497342378
 30
0.0
 11
659.380583274145
 21
117.3582505687378
 31
0.0
  0
LINE
  5
316D
330
1A
100
AcDbEntity
  8
SEIHIN
100
AcDbLine
 10
659.380583274145
 20
117.3582505687378
 30
0.0
 11
654.3844434616446
 21
116.8582495554378
 31
0.0
  0
LINE
  5
316E
330
1A
100
AcDbEntity
  8
SEIHIN
100
AcDbLine
 10
664.3844413754448
 20
116.8582495554378
 30
0.0
 11
669.4300937649448
 21
117.3582505687378
 31
0.0
  0
LINE
  5
316F
330
1A
100
AcDbEntity
  8
SEIHIN
100
AcDbLine
 10
659.380583274145
 20
118.8582536085379
 30
0.0
 11
669.4300937649448
 21
118.8582536085379
 31
0.0
  0
LINE
  5
3170
330
1A
100
AcDbEntity
  8
SEIHIN
100
AcDbLine
 10
669.4300937649448
 20
117.3582505687378
 30
0.0
 11
659.380583274145
 21
117.3582505687378
 31
0.0
  0
LINE
  5
3171
330
1A
100
AcDbEntity
  8
SEIHIN
100
AcDbLine
 10
659.380583274145
 20
242.3582507483378
 30
0.0
 11
654.3844434616451
 21
241.8631566166762
 31
0.0
  0
LINE
  5
3172
330
1A
100
AcDbEntity
  8
SEIHIN
100
AcDbLine
 10
669.4300937649448
 20
243.8582500629378
 30
0.0
 11
659.380583274145
 21
243.8582500629378
 31
0.0
  0
LWPOLYLINE
  5
3173
330
1A
100
AcDbEntity
  8
SEIHIN
100
AcDbPolyline
 90
        9
 70
   128
 43
0.0
 10
659.380583274145
 20
271.3582497342378
 10
658.4051309106448
 20
271.4557927354378
 10
657.4671661434449
 20
271.5495955451378
 10
656.6027311561452
 20
271.6360371812378
 10
655.8450480876449
 20
271.7118021353378
 10
655.2232338068452
 20
271.7739846809378
 10
654.7611823258448
 20
271.8201931818378
 10
654.4766558287451
 20
271.8486394985378
 10
654.3805805919451
 20
271.8582507475379
  0
LWPOLYLINE
  5
3174
330
1A
100
AcDbEntity
  8
SEIHIN
100
AcDbPolyline
 90
        9
 70
   128
 43
0.0
 10
664.3805843172449
 20
271.8582507475379
 10
664.4766558287451
 20
271.8486394985378
 10
664.7611860512451
 20
271.8201931818378
 10
665.223233806945
 20
271.7739846809378
 10
665.8450480876449
 20
271.7118021353378
 10
666.6027311561451
 20
271.6360371812378
 10
667.4671661434449
 20
271.5495955451378
 10
668.4051309107451
 20
271.4557927354378
 10
669.380583274145
 20
271.3582497342378
  0
DIMENSION
  5
371F
330
1A
100
AcDbEntity
  8
SUNPOU
100
AcDbDimension
280
     0
  2
*D10
 10
370.8666325917688
 20
394.3634710053378
 30
0.0
 11
365.8666325917687
 21
418.3634730766378
 31
0.0
 70
    32
 71
     5
 42
-1.0
 73
     0
 74
     0
 75
     0
  3
STANDARD
100
AcDbAlignedDimension
 13
365.631162475045
 23
442.3634751479378
 33
0.0
 14
365.631162475045
 24
394.3634710053378
 34
0.0
 50
90.0
100
AcDbRotatedDimension
1001
ACAD
1000
DSTYLE
1002
{
1070
    41
1040
7.0
1070
    42
1040
6.0
1070
    43
1040
14.0
1070
    44
1040
3.0
1070
    73
1070
     0
1070
    74
1070
     0
1070
    77
1070
     3
1070
   140
1040
6.0
1070
   141
1040
150.0
1070
   147
1040
2.0
1070
   172
1070
     1
1070
   173
1070
     1
1070
   176
1070
   256
1070
   177
1070
   256
1070
   178
1070
   256
1070
   271
1070
     0
1070
   272
1070
     0
1070
   341
1005
6D
1070
     6
1000
OPEN
1070
     7
1000
OPEN
1070
   371
1070
    -1
1070
   372
1070
    -1
1002
}
  0
LINE
  5
3A3F
330
1A
100
AcDbEntity
  8
SEIHIN
100
AcDbLine
 10
231.0793578450511
 20
241.4222781960262
 30
0.0
 11
246.7607483866141
 21
119.9740769867262
 31
0.0
  0
ARC
  5
3A40
330
1A
100
AcDbEntity
  8
SEIHIN
100
AcDbCircle
 10
249.736049072045
 20
120.3582501514378
 30
0.0
 40
3.0
100
AcDbArc
 50
187.3573242179
 51
270.0
  0
LINE
  5
3A41
330
1A
100
AcDbEntity
  8
SEIHIN
100
AcDbLine
 10
249.7360494986451
 20
117.3582534603378
 30
0.0
 11
323.230206321145
 21
117.3582534603378
 31
0.0
  0
ARC
  5
3A42
330
1A
100
AcDbEntity
  8
SEIHIN
100
AcDbCircle
 10
397.3985044835449
 20
120.3582501514378
 30
0.0
 40
3.0
100
AcDbArc
 50
269.921214650893
 51
352.6426757820998
  0
LINE
  5
3A43
330
1A
100
AcDbEntity
  8
SEIHIN
100
AcDbLine
 10
400.3738095510104
 20
119.9740769792497
 30
0.0
 11
416.0551982309552
 21
241.4222781885497
 31
0.0
  0
LINE
  5
3A44
330
1A
100
AcDbEntity
  8
SEIHIN
100
AcDbLine
 10
323.230206321145
 20
117.3582534603378
 30
0.0
 11
397.3984972640451
 21
117.3582534603378
 31
0.0
  0
ARC
  5
3A45
330
1A
100
AcDbEntity
  8
SEIHIN
100
AcDbCircle
 10
416.5510816417897
 20
241.3582497350378
 30
0.0
 40
0.5
100
AcDbArc
 50
90.0
 51
172.6426772020957
  0
ARC
  5
3A46
330
1A
100
AcDbEntity
  8
SEIHIN
100
AcDbCircle
 10
230.5834744351819
 20
241.3582497350378
 30
0.0
 40
0.5
100
AcDbArc
 50
7.357323661760227
 51
90.0
  0
TEXT
  5
3F5A
330
1A
100
AcDbEntity
  8
moji
100
AcDbText
 10
-6.289772038637153
 20
308.2232749513557
 30
0.0
 40
8.0
  1
－００－
 50
270.0
 41
0.9
  7
ｽﾀｲﾙ1
100
AcDbText
  0
LINE
  5
4694
330
1A
100
AcDbEntity
  8
SEIHIN
100
AcDbLine
 10
242.7288281414509
 20
442.3634751479379
 30
0.0
 11
243.0516281028297
 21
427.3634746412376
 31
0.0
  0
LINE
  5
4695
330
1A
100
AcDbEntity
  8
SEIHIN
100
AcDbLine
 10
243.0516281028297
 20
427.3634746412376
 30
0.0
 11
246.2796277166183
 21
427.3634746412376
 31
0.0
  0
LINE
  5
4696
330
1A
100
AcDbEntity
  8
SEIHIN
100
AcDbLine
 10
246.2796277166183
 20
427.3634746412376
 30
0.0
 11
246.6024276779971
 21
442.3634751479379
 31
0.0
  0
LINE
  5
4698
330
1A
100
AcDbEntity
  8
SEIHIN
100
AcDbLine
 10
246.279627638384
 20
409.3634777718268
 30
0.0
 11
246.6024276040224
 21
394.3634710053378
 31
0.0
  0
LINE
  5
4699
330
1A
100
AcDbEntity
  8
SEIHIN
100
AcDbLine
 10
242.7288277974511
 20
394.3634710053378
 30
0.0
 11
243.0516280245954
 21
409.3634777998868
 31
0.0
  0
LINE
  5
469A
330
1A
100
AcDbEntity
  8
SEIHIN
100
AcDbLine
 10
243.0516280245954
 20
409.3634777998868
 30
0.0
 11
246.279627638384
 21
409.3634777718268
 31
0.0
  0
LINE
  5
469B
330
1A
100
AcDbEntity
  8
SEIHIN
100
AcDbLine
 10
404.4057236667573
 20
394.3634710053378
 30
0.0
 11
404.0829234396131
 21
409.3634777998868
 31
0.0
  0
LINE
  5
469C
330
1A
100
AcDbEntity
  8
SEIHIN
100
AcDbLine
 10
400.8549238258245
 20
409.3634777718268
 30
0.0
 11
400.5321238601861
 21
394.3634710053378
 31
0.0
  0
LINE
  5
469D
330
1A
100
AcDbEntity
  8
SEIHIN
100
AcDbLine
 10
404.0829234396131
 20
409.3634777998868
 30
0.0
 11
400.8549238258245
 21
409.3634777718268
 31
0.0
  0
LINE
  5
469E
330
1A
100
AcDbEntity
  8
SEIHIN
100
AcDbLine
 10
400.8549237475901
 20
427.3634746412376
 30
0.0
 11
400.5321237862113
 21
442.3634751479379
 31
0.0
  0
LINE
  5
469F
330
1A
100
AcDbEntity
  8
SEIHIN
100
AcDbLine
 10
404.4057233227575
 20
442.3634751479379
 30
0.0
 11
404.0829233613787
 21
427.3634746412376
 31
0.0
  0
LINE
  5
46A0
330
1A
100
AcDbEntity
  8
SEIHIN
100
AcDbLine
 10
404.0829233613787
 20
427.3634746412376
 30
0.0
 11
400.8549237475901
 21
427.3634746412376
 31
0.0
  0
LINE
  5
46A1
330
1A
100
AcDbEntity
  8
SEIHIN
100
AcDbLine
 10
242.7288291871917
 20
198.8352855108377
 30
0.0
 11
241.7866501551067
 21
198.7136313588053
 31
0.0
  0
LINE
  5
46A3
330
1A
100
AcDbEntity
  8
SEIHIN
100
AcDbLine
 10
243.0516291485706
 20
196.3352855108378
 30
0.0
 11
241.3953785616615
 21
196.1214304352296
 31
0.0
  0
LINE
  5
46A5
330
1A
100
AcDbEntity
  8
SEIHIN
100
AcDbLine
 10
246.2796287623592
 20
171.3352855108378
 30
0.0
 11
244.6233781754501
 21
171.1214304352296
 31
0.0
  0
LINE
  5
46A7
330
1A
100
AcDbEntity
  8
SEIHIN
100
AcDbLine
 10
246.602428723738
 20
168.8352855108378
 30
0.0
 11
245.6602501459425
 21
168.7136314129716
 31
0.0
  0
LINE
  5
46A9
330
1A
100
AcDbEntity
  8
SEIHIN
100
AcDbLine
 10
241.7866501556308
 20
198.7136313622772
 30
0.0
 11
241.3953785616615
 21
196.1214304352297
 31
0.0
  0
LINE
  5
46AB
330
1A
100
AcDbEntity
  8
SEIHIN
100
AcDbLine
 10
244.6233781754501
 20
171.1214304352296
 30
0.0
 11
245.6602501459424
 21
168.7136314129715
 31
0.0
  0
LINE
  5
46AC
330
1A
100
AcDbEntity
  8
SUNPOU
100
AcDbLine
 10
240.1398282560647
 20
198.5009937232245
 30
0.0
 11
240.0746142808251
 21
198.4925732950593
 31
0.0
  0
LINE
  5
46AD
330
1A
100
AcDbEntity
  8
SEIHIN
100
AcDbLine
 10
241.7866501560632
 20
198.7136313589288
 30
0.0
 11
236.6840516284451
 21
238.2318975590378
 31
0.0
  0
LINE
  5
46AE
330
1A
100
AcDbEntity
  8
SEIHIN
100
AcDbLine
 10
404.0829244071196
 20
196.3352855108378
 30
0.0
 11
405.7391749940286
 21
196.1214304352296
 31
0.0
  0
LINE
  5
46AF
330
1A
100
AcDbEntity
  8
SEIHIN
100
AcDbLine
 10
404.4057243684984
 20
198.8352855108377
 30
0.0
 11
405.3479023364812
 21
198.7136314962022
 31
0.0
  0
LINE
  5
46B0
330
1A
100
AcDbEntity
  8
SEIHIN
100
AcDbLine
 10
405.3479023364812
 20
198.7136314962022
 30
0.0
 11
405.7391749940286
 21
196.1214304352297
 31
0.0
  0
LINE
  5
46B1
330
1A
100
AcDbEntity
  8
SEIHIN
100
AcDbLine
 10
402.5111753802401
 20
171.1214304352296
 30
0.0
 11
401.4743038301554
 21
168.7136313586885
 31
0.0
  0
LINE
  5
46B2
330
1A
100
AcDbEntity
  8
SEIHIN
100
AcDbLine
 10
400.5321248319522
 20
168.8352855108378
 30
0.0
 11
401.4743038301554
 21
168.7136313586885
 31
0.0
  0
LINE
  5
46B3
330
1A
100
AcDbEntity
  8
SEIHIN
100
AcDbLine
 10
400.854924793331
 20
171.3352855108378
 30
0.0
 11
402.51117538024
 21
171.1214304352296
 31
0.0
  0
LINE
  5
46B5
330
1A
100
AcDbEntity
  8
SEIHIN
100
AcDbLine
 10
401.4743038301554
 20
168.7136313586885
 30
0.0
 11
396.099339525445
 21
127.0859485678378
 31
0.0
  0
LINE
  5
46B6
330
1A
100
AcDbEntity
  8
SEIHIN
100
AcDbLine
 10
246.6024276779971
 20
442.3634751479378
 30
0.0
 11
306.7647882804449
 21
442.3634751479378
 31
0.0
  0
LINE
  5
46B7
330
1A
100
AcDbEntity
  8
SEIHIN
100
AcDbLine
 10
237.641939248145
 20
394.3634710053378
 30
0.0
 11
242.7288277974511
 21
394.3634710053378
 31
0.0
  0
LINE
  5
46B8
330
1A
100
AcDbEntity
  8
SEIHIN
100
AcDbLine
 10
404.4057233227575
 20
442.3634751479378
 30
0.0
 11
409.492622415745
 21
442.3634751479378
 31
0.0
  0
LINE
  5
46B9
330
1A
100
AcDbEntity
  8
SEIHIN
100
AcDbLine
 10
246.6024276040224
 20
394.3634710053378
 30
0.0
 11
306.7647882804449
 21
394.3634710053378
 31
0.0
  0
LINE
  5
46BA
330
1A
100
AcDbEntity
  8
SEIHIN
100
AcDbLine
 10
404.4057236667573
 20
394.3634710053378
 30
0.0
 11
409.492622415745
 21
394.3634710053378
 31
0.0
  0
LINE
  5
46C5
330
1A
100
AcDbEntity
  8
SEIHIN
100
AcDbLine
 10
241.3953785616615
 20
196.1214304352297
 30
0.0
 11
244.6233781754501
 21
171.1214304352296
 31
0.0
  0
LINE
  5
46C6
330
1A
100
AcDbEntity
  8
SEIHIN
100
AcDbLine
 10
405.7391749940286
 20
196.1214304352296
 30
0.0
 11
402.5111753802401
 21
171.1214304352296
 31
0.0
  0
VIEWPORT
  5
22
330
17
100
AcDbEntity
 67
     1
  8
0
100
AcDbViewport
 10
313.6808219178083
 20
148.5
 30
0.0
 40
627.3616438356165
 41
297.0
 68
     2
 69
     1
 12
313.6808219178083
 22
148.5
 13
0.0
 23
0.0
 14
1.0
 24
1.0
 15
10.0
 25
10.0
 16
0.0
 26
0.0
 36
1.0
 17
0.0
 27
0.0
 37
0.0
 42
50.0
 43
0.0
 44
0.0
 45
297.0
 50
0.0
 51
0.0
 72
   100
 90
    32768
  1

281
     0
 71
     1
 74
     0
110
0.0
120
0.0
130
0.0
111
1.0
121
0.0
131
0.0
112
0.0
122
1.0
132
0.0
 79
     0
146
0.0
170
     0
 61
     5
348
46E7
292
     1
282
     1
141
0.0
142
0.0
 63
   250
421
  3355443
  0
VIEWPORT
  5
64
330
17
100
AcDbEntity
 67
     1
  8
VIEWPORT
100
AcDbViewport
 10
210.0
 20
148.5
 30
0.0
 40
420.0
 41
297.0
 68
     1
 69
     2
 12
420.0
 22
297.0
 13
0.0
 23
0.0
 14
10.0
 24
10.0
 15
0.0
 25
0.0
 16
0.0
 26
0.0
 36
1.0
 17
0.0
 27
0.0
 37
0.0
 42
50.0
 43
0.0
 44
0.0
 45
605.8799999999998
 50
0.0
 51
0.0
 72
   100
 90
    32768
  1

281
     0
 71
     1
 74
     0
110
0.0
120
0.0
130
0.0
111
1.0
121
0.0
131
0.0
112
0.0
122
1.0
132
0.0
 79
     0
146
0.0
170
     0
 61
     5
348
46E7
292
     1
282
     1
141
0.0
142
0.0
 63
   250
421
  3355443
  0
ENDSEC
  0
SECTION
  2
OBJECTS
  0
DICTIONARY
  5
C
330
0
100
AcDbDictionary
281
     1
  3
ACAD_COLOR
350
3F4E
  3
ACAD_GROUP
350
D
  3
ACAD_LAYOUT
350
340
  3
ACAD_MATERIAL
350
3F4D
  3
ACAD_MLEADERSTYLE
350
470E
  3
ACAD_MLINESTYLE
350
E
  3
ACAD_PLOTSETTINGS
350
341
  3
ACAD_PLOTSTYLENAME
350
33E
  3
ACAD_SCALELIST
350
46FC
  3
ACAD_TABLESTYLE
350
46FA
  3
ACAD_VISUALSTYLE
350
46E1
  3
ACDB_RECOMPOSE_DATA
350
4746
  3
AcDbVariableDictionary
350
11E9
  0
DICTIONARY
  5
4726
330
F
100
AcDbDictionary
280
     1
281
     1
  3
ADSK_XREC_LAYER_RECONCILED
360
4727
  0
DICTIONARY
  5
4728
330
62
100
AcDbDictionary
280
     1
281
     1
  3
ADSK_XREC_LAYER_RECONCILED
360
4729
  0
DICTIONARY
  5
472A
330
65
100
AcDbDictionary
280
     1
281
     1
  3
ADSK_XREC_LAYER_RECONCILED
360
472B
  0
DICTIONARY
  5
472C
330
153
100
AcDbDictionary
280
     1
281
     1
  3
ADSK_XREC_LAYER_RECONCILED
360
472D
  0
DICTIONARY
  5
472E
330
154
100
AcDbDictionary
280
     1
281
     1
  3
ADSK_XREC_LAYER_RECONCILED
360
472F
  0
DICTIONARY
  5
4730
330
155
100
AcDbDictionary
280
     1
281
     1
  3
ADSK_XREC_LAYER_RECONCILED
360
4731
  0
DICTIONARY
  5
4732
330
59A
100
AcDbDictionary
280
     1
281
     1
  3
ADSK_XREC_LAYER_RECONCILED
360
4733
  0
DICTIONARY
  5
4734
330
1528
100
AcDbDictionary
280
     1
281
     1
  3
ADSK_XREC_LAYER_RECONCILED
360
4735
  0
DICTIONARY
  5
385
330
1A
100
AcDbDictionary
280
     1
281
     1
  3
ACAD_LAYOUTSELFREF
360
3DCE
  0
DICTIONARY
  5
383
330
17
100
AcDbDictionary
280
     1
281
     1
  3
ACAD_LAYOUTSELFREF
360
3DCD
  0
DICTIONARY
  5
3F4E
102
{ACAD_REACTORS
330
C
102
}
330
C
100
AcDbDictionary
281
     1
  0
DICTIONARY
  5
D
102
{ACAD_REACTORS
330
C
102
}
330
C
100
AcDbDictionary
281
     1
  0
DICTIONARY
  5
340
102
{ACAD_REACTORS
330
C
102
}
330
C
100
AcDbDictionary
281
     1
  3
Model
350
342
  3
ﾚｲｱｳﾄ1
350
343
  0
DICTIONARY
  5
3F4D
102
{ACAD_REACTORS
330
C
102
}
330
C
100
AcDbDictionary
281
     1
  3
ByBlock
350
46D1
  3
ByLayer
350
46C9
  3
Global
350
46D9
  0
DICTIONARY
  5
470E
102
{ACAD_REACTORS
330
C
102
}
330
C
100
AcDbDictionary
281
     1
  3
Standard
350
470F
  0
DICTIONARY
  5
E
102
{ACAD_REACTORS
330
C
102
}
330
C
100
AcDbDictionary
281
     1
  3
STANDARD
350
13
  0
DICTIONARY
  5
341
102
{ACAD_REACTORS
330
C
102
}
330
C
100
AcDbDictionary
281
     1
  0
ACDBDICTIONARYWDFLT
  5
33E
102
{ACAD_REACTORS
330
C
102
}
330
C
100
AcDbDictionary
281
     1
  3
Normal
350
33F
100
AcDbDictionaryWithDefault
340
33F
1001
ACAD
1000
TREAT_AS_HARD
1070
     0
1000
TREAT_AS_HARD
1070
     0
1000
TREAT_AS_HARD
1070
     0
1000
TREAT_AS_HARD
1070
     0
1000
TREAT_AS_HARD
1070
     0
1000
TREAT_AS_HARD
1070
     0
1000
TREAT_AS_HARD
1070
     0
1000
TREAT_AS_HARD
1070
     0
1000
TREAT_AS_HARD
1070
     0
1000
TREAT_AS_HARD
1070
     0
1000
TREAT_AS_HARD
1070
     0
1000
TREAT_AS_HARD
1070
     0
  0
DICTIONARY
  5
46FC
102
{ACAD_REACTORS
330
C
102
}
330
C
100
AcDbDictionary
281
     1
  3
A0
350
46FD
  3
A1
350
46FE
  3
A2
350
46FF
  3
A3
350
4700
  3
A4
350
4701
  3
A5
350
4702
  3
A6
350
4703
  3
A7
350
4704
  3
A8
350
4705
  3
A9
350
4706
  3
B0
350
4707
  3
B1
350
4708
  3
B2
350
4709
  3
B3
350
470A
  3
B4
350
470B
  3
B5
350
470C
  3
B6
350
470D
  0
DICTIONARY
  5
46FA
102
{ACAD_REACTORS
330
C
102
}
330
C
100
AcDbDictionary
281
     1
  3
Standard
350
46FB
  0
DICTIONARY
  5
46E1
102
{ACAD_REACTORS
330
C
102
}
330
C
100
AcDbDictionary
281
     1
  3
2dWireframe
350
46E7
  3
Basic
350
46E6
  3
Brighten
350
46ED
  3
ColorChange
350
46F1
  3
Conceptual
350
46EA
  3
Dim
350
46EC
  3
EdgeColorOff
350
46F9
  3
Facepattern
350
46F0
  3
Flat
350
46E2
  3
FlatWithEdges
350
46E3
  3
Gouraud
350
46E4
  3
GouraudWithEdges
350
46E5
  3
Hidden
350
46E9
  3
JitterOff
350
46F7
  3
Linepattern
350
46EF
  3
OverhangOff
350
46F8
  3
Realistic
350
46EB
  3
Shaded
350
46F6
  3
Shaded with edges
350
46F5
  3
Shades of Gray
350
46F2
  3
Sketchy
350
46F3
  3
Thicken
350
46EE
  3
Wireframe
350
46E8
  3
X-Ray
350
46F4
  0
XRECORD
  5
4746
102
{ACAD_REACTORS
330
C
102
}
330
C
100
AcDbXrecord
280
     1
 90
        1
330
46FB
  0
DICTIONARY
  5
11E9
102
{ACAD_REACTORS
330
C
102
}
330
C
100
AcDbDictionary
281
     1
  3
CANNOSCALE
350
4740
  3
CMLEADERSTYLE
350
473E
  3
CTABLESTYLE
350
473D
  3
LAYEREVAL
350
4742
  3
LAYERNOTIFY
350
4743
  3
LIGHTINGUNITS
350
4741
  3
MSLTSCALE
350
473F
  3
SORTENTS
350
11EA
  0
XRECORD
  5
4727
102
{ACAD_REACTORS
330
4726
102
}
330
4726
100
AcDbXrecord
280
     1
290
     1
  0
XRECORD
  5
4729
102
{ACAD_REACTORS
330
4728
102
}
330
4728
100
AcDbXrecord
280
     1
290
     1
  0
XRECORD
  5
472B
102
{ACAD_REACTORS
330
472A
102
}
330
472A
100
AcDbXrecord
280
     1
290
     1
  0
XRECORD
  5
472D
102
{ACAD_REACTORS
330
472C
102
}
330
472C
100
AcDbXrecord
280
     1
290
     1
  0
XRECORD
  5
472F
102
{ACAD_REACTORS
330
472E
102
}
330
472E
100
AcDbXrecord
280
     1
290
     1
  0
XRECORD
  5
4731
102
{ACAD_REACTORS
330
4730
102
}
330
4730
100
AcDbXrecord
280
     1
290
     1
  0
XRECORD
  5
4733
102
{ACAD_REACTORS
330
4732
102
}
330
4732
100
AcDbXrecord
280
     1
290
     1
  0
XRECORD
  5
4735
102
{ACAD_REACTORS
330
4734
102
}
330
4734
100
AcDbXrecord
280
     1
290
     1
  0
XRECORD
  5
3DCE
102
{ACAD_REACTORS
330
385
102
}
330
385
100
AcDbXrecord
280
     1
340
1A
  0
XRECORD
  5
3DCD
102
{ACAD_REACTORS
330
383
102
}
330
383
100
AcDbXrecord
280
     1
340
17
  0
LAYOUT
  5
342
102
{ACAD_REACTORS
330
340
102
}
330
340
100
AcDbPlotSettings
  1

  2
CubePDF_yoko.pc3
  4
A3
  6

 40
3.174999952316284
 41
3.174999952316284
 42
3.17498779296875
 43
3.17498779296875
 44
420.1583251953125
 45
297.0318298339844
 46
0.0
 47
0.0
 48
0.0
 49
0.0
140
0.0
141
0.0
142
1.0
143
2.0
 70
 11952
 72
     1
 73
     0
 74
     1
  7
monochrome.ctb
 75
    17
147
0.5
 76
     0
 77
     2
 78
   300
148
7.972410162878531
149
-13.75872942637511
100
AcDbLayout
  1
Model
 70
     1
 71
     0
 10
0.0
 20
0.0
 11
12.0
 21
9.0
 12
0.0
 22
0.0
 32
0.0
 14
0.0
 24
0.0
 34
0.0
 15
0.0
 25
0.0
 35
0.0
146
0.0
 13
0.0
 23
0.0
 33
0.0
 16
1.0
 26
0.0
 36
0.0
 17
0.0
 27
1.0
 37
0.0
 76
     0
330
1A
331
46C7
  0
LAYOUT
  5
343
102
{ACAD_REACTORS
330
340
102
}
330
340
100
AcDbPlotSettings
  1

  2
Acrobat Distiller
  4

  6

 40
0.0
 41
0.0
 42
0.0
 43
0.0
 44
0.0
 45
0.0
 46
0.0
 47
0.0
 48
0.0
 49
0.0
140
0.0
141
0.0
142
1.0
143
1.0
 70
   688
 72
     0
 73
     0
 74
     5
  7
monochrome.ctb
 75
    16
147
1.0
 76
     0
 77
     2
 78
   300
148
0.0
149
0.0
100
AcDbLayout
  1
ﾚｲｱｳﾄ1
 70
     1
 71
     1
 10
0.0
 20
0.0
 11
420.0
 21
297.0
 12
0.0
 22
0.0
 32
0.0
 14
0.0
 24
0.0
 34
0.0
 15
420.0
 25
297.0
 35
0.0
146
0.0
 13
0.0
 23
0.0
 33
0.0
 16
1.0
 26
0.0
 36
0.0
 17
0.0
 27
1.0
 37
0.0
 76
     0
330
17
331
64
  0
MATERIAL
  5
46D1
102
{ACAD_XDICTIONARY
360
46D2
102
}
102
{ACAD_REACTORS
330
3F4D
102
}
330
3F4D
100
AcDbMaterial
  1
ByBlock
 72
     0
 43
0.0208333333333333
 43
0.0
 43
0.0
 43
0.0
 43
0.0
 43
0.0208333333333333
 43
0.0
 43
0.0
 43
0.0
 43
0.0
 43
1.0
 43
0.0
 43
0.0
 43
0.0
 43
0.0
 43
1.0
 77
     0
 47
0.0208333333333333
 47
0.0
 47
0.0
 47
0.0
 47
0.0
 47
0.0208333333333333
 47
0.0
 47
0.0
 47
0.0
 47
0.0
 47
1.0
 47
0.0
 47
0.0
 47
0.0
 47
0.0
 47
1.0
171
     0
 49
0.0208333333333333
 49
0.0
 49
0.0
 49
0.0
 49
0.0
 49
0.0208333333333333
 49
0.0
 49
0.0
 49
0.0
 49
0.0
 49
1.0
 49
0.0
 49
0.0
 49
0.0
 49
0.0
 49
1.0
175
     0
142
0.0208333333333333
142
0.0
142
0.0
142
0.0
142
0.0
142
0.0208333333333333
142
0.0
142
0.0
142
0.0
142
0.0
142
1.0
142
0.0
142
0.0
142
0.0
142
0.0
142
1.0
179
     0
144
0.0208333333333333
144
0.0
144
0.0
144
0.0
144
0.0
144
0.0208333333333333
144
0.0
144
0.0
144
0.0
144
0.0
144
1.0
144
0.0
144
0.0
144
0.0
144
0.0
144
1.0
147
0.0208333333333333
147
0.0
147
0.0
147
0.0
147
0.0
147
0.0208333333333333
147
0.0
147
0.0
147
0.0
147
0.0
147
1.0
147
0.0
147
0.0
147
0.0
147
0.0
147
1.0
  0
MATERIAL
  5
46C9
102
{ACAD_XDICTIONARY
360
46CA
102
}
102
{ACAD_REACTORS
330
3F4D
102
}
330
3F4D
100
AcDbMaterial
  1
ByLayer
 72
     0
 43
0.0208333333333333
 43
0.0
 43
0.0
 43
0.0
 43
0.0
 43
0.0208333333333333
 43
0.0
 43
0.0
 43
0.0
 43
0.0
 43
1.0
 43
0.0
 43
0.0
 43
0.0
 43
0.0
 43
1.0
 77
     0
 47
0.0208333333333333
 47
0.0
 47
0.0
 47
0.0
 47
0.0
 47
0.0208333333333333
 47
0.0
 47
0.0
 47
0.0
 47
0.0
 47
1.0
 47
0.0
 47
0.0
 47
0.0
 47
0.0
 47
1.0
171
     0
 49
0.0208333333333333
 49
0.0
 49
0.0
 49
0.0
 49
0.0
 49
0.0208333333333333
 49
0.0
 49
0.0
 49
0.0
 49
0.0
 49
1.0
 49
0.0
 49
0.0
 49
0.0
 49
0.0
 49
1.0
175
     0
142
0.0208333333333333
142
0.0
142
0.0
142
0.0
142
0.0
142
0.0208333333333333
142
0.0
142
0.0
142
0.0
142
0.0
142
1.0
142
0.0
142
0.0
142
0.0
142
0.0
142
1.0
179
     0
144
0.0208333333333333
144
0.0
144
0.0
144
0.0
144
0.0
144
0.0208333333333333
144
0.0
144
0.0
144
0.0
144
0.0
144
1.0
144
0.0
144
0.0
144
0.0
144
0.0
144
1.0
147
0.0208333333333333
147
0.0
147
0.0
147
0.0
147
0.0
147
0.0208333333333333
147
0.0
147
0.0
147
0.0
147
0.0
147
1.0
147
0.0
147
0.0
147
0.0
147
0.0
147
1.0
  0
MATERIAL
  5
46D9
102
{ACAD_XDICTIONARY
360
46DA
102
}
102
{ACAD_REACTORS
330
3F4D
102
}
330
3F4D
100
AcDbMaterial
  1
Global
 72
     0
 43
0.0208333333333333
 43
0.0
 43
0.0
 43
0.0
 43
0.0
 43
0.0208333333333333
 43
0.0
 43
0.0
 43
0.0
 43
0.0
 43
1.0
 43
0.0
 43
0.0
 43
0.0
 43
0.0
 43
1.0
 77
     0
 47
0.0208333333333333
 47
0.0
 47
0.0
 47
0.0
 47
0.0
 47
0.0208333333333333
 47
0.0
 47
0.0
 47
0.0
 47
0.0
 47
1.0
 47
0.0
 47
0.0
 47
0.0
 47
0.0
 47
1.0
171
     0
 49
0.0208333333333333
 49
0.0
 49
0.0
 49
0.0
 49
0.0
 49
0.0208333333333333
 49
0.0
 49
0.0
 49
0.0
 49
0.0
 49
1.0
 49
0.0
 49
0.0
 49
0.0
 49
0.0
 49
1.0
175
     0
142
0.0208333333333333
142
0.0
142
0.0
142
0.0
142
0.0
142
0.0208333333333333
142
0.0
142
0.0
142
0.0
142
0.0
142
1.0
142
0.0
142
0.0
142
0.0
142
0.0
142
1.0
179
     0
144
0.0208333333333333
144
0.0
144
0.0
144
0.0
144
0.0
144
0.0208333333333333
144
0.0
144
0.0
144
0.0
144
0.0
144
1.0
144
0.0
144
0.0
144
0.0
144
0.0
144
1.0
147
0.0208333333333333
147
0.0
147
0.0
147
0.0
147
0.0
147
0.0208333333333333
147
0.0
147
0.0
147
0.0
147
0.0
147
1.0
147
0.0
147
0.0
147
0.0
147
0.0
147
1.0
  0
MLEADERSTYLE
  5
470F
102
{ACAD_REACTORS
330
470E
102
}
330
470E
100
AcDbMLeaderStyle
179
     2
170
     2
171
     1
172
     0
 90
        2
 40
0.0
 41
0.0
173
     1
 91
-1056964608
340
14
 92
       -2
290
     1
 42
2.0
291
     1
 43
0.36
  3
Standard
 44
4.0
300

342
10
174
     1
178
     6
175
     1
176
     0
 93
-1056964608
 45
4.0
292
     0
297
     0
 46
4.0
 94
-1056964608
 47
1.0
 49
1.0
140
1.0
293
     1
141
0.0
294
     1
177
     0
142
1.0
295
     1
296
     0
143
0.125
271
     0
272
     9
273
     9
  0
MLINESTYLE
  5
13
102
{ACAD_REACTORS
330
E
102
}
330
E
100
AcDbMlineStyle
  2
STANDARD
 70
     0
  3

 62
     0
 51
90.0
 52
90.0
 71
     2
 49
0.5
 62
   256
  6
BYLAYER
 49
-0.5
 62
   256
  6
BYLAYER
  0
ACDBPLACEHOLDER
  5
33F
102
{ACAD_REACTORS
330
33E
102
}
330
33E
  0
SCALE
  5
46FD
102
{ACAD_REACTORS
330
46FC
102
}
330
46FC
100
AcDbScale
 70
     0
300
1:1
140
1.0
141
1.0
290
     1
  0
SCALE
  5
46FE
102
{ACAD_REACTORS
330
46FC
102
}
330
46FC
100
AcDbScale
 70
     0
300
1:2
140
1.0
141
2.0
290
     0
  0
SCALE
  5
46FF
102
{ACAD_REACTORS
330
46FC
102
}
330
46FC
100
AcDbScale
 70
     0
300
1:4
140
1.0
141
4.0
290
     0
  0
SCALE
  5
4700
102
{ACAD_REACTORS
330
46FC
102
}
330
46FC
100
AcDbScale
 70
     0
300
1:5
140
1.0
141
5.0
290
     0
  0
SCALE
  5
4701
102
{ACAD_REACTORS
330
46FC
102
}
330
46FC
100
AcDbScale
 70
     0
300
1:8
140
1.0
141
8.0
290
     0
  0
SCALE
  5
4702
102
{ACAD_REACTORS
330
46FC
102
}
330
46FC
100
AcDbScale
 70
     0
300
1:10
140
1.0
141
10.0
290
     0
  0
SCALE
  5
4703
102
{ACAD_REACTORS
330
46FC
102
}
330
46FC
100
AcDbScale
 70
     0
300
1:16
140
1.0
141
16.0
290
     0
  0
SCALE
  5
4704
102
{ACAD_REACTORS
330
46FC
102
}
330
46FC
100
AcDbScale
 70
     0
300
1:20
140
1.0
141
20.0
290
     0
  0
SCALE
  5
4705
102
{ACAD_REACTORS
330
46FC
102
}
330
46FC
100
AcDbScale
 70
     0
300
1:30
140
1.0
141
30.0
290
     0
  0
SCALE
  5
4706
102
{ACAD_REACTORS
330
46FC
102
}
330
46FC
100
AcDbScale
 70
     0
300
1:40
140
1.0
141
40.0
290
     0
  0
SCALE
  5
4707
102
{ACAD_REACTORS
330
46FC
102
}
330
46FC
100
AcDbScale
 70
     0
300
1:50
140
1.0
141
50.0
290
     0
  0
SCALE
  5
4708
102
{ACAD_REACTORS
330
46FC
102
}
330
46FC
100
AcDbScale
 70
     0
300
1:100
140
1.0
141
100.0
290
     0
  0
SCALE
  5
4709
102
{ACAD_REACTORS
330
46FC
102
}
330
46FC
100
AcDbScale
 70
     0
300
2:1
140
2.0
141
1.0
290
     0
  0
SCALE
  5
470A
102
{ACAD_REACTORS
330
46FC
102
}
330
46FC
100
AcDbScale
 70
     0
300
4:1
140
4.0
141
1.0
290
     0
  0
SCALE
  5
470B
102
{ACAD_REACTORS
330
46FC
102
}
330
46FC
100
AcDbScale
 70
     0
300
8:1
140
8.0
141
1.0
290
     0
  0
SCALE
  5
470C
102
{ACAD_REACTORS
330
46FC
102
}
330
46FC
100
AcDbScale
 70
     0
300
10:1
140
10.0
141
1.0
290
     0
  0
SCALE
  5
470D
102
{ACAD_REACTORS
330
46FC
102
}
330
46FC
100
AcDbScale
 70
     0
300
100:1
140
100.0
141
1.0
290
     0
  0
TABLESTYLE
  5
46FB
102
{ACAD_XDICTIONARY
360
4744
102
}
102
{ACAD_REACTORS
330
46FA
102
}
330
46FA
100
AcDbTableStyle
280
     0
  3
Standard
 70
     0
 71
     0
 40
1.5
 41
1.5
280
     0
281
     0
  7
STANDARD
140
4.5
170
     2
 62
     0
 63
     7
283
     0
 90
      512
 91
        0
  1

274
    -2
284
     1
 64
     0
275
    -2
285
     1
 65
     0
276
    -2
286
     1
 66
     0
277
    -2
287
     1
 67
     0
278
    -2
288
     1
 68
     0
279
    -2
289
     1
 69
     0
  7
STANDARD
140
6.0
170
     5
 62
     0
 63
     7
283
     0
 90
      512
 91
        0
  1

274
    -2
284
     1
 64
     0
275
    -2
285
     1
 65
     0
276
    -2
286
     1
 66
     0
277
    -2
287
     1
 67
     0
278
    -2
288
     1
 68
     0
279
    -2
289
     1
 69
     0
  7
STANDARD
140
4.5
170
     5
 62
     0
 63
     7
283
     0
 90
      512
 91
        0
  1

274
    -2
284
     1
 64
     0
275
    -2
285
     1
 65
     0
276
    -2
286
     1
 66
     0
277
    -2
287
     1
 67
     0
278
    -2
288
     1
 68
     0
279
    -2
289
     1
 69
     0
  0
VISUALSTYLE
  5
46E7
102
{ACAD_REACTORS
330
46E1
102
}
330
46E1
100
AcDbVisualStyle
  2
2dWireframe
 70
     4
177
     2
291
     0
 71
     0
176
     1
 72
     2
176
     1
 73
     0
176
     1
 90
        0
176
     1
 40
0.6
176
     1
 41
30.0
176
     1
 63
     7
421
 16777215
176
     1
 74
     1
176
     1
 91
        4
176
     1
 64
     7
176
     1
 65
   257
176
     1
 75
     1
176
     1
175
     1
176
     1
 42
1.0
176
     1
 92
        0
176
     1
 66
   257
176
     1
 43
1.0
176
     1
 76
     1
176
     1
 77
     6
176
     1
 78
     2
176
     1
 67
     7
176
     1
 79
     5
176
     1
170
     0
176
     1
171
     0
176
     1
290
     0
176
     1
 93
        1
176
     1
 44
0.0
176
     1
173
     0
176
     1
  0
VISUALSTYLE
  5
46E6
102
{ACAD_REACTORS
330
46E1
102
}
330
46E1
100
AcDbVisualStyle
  2
Basic
 70
     7
177
     2
291
     1
 71
     1
176
     1
 72
     0
176
     1
 73
     1
176
     1
 90
        0
176
     1
 40
0.6
176
     1
 41
30.0
176
     1
 63
     7
421
 16777215
176
     1
 74
     0
176
     1
 91
        4
176
     1
 64
     7
176
     1
 65
   257
176
     1
 75
     1
176
     1
175
     1
176
     1
 42
1.0
176
     1
 92
        8
176
     1
 66
     7
176
     1
 43
1.0
176
     1
 76
     1
176
     1
 77
     6
176
     1
 78
     2
176
     1
 67
     7
176
     1
 79
     5
176
     1
170
     0
176
     1
171
     0
176
     1
290
     0
176
     1
 93
        1
176
     1
 44
0.0
176
     1
173
     0
176
     1
  0
VISUALSTYLE
  5
46ED
102
{ACAD_REACTORS
330
46E1
102
}
330
46E1
100
AcDbVisualStyle
  2
Brighten
 70
    12
177
     2
291
     1
 71
     2
176
     1
 72
     2
176
     1
 73
     0
176
     1
 90
        0
176
     1
 40
0.6
176
     1
 41
30.0
176
     1
 63
     7
421
 16777215
176
     1
 74
     1
176
     1
 91
        4
176
     1
 64
     7
176
     1
 65
   257
176
     1
 75
     1
176
     1
175
     1
176
     1
 42
1.0
176
     1
 92
        8
176
     1
 66
     7
176
     1
 43
1.0
176
     1
 76
     1
176
     1
 77
     6
176
     1
 78
     2
176
     1
 67
     7
176
     1
 79
     5
176
     1
170
     0
176
     1
171
     0
176
     1
290
     0
176
     1
 93
        1
176
     1
 44
50.0
176
     1
173
     0
176
     1
  0
VISUALSTYLE
  5
46F1
102
{ACAD_REACTORS
330
46E1
102
}
330
46E1
100
AcDbVisualStyle
  2
ColorChange
 70
    16
177
     2
291
     1
 71
     2
176
     1
 72
     2
176
     1
 73
     3
176
     1
 90
        0
176
     1
 40
0.6
176
     1
 41
30.0
176
     1
 63
     8
421
  8421504
176
     1
 74
     1
176
     1
 91
        4
176
     1
 64
     7
176
     1
 65
   257
176
     1
 75
     1
176
     1
175
     1
176
     1
 42
1.0
176
     1
 92
        8
176
     1
 66
     8
424
  8421504
176
     1
 43
1.0
176
     1
 76
     1
176
     1
 77
     6
176
     1
 78
     2
176
     1
 67
     7
176
     1
 79
     5
176
     1
170
     0
176
     1
171
     0
176
     1
290
     0
176
     1
 93
        1
176
     1
 44
0.0
176
     1
173
     0
176
     1
  0
VISUALSTYLE
  5
46EA
102
{ACAD_REACTORS
330
46E1
102
}
330
46E1
100
AcDbVisualStyle
  2
Conceptual
 70
     9
177
     2
291
     0
 71
     3
176
     1
 72
     2
176
     1
 73
     0
176
     1
 90
        0
176
     1
 40
0.6
176
     1
 41
30.0
176
     1
 63
     7
421
 16777215
176
     1
 74
     2
176
     1
 91
        2
176
     1
 64
     7
176
     1
 65
   257
176
     1
 75
     1
176
     1
175
     1
176
     1
 42
179.0
176
     1
 92
        8
176
     1
 66
     7
176
     1
 43
1.0
176
     1
 76
     1
176
     1
 77
     6
176
     1
 78
     2
176
     1
 67
     7
176
     1
 79
     3
176
     1
170
     0
176
     1
171
     0
176
     1
290
     0
176
     1
 93
        1
176
     1
 44
0.0
176
     1
173
     0
176
     1
  0
VISUALSTYLE
  5
46EC
102
{ACAD_REACTORS
330
46E1
102
}
330
46E1
100
AcDbVisualStyle
  2
Dim
 70
    11
177
     2
291
     1
 71
     2
176
     1
 72
     2
176
     1
 73
     0
176
     1
 90
        0
176
     1
 40
0.6
176
     1
 41
30.0
176
     1
 63
     7
421
 16777215
176
     1
 74
     1
176
     1
 91
        4
176
     1
 64
     7
176
     1
 65
   257
176
     1
 75
     1
176
     1
175
     1
176
     1
 42
1.0
176
     1
 92
        8
176
     1
 66
     7
176
     1
 43
1.0
176
     1
 76
     1
176
     1
 77
     6
176
     1
 78
     2
176
     1
 67
     7
176
     1
 79
     5
176
     1
170
     0
176
     1
171
     0
176
     1
290
     0
176
     1
 93
        1
176
     1
 44
-50.0
176
     1
173
     0
176
     1
  0
VISUALSTYLE
  5
46F9
102
{ACAD_REACTORS
330
46E1
102
}
330
46E1
100
AcDbVisualStyle
  2
EdgeColorOff
 70
    22
177
     2
291
     1
 71
     2
176
     0
 72
     2
176
     0
 73
     0
176
     0
 90
        0
176
     0
 40
0.6
176
     0
 41
30.0
176
     0
 63
     7
421
 16777215
176
     0
 74
     1
176
     0
 91
        4
176
     0
 64
     7
176
     0
 65
   257
176
     0
 75
     1
176
     0
175
     1
176
     0
 42
1.0
176
     0
 92
        8
176
     2
 66
     7
176
     0
 43
1.0
176
     0
 76
     1
176
     0
 77
     6
176
     0
 78
     2
176
     0
 67
     7
176
     0
 79
     5
176
     0
170
     0
176
     0
171
     0
176
     0
290
     0
176
     0
 93
        1
176
     0
 44
0.0
176
     0
173
     0
176
     0
  0
VISUALSTYLE
  5
46F0
102
{ACAD_REACTORS
330
46E1
102
}
330
46E1
100
AcDbVisualStyle
  2
Facepattern
 70
    15
177
     2
291
     1
 71
     2
176
     1
 72
     2
176
     1
 73
     0
176
     1
 90
        0
176
     1
 40
0.6
176
     1
 41
30.0
176
     1
 63
     7
421
 16777215
176
     1
 74
     1
176
     1
 91
        4
176
     1
 64
     7
176
     1
 65
   257
176
     1
 75
     1
176
     1
175
     1
176
     1
 42
1.0
176
     1
 92
        8
176
     1
 66
     7
176
     1
 43
1.0
176
     1
 76
     1
176
     1
 77
     6
176
     1
 78
     2
176
     1
 67
     7
176
     1
 79
     5
176
     1
170
     0
176
     1
171
     0
176
     1
290
     0
176
     1
 93
        1
176
     1
 44
0.0
176
     1
173
     0
176
     1
  0
VISUALSTYLE
  5
46E2
102
{ACAD_REACTORS
330
46E1
102
}
330
46E1
100
AcDbVisualStyle
  2
Flat
 70
     0
177
     2
291
     1
 71
     2
176
     1
 72
     1
176
     1
 73
     1
176
     1
 90
        2
176
     1
 40
0.6
176
     1
 41
30.0
176
     1
 63
     7
421
 16777215
176
     1
 74
     0
176
     1
 91
        0
176
     1
 64
     7
176
     1
 65
   257
176
     1
 75
     1
176
     1
175
     1
176
     1
 42
1.0
176
     1
 92
        8
176
     1
 66
     7
176
     1
 43
1.0
176
     1
 76
     1
176
     1
 77
     6
176
     1
 78
     2
176
     1
 67
     7
176
     1
 79
     5
176
     1
170
     0
176
     1
171
     0
176
     1
290
     0
176
     1
 93
       13
176
     1
 44
0.0
176
     1
173
     0
176
     1
  0
VISUALSTYLE
  5
46E3
102
{ACAD_REACTORS
330
46E1
102
}
330
46E1
100
AcDbVisualStyle
  2
FlatWithEdges
 70
     1
177
     2
291
     1
 71
     2
176
     1
 72
     1
176
     1
 73
     1
176
     1
 90
        2
176
     1
 40
0.6
176
     1
 41
30.0
176
     1
 63
     7
421
 16777215
176
     1
 74
     1
176
     1
 91
        0
176
     1
 64
     7
176
     1
 65
   257
176
     1
 75
     1
176
     1
175
     1
176
     1
 42
1.0
176
     1
 92
        0
176
     1
 66
   257
176
     1
 43
1.0
176
     1
 76
     1
176
     1
 77
     6
176
     1
 78
     2
176
     1
 67
     7
176
     1
 79
     5
176
     1
170
     0
176
     1
171
     0
176
     1
290
     0
176
     1
 93
       13
176
     1
 44
0.0
176
     1
173
     0
176
     1
  0
VISUALSTYLE
  5
46E4
102
{ACAD_REACTORS
330
46E1
102
}
330
46E1
100
AcDbVisualStyle
  2
Gouraud
 70
     2
177
     2
291
     1
 71
     2
176
     1
 72
     2
176
     1
 73
     1
176
     1
 90
        2
176
     1
 40
0.6
176
     1
 41
30.0
176
     1
 63
     7
421
 16777215
176
     1
 74
     0
176
     1
 91
        0
176
     1
 64
     7
176
     1
 65
   257
176
     1
 75
     1
176
     1
175
     1
176
     1
 42
1.0
176
     1
 92
        0
176
     1
 66
     7
176
     1
 43
1.0
176
     1
 76
     1
176
     1
 77
     6
176
     1
 78
     2
176
     1
 67
     7
176
     1
 79
     5
176
     1
170
     0
176
     1
171
     0
176
     1
290
     0
176
     1
 93
       13
176
     1
 44
0.0
176
     1
173
     0
176
     1
  0
VISUALSTYLE
  5
46E5
102
{ACAD_REACTORS
330
46E1
102
}
330
46E1
100
AcDbVisualStyle
  2
GouraudWithEdges
 70
     3
177
     2
291
     1
 71
     2
176
     1
 72
     2
176
     1
 73
     1
176
     1
 90
        2
176
     1
 40
0.6
176
     1
 41
30.0
176
     1
 63
     7
421
 16777215
176
     1
 74
     1
176
     1
 91
        0
176
     1
 64
     7
176
     1
 65
   257
176
     1
 75
     1
176
     1
175
     1
176
     1
 42
1.0
176
     1
 92
        0
176
     1
 66
   257
176
     1
 43
1.0
176
     1
 76
     1
176
     1
 77
     6
176
     1
 78
     2
176
     1
 67
     7
176
     1
 79
     5
176
     1
170
     0
176
     1
171
     0
176
     1
290
     0
176
     1
 93
       13
176
     1
 44
0.0
176
     1
173
     0
176
     1
  0
VISUALSTYLE
  5
46E9
102
{ACAD_REACTORS
330
46E1
102
}
330
46E1
100
AcDbVisualStyle
  2
Hidden
 70
     6
177
     2
291
     0
 71
     1
176
     1
 72
     2
176
     1
 73
     2
176
     1
 90
        0
176
     1
 40
0.6
176
     1
 41
30.0
176
     1
 63
     7
421
 16777215
176
     1
 74
     2
176
     1
 91
        2
176
     1
 64
     7
176
     1
 65
   257
176
     1
 75
     2
176
     1
175
     1
176
     1
 42
40.0
176
     1
 92
        0
176
     1
 66
   257
176
     1
 43
1.0
176
     1
 76
     1
176
     1
 77
     6
176
     1
 78
     2
176
     1
 67
     7
176
     1
 79
     3
176
     1
170
     0
176
     1
171
     0
176
     1
290
     0
176
     1
 93
        1
176
     1
 44
0.0
176
     1
173
     0
176
     1
  0
VISUALSTYLE
  5
46F7
102
{ACAD_REACTORS
330
46E1
102
}
330
46E1
100
AcDbVisualStyle
  2
JitterOff
 70
    20
177
     2
291
     1
 71
     2
176
     0
 72
     2
176
     0
 73
     0
176
     0
 90
        0
176
     0
 40
0.6
176
     0
 41
30.0
176
     0
 63
     7
421
 16777215
176
     0
 74
     1
176
     0
 91
        4
176
     0
 64
     7
176
     0
 65
   257
176
     0
 75
     1
176
     0
175
     1
176
     0
 42
1.0
176
     0
 92
       10
176
     2
 66
     7
176
     0
 43
1.0
176
     0
 76
     1
176
     0
 77
     6
176
     0
 78
     2
176
     0
 67
     7
176
     0
 79
     5
176
     0
170
     0
176
     0
171
     0
176
     0
290
     0
176
     0
 93
        1
176
     0
 44
0.0
176
     0
173
     0
176
     0
  0
VISUALSTYLE
  5
46EF
102
{ACAD_REACTORS
330
46E1
102
}
330
46E1
100
AcDbVisualStyle
  2
Linepattern
 70
    14
177
     2
291
     1
 71
     2
176
     1
 72
     2
176
     1
 73
     0
176
     1
 90
        0
176
     1
 40
0.6
176
     1
 41
30.0
176
     1
 63
     7
421
 16777215
176
     1
 74
     1
176
     1
 91
        4
176
     1
 64
     7
176
     1
 65
   257
176
     1
 75
     7
176
     1
175
     7
176
     1
 42
1.0
176
     1
 92
        8
176
     1
 66
     7
176
     1
 43
1.0
176
     1
 76
     1
176
     1
 77
     6
176
     1
 78
     2
176
     1
 67
     7
176
     1
 79
     5
176
     1
170
     0
176
     1
171
     0
176
     1
290
     0
176
     1
 93
        1
176
     1
 44
0.0
176
     1
173
     0
176
     1
  0
VISUALSTYLE
  5
46F8
102
{ACAD_REACTORS
330
46E1
102
}
330
46E1
100
AcDbVisualStyle
  2
OverhangOff
 70
    21
177
     2
291
     1
 71
     2
176
     0
 72
     2
176
     0
 73
     0
176
     0
 90
        0
176
     0
 40
0.6
176
     0
 41
30.0
176
     0
 63
     7
421
 16777215
176
     0
 74
     1
176
     0
 91
        4
176
     0
 64
     7
176
     0
 65
   257
176
     0
 75
     1
176
     0
175
     1
176
     0
 42
1.0
176
     0
 92
        9
176
     2
 66
     7
176
     0
 43
1.0
176
     0
 76
     1
176
     0
 77
     6
176
     0
 78
     2
176
     0
 67
     7
176
     0
 79
     5
176
     0
170
     0
176
     0
171
     0
176
     0
290
     0
176
     0
 93
        1
176
     0
 44
0.0
176
     0
173
     0
176
     0
  0
VISUALSTYLE
  5
46EB
102
{ACAD_REACTORS
330
46E1
102
}
330
46E1
100
AcDbVisualStyle
  2
Realistic
 70
     8
177
     2
291
     0
 71
     2
176
     1
 72
     3
176
     1
 73
     0
176
     1
 90
        2
176
     1
 40
0.6
176
     1
 41
30.0
176
     1
 63
     7
421
 16777215
176
     1
 74
     0
176
     1
 91
        0
176
     1
 64
     7
176
     1
 65
   257
176
     1
 75
     1
176
     1
175
     1
176
     1
 42
1.0
176
     1
 92
        8
176
     1
 66
   257
176
     1
 43
1.0
176
     1
 76
     1
176
     1
 77
     6
176
     1
 78
     2
176
     1
 67
     7
176
     1
 79
     3
176
     1
170
     0
176
     1
171
     0
176
     1
290
     0
176
     1
 93
       13
176
     1
 44
0.0
176
     1
173
     0
176
     1
  0
VISUALSTYLE
  5
46F6
102
{ACAD_REACTORS
330
46E1
102
}
330
46E1
100
AcDbVisualStyle
  2
Shaded
 70
    27
177
     2
291
     0
 71
     2
176
     1
 72
     2
176
     1
 73
     1
176
     1
 90
        2
176
     1
 40
0.6
176
     1
 41
30.0
176
     1
 63
     7
421
 16777215
176
     1
 74
     0
176
     1
 91
        4
176
     1
 64
     7
176
     1
 65
   257
176
     1
 75
     1
176
     1
175
     1
176
     1
 42
1.0
176
     1
 92
        8
176
     1
 66
   257
176
     1
 43
1.0
176
     1
 76
     1
176
     1
 77
     6
176
     1
 78
     2
176
     1
 67
     8
425
  7895160
176
     1
 79
     3
176
     1
170
     0
176
     1
171
     0
176
     1
290
     0
176
     1
 93
        5
176
     1
 44
0.0
176
     1
173
     0
176
     1
  0
VISUALSTYLE
  5
46F5
102
{ACAD_REACTORS
330
46E1
102
}
330
46E1
100
AcDbVisualStyle
  2
Shaded with edges
 70
    26
177
     2
291
     0
 71
     2
176
     1
 72
     2
176
     1
 73
     1
176
     1
 90
        2
176
     1
 40
0.6
176
     1
 41
30.0
176
     1
 63
     7
421
 16777215
176
     1
 74
     1
176
     1
 91
       10
176
     1
 64
     7
176
     1
 65
   257
176
     1
 75
     2
176
     1
175
     1
176
     1
 42
1.0
176
     1
 92
        8
176
     1
 66
   257
176
     1
 43
1.0
176
     1
 76
     1
176
     1
 77
     6
176
     1
 78
     2
176
     1
 67
     7
176
     1
 79
     3
176
     1
170
     0
176
     1
171
     0
176
     1
290
     0
176
     1
 93
        5
176
     1
 44
0.0
176
     1
173
     0
176
     1
  0
VISUALSTYLE
  5
46F2
102
{ACAD_REACTORS
330
46E1
102
}
330
46E1
100
AcDbVisualStyle
  2
Shades of Gray
 70
    23
177
     2
291
     0
 71
     2
176
     1
 72
     2
176
     1
 73
     3
176
     1
 90
        0
176
     1
 40
0.6
176
     1
 41
30.0
176
     1
 63
     7
421
 16777215
176
     1
 74
     2
176
     1
 91
        2
176
     1
 64
     7
176
     1
 65
     7
176
     1
 75
     1
176
     1
175
     1
176
     1
 42
40.0
176
     1
 92
        8
176
     1
 66
     7
176
     1
 43
1.0
176
     1
 76
     1
176
     1
 77
     6
176
     1
 78
     2
176
     1
 67
     7
176
     1
 79
     3
176
     1
170
     0
176
     1
171
     0
176
     1
290
     0
176
     1
 93
        1
176
     1
 44
0.0
176
     1
173
     0
176
     1
  0
VISUALSTYLE
  5
46F3
102
{ACAD_REACTORS
330
46E1
102
}
330
46E1
100
AcDbVisualStyle
  2
Sketchy
 70
    24
177
     2
291
     0
 71
     1
176
     1
 72
     2
176
     1
 73
     2
176
     1
 90
        0
176
     1
 40
0.6
176
     1
 41
30.0
176
     1
 63
     7
421
 16777215
176
     1
 74
     2
176
     1
 91
        2
176
     1
 64
     7
176
     1
 65
     7
176
     1
 75
     1
176
     1
175
     1
176
     1
 42
40.0
176
     1
 92
       11
176
     1
 66
     7
176
     1
 43
1.0
176
     1
 76
     1
176
     1
 77
     6
176
     1
 78
     2
176
     1
 67
     7
176
     1
 79
     6
176
     1
170
     0
176
     1
171
     0
176
     1
290
     0
176
     1
 93
        1
176
     1
 44
0.0
176
     1
173
     0
176
     1
  0
VISUALSTYLE
  5
46EE
102
{ACAD_REACTORS
330
46E1
102
}
330
46E1
100
AcDbVisualStyle
  2
Thicken
 70
    13
177
     2
291
     1
 71
     2
176
     1
 72
     2
176
     1
 73
     0
176
     1
 90
        0
176
     1
 40
0.6
176
     1
 41
30.0
176
     1
 63
     7
421
 16777215
176
     1
 74
     1
176
     1
 91
        4
176
     1
 64
     7
176
     1
 65
   257
176
     1
 75
     1
176
     1
175
     1
176
     1
 42
1.0
176
     1
 92
       12
176
     1
 66
     7
176
     1
 43
1.0
176
     1
 76
     1
176
     1
 77
     6
176
     1
 78
     2
176
     1
 67
     7
176
     1
 79
     5
176
     1
170
     0
176
     1
171
     0
176
     1
290
     0
176
     1
 93
        1
176
     1
 44
0.0
176
     1
173
     0
176
     1
  0
VISUALSTYLE
  5
46E8
102
{ACAD_REACTORS
330
46E1
102
}
330
46E1
100
AcDbVisualStyle
  2
Wireframe
 70
     5
177
     2
291
     0
 71
     0
176
     1
 72
     2
176
     1
 73
     0
176
     1
 90
        0
176
     1
 40
0.6
176
     1
 41
30.0
176
     1
 63
     7
421
 16777215
176
     1
 74
     1
176
     1
 91
        4
176
     1
 64
     7
176
     1
 65
   257
176
     1
 75
     1
176
     1
175
     1
176
     1
 42
1.0
176
     1
 92
        0
176
     1
 66
   257
176
     1
 43
1.0
176
     1
 76
     1
176
     1
 77
     6
176
     1
 78
     2
176
     1
 67
     7
176
     1
 79
     3
176
     1
170
     0
176
     1
171
     0
176
     1
290
     0
176
     1
 93
        1
176
     1
 44
0.0
176
     1
173
     0
176
     1
  0
VISUALSTYLE
  5
46F4
102
{ACAD_REACTORS
330
46E1
102
}
330
46E1
100
AcDbVisualStyle
  2
X-Ray
 70
    25
177
     2
291
     0
 71
     2
176
     1
 72
     2
176
     1
 73
     1
176
     1
 90
        1
176
     1
 40
0.5
176
     1
 41
30.0
176
     1
 63
     7
421
 16777215
176
     1
 74
     1
176
     1
 91
        0
176
     1
 64
     7
176
     1
 65
   257
176
     1
 75
     1
176
     1
175
     1
176
     1
 42
1.0
176
     1
 92
        8
176
     1
 66
     7
176
     1
 43
1.0
176
     1
 76
     1
176
     1
 77
     6
176
     1
 78
     2
176
     1
 67
     7
176
     1
 79
     3
176
     1
170
     0
176
     1
171
     0
176
     1
290
     0
176
     1
 93
       13
176
     1
 44
0.0
176
     1
173
     0
176
     1
  0
DICTIONARYVAR
  5
4740
102
{ACAD_REACTORS
330
11E9
102
}
330
11E9
100
DictionaryVariables
280
     0
  1
1:1
  0
DICTIONARYVAR
  5
473E
102
{ACAD_REACTORS
330
11E9
102
}
330
11E9
100
DictionaryVariables
280
     0
  1
STANDARD
  0
DICTIONARYVAR
  5
473D
102
{ACAD_REACTORS
330
11E9
102
}
330
11E9
100
DictionaryVariables
280
     0
  1
STANDARD
  0
DICTIONARYVAR
  5
4742
102
{ACAD_REACTORS
330
11E9
102
}
330
11E9
100
DictionaryVariables
280
     0
  1
1
  0
DICTIONARYVAR
  5
4743
102
{ACAD_REACTORS
330
11E9
102
}
330
11E9
100
DictionaryVariables
280
     0
  1
15
  0
DICTIONARYVAR
  5
4741
102
{ACAD_REACTORS
330
11E9
102
}
330
11E9
100
DictionaryVariables
280
     0
  1
0
  0
DICTIONARYVAR
  5
473F
102
{ACAD_REACTORS
330
11E9
102
}
330
11E9
100
DictionaryVariables
280
     0
  1
0
  0
DICTIONARYVAR
  5
11EA
102
{ACAD_REACTORS
330
11E9
102
}
330
11E9
100
DictionaryVariables
280
     0
  1
96
  0
DICTIONARY
  5
46D2
330
46D1
100
AcDbDictionary
280
     1
281
     1
  3
BUMPTILE
360
46D4
  3
DIFFUSETILE
360
46D3
  3
OPACITYTILE
360
46D7
  3
REFLECTIONTILE
360
46D6
  3
REFRACTIONTILE
360
46D8
  3
SPECULARTILE
360
46D5
  0
DICTIONARY
  5
46CA
330
46C9
100
AcDbDictionary
280
     1
281
     1
  3
BUMPTILE
360
46CC
  3
DIFFUSETILE
360
46CB
  3
OPACITYTILE
360
46CF
  3
REFLECTIONTILE
360
46CE
  3
REFRACTIONTILE
360
46D0
  3
SPECULARTILE
360
46CD
  0
DICTIONARY
  5
46DA
330
46D9
100
AcDbDictionary
280
     1
281
     1
  3
BUMPTILE
360
46DC
  3
DIFFUSETILE
360
46DB
  3
OPACITYTILE
360
46DF
  3
REFLECTIONTILE
360
46DE
  3
REFRACTIONTILE
360
46E0
  3
SPECULARTILE
360
46DD
  0
DICTIONARY
  5
4744
330
46FB
100
AcDbDictionary
280
     1
281
     1
  3
ACAD_ROUNDTRIP_2008_TABLESTYLE_CELLSTYLEMAP
360
4745
  0
XRECORD
  5
46D4
102
{ACAD_REACTORS
330
46D2
102
}
330
46D2
100
AcDbXrecord
280
     1
270
     1
271
     1
  0
XRECORD
  5
46D3
102
{ACAD_REACTORS
330
46D2
102
}
330
46D2
100
AcDbXrecord
280
     1
270
     1
271
     1
  0
XRECORD
  5
46D7
102
{ACAD_REACTORS
330
46D2
102
}
330
46D2
100
AcDbXrecord
280
     1
270
     1
271
     1
  0
XRECORD
  5
46D6
102
{ACAD_REACTORS
330
46D2
102
}
330
46D2
100
AcDbXrecord
280
     1
270
     1
271
     1
  0
XRECORD
  5
46D8
102
{ACAD_REACTORS
330
46D2
102
}
330
46D2
100
AcDbXrecord
280
     1
270
     1
271
     1
  0
XRECORD
  5
46D5
102
{ACAD_REACTORS
330
46D2
102
}
330
46D2
100
AcDbXrecord
280
     1
270
     1
271
     1
  0
XRECORD
  5
46CC
102
{ACAD_REACTORS
330
46CA
102
}
330
46CA
100
AcDbXrecord
280
     1
270
     1
271
     1
  0
XRECORD
  5
46CB
102
{ACAD_REACTORS
330
46CA
102
}
330
46CA
100
AcDbXrecord
280
     1
270
     1
271
     1
  0
XRECORD
  5
46CF
102
{ACAD_REACTORS
330
46CA
102
}
330
46CA
100
AcDbXrecord
280
     1
270
     1
271
     1
  0
XRECORD
  5
46CE
102
{ACAD_REACTORS
330
46CA
102
}
330
46CA
100
AcDbXrecord
280
     1
270
     1
271
     1
  0
XRECORD
  5
46D0
102
{ACAD_REACTORS
330
46CA
102
}
330
46CA
100
AcDbXrecord
280
     1
270
     1
271
     1
  0
XRECORD
  5
46CD
102
{ACAD_REACTORS
330
46CA
102
}
330
46CA
100
AcDbXrecord
280
     1
270
     1
271
     1
  0
XRECORD
  5
46DC
102
{ACAD_REACTORS
330
46DA
102
}
330
46DA
100
AcDbXrecord
280
     1
270
     1
271
     1
  0
XRECORD
  5
46DB
102
{ACAD_REACTORS
330
46DA
102
}
330
46DA
100
AcDbXrecord
280
     1
270
     1
271
     1
  0
XRECORD
  5
46DF
102
{ACAD_REACTORS
330
46DA
102
}
330
46DA
100
AcDbXrecord
280
     1
270
     1
271
     1
  0
XRECORD
  5
46DE
102
{ACAD_REACTORS
330
46DA
102
}
330
46DA
100
AcDbXrecord
280
     1
270
     1
271
     1
  0
XRECORD
  5
46E0
102
{ACAD_REACTORS
330
46DA
102
}
330
46DA
100
AcDbXrecord
280
     1
270
     1
271
     1
  0
XRECORD
  5
46DD
102
{ACAD_REACTORS
330
46DA
102
}
330
46DA
100
AcDbXrecord
280
     1
270
     1
271
     1
  0
CELLSTYLEMAP
  5
4745
102
{ACAD_REACTORS
330
4744
102
}
330
4744
100
AcDbCellStyleMap
 90
        3
300
CELLSTYLE
  1
TABLEFORMAT_BEGIN
 90
        5
170
     1
 91
        0
 92
    32768
 62
   257
 93
        1
300
CONTENTFORMAT
  1
CONTENTFORMAT_BEGIN
 90
        0
 91
        0
 92
      512
 93
        0
300

 40
0.0
140
1.0
 94
        5
 62
     0
340
10
144
6.0
309
CONTENTFORMAT_END
171
     1
301
MARGIN
  1
CELLMARGIN_BEGIN
 40
1.5
 40
1.5
 40
1.5
 40
1.5
 40
4.5
 40
4.5
309
CELLMARGIN_END
 94
        6
 95
        1
302
GRIDFORMAT
  1
GRIDFORMAT_BEGIN
 90
        0
 91
        1
 62
     0
 92
       -2
340
0
 93
        0
 40
1.125
309
GRIDFORMAT_END
 95
        2
302
GRIDFORMAT
  1
GRIDFORMAT_BEGIN
 90
        0
 91
        1
 62
     0
 92
       -2
340
0
 93
        0
 40
1.125
309
GRIDFORMAT_END
 95
        4
302
GRIDFORMAT
  1
GRIDFORMAT_BEGIN
 90
        0
 91
        1
 62
     0
 92
       -2
340
0
 93
        0
 40
1.125
309
GRIDFORMAT_END
 95
        8
302
GRIDFORMAT
  1
GRIDFORMAT_BEGIN
 90
        0
 91
        1
 62
     0
 92
       -2
340
0
 93
        0
 40
1.125
309
GRIDFORMAT_END
 95
       16
302
GRIDFORMAT
  1
GRIDFORMAT_BEGIN
 90
        0
 91
        1
 62
     0
 92
       -2
340
0
 93
        0
 40
1.125
309
GRIDFORMAT_END
 95
       32
302
GRIDFORMAT
  1
GRIDFORMAT_BEGIN
 90
        0
 91
        1
 62
     0
 92
       -2
340
0
 93
        0
 40
1.125
309
GRIDFORMAT_END
309
TABLEFORMAT_END
  1
CELLSTYLE_BEGIN
 90
        1
 91
        1
300
_TITLE
309
CELLSTYLE_END
300
CELLSTYLE
  1
TABLEFORMAT_BEGIN
 90
        5
170
     1
 91
        0
 92
        0
 62
   257
 93
        1
300
CONTENTFORMAT
  1
CONTENTFORMAT_BEGIN
 90
        0
 91
        0
 92
      512
 93
        0
300

 40
0.0
140
1.0
 94
        5
 62
     0
340
10
144
4.5
309
CONTENTFORMAT_END
171
     1
301
MARGIN
  1
CELLMARGIN_BEGIN
 40
1.5
 40
1.5
 40
1.5
 40
1.5
 40
4.5
 40
4.5
309
CELLMARGIN_END
 94
        6
 95
        1
302
GRIDFORMAT
  1
GRIDFORMAT_BEGIN
 90
        0
 91
        1
 62
     0
 92
       -2
340
0
 93
        0
 40
1.125
309
GRIDFORMAT_END
 95
        2
302
GRIDFORMAT
  1
GRIDFORMAT_BEGIN
 90
        0
 91
        1
 62
     0
 92
       -2
340
0
 93
        0
 40
1.125
309
GRIDFORMAT_END
 95
        4
302
GRIDFORMAT
  1
GRIDFORMAT_BEGIN
 90
        0
 91
        1
 62
     0
 92
       -2
340
0
 93
        0
 40
1.125
309
GRIDFORMAT_END
 95
        8
302
GRIDFORMAT
  1
GRIDFORMAT_BEGIN
 90
        0
 91
        1
 62
     0
 92
       -2
340
0
 93
        0
 40
1.125
309
GRIDFORMAT_END
 95
       16
302
GRIDFORMAT
  1
GRIDFORMAT_BEGIN
 90
        0
 91
        1
 62
     0
 92
       -2
340
0
 93
        0
 40
1.125
309
GRIDFORMAT_END
 95
       32
302
GRIDFORMAT
  1
GRIDFORMAT_BEGIN
 90
        0
 91
        1
 62
     0
 92
       -2
340
0
 93
        0
 40
1.125
309
GRIDFORMAT_END
309
TABLEFORMAT_END
  1
CELLSTYLE_BEGIN
 90
        2
 91
        1
300
_HEADER
309
CELLSTYLE_END
300
CELLSTYLE
  1
TABLEFORMAT_BEGIN
 90
        5
170
     1
 91
        0
 92
        0
 62
   257
 93
        1
300
CONTENTFORMAT
  1
CONTENTFORMAT_BEGIN
 90
        0
 91
        0
 92
      512
 93
        0
300

 40
0.0
140
1.0
 94
        2
 62
     0
340
10
144
4.5
309
CONTENTFORMAT_END
171
     1
301
MARGIN
  1
CELLMARGIN_BEGIN
 40
1.5
 40
1.5
 40
1.5
 40
1.5
 40
4.5
 40
4.5
309
CELLMARGIN_END
 94
        6
 95
        1
302
GRIDFORMAT
  1
GRIDFORMAT_BEGIN
 90
        0
 91
        1
 62
     0
 92
       -2
340
0
 93
        0
 40
1.125
309
GRIDFORMAT_END
 95
        2
302
GRIDFORMAT
  1
GRIDFORMAT_BEGIN
 90
        0
 91
        1
 62
     0
 92
       -2
340
0
 93
        0
 40
1.125
309
GRIDFORMAT_END
 95
        4
302
GRIDFORMAT
  1
GRIDFORMAT_BEGIN
 90
        0
 91
        1
 62
     0
 92
       -2
340
0
 93
        0
 40
1.125
309
GRIDFORMAT_END
 95
        8
302
GRIDFORMAT
  1
GRIDFORMAT_BEGIN
 90
        0
 91
        1
 62
     0
 92
       -2
340
0
 93
        0
 40
1.125
309
GRIDFORMAT_END
 95
       16
302
GRIDFORMAT
  1
GRIDFORMAT_BEGIN
 90
        0
 91
        1
 62
     0
 92
       -2
340
0
 93
        0
 40
1.125
309
GRIDFORMAT_END
 95
       32
302
GRIDFORMAT
  1
GRIDFORMAT_BEGIN
 90
        0
 91
        1
 62
     0
 92
       -2
340
0
 93
        0
 40
1.125
309
GRIDFORMAT_END
309
TABLEFORMAT_END
  1
CELLSTYLE_BEGIN
 90
        3
 91
        2
300
_DATA
309
CELLSTYLE_END
  0
ENDSEC
  0
EOF
