  0
SECTION
  2
HEADER
  9
$ACADVER
  1
AC1012
  9
$DWGCODEPAGE
  3
dos932
  9
$INSBASE
 10
0.0
 20
0.0
 30
0.0
  9
$EXTMIN
 10
-0.0513266502548504
 20
-0.0362522485420414
 30
-0.0015258207003583
  9
$EXTMAX
 10
1595.302677155125
 20
1103.290468966615
 30
0.0000000349246037
  9
$LIMMIN
 10
0.0
 20
0.0
  9
$LIMMAX
 10
1682.0
 20
1188.0
  9
$ORTHOMODE
 70
     0
  9
$REGENMODE
 70
     1
  9
$FILLMODE
 70
     1
  9
$QTEXTMODE
 70
     0
  9
$MIRRTEXT
 70
     1
  9
$DRAGMODE
 70
     2
  9
$LTSCALE
 40
5.657142857142857
  9
$OSMODE
 70
    63
  9
$ATTMODE
 70
     1
  9
$TEXTSIZE
 40
19.8
  9
$TRACEWID
 40
0.05
  9
$TEXTSTYLE
  7
ｽﾀｲﾙ1
  9
$CLAYER
  8
SUNPOU
  9
$CELTYPE
  6
BYLAYER
  9
$CECOLOR
 62
   256
  9
$CELTSCALE
 40
1.0
  9
$DELOBJ
 70
     1
  9
$DISPSILH
 70
     0
  9
$DIMSCALE
 40
1.0
  9
$DIMASZ
 40
14.0
  9
$DIMEXO
 40
12.0
  9
$DIMDLI
 40
28.0
  9
$DIMRND
 40
0.0
  9
$DIMDLE
 40
0.0
  9
$DIMEXE
 40
6.0
  9
$DIMTP
 40
0.0
  9
$DIMTM
 40
0.0
  9
$DIMTXT
 40
12.0
  9
$DIMCEN
 40
150.0
  9
$DIMTSZ
 40
0.0
  9
$DIMTOL
 70
     0
  9
$DIMLIM
 70
     0
  9
$DIMTIH
 70
     0
  9
$DIMTOH
 70
     0
  9
$DIMSE1
 70
     0
  9
$DIMSE2
 70
     0
  9
$DIMTAD
 70
     3
  9
$DIMZIN
 70
     0
  9
$DIMBLK
  1

  9
$DIMASO
 70
     1
  9
$DIMSHO
 70
     1
  9
$DIMPOST
  1

  9
$DIMAPOST
  1

  9
$DIMALT
 70
     0
  9
$DIMALTD
 70
     2
  9
$DIMALTF
 40
0.03937
  9
$DIMLFAC
 40
1.0
  9
$DIMTOFL
 70
     1
  9
$DIMTVP
 40
0.0
  9
$DIMTIX
 70
     0
  9
$DIMSOXD
 70
     0
  9
$DIMSAH
 70
     1
  9
$DIMBLK1
  1
OPEN
  9
$DIMBLK2
  1
OPEN
  9
$DIMSTYLE
  2
STANDARD
  9
$DIMCLRD
 70
   256
  9
$DIMCLRE
 70
   256
  9
$DIMCLRT
 70
   256
  9
$DIMTFAC
 40
1.0
  9
$DIMGAP
 40
4.0
  9
$DIMJUST
 70
     0
  9
$DIMSD1
 70
     0
  9
$DIMSD2
 70
     0
  9
$DIMTOLJ
 70
     1
  9
$DIMTZIN
 70
     0
  9
$DIMALTZ
 70
     0
  9
$DIMALTTZ
 70
     0
  9
$DIMFIT
 70
     3
  9
$DIMUPT
 70
     0
  9
$DIMUNIT
 70
     2
  9
$DIMDEC
 70
     0
  9
$DIMTDEC
 70
     0
  9
$DIMALTU
 70
     2
  9
$DIMALTTD
 70
     2
  9
$DIMTXSTY
  7
STANDARD
  9
$DIMAUNIT
 70
     0
  9
$LUNITS
 70
     2
  9
$LUPREC
 70
     4
  9
$SKETCHINC
 40
0.1
  9
$FILLETRAD
 40
20.0
  9
$AUNITS
 70
     0
  9
$AUPREC
 70
     0
  9
$MENU
  1
acad
  9
$ELEVATION
 40
0.0
  9
$PELEVATION
 40
0.0
  9
$THICKNESS
 40
0.0
  9
$LIMCHECK
 70
     0
  9
$BLIPMODE
 70
     0
  9
$CHAMFERA
 40
56.57142857142858
  9
$CHAMFERB
 40
56.57142857142858
  9
$CHAMFERC
 40
113.1428571428571
  9
$CHAMFERD
 40
0.0
  9
$SKPOLY
 70
     0
  9
$TDCREATE
 40
2451019.669682407
  9
$TDUPDATE
 40
2454876.596802152
  9
$TDINDWG
 40
0.1193728241
  9
$TDUSRTIMER
 40
0.1193728241
  9
$USRTIMER
 70
     1
  9
$ANGBASE
 50
0.0
  9
$ANGDIR
 70
     0
  9
$PDMODE
 70
     0
  9
$PDSIZE
 40
0.0
  9
$PLINEWID
 40
0.0
  9
$COORDS
 70
     0
  9
$SPLFRAME
 70
     0
  9
$SPLINETYPE
 70
     6
  9
$SPLINESEGS
 70
     8
  9
$ATTDIA
 70
     0
  9
$ATTREQ
 70
     1
  9
$HANDLING
 70
 10241
  9
$HANDSEED
  5
272E
  9
$SURFTAB1
 70
     6
  9
$SURFTAB2
 70
     6
  9
$SURFTYPE
 70
     6
  9
$SURFU
 70
     6
  9
$SURFV
 70
     6
  9
$UCSNAME
  2

  9
$UCSORG
 10
0.0
 20
0.0
 30
0.0
  9
$UCSXDIR
 10
1.0
 20
0.0
 30
0.0
  9
$UCSYDIR
 10
0.0
 20
1.0
 30
0.0
  9
$PUCSNAME
  2

  9
$PUCSORG
 10
0.0
 20
0.0
 30
0.0
  9
$PUCSXDIR
 10
1.0
 20
0.0
 30
0.0
  9
$PUCSYDIR
 10
0.0
 20
1.0
 30
0.0
  9
$USERI1
 70
     0
  9
$USERI2
 70
     0
  9
$USERI3
 70
     0
  9
$USERI4
 70
     0
  9
$USERI5
 70
     0
  9
$USERR1
 40
0.0
  9
$USERR2
 40
0.0
  9
$USERR3
 40
0.0
  9
$USERR4
 40
0.0
  9
$USERR5
 40
0.0
  9
$WORLDVIEW
 70
     1
  9
$SHADEDGE
 70
     3
  9
$SHADEDIF
 70
    70
  9
$TILEMODE
 70
     1
  9
$MAXACTVP
 70
    16
  9
$PINSBASE
 10
0.0
 20
0.0
 30
0.0
  9
$PLIMCHECK
 70
     0
  9
$PEXTMIN
 10
0.0
 20
0.0
 30
0.0
  9
$PEXTMAX
 10
420.0
 20
297.0
 30
0.0
  9
$PLIMMIN
 10
0.0
 20
0.0
  9
$PLIMMAX
 10
420.0
 20
297.0
  9
$UNITMODE
 70
     0
  9
$VISRETAIN
 70
     0
  9
$PLINEGEN
 70
     0
  9
$PSLTSCALE
 70
     1
  9
$TREEDEPTH
 70
  3020
  9
$PICKSTYLE
 70
     1
  9
$CMLSTYLE
  2
STANDARD
  9
$CMLJUST
 70
     0
  9
$CMLSCALE
 40
20.0
  9
$SAVEIMAGES
 70
     1
  0
ENDSEC
  0
SECTION
  2
CLASSES
  0
CLASS
  1
ACDBDICTIONARYWDFLT
  2
AcDbDictionaryWithDefault
  3
AutoCAD 2000
 90
    32768
280
     0
281
     0
  0
CLASS
  1
ACDBPLACEHOLDER
  2
AcDbPlaceHolder
  3
AutoCAD 2000
 90
    32768
280
     0
281
     0
  0
CLASS
  1
LAYOUT
  2
AcDbLayout
  3
AutoCAD 2000
 90
    32768
280
     0
281
     0
  0
CLASS
  1
LONG_TRANSACTION
  2
AcDbLongTransaction
  3
AutoCAD 2000
 90
    32768
280
     0
281
     0
  0
CLASS
  1
LWPOLYLINE
  2
AcDbPolyline
  3
AutoCAD 2000
 90
    32768
280
     0
281
     1
  0
CLASS
  1
HATCH
  2
AcDbHatch
  3
AutoCAD 2000
 90
    32768
280
     0
281
     1
  0
CLASS
  1
XRECORD
  2
AcDbXrecord
  3
AutoCAD 2000
 90
    32768
280
     0
281
     0
  0
CLASS
  1
LONG_TRANSACTION
  2
AcDbLongTransaction
  3
AutoCAD 2000
 90
    32768
280
     0
281
     0
  0
CLASS
  1
LWPOLYLINE
  2
AcDbPolyline
  3
AutoCAD 2000
 90
    32768
280
     0
281
     1
  0
CLASS
  1
HATCH
  2
AcDbHatch
  3
AutoCAD 2000
 90
    32768
280
     0
281
     1
  0
CLASS
  1
XRECORD
  2
AcDbXrecord
  3
AutoCAD 2000
 90
    32768
280
     0
281
     0
  0
CLASS
  1
LONG_TRANSACTION
  2
AcDbLongTransaction
  3
AutoCAD 2000
 90
    32768
280
     0
281
     0
  0
CLASS
  1
LWPOLYLINE
  2
AcDbPolyline
  3
AutoCAD 2000
 90
    32768
280
     0
281
     1
  0
CLASS
  1
HATCH
  2
AcDbHatch
  3
AutoCAD 2000
 90
    32768
280
     0
281
     1
  0
CLASS
  1
XRECORD
  2
AcDbXrecord
  3
AutoCAD 2000
 90
    32768
280
     0
281
     0
  0
CLASS
  1
LONG_TRANSACTION
  2
AcDbLongTransaction
  3
AutoCAD 2000
 90
    32768
280
     0
281
     0
  0
CLASS
  1
LWPOLYLINE
  2
AcDbPolyline
  3
AutoCAD 2000
 90
    32768
280
     0
281
     1
  0
CLASS
  1
HATCH
  2
AcDbHatch
  3
AutoCAD 2000
 90
    32768
280
     0
281
     1
  0
CLASS
  1
XRECORD
  2
AcDbXrecord
  3
AutoCAD 2000
 90
    32768
280
     0
281
     0
  0
CLASS
  1
LONG_TRANSACTION
  2
AcDbLongTransaction
  3
AutoCAD 2000
 90
    32768
280
     0
281
     0
  0
CLASS
  1
LWPOLYLINE
  2
AcDbPolyline
  3
AutoCAD 2000
 90
    32768
280
     0
281
     1
  0
CLASS
  1
HATCH
  2
AcDbHatch
  3
AutoCAD 2000
 90
    32768
280
     0
281
     1
  0
CLASS
  1
XRECORD
  2
AcDbXrecord
  3
AutoCAD 2000
 90
    32768
280
     0
281
     0
  0
CLASS
  1
LONG_TRANSACTION
  2
AcDbLongTransaction
  3
AutoCAD 2000
 90
    32768
280
     0
281
     0
  0
CLASS
  1
LWPOLYLINE
  2
AcDbPolyline
  3
AutoCAD 2000
 90
    32768
280
     0
281
     1
  0
CLASS
  1
HATCH
  2
AcDbHatch
  3
AutoCAD 2000
 90
    32768
280
     0
281
     1
  0
CLASS
  1
XRECORD
  2
AcDbXrecord
  3
AutoCAD 2000
 90
    32768
280
     0
281
     0
  0
ENDSEC
  0
SECTION
  2
TABLES
  0
TABLE
  2
VPORT
  5
8
330
0
100
AcDbSymbolTable
 70
     3
  0
VPORT
  5
2712
330
8
100
AcDbSymbolTableRecord
100
AcDbViewportTableRecord
  2
*ACTIVE
 70
     0
 10
0.0
 20
0.0
 11
1.0
 21
1.0
 12
848.9793733408319
 22
567.3021010371209
 13
0.0
 23
0.0
 14
10.0
 24
10.0
 15
10.0
 25
10.0
 16
0.0
 26
0.0
 36
1.0
 17
0.0
 27
0.0
 37
0.0
 40
1317.10243767723
 41
1.553475935828877
 42
50.0
 43
0.0
 44
0.0
 50
0.0
 51
0.0
 71
     0
 72
   100
 73
     1
 74
     0
 75
     0
 76
     0
 77
     0
 78
     0
  0
ENDTAB
  0
TABLE
  2
LTYPE
  5
5
330
0
100
AcDbSymbolTable
 70
     3
  0
LTYPE
  5
13
330
5
100
AcDbSymbolTableRecord
100
AcDbLinetypeTableRecord
  2
BYBLOCK
 70
     0
  3

 72
    65
 73
     0
 40
0.0
  0
LTYPE
  5
14
330
5
100
AcDbSymbolTableRecord
100
AcDbLinetypeTableRecord
  2
BYLAYER
 70
     0
  3

 72
    65
 73
     0
 40
0.0
  0
LTYPE
  5
15
330
5
100
AcDbSymbolTableRecord
100
AcDbLinetypeTableRecord
  2
CONTINUOUS
 70
     0
  3
Solid line
 72
    65
 73
     0
 40
0.0
  0
LTYPE
  5
11C
330
5
100
AcDbSymbolTableRecord
100
AcDbLinetypeTableRecord
  2
CENTER
 70
     0
  3
____ _ ____ _ ____ _ ____ _ ____ _ ____ _ ____ 
 72
    65
 73
     4
 40
2.0
 49
1.25
 74
     0
 49
-0.25
 74
     0
 49
0.25
 74
     0
 49
-0.25
 74
     0
  0
LTYPE
  5
11E
330
5
100
AcDbSymbolTableRecord
100
AcDbLinetypeTableRecord
  2
PHANTOM
 70
     0
  3
______  __  __  ______  __  __  ______  __  __ 
 72
    65
 73
     6
 40
2.5
 49
1.25
 74
     0
 49
-0.25
 74
     0
 49
0.25
 74
     0
 49
-0.25
 74
     0
 49
0.25
 74
     0
 49
-0.25
 74
     0
  0
ENDTAB
  0
TABLE
  2
LAYER
  5
2
330
0
100
AcDbSymbolTable
 70
    10
  0
LAYER
  5
F
330
2
100
AcDbSymbolTableRecord
100
AcDbLayerTableRecord
  2
0
 70
     0
 62
     7
  6
CONTINUOUS
  0
LAYER
  5
23
330
2
100
AcDbSymbolTableRecord
100
AcDbLayerTableRecord
  2
VIEWPORT
 70
     0
 62
     7
  6
CONTINUOUS
  0
LAYER
  5
2D
330
2
100
AcDbSymbolTableRecord
100
AcDbLayerTableRecord
  2
ZUWAKU
 70
     0
 62
     7
  6
CONTINUOUS
  0
LAYER
  5
A6
330
2
100
AcDbSymbolTableRecord
100
AcDbLayerTableRecord
  2
DEFPOINTS
 70
     0
 62
     7
  6
CONTINUOUS
  0
LAYER
  5
1F5
330
2
100
AcDbSymbolTableRecord
100
AcDbLayerTableRecord
  2
SEIHIN
 70
     0
 62
     3
  6
CONTINUOUS
  0
LAYER
  5
5FF
330
2
100
AcDbSymbolTableRecord
100
AcDbLayerTableRecord
  2
CENTER_L
 70
     0
 62
     1
  6
CENTER
  0
LAYER
  5
600
330
2
100
AcDbSymbolTableRecord
100
AcDbLayerTableRecord
  2
SUNPOU
 70
     0
 62
     4
  6
CONTINUOUS
  0
LAYER
  5
CDA
330
2
100
AcDbSymbolTableRecord
100
AcDbLayerTableRecord
  2
NOKITOI
 70
     0
 62
     8
  6
PHANTOM
  0
LAYER
  5
14B3
330
2
100
AcDbSymbolTableRecord
100
AcDbLayerTableRecord
  2
MOJI
 70
     0
 62
     2
  6
CONTINUOUS
  0
LAYER
  5
1EDB
330
2
100
AcDbSymbolTableRecord
100
AcDbLayerTableRecord
  2
STOPPER
 70
     0
 62
     2
  6
CONTINUOUS
  0
ENDTAB
  0
TABLE
  2
STYLE
  5
3
330
0
100
AcDbSymbolTable
 70
     2
  0
STYLE
  5
10
330
3
100
AcDbSymbolTableRecord
100
AcDbTextStyleTableRecord
  2
STANDARD
 70
     0
 40
0.0
 41
1.0
 50
0.0
 71
     0
 42
19.8
  3
txt
  4
c:\PROGRAM FILES\AUTOCAD LT\ms\bigfont.shx
  0
STYLE
  5
14A8
330
3
100
AcDbSymbolTableRecord
100
AcDbTextStyleTableRecord
  2
ｽﾀｲﾙ1
 70
     0
 40
0.0
 41
1.0
 50
0.0
 71
     0
 42
19.8
  3
MS Gothic.ttf
  4

1001
ACAD
1000
MS Gothic
1071
    32817
  0
ENDTAB
  0
TABLE
  2
VIEW
  5
6
330
0
100
AcDbSymbolTable
 70
     0
  0
ENDTAB
  0
TABLE
  2
UCS
  5
7
330
0
100
AcDbSymbolTable
 70
     0
  0
ENDTAB
  0
TABLE
  2
APPID
  5
9
330
0
100
AcDbSymbolTable
 70
     1
  0
APPID
  5
11
330
9
100
AcDbSymbolTableRecord
100
AcDbRegAppTableRecord
  2
ACAD
 70
     0
  0
ENDTAB
  0
TABLE
  2
DIMSTYLE
  5
A
330
0
100
AcDbSymbolTable
 70
     1
  0
DIMSTYLE
105
1D
102
{ACAD_REACTORS
330
21B5
330
21B6
330
21B7
330
21C9
330
22A9
330
22B0
330
22B1
330
2312
330
2324
330
1952
330
18AB
330
18AC
330
18C2
330
19D1
330
19D0
330
194B
330
1965
330
1964
330
1928
330
18E2
102
}
330
A
100
AcDbSymbolTableRecord
100
AcDbDimStyleTableRecord
  2
STANDARD
 70
     0
  3

  4

  5

  6

  7

 40
1.0
 41
0.18
 42
0.0625
 43
0.38
 44
0.18
 45
0.0
 46
0.0
 47
0.0
 48
0.0
140
0.18
141
0.09
142
0.0
143
25.4
144
1.0
145
0.0
146
1.0
147
0.09
 71
     0
 72
     0
 73
     1
 74
     1
 75
     0
 76
     0
 77
     0
 78
     0
170
     0
171
     2
172
     0
173
     0
174
     0
175
     0
176
     0
177
     0
178
     0
270
     2
271
     4
272
     4
273
     2
274
     2
340
10
275
     0
280
     0
281
     0
282
     0
283
     1
284
     0
285
     0
286
     0
287
     3
288
     0
  0
ENDTAB
  0
TABLE
  2
BLOCK_RECORD
  5
1
330
0
100
AcDbSymbolTable
 70
    32
  0
BLOCK_RECORD
  5
19
102
{ACAD_XDICTIONARY
360
13D5
102
}
330
1
100
AcDbSymbolTableRecord
100
AcDbBlockTableRecord
  2
*MODEL_SPACE
  0
BLOCK_RECORD
  5
16
102
{ACAD_XDICTIONARY
360
13D3
102
}
330
1
100
AcDbSymbolTableRecord
100
AcDbBlockTableRecord
  2
*PAPER_SPACE
  0
BLOCK_RECORD
  5
27
330
1
100
AcDbSymbolTableRecord
100
AcDbBlockTableRecord
  2
_OPEN
  0
BLOCK_RECORD
  5
1A0E
330
1
100
AcDbSymbolTableRecord
100
AcDbBlockTableRecord
  2
*D1
  0
BLOCK_RECORD
  5
1A1A
330
1
100
AcDbSymbolTableRecord
100
AcDbBlockTableRecord
  2
*D2
  0
BLOCK_RECORD
  5
1A28
330
1
100
AcDbSymbolTableRecord
100
AcDbBlockTableRecord
  2
*D3
  0
BLOCK_RECORD
  5
1A36
330
1
100
AcDbSymbolTableRecord
100
AcDbBlockTableRecord
  2
*D4
  0
BLOCK_RECORD
  5
1A42
330
1
100
AcDbSymbolTableRecord
100
AcDbBlockTableRecord
  2
*D5
  0
BLOCK_RECORD
  5
1A4E
330
1
100
AcDbSymbolTableRecord
100
AcDbBlockTableRecord
  2
*D6
  0
BLOCK_RECORD
  5
1A5A
330
1
100
AcDbSymbolTableRecord
100
AcDbBlockTableRecord
  2
*D7
  0
BLOCK_RECORD
  5
1A66
330
1
100
AcDbSymbolTableRecord
100
AcDbBlockTableRecord
  2
*D8
  0
BLOCK_RECORD
  5
1A74
330
1
100
AcDbSymbolTableRecord
100
AcDbBlockTableRecord
  2
*D9
  0
BLOCK_RECORD
  5
1A80
330
1
100
AcDbSymbolTableRecord
100
AcDbBlockTableRecord
  2
*D10
  0
BLOCK_RECORD
  5
1A8C
330
1
100
AcDbSymbolTableRecord
100
AcDbBlockTableRecord
  2
*D11
  0
BLOCK_RECORD
  5
1C82
330
1
100
AcDbSymbolTableRecord
100
AcDbBlockTableRecord
  2
*X12
  0
BLOCK_RECORD
  5
1E6D
330
1
100
AcDbSymbolTableRecord
100
AcDbBlockTableRecord
  2
*D13
  0
BLOCK_RECORD
  5
1E79
330
1
100
AcDbSymbolTableRecord
100
AcDbBlockTableRecord
  2
*D14
  0
BLOCK_RECORD
  5
1E85
330
1
100
AcDbSymbolTableRecord
100
AcDbBlockTableRecord
  2
*D15
  0
BLOCK_RECORD
  5
1E91
330
1
100
AcDbSymbolTableRecord
100
AcDbBlockTableRecord
  2
*D16
  0
BLOCK_RECORD
  5
1E9D
330
1
100
AcDbSymbolTableRecord
100
AcDbBlockTableRecord
  2
*D17
  0
BLOCK_RECORD
  5
1EA9
330
1
100
AcDbSymbolTableRecord
100
AcDbBlockTableRecord
  2
*D18
  0
BLOCK_RECORD
  5
1EB7
330
1
100
AcDbSymbolTableRecord
100
AcDbBlockTableRecord
  2
*D19
  0
BLOCK_RECORD
  5
1EC3
330
1
100
AcDbSymbolTableRecord
100
AcDbBlockTableRecord
  2
*D20
  0
BLOCK_RECORD
  5
1ECF
330
1
100
AcDbSymbolTableRecord
100
AcDbBlockTableRecord
  2
*D21
  0
BLOCK_RECORD
  5
248A
330
1
100
AcDbSymbolTableRecord
100
AcDbBlockTableRecord
  2
*D23
  0
BLOCK_RECORD
  5
2496
330
1
100
AcDbSymbolTableRecord
100
AcDbBlockTableRecord
  2
*D24
  0
BLOCK_RECORD
  5
24A2
330
1
100
AcDbSymbolTableRecord
100
AcDbBlockTableRecord
  2
*D25
  0
BLOCK_RECORD
  5
24AE
330
1
100
AcDbSymbolTableRecord
100
AcDbBlockTableRecord
  2
*D26
  0
BLOCK_RECORD
  5
24BA
330
1
100
AcDbSymbolTableRecord
100
AcDbBlockTableRecord
  2
*D27
  0
BLOCK_RECORD
  5
24C6
330
1
100
AcDbSymbolTableRecord
100
AcDbBlockTableRecord
  2
*D28
  0
BLOCK_RECORD
  5
24D4
330
1
100
AcDbSymbolTableRecord
100
AcDbBlockTableRecord
  2
*D29
  0
BLOCK_RECORD
  5
24E0
330
1
100
AcDbSymbolTableRecord
100
AcDbBlockTableRecord
  2
*D30
  0
BLOCK_RECORD
  5
24EC
330
1
100
AcDbSymbolTableRecord
100
AcDbBlockTableRecord
  2
*D31
  0
ENDTAB
  0
ENDSEC
  0
SECTION
  2
BLOCKS
  0
BLOCK
  5
1A
330
19
100
AcDbEntity
  8
0
100
AcDbBlockBegin
  2
*MODEL_SPACE
 70
     0
 10
0.0
 20
0.0
 30
0.0
  3
*MODEL_SPACE
  1

  0
ENDBLK
  5
1B
330
19
100
AcDbEntity
  8
0
100
AcDbBlockEnd
  0
BLOCK
  5
17
330
16
100
AcDbEntity
 67
     1
  8
0
100
AcDbBlockBegin
  2
*PAPER_SPACE
 70
     0
 10
0.0
 20
0.0
 30
0.0
  3
*PAPER_SPACE
  1

  0
ENDBLK
  5
18
330
16
100
AcDbEntity
 67
     1
  8
0
100
AcDbBlockEnd
  0
BLOCK
  5
28
330
27
100
AcDbEntity
  8
0
100
AcDbBlockBegin
  2
_OPEN
 70
     0
 10
0.0
 20
0.0
 30
0.0
  3
_OPEN
  1

  0
LINE
  5
29
330
27
100
AcDbEntity
  8
0
  6
BYBLOCK
 62
     0
100
AcDbLine
 10
-1.0
 20
0.1666666666666666
 30
0.0
 11
0.0
 21
0.0
 31
0.0
  0
LINE
  5
2A
330
27
100
AcDbEntity
  8
0
  6
BYBLOCK
 62
     0
100
AcDbLine
 10
0.0
 20
0.0
 30
0.0
 11
-1.0
 21
-0.1666666666666666
 31
0.0
  0
LINE
  5
2B
330
27
100
AcDbEntity
  8
0
  6
BYBLOCK
 62
     0
100
AcDbLine
 10
0.0
 20
0.0
 30
0.0
 11
-1.0
 21
0.0
 31
0.0
  0
ENDBLK
  5
2C
330
27
100
AcDbEntity
  8
0
100
AcDbBlockEnd
  0
BLOCK
  5
1A18
330
1A0E
100
AcDbEntity
  8
0
100
AcDbBlockBegin
  2
*D1
 70
     1
 10
0.0
 20
0.0
 30
0.0
  3
*D1
  1

  0
LINE
  5
261F
330
1A0E
100
AcDbEntity
  8
SUNPOU
  6
CONTINUOUS
 62
     4
100
AcDbLine
 10
-925.3375707253381
 20
562.4012870738779
 30
0.0
 11
-925.3375707253381
 21
626.9394631700008
 31
0.0
  0
LINE
  5
2620
330
1A0E
100
AcDbEntity
  8
SUNPOU
  6
CONTINUOUS
 62
     4
100
AcDbLine
 10
-692.3375707253381
 20
562.4013870738779
 30
0.0
 11
-692.3375707253381
 21
626.9394631700008
 31
0.0
  0
LINE
  5
2621
330
1A0E
100
AcDbEntity
  8
SUNPOU
  6
CONTINUOUS
 62
     4
100
AcDbLine
 10
-911.337570725338
 20
620.9394631700008
 30
0.0
 11
-706.337570725338
 21
620.9394631700008
 31
0.0
  0
INSERT
  5
2622
330
1A0E
100
AcDbEntity
  8
SUNPOU
  6
CONTINUOUS
 62
     4
100
AcDbBlockReference
  2
_OPEN
 10
-925.3375707253381
 20
620.9394631700008
 30
0.0
 41
14.0
 42
14.0
 43
14.0
 50
180.0
  0
INSERT
  5
2623
330
1A0E
100
AcDbEntity
  8
SUNPOU
  6
CONTINUOUS
 62
     4
100
AcDbBlockReference
  2
_OPEN
 10
-692.3375707253381
 20
620.9394631700008
 30
0.0
 41
14.0
 42
14.0
 43
14.0
  0
MTEXT
  5
2624
330
1A0E
100
AcDbEntity
  8
SUNPOU
  6
CONTINUOUS
 62
     4
100
AcDbMText
 10
-812.6136033400253
 20
630.9394631700008
 30
0.0
 40
12.0
 41
0.0
 71
     5
 72
     1
  1
\A1;233
1001
ACAD
1000
MTEXTBEGIN
1070
    73
1070
     1
1070
    44
1040
1.0
1070
    74
1070
     0
1000
MTEXTEND
  0
POINT
  5
2625
330
1A0E
100
AcDbEntity
  8
DEFPOINTS
  6
CONTINUOUS
 62
     0
100
AcDbPoint
 10
-925.3375707253381
 20
550.4012870738779
 30
0.0
  0
POINT
  5
2626
330
1A0E
100
AcDbEntity
  8
DEFPOINTS
  6
CONTINUOUS
 62
     0
100
AcDbPoint
 10
-692.3375707253381
 20
550.4013870738779
 30
0.0
  0
POINT
  5
2627
330
1A0E
100
AcDbEntity
  8
DEFPOINTS
  6
CONTINUOUS
 62
     0
100
AcDbPoint
 10
-692.3375707253381
 20
620.9394631700008
 30
0.0
  0
ENDBLK
  5
1A19
330
1A0E
100
AcDbEntity
  8
0
100
AcDbBlockEnd
  0
BLOCK
  5
1A26
330
1A1A
100
AcDbEntity
  8
0
100
AcDbBlockBegin
  2
*D2
 70
     1
 10
0.0
 20
0.0
 30
0.0
  3
*D2
  1

  0
LINE
  5
2614
330
1A1A
100
AcDbEntity
  8
SUNPOU
  6
CONTINUOUS
 62
     4
100
AcDbLine
 10
-910.337570725338
 20
562.4012870738779
 30
0.0
 11
-910.337570725338
 21
587.8091441797208
 31
0.0
  0
LINE
  5
2615
330
1A1A
100
AcDbEntity
  8
SUNPOU
  6
CONTINUOUS
 62
     4
100
AcDbLine
 10
-925.3375707253381
 20
562.4012870738779
 30
0.0
 11
-925.3375707253381
 21
587.8091441797208
 31
0.0
  0
LINE
  5
2616
330
1A1A
100
AcDbEntity
  8
SUNPOU
  6
CONTINUOUS
 62
     4
100
AcDbLine
 10
-939.3375707253381
 20
581.8091441797207
 30
0.0
 11
-953.337570725338
 21
581.8091441797207
 31
0.0
  0
LINE
  5
2617
330
1A1A
100
AcDbEntity
  8
SUNPOU
  6
CONTINUOUS
 62
     4
100
AcDbLine
 10
-896.337570725338
 20
581.8091441797207
 30
0.0
 11
-858.3375707253381
 21
581.8091441797207
 31
0.0
  0
LINE
  5
2618
330
1A1A
100
AcDbEntity
  8
SUNPOU
  6
CONTINUOUS
 62
     4
100
AcDbLine
 10
-925.3375707253381
 20
581.8091441797207
 30
0.0
 11
-910.337570725338
 21
581.8091441797207
 31
0.0
  0
INSERT
  5
2619
330
1A1A
100
AcDbEntity
  8
SUNPOU
  6
CONTINUOUS
 62
     4
100
AcDbBlockReference
  2
_OPEN
 10
-925.3375707253381
 20
581.8091441797207
 30
0.0
 41
14.0
 42
14.0
 43
14.0
  0
INSERT
  5
261A
330
1A1A
100
AcDbEntity
  8
SUNPOU
  6
CONTINUOUS
 62
     4
100
AcDbBlockReference
  2
_OPEN
 10
-910.337570725338
 20
581.8091441797207
 30
0.0
 41
14.0
 42
14.0
 43
14.0
 50
180.0
  0
MTEXT
  5
261B
330
1A1A
100
AcDbEntity
  8
SUNPOU
  6
CONTINUOUS
 62
     4
100
AcDbMText
 10
-870.337570725338
 20
591.8091441797208
 30
0.0
 40
12.0
 41
0.0
 71
     5
 72
     1
  1
\A1;15
1001
ACAD
1000
MTEXTBEGIN
1070
    73
1070
     1
1070
    44
1040
1.0
1070
    74
1070
     0
1000
MTEXTEND
  0
POINT
  5
261C
330
1A1A
100
AcDbEntity
  8
DEFPOINTS
  6
CONTINUOUS
 62
     0
100
AcDbPoint
 10
-910.337570725338
 20
550.4012870738779
 30
0.0
  0
POINT
  5
261D
330
1A1A
100
AcDbEntity
  8
DEFPOINTS
  6
CONTINUOUS
 62
     0
100
AcDbPoint
 10
-925.3375707253381
 20
550.4012870738779
 30
0.0
  0
POINT
  5
261E
330
1A1A
100
AcDbEntity
  8
DEFPOINTS
  6
CONTINUOUS
 62
     0
100
AcDbPoint
 10
-925.3375707253381
 20
581.8091441797207
 30
0.0
  0
ENDBLK
  5
1A27
330
1A1A
100
AcDbEntity
  8
0
100
AcDbBlockEnd
  0
BLOCK
  5
1A34
330
1A28
100
AcDbEntity
  8
0
100
AcDbBlockBegin
  2
*D3
 70
     1
 10
0.0
 20
0.0
 30
0.0
  3
*D3
  1

  0
LINE
  5
2609
330
1A28
100
AcDbEntity
  8
SUNPOU
  6
CONTINUOUS
 62
     4
100
AcDbLine
 10
-925.3375707253381
 20
562.4012870738779
 30
0.0
 11
-925.3375707253381
 21
587.8720136692647
 31
0.0
  0
LINE
  5
260A
330
1A28
100
AcDbEntity
  8
SUNPOU
  6
CONTINUOUS
 62
     4
100
AcDbLine
 10
-940.3375707253381
 20
562.4012870738779
 30
0.0
 11
-940.3375707253381
 21
587.8720136692647
 31
0.0
  0
LINE
  5
260B
330
1A28
100
AcDbEntity
  8
SUNPOU
  6
CONTINUOUS
 62
     4
100
AcDbLine
 10
-911.337570725338
 20
581.8720136692648
 30
0.0
 11
-897.337570725338
 21
581.8720136692648
 31
0.0
  0
LINE
  5
260C
330
1A28
100
AcDbEntity
  8
SUNPOU
  6
CONTINUOUS
 62
     4
100
AcDbLine
 10
-954.337570725338
 20
581.8720136692648
 30
0.0
 11
-992.3375707253381
 21
581.8720136692648
 31
0.0
  0
LINE
  5
260D
330
1A28
100
AcDbEntity
  8
SUNPOU
  6
CONTINUOUS
 62
     4
100
AcDbLine
 10
-925.3375707253381
 20
581.8720136692648
 30
0.0
 11
-940.3375707253381
 21
581.8720136692648
 31
0.0
  0
INSERT
  5
260E
330
1A28
100
AcDbEntity
  8
SUNPOU
  6
CONTINUOUS
 62
     4
100
AcDbBlockReference
  2
_OPEN
 10
-925.3375707253381
 20
581.8720136692648
 30
0.0
 41
14.0
 42
14.0
 43
14.0
 50
180.0
  0
INSERT
  5
260F
330
1A28
100
AcDbEntity
  8
SUNPOU
  6
CONTINUOUS
 62
     4
100
AcDbBlockReference
  2
_OPEN
 10
-940.3375707253381
 20
581.8720136692648
 30
0.0
 41
14.0
 42
14.0
 43
14.0
  0
MTEXT
  5
2610
330
1A28
100
AcDbEntity
  8
SUNPOU
  6
CONTINUOUS
 62
     4
100
AcDbMText
 10
-980.337570725338
 20
591.8720136692647
 30
0.0
 40
12.0
 41
0.0
 71
     5
 72
     1
  1
\A1;15
1001
ACAD
1000
MTEXTBEGIN
1070
    73
1070
     1
1070
    44
1040
1.0
1070
    74
1070
     0
1000
MTEXTEND
  0
POINT
  5
2611
330
1A28
100
AcDbEntity
  8
DEFPOINTS
  6
CONTINUOUS
 62
     0
100
AcDbPoint
 10
-925.3375707253381
 20
550.4012870738779
 30
0.0
  0
POINT
  5
2612
330
1A28
100
AcDbEntity
  8
DEFPOINTS
  6
CONTINUOUS
 62
     0
100
AcDbPoint
 10
-940.3375707253381
 20
550.4012870738779
 30
0.0
  0
POINT
  5
2613
330
1A28
100
AcDbEntity
  8
DEFPOINTS
  6
CONTINUOUS
 62
     0
100
AcDbPoint
 10
-940.3375707253381
 20
581.8720136692648
 30
0.0
  0
ENDBLK
  5
1A35
330
1A28
100
AcDbEntity
  8
0
100
AcDbBlockEnd
  0
BLOCK
  5
1A40
330
1A36
100
AcDbEntity
  8
0
100
AcDbBlockBegin
  2
*D4
 70
     1
 10
0.0
 20
0.0
 30
0.0
  3
*D4
  1

  0
LINE
  5
2662
330
1A36
100
AcDbEntity
  8
SUNPOU
  6
CONTINUOUS
 62
     4
100
AcDbLine
 10
-865.337850285619
 20
969.2977960880936
 30
0.0
 11
-865.337850285619
 21
1003.75889614354
 31
0.0
  0
LINE
  5
2663
330
1A36
100
AcDbEntity
  8
SUNPOU
  6
CONTINUOUS
 62
     4
100
AcDbLine
 10
-925.3378502863679
 20
969.2977870752182
 30
0.0
 11
-925.3378502863679
 21
1003.75889614354
 31
0.0
  0
LINE
  5
2664
330
1A36
100
AcDbEntity
  8
SUNPOU
  6
CONTINUOUS
 62
     4
100
AcDbLine
 10
-879.3378502856189
 20
997.7588961435406
 30
0.0
 11
-911.337850286368
 21
997.7588961435406
 31
0.0
  0
INSERT
  5
2665
330
1A36
100
AcDbEntity
  8
SUNPOU
  6
CONTINUOUS
 62
     4
100
AcDbBlockReference
  2
_OPEN
 10
-865.337850285619
 20
997.7588961435406
 30
0.0
 41
14.0
 42
14.0
 43
14.0
  0
INSERT
  5
2666
330
1A36
100
AcDbEntity
  8
SUNPOU
  6
CONTINUOUS
 62
     4
100
AcDbBlockReference
  2
_OPEN
 10
-925.3378502863679
 20
997.7588961435406
 30
0.0
 41
14.0
 42
14.0
 43
14.0
 50
180.0
  0
MTEXT
  5
2667
330
1A36
100
AcDbEntity
  8
SUNPOU
  6
CONTINUOUS
 62
     4
100
AcDbMText
 10
-895.3378502859933
 20
1007.75889614354
 30
0.0
 40
12.0
 41
0.0
 71
     5
 72
     1
  1
\A1;※60
1001
ACAD
1000
MTEXTBEGIN
1070
    73
1070
     1
1070
    44
1040
1.0
1070
    74
1070
     0
1000
MTEXTEND
  0
POINT
  5
2668
330
1A36
100
AcDbEntity
  8
DEFPOINTS
  6
CONTINUOUS
 62
     0
100
AcDbPoint
 10
-865.337850285619
 20
957.2977960880937
 30
0.0
  0
POINT
  5
2669
330
1A36
100
AcDbEntity
  8
DEFPOINTS
  6
CONTINUOUS
 62
     0
100
AcDbPoint
 10
-925.3378502863679
 20
957.2977870752181
 30
0.0
  0
POINT
  5
266A
330
1A36
100
AcDbEntity
  8
DEFPOINTS
  6
CONTINUOUS
 62
     0
100
AcDbPoint
 10
-925.3378502863679
 20
997.7588961435406
 30
0.0
  0
ENDBLK
  5
1A41
330
1A36
100
AcDbEntity
  8
0
100
AcDbBlockEnd
  0
BLOCK
  5
1A4C
330
1A42
100
AcDbEntity
  8
0
100
AcDbBlockBegin
  2
*D5
 70
     1
 10
0.0
 20
0.0
 30
0.0
  3
*D5
  1

  0
LINE
  5
266B
330
1A42
100
AcDbEntity
  8
SUNPOU
  6
CONTINUOUS
 62
     4
100
AcDbLine
 10
-752.3383348359589
 20
966.2982780598074
 30
0.0
 11
-752.3383348359589
 21
1003.758898876283
 31
0.0
  0
LINE
  5
266C
330
1A42
100
AcDbEntity
  8
SUNPOU
  6
CONTINUOUS
 62
     4
100
AcDbLine
 10
-692.3381502868833
 20
969.2984870736729
 30
0.0
 11
-692.3381502868833
 21
1003.758898876283
 31
0.0
  0
LINE
  5
266D
330
1A42
100
AcDbEntity
  8
SUNPOU
  6
CONTINUOUS
 62
     4
100
AcDbLine
 10
-738.3383348359589
 20
997.7588988762839
 30
0.0
 11
-706.3381502868833
 21
997.7588988762839
 31
0.0
  0
INSERT
  5
266E
330
1A42
100
AcDbEntity
  8
SUNPOU
  6
CONTINUOUS
 62
     4
100
AcDbBlockReference
  2
_OPEN
 10
-752.3383348359589
 20
997.7588988762839
 30
0.0
 41
14.0
 42
14.0
 43
14.0
 50
180.0
  0
INSERT
  5
266F
330
1A42
100
AcDbEntity
  8
SUNPOU
  6
CONTINUOUS
 62
     4
100
AcDbBlockReference
  2
_OPEN
 10
-692.3381502868833
 20
997.7588988762839
 30
0.0
 41
14.0
 42
14.0
 43
14.0
  0
MTEXT
  5
2670
330
1A42
100
AcDbEntity
  8
SUNPOU
  6
CONTINUOUS
 62
     4
100
AcDbMText
 10
-722.3382425614211
 20
1007.758898876284
 30
0.0
 40
12.0
 41
0.0
 71
     5
 72
     1
  1
\A1;※60
1001
ACAD
1000
MTEXTBEGIN
1070
    73
1070
     1
1070
    44
1040
1.0
1070
    74
1070
     0
1000
MTEXTEND
  0
POINT
  5
2671
330
1A42
100
AcDbEntity
  8
DEFPOINTS
  6
CONTINUOUS
 62
     0
100
AcDbPoint
 10
-752.3383348359589
 20
954.2982780598075
 30
0.0
  0
POINT
  5
2672
330
1A42
100
AcDbEntity
  8
DEFPOINTS
  6
CONTINUOUS
 62
     0
100
AcDbPoint
 10
-692.3381502868833
 20
957.298487073673
 30
0.0
  0
POINT
  5
2673
330
1A42
100
AcDbEntity
  8
DEFPOINTS
  6
CONTINUOUS
 62
     0
100
AcDbPoint
 10
-692.3381502868833
 20
997.7588988762839
 30
0.0
  0
ENDBLK
  5
1A4D
330
1A42
100
AcDbEntity
  8
0
100
AcDbBlockEnd
  0
BLOCK
  5
1A58
330
1A4E
100
AcDbEntity
  8
0
100
AcDbBlockBegin
  2
*D6
 70
     1
 10
0.0
 20
0.0
 30
0.0
  3
*D6
  1

  0
LINE
  5
2631
330
1A4E
100
AcDbEntity
  8
SUNPOU
  6
CONTINUOUS
 62
     4
100
AcDbLine
 10
-275.6601337862298
 20
360.4361670738778
 30
0.0
 11
-275.6601337862298
 21
312.12697359155
 31
0.0
  0
LINE
  5
2632
330
1A4E
100
AcDbEntity
  8
SUNPOU
  6
CONTINUOUS
 62
     4
100
AcDbLine
 10
-486.2770091465035
 20
360.4361670738778
 30
0.0
 11
-486.2770091465035
 21
312.12697359155
 31
0.0
  0
LINE
  5
2633
330
1A4E
100
AcDbEntity
  8
SUNPOU
  6
CONTINUOUS
 62
     4
100
AcDbLine
 10
-289.6601337862298
 20
318.12697359155
 30
0.0
 11
-472.2770091465036
 21
318.12697359155
 31
0.0
  0
INSERT
  5
2634
330
1A4E
100
AcDbEntity
  8
SUNPOU
  6
CONTINUOUS
 62
     4
100
AcDbBlockReference
  2
_OPEN
 10
-275.6601337862298
 20
318.12697359155
 30
0.0
 41
14.0
 42
14.0
 43
14.0
  0
INSERT
  5
2635
330
1A4E
100
AcDbEntity
  8
SUNPOU
  6
CONTINUOUS
 62
     4
100
AcDbBlockReference
  2
_OPEN
 10
-486.2770091465035
 20
318.12697359155
 30
0.0
 41
14.0
 42
14.0
 43
14.0
 50
180.0
  0
MTEXT
  5
2636
330
1A4E
100
AcDbEntity
  8
SUNPOU
  6
CONTINUOUS
 62
     4
100
AcDbMText
 10
-380.9685714663667
 20
328.12697359155
 30
0.0
 40
12.0
 41
0.0
 71
     5
 72
     1
  1
\A1;211
1001
ACAD
1000
MTEXTBEGIN
1070
    73
1070
     1
1070
    44
1040
1.0
1070
    74
1070
     0
1000
MTEXTEND
  0
POINT
  5
2637
330
1A4E
100
AcDbEntity
  8
DEFPOINTS
  6
CONTINUOUS
 62
     0
100
AcDbPoint
 10
-275.6601337862298
 20
372.4361670738778
 30
0.0
  0
POINT
  5
2638
330
1A4E
100
AcDbEntity
  8
DEFPOINTS
  6
CONTINUOUS
 62
     0
100
AcDbPoint
 10
-486.2770091465035
 20
372.4361670738778
 30
0.0
  0
POINT
  5
2639
330
1A4E
100
AcDbEntity
  8
DEFPOINTS
  6
CONTINUOUS
 62
     0
100
AcDbPoint
 10
-486.2770091465035
 20
318.12697359155
 30
0.0
  0
ENDBLK
  5
1A59
330
1A4E
100
AcDbEntity
  8
0
100
AcDbBlockEnd
  0
BLOCK
  5
1A64
330
1A5A
100
AcDbEntity
  8
0
100
AcDbBlockBegin
  2
*D7
 70
     1
 10
0.0
 20
0.0
 30
0.0
  3
*D7
  1

  0
LINE
  5
2628
330
1A5A
100
AcDbEntity
  8
SUNPOU
  6
CONTINUOUS
 62
     4
100
AcDbLine
 10
-250.6780707253374
 20
530.9361870738777
 30
0.0
 11
-250.6780707253374
 21
627.4046741272488
 31
0.0
  0
LINE
  5
2629
330
1A5A
100
AcDbEntity
  8
SUNPOU
  6
CONTINUOUS
 62
     4
100
AcDbLine
 10
-514.5742707253375
 20
555.9361870738777
 30
0.0
 11
-514.5742707253375
 21
627.4046741272488
 31
0.0
  0
LINE
  5
262A
330
1A5A
100
AcDbEntity
  8
SUNPOU
  6
CONTINUOUS
 62
     4
100
AcDbLine
 10
-264.6780707253374
 20
621.4046741272489
 30
0.0
 11
-500.5742707253375
 21
621.4046741272489
 31
0.0
  0
INSERT
  5
262B
330
1A5A
100
AcDbEntity
  8
SUNPOU
  6
CONTINUOUS
 62
     4
100
AcDbBlockReference
  2
_OPEN
 10
-250.6780707253374
 20
621.4046741272489
 30
0.0
 41
14.0
 42
14.0
 43
14.0
  0
INSERT
  5
262C
330
1A5A
100
AcDbEntity
  8
SUNPOU
  6
CONTINUOUS
 62
     4
100
AcDbBlockReference
  2
_OPEN
 10
-514.5742707253375
 20
621.4046741272489
 30
0.0
 41
14.0
 42
14.0
 43
14.0
 50
180.0
  0
MTEXT
  5
262D
330
1A5A
100
AcDbEntity
  8
SUNPOU
  6
CONTINUOUS
 62
     4
100
AcDbMText
 10
-382.6261707253375
 20
631.4046741272488
 30
0.0
 40
12.0
 41
0.0
 71
     5
 72
     1
  1
\A1;264
1001
ACAD
1000
MTEXTBEGIN
1070
    73
1070
     1
1070
    44
1040
1.0
1070
    74
1070
     0
1000
MTEXTEND
  0
POINT
  5
262E
330
1A5A
100
AcDbEntity
  8
DEFPOINTS
  6
CONTINUOUS
 62
     0
100
AcDbPoint
 10
-250.6780707253374
 20
518.9361870738777
 30
0.0
  0
POINT
  5
262F
330
1A5A
100
AcDbEntity
  8
DEFPOINTS
  6
CONTINUOUS
 62
     0
100
AcDbPoint
 10
-514.5742707253375
 20
543.9361870738777
 30
0.0
  0
POINT
  5
2630
330
1A5A
100
AcDbEntity
  8
DEFPOINTS
  6
CONTINUOUS
 62
     0
100
AcDbPoint
 10
-514.5742707253375
 20
621.4046741272489
 30
0.0
  0
ENDBLK
  5
1A65
330
1A5A
100
AcDbEntity
  8
0
100
AcDbBlockEnd
  0
BLOCK
  5
1A72
330
1A66
100
AcDbEntity
  8
0
100
AcDbBlockBegin
  2
*D8
 70
     1
 10
0.0
 20
0.0
 30
0.0
  3
*D8
  1

  0
LINE
  5
2643
330
1A66
100
AcDbEntity
  8
SUNPOU
  6
CONTINUOUS
 62
     4
100
AcDbLine
 10
-523.5742707253375
 20
546.9361870738778
 30
0.0
 11
-550.9212476801139
 21
546.9361870738778
 31
0.0
  0
LINE
  5
2644
330
1A66
100
AcDbEntity
  8
SUNPOU
  6
CONTINUOUS
 62
     4
100
AcDbLine
 10
-523.5742707253375
 20
513.9361870738778
 30
0.0
 11
-550.9212476801139
 21
513.9361870738778
 31
0.0
  0
LINE
  5
2645
330
1A66
100
AcDbEntity
  8
SUNPOU
  6
CONTINUOUS
 62
     4
100
AcDbLine
 10
-544.921247680114
 20
560.9361870738778
 30
0.0
 11
-544.921247680114
 21
574.9361870738778
 31
0.0
  0
LINE
  5
2646
330
1A66
100
AcDbEntity
  8
SUNPOU
  6
CONTINUOUS
 62
     4
100
AcDbLine
 10
-544.921247680114
 20
499.9361870738778
 30
0.0
 11
-544.921247680114
 21
485.9361870738778
 31
0.0
  0
LINE
  5
2647
330
1A66
100
AcDbEntity
  8
SUNPOU
  6
CONTINUOUS
 62
     4
100
AcDbLine
 10
-544.921247680114
 20
546.9361870738778
 30
0.0
 11
-544.921247680114
 21
513.9361870738778
 31
0.0
  0
INSERT
  5
2648
330
1A66
100
AcDbEntity
  8
SUNPOU
  6
CONTINUOUS
 62
     4
100
AcDbBlockReference
  2
_OPEN
 10
-544.921247680114
 20
546.9361870738778
 30
0.0
 41
14.0
 42
14.0
 43
14.0
 50
270.0
  0
INSERT
  5
2649
330
1A66
100
AcDbEntity
  8
SUNPOU
  6
CONTINUOUS
 62
     4
100
AcDbBlockReference
  2
_OPEN
 10
-544.921247680114
 20
513.9361870738778
 30
0.0
 41
14.0
 42
14.0
 43
14.0
 50
90.0
  0
MTEXT
  5
264A
330
1A66
100
AcDbEntity
  8
SUNPOU
  6
CONTINUOUS
 62
     4
100
AcDbMText
 10
-554.9212476801141
 20
530.4361870738777
 30
0.0
 40
12.0
 41
0.0
 71
     5
 72
     1
  1
\A1;33
 11
0.0000000000000001
 21
1.0
 31
0.0
1001
ACAD
1000
MTEXTBEGIN
1070
    73
1070
     1
1070
    44
1040
1.0
1070
    74
1070
     0
1000
MTEXTEND
  0
POINT
  5
264B
330
1A66
100
AcDbEntity
  8
DEFPOINTS
  6
CONTINUOUS
 62
     0
100
AcDbPoint
 10
-511.5742707253375
 20
546.9361870738778
 30
0.0
  0
POINT
  5
264C
330
1A66
100
AcDbEntity
  8
DEFPOINTS
  6
CONTINUOUS
 62
     0
100
AcDbPoint
 10
-511.5742707253375
 20
513.9361870738778
 30
0.0
  0
POINT
  5
264D
330
1A66
100
AcDbEntity
  8
DEFPOINTS
  6
CONTINUOUS
 62
     0
100
AcDbPoint
 10
-544.921247680114
 20
513.9361870738778
 30
0.0
  0
ENDBLK
  5
1A73
330
1A66
100
AcDbEntity
  8
0
100
AcDbBlockEnd
  0
BLOCK
  5
1A7E
330
1A74
100
AcDbEntity
  8
0
100
AcDbBlockBegin
  2
*D9
 70
     1
 10
0.0
 20
0.0
 30
0.0
  3
*D9
  1

  0
LINE
  5
263A
330
1A74
100
AcDbEntity
  8
SUNPOU
  6
CONTINUOUS
 62
     4
100
AcDbLine
 10
-523.5742707253375
 20
546.9361870738778
 30
0.0
 11
-591.1998850498084
 21
546.9361870738778
 31
0.0
  0
LINE
  5
263B
330
1A74
100
AcDbEntity
  8
SUNPOU
  6
CONTINUOUS
 62
     4
100
AcDbLine
 10
-495.6228707253376
 20
372.4361670738778
 30
0.0
 11
-591.1998850498084
 21
372.4361670738778
 31
0.0
  0
LINE
  5
263C
330
1A74
100
AcDbEntity
  8
SUNPOU
  6
CONTINUOUS
 62
     4
100
AcDbLine
 10
-585.1998850498084
 20
532.9361870738778
 30
0.0
 11
-585.1998850498084
 21
386.4361670738778
 31
0.0
  0
INSERT
  5
263D
330
1A74
100
AcDbEntity
  8
SUNPOU
  6
CONTINUOUS
 62
     4
100
AcDbBlockReference
  2
_OPEN
 10
-585.1998850498084
 20
546.9361870738778
 30
0.0
 41
14.0
 42
14.0
 43
14.0
 50
90.0
  0
INSERT
  5
263E
330
1A74
100
AcDbEntity
  8
SUNPOU
  6
CONTINUOUS
 62
     4
100
AcDbBlockReference
  2
_OPEN
 10
-585.1998850498084
 20
372.4361670738778
 30
0.0
 41
14.0
 42
14.0
 43
14.0
 50
270.0
  0
MTEXT
  5
263F
330
1A74
100
AcDbEntity
  8
SUNPOU
  6
CONTINUOUS
 62
     4
100
AcDbMText
 10
-595.1998850498085
 20
459.6861770738778
 30
0.0
 40
12.0
 41
0.0
 71
     5
 72
     1
  1
\A1;175
 11
0.0000000000000001
 21
1.0
 31
0.0
1001
ACAD
1000
MTEXTBEGIN
1070
    73
1070
     1
1070
    44
1040
1.0
1070
    74
1070
     0
1000
MTEXTEND
  0
POINT
  5
2640
330
1A74
100
AcDbEntity
  8
DEFPOINTS
  6
CONTINUOUS
 62
     0
100
AcDbPoint
 10
-511.5742707253375
 20
546.9361870738778
 30
0.0
  0
POINT
  5
2641
330
1A74
100
AcDbEntity
  8
DEFPOINTS
  6
CONTINUOUS
 62
     0
100
AcDbPoint
 10
-483.6228707253376
 20
372.4361670738778
 30
0.0
  0
POINT
  5
2642
330
1A74
100
AcDbEntity
  8
DEFPOINTS
  6
CONTINUOUS
 62
     0
100
AcDbPoint
 10
-585.1998850498084
 20
372.4361670738778
 30
0.0
  0
ENDBLK
  5
1A7F
330
1A74
100
AcDbEntity
  8
0
100
AcDbBlockEnd
  0
BLOCK
  5
1A8A
330
1A80
100
AcDbEntity
  8
0
100
AcDbBlockBegin
  2
*D10
 70
     1
 10
0.0
 20
0.0
 30
0.0
  3
*D10
  1

  0
LINE
  5
264E
330
1A80
100
AcDbEntity
  8
SUNPOU
  6
CONTINUOUS
 62
     4
100
AcDbLine
 10
-241.6780707253374
 20
521.9361870738778
 30
0.0
 11
-163.9828030825719
 21
521.9361870738778
 31
0.0
  0
LINE
  5
264F
330
1A80
100
AcDbEntity
  8
SUNPOU
  6
CONTINUOUS
 62
     4
100
AcDbLine
 10
-266.3143707253375
 20
372.4361670738778
 30
0.0
 11
-163.982803082572
 21
372.4361670738778
 31
0.0
  0
LINE
  5
2650
330
1A80
100
AcDbEntity
  8
SUNPOU
  6
CONTINUOUS
 62
     4
100
AcDbLine
 10
-169.9828030825719
 20
507.9361870738778
 30
0.0
 11
-169.9828030825719
 21
386.4361670738778
 31
0.0
  0
INSERT
  5
2651
330
1A80
100
AcDbEntity
  8
SUNPOU
  6
CONTINUOUS
 62
     4
100
AcDbBlockReference
  2
_OPEN
 10
-169.9828030825719
 20
521.9361870738778
 30
0.0
 41
14.0
 42
14.0
 43
14.0
 50
90.0
  0
INSERT
  5
2652
330
1A80
100
AcDbEntity
  8
SUNPOU
  6
CONTINUOUS
 62
     4
100
AcDbBlockReference
  2
_OPEN
 10
-169.9828030825719
 20
372.4361670738778
 30
0.0
 41
14.0
 42
14.0
 43
14.0
 50
270.0
  0
MTEXT
  5
2653
330
1A80
100
AcDbEntity
  8
SUNPOU
  6
CONTINUOUS
 62
     4
100
AcDbMText
 10
-179.982803082572
 20
447.1861770738778
 30
0.0
 40
12.0
 41
0.0
 71
     5
 72
     1
  1
\A1;150
 11
0.0000000000000001
 21
1.0
 31
0.0
1001
ACAD
1000
MTEXTBEGIN
1070
    73
1070
     1
1070
    44
1040
1.0
1070
    74
1070
     0
1000
MTEXTEND
  0
POINT
  5
2654
330
1A80
100
AcDbEntity
  8
DEFPOINTS
  6
CONTINUOUS
 62
     0
100
AcDbPoint
 10
-253.6780707253374
 20
521.9361870738778
 30
0.0
  0
POINT
  5
2655
330
1A80
100
AcDbEntity
  8
DEFPOINTS
  6
CONTINUOUS
 62
     0
100
AcDbPoint
 10
-278.3143707253375
 20
372.4361670738778
 30
0.0
  0
POINT
  5
2656
330
1A80
100
AcDbEntity
  8
DEFPOINTS
  6
CONTINUOUS
 62
     0
100
AcDbPoint
 10
-169.9828030825719
 20
372.4361670738778
 30
0.0
  0
ENDBLK
  5
1A8B
330
1A80
100
AcDbEntity
  8
0
100
AcDbBlockEnd
  0
BLOCK
  5
1A98
330
1A8C
100
AcDbEntity
  8
0
100
AcDbBlockBegin
  2
*D11
 70
     1
 10
0.0
 20
0.0
 30
0.0
  3
*D11
  1

  0
LINE
  5
2657
330
1A8C
100
AcDbEntity
  8
SUNPOU
  6
CONTINUOUS
 62
     4
100
AcDbLine
 10
-241.6780707253374
 20
521.9361870738778
 30
0.0
 11
-202.0202865117698
 21
521.9361870738778
 31
0.0
  0
LINE
  5
2658
330
1A8C
100
AcDbEntity
  8
SUNPOU
  6
CONTINUOUS
 62
     4
100
AcDbLine
 10
-241.6780707253374
 20
486.9361870738778
 30
0.0
 11
-202.0202865117698
 21
486.9361870738778
 31
0.0
  0
LINE
  5
2659
330
1A8C
100
AcDbEntity
  8
SUNPOU
  6
CONTINUOUS
 62
     4
100
AcDbLine
 10
-208.0202865117698
 20
535.9361870738778
 30
0.0
 11
-208.0202865117698
 21
549.9361870738778
 31
0.0
  0
LINE
  5
265A
330
1A8C
100
AcDbEntity
  8
SUNPOU
  6
CONTINUOUS
 62
     4
100
AcDbLine
 10
-208.0202865117698
 20
472.9361870738777
 30
0.0
 11
-208.0202865117698
 21
458.9361870738778
 31
0.0
  0
LINE
  5
265B
330
1A8C
100
AcDbEntity
  8
SUNPOU
  6
CONTINUOUS
 62
     4
100
AcDbLine
 10
-208.0202865117698
 20
521.9361870738778
 30
0.0
 11
-208.0202865117698
 21
486.9361870738778
 31
0.0
  0
INSERT
  5
265C
330
1A8C
100
AcDbEntity
  8
SUNPOU
  6
CONTINUOUS
 62
     4
100
AcDbBlockReference
  2
_OPEN
 10
-208.0202865117698
 20
521.9361870738778
 30
0.0
 41
14.0
 42
14.0
 43
14.0
 50
270.0
  0
INSERT
  5
265D
330
1A8C
100
AcDbEntity
  8
SUNPOU
  6
CONTINUOUS
 62
     4
100
AcDbBlockReference
  2
_OPEN
 10
-208.0202865117698
 20
486.9361870738778
 30
0.0
 41
14.0
 42
14.0
 43
14.0
 50
90.0
  0
MTEXT
  5
265E
330
1A8C
100
AcDbEntity
  8
SUNPOU
  6
CONTINUOUS
 62
     4
100
AcDbMText
 10
-218.0202865117699
 20
504.4361870738778
 30
0.0
 40
12.0
 41
0.0
 71
     5
 72
     1
  1
\A1;35
 11
0.0000000000000001
 21
1.0
 31
0.0
1001
ACAD
1000
MTEXTBEGIN
1070
    73
1070
     1
1070
    44
1040
1.0
1070
    74
1070
     0
1000
MTEXTEND
  0
POINT
  5
265F
330
1A8C
100
AcDbEntity
  8
DEFPOINTS
  6
CONTINUOUS
 62
     0
100
AcDbPoint
 10
-253.6780707253374
 20
521.9361870738778
 30
0.0
  0
POINT
  5
2660
330
1A8C
100
AcDbEntity
  8
DEFPOINTS
  6
CONTINUOUS
 62
     0
100
AcDbPoint
 10
-253.6780707253374
 20
486.9361870738778
 30
0.0
  0
POINT
  5
2661
330
1A8C
100
AcDbEntity
  8
DEFPOINTS
  6
CONTINUOUS
 62
     0
100
AcDbPoint
 10
-208.0202865117698
 20
486.9361870738778
 30
0.0
  0
ENDBLK
  5
1A99
330
1A8C
100
AcDbEntity
  8
0
100
AcDbBlockEnd
  0
BLOCK
  5
1E16
330
1C82
100
AcDbEntity
  8
0
100
AcDbBlockBegin
  2
*X12
 70
     1
 10
0.0
 20
0.0
 30
0.0
  3
*X12
  1

  0
LINE
  5
1C83
330
1C82
100
AcDbEntity
  8
0
 62
     0
100
AcDbLine
 10
138.0844243231183
 20
45.20833800885884
 30
0.0
 11
136.7927624636885
 21
46.4999998682888
 31
0.0
  0
LINE
  5
1C84
330
1C82
100
AcDbEntity
  8
0
 62
     0
100
AcDbLine
 10
138.0844243231183
 20
43.41228678464505
 30
0.0
 11
134.9967112394746
 21
46.4999998682888
 31
0.0
  0
LINE
  5
1C85
330
1C82
100
AcDbEntity
  8
0
 62
     0
100
AcDbLine
 10
138.0844243231182
 20
41.61623556043116
 30
0.0
 11
133.2421564310883
 21
46.45850345246105
 31
0.0
  0
LINE
  5
1C86
330
1C82
100
AcDbEntity
  8
0
 62
     0
100
AcDbLine
 10
138.0844243231183
 20
39.82018433621749
 30
0.0
 11
132.4844243231182
 21
45.42018433621751
 31
0.0
  0
LINE
  5
1C87
330
1C82
100
AcDbEntity
  8
0
 62
     0
100
AcDbLine
 10
138.0844243231183
 20
38.02413311200359
 30
0.0
 11
132.4844243231182
 21
43.62413311200373
 31
0.0
  0
LINE
  5
1C88
330
1C82
100
AcDbEntity
  8
0
 62
     0
100
AcDbLine
 10
138.0844243231182
 20
36.2280818877897
 30
0.0
 11
132.4844243231181
 21
41.82808188778984
 31
0.0
  0
LINE
  5
1C89
330
1C82
100
AcDbEntity
  8
0
 62
     0
100
AcDbLine
 10
128.2844243231181
 20
44.2320306635761
 30
0.0
 11
126.0164551184056
 21
46.4999998682888
 31
0.0
  0
LINE
  5
1C8A
330
1C82
100
AcDbEntity
  8
0
 62
     0
100
AcDbLine
 10
138.0844243231183
 20
34.43203066357602
 30
0.0
 11
132.4844243231182
 21
40.03203066357616
 31
0.0
  0
LINE
  5
1C8B
330
1C82
100
AcDbEntity
  8
0
 62
     0
100
AcDbLine
 10
128.2844243231181
 20
42.43597943936231
 30
0.0
 11
124.2204038941916
 21
46.49999986828868
 31
0.0
  0
LINE
  5
1C8C
330
1C82
100
AcDbEntity
  8
0
 62
     0
100
AcDbLine
 10
138.0844243231182
 20
32.63597943936213
 30
0.0
 11
132.4844243231182
 21
38.23597943936226
 31
0.0
  0
LINE
  5
1C8D
330
1C82
100
AcDbEntity
  8
0
 62
     0
100
AcDbLine
 10
128.2844243231181
 20
40.63992821514841
 30
0.0
 11
122.873402392844
 21
46.05095014542257
 31
0.0
  0
LINE
  5
1C8E
330
1C82
100
AcDbEntity
  8
0
 62
     0
100
AcDbLine
 10
138.0844243231182
 20
30.83992821514835
 30
0.0
 11
132.4844243231181
 21
36.43992821514837
 31
0.0
  0
LINE
  5
1C8F
330
1C82
100
AcDbEntity
  8
0
 62
     0
100
AcDbLine
 10
128.2844243231183
 20
38.8438769909344
 30
0.0
 11
122.684424323118
 21
44.44387699093465
 31
0.0
  0
LINE
  5
1C90
330
1C82
100
AcDbEntity
  8
0
 62
     0
100
AcDbLine
 10
138.0844243231183
 20
29.04387699093445
 30
0.0
 11
132.4844243231182
 21
34.64387699093459
 31
0.0
  0
LINE
  5
1C91
330
1C82
100
AcDbEntity
  8
0
 62
     0
100
AcDbLine
 10
128.2844243231182
 20
37.04782576672062
 30
0.0
 11
122.684424323118
 21
42.64782576672098
 31
0.0
  0
LINE
  5
1C92
330
1C82
100
AcDbEntity
  8
0
 62
     0
100
AcDbLine
 10
138.0844243231182
 20
27.24782576672066
 30
0.0
 11
132.4844243231181
 21
32.8478257667208
 31
0.0
  0
LINE
  5
1C93
330
1C82
100
AcDbEntity
  8
0
 62
     0
100
AcDbLine
 10
128.2844243231182
 20
35.25177454250683
 30
0.0
 11
122.684424323118
 21
40.85177454250708
 31
0.0
  0
LINE
  5
1C94
330
1C82
100
AcDbEntity
  8
0
 62
     0
100
AcDbLine
 10
138.0844243231182
 20
25.45177454250688
 30
0.0
 11
132.4844243231181
 21
31.05177454250702
 31
0.0
  0
LINE
  5
1C95
330
1C82
100
AcDbEntity
  8
0
 62
     0
100
AcDbLine
 10
128.2844243231181
 20
33.45572331829294
 30
0.0
 11
122.6844243231179
 21
39.05572331829318
 31
0.0
  0
LINE
  5
1C96
330
1C82
100
AcDbEntity
  8
0
 62
     0
100
AcDbLine
 10
138.0844243231181
 20
23.65572331829298
 30
0.0
 11
132.4844243231181
 21
29.25572331829312
 31
0.0
  0
LINE
  5
1C97
330
1C82
100
AcDbEntity
  8
0
 62
     0
100
AcDbLine
 10
128.2844243231182
 20
31.65967209407927
 30
0.0
 11
122.684424323118
 21
37.25967209407952
 31
0.0
  0
LINE
  5
1C98
330
1C82
100
AcDbEntity
  8
0
 62
     0
100
AcDbLine
 10
115.6844243231181
 20
44.2596720940794
 30
0.0
 11
113.4440965489086
 21
46.4999998682888
 31
0.0
  0
LINE
  5
1C99
330
1C82
100
AcDbEntity
  8
0
 62
     0
100
AcDbLine
 10
138.0844243231182
 20
21.85967209407931
 30
0.0
 11
132.4844243231181
 21
27.45967209407933
 31
0.0
  0
LINE
  5
1C9A
330
1C82
100
AcDbEntity
  8
0
 62
     0
100
AcDbLine
 10
128.2844243231182
 20
29.86362086986537
 30
0.0
 11
122.6844243231179
 21
35.46362086986562
 31
0.0
  0
LINE
  5
1C9B
330
1C82
100
AcDbEntity
  8
0
 62
     0
100
AcDbLine
 10
115.6844243231182
 20
42.46362086986539
 30
0.0
 11
111.6480453246948
 21
46.4999998682888
 31
0.0
  0
LINE
  5
1C9C
330
1C82
100
AcDbEntity
  8
0
 62
     0
100
AcDbLine
 10
138.0844243231182
 20
20.06362086986541
 30
0.0
 11
132.4844243231181
 21
25.66362086986555
 31
0.0
  0
LINE
  5
1C9D
330
1C82
100
AcDbEntity
  8
0
 62
     0
100
AcDbLine
 10
128.2844243231181
 20
28.06756964565158
 30
0.0
 11
122.684424323118
 21
33.66756964565161
 31
0.0
  0
LINE
  5
1C9E
330
1C82
100
AcDbEntity
  8
0
 62
     0
100
AcDbLine
 10
115.6844243231181
 20
40.6675696456515
 30
0.0
 11
110.28489887647
 21
46.06709509229972
 31
0.0
  0
LINE
  5
1C9F
330
1C82
100
AcDbEntity
  8
0
 62
     0
100
AcDbLine
 10
138.0844243231181
 20
18.26756964565163
 30
0.0
 11
132.4844243231179
 21
23.86756964565165
 31
0.0
  0
LINE
  5
1CA0
330
1C82
100
AcDbEntity
  8
0
 62
     0
100
AcDbLine
 10
128.2844243231182
 20
26.27151842143769
 30
0.0
 11
122.6844243231181
 21
31.87151842143782
 31
0.0
  0
LINE
  5
1CA1
330
1C82
100
AcDbEntity
  8
0
 62
     0
100
AcDbLine
 10
115.6844243231182
 20
38.87151842143771
 30
0.0
 11
110.0844243231181
 21
44.47151842143784
 31
0.0
  0
LINE
  5
1CA2
330
1C82
100
AcDbEntity
  8
0
 62
     0
100
AcDbLine
 10
138.0844243231182
 20
16.47151842143773
 30
0.0
 11
132.4844243231181
 21
22.07151842143787
 31
0.0
  0
LINE
  5
1CA3
330
1C82
100
AcDbEntity
  8
0
 62
     0
100
AcDbLine
 10
128.2844243231181
 20
24.47546719722391
 30
0.0
 11
122.6844243231181
 21
30.07546719722404
 31
0.0
  0
LINE
  5
1CA4
330
1C82
100
AcDbEntity
  8
0
 62
     0
100
AcDbLine
 10
115.6844243231182
 20
37.07546719722393
 30
0.0
 11
110.0844243231182
 21
42.67546719722395
 31
0.0
  0
LINE
  5
1CA5
330
1C82
100
AcDbEntity
  8
0
 62
     0
100
AcDbLine
 10
137.9404936133386
 20
14.81939790700357
 30
0.0
 11
132.4844243231181
 21
20.27546719722408
 31
0.0
  0
LINE
  5
1CA6
330
1C82
100
AcDbEntity
  8
0
 62
     0
100
AcDbLine
 10
128.2844243231182
 20
22.67941597300989
 30
0.0
 11
122.684424323118
 21
28.27941597301014
 31
0.0
  0
LINE
  5
1CA7
330
1C82
100
AcDbEntity
  8
0
 62
     0
100
AcDbLine
 10
115.6844243231181
 20
35.27941597301014
 30
0.0
 11
110.0844243231182
 21
40.87941597301005
 31
0.0
  0
LINE
  5
1CA8
330
1C82
100
AcDbEntity
  8
0
 62
     0
100
AcDbLine
 10
136.6638404278396
 20
14.29999986828863
 30
0.0
 11
132.4844243231179
 21
18.4794159730103
 31
0.0
  0
LINE
  5
1CA9
330
1C82
100
AcDbEntity
  8
0
 62
     0
100
AcDbLine
 10
115.6844243231181
 20
33.48336474879625
 30
0.0
 11
110.0844243231181
 21
39.08336474879615
 31
0.0
  0
LINE
  5
1CAA
330
1C82
100
AcDbEntity
  8
0
 62
     0
100
AcDbLine
 10
128.2844243231182
 20
20.88336474879611
 30
0.0
 11
122.684424323118
 21
26.48336474879636
 31
0.0
  0
LINE
  5
1CAB
330
1C82
100
AcDbEntity
  8
0
 62
     0
100
AcDbLine
 10
104.8344243231181
 20
44.33336474879626
 30
0.0
 11
102.6677892036254
 21
46.4999998682888
 31
0.0
  0
LINE
  5
1CAC
330
1C82
100
AcDbEntity
  8
0
 62
     0
100
AcDbLine
 10
134.8677892036258
 20
14.29999986828841
 30
0.0
 11
132.4844243231179
 21
16.6833647487964
 31
0.0
  0
LINE
  5
1CAD
330
1C82
100
AcDbEntity
  8
0
 62
     0
100
AcDbLine
 10
115.6844243231181
 20
31.68731352458246
 30
0.0
 11
110.0844243231182
 21
37.28731352458249
 31
0.0
  0
LINE
  5
1CAE
330
1C82
100
AcDbEntity
  8
0
 62
     0
100
AcDbLine
 10
104.8344243231181
 20
42.53731352458248
 30
0.0
 11
100.8717379794118
 21
46.4999998682889
 31
0.0
  0
LINE
  5
1CAF
330
1C82
100
AcDbEntity
  8
0
 62
     0
100
AcDbLine
 10
128.2325077218271
 20
19.1392301258736
 30
0.0
 11
122.684424323118
 21
24.68731352458258
 31
0.0
  0
LINE
  5
1CB0
330
1C82
100
AcDbEntity
  8
0
 62
     0
100
AcDbLine
 10
115.6844243231182
 20
29.89126230036845
 30
0.0
 11
110.0844243231182
 21
35.49126230036859
 31
0.0
  0
LINE
  5
1CB1
330
1C82
100
AcDbEntity
  8
0
 62
     0
100
AcDbLine
 10
104.4432632308904
 20
41.13242339259636
 30
0.0
 11
99.07568675519815
 21
46.49999986828868
 31
0.0
  0
LINE
  5
1CB2
330
1C82
100
AcDbEntity
  8
0
 62
     0
100
AcDbLine
 10
127.8465371313126
 20
17.72914949217408
 30
0.0
 11
122.684424323118
 21
22.89126230036879
 31
0.0
  0
LINE
  5
1CB3
330
1C82
100
AcDbEntity
  8
0
 62
     0
100
AcDbLine
 10
115.6844243231182
 20
28.09521107615466
 30
0.0
 11
110.0844243231181
 21
33.6952110761548
 31
0.0
  0
LINE
  5
1CB4
330
1C82
100
AcDbEntity
  8
0
 62
     0
100
AcDbLine
 10
102.8796355309841
 20
40.89999986828866
 30
0.0
 11
97.27963553098414
 21
46.4999998682888
 31
0.0
  0
LINE
  5
1CB5
330
1C82
100
AcDbEntity
  8
0
 62
     0
100
AcDbLine
 10
127.1964733794654
 20
16.58316201980733
 30
0.0
 11
122.541392844799
 21
21.23824255447391
 31
0.0
  0
LINE
  5
1CB6
330
1C82
100
AcDbEntity
  8
0
 62
     0
100
AcDbLine
 10
115.6844243231183
 20
26.29915985194088
 30
0.0
 11
110.0844243231182
 21
31.89915985194102
 31
0.0
  0
LINE
  5
1CB7
330
1C82
100
AcDbEntity
  8
0
 62
     0
100
AcDbLine
 10
101.0835843067704
 20
40.89999986828877
 30
0.0
 11
95.60845084841572
 21
46.37513332664354
 31
0.0
  0
LINE
  5
1CB8
330
1C82
100
AcDbEntity
  8
0
 62
     0
100
AcDbLine
 10
126.3323897848154
 20
15.65119439024374
 30
0.0
 11
121.738221567864
 21
20.24536260719514
 31
0.0
  0
LINE
  5
1CB9
330
1C82
100
AcDbEntity
  8
0
 62
     0
100
AcDbLine
 10
115.6844243231182
 20
24.5031086277271
 30
0.0
 11
110.0844243231181
 21
30.10310862772712
 31
0.0
  0
LINE
  5
1CBA
330
1C82
100
AcDbEntity
  8
0
 62
     0
100
AcDbLine
 10
99.28753308255659
 20
40.89999986828877
 30
0.0
 11
94.27916999934893
 21
45.90836295149631
 31
0.0
  0
LINE
  5
1CBB
330
1C82
100
AcDbEntity
  8
0
 62
     0
100
AcDbLine
 10
125.2600650949633
 20
14.92746785588201
 30
0.0
 11
120.2875330825565
 21
19.89999986828865
 31
0.0
  0
LINE
  5
1CBC
330
1C82
100
AcDbEntity
  8
0
 62
     0
100
AcDbLine
 10
115.6844243231182
 20
22.7070574035132
 30
0.0
 11
110.0844243231182
 21
28.30705740351311
 31
0.0
  0
LINE
  5
1CBD
330
1C82
100
AcDbEntity
  8
0
 62
     0
100
AcDbLine
 10
97.53506151437898
 20
40.85642021225237
 30
0.0
 11
93.19396812492858
 21
45.19751360170277
 31
0.0
  0
LINE
  5
1CBE
330
1C82
100
AcDbEntity
  8
0
 62
     0
100
AcDbLine
 10
123.9472399751407
 20
14.44424175149072
 30
0.0
 11
118.4914818583428
 21
19.89999986828865
 31
0.0
  0
LINE
  5
1CBF
330
1C82
100
AcDbEntity
  8
0
 62
     0
100
AcDbLine
 10
96.78442432311829
 20
39.81100617929917
 30
0.0
 11
92.31774400683946
 21
44.27768649557799
 31
0.0
  0
LINE
  5
1CC0
330
1C82
100
AcDbEntity
  8
0
 62
     0
100
AcDbLine
 10
122.295430634129
 20
14.29999986828852
 30
0.0
 11
110.0844243231182
 21
26.51100617929933
 31
0.0
  0
LINE
  5
1CC1
330
1C82
100
AcDbEntity
  8
0
 62
     0
100
AcDbLine
 10
96.7844243231184
 20
38.0149549550855
 30
0.0
 11
91.65420218213341
 21
43.14517709607048
 31
0.0
  0
LINE
  5
1CC2
330
1C82
100
AcDbEntity
  8
0
 62
     0
100
AcDbLine
 10
120.4993794099152
 20
14.29999986828852
 30
0.0
 11
110.0844243231183
 21
24.71495495508554
 31
0.0
  0
LINE
  5
1CC3
330
1C82
100
AcDbEntity
  8
0
 62
     0
100
AcDbLine
 10
97.19751288532586
 20
35.80581516866414
 30
0.0
 11
91.24984514340519
 21
41.75348291058469
 31
0.0
  0
LINE
  5
1CC4
330
1C82
100
AcDbEntity
  8
0
 62
     0
100
AcDbLine
 10
118.7033281857012
 20
14.29999986828863
 30
0.0
 11
110.0844243231182
 21
22.91890373087176
 31
0.0
  0
LINE
  5
1CC5
330
1C82
100
AcDbEntity
  8
0
 62
     0
100
AcDbLine
 10
105.6316317285009
 20
25.57564510127519
 30
0.0
 11
91.18442432311814
 21
40.02285250665784
 31
0.0
  0
LINE
  5
1CC6
330
1C82
100
AcDbEntity
  8
0
 62
     0
100
AcDbLine
 10
86.98442432311798
 20
44.222852506658
 30
0.0
 11
84.70727696148742
 21
46.49999986828868
 31
0.0
  0
LINE
  5
1CC7
330
1C82
100
AcDbEntity
  8
0
 62
     0
100
AcDbLine
 10
116.9072769614874
 20
14.29999986828863
 30
0.0
 11
110.0844243231182
 21
21.12285250665786
 31
0.0
  0
LINE
  5
1CC8
330
1C82
100
AcDbEntity
  8
0
 62
     0
100
AcDbLine
 10
105.8844243231183
 20
23.52680128244412
 30
0.0
 11
91.18442432311827
 21
38.22680128244417
 31
0.0
  0
LINE
  5
1CC9
330
1C82
100
AcDbEntity
  8
0
 62
     0
100
AcDbLine
 10
86.98442432311821
 20
42.4268012824441
 30
0.0
 11
82.91122573727353
 21
46.4999998682889
 31
0.0
  0
LINE
  5
1CCA
330
1C82
100
AcDbEntity
  8
0
 62
     0
100
AcDbLine
 10
115.078329979784
 20
14.3328956257784
 30
0.0
 11
110.117320080608
 21
19.29390552495442
 31
0.0
  0
LINE
  5
1CCB
330
1C82
100
AcDbEntity
  8
0
 62
     0
100
AcDbLine
 10
86.98442432311821
 20
40.63075005823032
 30
0.0
 11
81.56964454756758
 21
46.04552983378084
 31
0.0
  0
LINE
  5
1CCC
330
1C82
100
AcDbEntity
  8
0
 62
     0
100
AcDbLine
 10
105.8844243231181
 20
21.73075005823022
 30
0.0
 11
91.23124565888293
 21
36.38392872246561
 31
0.0
  0
LINE
  5
1CCD
330
1C82
100
AcDbEntity
  8
0
 62
     0
100
AcDbLine
 10
86.98442432311821
 20
38.83469883401642
 30
0.0
 11
81.38442432311819
 21
44.43469883401633
 31
0.0
  0
LINE
  5
1CCE
330
1C82
100
AcDbEntity
  8
0
 62
     0
100
AcDbLine
 10
105.8844243231179
 20
19.93469883401655
 30
0.0
 11
91.86748449456297
 21
33.95163866257167
 31
0.0
  0
LINE
  5
1CCF
330
1C82
100
AcDbEntity
  8
0
 62
     0
100
AcDbLine
 10
86.98442432311821
 20
37.03864760980263
 30
0.0
 11
81.38442432311832
 21
42.63864760980254
 31
0.0
  0
LINE
  5
1CD0
330
1C82
100
AcDbEntity
  8
0
 62
     0
100
AcDbLine
 10
105.66730068794
 20
18.35577124498081
 30
0.0
 11
100.2760311098634
 21
23.74704082305743
 31
0.0
  0
LINE
  5
1CD1
330
1C82
100
AcDbEntity
  8
0
 62
     0
100
AcDbLine
 10
86.98442432311821
 20
35.24259638558885
 30
0.0
 11
81.38442432311819
 21
40.84259638558876
 31
0.0
  0
LINE
  5
1CD2
330
1C82
100
AcDbEntity
  8
0
 62
     0
100
AcDbLine
 10
76.80145052196417
 20
45.42557018674279
 30
0.0
 11
75.72702084041816
 21
46.4999998682889
 31
0.0
  0
LINE
  5
1CD3
330
1C82
100
AcDbEntity
  8
0
 62
     0
100
AcDbLine
 10
105.1315492724169
 20
17.09547143629015
 30
0.0
 11
100.2844243231182
 21
21.94259638558878
 31
0.0
  0
LINE
  5
1CD4
330
1C82
100
AcDbEntity
  8
0
 62
     0
100
AcDbLine
 10
86.98442432311811
 20
33.44654516137495
 30
0.0
 11
81.38442432311819
 21
39.04654516137497
 31
0.0
  0
LINE
  5
1CD5
330
1C82
100
AcDbEntity
  8
0
 62
     0
100
AcDbLine
 10
76.40359519345896
 20
44.0273742910341
 30
0.0
 11
73.93096961620438
 21
46.4999998682888
 31
0.0
  0
LINE
  5
1CD6
330
1C82
100
AcDbEntity
  8
0
 62
     0
100
AcDbLine
 10
104.3655756760663
 20
16.06539380842684
 30
0.0
 11
100.0898539573453
 21
20.34111552714784
 31
0.0
  0
LINE
  5
1CD7
330
1C82
100
AcDbEntity
  8
0
 62
     0
100
AcDbLine
 10
86.98442432311811
 20
31.65049393716117
 30
0.0
 11
81.38442432311819
 21
37.25049393716108
 31
0.0
  0
LINE
  5
1CD8
330
1C82
100
AcDbEntity
  8
0
 62
     0
100
AcDbLine
 10
75.97254289964758
 20
42.66237536063158
 30
0.0
 11
72.15411177270642
 21
46.48080648757286
 31
0.0
  0
LINE
  5
1CD9
330
1C82
100
AcDbEntity
  8
0
 62
     0
100
AcDbLine
 10
103.392937745835
 20
15.24198051444409
 30
0.0
 11
98.73491839199061
 21
19.89999986828865
 31
0.0
  0
LINE
  5
1CDA
330
1C82
100
AcDbEntity
  8
0
 62
     0
100
AcDbLine
 10
86.98442432311834
 20
29.85444271294727
 30
0.0
 11
81.38442432311819
 21
35.4544427129473
 31
0.0
  0
LINE
  5
1CDB
330
1C82
100
AcDbEntity
  8
0
 62
     0
100
AcDbLine
 10
75.54149060583654
 20
41.29737643022906
 30
0.0
 11
71.28549060583646
 21
45.55337643022915
 31
0.0
  0
LINE
  5
1CDC
330
1C82
100
AcDbEntity
  8
0
 62
     0
100
AcDbLine
 10
102.2007698489143
 20
14.63809718715117
 30
0.0
 11
96.93886716777683
 21
19.89999986828877
 31
0.0
  0
LINE
  5
1CDD
330
1C82
100
AcDbEntity
  8
0
 62
     0
100
AcDbLine
 10
86.98442432311834
 20
28.05839148873337
 30
0.0
 11
81.38442432311819
 21
33.65839148873351
 31
0.0
  0
LINE
  5
1CDE
330
1C82
100
AcDbEntity
  8
0
 62
     0
100
AcDbLine
 10
75.11043831202482
 20
39.93237749982688
 30
0.0
 11
70.85443831202486
 21
44.18837749982685
 31
0.0
  0
LINE
  5
1CDF
330
1C82
100
AcDbEntity
  8
0
 62
     0
100
AcDbLine
 10
100.7254245456193
 20
14.31739126623233
 30
0.0
 11
95.14281594356305
 21
19.89999986828865
 31
0.0
  0
LINE
  5
1CE0
330
1C82
100
AcDbEntity
  8
0
 62
     0
100
AcDbLine
 10
86.98442432311821
 20
26.26234026451959
 30
0.0
 11
81.38442432311808
 21
31.86234026451961
 31
0.0
  0
LINE
  5
1CE1
330
1C82
100
AcDbEntity
  8
0
 62
     0
100
AcDbLine
 10
74.67938601821368
 20
38.56737856942413
 30
0.0
 11
70.42338601821348
 21
42.82337856942421
 31
0.0
  0
LINE
  5
1CE2
330
1C82
100
AcDbEntity
  8
0
 62
     0
100
AcDbLine
 10
98.94676471934928
 20
14.29999986828852
 30
0.0
 11
93.34676471934916
 21
19.89999986828865
 31
0.0
  0
LINE
  5
1CE3
330
1C82
100
AcDbEntity
  8
0
 62
     0
100
AcDbLine
 10
86.98442432311834
 20
24.46628904030581
 30
0.0
 11
81.38442432311819
 21
30.06628904030594
 31
0.0
  0
LINE
  5
1CE4
330
1C82
100
AcDbEntity
  8
0
 62
     0
100
AcDbLine
 10
74.24833372440253
 20
37.20237963902161
 30
0.0
 11
69.99233372440222
 21
41.45837963902181
 31
0.0
  0
LINE
  5
1CE5
330
1C82
100
AcDbEntity
  8
0
 62
     0
100
AcDbLine
 10
97.1507134951355
 20
14.29999986828863
 30
0.0
 11
92.28349010054273
 21
19.1672232628814
 31
0.0
  0
LINE
  5
1CE6
330
1C82
100
AcDbEntity
  8
0
 62
     0
100
AcDbLine
 10
73.81728143059103
 20
35.83738070861921
 30
0.0
 11
69.56128143059095
 21
40.09338070861929
 31
0.0
  0
LINE
  5
1CE7
330
1C82
100
AcDbEntity
  8
0
 62
     0
100
AcDbLine
 10
86.98442432311821
 20
22.67023781609191
 30
0.0
 11
81.38442432311819
 21
28.27023781609204
 31
0.0
  0
LINE
  5
1CE8
330
1C82
100
AcDbEntity
  8
0
 62
     0
100
AcDbLine
 10
65.28442432311817
 20
44.37023781609207
 30
0.0
 11
63.15466227092156
 21
46.49999986828857
 31
0.0
  0
LINE
  5
1CE9
330
1C82
100
AcDbEntity
  8
0
 62
     0
100
AcDbLine
 10
95.35466227092172
 20
14.29999986828852
 30
0.0
 11
92.23442432311822
 21
17.42023781609202
 31
0.0
  0
LINE
  5
1CEA
330
1C82
100
AcDbEntity
  8
0
 62
     0
100
AcDbLine
 10
73.38622913677966
 20
34.47238177821668
 30
0.0
 11
69.13022913677969
 21
38.72838177821666
 31
0.0
  0
LINE
  5
1CEB
330
1C82
100
AcDbEntity
  8
0
 62
     0
100
AcDbLine
 10
86.98442432311821
 20
20.87418659187812
 30
0.0
 11
81.38442432311808
 21
26.47418659187826
 31
0.0
  0
LINE
  5
1CEC
330
1C82
100
AcDbEntity
  8
0
 62
     0
100
AcDbLine
 10
65.28442432311817
 20
42.57418659187817
 30
0.0
 11
61.35861104670778
 21
46.49999986828857
 31
0.0
  0
LINE
  5
1CED
330
1C82
100
AcDbEntity
  8
0
 62
     0
100
AcDbLine
 10
93.5586110467077
 20
14.29999986828863
 30
0.0
 11
92.23442432311811
 21
15.62418659187812
 31
0.0
  0
LINE
  5
1CEE
330
1C82
100
AcDbEntity
  8
0
 62
     0
100
AcDbLine
 10
72.95517684296829
 20
33.10738284781416
 30
0.0
 11
68.6991768429682
 21
37.36338284781425
 31
0.0
  0
LINE
  5
1CEF
330
1C82
100
AcDbEntity
  8
0
 62
     0
100
AcDbLine
 10
65.28442432311805
 20
40.77813536766427
 30
0.0
 11
59.93353446532285
 21
46.1290252254596
 31
0.0
  0
LINE
  5
1CF0
330
1C82
100
AcDbEntity
  8
0
 62
     0
100
AcDbLine
 10
86.98442432311821
 20
19.07813536766423
 30
0.0
 11
81.38442432311808
 21
24.67813536766437
 31
0.0
  0
LINE
  5
1CF1
330
1C82
100
AcDbEntity
  8
0
 62
     0
100
AcDbLine
 10
72.52412454915702
 20
31.74238391741175
 30
0.0
 11
68.26812454915705
 21
35.99838391741172
 31
0.0
  0
LINE
  5
1CF2
330
1C82
100
AcDbEntity
  8
0
 62
     0
100
AcDbLine
 10
65.28442432311817
 20
38.9820841434506
 30
0.0
 11
59.68442432311826
 21
44.58208414345051
 31
0.0
  0
LINE
  5
1CF3
330
1C82
100
AcDbEntity
  8
0
 62
     0
100
AcDbLine
 10
86.98442432311821
 20
17.28208414345056
 30
0.0
 11
81.38442432311808
 21
22.88208414345058
 31
0.0
  0
LINE
  5
1CF4
330
1C82
100
AcDbEntity
  8
0
 62
     0
100
AcDbLine
 10
72.11394753037325
 20
30.35650971198163
 30
0.0
 11
67.83707225534556
 21
34.63338498700932
 31
0.0
  0
LINE
  5
1CF5
330
1C82
100
AcDbEntity
  8
0
 62
     0
100
AcDbLine
 10
65.28442432311817
 20
37.1860329192367
 30
0.0
 11
59.68442432311815
 21
42.78603291923661
 31
0.0
  0
LINE
  5
1CF6
330
1C82
100
AcDbEntity
  8
0
 62
     0
100
AcDbLine
 10
86.98442432311834
 20
15.48603291923654
 30
0.0
 11
81.38442432311808
 21
21.08603291923679
 31
0.0
  0
LINE
  5
1CF7
330
1C82
100
AcDbEntity
  8
0
 62
     0
100
AcDbLine
 10
72.94289424924125
 20
27.73151176889973
 30
0.0
 11
67.25597726397632
 21
33.41842875416466
 31
0.0
  0
LINE
  5
1CF8
330
1C82
100
AcDbEntity
  8
0
 62
     0
100
AcDbLine
 10
65.28442432311829
 20
35.38998169502269
 30
0.0
 11
59.68442432311815
 21
40.98998169502283
 31
0.0
  0
LINE
  5
1CF9
330
1C82
100
AcDbEntity
  8
0
 62
     0
100
AcDbLine
 10
86.30633432845332
 20
14.36807168968755
 30
0.0
 11
81.38442432311819
 21
19.28998169502278
 31
0.0
  0
LINE
  5
1CFA
330
1C82
100
AcDbEntity
  8
0
 62
     0
100
AcDbLine
 10
73.77184096810935
 20
25.10651382581795
 30
0.0
 11
59.68442432311815
 21
39.19393047080905
 31
0.0
  0
LINE
  5
1CFB
330
1C82
100
AcDbEntity
  8
0
 62
     0
100
AcDbLine
 10
54.78442432311829
 20
44.09393047080903
 30
0.0
 11
52.37835492563852
 21
46.49999986828868
 31
0.0
  0
LINE
  5
1CFC
330
1C82
100
AcDbEntity
  8
0
 62
     0
100
AcDbLine
 10
84.57835492563868
 20
14.29999986828863
 30
0.0
 11
81.38442432311832
 21
17.493930470809
 31
0.0
  0
LINE
  5
1CFD
330
1C82
100
AcDbEntity
  8
0
 62
     0
100
AcDbLine
 10
74.60078768697712
 20
22.48151588273617
 30
0.0
 11
59.68442432311815
 21
37.39787924659526
 31
0.0
  0
LINE
  5
1CFE
330
1C82
100
AcDbEntity
  8
0
 62
     0
100
AcDbLine
 10
54.78442432311829
 20
42.29787924659513
 30
0.0
 11
50.58230370142474
 21
46.49999986828868
 31
0.0
  0
LINE
  5
1CFF
330
1C82
100
AcDbEntity
  8
0
 62
     0
100
AcDbLine
 10
82.78230370142466
 20
14.29999986828875
 30
0.0
 11
81.38442432311819
 21
15.69787924659522
 31
0.0
  0
LINE
  5
1D00
330
1C82
100
AcDbEntity
  8
0
 62
     0
100
AcDbLine
 10
54.25061093233807
 20
41.03564141316144
 30
0.0
 11
48.85016749591523
 21
46.43608484958417
 31
0.0
  0
LINE
  5
1D01
330
1C82
100
AcDbEntity
  8
0
 62
     0
100
AcDbLine
 10
75.42973440584501
 20
19.8565179396545
 30
0.0
 11
59.68442432311815
 21
35.60182802238136
 31
0.0
  0
LINE
  5
1D02
330
1C82
100
AcDbEntity
  8
0
 62
     0
100
AcDbLine
 10
65.95944216780139
 20
27.53075895348433
 30
0.0
 11
59.68442432311838
 21
33.80577679816735
 31
0.0
  0
LINE
  5
1D03
330
1C82
100
AcDbEntity
  8
0
 62
     0
100
AcDbLine
 10
52.59020125299707
 20
40.89999986828866
 30
0.0
 11
47.3740813567407
 21
46.11611976454503
 31
0.0
  0
LINE
  5
1D04
330
1C82
100
AcDbEntity
  8
0
 62
     0
100
AcDbLine
 10
76.25868112471301
 20
17.23151999657273
 30
0.0
 11
68.07406574009724
 21
25.41613538118838
 31
0.0
  0
LINE
  5
1D05
330
1C82
100
AcDbEntity
  8
0
 62
     0
100
AcDbLine
 10
65.28442432311829
 20
26.40972557395366
 30
0.0
 11
59.68442432311826
 21
32.00972557395369
 31
0.0
  0
LINE
  5
1D06
330
1C82
100
AcDbEntity
  8
0
 62
     0
100
AcDbLine
 10
50.79415002878318
 20
40.89999986828866
 30
0.0
 11
46.09663852507924
 21
45.59751137199259
 31
0.0
  0
LINE
  5
1D07
330
1C82
100
AcDbEntity
  8
0
 62
     0
100
AcDbLine
 10
76.72875884013421
 20
14.96539105693762
 30
0.0
 11
68.90301245896512
 21
22.79113743810682
 31
0.0
  0
LINE
  5
1D08
330
1C82
100
AcDbEntity
  8
0
 62
     0
100
AcDbLine
 10
65.28442432311817
 20
24.61367434973988
 30
0.0
 11
59.68442432311826
 21
30.21367434973979
 31
0.0
  0
LINE
  5
1D09
330
1C82
100
AcDbEntity
  8
0
 62
     0
100
AcDbLine
 10
49.10792302369611
 20
40.79017564916194
 30
0.0
 11
44.97914057441017
 21
44.91895809844788
 31
0.0
  0
LINE
  5
1D0A
330
1C82
100
AcDbEntity
  8
0
 62
     0
100
AcDbLine
 10
75.59809880456953
 20
14.29999986828852
 30
0.0
 11
69.731959177833
 21
20.16613949502505
 31
0.0
  0
LINE
  5
1D0B
330
1C82
100
AcDbEntity
  8
0
 62
     0
100
AcDbLine
 10
65.28442432311817
 20
22.81762312552598
 30
0.0
 11
59.68442432311815
 21
28.41762312552589
 31
0.0
  0
LINE
  5
1D0C
330
1C82
100
AcDbEntity
  8
0
 62
     0
100
AcDbLine
 10
47.96421063801813
 20
40.13783681062602
 30
0.0
 11
44.00383015718659
 21
44.09821729145756
 31
0.0
  0
LINE
  5
1D0D
330
1C82
100
AcDbEntity
  8
0
 62
     0
100
AcDbLine
 10
73.80204758035564
 20
14.29999986828852
 30
0.0
 11
70.56090589670112
 21
17.54114155194304
 31
0.0
  0
LINE
  5
1D0E
330
1C82
100
AcDbEntity
  8
0
 62
     0
100
AcDbLine
 10
55.45528258871366
 20
30.85071363571683
 30
0.0
 11
52.43513809054616
 21
33.87085813388432
 31
0.0
  0
LINE
  5
1D0F
330
1C82
100
AcDbEntity
  8
0
 62
     0
100
AcDbLine
 10
65.2844243231184
 20
21.02157190131208
 30
0.0
 11
59.68442432311826
 21
26.62157190131222
 31
0.0
  0
LINE
  5
1D10
330
1C82
100
AcDbEntity
  8
0
 62
     0
100
AcDbLine
 10
47.25196749776023
 20
39.05402872667025
 30
0.0
 11
43.16509810516413
 21
43.14089811926635
 31
0.0
  0
LINE
  5
1D11
330
1C82
100
AcDbEntity
  8
0
 62
     0
100
AcDbLine
 10
71.90533034773261
 20
14.40066587669787
 30
0.0
 11
71.40462200454999
 21
14.90137421988049
 31
0.0
  0
LINE
  5
1D12
330
1C82
100
AcDbEntity
  8
0
 62
     0
100
AcDbLine
 10
55.28225526842982
 20
29.22768973178676
 30
0.0
 11
50.81211418661609
 21
33.69783081360049
 31
0.0
  0
LINE
  5
1D13
330
1C82
100
AcDbEntity
  8
0
 62
     0
100
AcDbLine
 10
47.08442432311835
 20
37.42552067709823
 30
0.0
 11
42.4672200632408
 21
42.04272493697579
 31
0.0
  0
LINE
  5
1D14
330
1C82
100
AcDbEntity
  8
0
 62
     0
100
AcDbLine
 10
65.28442432311829
 20
19.22552067709818
 30
0.0
 11
59.68442432311826
 21
24.82552067709832
 31
0.0
  0
LINE
  5
1D15
330
1C82
100
AcDbEntity
  8
0
 62
     0
100
AcDbLine
 10
54.61854414983372
 20
28.09534962616885
 30
0.0
 11
49.67977408099819
 21
33.03411969500439
 31
0.0
  0
LINE
  5
1D16
330
1C82
100
AcDbEntity
  8
0
 62
     0
100
AcDbLine
 10
47.08442432311835
 20
35.62946945288433
 30
0.0
 11
41.92606064882045
 21
40.78783312718224
 31
0.0
  0
LINE
  5
1D17
330
1C82
100
AcDbEntity
  8
0
 62
     0
100
AcDbLine
 10
65.28442432311829
 20
17.4294694528844
 30
0.0
 11
59.68442432311815
 21
23.02946945288454
 31
0.0
  0
LINE
  5
1D18
330
1C82
100
AcDbEntity
  8
0
 62
     0
100
AcDbLine
 10
47.08442432311835
 20
33.83341822867055
 30
0.0
 11
41.57663290296875
 21
39.34120964882026
 31
0.0
  0
LINE
  5
1D19
330
1C82
100
AcDbEntity
  8
0
 62
     0
100
AcDbLine
 10
53.61487726556084
 20
27.30296528622818
 30
0.0
 11
48.88738974105752
 21
32.0304528107315
 31
0.0
  0
LINE
  5
1D1A
330
1C82
100
AcDbEntity
  8
0
 62
     0
100
AcDbLine
 10
36.23442432311822
 20
44.6834182286708
 30
0.0
 11
34.41784268350022
 21
46.4999998682888
 31
0.0
  0
LINE
  5
1D1B
330
1C82
100
AcDbEntity
  8
0
 62
     0
100
AcDbLine
 10
65.2844243231184
 20
15.63341822867062
 30
0.0
 11
59.68442432311826
 21
21.23341822867075
 31
0.0
  0
LINE
  5
1D1C
330
1C82
100
AcDbEntity
  8
0
 62
     0
100
AcDbLine
 10
47.08442432311835
 20
32.03736700445677
 30
0.0
 11
41.48442432311822
 21
37.6373670044569
 31
0.0
  0
LINE
  5
1D1D
330
1C82
100
AcDbEntity
  8
0
 62
     0
100
AcDbLine
 10
52.21423838070598
 20
26.90755294686914
 30
0.0
 11
48.49197740169848
 21
30.62981392587664
 31
0.0
  0
LINE
  5
1D1E
330
1C82
100
AcDbEntity
  8
0
 62
     0
100
AcDbLine
 10
36.2344243231181
 20
42.8873670044569
 30
0.0
 11
32.62179145928632
 21
46.49999986828868
 31
0.0
  0
LINE
  5
1D1F
330
1C82
100
AcDbEntity
  8
0
 62
     0
100
AcDbLine
 10
64.70861672057697
 20
14.41317460699815
 30
0.0
 11
59.68442432311815
 21
19.43736700445685
 31
0.0
  0
LINE
  5
1D20
330
1C82
100
AcDbEntity
  8
0
 62
     0
100
AcDbLine
 10
47.08442432311835
 20
30.24131578024287
 30
0.0
 11
41.48442432311822
 21
35.84131578024301
 31
0.0
  0
LINE
  5
1D21
330
1C82
100
AcDbEntity
  8
0
 62
     0
100
AcDbLine
 10
36.01635638257744
 20
41.30938372078378
 30
0.0
 11
30.82574023507231
 21
46.4999998682888
 31
0.0
  0
LINE
  5
1D22
330
1C82
100
AcDbEntity
  8
0
 62
     0
100
AcDbLine
 10
63.02574023507259
 20
14.29999986828863
 30
0.0
 11
59.68442432311815
 21
17.64131578024307
 31
0.0
  0
LINE
  5
1D23
330
1C82
100
AcDbEntity
  8
0
 62
     0
100
AcDbLine
 10
47.08442432311824
 20
28.44526455602908
 30
0.0
 11
41.4844243231181
 21
34.04526455602911
 31
0.0
  0
LINE
  5
1D24
330
1C82
100
AcDbEntity
  8
0
 62
     0
100
AcDbLine
 10
34.62968901085867
 20
40.89999986828866
 30
0.0
 11
29.02968901085853
 21
46.4999998682888
 31
0.0
  0
LINE
  5
1D25
330
1C82
100
AcDbEntity
  8
0
 62
     0
100
AcDbLine
 10
61.22968901085869
 20
14.29999986828852
 30
0.0
 11
59.68442432311815
 21
15.84526455602917
 31
0.0
  0
LINE
  5
1D26
330
1C82
100
AcDbEntity
  8
0
 62
     0
100
AcDbLine
 10
47.08442432311847
 20
26.64921333181519
 30
0.0
 11
41.48442432311822
 21
32.24921333181544
 31
0.0
  0
LINE
  5
1D27
330
1C82
100
AcDbEntity
  8
0
 62
     0
100
AcDbLine
 10
32.83363778664488
 20
40.89999986828877
 30
0.0
 11
27.30337924243519
 21
46.43025841249846
 31
0.0
  0
LINE
  5
1D28
330
1C82
100
AcDbEntity
  8
0
 62
     0
100
AcDbLine
 10
54.77921942544435
 20
18.95441822948919
 30
0.0
 11
53.83884268431893
 21
19.89479497061472
 31
0.0
  0
LINE
  5
1D29
330
1C82
100
AcDbEntity
  8
0
 62
     0
100
AcDbLine
 10
47.08442432311847
 20
24.85316210760129
 30
0.0
 11
41.48442432311822
 21
30.45316210760154
 31
0.0
  0
LINE
  5
1D2A
330
1C82
100
AcDbEntity
  8
0
 62
     0
100
AcDbLine
 10
31.03758656243098
 20
40.89999986828866
 30
0.0
 11
25.91710962547824
 21
46.02047680524151
 31
0.0
  0
LINE
  5
1D2B
330
1C82
100
AcDbEntity
  8
0
 62
     0
100
AcDbLine
 10
54.7844243231184
 20
17.15316210760136
 30
0.0
 11
52.0375865624311
 21
19.89999986828865
 31
0.0
  0
LINE
  5
1D2C
330
1C82
100
AcDbEntity
  8
0
 62
     0
100
AcDbLine
 10
47.08442432311835
 20
23.05711088338739
 30
0.0
 11
41.48442432311833
 21
28.65711088338753
 31
0.0
  0
LINE
  5
1D2D
330
1C82
100
AcDbEntity
  8
0
 62
     0
100
AcDbLine
 10
29.24153533821732
 20
40.89999986828843
 30
0.0
 11
24.78861630578376
 21
45.35291890072199
 31
0.0
  0
LINE
  5
1D2E
330
1C82
100
AcDbEntity
  8
0
 62
     0
100
AcDbLine
 10
54.78442432311829
 20
15.35711088338746
 30
0.0
 11
50.24153533821709
 21
19.89999986828877
 31
0.0
  0
LINE
  5
1D2F
330
1C82
100
AcDbEntity
  8
0
 62
     0
100
AcDbLine
 10
28.22094968298813
 20
40.12453429930405
 30
0.0
 11
23.87243068130226
 21
44.47305330098993
 31
0.0
  0
LINE
  5
1D30
330
1C82
100
AcDbEntity
  8
0
 62
     0
100
AcDbLine
 10
54.00895875413358
 20
14.33652522815862
 30
0.0
 11
41.48442432311833
 21
26.86105965917386
 31
0.0
  0
LINE
  5
1D31
330
1C82
100
AcDbEntity
  8
0
 62
     0
100
AcDbLine
 10
28.18442432311826
 20
38.36500843496003
 30
0.0
 11
23.16546827636409
 21
43.3839644817142
 31
0.0
  0
LINE
  5
1D32
330
1C82
100
AcDbEntity
  8
0
 62
     0
100
AcDbLine
 10
52.24943288978977
 20
14.29999986828852
 30
0.0
 11
41.48442432311833
 21
25.06500843495996
 31
0.0
  0
LINE
  5
1D33
330
1C82
100
AcDbEntity
  8
0
 62
     0
100
AcDbLine
 10
28.30869573938912
 20
36.44468579447516
 30
0.0
 11
22.70370807177664
 21
42.04967346208775
 31
0.0
  0
LINE
  5
1D34
330
1C82
100
AcDbEntity
  8
0
 62
     0
100
AcDbLine
 10
50.45338166557576
 20
14.29999986828863
 30
0.0
 11
41.48442432311822
 21
23.26895721074606
 31
0.0
  0
LINE
  5
1D35
330
1C82
100
AcDbEntity
  8
0
 62
     0
100
AcDbLine
 10
36.89317650556358
 20
26.06415380408702
 30
0.0
 11
22.58442432311835
 21
40.37290598653226
 31
0.0
  0
LINE
  5
1D36
330
1C82
100
AcDbEntity
  8
0
 62
     0
100
AcDbLine
 10
48.55078626724867
 20
14.40654404240194
 30
0.0
 11
41.59096849723153
 21
21.36636181241908
 31
0.0
  0
LINE
  5
1D37
330
1C82
100
AcDbEntity
  8
0
 62
     0
100
AcDbLine
 10
37.27696553373402
 20
23.8843135517028
 30
0.0
 11
22.58442432311813
 21
38.5768547623187
 31
0.0
  0
LINE
  5
1D38
330
1C82
100
AcDbEntity
  8
0
 62
     0
100
AcDbLine
 10
45.80317044204548
 20
15.35810864339123
 30
0.0
 11
42.5425330982207
 21
18.61874598721612
 31
0.0
  0
LINE
  5
1D39
330
1C82
100
AcDbEntity
  8
0
 62
     0
100
AcDbLine
 10
37.2844243231184
 20
22.08080353810453
 30
0.0
 11
22.59955321796291
 21
36.7656746432599
 31
0.0
  0
LINE
  5
1D3A
330
1C82
100
AcDbEntity
  8
0
 62
     0
100
AcDbLine
 10
37.28442432311817
 20
20.28475231389086
 30
0.0
 11
23.04613473461063
 21
34.52304190239829
 31
0.0
  0
LINE
  5
1D3B
330
1C82
100
AcDbEntity
  8
0
 62
     0
100
AcDbLine
 10
37.13938433085434
 20
18.63374108194102
 30
0.0
 11
31.61260104361622
 21
24.16052436917914
 31
0.0
  0
LINE
  5
1D3C
330
1C82
100
AcDbEntity
  8
0
 62
     0
100
AcDbLine
 10
36.65550845279665
 20
17.32156573578481
 30
0.0
 11
31.68442432311826
 21
22.2926498654632
 31
0.0
  0
LINE
  5
1D3D
330
1C82
100
AcDbEntity
  8
0
 62
     0
100
AcDbLine
 10
35.93126995803311
 20
16.24975300633446
 30
0.0
 11
31.6126262585168
 21
20.56839670585077
 31
0.0
  0
LINE
  5
1D3E
330
1C82
100
AcDbEntity
  8
0
 62
     0
100
AcDbLine
 10
34.99881721349936
 20
15.38615452665442
 30
0.0
 11
30.48497187186512
 21
19.89999986828877
 31
0.0
  0
LINE
  5
1D3F
330
1C82
100
AcDbEntity
  8
0
 62
     0
100
AcDbLine
 10
33.85228831803374
 20
14.73663219790626
 30
0.0
 11
28.68892064765123
 21
19.89999986828865
 31
0.0
  0
LINE
  5
1D40
330
1C82
100
AcDbEntity
  8
0
 62
     0
100
AcDbLine
 10
32.44146313986187
 20
14.35140615186424
 30
0.0
 11
26.89286942343744
 21
19.89999986828865
 31
0.0
  0
LINE
  5
1D41
330
1C82
100
AcDbEntity
  8
0
 62
     0
100
AcDbLine
 10
30.69681819922357
 20
14.29999986828863
 30
0.0
 11
25.09681819922354
 21
19.89999986828865
 31
0.0
  0
LINE
  5
1D42
330
1C82
100
AcDbEntity
  8
0
 62
     0
100
AcDbLine
 10
28.9007669750099
 20
14.29999986828852
 30
0.0
 11
23.79411918537414
 21
19.40664765792439
 31
0.0
  0
LINE
  5
1D43
330
1C82
100
AcDbEntity
  8
0
 62
     0
100
AcDbLine
 10
27.10471575079589
 20
14.29999986828863
 30
0.0
 11
23.63442432311831
 21
17.77029129596621
 31
0.0
  0
LINE
  5
1D44
330
1C82
100
AcDbEntity
  8
0
 62
     0
100
AcDbLine
 10
25.30866452658222
 20
14.29999986828852
 30
0.0
 11
23.63442432311831
 21
15.97424007175243
 31
0.0
  0
LINE
  5
1D45
330
1C82
100
AcDbEntity
  8
0
 62
     0
100
AcDbLine
 10
137.2677988924521
 20
14.32626342252365
 30
0.0
 11
138.0581607688836
 21
15.11662529895522
 31
0.0
  0
LINE
  5
1D46
330
1C82
100
AcDbEntity
  8
0
 62
     0
100
AcDbLine
 10
135.4454841140031
 20
14.29999986828841
 30
0.0
 11
138.0844243231185
 21
16.9389400774038
 31
0.0
  0
LINE
  5
1D47
330
1C82
100
AcDbEntity
  8
0
 62
     0
100
AcDbLine
 10
133.6494328897894
 20
14.29999986828841
 30
0.0
 11
138.0844243231185
 21
18.73499130161758
 31
0.0
  0
LINE
  5
1D48
330
1C82
100
AcDbEntity
  8
0
 62
     0
100
AcDbLine
 10
132.5468194496219
 20
14.99343765233482
 30
0.0
 11
138.0844243231184
 21
20.53104252583147
 31
0.0
  0
LINE
  5
1D49
330
1C82
100
AcDbEntity
  8
0
 62
     0
100
AcDbLine
 10
132.4844243231183
 20
16.72709375004512
 30
0.0
 11
138.0844243231184
 21
22.32709375004515
 31
0.0
  0
LINE
  5
1D4A
330
1C82
100
AcDbEntity
  8
0
 62
     0
100
AcDbLine
 10
132.4844243231184
 20
18.52314497425891
 30
0.0
 11
138.0844243231184
 21
24.12314497425905
 31
0.0
  0
LINE
  5
1D4B
330
1C82
100
AcDbEntity
  8
0
 62
     0
100
AcDbLine
 10
132.4844243231183
 20
20.3191961984728
 30
0.0
 11
138.0844243231184
 21
25.91919619847294
 31
0.0
  0
LINE
  5
1D4C
330
1C82
100
AcDbEntity
  8
0
 62
     0
100
AcDbLine
 10
132.4844243231183
 20
22.11524742268659
 30
0.0
 11
138.0844243231184
 21
27.71524742268673
 31
0.0
  0
LINE
  5
1D4D
330
1C82
100
AcDbEntity
  8
0
 62
     0
100
AcDbLine
 10
125.3375540472488
 20
14.96837714681714
 30
0.0
 11
127.6160470445899
 21
17.24687014415837
 31
0.0
  0
LINE
  5
1D4E
330
1C82
100
AcDbEntity
  8
0
 62
     0
100
AcDbLine
 10
132.4844243231183
 20
23.91129864690037
 30
0.0
 11
138.0844243231184
 21
29.51129864690051
 31
0.0
  0
LINE
  5
1D4F
330
1C82
100
AcDbEntity
  8
0
 62
     0
100
AcDbLine
 10
122.8764177142032
 20
14.30329203798533
 30
0.0
 11
128.2811321534219
 21
19.70800647720386
 31
0.0
  0
LINE
  5
1D50
330
1C82
100
AcDbEntity
  8
0
 62
     0
100
AcDbLine
 10
132.4844243231183
 20
25.70734987111427
 30
0.0
 11
138.0844243231184
 21
31.30734987111429
 31
0.0
  0
LINE
  5
1D51
330
1C82
100
AcDbEntity
  8
0
 62
     0
100
AcDbLine
 10
121.0770743202924
 20
14.29999986828841
 30
0.0
 11
128.2844243231185
 21
21.50734987111434
 31
0.0
  0
LINE
  5
1D52
330
1C82
100
AcDbEntity
  8
0
 62
     0
100
AcDbLine
 10
132.4844243231183
 20
27.50340109532805
 30
0.0
 11
138.0844243231183
 21
33.10340109532819
 31
0.0
  0
LINE
  5
1D53
330
1C82
100
AcDbEntity
  8
0
 62
     0
100
AcDbLine
 10
119.2810230960786
 20
14.29999986828841
 30
0.0
 11
128.2844243231183
 21
23.30340109532824
 31
0.0
  0
LINE
  5
1D54
330
1C82
100
AcDbEntity
  8
0
 62
     0
100
AcDbLine
 10
132.4844243231183
 20
29.29945231954184
 30
0.0
 11
138.0844243231184
 21
34.89945231954198
 31
0.0
  0
LINE
  5
1D55
330
1C82
100
AcDbEntity
  8
0
 62
     0
100
AcDbLine
 10
117.484971871865
 20
14.29999986828852
 30
0.0
 11
128.2844243231185
 21
25.09945231954202
 31
0.0
  0
LINE
  5
1D56
330
1C82
100
AcDbEntity
  8
0
 62
     0
100
AcDbLine
 10
122.4752419189562
 20
21.08632113959367
 30
0.0
 11
128.2844243231185
 21
26.8955035437558
 31
0.0
  0
LINE
  5
1D57
330
1C82
100
AcDbEntity
  8
0
 62
     0
100
AcDbLine
 10
132.4844243231183
 20
31.09550354375562
 30
0.0
 11
138.0844243231184
 21
36.69550354375576
 31
0.0
  0
LINE
  5
1D58
330
1C82
100
AcDbEntity
  8
0
 62
     0
100
AcDbLine
 10
115.6889206476509
 20
14.29999986828841
 30
0.0
 11
121.4981030518132
 21
20.10918227245054
 31
0.0
  0
LINE
  5
1D59
330
1C82
100
AcDbEntity
  8
0
 62
     0
100
AcDbLine
 10
122.6844243231182
 20
23.09155476796957
 30
0.0
 11
128.2844243231183
 21
28.6915547679697
 31
0.0
  0
LINE
  5
1D5A
330
1C82
100
AcDbEntity
  8
0
 62
     0
100
AcDbLine
 10
132.4844243231182
 20
32.89155476796952
 30
0.0
 11
138.0844243231183
 21
38.49155476796966
 31
0.0
  0
LINE
  5
1D5B
330
1C82
100
AcDbEntity
  8
0
 62
     0
100
AcDbLine
 10
114.1167689261916
 20
14.52389937104283
 30
0.0
 11
119.4928694234373
 21
19.89999986828854
 31
0.0
  0
LINE
  5
1D5C
330
1C82
100
AcDbEntity
  8
0
 62
     0
100
AcDbLine
 10
122.6844243231183
 20
24.88760599218358
 30
0.0
 11
128.2844243231183
 21
30.48760599218349
 31
0.0
  0
LINE
  5
1D5D
330
1C82
100
AcDbEntity
  8
0
 62
     0
100
AcDbLine
 10
132.4844243231182
 20
34.68760599218342
 30
0.0
 11
138.0844243231183
 21
40.28760599218344
 31
0.0
  0
LINE
  5
1D5E
330
1C82
100
AcDbEntity
  8
0
 62
     0
100
AcDbLine
 10
112.8607951917713
 20
15.06397686083653
 30
0.0
 11
117.6985737705122
 21
19.90175543957741
 31
0.0
  0
LINE
  5
1D5F
330
1C82
100
AcDbEntity
  8
0
 62
     0
100
AcDbLine
 10
122.6844243231185
 20
26.68365721639736
 30
0.0
 11
128.2844243231183
 21
32.28365721639727
 31
0.0
  0
LINE
  5
1D60
330
1C82
100
AcDbEntity
  8
0
 62
     0
100
AcDbLine
 10
132.4844243231183
 20
36.48365721639709
 30
0.0
 11
138.0844243231183
 21
42.08365721639722
 31
0.0
  0
LINE
  5
1D61
330
1C82
100
AcDbEntity
  8
0
 62
     0
100
AcDbLine
 10
111.8342754290412
 20
15.83350832231997
 30
0.0
 11
116.4116165930868
 21
20.41084948636569
 31
0.0
  0
LINE
  5
1D62
330
1C82
100
AcDbEntity
  8
0
 62
     0
100
AcDbLine
 10
122.6844243231185
 20
28.47970844061114
 30
0.0
 11
128.2844243231183
 21
34.07970844061117
 31
0.0
  0
LINE
  5
1D63
330
1C82
100
AcDbEntity
  8
0
 62
     0
100
AcDbLine
 10
132.4844243231182
 20
38.27970844061098
 30
0.0
 11
138.0844243231183
 21
43.87970844061112
 31
0.0
  0
LINE
  5
1D64
330
1C82
100
AcDbEntity
  8
0
 62
     0
100
AcDbLine
 10
111.0143470785909
 20
16.80963119608361
 30
0.0
 11
115.7371400362679
 21
21.53242415376075
 31
0.0
  0
LINE
  5
1D65
330
1C82
100
AcDbEntity
  8
0
 62
     0
100
AcDbLine
 10
122.6844243231183
 20
30.27575966482504
 30
0.0
 11
128.2844243231185
 21
35.87575966482518
 31
0.0
  0
LINE
  5
1D66
330
1C82
100
AcDbEntity
  8
0
 62
     0
100
AcDbLine
 10
132.4844243231182
 20
40.07575966482477
 30
0.0
 11
138.0641260160174
 21
45.6554613577241
 31
0.0
  0
LINE
  5
1D67
330
1C82
100
AcDbEntity
  8
0
 62
     0
100
AcDbLine
 10
110.4144973217229
 20
18.0058326634296
 30
0.0
 11
115.6844243231183
 21
23.27575966482493
 31
0.0
  0
LINE
  5
1D68
330
1C82
100
AcDbEntity
  8
0
 62
     0
100
AcDbLine
 10
122.6844243231185
 20
32.07181088903871
 30
0.0
 11
128.2844243231186
 21
37.67181088903885
 31
0.0
  0
LINE
  5
1D69
330
1C82
100
AcDbEntity
  8
0
 62
     0
100
AcDbLine
 10
132.4844243231182
 20
41.87181088903855
 30
0.0
 11
137.1098973258584
 21
46.4972838917788
 31
0.0
  0
LINE
  5
1D6A
330
1C82
100
AcDbEntity
  8
0
 62
     0
100
AcDbLine
 10
110.09967025181
 20
19.48705681773037
 30
0.0
 11
115.6844243231183
 21
25.07181088903871
 31
0.0
  0
LINE
  5
1D6B
330
1C82
100
AcDbEntity
  8
0
 62
     0
100
AcDbLine
 10
122.6844243231183
 20
33.86786211325261
 30
0.0
 11
128.2844243231185
 21
39.46786211325274
 31
0.0
  0
LINE
  5
1D6C
330
1C82
100
AcDbEntity
  8
0
 62
     0
100
AcDbLine
 10
132.4844243231183
 20
43.66786211325257
 30
0.0
 11
135.3165620781543
 21
46.49999986828857
 31
0.0
  0
LINE
  5
1D6D
330
1C82
100
AcDbEntity
  8
0
 62
     0
100
AcDbLine
 10
110.0844243231184
 20
21.26786211325259
 30
0.0
 11
115.6844243231184
 21
26.86786211325272
 31
0.0
  0
LINE
  5
1D6E
330
1C82
100
AcDbEntity
  8
0
 62
     0
100
AcDbLine
 10
122.6844243231183
 20
35.66391333746651
 30
0.0
 11
128.2844243231185
 21
41.26391333746653
 31
0.0
  0
LINE
  5
1D6F
330
1C82
100
AcDbEntity
  8
0
 62
     0
100
AcDbLine
 10
110.0844243231183
 20
23.06391333746649
 30
0.0
 11
115.6844243231184
 21
28.66391333746662
 31
0.0
  0
LINE
  5
1D70
330
1C82
100
AcDbEntity
  8
0
 62
     0
100
AcDbLine
 10
132.4845177526132
 20
45.46400676696134
 30
0.0
 11
133.5204174244457
 21
46.49990643879379
 31
0.0
  0
LINE
  5
1D71
330
1C82
100
AcDbEntity
  8
0
 62
     0
100
AcDbLine
 10
101.4413130616943
 20
14.42080207604237
 30
0.0
 11
105.7636221153646
 21
18.74311112971281
 31
0.0
  0
LINE
  5
1D72
330
1C82
100
AcDbEntity
  8
0
 62
     0
100
AcDbLine
 10
110.0844243231183
 20
24.85996456168027
 30
0.0
 11
115.6844243231184
 21
30.4599645616804
 31
0.0
  0
LINE
  5
1D73
330
1C82
100
AcDbEntity
  8
0
 62
     0
100
AcDbLine
 10
122.6844243231183
 20
37.45996456168029
 30
0.0
 11
128.2844243231183
 21
43.05996456168043
 31
0.0
  0
LINE
  5
1D74
330
1C82
100
AcDbEntity
  8
0
 62
     0
100
AcDbLine
 10
99.5244596297266
 20
14.29999986828863
 30
0.0
 11
105.8844243231183
 21
20.65996456168034
 31
0.0
  0
LINE
  5
1D75
330
1C82
100
AcDbEntity
  8
0
 62
     0
100
AcDbLine
 10
110.0844243231183
 20
26.65601578589405
 30
0.0
 11
115.6844243231184
 21
32.25601578589419
 31
0.0
  0
LINE
  5
1D76
330
1C82
100
AcDbEntity
  8
0
 62
     0
100
AcDbLine
 10
122.6844243231183
 20
39.25601578589407
 30
0.0
 11
128.2844243231185
 21
44.85601578589421
 31
0.0
  0
LINE
  5
1D77
330
1C82
100
AcDbEntity
  8
0
 62
     0
100
AcDbLine
 10
97.72840840551282
 20
14.29999986828852
 30
0.0
 11
105.8844243231184
 21
22.45601578589401
 31
0.0
  0
LINE
  5
1D78
330
1C82
100
AcDbEntity
  8
0
 62
     0
100
AcDbLine
 10
110.0844243231183
 20
28.45206701010795
 30
0.0
 11
115.6844243231184
 21
34.05206701010797
 31
0.0
  0
LINE
  5
1D79
330
1C82
100
AcDbEntity
  8
0
 62
     0
100
AcDbLine
 10
122.6844243231183
 20
41.05206701010786
 30
0.0
 11
127.8969494134502
 21
46.26459210043981
 31
0.0
  0
LINE
  5
1D7A
330
1C82
100
AcDbEntity
  8
0
 62
     0
100
AcDbLine
 10
95.93235718129903
 20
14.29999986828863
 30
0.0
 11
105.8557871222924
 21
24.22342980928203
 31
0.0
  0
LINE
  5
1D7B
330
1C82
100
AcDbEntity
  8
0
 62
     0
100
AcDbLine
 10
110.0844243231183
 20
30.24811823432173
 30
0.0
 11
115.6844243231183
 21
35.84811823432187
 31
0.0
  0
LINE
  5
1D7C
330
1C82
100
AcDbEntity
  8
0
 62
     0
100
AcDbLine
 10
122.6844243231182
 20
42.84811823432176
 30
0.0
 11
126.3363059570851
 21
46.49999986828868
 31
0.0
  0
LINE
  5
1D7D
330
1C82
100
AcDbEntity
  8
0
 62
     0
100
AcDbLine
 10
94.13630595708514
 20
14.29999986828863
 30
0.0
 11
105.5859623810349
 21
25.74965629223834
 31
0.0
  0
LINE
  5
1D7E
330
1C82
100
AcDbEntity
  8
0
 62
     0
100
AcDbLine
 10
110.0844243231183
 20
32.04416945853552
 30
0.0
 11
115.6844243231184
 21
37.64416945853565
 31
0.0
  0
LINE
  5
1D7F
330
1C82
100
AcDbEntity
  8
0
 62
     0
100
AcDbLine
 10
100.2844243231186
 20
22.24416945853568
 30
0.0
 11
105.1047874671978
 21
27.06453260261492
 31
0.0
  0
LINE
  5
1D80
330
1C82
100
AcDbEntity
  8
0
 62
     0
100
AcDbLine
 10
122.6844243231183
 20
44.64416945853554
 30
0.0
 11
124.5402547328715
 21
46.49999986828868
 31
0.0
  0
LINE
  5
1D81
330
1C82
100
AcDbEntity
  8
0
 62
     0
100
AcDbLine
 10
92.59676543913361
 20
14.55651057455077
 30
0.0
 11
97.94025473287138
 21
19.89999986828854
 31
0.0
  0
LINE
  5
1D82
330
1C82
100
AcDbEntity
  8
0
 62
     0
100
AcDbLine
 10
100.2446831728638
 20
24.00047953249475
 30
0.0
 11
104.4577888574767
 21
28.21358521710772
 31
0.0
  0
LINE
  5
1D83
330
1C82
100
AcDbEntity
  8
0
 62
     0
100
AcDbLine
 10
110.0844243231183
 20
33.8402206827493
 30
0.0
 11
115.6844243231183
 21
39.44022068274944
 31
0.0
  0
LINE
  5
1D84
330
1C82
100
AcDbEntity
  8
0
 62
     0
100
AcDbLine
 10
92.23442432311845
 20
15.99022068274939
 30
0.0
 11
96.14420350865749
 21
19.89999986828854
 31
0.0
  0
LINE
  5
1D85
330
1C82
100
AcDbEntity
  8
0
 62
     0
100
AcDbLine
 10
99.69591349858603
 20
25.24776108243099
 30
0.0
 11
103.6660466216211
 21
29.21789420546611
 31
0.0
  0
LINE
  5
1D86
330
1C82
100
AcDbEntity
  8
0
 62
     0
100
AcDbLine
 10
110.0844243231182
 20
35.6362719069632
 30
0.0
 11
115.6844243231183
 21
41.23627190696334
 31
0.0
  0
LINE
  5
1D87
330
1C82
100
AcDbEntity
  8
0
 62
     0
100
AcDbLine
 10
92.23442432311832
 20
17.78627190696329
 30
0.0
 11
94.34815228444369
 21
19.89999986828865
 31
0.0
  0
LINE
  5
1D88
330
1C82
100
AcDbEntity
  8
0
 62
     0
100
AcDbLine
 10
110.0844243231183
 20
37.43232313117698
 30
0.0
 11
115.6844243231184
 21
43.03232313117701
 31
0.0
  0
LINE
  5
1D89
330
1C82
100
AcDbEntity
  8
0
 62
     0
100
AcDbLine
 10
98.81336370435191
 20
26.16126251241041
 30
0.0
 11
102.7731616789965
 21
30.12106048705504
 31
0.0
  0
LINE
  5
1D8A
330
1C82
100
AcDbEntity
  8
0
 62
     0
100
AcDbLine
 10
97.91533809224496
 20
27.05928812451736
 30
0.0
 11
101.8751360668895
 21
31.01908609916199
 31
0.0
  0
LINE
  5
1D8B
330
1C82
100
AcDbEntity
  8
0
 62
     0
100
AcDbLine
 10
110.0844243231182
 20
39.22837435539077
 30
0.0
 11
115.6844243231183
 21
44.8283743553909
 31
0.0
  0
LINE
  5
1D8C
330
1C82
100
AcDbEntity
  8
0
 62
     0
100
AcDbLine
 10
85.15604983601599
 20
14.29999986828852
 30
0.0
 11
86.98442432311834
 21
16.12837435539074
 31
0.0
  0
LINE
  5
1D8D
330
1C82
100
AcDbEntity
  8
0
 62
     0
100
AcDbLine
 10
97.017312480138
 20
27.95731373662431
 30
0.0
 11
100.9771104547826
 21
31.91711171126894
 31
0.0
  0
LINE
  5
1D8E
330
1C82
100
AcDbEntity
  8
0
 62
     0
100
AcDbLine
 10
110.0844243231182
 20
41.02442557960467
 30
0.0
 11
115.312062506921
 21
46.25206376340736
 31
0.0
  0
LINE
  5
1D8F
330
1C82
100
AcDbEntity
  8
0
 62
     0
100
AcDbLine
 10
83.3599986118021
 20
14.29999986828852
 30
0.0
 11
86.98442432311844
 21
17.92442557960475
 31
0.0
  0
LINE
  5
1D90
330
1C82
100
AcDbEntity
  8
0
 62
     0
100
AcDbLine
 10
96.11928686803105
 20
28.85533934873126
 30
0.0
 11
100.0790848426756
 21
32.81513732337589
 31
0.0
  0
LINE
  5
1D91
330
1C82
100
AcDbEntity
  8
0
 62
     0
100
AcDbLine
 10
110.0844243231182
 20
42.82047680381845
 30
0.0
 11
113.7639473875884
 21
46.4999998682888
 31
0.0
  0
LINE
  5
1D92
330
1C82
100
AcDbEntity
  8
0
 62
     0
100
AcDbLine
 10
81.78716966331228
 20
14.52322214401249
 30
0.0
 11
86.98442432311834
 21
19.72047680381865
 31
0.0
  0
LINE
  5
1D93
330
1C82
100
AcDbEntity
  8
0
 62
     0
100
AcDbLine
 10
95.22126125592421
 20
29.7533649608381
 30
0.0
 11
99.18105923056884
 21
33.71316293548273
 31
0.0
  0
LINE
  5
1D94
330
1C82
100
AcDbEntity
  8
0
 62
     0
100
AcDbLine
 10
110.0844243231182
 20
44.61652802803223
 30
0.0
 11
111.9678961633748
 21
46.49999986828868
 31
0.0
  0
LINE
  5
1D95
330
1C82
100
AcDbEntity
  8
0
 62
     0
100
AcDbLine
 10
81.38442432311842
 20
15.91652802803241
 30
0.0
 11
86.98442432311844
 21
21.51652802803232
 31
0.0
  0
LINE
  5
1D96
330
1C82
100
AcDbEntity
  8
0
 62
     0
100
AcDbLine
 10
94.32323564381727
 20
30.65139057294504
 30
0.0
 11
98.2830336184619
 21
34.61118854758967
 31
0.0
  0
LINE
  5
1D97
330
1C82
100
AcDbEntity
  8
0
 62
     0
100
AcDbLine
 10
81.38442432311842
 20
17.71257925224631
 30
0.0
 11
86.98442432311834
 21
23.31257925224622
 31
0.0
  0
LINE
  5
1D98
330
1C82
100
AcDbEntity
  8
0
 62
     0
100
AcDbLine
 10
93.4292678417346
 20
31.55347399507638
 30
0.0
 11
97.39721490849866
 21
35.52142106184033
 31
0.0
  0
LINE
  5
1D99
330
1C82
100
AcDbEntity
  8
0
 62
     0
100
AcDbLine
 10
81.38442432311842
 20
19.50863047646009
 30
0.0
 11
86.98442432311834
 21
25.10863047646012
 31
0.0
  0
LINE
  5
1D9A
330
1C82
100
AcDbEntity
  8
0
 62
     0
100
AcDbLine
 10
102.7757937149467
 20
40.89999986828854
 30
0.0
 11
104.8344243231184
 21
42.95863047646014
 31
0.0
  0
LINE
  5
1D9B
330
1C82
100
AcDbEntity
  8
0
 62
     0
100
AcDbLine
 10
76.39911187369796
 20
14.52331802703963
 30
0.0
 11
76.578416596608
 21
14.70262274994979
 31
0.0
  0
LINE
  5
1D9C
330
1C82
100
AcDbEntity
  8
0
 62
     0
100
AcDbLine
 10
92.63326348409066
 20
32.55352086164612
 30
0.0
 11
96.83253203892787
 21
36.75278941648332
 31
0.0
  0
LINE
  5
1D9D
330
1C82
100
AcDbEntity
  8
0
 62
     0
100
AcDbLine
 10
81.38442432311842
 20
21.30468170067388
 30
0.0
 11
86.98442432311844
 21
26.90468170067379
 31
0.0
  0
LINE
  5
1D9E
330
1C82
100
AcDbEntity
  8
0
 62
     0
100
AcDbLine
 10
100.9797424907332
 20
40.89999986828866
 30
0.0
 11
104.8344243231184
 21
44.75468170067393
 31
0.0
  0
LINE
  5
1D9F
330
1C82
100
AcDbEntity
  8
0
 62
     0
100
AcDbLine
 10
74.37974249073306
 20
14.29999986828852
 30
0.0
 11
76.51130068334612
 21
16.43155806090158
 31
0.0
  0
LINE
  5
1DA0
330
1C82
100
AcDbEntity
  8
0
 62
     0
100
AcDbLine
 10
91.98159495529727
 20
33.69790355706664
 30
0.0
 11
96.78442432311863
 21
38.50073292488798
 31
0.0
  0
LINE
  5
1DA1
330
1C82
100
AcDbEntity
  8
0
 62
     0
100
AcDbLine
 10
81.38442432311842
 20
23.10073292488766
 30
0.0
 11
86.98442432311834
 21
28.70073292488768
 31
0.0
  0
LINE
  5
1DA2
330
1C82
100
AcDbEntity
  8
0
 62
     0
100
AcDbLine
 10
99.18369126651919
 20
40.89999986828854
 30
0.0
 11
104.5010864595226
 21
46.21739506129199
 31
0.0
  0
LINE
  5
1DA3
330
1C82
100
AcDbEntity
  8
0
 62
     0
100
AcDbLine
 10
72.58369126651905
 20
14.29999986828841
 30
0.0
 11
76.08024838953475
 21
17.7965569913041
 31
0.0
  0
LINE
  5
1DA4
330
1C82
100
AcDbEntity
  8
0
 62
     0
100
AcDbLine
 10
81.38442432311832
 20
24.89678414910156
 30
0.0
 11
86.98442432311834
 21
30.49678414910147
 31
0.0
  0
LINE
  5
1DA5
330
1C82
100
AcDbEntity
  8
0
 62
     0
100
AcDbLine
 10
91.49483082995709
 20
35.00719065594035
 30
0.0
 11
102.9876400423054
 21
46.49999986828868
 31
0.0
  0
LINE
  5
1DA6
330
1C82
100
AcDbEntity
  8
0
 62
     0
100
AcDbLine
 10
71.39966264520911
 20
14.91202247119235
 30
0.0
 11
75.64919609572337
 21
19.16155592170662
 31
0.0
  0
LINE
  5
1DA7
330
1C82
100
AcDbEntity
  8
0
 62
     0
100
AcDbLine
 10
81.38442432311832
 20
26.69283537331546
 30
0.0
 11
86.98442432311821
 21
32.29283537331537
 31
0.0
  0
LINE
  5
1DA8
330
1C82
100
AcDbEntity
  8
0
 62
     0
100
AcDbLine
 10
91.21741711178572
 20
36.52582816198287
 30
0.0
 11
101.1915888180916
 21
46.49999986828868
 31
0.0
  0
LINE
  5
1DA9
330
1C82
100
AcDbEntity
  8
0
 62
     0
100
AcDbLine
 10
70.96214380191191
 20
16.27055485210905
 30
0.0
 11
75.21814380191199
 21
20.52655485210914
 31
0.0
  0
LINE
  5
1DAA
330
1C82
100
AcDbEntity
  8
0
 62
     0
100
AcDbLine
 10
81.38442432311842
 20
28.48888659752913
 30
0.0
 11
86.98442432311834
 21
34.08888659752915
 31
0.0
  0
LINE
  5
1DAB
330
1C82
100
AcDbEntity
  8
0
 62
     0
100
AcDbLine
 10
91.18442432311837
 20
38.28888659752908
 30
0.0
 11
99.39553759387786
 21
46.49999986828868
 31
0.0
  0
LINE
  5
1DAC
330
1C82
100
AcDbEntity
  8
0
 62
     0
100
AcDbLine
 10
70.53109150810064
 20
17.63555378251146
 30
0.0
 11
74.78709150810084
 21
21.89155378251155
 31
0.0
  0
LINE
  5
1DAD
330
1C82
100
AcDbEntity
  8
0
 62
     0
100
AcDbLine
 10
81.38442432311832
 20
30.28493782174303
 30
0.0
 11
86.98442432311834
 21
35.88493782174293
 31
0.0
  0
LINE
  5
1DAE
330
1C82
100
AcDbEntity
  8
0
 62
     0
100
AcDbLine
 10
91.1844243231185
 20
40.08493782174309
 30
0.0
 11
97.59948636966408
 21
46.49999986828868
 31
0.0
  0
LINE
  5
1DAF
330
1C82
100
AcDbEntity
  8
0
 62
     0
100
AcDbLine
 10
70.10003921428915
 20
19.00055271291387
 30
0.0
 11
74.35603921428958
 21
23.2565527129143
 31
0.0
  0
LINE
  5
1DB0
330
1C82
100
AcDbEntity
  8
0
 62
     0
100
AcDbLine
 10
81.38442432311832
 20
32.08098904595681
 30
0.0
 11
86.98442432311844
 21
37.68098904595694
 31
0.0
  0
LINE
  5
1DB1
330
1C82
100
AcDbEntity
  8
0
 62
     0
100
AcDbLine
 10
69.66898692047789
 20
20.3655516433165
 30
0.0
 11
73.92498692047809
 21
24.62155164331659
 31
0.0
  0
LINE
  5
1DB2
330
1C82
100
AcDbEntity
  8
0
 62
     0
100
AcDbLine
 10
91.29105766336079
 20
41.98762238619941
 30
0.0
 11
95.69680180520743
 21
46.39336652804604
 31
0.0
  0
LINE
  5
1DB3
330
1C82
100
AcDbEntity
  8
0
 62
     0
100
AcDbLine
 10
63.6034351454499
 20
14.29999986828852
 30
0.0
 11
65.28442432311829
 21
15.9809890459569
 31
0.0
  0
LINE
  5
1DB4
330
1C82
100
AcDbEntity
  8
0
 62
     0
100
AcDbLine
 10
69.23793462666674
 20
21.73055057371891
 30
0.0
 11
73.49393462666682
 21
25.98655057371911
 31
0.0
  0
LINE
  5
1DB5
330
1C82
100
AcDbEntity
  8
0
 62
     0
100
AcDbLine
 10
81.38442432311832
 20
33.87704027017059
 30
0.0
 11
86.98442432311844
 21
39.47704027017073
 31
0.0
  0
LINE
  5
1DB6
330
1C82
100
AcDbEntity
  8
0
 62
     0
100
AcDbLine
 10
61.80738392123624
 20
14.29999986828841
 30
0.0
 11
65.2844243231184
 21
17.77704027017068
 31
0.0
  0
LINE
  5
1DB7
330
1C82
100
AcDbEntity
  8
0
 62
     0
100
AcDbLine
 10
68.80688233285536
 20
23.09554950412143
 30
0.0
 11
73.06288233285545
 21
27.35154950412163
 31
0.0
  0
LINE
  5
1DB8
330
1C82
100
AcDbEntity
  8
0
 62
     0
100
AcDbLine
 10
81.38442432311832
 20
35.67309149438449
 30
0.0
 11
86.98442432311844
 21
41.27309149438452
 31
0.0
  0
LINE
  5
1DB9
330
1C82
100
AcDbEntity
  8
0
 62
     0
100
AcDbLine
 10
60.17363219232493
 20
14.46229936359111
 30
0.0
 11
65.2844243231184
 21
19.57309149438447
 31
0.0
  0
LINE
  5
1DBA
330
1C82
100
AcDbEntity
  8
0
 62
     0
100
AcDbLine
 10
68.37583003904398
 20
24.46054843452396
 30
0.0
 11
72.63183003904408
 21
28.71654843452415
 31
0.0
  0
LINE
  5
1DBB
330
1C82
100
AcDbEntity
  8
0
 62
     0
100
AcDbLine
 10
81.38442432311832
 20
37.46914271859827
 30
0.0
 11
86.98442432311834
 21
43.06914271859841
 31
0.0
  0
LINE
  5
1DBC
330
1C82
100
AcDbEntity
  8
0
 62
     0
100
AcDbLine
 10
59.68442432311838
 20
15.76914271859834
 30
0.0
 11
65.28442432311852
 21
21.36914271859848
 31
0.0
  0
LINE
  5
1DBD
330
1C82
100
AcDbEntity
  8
0
 62
     0
100
AcDbLine
 10
67.94477774523272
 20
25.82554736492636
 30
0.0
 11
72.20077774523304
 21
30.08154736492667
 31
0.0
  0
LINE
  5
1DBE
330
1C82
100
AcDbEntity
  8
0
 62
     0
100
AcDbLine
 10
81.38442432311832
 20
39.26519394281206
 30
0.0
 11
86.98442432311844
 21
44.86519394281219
 31
0.0
  0
LINE
  5
1DBF
330
1C82
100
AcDbEntity
  8
0
 62
     0
100
AcDbLine
 10
59.68442432311838
 20
17.56519394281212
 30
0.0
 11
65.28442432311852
 21
23.16519394281226
 31
0.0
  0
LINE
  5
1DC0
330
1C82
100
AcDbEntity
  8
0
 62
     0
100
AcDbLine
 10
67.47518017128925
 20
27.1520010151969
 30
0.0
 11
72.73576830715104
 21
32.41258915105868
 31
0.0
  0
LINE
  5
1DC1
330
1C82
100
AcDbEntity
  8
0
 62
     0
100
AcDbLine
 10
81.38442432311842
 20
41.06124516702607
 30
0.0
 11
86.59187347812155
 21
46.26869432202909
 31
0.0
  0
LINE
  5
1DC2
330
1C82
100
AcDbEntity
  8
0
 62
     0
100
AcDbLine
 10
59.68442432311838
 20
19.36124516702602
 30
0.0
 11
65.28442432311852
 21
24.96124516702605
 31
0.0
  0
LINE
  5
1DC3
330
1C82
100
AcDbEntity
  8
0
 62
     0
100
AcDbLine
 10
66.10080943155447
 20
27.57368149967601
 30
0.0
 11
73.56471502601903
 21
35.03758709414057
 31
0.0
  0
LINE
  5
1DC4
330
1C82
100
AcDbEntity
  8
0
 62
     0
100
AcDbLine
 10
59.68442432311838
 20
21.15729639123981
 30
0.0
 11
65.31074269173098
 21
26.78361475985241
 31
0.0
  0
LINE
  5
1DC5
330
1C82
100
AcDbEntity
  8
0
 62
     0
100
AcDbLine
 10
81.38442432311842
 20
42.85729639123985
 30
0.0
 11
85.02712780016713
 21
46.49999986828868
 31
0.0
  0
LINE
  5
1DC6
330
1C82
100
AcDbEntity
  8
0
 62
     0
100
AcDbLine
 10
52.82712780016709
 20
14.29999986828852
 30
0.0
 11
54.7844243231184
 21
16.25729639123994
 31
0.0
  0
LINE
  5
1DC7
330
1C82
100
AcDbEntity
  8
0
 62
     0
100
AcDbLine
 10
59.68442432311826
 20
22.9533476154537
 30
0.0
 11
74.39366174488691
 21
37.66258503722236
 31
0.0
  0
LINE
  5
1DC8
330
1C82
100
AcDbEntity
  8
0
 62
     0
100
AcDbLine
 10
81.38442432311832
 20
44.65334761545375
 30
0.0
 11
83.23107657595324
 21
46.49999986828868
 31
0.0
  0
LINE
  5
1DC9
330
1C82
100
AcDbEntity
  8
0
 62
     0
100
AcDbLine
 10
51.0310765759532
 20
14.29999986828863
 30
0.0
 11
54.78442432311851
 21
18.05334761545395
 31
0.0
  0
LINE
  5
1DCA
330
1C82
100
AcDbEntity
  8
0
 62
     0
100
AcDbLine
 10
59.68442432311838
 20
24.74939883966738
 30
0.0
 11
75.22260846375513
 21
40.28758298030425
 31
0.0
  0
LINE
  5
1DCB
330
1C82
100
AcDbEntity
  8
0
 62
     0
100
AcDbLine
 10
49.25838660043962
 20
14.32336111698873
 30
0.0
 11
54.50175575590606
 21
19.56673027245506
 31
0.0
  0
LINE
  5
1DCC
330
1C82
100
AcDbEntity
  8
0
 62
     0
100
AcDbLine
 10
59.68442432311826
 20
26.54545006388127
 30
0.0
 11
66.3389741275256
 21
33.19999986828861
 31
0.0
  0
LINE
  5
1DCD
330
1C82
100
AcDbEntity
  8
0
 62
     0
100
AcDbLine
 10
67.86693979800702
 20
34.72796553877003
 30
0.0
 11
76.05155518262302
 21
42.91258092338603
 31
0.0
  0
LINE
  5
1DCE
330
1C82
100
AcDbEntity
  8
0
 62
     0
100
AcDbLine
 10
47.72206556554567
 20
14.58309130630857
 30
0.0
 11
53.03897412752553
 21
19.89999986828854
 31
0.0
  0
LINE
  5
1DCF
330
1C82
100
AcDbEntity
  8
0
 62
     0
100
AcDbLine
 10
59.68442432311826
 20
28.34150128809517
 30
0.0
 11
65.32040546453493
 21
33.97748242951172
 31
0.0
  0
LINE
  5
1DD0
330
1C82
100
AcDbEntity
  8
0
 62
     0
100
AcDbLine
 10
68.6958865168749
 20
37.3529634818517
 30
0.0
 11
76.80169808622565
 21
45.45877505120256
 31
0.0
  0
LINE
  5
1DD1
330
1C82
100
AcDbEntity
  8
0
 62
     0
100
AcDbLine
 10
46.39979705189285
 20
15.05687401686975
 30
0.0
 11
51.24292290331175
 21
19.89999986828854
 31
0.0
  0
LINE
  5
1DD2
330
1C82
100
AcDbEntity
  8
0
 62
     0
100
AcDbLine
 10
59.68442432311838
 20
30.13755251230884
 30
0.0
 11
65.2844243231184
 21
35.73755251230898
 31
0.0
  0
LINE
  5
1DD3
330
1C82
100
AcDbEntity
  8
0
 62
     0
100
AcDbLine
 10
69.52483323574313
 20
39.97796142493371
 30
0.0
 11
76.01367434108727
 21
46.46680253027784
 31
0.0
  0
LINE
  5
1DD4
330
1C82
100
AcDbEntity
  8
0
 62
     0
100
AcDbLine
 10
45.24459048356425
 20
15.69771867275471
 30
0.0
 11
49.47671420054996
 21
19.92984238974054
 31
0.0
  0
LINE
  5
1DD5
330
1C82
100
AcDbEntity
  8
0
 62
     0
100
AcDbLine
 10
59.68442432311826
 20
31.93360373652274
 30
0.0
 11
65.2844243231184
 21
37.53360373652288
 31
0.0
  0
LINE
  5
1DD6
330
1C82
100
AcDbEntity
  8
0
 62
     0
100
AcDbLine
 10
70.35377995461101
 20
42.60295936801537
 30
0.0
 11
74.25082045488409
 21
46.49999986828857
 31
0.0
  0
LINE
  5
1DD7
330
1C82
100
AcDbEntity
  8
0
 62
     0
100
AcDbLine
 10
44.23468055080014
 20
16.48385996420449
 30
0.0
 11
48.20808191851336
 21
20.45726133191771
 31
0.0
  0
LINE
  5
1DD8
330
1C82
100
AcDbEntity
  8
0
 62
     0
100
AcDbLine
 10
59.68442432311826
 20
33.72965496073652
 30
0.0
 11
65.2844243231184
 21
39.32965496073666
 31
0.0
  0
LINE
  5
1DD9
330
1C82
100
AcDbEntity
  8
0
 62
     0
100
AcDbLine
 10
53.00769258667128
 20
27.05292322428965
 30
0.0
 11
55.33150096711745
 21
29.37673160473582
 31
0.0
  0
LINE
  5
1DDA
330
1C82
100
AcDbEntity
  8
0
 62
     0
100
AcDbLine
 10
71.18272667347878
 20
45.22795731109716
 30
0.0
 11
72.45476923067042
 21
46.4999998682888
 31
0.0
  0
LINE
  5
1DDB
330
1C82
100
AcDbEntity
  8
0
 62
     0
100
AcDbLine
 10
43.36180640414045
 20
17.40703704175882
 30
0.0
 11
47.38758001596898
 21
21.43281065358735
 31
0.0
  0
LINE
  5
1DDC
330
1C82
100
AcDbEntity
  8
0
 62
     0
100
AcDbLine
 10
51.15774690341163
 20
26.9990287652439
 30
0.0
 11
55.38539542616319
 21
31.22667728799536
 31
0.0
  0
LINE
  5
1DDD
330
1C82
100
AcDbEntity
  8
0
 62
     0
100
AcDbLine
 10
59.68442432311838
 20
35.52570618495053
 30
0.0
 11
65.28442432311852
 21
41.12570618495067
 31
0.0
  0
LINE
  5
1DDE
330
1C82
100
AcDbEntity
  8
0
 62
     0
100
AcDbLine
 10
42.62776795425452
 20
18.46904981608668
 30
0.0
 11
47.08442432311835
 21
22.92570618495062
 31
0.0
  0
LINE
  5
1DDF
330
1C82
100
AcDbEntity
  8
0
 62
     0
100
AcDbLine
 10
49.92945376457123
 20
27.56678685061706
 30
0.0
 11
54.81763734078993
 21
32.45497042683587
 31
0.0
  0
LINE
  5
1DE0
330
1C82
100
AcDbEntity
  8
0
 62
     0
100
AcDbLine
 10
59.68442432311838
 20
37.32175740916432
 30
0.0
 11
65.28442432311852
 21
42.92175740916445
 31
0.0
  0
LINE
  5
1DE1
330
1C82
100
AcDbEntity
  8
0
 62
     0
100
AcDbLine
 10
42.04513293440505
 20
19.68246602045098
 30
0.0
 11
47.08442432311835
 21
24.72175740916429
 31
0.0
  0
LINE
  5
1DE2
330
1C82
100
AcDbEntity
  8
0
 62
     0
100
AcDbLine
 10
49.05353391059179
 20
28.48691822085163
 30
0.0
 11
53.89750597055547
 21
33.33089028081519
 31
0.0
  0
LINE
  5
1DE3
330
1C82
100
AcDbEntity
  8
0
 62
     0
100
AcDbLine
 10
59.68442432311838
 20
39.11780863337821
 30
0.0
 11
65.28442432311852
 21
44.71780863337824
 31
0.0
  0
LINE
  5
1DE4
330
1C82
100
AcDbEntity
  8
0
 62
     0
100
AcDbLine
 10
41.64285820605573
 20
21.07624251631557
 30
0.0
 11
47.08442432311835
 21
26.51780863337819
 31
0.0
  0
LINE
  5
1DE5
330
1C82
100
AcDbEntity
  8
0
 62
     0
100
AcDbLine
 10
48.54143244577506
 20
29.77086798024868
 30
0.0
 11
52.61355621115831
 21
33.84299174563205
 31
0.0
  0
LINE
  5
1DE6
330
1C82
100
AcDbEntity
  8
0
 62
     0
100
AcDbLine
 10
41.48442432311822
 20
22.71385985759195
 30
0.0
 11
47.08442432311835
 21
28.31385985759197
 31
0.0
  0
LINE
  5
1DE7
330
1C82
100
AcDbEntity
  8
0
 62
     0
100
AcDbLine
 10
59.68442432311838
 20
40.913859857592
 30
0.0
 11
64.96992410640814
 21
46.19935964088187
 31
0.0
  0
LINE
  5
1DE8
330
1C82
100
AcDbEntity
  8
0
 62
     0
100
AcDbLine
 10
33.31243080736703
 20
14.54186634184077
 30
0.0
 11
37.04255784956649
 21
18.27199338404023
 31
0.0
  0
LINE
  5
1DE9
330
1C82
100
AcDbEntity
  8
0
 62
     0
100
AcDbLine
 10
48.77825861273663
 20
31.80374537142404
 30
0.0
 11
50.58067881998306
 21
33.60616557867047
 31
0.0
  0
LINE
  5
1DEA
330
1C82
100
AcDbEntity
  8
0
 62
     0
100
AcDbLine
 10
41.48442432311822
 20
24.50991108180562
 30
0.0
 11
47.08442432311835
 21
30.10991108180576
 31
0.0
  0
LINE
  5
1DEB
330
1C82
100
AcDbEntity
  8
0
 62
     0
100
AcDbLine
 10
59.68442432311838
 20
42.70991108180578
 30
0.0
 11
63.47451310960116
 21
46.49999986828857
 31
0.0
  0
LINE
  5
1DEC
330
1C82
100
AcDbEntity
  8
0
 62
     0
100
AcDbLine
 10
31.27451310960111
 20
14.29999986828852
 30
0.0
 11
37.28442432311863
 21
20.30991108180592
 31
0.0
  0
LINE
  5
1DED
330
1C82
100
AcDbEntity
  8
0
 62
     0
100
AcDbLine
 10
41.48442432311822
 20
26.30596230601952
 30
0.0
 11
47.08442432311835
 21
31.90596230601966
 31
0.0
  0
LINE
  5
1DEE
330
1C82
100
AcDbEntity
  8
0
 62
     0
100
AcDbLine
 10
59.68442432311838
 20
44.50596230601957
 30
0.0
 11
61.67846188538738
 21
46.49999986828868
 31
0.0
  0
LINE
  5
1DEF
330
1C82
100
AcDbEntity
  8
0
 62
     0
100
AcDbLine
 10
29.4784618853871
 20
14.29999986828841
 30
0.0
 11
37.28442432311851
 21
22.10596230601982
 31
0.0
  0
LINE
  5
1DF0
330
1C82
100
AcDbEntity
  8
0
 62
     0
100
AcDbLine
 10
41.48442432311822
 20
28.1020135302333
 30
0.0
 11
47.08442432311824
 21
33.70201353023344
 31
0.0
  0
LINE
  5
1DF1
330
1C82
100
AcDbEntity
  8
0
 62
     0
100
AcDbLine
 10
27.68241066117343
 20
14.29999986828863
 30
0.0
 11
37.27654561799602
 21
23.89413482511122
 31
0.0
  0
LINE
  5
1DF2
330
1C82
100
AcDbEntity
  8
0
 62
     0
100
AcDbLine
 10
41.48442432311822
 20
29.8980647544472
 30
0.0
 11
47.08442432311835
 21
35.49806475444734
 31
0.0
  0
LINE
  5
1DF3
330
1C82
100
AcDbEntity
  8
0
 62
     0
100
AcDbLine
 10
52.48635943695979
 20
40.89999986828877
 30
0.0
 11
54.78442432311863
 21
43.19806475444761
 31
0.0
  0
LINE
  5
1DF4
330
1C82
100
AcDbEntity
  8
0
 62
     0
100
AcDbLine
 10
25.88635943695953
 20
14.29999986828852
 30
0.0
 11
37.05722194535337
 21
25.47086237668236
 31
0.0
  0
LINE
  5
1DF5
330
1C82
100
AcDbEntity
  8
0
 62
     0
100
AcDbLine
 10
41.48442432311822
 20
31.69411597866099
 30
0.0
 11
47.08442432311835
 21
37.29411597866101
 31
0.0
  0
LINE
  5
1DF6
330
1C82
100
AcDbEntity
  8
0
 62
     0
100
AcDbLine
 10
31.68442432311838
 20
21.89411597866115
 30
0.0
 11
36.61254445726513
 21
26.8222361128079
 31
0.0
  0
LINE
  5
1DF7
330
1C82
100
AcDbEntity
  8
0
 62
     0
100
AcDbLine
 10
50.69030821274577
 20
40.89999986828854
 30
0.0
 11
54.78442432311863
 21
44.99411597866128
 31
0.0
  0
LINE
  5
1DF8
330
1C82
100
AcDbEntity
  8
0
 62
     0
100
AcDbLine
 10
24.20575996326567
 20
14.41545161880844
 30
0.0
 11
29.69030821274577
 21
19.89999986828854
 31
0.0
  0
LINE
  5
1DF9
330
1C82
100
AcDbEntity
  8
0
 62
     0
100
AcDbLine
 10
41.4844243231181
 20
33.49016720287477
 30
0.0
 11
47.41605373467769
 21
39.42179661443435
 31
0.0
  0
LINE
  5
1DFA
330
1C82
100
AcDbEntity
  8
0
 62
     0
100
AcDbLine
 10
31.68010613989986
 20
23.68584901965641
 30
0.0
 11
35.99568138792108
 21
28.00142426767775
 31
0.0
  0
LINE
  5
1DFB
330
1C82
100
AcDbEntity
  8
0
 62
     0
100
AcDbLine
 10
48.56262757697277
 20
40.56837045672944
 30
0.0
 11
54.3174894932788
 21
46.32323237303535
 31
0.0
  0
LINE
  5
1DFC
330
1C82
100
AcDbEntity
  8
0
 62
     0
100
AcDbLine
 10
23.63442432311842
 20
15.64016720287497
 30
0.0
 11
27.89425698853199
 21
19.89999986828854
 31
0.0
  0
LINE
  5
1DFD
330
1C82
100
AcDbEntity
  8
0
 62
     0
100
AcDbLine
 10
31.24090010089844
 20
25.04269420486901
 30
0.0
 11
35.23119745824328
 21
29.03299156221385
 31
0.0
  0
LINE
  5
1DFE
330
1C82
100
AcDbEntity
  8
0
 62
     0
100
AcDbLine
 10
41.4844243231181
 20
35.28621842708867
 30
0.0
 11
52.69820576431823
 21
46.4999998682888
 31
0.0
  0
LINE
  5
1DFF
330
1C82
100
AcDbEntity
  8
0
 62
     0
100
AcDbLine
 10
23.63442432311831
 20
17.43621842708887
 30
0.0
 11
26.09820576431809
 21
19.89999986828865
 31
0.0
  0
LINE
  5
1E00
330
1C82
100
AcDbEntity
  8
0
 62
     0
100
AcDbLine
 10
30.38839044428903
 20
25.98623577247326
 30
0.0
 11
34.34818841893377
 21
29.946033747118
 31
0.0
  0
LINE
  5
1E01
330
1C82
100
AcDbEntity
  8
0
 62
     0
100
AcDbLine
 10
41.48442432311822
 20
37.08226965130234
 30
0.0
 11
50.90215454010411
 21
46.49999986828833
 31
0.0
  0
LINE
  5
1E02
330
1C82
100
AcDbEntity
  8
0
 62
     0
100
AcDbLine
 10
23.77232816715786
 20
19.3701734953421
 30
0.0
 11
24.16425069606509
 21
19.76209602424933
 31
0.0
  0
LINE
  5
1E03
330
1C82
100
AcDbEntity
  8
0
 62
     0
100
AcDbLine
 10
41.52437455143138
 20
38.91827110382939
 30
0.0
 11
49.06615308757739
 21
46.46004963997552
 31
0.0
  0
LINE
  5
1E04
330
1C82
100
AcDbEntity
  8
0
 62
     0
100
AcDbLine
 10
29.49036483218208
 20
26.88426138458021
 30
0.0
 11
33.45016280682682
 21
30.84405935922495
 31
0.0
  0
LINE
  5
1E05
330
1C82
100
AcDbEntity
  8
0
 62
     0
100
AcDbLine
 10
42.12330141596294
 20
41.31324919257497
 30
0.0
 11
46.67117499883192
 21
45.86112277544396
 31
0.0
  0
LINE
  5
1E06
330
1C82
100
AcDbEntity
  8
0
 62
     0
100
AcDbLine
 10
28.59233922007513
 20
27.78228699668716
 30
0.0
 11
32.55213719471987
 21
31.7420849713319
 31
0.0
  0
LINE
  5
1E07
330
1C82
100
AcDbEntity
  8
0
 62
     0
100
AcDbLine
 10
27.69431360796829
 20
28.680312608794
 30
0.0
 11
31.65411158261292
 21
32.64011058343851
 31
0.0
  0
LINE
  5
1E08
330
1C82
100
AcDbEntity
  8
0
 62
     0
100
AcDbLine
 10
26.79628799586135
 20
29.57833822090094
 30
0.0
 11
30.75608597050598
 21
33.53813619554546
 31
0.0
  0
LINE
  5
1E09
330
1C82
100
AcDbEntity
  8
0
 62
     0
100
AcDbLine
 10
25.8982623837544
 20
30.47636383300789
 30
0.0
 11
29.85806035839903
 21
34.43616180765241
 31
0.0
  0
LINE
  5
1E0A
330
1C82
100
AcDbEntity
  8
0
 62
     0
100
AcDbLine
 10
34.52584719482127
 20
40.89999986828854
 30
0.0
 11
36.2344243231181
 21
42.6085769965855
 31
0.0
  0
LINE
  5
1E0B
330
1C82
100
AcDbEntity
  8
0
 62
     0
100
AcDbLine
 10
25.00040339970371
 20
31.3745560731711
 30
0.0
 11
28.96053468656862
 21
35.33468736003601
 31
0.0
  0
LINE
  5
1E0C
330
1C82
100
AcDbEntity
  8
0
 62
     0
100
AcDbLine
 10
32.72979597060748
 20
40.89999986828854
 30
0.0
 11
36.23442432311833
 21
44.40462822079939
 31
0.0
  0
LINE
  5
1E0D
330
1C82
100
AcDbEntity
  8
0
 62
     0
100
AcDbLine
 10
24.17746755060056
 20
32.34767144828151
 30
0.0
 11
28.30074092399275
 21
36.47094482167381
 31
0.0
  0
LINE
  5
1E0E
330
1C82
100
AcDbEntity
  8
0
 62
     0
100
AcDbLine
 10
30.93374474639358
 20
40.89999986828854
 30
0.0
 11
36.06130652359604
 21
46.027561645491
 31
0.0
  0
LINE
  5
1E0F
330
1C82
100
AcDbEntity
  8
0
 62
     0
100
AcDbLine
 10
23.49654633807563
 20
33.46280145997047
 30
0.0
 11
28.18442432311849
 21
38.15067944501334
 31
0.0
  0
LINE
  5
1E10
330
1C82
100
AcDbEntity
  8
0
 62
     0
100
AcDbLine
 10
29.13276022383957
 20
40.89506656994831
 30
0.0
 11
34.73769352217994
 21
46.49999986828868
 31
0.0
  0
LINE
  5
1E11
330
1C82
100
AcDbEntity
  8
0
 62
     0
100
AcDbLine
 10
22.97515974661143
 20
34.73746609272018
 30
0.0
 11
28.18935762145861
 21
39.95166396756747
 31
0.0
  0
LINE
  5
1E12
330
1C82
100
AcDbEntity
  8
0
 62
     0
100
AcDbLine
 10
22.6515358221153
 20
36.20989339243783
 30
0.0
 11
32.94164229796615
 21
46.49999986828868
 31
0.0
  0
LINE
  5
1E13
330
1C82
100
AcDbEntity
  8
0
 62
     0
100
AcDbLine
 10
22.58442432311846
 20
37.93883311765489
 30
0.0
 11
31.14559107375225
 21
46.49999986828868
 31
0.0
  0
LINE
  5
1E14
330
1C82
100
AcDbEntity
  8
0
 62
     0
100
AcDbLine
 10
22.58442432311846
 20
39.73488434186867
 30
0.0
 11
29.34953984953847
 21
46.49999986828868
 31
0.0
  0
LINE
  5
1E15
330
1C82
100
AcDbEntity
  8
0
 62
     0
100
AcDbLine
 10
22.62480834399491
 20
41.57131958695901
 30
0.0
 11
27.51310460444813
 21
46.45961584741224
 31
0.0
  0
ENDBLK
  5
1E17
330
1C82
100
AcDbEntity
  8
0
100
AcDbBlockEnd
  0
BLOCK
  5
1E77
330
1E6D
100
AcDbEntity
  8
0
100
AcDbBlockBegin
  2
*D13
 70
     1
 10
0.0
 20
0.0
 30
0.0
  3
*D13
  1

  0
LINE
  5
1E6E
330
1E6D
100
AcDbEntity
  8
SUNPOU
100
AcDbLine
 10
425.3930856625471
 20
236.9439523180918
 30
0.0
 11
425.3930856625471
 21
170.1846494520054
 31
0.0
  0
LINE
  5
1E6F
330
1E6D
100
AcDbEntity
  8
SUNPOU
100
AcDbLine
 10
638.2436410007717
 20
236.9439523180918
 30
0.0
 11
638.2436410007717
 21
170.1846494520054
 31
0.0
  0
LINE
  5
1E70
330
1E6D
100
AcDbEntity
  8
SUNPOU
100
AcDbLine
 10
439.3930856625472
 20
176.1846494520054
 30
0.0
 11
624.2436410007717
 21
176.1846494520054
 31
0.0
  0
INSERT
  5
1E71
330
1E6D
100
AcDbEntity
  8
SUNPOU
100
AcDbBlockReference
  2
_OPEN
 10
425.3930856625471
 20
176.1846494520054
 30
0.0
 41
14.0
 42
14.0
 43
14.0
 50
180.0
  0
INSERT
  5
1E72
330
1E6D
100
AcDbEntity
  8
SUNPOU
100
AcDbBlockReference
  2
_OPEN
 10
638.2436410007717
 20
176.1846494520054
 30
0.0
 41
14.0
 42
14.0
 43
14.0
  0
MTEXT
  5
1E73
330
1E6D
100
AcDbEntity
  8
SUNPOU
100
AcDbMText
 10
531.8183633316594
 20
186.1846494520055
 30
0.0
 40
12.0
 41
0.0
 71
     5
 72
     1
  1
\A1;213
1001
ACAD
1000
MTEXTBEGIN
1070
    73
1070
     1
1070
    44
1040
1.0
1070
    74
1070
     0
1000
MTEXTEND
1000
MTEXTBEGIN
1070
    73
1070
     1
1070
    44
1040
1.0
1070
    74
1070
     0
1000
MTEXTEND
1000
MTEXTBEGIN
1070
    73
1070
     1
1070
    44
1040
1.0
1070
    74
1070
     0
1000
MTEXTEND
1000
MTEXTBEGIN
1070
    73
1070
     1
1070
    44
1040
1.0
1070
    74
1070
     0
1000
MTEXTEND
1000
MTEXTBEGIN
1070
    73
1070
     1
1070
    44
1040
1.0
1070
    74
1070
     0
1000
MTEXTEND
1000
MTEXTBEGIN
1070
    73
1070
     1
1070
    44
1040
1.0
1070
    74
1070
     0
1000
MTEXTEND
  0
POINT
  5
1E74
330
1E6D
100
AcDbEntity
  8
DEFPOINTS
 62
     0
100
AcDbPoint
 10
425.3930856625471
 20
248.9439523180918
 30
0.0
  0
POINT
  5
1E75
330
1E6D
100
AcDbEntity
  8
DEFPOINTS
 62
     0
100
AcDbPoint
 10
638.2436410007717
 20
248.9439523180918
 30
0.0
  0
POINT
  5
1E76
330
1E6D
100
AcDbEntity
  8
DEFPOINTS
 62
     0
100
AcDbPoint
 10
638.2436410007717
 20
176.1846494520054
 30
0.0
  0
ENDBLK
  5
1E78
330
1E6D
100
AcDbEntity
  8
0
100
AcDbBlockEnd
  0
BLOCK
  5
1E83
330
1E79
100
AcDbEntity
  8
0
100
AcDbBlockBegin
  2
*D14
 70
     1
 10
0.0
 20
0.0
 30
0.0
  3
*D14
  1

  0
LINE
  5
1E7A
330
1E79
100
AcDbEntity
  8
SUNPOU
100
AcDbLine
 10
1098.408558424286
 20
421.5439513180919
 30
0.0
 11
1098.408558424286
 21
523.5432739913981
 31
0.0
  0
LINE
  5
1E7B
330
1E79
100
AcDbEntity
  8
SUNPOU
100
AcDbLine
 10
1166.408558424286
 20
421.5439513180919
 30
0.0
 11
1166.408558424286
 21
523.5432739913981
 31
0.0
  0
LINE
  5
1E7C
330
1E79
100
AcDbEntity
  8
SUNPOU
100
AcDbLine
 10
1112.408558424286
 20
517.5432739913981
 30
0.0
 11
1152.408558424286
 21
517.5432739913981
 31
0.0
  0
INSERT
  5
1E7D
330
1E79
100
AcDbEntity
  8
SUNPOU
100
AcDbBlockReference
  2
_OPEN
 10
1098.408558424286
 20
517.5432739913981
 30
0.0
 41
14.0
 42
14.0
 43
14.0
 50
180.0
  0
INSERT
  5
1E7E
330
1E79
100
AcDbEntity
  8
SUNPOU
100
AcDbBlockReference
  2
_OPEN
 10
1166.408558424286
 20
517.5432739913981
 30
0.0
 41
14.0
 42
14.0
 43
14.0
  0
MTEXT
  5
1E7F
330
1E79
100
AcDbEntity
  8
SUNPOU
100
AcDbMText
 10
1132.408558424286
 20
527.5432739913981
 30
0.0
 40
12.0
 41
0.0
 71
     5
 72
     1
  1
\A1;68
1001
ACAD
1000
MTEXTBEGIN
1070
    73
1070
     1
1070
    44
1040
1.0
1070
    74
1070
     0
1000
MTEXTEND
1000
MTEXTBEGIN
1070
    73
1070
     1
1070
    44
1040
1.0
1070
    74
1070
     0
1000
MTEXTEND
1000
MTEXTBEGIN
1070
    73
1070
     1
1070
    44
1040
1.0
1070
    74
1070
     0
1000
MTEXTEND
1000
MTEXTBEGIN
1070
    73
1070
     1
1070
    44
1040
1.0
1070
    74
1070
     0
1000
MTEXTEND
1000
MTEXTBEGIN
1070
    73
1070
     1
1070
    44
1040
1.0
1070
    74
1070
     0
1000
MTEXTEND
1000
MTEXTBEGIN
1070
    73
1070
     1
1070
    44
1040
1.0
1070
    74
1070
     0
1000
MTEXTEND
  0
POINT
  5
1E80
330
1E79
100
AcDbEntity
  8
DEFPOINTS
 62
     0
100
AcDbPoint
 10
1098.408558424286
 20
409.5439513180918
 30
0.0
  0
POINT
  5
1E81
330
1E79
100
AcDbEntity
  8
DEFPOINTS
 62
     0
100
AcDbPoint
 10
1166.408558424286
 20
409.5439513180918
 30
0.0
  0
POINT
  5
1E82
330
1E79
100
AcDbEntity
  8
DEFPOINTS
 62
     0
100
AcDbPoint
 10
1166.408558424286
 20
517.5432739913981
 30
0.0
  0
ENDBLK
  5
1E84
330
1E79
100
AcDbEntity
  8
0
100
AcDbBlockEnd
  0
BLOCK
  5
1E8F
330
1E85
100
AcDbEntity
  8
0
100
AcDbBlockBegin
  2
*D15
 70
     1
 10
0.0
 20
0.0
 30
0.0
  3
*D15
  1

  0
LINE
  5
1E86
330
1E85
100
AcDbEntity
  8
SUNPOU
100
AcDbLine
 10
1060.908548424286
 20
785.982897140194
 30
0.0
 11
1060.908548424286
 21
810.1575578743654
 31
0.0
  0
LINE
  5
1E87
330
1E85
100
AcDbEntity
  8
SUNPOU
100
AcDbLine
 10
1124.408528424286
 20
785.982897140194
 30
0.0
 11
1124.408528424286
 21
810.1575578743654
 31
0.0
  0
LINE
  5
1E88
330
1E85
100
AcDbEntity
  8
SUNPOU
100
AcDbLine
 10
1074.908548424286
 20
804.1575578743655
 30
0.0
 11
1110.408528424286
 21
804.1575578743655
 31
0.0
  0
INSERT
  5
1E89
330
1E85
100
AcDbEntity
  8
SUNPOU
100
AcDbBlockReference
  2
_OPEN
 10
1060.908548424286
 20
804.1575578743655
 30
0.0
 41
14.0
 42
14.0
 43
14.0
 50
180.0
  0
INSERT
  5
1E8A
330
1E85
100
AcDbEntity
  8
SUNPOU
100
AcDbBlockReference
  2
_OPEN
 10
1124.408528424286
 20
804.1575578743655
 30
0.0
 41
14.0
 42
14.0
 43
14.0
  0
MTEXT
  5
1E8B
330
1E85
100
AcDbEntity
  8
SUNPOU
100
AcDbMText
 10
1092.658538424286
 20
814.1575578743655
 30
0.0
 40
12.0
 41
0.0
 71
     5
 72
     1
  1
\A1;63
1001
ACAD
1000
MTEXTBEGIN
1070
    73
1070
     1
1070
    44
1040
1.0
1070
    74
1070
     0
1000
MTEXTEND
1000
MTEXTBEGIN
1070
    73
1070
     1
1070
    44
1040
1.0
1070
    74
1070
     0
1000
MTEXTEND
  0
POINT
  5
1E8C
330
1E85
100
AcDbEntity
  8
DEFPOINTS
 62
     0
100
AcDbPoint
 10
1060.908548424286
 20
773.982897140194
 30
0.0
  0
POINT
  5
1E8D
330
1E85
100
AcDbEntity
  8
DEFPOINTS
 62
     0
100
AcDbPoint
 10
1124.408528424286
 20
773.982897140194
 30
0.0
  0
POINT
  5
1E8E
330
1E85
100
AcDbEntity
  8
DEFPOINTS
 62
     0
100
AcDbPoint
 10
1124.408528424286
 20
804.1575578743655
 30
0.0
  0
ENDBLK
  5
1E90
330
1E85
100
AcDbEntity
  8
0
100
AcDbBlockEnd
  0
BLOCK
  5
1E9B
330
1E91
100
AcDbEntity
  8
0
100
AcDbBlockBegin
  2
*D16
 70
     1
 10
0.0
 20
0.0
 30
0.0
  3
*D16
  1

  0
LINE
  5
1E92
330
1E91
100
AcDbEntity
  8
SUNPOU
100
AcDbLine
 10
899.4085284242862
 20
785.9828971401941
 30
0.0
 11
899.4085284242862
 21
810.1575578743654
 31
0.0
  0
LINE
  5
1E93
330
1E91
100
AcDbEntity
  8
SUNPOU
100
AcDbLine
 10
835.4085384242862
 20
785.9828971401941
 30
0.0
 11
835.4085384242862
 21
810.1575578743654
 31
0.0
  0
LINE
  5
1E94
330
1E91
100
AcDbEntity
  8
SUNPOU
100
AcDbLine
 10
885.4085284242863
 20
804.1575578743655
 30
0.0
 11
849.4085384242861
 21
804.1575578743655
 31
0.0
  0
INSERT
  5
1E95
330
1E91
100
AcDbEntity
  8
SUNPOU
100
AcDbBlockReference
  2
_OPEN
 10
899.4085284242862
 20
804.1575578743655
 30
0.0
 41
14.0
 42
14.0
 43
14.0
  0
INSERT
  5
1E96
330
1E91
100
AcDbEntity
  8
SUNPOU
100
AcDbBlockReference
  2
_OPEN
 10
835.4085384242862
 20
804.1575578743655
 30
0.0
 41
14.0
 42
14.0
 43
14.0
 50
180.0
  0
MTEXT
  5
1E97
330
1E91
100
AcDbEntity
  8
SUNPOU
100
AcDbMText
 10
867.4085334242862
 20
814.1575578743655
 30
0.0
 40
12.0
 41
0.0
 71
     5
 72
     1
  1
\A1;64
1001
ACAD
1000
MTEXTBEGIN
1070
    73
1070
     1
1070
    44
1040
1.0
1070
    74
1070
     0
1000
MTEXTEND
1000
MTEXTBEGIN
1070
    73
1070
     1
1070
    44
1040
1.0
1070
    74
1070
     0
1000
MTEXTEND
  0
POINT
  5
1E98
330
1E91
100
AcDbEntity
  8
DEFPOINTS
 62
     0
100
AcDbPoint
 10
899.4085284242862
 20
773.9828971401942
 30
0.0
  0
POINT
  5
1E99
330
1E91
100
AcDbEntity
  8
DEFPOINTS
 62
     0
100
AcDbPoint
 10
835.4085384242862
 20
773.9828971401942
 30
0.0
  0
POINT
  5
1E9A
330
1E91
100
AcDbEntity
  8
DEFPOINTS
 62
     0
100
AcDbPoint
 10
835.4085384242862
 20
804.1575578743655
 30
0.0
  0
ENDBLK
  5
1E9C
330
1E91
100
AcDbEntity
  8
0
100
AcDbBlockEnd
  0
BLOCK
  5
1EA7
330
1E9D
100
AcDbEntity
  8
0
100
AcDbBlockBegin
  2
*D17
 70
     1
 10
0.0
 20
0.0
 30
0.0
  3
*D17
  1

  0
LINE
  5
1E9E
330
1E9D
100
AcDbEntity
  8
SUNPOU
100
AcDbLine
 10
1124.408528424286
 20
421.0439533180919
 30
0.0
 11
1124.408528424286
 21
490.6081417536361
 31
0.0
  0
LINE
  5
1E9F
330
1E9D
100
AcDbEntity
  8
SUNPOU
100
AcDbLine
 10
1166.408558424286
 20
421.5439513180919
 30
0.0
 11
1166.408558424286
 21
490.6081417536361
 31
0.0
  0
LINE
  5
1EA0
330
1E9D
100
AcDbEntity
  8
SUNPOU
100
AcDbLine
 10
1138.408528424286
 20
484.608141753636
 30
0.0
 11
1152.408558424286
 21
484.608141753636
 31
0.0
  0
INSERT
  5
1EA1
330
1E9D
100
AcDbEntity
  8
SUNPOU
100
AcDbBlockReference
  2
_OPEN
 10
1124.408528424286
 20
484.608141753636
 30
0.0
 41
14.0
 42
14.0
 43
14.0
 50
180.0
  0
INSERT
  5
1EA2
330
1E9D
100
AcDbEntity
  8
SUNPOU
100
AcDbBlockReference
  2
_OPEN
 10
1166.408558424286
 20
484.608141753636
 30
0.0
 41
14.0
 42
14.0
 43
14.0
  0
MTEXT
  5
1EA3
330
1E9D
100
AcDbEntity
  8
SUNPOU
100
AcDbMText
 10
1145.408543424286
 20
494.6081417536361
 30
0.0
 40
12.0
 41
0.0
 71
     5
 72
     1
  1
\A1;42
1001
ACAD
1000
MTEXTBEGIN
1070
    73
1070
     1
1070
    44
1040
1.0
1070
    74
1070
     0
1000
MTEXTEND
1000
MTEXTBEGIN
1070
    73
1070
     1
1070
    44
1040
1.0
1070
    74
1070
     0
1000
MTEXTEND
  0
POINT
  5
1EA4
330
1E9D
100
AcDbEntity
  8
DEFPOINTS
 62
     0
100
AcDbPoint
 10
1124.408528424286
 20
409.0439533180918
 30
0.0
  0
POINT
  5
1EA5
330
1E9D
100
AcDbEntity
  8
DEFPOINTS
 62
     0
100
AcDbPoint
 10
1166.408558424286
 20
409.5439513180918
 30
0.0
  0
POINT
  5
1EA6
330
1E9D
100
AcDbEntity
  8
DEFPOINTS
 62
     0
100
AcDbPoint
 10
1166.408558424286
 20
484.608141753636
 30
0.0
  0
ENDBLK
  5
1EA8
330
1E9D
100
AcDbEntity
  8
0
100
AcDbBlockEnd
  0
BLOCK
  5
1EB5
330
1EA9
100
AcDbEntity
  8
0
100
AcDbBlockBegin
  2
*D18
 70
     1
 10
0.0
 20
0.0
 30
0.0
  3
*D18
  1

  0
LINE
  5
1EAA
330
1EA9
100
AcDbEntity
  8
SUNPOU
100
AcDbLine
 10
1124.408528424286
 20
421.0439533180919
 30
0.0
 11
1124.408528424286
 21
490.6081417536361
 31
0.0
  0
LINE
  5
1EAB
330
1EA9
100
AcDbEntity
  8
SUNPOU
100
AcDbLine
 10
1098.408548424286
 20
421.5439513180919
 30
0.0
 11
1098.408548424286
 21
490.6081417536361
 31
0.0
  0
LINE
  5
1EAC
330
1EA9
100
AcDbEntity
  8
SUNPOU
100
AcDbLine
 10
1138.408528424286
 20
484.608141753636
 30
0.0
 11
1152.408528424285
 21
484.608141753636
 31
0.0
  0
LINE
  5
1EAD
330
1EA9
100
AcDbEntity
  8
SUNPOU
100
AcDbLine
 10
1084.408548424286
 20
484.608141753636
 30
0.0
 11
1042.408548424286
 21
484.608141753636
 31
0.0
  0
LINE
  5
1EAE
330
1EA9
100
AcDbEntity
  8
SUNPOU
100
AcDbLine
 10
1124.408528424286
 20
484.608141753636
 30
0.0
 11
1098.408548424286
 21
484.608141753636
 31
0.0
  0
INSERT
  5
1EAF
330
1EA9
100
AcDbEntity
  8
SUNPOU
100
AcDbBlockReference
  2
_OPEN
 10
1124.408528424286
 20
484.608141753636
 30
0.0
 41
14.0
 42
14.0
 43
14.0
 50
180.0
  0
INSERT
  5
1EB0
330
1EA9
100
AcDbEntity
  8
SUNPOU
100
AcDbBlockReference
  2
_OPEN
 10
1098.408548424286
 20
484.608141753636
 30
0.0
 41
14.0
 42
14.0
 43
14.0
  0
MTEXT
  5
1EB1
330
1EA9
100
AcDbEntity
  8
SUNPOU
100
AcDbMText
 10
1056.408548424285
 20
494.6081417536361
 30
0.0
 40
12.0
 41
0.0
 71
     5
 72
     1
  1
\A1;26
1001
ACAD
1000
MTEXTBEGIN
1070
    73
1070
     1
1070
    44
1040
1.0
1070
    74
1070
     0
1000
MTEXTEND
1000
MTEXTBEGIN
1070
    73
1070
     1
1070
    44
1040
1.0
1070
    74
1070
     0
1000
MTEXTEND
  0
POINT
  5
1EB2
330
1EA9
100
AcDbEntity
  8
DEFPOINTS
 62
     0
100
AcDbPoint
 10
1124.408528424286
 20
409.0439533180918
 30
0.0
  0
POINT
  5
1EB3
330
1EA9
100
AcDbEntity
  8
DEFPOINTS
 62
     0
100
AcDbPoint
 10
1098.408548424286
 20
409.5439513180918
 30
0.0
  0
POINT
  5
1EB4
330
1EA9
100
AcDbEntity
  8
DEFPOINTS
 62
     0
100
AcDbPoint
 10
1098.408548424286
 20
484.608141753636
 30
0.0
  0
ENDBLK
  5
1EB6
330
1EA9
100
AcDbEntity
  8
0
100
AcDbBlockEnd
  0
BLOCK
  5
1EC1
330
1EB7
100
AcDbEntity
  8
0
100
AcDbBlockBegin
  2
*D19
 70
     1
 10
0.0
 20
0.0
 30
0.0
  3
*D19
  1

  0
LINE
  5
1EB8
330
1EB7
100
AcDbEntity
  8
SUNPOU
100
AcDbLine
 10
835.4085384242862
 20
919.2293221401945
 30
0.0
 11
835.4085384242862
 21
969.4289654097765
 31
0.0
  0
LINE
  5
1EB9
330
1EB7
100
AcDbEntity
  8
SUNPOU
100
AcDbLine
 10
1124.408528424286
 20
919.255461140194
 30
0.0
 11
1124.408528424286
 21
969.4289654097765
 31
0.0
  0
LINE
  5
1EBA
330
1EB7
100
AcDbEntity
  8
SUNPOU
100
AcDbLine
 10
849.4085384242861
 20
963.4289654097765
 30
0.0
 11
1110.408528424285
 21
963.4289654097765
 31
0.0
  0
INSERT
  5
1EBB
330
1EB7
100
AcDbEntity
  8
SUNPOU
100
AcDbBlockReference
  2
_OPEN
 10
835.4085384242862
 20
963.4289654097765
 30
0.0
 41
14.0
 42
14.0
 43
14.0
 50
180.0
  0
INSERT
  5
1EBC
330
1EB7
100
AcDbEntity
  8
SUNPOU
100
AcDbBlockReference
  2
_OPEN
 10
1124.408528424286
 20
963.4289654097765
 30
0.0
 41
14.0
 42
14.0
 43
14.0
  0
MTEXT
  5
1EBD
330
1EB7
100
AcDbEntity
  8
SUNPOU
100
AcDbMText
 10
979.908533424286
 20
973.4289654097764
 30
0.0
 40
12.0
 41
0.0
 71
     5
 72
     1
  1
\A1;289
1001
ACAD
1000
MTEXTBEGIN
1070
    73
1070
     1
1070
    44
1040
1.0
1070
    74
1070
     0
1000
MTEXTEND
1000
MTEXTBEGIN
1070
    73
1070
     1
1070
    44
1040
1.0
1070
    74
1070
     0
1000
MTEXTEND
  0
POINT
  5
1EBE
330
1EB7
100
AcDbEntity
  8
DEFPOINTS
 62
     0
100
AcDbPoint
 10
835.4085384242862
 20
907.2293221401944
 30
0.0
  0
POINT
  5
1EBF
330
1EB7
100
AcDbEntity
  8
DEFPOINTS
 62
     0
100
AcDbPoint
 10
1124.408528424286
 20
907.2554611401939
 30
0.0
  0
POINT
  5
1EC0
330
1EB7
100
AcDbEntity
  8
DEFPOINTS
 62
     0
100
AcDbPoint
 10
1124.408528424286
 20
963.4289654097765
 30
0.0
  0
ENDBLK
  5
1EC2
330
1EB7
100
AcDbEntity
  8
0
100
AcDbBlockEnd
  0
BLOCK
  5
1ECD
330
1EC3
100
AcDbEntity
  8
0
100
AcDbBlockBegin
  2
*D20
 70
     1
 10
0.0
 20
0.0
 30
0.0
  3
*D20
  1

  0
LINE
  5
1EC4
330
1EC3
100
AcDbEntity
  8
SUNPOU
100
AcDbLine
 10
845.4085284242861
 20
628.7364571401942
 30
0.0
 11
845.4085284242861
 21
587.9911641921776
 31
0.0
  0
LINE
  5
1EC5
330
1EC3
100
AcDbEntity
  8
SUNPOU
100
AcDbLine
 10
1114.408538424286
 20
628.7102971401943
 30
0.0
 11
1114.408538424286
 21
587.9911641921776
 31
0.0
  0
LINE
  5
1EC6
330
1EC3
100
AcDbEntity
  8
SUNPOU
100
AcDbLine
 10
859.4085284242861
 20
593.9911641921776
 30
0.0
 11
1100.408538424286
 21
593.9911641921776
 31
0.0
  0
INSERT
  5
1EC7
330
1EC3
100
AcDbEntity
  8
SUNPOU
100
AcDbBlockReference
  2
_OPEN
 10
845.4085284242861
 20
593.9911641921776
 30
0.0
 41
14.0
 42
14.0
 43
14.0
 50
180.0
  0
INSERT
  5
1EC8
330
1EC3
100
AcDbEntity
  8
SUNPOU
100
AcDbBlockReference
  2
_OPEN
 10
1114.408538424286
 20
593.9911641921776
 30
0.0
 41
14.0
 42
14.0
 43
14.0
  0
MTEXT
  5
1EC9
330
1EC3
100
AcDbEntity
  8
SUNPOU
100
AcDbMText
 10
979.908533424286
 20
603.9911641921776
 30
0.0
 40
12.0
 41
0.0
 71
     5
 72
     1
  1
\A1;269
1001
ACAD
1000
MTEXTBEGIN
1070
    73
1070
     1
1070
    44
1040
1.0
1070
    74
1070
     0
1000
MTEXTEND
1000
MTEXTBEGIN
1070
    73
1070
     1
1070
    44
1040
1.0
1070
    74
1070
     0
1000
MTEXTEND
  0
POINT
  5
1ECA
330
1EC3
100
AcDbEntity
  8
DEFPOINTS
 62
     0
100
AcDbPoint
 10
845.4085284242861
 20
640.7364571401942
 30
0.0
  0
POINT
  5
1ECB
330
1EC3
100
AcDbEntity
  8
DEFPOINTS
 62
     0
100
AcDbPoint
 10
1114.408538424286
 20
640.7102971401943
 30
0.0
  0
POINT
  5
1ECC
330
1EC3
100
AcDbEntity
  8
DEFPOINTS
 62
     0
100
AcDbPoint
 10
1114.408538424286
 20
593.9911641921776
 30
0.0
  0
ENDBLK
  5
1ECE
330
1EC3
100
AcDbEntity
  8
0
100
AcDbBlockEnd
  0
BLOCK
  5
1ED9
330
1ECF
100
AcDbEntity
  8
0
100
AcDbBlockBegin
  2
*D21
 70
     1
 10
0.0
 20
0.0
 30
0.0
  3
*D21
  1

  0
LINE
  5
1ED0
330
1ECF
100
AcDbEntity
  8
SUNPOU
100
AcDbLine
 10
835.4085384242862
 20
421.0439533180919
 30
0.0
 11
835.4085384242862
 21
554.5947018747737
 31
0.0
  0
LINE
  5
1ED1
330
1ECF
100
AcDbEntity
  8
SUNPOU
100
AcDbLine
 10
1124.408528424285
 20
421.5439513180918
 30
0.0
 11
1124.408528424285
 21
554.5947018747737
 31
0.0
  0
LINE
  5
1ED2
330
1ECF
100
AcDbEntity
  8
SUNPOU
100
AcDbLine
 10
849.4085384242861
 20
548.5947018747737
 30
0.0
 11
1110.408528424285
 21
548.5947018747737
 31
0.0
  0
INSERT
  5
1ED3
330
1ECF
100
AcDbEntity
  8
SUNPOU
100
AcDbBlockReference
  2
_OPEN
 10
835.4085384242862
 20
548.5947018747737
 30
0.0
 41
14.0
 42
14.0
 43
14.0
 50
180.0
  0
INSERT
  5
1ED4
330
1ECF
100
AcDbEntity
  8
SUNPOU
100
AcDbBlockReference
  2
_OPEN
 10
1124.408528424285
 20
548.5947018747737
 30
0.0
 41
14.0
 42
14.0
 43
14.0
  0
MTEXT
  5
1ED5
330
1ECF
100
AcDbEntity
  8
SUNPOU
100
AcDbMText
 10
979.908533424286
 20
558.5947018747737
 30
0.0
 40
12.0
 41
0.0
 71
     5
 72
     1
  1
\A1;289
1001
ACAD
1000
MTEXTBEGIN
1070
    73
1070
     1
1070
    44
1040
1.0
1070
    74
1070
     0
1000
MTEXTEND
1000
MTEXTBEGIN
1070
    73
1070
     1
1070
    44
1040
1.0
1070
    74
1070
     0
1000
MTEXTEND
  0
POINT
  5
1ED6
330
1ECF
100
AcDbEntity
  8
DEFPOINTS
 62
     0
100
AcDbPoint
 10
835.4085384242862
 20
409.0439533180918
 30
0.0
  0
POINT
  5
1ED7
330
1ECF
100
AcDbEntity
  8
DEFPOINTS
 62
     0
100
AcDbPoint
 10
1124.408528424285
 20
409.5439513180918
 30
0.0
  0
POINT
  5
1ED8
330
1ECF
100
AcDbEntity
  8
DEFPOINTS
 62
     0
100
AcDbPoint
 10
1124.408528424285
 20
548.5947018747737
 30
0.0
  0
ENDBLK
  5
1EDA
330
1ECF
100
AcDbEntity
  8
0
100
AcDbBlockEnd
  0
BLOCK
  5
2494
330
248A
100
AcDbEntity
  8
0
100
AcDbBlockBegin
  2
*D23
 70
     1
 10
0.0
 20
0.0
 30
0.0
  3
*D23
  1

  0
LINE
  5
2674
330
248A
100
AcDbEntity
  8
SUNPOU
100
AcDbLine
 10
779.69839863579
 20
422.7957300873676
 30
0.0
 11
779.69839863579
 21
556.3464786440493
 31
0.0
  0
LINE
  5
2675
330
248A
100
AcDbEntity
  8
SUNPOU
100
AcDbLine
 10
1068.698388635789
 20
423.2957280873675
 30
0.0
 11
1068.698388635789
 21
556.3464786440493
 31
0.0
  0
LINE
  5
2676
330
248A
100
AcDbEntity
  8
SUNPOU
100
AcDbLine
 10
793.6983986357899
 20
550.3464786440494
 30
0.0
 11
1054.698388635789
 21
550.3464786440494
 31
0.0
  0
INSERT
  5
2677
330
248A
100
AcDbEntity
  8
SUNPOU
100
AcDbBlockReference
  2
_OPEN
 10
779.69839863579
 20
550.3464786440494
 30
0.0
 41
14.0
 42
14.0
 43
14.0
 50
180.0
  0
INSERT
  5
2678
330
248A
100
AcDbEntity
  8
SUNPOU
100
AcDbBlockReference
  2
_OPEN
 10
1068.698388635789
 20
550.3464786440494
 30
0.0
 41
14.0
 42
14.0
 43
14.0
  0
MTEXT
  5
2679
330
248A
100
AcDbEntity
  8
SUNPOU
100
AcDbMText
 10
924.1983936357897
 20
560.3464786440493
 30
0.0
 40
12.0
 41
0.0
 71
     5
 72
     1
  1
\A1;289
1001
ACAD
1000
MTEXTBEGIN
1070
    73
1070
     1
1070
    44
1040
1.0
1070
    74
1070
     0
1000
MTEXTEND
  0
POINT
  5
267A
330
248A
100
AcDbEntity
  8
DEFPOINTS
 62
     0
100
AcDbPoint
 10
779.69839863579
 20
410.7957300873676
 30
0.0
  0
POINT
  5
267B
330
248A
100
AcDbEntity
  8
DEFPOINTS
 62
     0
100
AcDbPoint
 10
1068.698388635789
 20
411.2957280873675
 30
0.0
  0
POINT
  5
267C
330
248A
100
AcDbEntity
  8
DEFPOINTS
 62
     0
100
AcDbPoint
 10
1068.698388635789
 20
550.3464786440494
 30
0.0
  0
ENDBLK
  5
2495
330
248A
100
AcDbEntity
  8
0
100
AcDbBlockEnd
  0
BLOCK
  5
24A0
330
2496
100
AcDbEntity
  8
0
100
AcDbBlockBegin
  2
*D24
 70
     1
 10
0.0
 20
0.0
 30
0.0
  3
*D24
  1

  0
LINE
  5
26A3
330
2496
100
AcDbEntity
  8
SUNPOU
100
AcDbLine
 10
779.69839863579
 20
920.9810989094702
 30
0.0
 11
779.69839863579
 21
971.1807421790522
 31
0.0
  0
LINE
  5
26A4
330
2496
100
AcDbEntity
  8
SUNPOU
100
AcDbLine
 10
1068.698388635789
 20
921.0072379094695
 30
0.0
 11
1068.698388635789
 21
971.1807421790522
 31
0.0
  0
LINE
  5
26A5
330
2496
100
AcDbEntity
  8
SUNPOU
100
AcDbLine
 10
793.6983986357899
 20
965.1807421790522
 30
0.0
 11
1054.698388635789
 21
965.1807421790522
 31
0.0
  0
INSERT
  5
26A6
330
2496
100
AcDbEntity
  8
SUNPOU
100
AcDbBlockReference
  2
_OPEN
 10
779.69839863579
 20
965.1807421790522
 30
0.0
 41
14.0
 42
14.0
 43
14.0
 50
180.0
  0
INSERT
  5
26A7
330
2496
100
AcDbEntity
  8
SUNPOU
100
AcDbBlockReference
  2
_OPEN
 10
1068.698388635789
 20
965.1807421790522
 30
0.0
 41
14.0
 42
14.0
 43
14.0
  0
MTEXT
  5
26A8
330
2496
100
AcDbEntity
  8
SUNPOU
100
AcDbMText
 10
924.1983936357899
 20
975.1807421790521
 30
0.0
 40
12.0
 41
0.0
 71
     5
 72
     1
  1
\A1;289
1001
ACAD
1000
MTEXTBEGIN
1070
    73
1070
     1
1070
    44
1040
1.0
1070
    74
1070
     0
1000
MTEXTEND
  0
POINT
  5
26A9
330
2496
100
AcDbEntity
  8
DEFPOINTS
 62
     0
100
AcDbPoint
 10
779.69839863579
 20
908.9810989094701
 30
0.0
  0
POINT
  5
26AA
330
2496
100
AcDbEntity
  8
DEFPOINTS
 62
     0
100
AcDbPoint
 10
1068.698388635789
 20
909.0072379094696
 30
0.0
  0
POINT
  5
26AB
330
2496
100
AcDbEntity
  8
DEFPOINTS
 62
     0
100
AcDbPoint
 10
1068.698388635789
 20
965.1807421790522
 30
0.0
  0
ENDBLK
  5
24A1
330
2496
100
AcDbEntity
  8
0
100
AcDbBlockEnd
  0
BLOCK
  5
24AC
330
24A2
100
AcDbEntity
  8
0
100
AcDbBlockBegin
  2
*D25
 70
     1
 10
0.0
 20
0.0
 30
0.0
  3
*D25
  1

  0
LINE
  5
26B5
330
24A2
100
AcDbEntity
  8
SUNPOU
100
AcDbLine
 10
843.6983886357902
 20
787.7346739094698
 30
0.0
 11
843.6983886357902
 21
811.9093346436411
 31
0.0
  0
LINE
  5
26B6
330
24A2
100
AcDbEntity
  8
SUNPOU
100
AcDbLine
 10
779.69839863579
 20
787.7346739094698
 30
0.0
 11
779.69839863579
 21
811.9093346436411
 31
0.0
  0
LINE
  5
26B7
330
24A2
100
AcDbEntity
  8
SUNPOU
100
AcDbLine
 10
829.6983886357903
 20
805.909334643641
 30
0.0
 11
793.6983986357899
 21
805.909334643641
 31
0.0
  0
INSERT
  5
26B8
330
24A2
100
AcDbEntity
  8
SUNPOU
100
AcDbBlockReference
  2
_OPEN
 10
843.6983886357902
 20
805.909334643641
 30
0.0
 41
14.0
 42
14.0
 43
14.0
  0
INSERT
  5
26B9
330
24A2
100
AcDbEntity
  8
SUNPOU
100
AcDbBlockReference
  2
_OPEN
 10
779.69839863579
 20
805.909334643641
 30
0.0
 41
14.0
 42
14.0
 43
14.0
 50
180.0
  0
MTEXT
  5
26BA
330
24A2
100
AcDbEntity
  8
SUNPOU
100
AcDbMText
 10
811.69839363579
 20
815.9093346436412
 30
0.0
 40
12.0
 41
0.0
 71
     5
 72
     1
  1
\A1;64
1001
ACAD
1000
MTEXTBEGIN
1070
    73
1070
     1
1070
    44
1040
1.0
1070
    74
1070
     0
1000
MTEXTEND
  0
POINT
  5
26BB
330
24A2
100
AcDbEntity
  8
DEFPOINTS
 62
     0
100
AcDbPoint
 10
843.6983886357902
 20
775.7346739094698
 30
0.0
  0
POINT
  5
26BC
330
24A2
100
AcDbEntity
  8
DEFPOINTS
 62
     0
100
AcDbPoint
 10
779.69839863579
 20
775.7346739094698
 30
0.0
  0
POINT
  5
26BD
330
24A2
100
AcDbEntity
  8
DEFPOINTS
 62
     0
100
AcDbPoint
 10
779.69839863579
 20
805.909334643641
 30
0.0
  0
ENDBLK
  5
24AD
330
24A2
100
AcDbEntity
  8
0
100
AcDbBlockEnd
  0
BLOCK
  5
24B8
330
24AE
100
AcDbEntity
  8
0
100
AcDbBlockBegin
  2
*D26
 70
     1
 10
0.0
 20
0.0
 30
0.0
  3
*D26
  1

  0
LINE
  5
267D
330
24AE
100
AcDbEntity
  8
SUNPOU
100
AcDbLine
 10
369.6829458740507
 20
238.6957290873675
 30
0.0
 11
369.6829458740507
 21
171.9364262212811
 31
0.0
  0
LINE
  5
267E
330
24AE
100
AcDbEntity
  8
SUNPOU
100
AcDbLine
 10
582.5335012122755
 20
238.6957290873675
 30
0.0
 11
582.5335012122755
 21
171.9364262212811
 31
0.0
  0
LINE
  5
267F
330
24AE
100
AcDbEntity
  8
SUNPOU
100
AcDbLine
 10
383.6829458740508
 20
177.9364262212811
 30
0.0
 11
568.5335012122755
 21
177.9364262212811
 31
0.0
  0
INSERT
  5
2680
330
24AE
100
AcDbEntity
  8
SUNPOU
100
AcDbBlockReference
  2
_OPEN
 10
369.6829458740507
 20
177.9364262212811
 30
0.0
 41
14.0
 42
14.0
 43
14.0
 50
180.0
  0
INSERT
  5
2681
330
24AE
100
AcDbEntity
  8
SUNPOU
100
AcDbBlockReference
  2
_OPEN
 10
582.5335012122755
 20
177.9364262212811
 30
0.0
 41
14.0
 42
14.0
 43
14.0
  0
MTEXT
  5
2682
330
24AE
100
AcDbEntity
  8
SUNPOU
100
AcDbMText
 10
476.1082235431631
 20
187.9364262212811
 30
0.0
 40
12.0
 41
0.0
 71
     5
 72
     1
  1
\A1;213
1001
ACAD
1000
MTEXTBEGIN
1070
    73
1070
     1
1070
    44
1040
1.0
1070
    74
1070
     0
1000
MTEXTEND
  0
POINT
  5
2683
330
24AE
100
AcDbEntity
  8
DEFPOINTS
 62
     0
100
AcDbPoint
 10
369.6829458740507
 20
250.6957290873675
 30
0.0
  0
POINT
  5
2684
330
24AE
100
AcDbEntity
  8
DEFPOINTS
 62
     0
100
AcDbPoint
 10
582.5335012122755
 20
250.6957290873675
 30
0.0
  0
POINT
  5
2685
330
24AE
100
AcDbEntity
  8
DEFPOINTS
 62
     0
100
AcDbPoint
 10
582.5335012122755
 20
177.9364262212811
 30
0.0
  0
ENDBLK
  5
24B9
330
24AE
100
AcDbEntity
  8
0
100
AcDbBlockEnd
  0
BLOCK
  5
24C4
330
24BA
100
AcDbEntity
  8
0
100
AcDbBlockBegin
  2
*D27
 70
     1
 10
0.0
 20
0.0
 30
0.0
  3
*D27
  1

  0
LINE
  5
26AC
330
24BA
100
AcDbEntity
  8
SUNPOU
100
AcDbLine
 10
789.6983886357897
 20
630.4882339094699
 30
0.0
 11
789.6983886357897
 21
589.7429409614533
 31
0.0
  0
LINE
  5
26AD
330
24BA
100
AcDbEntity
  8
SUNPOU
100
AcDbLine
 10
1058.69839863579
 20
630.46207390947
 30
0.0
 11
1058.69839863579
 21
589.7429409614533
 31
0.0
  0
LINE
  5
26AE
330
24BA
100
AcDbEntity
  8
SUNPOU
100
AcDbLine
 10
803.6983886357898
 20
595.7429409614532
 30
0.0
 11
1044.69839863579
 21
595.7429409614532
 31
0.0
  0
INSERT
  5
26AF
330
24BA
100
AcDbEntity
  8
SUNPOU
100
AcDbBlockReference
  2
_OPEN
 10
789.6983886357897
 20
595.7429409614532
 30
0.0
 41
14.0
 42
14.0
 43
14.0
 50
180.0
  0
INSERT
  5
26B0
330
24BA
100
AcDbEntity
  8
SUNPOU
100
AcDbBlockReference
  2
_OPEN
 10
1058.69839863579
 20
595.7429409614532
 30
0.0
 41
14.0
 42
14.0
 43
14.0
  0
MTEXT
  5
26B1
330
24BA
100
AcDbEntity
  8
SUNPOU
100
AcDbMText
 10
924.1983936357899
 20
605.7429409614533
 30
0.0
 40
12.0
 41
0.0
 71
     5
 72
     1
  1
\A1;269
1001
ACAD
1000
MTEXTBEGIN
1070
    73
1070
     1
1070
    44
1040
1.0
1070
    74
1070
     0
1000
MTEXTEND
  0
POINT
  5
26B2
330
24BA
100
AcDbEntity
  8
DEFPOINTS
 62
     0
100
AcDbPoint
 10
789.6983886357897
 20
642.48823390947
 30
0.0
  0
POINT
  5
26B3
330
24BA
100
AcDbEntity
  8
DEFPOINTS
 62
     0
100
AcDbPoint
 10
1058.69839863579
 20
642.46207390947
 30
0.0
  0
POINT
  5
26B4
330
24BA
100
AcDbEntity
  8
DEFPOINTS
 62
     0
100
AcDbPoint
 10
1058.69839863579
 20
595.7429409614532
 30
0.0
  0
ENDBLK
  5
24C5
330
24BA
100
AcDbEntity
  8
0
100
AcDbBlockEnd
  0
BLOCK
  5
24D2
330
24C6
100
AcDbEntity
  8
0
100
AcDbBlockBegin
  2
*D28
 70
     1
 10
0.0
 20
0.0
 30
0.0
  3
*D28
  1

  0
LINE
  5
2686
330
24C6
100
AcDbEntity
  8
SUNPOU
100
AcDbLine
 10
1068.698388635789
 20
422.7957300873676
 30
0.0
 11
1068.698388635789
 21
492.3599185229118
 31
0.0
  0
LINE
  5
2687
330
24C6
100
AcDbEntity
  8
SUNPOU
100
AcDbLine
 10
1042.698408635789
 20
423.2957280873676
 30
0.0
 11
1042.698408635789
 21
492.3599185229118
 31
0.0
  0
LINE
  5
2688
330
24C6
100
AcDbEntity
  8
SUNPOU
100
AcDbLine
 10
1082.698388635789
 20
486.3599185229118
 30
0.0
 11
1096.698388635789
 21
486.3599185229118
 31
0.0
  0
LINE
  5
2689
330
24C6
100
AcDbEntity
  8
SUNPOU
100
AcDbLine
 10
1028.698408635789
 20
486.3599185229118
 30
0.0
 11
986.6984086357897
 21
486.3599185229118
 31
0.0
  0
LINE
  5
268A
330
24C6
100
AcDbEntity
  8
SUNPOU
100
AcDbLine
 10
1068.698388635789
 20
486.3599185229118
 30
0.0
 11
1042.698408635789
 21
486.3599185229118
 31
0.0
  0
INSERT
  5
268B
330
24C6
100
AcDbEntity
  8
SUNPOU
100
AcDbBlockReference
  2
_OPEN
 10
1068.698388635789
 20
486.3599185229118
 30
0.0
 41
14.0
 42
14.0
 43
14.0
 50
180.0
  0
INSERT
  5
268C
330
24C6
100
AcDbEntity
  8
SUNPOU
100
AcDbBlockReference
  2
_OPEN
 10
1042.698408635789
 20
486.3599185229118
 30
0.0
 41
14.0
 42
14.0
 43
14.0
  0
MTEXT
  5
268D
330
24C6
100
AcDbEntity
  8
SUNPOU
100
AcDbMText
 10
1000.698408635789
 20
496.3599185229118
 30
0.0
 40
12.0
 41
0.0
 71
     5
 72
     1
  1
\A1;26
1001
ACAD
1000
MTEXTBEGIN
1070
    73
1070
     1
1070
    44
1040
1.0
1070
    74
1070
     0
1000
MTEXTEND
  0
POINT
  5
268E
330
24C6
100
AcDbEntity
  8
DEFPOINTS
 62
     0
100
AcDbPoint
 10
1068.698388635789
 20
410.7957300873676
 30
0.0
  0
POINT
  5
268F
330
24C6
100
AcDbEntity
  8
DEFPOINTS
 62
     0
100
AcDbPoint
 10
1042.698408635789
 20
411.2957280873676
 30
0.0
  0
POINT
  5
2690
330
24C6
100
AcDbEntity
  8
DEFPOINTS
 62
     0
100
AcDbPoint
 10
1042.698408635789
 20
486.3599185229118
 30
0.0
  0
ENDBLK
  5
24D3
330
24C6
100
AcDbEntity
  8
0
100
AcDbBlockEnd
  0
BLOCK
  5
24DE
330
24D4
100
AcDbEntity
  8
0
100
AcDbBlockBegin
  2
*D29
 70
     1
 10
0.0
 20
0.0
 30
0.0
  3
*D29
  1

  0
LINE
  5
2691
330
24D4
100
AcDbEntity
  8
SUNPOU
100
AcDbLine
 10
1042.698418635789
 20
423.2957280873676
 30
0.0
 11
1042.698418635789
 21
525.2950507606738
 31
0.0
  0
LINE
  5
2692
330
24D4
100
AcDbEntity
  8
SUNPOU
100
AcDbLine
 10
1110.698418635789
 20
423.2957280873676
 30
0.0
 11
1110.698418635789
 21
525.2950507606738
 31
0.0
  0
LINE
  5
2693
330
24D4
100
AcDbEntity
  8
SUNPOU
100
AcDbLine
 10
1056.698418635789
 20
519.2950507606737
 30
0.0
 11
1096.698418635789
 21
519.2950507606737
 31
0.0
  0
INSERT
  5
2694
330
24D4
100
AcDbEntity
  8
SUNPOU
100
AcDbBlockReference
  2
_OPEN
 10
1042.698418635789
 20
519.2950507606737
 30
0.0
 41
14.0
 42
14.0
 43
14.0
 50
180.0
  0
INSERT
  5
2695
330
24D4
100
AcDbEntity
  8
SUNPOU
100
AcDbBlockReference
  2
_OPEN
 10
1110.698418635789
 20
519.2950507606737
 30
0.0
 41
14.0
 42
14.0
 43
14.0
  0
MTEXT
  5
2696
330
24D4
100
AcDbEntity
  8
SUNPOU
100
AcDbMText
 10
1076.69841863579
 20
529.2950507606738
 30
0.0
 40
12.0
 41
0.0
 71
     5
 72
     1
  1
\A1;68
1001
ACAD
1000
MTEXTBEGIN
1070
    73
1070
     1
1070
    44
1040
1.0
1070
    74
1070
     0
1000
MTEXTEND
  0
POINT
  5
2697
330
24D4
100
AcDbEntity
  8
DEFPOINTS
 62
     0
100
AcDbPoint
 10
1042.698418635789
 20
411.2957280873676
 30
0.0
  0
POINT
  5
2698
330
24D4
100
AcDbEntity
  8
DEFPOINTS
 62
     0
100
AcDbPoint
 10
1110.698418635789
 20
411.2957280873676
 30
0.0
  0
POINT
  5
2699
330
24D4
100
AcDbEntity
  8
DEFPOINTS
 62
     0
100
AcDbPoint
 10
1110.698418635789
 20
519.2950507606737
 30
0.0
  0
ENDBLK
  5
24DF
330
24D4
100
AcDbEntity
  8
0
100
AcDbBlockEnd
  0
BLOCK
  5
24EA
330
24E0
100
AcDbEntity
  8
0
100
AcDbBlockBegin
  2
*D30
 70
     1
 10
0.0
 20
0.0
 30
0.0
  3
*D30
  1

  0
LINE
  5
269A
330
24E0
100
AcDbEntity
  8
SUNPOU
100
AcDbLine
 10
1068.698388635789
 20
422.7957300873676
 30
0.0
 11
1068.698388635789
 21
492.3599185229118
 31
0.0
  0
LINE
  5
269B
330
24E0
100
AcDbEntity
  8
SUNPOU
100
AcDbLine
 10
1110.698418635789
 20
423.2957280873676
 30
0.0
 11
1110.698418635789
 21
492.3599185229118
 31
0.0
  0
LINE
  5
269C
330
24E0
100
AcDbEntity
  8
SUNPOU
100
AcDbLine
 10
1082.698388635789
 20
486.3599185229118
 30
0.0
 11
1096.698418635789
 21
486.3599185229118
 31
0.0
  0
INSERT
  5
269D
330
24E0
100
AcDbEntity
  8
SUNPOU
100
AcDbBlockReference
  2
_OPEN
 10
1068.698388635789
 20
486.3599185229118
 30
0.0
 41
14.0
 42
14.0
 43
14.0
 50
180.0
  0
INSERT
  5
269E
330
24E0
100
AcDbEntity
  8
SUNPOU
100
AcDbBlockReference
  2
_OPEN
 10
1110.698418635789
 20
486.3599185229118
 30
0.0
 41
14.0
 42
14.0
 43
14.0
  0
MTEXT
  5
269F
330
24E0
100
AcDbEntity
  8
SUNPOU
100
AcDbMText
 10
1089.698403635789
 20
496.3599185229118
 30
0.0
 40
12.0
 41
0.0
 71
     5
 72
     1
  1
\A1;42
1001
ACAD
1000
MTEXTBEGIN
1070
    73
1070
     1
1070
    44
1040
1.0
1070
    74
1070
     0
1000
MTEXTEND
  0
POINT
  5
26A0
330
24E0
100
AcDbEntity
  8
DEFPOINTS
 62
     0
100
AcDbPoint
 10
1068.698388635789
 20
410.7957300873676
 30
0.0
  0
POINT
  5
26A1
330
24E0
100
AcDbEntity
  8
DEFPOINTS
 62
     0
100
AcDbPoint
 10
1110.698418635789
 20
411.2957280873676
 30
0.0
  0
POINT
  5
26A2
330
24E0
100
AcDbEntity
  8
DEFPOINTS
 62
     0
100
AcDbPoint
 10
1110.698418635789
 20
486.3599185229118
 30
0.0
  0
ENDBLK
  5
24EB
330
24E0
100
AcDbEntity
  8
0
100
AcDbBlockEnd
  0
BLOCK
  5
24F6
330
24EC
100
AcDbEntity
  8
0
100
AcDbBlockBegin
  2
*D31
 70
     1
 10
0.0
 20
0.0
 30
0.0
  3
*D31
  1

  0
LINE
  5
26BE
330
24EC
100
AcDbEntity
  8
SUNPOU
100
AcDbLine
 10
1005.19840863579
 20
787.7346739094697
 30
0.0
 11
1005.19840863579
 21
811.9093346436411
 31
0.0
  0
LINE
  5
26BF
330
24EC
100
AcDbEntity
  8
SUNPOU
100
AcDbLine
 10
1068.69838863579
 20
787.7346739094697
 30
0.0
 11
1068.69838863579
 21
811.9093346436411
 31
0.0
  0
LINE
  5
26C0
330
24EC
100
AcDbEntity
  8
SUNPOU
100
AcDbLine
 10
1019.19840863579
 20
805.909334643641
 30
0.0
 11
1054.69838863579
 21
805.909334643641
 31
0.0
  0
INSERT
  5
26C1
330
24EC
100
AcDbEntity
  8
SUNPOU
100
AcDbBlockReference
  2
_OPEN
 10
1005.19840863579
 20
805.909334643641
 30
0.0
 41
14.0
 42
14.0
 43
14.0
 50
180.0
  0
INSERT
  5
26C2
330
24EC
100
AcDbEntity
  8
SUNPOU
100
AcDbBlockReference
  2
_OPEN
 10
1068.69838863579
 20
805.909334643641
 30
0.0
 41
14.0
 42
14.0
 43
14.0
  0
MTEXT
  5
26C3
330
24EC
100
AcDbEntity
  8
SUNPOU
100
AcDbMText
 10
1036.94839863579
 20
815.9093346436412
 30
0.0
 40
12.0
 41
0.0
 71
     5
 72
     1
  1
\A1;63
1001
ACAD
1000
MTEXTBEGIN
1070
    73
1070
     1
1070
    44
1040
1.0
1070
    74
1070
     0
1000
MTEXTEND
  0
POINT
  5
26C4
330
24EC
100
AcDbEntity
  8
DEFPOINTS
 62
     0
100
AcDbPoint
 10
1005.19840863579
 20
775.7346739094697
 30
0.0
  0
POINT
  5
26C5
330
24EC
100
AcDbEntity
  8
DEFPOINTS
 62
     0
100
AcDbPoint
 10
1068.69838863579
 20
775.7346739094697
 30
0.0
  0
POINT
  5
26C6
330
24EC
100
AcDbEntity
  8
DEFPOINTS
 62
     0
100
AcDbPoint
 10
1068.69838863579
 20
805.909334643641
 30
0.0
  0
ENDBLK
  5
24F7
330
24EC
100
AcDbEntity
  8
0
100
AcDbBlockEnd
  0
ENDSEC
  0
SECTION
  2
ENTITIES
  0
TEXT
  5
70F
330
19
100
AcDbEntity
  8
SUNPOU
 62
     4
100
AcDbText
 10
1362.583581941548
 20
72.43470612666513
 30
0.0
 40
12.0
  1
※　のきといの差込み寸法を示す
100
AcDbText
  0
LINE
  5
15C9
330
19
100
AcDbEntity
  8
ZUWAKU
100
AcDbLine
 10
417.293202593692
 20
30.39999986828876
 30
0.0
 11
894.8487279555388
 21
30.39999986828874
 31
0.0
  0
LINE
  5
15CA
330
19
100
AcDbEntity
  8
ZUWAKU
100
AcDbLine
 10
417.293202593692
 20
31.19999986828875
 30
0.0
 11
894.8487279555388
 21
31.19999986828876
 31
0.0
  0
LINE
  5
15CB
330
19
100
AcDbEntity
  8
ZUWAKU
100
AcDbLine
 10
417.293202593692
 20
30.79999986828875
 30
0.0
 11
894.8487279555388
 21
30.79999986828875
 31
0.0
  0
LINE
  5
15CC
330
19
100
AcDbEntity
  8
ZUWAKU
100
AcDbLine
 10
0.0000000135560185
 20
61.59999986828871
 30
0.0
 11
1594.800000013555
 21
61.59999986828871
 31
0.0
  0
LINE
  5
15CD
330
19
100
AcDbEntity
  8
ZUWAKU
100
AcDbLine
 10
0.0000000135560185
 20
61.1999998682887
 30
0.0
 11
1594.800000013555
 21
61.1999998682887
 31
0.0
  0
LINE
  5
15CE
330
19
100
AcDbEntity
  8
ZUWAKU
100
AcDbLine
 10
0.0000000135560185
 20
60.7999998682887
 30
0.0
 11
1594.800000013555
 21
60.7999998682887
 31
0.0
  0
LINE
  5
15CF
330
19
100
AcDbEntity
  8
ZUWAKU
100
AcDbLine
 10
0.0000000135560185
 20
60.39999986828869
 30
0.0
 11
1594.800000013555
 21
60.39999986828869
 31
0.0
  0
LINE
  5
15D0
330
19
100
AcDbEntity
  8
ZUWAKU
100
AcDbLine
 10
0.0000000135560185
 20
59.99999986828868
 30
0.0
 11
1594.800000013555
 21
59.99999986828868
 31
0.0
  0
POLYLINE
  5
15D1
330
19
100
AcDbEntity
  8
ZUWAKU
100
AcDb2dPolyline
 66
     1
 10
0.0
 20
0.0
 30
0.0
 70
     1
  0
VERTEX
  5
2715
330
15D1
100
AcDbEntity
  8
ZUWAKU
100
AcDbVertex
100
AcDb2dVertex
 10
0.4000000135558821
 20
1102.799999868289
 30
0.0
  0
VERTEX
  5
2716
330
15D1
100
AcDbEntity
  8
ZUWAKU
100
AcDbVertex
100
AcDb2dVertex
 10
0.4000000135558821
 20
0.3999998682887735
 30
0.0
  0
VERTEX
  5
2717
330
15D1
100
AcDbEntity
  8
ZUWAKU
100
AcDbVertex
100
AcDb2dVertex
 10
1594.800000013555
 20
0.3999998682888197
 30
0.0
  0
VERTEX
  5
2718
330
15D1
100
AcDbEntity
  8
ZUWAKU
100
AcDbVertex
100
AcDb2dVertex
 10
1594.800000013556
 20
1102.799999868289
 30
0.0
  0
SEQEND
  5
2719
330
15D1
100
AcDbEntity
  8
ZUWAKU
  0
POLYLINE
  5
15D2
330
19
100
AcDbEntity
  8
ZUWAKU
100
AcDb2dPolyline
 66
     1
 10
0.0
 20
0.0
 30
0.0
 70
     1
  0
VERTEX
  5
271A
330
15D2
100
AcDbEntity
  8
ZUWAKU
100
AcDbVertex
100
AcDb2dVertex
 10
1.200000013555836
 20
1101.999999868288
 30
0.0
  0
VERTEX
  5
271B
330
15D2
100
AcDbEntity
  8
ZUWAKU
100
AcDbVertex
100
AcDb2dVertex
 10
1.200000013555836
 20
1.199999868288728
 30
0.0
  0
VERTEX
  5
271C
330
15D2
100
AcDbEntity
  8
ZUWAKU
100
AcDbVertex
100
AcDb2dVertex
 10
1594.000000013556
 20
1.19999986828882
 30
0.0
  0
VERTEX
  5
271D
330
15D2
100
AcDbEntity
  8
ZUWAKU
100
AcDbVertex
100
AcDb2dVertex
 10
1594.000000013556
 20
1101.999999868288
 30
0.0
  0
SEQEND
  5
271E
330
15D2
100
AcDbEntity
  8
ZUWAKU
  0
POLYLINE
  5
15D3
330
19
100
AcDbEntity
  8
ZUWAKU
100
AcDb2dPolyline
 66
     1
 10
0.0
 20
0.0
 30
0.0
 70
     1
  0
VERTEX
  5
271F
330
15D3
100
AcDbEntity
  8
ZUWAKU
100
AcDbVertex
100
AcDb2dVertex
 10
0.0000000135560185
 20
1103.199999868288
 30
0.0
  0
VERTEX
  5
2720
330
15D3
100
AcDbEntity
  8
ZUWAKU
100
AcDbVertex
100
AcDb2dVertex
 10
0.0000000135560185
 20
-0.0000001317113174
 30
0.0
  0
VERTEX
  5
2721
330
15D3
100
AcDbEntity
  8
ZUWAKU
100
AcDbVertex
100
AcDb2dVertex
 10
1595.200000013556
 20
-0.0000001317111824
 30
0.0
  0
VERTEX
  5
2722
330
15D3
100
AcDbEntity
  8
ZUWAKU
100
AcDbVertex
100
AcDb2dVertex
 10
1595.200000013556
 20
1103.199999868289
 30
0.0
  0
SEQEND
  5
2723
330
15D3
100
AcDbEntity
  8
ZUWAKU
  0
POLYLINE
  5
15D4
330
19
100
AcDbEntity
  8
ZUWAKU
100
AcDb2dPolyline
 66
     1
 10
0.0
 20
0.0
 30
0.0
 70
     1
  0
VERTEX
  5
2724
330
15D4
100
AcDbEntity
  8
ZUWAKU
100
AcDbVertex
100
AcDb2dVertex
 10
0.800000013555973
 20
1102.399999868288
 30
0.0
  0
VERTEX
  5
2725
330
15D4
100
AcDbEntity
  8
ZUWAKU
100
AcDbVertex
100
AcDb2dVertex
 10
0.800000013555973
 20
0.7999998682888645
 30
0.0
  0
VERTEX
  5
2726
330
15D4
100
AcDbEntity
  8
ZUWAKU
100
AcDbVertex
100
AcDb2dVertex
 10
1594.400000013556
 20
0.7999998682888183
 30
0.0
  0
VERTEX
  5
2727
330
15D4
100
AcDbEntity
  8
ZUWAKU
100
AcDbVertex
100
AcDb2dVertex
 10
1594.400000013556
 20
1102.399999868288
 30
0.0
  0
SEQEND
  5
2728
330
15D4
100
AcDbEntity
  8
ZUWAKU
  0
POLYLINE
  5
15D5
330
19
100
AcDbEntity
  8
ZUWAKU
100
AcDb2dPolyline
 66
     1
 10
0.0
 20
0.0
 30
0.0
 70
     1
  0
VERTEX
  5
2729
330
15D5
100
AcDbEntity
  8
ZUWAKU
100
AcDbVertex
100
AcDb2dVertex
 10
1.600000013555927
 20
1101.599999868288
 30
0.0
  0
VERTEX
  5
272A
330
15D5
100
AcDbEntity
  8
ZUWAKU
100
AcDbVertex
100
AcDb2dVertex
 10
1.600000013555927
 20
1.599999868288819
 30
0.0
  0
VERTEX
  5
272B
330
15D5
100
AcDbEntity
  8
ZUWAKU
100
AcDbVertex
100
AcDb2dVertex
 10
1593.600000013555
 20
1.599999868288819
 30
0.0
  0
VERTEX
  5
272C
330
15D5
100
AcDbEntity
  8
ZUWAKU
100
AcDbVertex
100
AcDb2dVertex
 10
1593.600000013555
 20
1101.599999868288
 30
0.0
  0
SEQEND
  5
272D
330
15D5
100
AcDbEntity
  8
ZUWAKU
  0
TEXT
  5
15D6
330
19
100
AcDbEntity
  8
MOJI
100
AcDbText
 10
185.9155791898943
 20
25.4823561288382
 30
0.0
 40
12.0
  1
大型　のきとい
 41
0.9
  7
ｽﾀｲﾙ1
100
AcDbText
  0
INSERT
  5
15D7
330
19
100
AcDbEntity
  8
ZUWAKU
  6
CONTINUOUS
100
AcDbBlockReference
  2
*X12
 10
0.0
 20
0.0
 30
0.0
1001
ACAD
1000
HATCH
1002
{
1070
    19
1000
ANSI37
1040
0.4
1040
0.0
1000
R14_HATCH_DATA
1000
15D7
1011
1.0
1021
0.0
1031
0.0
1011
0.0
1021
1.0
1031
0.0
1011
0.0
1021
0.0
1031
1.0
1040
0.0
1010
0.0
1020
0.0
1030
1.0
1000
ANSI37
1070
     0
1070
     0
1071
        8
1071
        7
1070
     1
1070
     1
1071
       24
1040
29.00452533579573
1040
35.28969683025585
1040
-0.1989123673796348
1040
28.18442432311826
1040
37.26959581757795
1040
0.0
1040
28.18442432311826
1040
39.8499998682887
1040
-0.4142135623730912
1040
29.23442432311821
1040
40.89999986828869
1040
0.0
1040
35.18442432311803
1040
40.89999986828869
1040
0.4142135623731546
1040
36.23442432311822
1040
41.94999986828867
1040
0.0
1040
36.23442432311822
1040
45.44999986828869
1040
0.4142135623731586
1040
35.18442432311803
1040
46.49999986828869
1040
0.0
1040
28.18442432311826
1040
46.49999986828869
1040
0.4142135623730928
1040
22.58442432311835
1040
40.89999986828874
1040
0.0
1040
22.58442432311835
1040
37.2695958175782
1040
0.1989123673796619
1040
25.04472736115122
1040
31.32989885561099
1040
0.0
1040
30.86432331044056
1040
25.51030290632168
1040
-0.1989123673796613
1040
31.68442432311826
1040
23.5304039189993
1040
0.0
1040
31.68442432311826
1040
20.94999986828867
1040
-0.4142135623730911
1040
30.6344243231183
1040
19.89999986828868
1040
0.0
1040
24.68442432311849
1040
19.89999986828868
1040
0.4142135623731526
1040
23.63442432311831
1040
18.84999986828871
1040
0.0
1040
23.63442432311831
1040
15.34999986828867
1040
0.4142135623731526
1040
24.68442432311849
1040
14.29999986828869
1040
0.0
1040
31.68442432311826
1040
14.29999986828869
1040
0.4142135623731044
1040
37.2844243231184
1040
19.89999986828864
1040
0.0
1040
37.2844243231184
1040
23.53040391899919
1040
0.1989123673796604
1040
34.82412128508531
1040
29.47010088096627
1040
0.0
1071
        0
1071
        7
1070
     1
1070
     1
1071
       16
1040
47.08442432311835
1040
38.0999998682887
1040
-0.4142135623730935
1040
49.88442432311831
1040
40.89999986828869
1040
0.0
1040
53.73442432311822
1040
40.89999986828869
1040
0.4142135623731546
1040
54.7844243231184
1040
41.94999986828867
1040
0.0
1040
54.7844243231184
1040
45.44999986828869
1040
0.4142135623730951
1040
53.73442432311844
1040
46.49999986828869
1040
0.0
1040
49.88442432311808
1040
46.49999986828861
1040
0.4142135623730892
1040
41.48442432311822
1040
38.09999986828856
1040
0.0
1040
41.48442432311822
1040
22.69999986828874
1040
0.4142135623730969
1040
49.88442432311831
1040
14.29999986828869
1040
0.0
1040
53.73442432311822
1040
14.29999986828869
1040
0.4142135623731526
1040
54.7844243231184
1040
15.34999986828867
1040
0.0
1040
54.7844243231184
1040
18.84999986828871
1040
0.4142135623730891
1040
53.73442432311844
1040
19.89999986828868
1040
0.0
1040
49.88442432311831
1040
19.89999986828868
1040
-0.4142135623730928
1040
47.08442432311835
1040
22.69999986828866
1040
0.0
1071
        0
1071
        7
1070
     1
1070
     1
1071
        2
1040
48.48442432311822
1040
30.39999986828869
1040
1.0
1040
55.48442432311822
1040
30.39999986828869
1040
1.0
1071
        0
1071
        7
1070
     1
1070
     1
1071
       26
1040
74.62971728747425
1040
38.41009425541554
1040
0.0
1040
76.75299655374988
1040
45.13381193195472
1040
0.5069206636600134
1040
75.75173475535916
1040
46.49999986828869
1040
0.0
1040
72.35395599614071
1040
46.49999986828869
1040
0.3272098845218764
1040
71.35269419774999
1040
45.76618780462263
1040
0.0
1040
67.61615444848644
1040
33.93381193195485
1040
-0.3272098845219541
1040
66.61489265009549
1040
33.19999986828868
1040
0.0
1040
66.33442432311858
1040
33.19999986828868
1040
-0.4142135623731526
1040
65.2844243231184
1040
34.24999986828866
1040
0.0
1040
65.2844243231184
1040
45.44999986828869
1040
0.4142135623730951
1040
64.23442432311844
1040
46.49999986828869
1040
0.0
1040
60.73442432311821
1040
46.49999986828869
1040
0.4142135623730871
1040
59.68442432311826
1040
45.44999986828872
1040
0.0
1040
59.68442432311826
1040
15.34999986828867
1040
0.4142135623730891
1040
60.73442432311821
1040
14.29999986828869
1040
0.0
1040
64.23442432311822
1040
14.29999986828869
1040
0.4142135623731526
1040
65.2844243231184
1040
15.34999986828867
1040
0.0
1040
65.2844243231184
1040
26.54999986828871
1040
-0.4142135623731526
1040
66.33442432311858
1040
27.59999986828869
1040
0.0
1040
66.61489265009572
1040
27.59999986828869
1040
-0.3272098845218915
1040
67.61615444848644
1040
26.86618780462254
1040
0.0
1040
71.35269419774999
1040
15.03381193195483
1040
0.3272098845218902
1040
72.35395599614071
1040
14.29999986828869
1040
0.0
1040
75.75173475535916
1040
14.29999986828869
1040
0.5069206636600335
1040
76.75299655374988
1040
15.6661878046227
1040
0.0
1040
72.10021379680256
1040
30.39999986828896
1040
0.0
1071
        0
1071
        7
1070
     1
1070
     1
1071
        8
1040
86.98442432311821
1040
45.44999986828871
1040
0.4142135623731546
1040
85.93442432311803
1040
46.49999986828869
1040
0.0
1040
82.4344243231185
1040
46.49999986828869
1040
0.4142135623731507
1040
81.38442432311832
1040
45.44999986828872
1040
0.0
1040
81.38442432311832
1040
15.34999986828867
1040
0.4142135623731526
1040
82.4344243231185
1040
14.29999986828869
1040
0.0
1040
85.93442432311803
1040
14.29999986828869
1040
0.4142135623731526
1040
86.98442432311821
1040
15.34999986828867
1040
0.0
1071
        0
1071
        7
1070
     1
1070
     1
1071
       24
1040
96.7844243231184
1040
39.8499998682887
1040
-0.4142135623731546
1040
97.83442432311858
1040
40.89999986828869
1040
0.0
1040
103.7844243231184
1040
40.89999986828869
1040
0.4142135623730911
1040
104.8344243231183
1040
41.94999986828867
1040
0.0
1040
104.8344243231183
1040
45.44999986828869
1040
0.4142135623730952
1040
103.7844243231184
1040
46.49999986828869
1040
0.0
1040
96.7844243231184
1040
46.49999986828869
1040
0.4142135623731048
1040
91.18442432311827
1040
40.89999986828874
1040
0.0
1040
91.18442432311827
1040
37.2695958175782
1040
0.1989123673796613
1040
93.64472736115136
1040
31.3298988556111
1040
0.0
1040
99.46432331044071
1040
25.51030290632176
1040
-0.1989123673796402
1040
100.2844243231183
1040
23.53040391899962
1040
0.0
1040
100.2844243231183
1040
20.94999986828867
1040
-0.4142135623730911
1040
99.23442432311844
1040
19.89999986828868
1040
0.0
1040
93.2844243231184
1040
19.89999986828868
1040
0.4142135623731526
1040
92.23442432311822
1040
18.84999986828871
1040
0.0
1040
92.23442432311822
1040
15.34999986828867
1040
0.4142135623730891
1040
93.28442432311817
1040
14.29999986828869
1040
0.0
1040
100.2844243231183
1040
14.29999986828869
1040
0.4142135623730925
1040
105.8844243231183
1040
19.89999986828864
1040
0.0
1040
105.8844243231183
1040
23.53040391899919
1040
0.1989123673796675
1040
103.4241212850852
1040
29.4701008809665
1040
0.0
1040
97.60452533579609
1040
35.28969683025553
1040
-0.1989123673796652
1040
96.7844243231184
1040
37.26959581757786
1040
0.0
1071
        0
1071
        7
1070
     1
1070
     1
1071
       16
1040
115.6844243231182
1040
45.44999986828867
1040
0.414213562373103
1040
114.6344243231183
1040
46.49999986828869
1040
0.0
1040
111.1344243231183
1040
46.49999986828869
1040
0.4142135623730871
1040
110.0844243231183
1040
45.44999986828872
1040
0.0
1040
110.0844243231183
1040
19.89999986828864
1040
0.4142135623730926
1040
115.6844243231182
1040
14.29999986828869
1040
0.0
1040
122.6844243231182
1040
14.29999986828869
1040
0.4142135623731044
1040
128.2844243231183
1040
19.89999986828864
1040
0.0
1040
128.2844243231183
1040
45.44999986828869
1040
0.4142135623730951
1040
127.2344243231184
1040
46.49999986828869
1040
0.0
1040
123.7344243231182
1040
46.49999986828869
1040
0.4142135623730871
1040
122.6844243231182
1040
45.44999986828872
1040
0.0
1040
122.6844243231182
1040
21.99999986828863
1040
-0.414213562373088
1040
120.5844243231183
1040
19.89999986828868
1040
0.0
1040
117.7844243231183
1040
19.89999986828868
1040
-0.4142135623731197
1040
115.6844243231182
1040
21.99999986828863
1040
0.0
1071
        0
1071
        7
1070
     1
1070
     1
1071
        8
1040
138.0844243231183
1040
45.44999986828872
1040
0.4142135623730871
1040
137.0344243231184
1040
46.49999986828869
1040
0.0
1040
133.5344243231183
1040
46.49999986828869
1040
0.4142135623731507
1040
132.4844243231182
1040
45.44999986828872
1040
0.0
1040
132.4844243231182
1040
15.34999986828867
1040
0.4142135623730891
1040
133.5344243231181
1040
14.29999986828869
1040
0.0
1040
137.0344243231184
1040
14.29999986828869
1040
0.4142135623730891
1040
138.0844243231183
1040
15.34999986828867
1040
0.0
1071
        0
1070
     0
1070
     1
1040
0.0
1040
0.4
1070
     0
1070
     2
1040
0.7853981633974483
1040
-1801.884608655802
1040
-26.40000013171118
1040
-0.8980256121069151
1040
0.8980256121069153
1070
     0
1040
2.356194490192344
1040
-1801.884608655802
1040
-26.40000013171118
1040
-0.8980256121069153
1040
-0.8980256121069151
1070
     0
1040
0.057451373970553
1071
        8
1040
32.15970993960263
1040
30.33434716005979
1040
0.0
1040
44.80903002643436
1040
37.6881242331907
1040
0.0
1040
50.32873578487533
1040
31.02376316043012
1040
0.0
1040
61.82811997683029
1040
32.40259516117169
1040
0.0
1040
83.67694405146949
1040
33.32181969625492
1040
0.0
1040
93.79640180381512
1040
38.8371525011031
1040
0.0
1040
113.1153719583567
1040
37.45831569847871
1040
0.0
1040
135.6541592528014
1040
38.37754023356194
1040
0.0
1002
}
  0
LINE
  5
15D8
330
19
100
AcDbEntity
  8
ZUWAKU
100
AcDbLine
 10
49.88442432311831
 20
46.49999986828861
 30
0.0
 11
53.73442432311822
 21
46.49999986828869
 31
0.0
  0
LINE
  5
15D9
330
19
100
AcDbEntity
  8
ZUWAKU
100
AcDbLine
 10
53.73442432311822
 20
40.89999986828869
 30
0.0
 11
49.88442432311831
 21
40.89999986828869
 31
0.0
  0
LINE
  5
15DA
330
19
100
AcDbEntity
  8
ZUWAKU
100
AcDbLine
 10
49.88442432311831
 20
19.89999986828868
 30
0.0
 11
53.73442432311822
 21
19.89999986828868
 31
0.0
  0
LINE
  5
15DB
330
19
100
AcDbEntity
  8
ZUWAKU
100
AcDbLine
 10
53.73442432311822
 20
14.29999986828869
 30
0.0
 11
49.88442432311831
 21
14.29999986828869
 31
0.0
  0
CIRCLE
  5
15DC
330
19
100
AcDbEntity
  8
ZUWAKU
100
AcDbCircle
 10
51.98442432311821
 20
30.39999986828869
 30
0.0
 40
3.5
  0
ARC
  5
15DD
330
19
100
AcDbEntity
  8
ZUWAKU
100
AcDbCircle
 10
30.98442432311822
 20
37.26959581757809
 30
0.0
 40
2.799999999999999
100
AcDbArc
 50
180.0000000000016
 51
224.9999999999988
  0
LINE
  5
15DE
330
19
100
AcDbEntity
  8
ZUWAKU
100
AcDbLine
 10
47.08442432311835
 20
38.09999986828869
 30
0.0
 11
47.08442432311835
 21
22.6999998682887
 31
0.0
  0
LINE
  5
15DF
330
19
100
AcDbEntity
  8
ZUWAKU
100
AcDbLine
 10
41.48442432311822
 20
22.6999998682887
 30
0.0
 11
41.48442432311822
 21
38.0999998682886
 31
0.0
  0
ARC
  5
15E0
330
19
100
AcDbEntity
  8
ZUWAKU
100
AcDbCircle
 10
30.98442432311822
 20
37.26959581757809
 30
0.0
 40
8.399999999999998
100
AcDbArc
 50
180.0
 51
225.0
  0
ARC
  5
15E1
330
19
100
AcDbEntity
  8
ZUWAKU
100
AcDbCircle
 10
31.68442432311826
 20
19.89999986828868
 30
0.0
 40
5.599999999999999
100
AcDbArc
 50
270.0
 51
0.0
  0
ARC
  5
15E2
330
19
100
AcDbEntity
  8
ZUWAKU
100
AcDbCircle
 10
49.88442432311831
 20
22.6999998682887
 30
0.0
 40
8.399999999999998
100
AcDbArc
 50
180.0
 51
270.0
  0
ARC
  5
15E3
330
19
100
AcDbEntity
  8
ZUWAKU
100
AcDbCircle
 10
28.88442432311831
 20
23.53040391899929
 30
0.0
 40
8.399999999999998
100
AcDbArc
 50
0.0
 51
45.0
  0
LINE
  5
15E4
330
19
100
AcDbEntity
  8
ZUWAKU
100
AcDbLine
 10
34.82412128508531
 20
29.47010088096634
 30
0.0
 11
29.00452533579596
 21
35.28969683025569
 31
0.0
  0
LINE
  5
15E5
330
19
100
AcDbEntity
  8
ZUWAKU
100
AcDbLine
 10
31.68442432311826
 20
20.9499998682887
 30
0.0
 11
31.68442432311826
 21
23.53040391899938
 31
0.0
  0
ARC
  5
15E6
330
19
100
AcDbEntity
  8
ZUWAKU
100
AcDbCircle
 10
30.6344243231183
 20
20.9499998682887
 30
0.0
 40
1.049999999999999
100
AcDbArc
 50
270.0
 51
0.0
  0
ARC
  5
15E7
330
19
100
AcDbEntity
  8
ZUWAKU
100
AcDbCircle
 10
28.88442432311831
 20
23.53040391899938
 30
0.0
 40
2.799999999999999
100
AcDbArc
 50
0.0
 51
45.0
  0
LINE
  5
15E8
330
19
100
AcDbEntity
  8
ZUWAKU
100
AcDbLine
 10
23.63442432311831
 20
15.34999986828869
 30
0.0
 11
23.63442432311831
 21
18.84999986828869
 31
0.0
  0
ARC
  5
15E9
330
19
100
AcDbEntity
  8
ZUWAKU
100
AcDbCircle
 10
24.68442432311826
 20
15.34999986828869
 30
0.0
 40
1.049999999999999
100
AcDbArc
 50
180.0
 51
270.0
  0
ARC
  5
15EA
330
19
100
AcDbEntity
  8
ZUWAKU
100
AcDbCircle
 10
24.68442432311826
 20
18.84999986828869
 30
0.0
 40
1.049999999999999
100
AcDbArc
 50
90.0
 51
180.0
  0
LINE
  5
15EB
330
19
100
AcDbEntity
  8
ZUWAKU
100
AcDbLine
 10
24.68442432311826
 20
14.29999986828869
 30
0.0
 11
31.68442432311826
 21
14.29999986828869
 31
0.0
  0
LINE
  5
15EC
330
19
100
AcDbEntity
  8
ZUWAKU
100
AcDbLine
 10
24.68442432311826
 20
19.89999986828868
 30
0.0
 11
30.6344243231183
 21
19.89999986828868
 31
0.0
  0
LINE
  5
15ED
330
19
100
AcDbEntity
  8
ZUWAKU
100
AcDbLine
 10
25.04472736115122
 20
31.32989885561105
 30
0.0
 11
30.86432331044056
 21
25.51030290632172
 31
0.0
  0
LINE
  5
15EE
330
19
100
AcDbEntity
  8
ZUWAKU
100
AcDbLine
 10
37.2844243231184
 20
19.89999986828868
 30
0.0
 11
37.2844243231184
 21
23.53040391899938
 31
0.0
  0
ARC
  5
15EF
330
19
100
AcDbEntity
  8
ZUWAKU
100
AcDbCircle
 10
49.88442432311831
 20
22.6999998682887
 30
0.0
 40
2.799999999999999
100
AcDbArc
 50
180.0
 51
270.0
  0
ARC
  5
15F0
330
19
100
AcDbEntity
  8
ZUWAKU
100
AcDbCircle
 10
35.18442432311826
 20
45.44999986828869
 30
0.0
 40
1.049999999999999
100
AcDbArc
 50
0.0
 51
90.0
  0
ARC
  5
15F1
330
19
100
AcDbEntity
  8
ZUWAKU
100
AcDbCircle
 10
35.18442432311826
 20
41.94999986828868
 30
0.0
 40
1.049999999999999
100
AcDbArc
 50
270.0
 51
0.0
  0
LINE
  5
15F2
330
19
100
AcDbEntity
  8
ZUWAKU
100
AcDbLine
 10
28.18442432311826
 20
46.49999986828869
 30
0.0
 11
35.18442432311826
 21
46.49999986828869
 31
0.0
  0
ARC
  5
15F3
330
19
100
AcDbEntity
  8
ZUWAKU
100
AcDbCircle
 10
29.23442432311821
 20
39.84999986828869
 30
0.0
 40
1.049999999999999
100
AcDbArc
 50
90.0
 51
180.0
  0
LINE
  5
15F4
330
19
100
AcDbEntity
  8
ZUWAKU
100
AcDbLine
 10
28.18442432311826
 20
39.84999986828869
 30
0.0
 11
28.18442432311826
 21
37.269595817578
 31
0.0
  0
LINE
  5
15F5
330
19
100
AcDbEntity
  8
ZUWAKU
100
AcDbLine
 10
35.18442432311826
 20
40.89999986828869
 30
0.0
 11
29.23442432311821
 21
40.89999986828869
 31
0.0
  0
LINE
  5
15F6
330
19
100
AcDbEntity
  8
ZUWAKU
100
AcDbLine
 10
22.58442432311835
 20
40.89999986828869
 30
0.0
 11
22.58442432311835
 21
37.269595817578
 31
0.0
  0
ARC
  5
15F7
330
19
100
AcDbEntity
  8
ZUWAKU
100
AcDbCircle
 10
28.18442432311826
 20
40.89999986828869
 30
0.0
 40
5.599999999999999
100
AcDbArc
 50
90.0
 51
180.0
  0
LINE
  5
15F8
330
19
100
AcDbEntity
  8
ZUWAKU
100
AcDbLine
 10
36.23442432311822
 20
45.44999986828869
 30
0.0
 11
36.23442432311822
 21
41.94999986828868
 31
0.0
  0
ARC
  5
15F9
330
19
100
AcDbEntity
  8
ZUWAKU
100
AcDbCircle
 10
49.88442432311831
 20
38.09999986828869
 30
0.0
 40
2.799999999999999
100
AcDbArc
 50
90.0
 51
180.0
  0
ARC
  5
15FA
330
19
100
AcDbEntity
  8
ZUWAKU
100
AcDbCircle
 10
49.88442432311831
 20
38.0999998682886
 30
0.0
 40
8.399999999999998
100
AcDbArc
 50
90.0
 51
180.0
  0
LINE
  5
15FB
330
19
100
AcDbEntity
  8
ZUWAKU
100
AcDbLine
 10
158.6532591095324
 20
59.99999986828868
 30
0.0
 11
158.6532591095329
 21
1.599999868288819
 31
0.0
  0
LINE
  5
15FC
330
19
100
AcDbEntity
  8
ZUWAKU
100
AcDbLine
 10
159.0532591095325
 20
59.99999986828868
 30
0.0
 11
159.0532591095329
 21
1.599999868288819
 31
0.0
  0
LINE
  5
15FD
330
19
100
AcDbEntity
  8
ZUWAKU
100
AcDbLine
 10
158.2532591095327
 20
59.99999986828868
 30
0.0
 11
158.2532591095327
 21
1.599999868288819
 31
0.0
  0
LINE
  5
15FE
330
19
100
AcDbEntity
  8
ZUWAKU
100
AcDbLine
 10
128.2844243231183
 20
19.89999986828868
 30
0.0
 11
128.2844243231183
 21
45.44999986828869
 31
0.0
  0
LINE
  5
15FF
330
19
100
AcDbEntity
  8
ZUWAKU
100
AcDbLine
 10
122.6844243231182
 20
45.44999986828869
 30
0.0
 11
122.6844243231182
 21
21.99999986828868
 31
0.0
  0
LINE
  5
1600
330
19
100
AcDbEntity
  8
ZUWAKU
100
AcDbLine
 10
138.0844243231183
 20
15.34999986828869
 30
0.0
 11
138.0844243231183
 21
45.44999986828869
 31
0.0
  0
LINE
  5
1601
330
19
100
AcDbEntity
  8
ZUWAKU
100
AcDbLine
 10
132.4844243231182
 20
45.44999986828869
 30
0.0
 11
132.4844243231182
 21
15.34999986828869
 31
0.0
  0
ARC
  5
1602
330
19
100
AcDbEntity
  8
ZUWAKU
100
AcDbCircle
 10
99.58442432311835
 20
37.26959581757809
 30
0.0
 40
2.799999999999999
100
AcDbArc
 50
180.0000000000016
 51
224.9999999999988
  0
ARC
  5
1603
330
19
100
AcDbEntity
  8
ZUWAKU
100
AcDbCircle
 10
99.58442432311835
 20
37.26959581757809
 30
0.0
 40
8.399999999999998
100
AcDbArc
 50
180.0
 51
225.0
  0
LINE
  5
1604
330
19
100
AcDbEntity
  8
ZUWAKU
100
AcDbLine
 10
74.62971728747425
 20
38.41009425541554
 30
0.0
 11
72.10021379680256
 21
30.39999986828873
 31
0.0
  0
LINE
  5
1605
330
19
100
AcDbEntity
  8
ZUWAKU
100
AcDbLine
 10
81.38442432311832
 20
45.44999986828869
 30
0.0
 11
81.38442432311832
 21
15.34999986828869
 31
0.0
  0
LINE
  5
1606
330
19
100
AcDbEntity
  8
ZUWAKU
100
AcDbLine
 10
86.98442432311821
 20
15.34999986828869
 30
0.0
 11
86.98442432311821
 21
45.44999986828869
 31
0.0
  0
LINE
  5
1607
330
19
100
AcDbEntity
  8
ZUWAKU
100
AcDbLine
 10
110.0844243231183
 20
45.44999986828869
 30
0.0
 11
110.0844243231183
 21
19.89999986828868
 31
0.0
  0
LINE
  5
1608
330
19
100
AcDbEntity
  8
ZUWAKU
100
AcDbLine
 10
115.6844243231182
 20
21.99999986828868
 30
0.0
 11
115.6844243231182
 21
45.44999986828869
 31
0.0
  0
LINE
  5
1609
330
19
100
AcDbEntity
  8
ZUWAKU
100
AcDbLine
 10
65.2844243231184
 20
34.24999986828869
 30
0.0
 11
65.2844243231184
 21
45.44999986828869
 31
0.0
  0
LINE
  5
160A
330
19
100
AcDbEntity
  8
ZUWAKU
100
AcDbLine
 10
59.68442432311826
 20
45.44999986828869
 30
0.0
 11
59.68442432311826
 21
15.34999986828869
 31
0.0
  0
LINE
  5
160B
330
19
100
AcDbEntity
  8
ZUWAKU
100
AcDbLine
 10
71.35269419774999
 20
45.76618780462263
 30
0.0
 11
67.61615444848644
 21
33.93381193195475
 31
0.0
  0
LINE
  5
160C
330
19
100
AcDbEntity
  8
ZUWAKU
100
AcDbLine
 10
120.5844243231183
 20
19.89999986828868
 30
0.0
 11
117.7844243231183
 21
19.89999986828868
 31
0.0
  0
LINE
  5
160D
330
19
100
AcDbEntity
  8
ZUWAKU
100
AcDbLine
 10
115.6844243231182
 20
14.29999986828869
 30
0.0
 11
122.6844243231182
 21
14.29999986828869
 31
0.0
  0
LINE
  5
160E
330
19
100
AcDbEntity
  8
ZUWAKU
100
AcDbLine
 10
82.43442432311827
 20
14.29999986828869
 30
0.0
 11
85.93442432311826
 21
14.29999986828869
 31
0.0
  0
LINE
  5
160F
330
19
100
AcDbEntity
  8
ZUWAKU
100
AcDbLine
 10
71.35269419774999
 20
15.03381193195474
 30
0.0
 11
67.61615444848644
 21
26.86618780462262
 31
0.0
  0
ARC
  5
1610
330
19
100
AcDbEntity
  8
ZUWAKU
100
AcDbCircle
 10
66.61489265009572
 20
34.24999986828869
 30
0.0
 40
1.049999999999999
100
AcDbArc
 50
270.0
 51
342.4744316262769
  0
LINE
  5
1611
330
19
100
AcDbEntity
  8
ZUWAKU
100
AcDbLine
 10
66.61489265009572
 20
33.19999986828868
 30
0.0
 11
66.33442432311835
 21
33.19999986828868
 31
0.0
  0
LINE
  5
1612
330
19
100
AcDbEntity
  8
ZUWAKU
100
AcDbLine
 10
66.33442432311835
 20
27.59999986828869
 30
0.0
 11
66.61489265009572
 21
27.59999986828869
 31
0.0
  0
ARC
  5
1613
330
19
100
AcDbEntity
  8
ZUWAKU
100
AcDbCircle
 10
66.33442432311835
 20
34.24999986828869
 30
0.0
 40
1.049999999999999
100
AcDbArc
 50
180.0
 51
270.0
  0
LINE
  5
1614
330
19
100
AcDbEntity
  8
ZUWAKU
100
AcDbLine
 10
60.73442432311821
 20
14.29999986828869
 30
0.0
 11
64.23442432311822
 21
14.29999986828869
 31
0.0
  0
ARC
  5
1615
330
19
100
AcDbEntity
  8
ZUWAKU
100
AcDbCircle
 10
64.23442432311822
 20
15.34999986828869
 30
0.0
 40
1.049999999999999
100
AcDbArc
 50
270.0
 51
0.0
  0
LINE
  5
1616
330
19
100
AcDbEntity
  8
ZUWAKU
100
AcDbLine
 10
65.2844243231184
 20
15.34999986828869
 30
0.0
 11
65.2844243231184
 21
26.54999986828869
 31
0.0
  0
LINE
  5
1617
330
19
100
AcDbEntity
  8
ZUWAKU
100
AcDbLine
 10
54.7844243231184
 20
18.84999986828869
 30
0.0
 11
54.7844243231184
 21
15.34999986828869
 31
0.0
  0
ARC
  5
1618
330
19
100
AcDbEntity
  8
ZUWAKU
100
AcDbCircle
 10
53.73442432311822
 20
15.34999986828869
 30
0.0
 40
1.049999999999999
100
AcDbArc
 50
270.0
 51
0.0
  0
ARC
  5
1619
330
19
100
AcDbEntity
  8
ZUWAKU
100
AcDbCircle
 10
53.73442432311822
 20
18.84999986828869
 30
0.0
 40
1.049999999999999
100
AcDbArc
 50
0.0
 51
90.0
  0
ARC
  5
161A
330
19
100
AcDbEntity
  8
ZUWAKU
100
AcDbCircle
 10
60.73442432311821
 20
15.34999986828869
 30
0.0
 40
1.049999999999999
100
AcDbArc
 50
180.0
 51
270.0
  0
ARC
  5
161B
330
19
100
AcDbEntity
  8
ZUWAKU
100
AcDbCircle
 10
66.61489265009572
 20
26.54999986828869
 30
0.0
 40
1.049999999999999
100
AcDbArc
 50
17.52556837372303
 51
90.0
  0
ARC
  5
161C
330
19
100
AcDbEntity
  8
ZUWAKU
100
AcDbCircle
 10
66.33442432311835
 20
26.54999986828869
 30
0.0
 40
1.049999999999999
100
AcDbArc
 50
90.0
 51
180.0
  0
ARC
  5
161D
330
19
100
AcDbEntity
  8
ZUWAKU
100
AcDbCircle
 10
82.43442432311827
 20
15.34999986828869
 30
0.0
 40
1.049999999999999
100
AcDbArc
 50
180.0
 51
270.0
  0
LINE
  5
161E
330
19
100
AcDbEntity
  8
ZUWAKU
100
AcDbLine
 10
72.35395599614093
 20
14.29999986828869
 30
0.0
 11
75.75173475535894
 21
14.29999986828869
 31
0.0
  0
ARC
  5
161F
330
19
100
AcDbEntity
  8
ZUWAKU
100
AcDbCircle
 10
75.75173475535894
 20
15.34999986828869
 30
0.0
 40
1.049999999999999
100
AcDbArc
 50
270.0
 51
17.52556837372303
  0
LINE
  5
1620
330
19
100
AcDbEntity
  8
ZUWAKU
100
AcDbLine
 10
76.75299655374988
 20
15.66618780462263
 30
0.0
 11
72.10021379680256
 21
30.39999986828873
 31
0.0
  0
ARC
  5
1621
330
19
100
AcDbEntity
  8
ZUWAKU
100
AcDbCircle
 10
72.35395599614093
 20
15.34999986828869
 30
0.0
 40
1.049999999999999
100
AcDbArc
 50
197.525568373723
 51
270.0
  0
ARC
  5
1622
330
19
100
AcDbEntity
  8
ZUWAKU
100
AcDbCircle
 10
115.6844243231182
 20
19.89999986828868
 30
0.0
 40
5.599999999999999
100
AcDbArc
 50
180.0
 51
270.0
  0
ARC
  5
1623
330
19
100
AcDbEntity
  8
ZUWAKU
100
AcDbCircle
 10
100.2844243231183
 20
19.89999986828868
 30
0.0
 40
5.599999999999999
100
AcDbArc
 50
270.0
 51
0.0
  0
LINE
  5
1624
330
19
100
AcDbEntity
  8
ZUWAKU
100
AcDbLine
 10
103.4241212850854
 20
29.47010088096634
 30
0.0
 11
97.60452533579588
 21
35.28969683025569
 31
0.0
  0
LINE
  5
1625
330
19
100
AcDbEntity
  8
ZUWAKU
100
AcDbLine
 10
100.2844243231183
 20
20.9499998682887
 30
0.0
 11
100.2844243231183
 21
23.53040391899938
 31
0.0
  0
ARC
  5
1626
330
19
100
AcDbEntity
  8
ZUWAKU
100
AcDbCircle
 10
97.48442432311822
 20
23.53040391899938
 30
0.0
 40
2.799999999999999
100
AcDbArc
 50
0.0
 51
45.0
  0
ARC
  5
1627
330
19
100
AcDbEntity
  8
ZUWAKU
100
AcDbCircle
 10
99.23442432311823
 20
20.9499998682887
 30
0.0
 40
1.049999999999999
100
AcDbArc
 50
270.0
 51
0.0
  0
LINE
  5
1628
330
19
100
AcDbEntity
  8
ZUWAKU
100
AcDbLine
 10
92.23442432311822
 20
15.34999986828869
 30
0.0
 11
92.23442432311822
 21
18.84999986828869
 31
0.0
  0
ARC
  5
1629
330
19
100
AcDbEntity
  8
ZUWAKU
100
AcDbCircle
 10
93.2844243231184
 20
15.34999986828869
 30
0.0
 40
1.049999999999999
100
AcDbArc
 50
180.0
 51
270.0
  0
ARC
  5
162A
330
19
100
AcDbEntity
  8
ZUWAKU
100
AcDbCircle
 10
85.93442432311826
 20
15.34999986828869
 30
0.0
 40
1.049999999999999
100
AcDbArc
 50
270.0
 51
0.0
  0
ARC
  5
162B
330
19
100
AcDbEntity
  8
ZUWAKU
100
AcDbCircle
 10
93.2844243231184
 20
18.84999986828869
 30
0.0
 40
1.049999999999999
100
AcDbArc
 50
90.0
 51
180.0
  0
LINE
  5
162C
330
19
100
AcDbEntity
  8
ZUWAKU
100
AcDbLine
 10
93.2844243231184
 20
19.89999986828868
 30
0.0
 11
99.23442432311823
 21
19.89999986828868
 31
0.0
  0
LINE
  5
162D
330
19
100
AcDbEntity
  8
ZUWAKU
100
AcDbLine
 10
93.2844243231184
 20
14.29999986828869
 30
0.0
 11
100.2844243231183
 21
14.29999986828869
 31
0.0
  0
LINE
  5
162E
330
19
100
AcDbEntity
  8
ZUWAKU
100
AcDbLine
 10
93.64472736115136
 20
31.32989885561105
 30
0.0
 11
99.46432331044071
 21
25.51030290632172
 31
0.0
  0
LINE
  5
162F
330
19
100
AcDbEntity
  8
ZUWAKU
100
AcDbLine
 10
105.8844243231183
 20
19.89999986828868
 30
0.0
 11
105.8844243231183
 21
23.53040391899938
 31
0.0
  0
ARC
  5
1630
330
19
100
AcDbEntity
  8
ZUWAKU
100
AcDbCircle
 10
97.48442432311822
 20
23.53040391899929
 30
0.0
 40
8.399999999999998
100
AcDbArc
 50
0.0
 51
45.0
  0
ARC
  5
1631
330
19
100
AcDbEntity
  8
ZUWAKU
100
AcDbCircle
 10
117.7844243231183
 20
21.99999986828868
 30
0.0
 40
2.099999999999999
100
AcDbArc
 50
180.0
 51
270.0
  0
ARC
  5
1632
330
19
100
AcDbEntity
  8
ZUWAKU
100
AcDbCircle
 10
122.6844243231182
 20
19.89999986828868
 30
0.0
 40
5.599999999999999
100
AcDbArc
 50
270.0
 51
0.0
  0
LINE
  5
1633
330
19
100
AcDbEntity
  8
ZUWAKU
100
AcDbLine
 10
133.5344243231183
 20
14.29999986828869
 30
0.0
 11
137.0344243231184
 21
14.29999986828869
 31
0.0
  0
ARC
  5
1634
330
19
100
AcDbEntity
  8
ZUWAKU
100
AcDbCircle
 10
133.5344243231183
 20
15.34999986828869
 30
0.0
 40
1.049999999999999
100
AcDbArc
 50
180.0
 51
270.0
  0
ARC
  5
1635
330
19
100
AcDbEntity
  8
ZUWAKU
100
AcDbCircle
 10
120.5844243231183
 20
21.99999986828868
 30
0.0
 40
2.099999999999999
100
AcDbArc
 50
270.0
 51
0.0
  0
ARC
  5
1636
330
19
100
AcDbEntity
  8
ZUWAKU
100
AcDbCircle
 10
137.0344243231184
 20
15.34999986828869
 30
0.0
 40
1.049999999999999
100
AcDbArc
 50
270.0
 51
0.0
  0
LINE
  5
1637
330
19
100
AcDbEntity
  8
ZUWAKU
100
AcDbLine
 10
85.93442432311826
 20
46.49999986828869
 30
0.0
 11
82.43442432311827
 21
46.49999986828869
 31
0.0
  0
ARC
  5
1638
330
19
100
AcDbEntity
  8
ZUWAKU
100
AcDbCircle
 10
64.23442432311822
 20
45.44999986828869
 30
0.0
 40
1.049999999999999
100
AcDbArc
 50
0.0
 51
90.0
  0
LINE
  5
1639
330
19
100
AcDbEntity
  8
ZUWAKU
100
AcDbLine
 10
64.23442432311822
 20
46.49999986828869
 30
0.0
 11
60.73442432311821
 21
46.49999986828869
 31
0.0
  0
ARC
  5
163A
330
19
100
AcDbEntity
  8
ZUWAKU
100
AcDbCircle
 10
53.73442432311822
 20
45.44999986828869
 30
0.0
 40
1.049999999999999
100
AcDbArc
 50
0.0
 51
90.0
  0
ARC
  5
163B
330
19
100
AcDbEntity
  8
ZUWAKU
100
AcDbCircle
 10
60.73442432311821
 20
45.44999986828869
 30
0.0
 40
1.049999999999999
100
AcDbArc
 50
90.0
 51
180.0
  0
ARC
  5
163C
330
19
100
AcDbEntity
  8
ZUWAKU
100
AcDbCircle
 10
53.73442432311822
 20
41.94999986828868
 30
0.0
 40
1.049999999999999
100
AcDbArc
 50
270.0
 51
0.0
  0
LINE
  5
163D
330
19
100
AcDbEntity
  8
ZUWAKU
100
AcDbLine
 10
54.7844243231184
 20
45.44999986828869
 30
0.0
 11
54.7844243231184
 21
41.94999986828868
 31
0.0
  0
ARC
  5
163E
330
19
100
AcDbEntity
  8
ZUWAKU
100
AcDbCircle
 10
82.43442432311827
 20
45.44999986828869
 30
0.0
 40
1.049999999999999
100
AcDbArc
 50
90.0
 51
180.0
  0
LINE
  5
163F
330
19
100
AcDbEntity
  8
ZUWAKU
100
AcDbLine
 10
72.35395599614093
 20
46.49999986828869
 30
0.0
 11
75.75173475535894
 21
46.49999986828869
 31
0.0
  0
ARC
  5
1640
330
19
100
AcDbEntity
  8
ZUWAKU
100
AcDbCircle
 10
75.75173475535894
 20
45.44999986828869
 30
0.0
 40
1.049999999999999
100
AcDbArc
 50
342.4744316262769
 51
90.0
  0
LINE
  5
1641
330
19
100
AcDbEntity
  8
ZUWAKU
100
AcDbLine
 10
76.75299655374988
 20
45.13381193195475
 30
0.0
 11
74.62971728747425
 21
38.41009425541554
 31
0.0
  0
ARC
  5
1642
330
19
100
AcDbEntity
  8
ZUWAKU
100
AcDbCircle
 10
72.35395599614093
 20
45.44999986828869
 30
0.0
 40
1.049999999999999
100
AcDbArc
 50
90.0
 51
162.4744316262769
  0
LINE
  5
1643
330
19
100
AcDbEntity
  8
ZUWAKU
100
AcDbLine
 10
96.7844243231184
 20
46.49999986828869
 30
0.0
 11
103.7844243231184
 21
46.49999986828869
 31
0.0
  0
LINE
  5
1644
330
19
100
AcDbEntity
  8
ZUWAKU
100
AcDbLine
 10
103.7844243231184
 20
40.89999986828869
 30
0.0
 11
97.83442432311836
 21
40.89999986828869
 31
0.0
  0
ARC
  5
1645
330
19
100
AcDbEntity
  8
ZUWAKU
100
AcDbCircle
 10
97.83442432311836
 20
39.84999986828869
 30
0.0
 40
1.049999999999999
100
AcDbArc
 50
90.0
 51
180.0
  0
LINE
  5
1646
330
19
100
AcDbEntity
  8
ZUWAKU
100
AcDbLine
 10
96.7844243231184
 20
39.84999986828869
 30
0.0
 11
96.7844243231184
 21
37.269595817578
 31
0.0
  0
ARC
  5
1647
330
19
100
AcDbEntity
  8
ZUWAKU
100
AcDbCircle
 10
85.93442432311826
 20
45.44999986828869
 30
0.0
 40
1.049999999999999
100
AcDbArc
 50
0.0
 51
90.0
  0
LINE
  5
1648
330
19
100
AcDbEntity
  8
ZUWAKU
100
AcDbLine
 10
91.18442432311827
 20
40.89999986828869
 30
0.0
 11
91.18442432311827
 21
37.269595817578
 31
0.0
  0
ARC
  5
1649
330
19
100
AcDbEntity
  8
ZUWAKU
100
AcDbCircle
 10
96.7844243231184
 20
40.89999986828869
 30
0.0
 40
5.599999999999999
100
AcDbArc
 50
90.0
 51
180.0
  0
ARC
  5
164A
330
19
100
AcDbEntity
  8
ZUWAKU
100
AcDbCircle
 10
114.6344243231183
 20
45.44999986828869
 30
0.0
 40
1.049999999999999
100
AcDbArc
 50
0.0
 51
90.0
  0
ARC
  5
164B
330
19
100
AcDbEntity
  8
ZUWAKU
100
AcDbCircle
 10
111.1344243231183
 20
45.44999986828869
 30
0.0
 40
1.049999999999999
100
AcDbArc
 50
90.0
 51
180.0
  0
LINE
  5
164C
330
19
100
AcDbEntity
  8
ZUWAKU
100
AcDbLine
 10
114.6344243231183
 20
46.49999986828869
 30
0.0
 11
111.1344243231183
 21
46.49999986828869
 31
0.0
  0
ARC
  5
164D
330
19
100
AcDbEntity
  8
ZUWAKU
100
AcDbCircle
 10
103.7844243231184
 20
45.44999986828869
 30
0.0
 40
1.049999999999999
100
AcDbArc
 50
0.0
 51
90.0
  0
ARC
  5
164E
330
19
100
AcDbEntity
  8
ZUWAKU
100
AcDbCircle
 10
103.7844243231184
 20
41.94999986828868
 30
0.0
 40
1.049999999999999
100
AcDbArc
 50
270.0
 51
0.0
  0
LINE
  5
164F
330
19
100
AcDbEntity
  8
ZUWAKU
100
AcDbLine
 10
104.8344243231183
 20
45.44999986828869
 30
0.0
 11
104.8344243231183
 21
41.94999986828868
 31
0.0
  0
LINE
  5
1650
330
19
100
AcDbEntity
  8
ZUWAKU
100
AcDbLine
 10
137.0344243231184
 20
46.49999986828869
 30
0.0
 11
133.5344243231183
 21
46.49999986828869
 31
0.0
  0
ARC
  5
1651
330
19
100
AcDbEntity
  8
ZUWAKU
100
AcDbCircle
 10
133.5344243231183
 20
45.44999986828869
 30
0.0
 40
1.049999999999999
100
AcDbArc
 50
90.0
 51
180.0
  0
ARC
  5
1652
330
19
100
AcDbEntity
  8
ZUWAKU
100
AcDbCircle
 10
127.2344243231182
 20
45.44999986828869
 30
0.0
 40
1.049999999999999
100
AcDbArc
 50
0.0
 51
90.0
  0
LINE
  5
1653
330
19
100
AcDbEntity
  8
ZUWAKU
100
AcDbLine
 10
127.2344243231182
 20
46.49999986828869
 30
0.0
 11
123.7344243231182
 21
46.49999986828869
 31
0.0
  0
ARC
  5
1654
330
19
100
AcDbEntity
  8
ZUWAKU
100
AcDbCircle
 10
123.7344243231182
 20
45.44999986828869
 30
0.0
 40
1.049999999999999
100
AcDbArc
 50
90.0
 51
180.0
  0
ARC
  5
1655
330
19
100
AcDbEntity
  8
ZUWAKU
100
AcDbCircle
 10
137.0344243231184
 20
45.44999986828869
 30
0.0
 40
1.049999999999999
100
AcDbArc
 50
0.0
 51
90.0
  0
TEXT
  5
1657
330
19
100
AcDbEntity
  8
MOJI
100
AcDbText
 10
479.6544053752581
 20
6.409841983103525
 30
0.0
 40
11.19999999999999
  1
Ｐ５００
 41
0.9
  7
ｽﾀｲﾙ1
100
AcDbText
  0
LINE
  5
1658
330
19
100
AcDbEntity
  8
ZUWAKU
100
AcDbLine
 10
416.4932025936918
 20
59.99999986828868
 30
0.0
 11
416.4932025936918
 21
1.599999868288819
 31
0.0
  0
LINE
  5
1659
330
19
100
AcDbEntity
  8
ZUWAKU
100
AcDbLine
 10
417.2932025936916
 20
59.99999986828868
 30
0.0
 11
417.293202593692
 21
1.599999868288819
 31
0.0
  0
LINE
  5
165A
330
19
100
AcDbEntity
  8
ZUWAKU
100
AcDbLine
 10
416.8932025936915
 20
59.99999986828868
 30
0.0
 11
416.893202593692
 21
1.599999868288819
 31
0.0
  0
TEXT
  5
165B
330
19
100
AcDbEntity
  8
ZUWAKU
100
AcDbText
 10
419.448092638111
 20
19.31071294505992
 30
0.0
 40
8.0
  1
サイズ
 41
0.9
  7
ｽﾀｲﾙ1
100
AcDbText
  0
TEXT
  5
165C
330
19
100
AcDbEntity
  8
ZUWAKU
100
AcDbText
 10
419.4480926381106
 20
48.11071294505985
 30
0.0
 40
8.0
  1
品名
 41
0.9
  7
ｽﾀｲﾙ1
100
AcDbText
  0
LINE
  5
165D
330
19
100
AcDbEntity
  8
ZUWAKU
100
AcDbLine
 10
1297.634405033964
 20
30.39999986828874
 30
0.0
 11
1394.498021110638
 21
30.39999986828875
 31
0.0
  0
LINE
  5
165E
330
19
100
AcDbEntity
  8
ZUWAKU
100
AcDbLine
 10
1297.634405033964
 20
30.79999986828875
 30
0.0
 11
1394.498021110638
 21
30.79999986828875
 31
0.0
  0
LINE
  5
165F
330
19
100
AcDbEntity
  8
ZUWAKU
100
AcDbLine
 10
1297.634405033964
 20
31.19999986828875
 30
0.0
 11
1394.498021110638
 21
31.19999986828875
 31
0.0
  0
TEXT
  5
1660
330
19
100
AcDbEntity
  8
ZUWAKU
100
AcDbText
 10
1316.40787538816
 20
36.00984198310345
 30
0.0
 40
11.19999999999999
  1
　　．　　．　　
 41
0.9
  7
ｽﾀｲﾙ1
100
AcDbText
  0
LINE
  5
1661
330
19
100
AcDbEntity
  8
ZUWAKU
100
AcDbLine
 10
1010.398359009837
 20
30.39999986828876
 30
0.0
 11
1105.05391154578
 21
30.39999986828876
 31
0.0
  0
LINE
  5
1662
330
19
100
AcDbEntity
  8
ZUWAKU
100
AcDbLine
 10
1010.398359009837
 20
30.79999986828875
 30
0.0
 11
1105.05391154578
 21
30.79999986828875
 31
0.0
  0
LINE
  5
1663
330
19
100
AcDbEntity
  8
ZUWAKU
100
AcDbLine
 10
1010.398359009837
 20
31.19999986828875
 30
0.0
 11
1105.05391154578
 21
31.19999986828875
 31
0.0
  0
LINE
  5
1665
330
19
100
AcDbEntity
  8
ZUWAKU
100
AcDbLine
 10
895.2487279555384
 20
59.99999986828868
 30
0.0
 11
895.248727955539
 21
1.599999868288819
 31
0.0
  0
LINE
  5
1666
330
19
100
AcDbEntity
  8
ZUWAKU
100
AcDbLine
 10
895.6487279555386
 20
59.99999986828868
 30
0.0
 11
895.6487279555389
 21
1.599999868288819
 31
0.0
  0
LINE
  5
1667
330
19
100
AcDbEntity
  8
ZUWAKU
100
AcDbLine
 10
894.8487279555388
 20
59.99999986828868
 30
0.0
 11
894.8487279555388
 21
1.599999868288819
 31
0.0
  0
TEXT
  5
1668
330
19
100
AcDbEntity
  8
MOJI
100
AcDbText
 10
1056.081815958181
 20
36.00984198310345
 30
0.0
 40
11.19999999999999
  1
Ａ３
 41
0.9
  7
ｽﾀｲﾙ1
100
AcDbText
  0
LINE
  5
1669
330
19
100
AcDbEntity
  8
ZUWAKU
100
AcDbLine
 10
1009.998359009837
 20
59.99999986828868
 30
0.0
 11
1009.998359009838
 21
1.599999868288819
 31
0.0
  0
LINE
  5
166A
330
19
100
AcDbEntity
  8
ZUWAKU
100
AcDbLine
 10
1010.398359009837
 20
59.99999986828868
 30
0.0
 11
1010.398359009838
 21
1.599999868288819
 31
0.0
  0
LINE
  5
166B
330
19
100
AcDbEntity
  8
ZUWAKU
100
AcDbLine
 10
1009.598359009838
 20
59.99999986828868
 30
0.0
 11
1009.598359009838
 21
1.599999868288819
 31
0.0
  0
TEXT
  5
166D
330
19
100
AcDbEntity
  8
ZUWAKU
100
AcDbText
 10
1013.353249054257
 20
19.31071294505992
 30
0.0
 40
8.0
  1
縮尺
 41
0.9
  7
ｽﾀｲﾙ1
100
AcDbText
  0
TEXT
  5
166E
330
19
100
AcDbEntity
  8
MOJI
100
AcDbText
 10
1056.081815958181
 20
6.409841983103525
 30
0.0
 40
11.19999999999999
  1
１/４
 41
0.9
  7
ｽﾀｲﾙ1
100
AcDbText
  0
TEXT
  5
166F
330
19
100
AcDbEntity
  8
ZUWAKU
100
AcDbText
 10
898.6036179999578
 20
48.11071294505985
 30
0.0
 40
8.0
  1
品番
 41
0.9
  7
ｽﾀｲﾙ1
100
AcDbText
  0
TEXT
  5
1670
330
19
100
AcDbEntity
  8
ZUWAKU
100
AcDbText
 10
1013.353249054257
 20
48.11071294505985
 30
0.0
 40
8.0
  1
用紙
 41
0.9
  7
ｽﾀｲﾙ1
100
AcDbText
  0
LINE
  5
1671
330
19
100
AcDbEntity
  8
ZUWAKU
100
AcDbLine
 10
1297.234405033965
 20
59.99999986828868
 30
0.0
 11
1297.234405033965
 21
1.599999868288819
 31
0.0
  0
LINE
  5
1672
330
19
100
AcDbEntity
  8
ZUWAKU
100
AcDbLine
 10
1297.634405033964
 20
59.99999986828868
 30
0.0
 11
1297.634405033965
 21
1.599999868288819
 31
0.0
  0
LINE
  5
1673
330
19
100
AcDbEntity
  8
ZUWAKU
100
AcDbLine
 10
1296.834405033965
 20
59.99999986828868
 30
0.0
 11
1296.834405033965
 21
1.599999868288819
 31
0.0
  0
LINE
  5
1674
330
19
100
AcDbEntity
  8
ZUWAKU
100
AcDbLine
 10
1105.45391154578
 20
59.99999986828868
 30
0.0
 11
1105.453911545781
 21
1.599999868288819
 31
0.0
  0
LINE
  5
1675
330
19
100
AcDbEntity
  8
ZUWAKU
100
AcDbLine
 10
1105.85391154578
 20
59.99999986828868
 30
0.0
 11
1105.853911545781
 21
1.599999868288819
 31
0.0
  0
LINE
  5
1676
330
19
100
AcDbEntity
  8
ZUWAKU
100
AcDbLine
 10
1105.05391154578
 20
59.99999986828868
 30
0.0
 11
1105.05391154578
 21
1.599999868288819
 31
0.0
  0
TEXT
  5
1677
330
19
100
AcDbEntity
  8
ZUWAKU
100
AcDbText
 10
1300.589295078384
 20
48.11071294505985
 30
0.0
 40
8.0
  1
DATE
 41
0.9
  7
ｽﾀｲﾙ1
100
AcDbText
  0
LINE
  5
1678
330
19
100
AcDbEntity
  8
ZUWAKU
100
AcDbLine
 10
1394.498021110638
 20
59.99999986828868
 30
0.0
 11
1394.498021110638
 21
1.599999868288819
 31
0.0
  0
LINE
  5
1679
330
19
100
AcDbEntity
  8
ZUWAKU
100
AcDbLine
 10
1394.898021110638
 20
59.99999986828868
 30
0.0
 11
1394.898021110638
 21
1.599999868288819
 31
0.0
  0
LINE
  5
167A
330
19
100
AcDbEntity
  8
ZUWAKU
100
AcDbLine
 10
1395.298021110638
 20
59.99999986828868
 30
0.0
 11
1395.298021110638
 21
1.599999868288819
 31
0.0
  0
LINE
  5
167B
330
19
100
AcDbEntity
  8
ZUWAKU
100
AcDbLine
 10
1395.698021110638
 20
59.99999986828868
 30
0.0
 11
1395.698021110638
 21
1.599999868288819
 31
0.0
  0
TEXT
  5
167C
330
19
100
AcDbEntity
  8
ZUWAKU
100
AcDbText
 10
1417.056168398043
 20
35.10767853966228
 30
0.0
 40
12.0
  1
積水化学工業株式会社
 41
0.9
  7
ｽﾀｲﾙ1
100
AcDbText
  0
TEXT
  5
167D
330
19
100
AcDbEntity
  8
ZUWAKU
100
AcDbText
 10
1417.056168398043
 20
13.29768049599681
 30
0.0
 40
12.0
  1
建材事業部
 41
0.9
  7
ｽﾀｲﾙ1
100
AcDbText
  0
TEXT
  5
18A3
330
19
100
AcDbEntity
  8
MOJI
100
AcDbText
 10
479.8342533516106
 20
36.28310503491366
 30
0.0
 40
11.19999999999999
  1
伸縮ジョイント
 41
0.9
  7
ｽﾀｲﾙ1
100
AcDbText
  0
TEXT
  5
194A
330
19
100
AcDbEntity
  8
MOJI
100
AcDbText
 10
927.1586039467402
 20
24.02832140332546
 30
0.0
 40
11.19999999999999
  1
ＧＳ７５
 41
0.9
  7
ｽﾀｲﾙ1
100
AcDbText
  0
DIMENSION
  5
21B5
330
19
100
AcDbEntity
  8
SUNPOU
100
AcDbDimension
  2
*D23
 10
1068.698388635789
 20
550.3464786440494
 30
0.0
 11
924.1983936357897
 21
560.3464786440493
 31
0.0
 70
    32
  3
STANDARD
100
AcDbAlignedDimension
 13
779.69839863579
 23
410.7957300873676
 33
0.0
 14
1068.698388635789
 24
411.2957280873675
 34
0.0
100
AcDbRotatedDimension
1001
ACAD
1000
DSTYLE
1002
{
1070
    41
1040
14.0
1070
    42
1040
12.0
1070
    43
1040
28.0
1070
    44
1040
6.0
1070
    73
1070
     0
1070
    74
1070
     0
1070
    77
1070
     3
1070
   140
1040
12.0
1070
   141
1040
150.0
1070
   143
1040
0.03937
1070
   147
1040
4.0
1070
   172
1070
     1
1070
   173
1070
     1
1070
   176
1070
   256
1070
   177
1070
   256
1070
   178
1070
   256
1070
   271
1070
     0
1070
   272
1070
     0
1070
   341
1005
27
1070
     6
1000
OPEN
1070
     7
1000
OPEN
1070
   371
1070
    -1
1070
   372
1070
    -1
1002
}
  0
DIMENSION
  5
21B6
330
19
100
AcDbEntity
  8
SUNPOU
100
AcDbDimension
  2
*D24
 10
1068.698388635789
 20
965.1807421790522
 30
0.0
 11
924.1983936357899
 21
975.1807421790521
 31
0.0
 70
    32
  3
STANDARD
100
AcDbAlignedDimension
 13
779.69839863579
 23
908.9810989094701
 33
0.0
 14
1068.698388635789
 24
909.0072379094696
 34
0.0
100
AcDbRotatedDimension
1001
ACAD
1000
DSTYLE
1002
{
1070
    41
1040
14.0
1070
    42
1040
12.0
1070
    43
1040
28.0
1070
    44
1040
6.0
1070
    73
1070
     0
1070
    74
1070
     0
1070
    77
1070
     3
1070
   140
1040
12.0
1070
   141
1040
150.0
1070
   143
1040
0.03937
1070
   147
1040
4.0
1070
   172
1070
     1
1070
   173
1070
     1
1070
   176
1070
   256
1070
   177
1070
   256
1070
   178
1070
   256
1070
   271
1070
     0
1070
   272
1070
     0
1070
   341
1005
27
1070
     6
1000
OPEN
1070
     7
1000
OPEN
1070
   371
1070
    -1
1070
   372
1070
    -1
1002
}
  0
DIMENSION
  5
21B7
330
19
100
AcDbEntity
  8
SUNPOU
100
AcDbDimension
  2
*D25
 10
779.69839863579
 20
805.909334643641
 30
0.0
 11
811.69839363579
 21
815.9093346436412
 31
0.0
 70
    32
  3
STANDARD
100
AcDbAlignedDimension
 13
843.6983886357902
 23
775.7346739094698
 33
0.0
 14
779.69839863579
 24
775.7346739094698
 34
0.0
100
AcDbRotatedDimension
1001
ACAD
1000
DSTYLE
1002
{
1070
    41
1040
14.0
1070
    42
1040
12.0
1070
    43
1040
28.0
1070
    44
1040
6.0
1070
    73
1070
     0
1070
    74
1070
     0
1070
    77
1070
     3
1070
   140
1040
12.0
1070
   141
1040
150.0
1070
   143
1040
0.03937
1070
   147
1040
4.0
1070
   172
1070
     1
1070
   173
1070
     1
1070
   176
1070
   256
1070
   177
1070
   256
1070
   178
1070
   256
1070
   271
1070
     0
1070
   272
1070
     0
1070
   341
1005
27
1070
     6
1000
OPEN
1070
     7
1000
OPEN
1070
   371
1070
    -1
1070
   372
1070
    -1
1002
}
  0
ARC
  5
21B8
330
19
100
AcDbEntity
  8
SEIHIN
100
AcDbCircle
 10
780.9419464975176
 20
1006.5865088656
 30
0.0
 40
101.2094889001223
100
AcDbArc
 50
269.2959964749201
 51
274.5309190918356
  0
LINE
  5
21B9
330
19
100
AcDbEntity
  8
CENTER_L
  6
CENTER
 48
5.0
100
AcDbLine
 10
756.248445990137
 20
775.7346739094698
 30
0.0
 11
1093.809666523881
 21
775.7346739094697
 31
0.0
  0
LINE
  5
21BA
330
19
100
AcDbEntity
  8
SEIHIN
100
AcDbLine
 10
779.69839863579
 20
410.7957300873676
 30
0.0
 11
789.6986661943819
 21
411.2957280873676
 31
0.0
  0
LINE
  5
21BB
330
19
100
AcDbEntity
  8
SEIHIN
100
AcDbLine
 10
789.6984186357899
 20
410.7957300873676
 30
0.0
 11
779.69839863579
 21
410.7957300873676
 31
0.0
  0
LINE
  5
21BC
330
19
100
AcDbEntity
  8
SEIHIN
100
AcDbLine
 10
779.69839863579
 20
381.7957290873676
 30
0.0
 11
789.6984186357899
 21
381.7957290873676
 31
0.0
  0
LINE
  5
21BD
330
19
100
AcDbEntity
  8
SEIHIN
100
AcDbLine
 10
789.6984186357899
 20
257.7957270873675
 30
0.0
 11
779.69839863579
 21
257.7957270873675
 31
0.0
  0
LINE
  5
21BE
330
19
100
AcDbEntity
  8
SEIHIN
100
AcDbLine
 10
789.6984186357899
 20
259.1114520873675
 30
0.0
 11
779.69839863579
 21
259.1114520873675
 31
0.0
  0
LINE
  5
21BF
330
19
100
AcDbEntity
  8
SEIHIN
100
AcDbLine
 10
779.69839863579
 20
255.7957260873675
 30
0.0
 11
789.6984186357899
 21
255.2957280873676
 31
0.0
  0
LINE
  5
21C0
330
19
100
AcDbEntity
  8
SEIHIN
100
AcDbLine
 10
789.6984186357899
 20
255.7957260873675
 30
0.0
 11
779.69839863579
 21
255.7957260873675
 31
0.0
  0
LINE
  5
21C1
330
19
100
AcDbEntity
  8
SEIHIN
100
AcDbLine
 10
820.6984086357902
 20
876.04752790947
 30
0.0
 11
779.69839863579
 21
876.04752790947
 31
0.0
  0
LINE
  5
21C2
330
19
100
AcDbEntity
  8
SEIHIN
100
AcDbLine
 10
820.6984086357902
 20
874.55889190947
 30
0.0
 11
779.69839863579
 21
874.55889190947
 31
0.0
  0
LINE
  5
21C3
330
19
100
AcDbEntity
  8
SEIHIN
100
AcDbLine
 10
789.6970386357898
 20
909.5079169094699
 30
0.0
 11
779.69839863579
 21
908.9810989094701
 31
0.0
  0
LINE
  5
21C4
330
19
100
AcDbEntity
  8
SEIHIN
100
AcDbLine
 10
813.6983886357903
 20
905.3846599094697
 30
0.0
 11
779.69839863579
 21
905.3846599094697
 31
0.0
  0
LINE
  5
21C5
330
19
100
AcDbEntity
  8
SEIHIN
100
AcDbLine
 10
814.5644286357901
 20
904.88464990947
 30
0.0
 11
779.69839863579
 21
904.88464990947
 31
0.0
  0
LINE
  5
21C6
330
19
100
AcDbEntity
  8
SEIHIN
100
AcDbLine
 10
814.6984086357901
 20
891.12606790947
 30
0.0
 11
779.69839863579
 21
891.12606790947
 31
0.0
  0
LINE
  5
21C7
330
19
100
AcDbEntity
  8
SEIHIN
100
AcDbLine
 10
779.69839863579
 20
892.1184979094698
 30
0.0
 11
814.6984086357901
 21
892.1184979094698
 31
0.0
  0
LINE
  5
21C8
330
19
100
AcDbEntity
  8
SEIHIN
100
AcDbLine
 10
789.6983886357902
 20
676.9104439094701
 30
0.0
 11
779.69839863579
 21
775.7346739094698
 31
0.0
  0
DIMENSION
  5
21C9
330
19
100
AcDbEntity
  8
SUNPOU
100
AcDbDimension
  2
*D26
 10
582.5335012122755
 20
177.9364262212811
 30
0.0
 11
476.1082235431631
 21
187.9364262212811
 31
0.0
 70
    32
  3
STANDARD
100
AcDbAlignedDimension
 13
369.6829458740507
 23
250.6957290873675
 33
0.0
 14
582.5335012122755
 24
250.6957290873675
 34
0.0
100
AcDbRotatedDimension
1001
ACAD
1000
DSTYLE
1002
{
1070
    41
1040
14.0
1070
    42
1040
12.0
1070
    43
1040
28.0
1070
    44
1040
6.0
1070
    73
1070
     0
1070
    74
1070
     0
1070
    77
1070
     3
1070
   140
1040
12.0
1070
   141
1040
150.0
1070
   143
1040
0.03937
1070
   147
1040
4.0
1070
   172
1070
     1
1070
   173
1070
     1
1070
   176
1070
   256
1070
   177
1070
   256
1070
   178
1070
   256
1070
   271
1070
     0
1070
   272
1070
     0
1070
   341
1005
27
1070
     6
1000
OPEN
1070
     7
1000
OPEN
1070
   371
1070
    -1
1070
   372
1070
    -1
1002
}
  0
LINE
  5
21CE
330
19
100
AcDbEntity
  8
SEIHIN
100
AcDbLine
 10
574.9324386357898
 20
257.7957270873675
 30
0.0
 11
476.1082086357901
 21
257.7957270873675
 31
0.0
  0
LINE
  5
21CF
330
19
100
AcDbEntity
  8
SEIHIN
100
AcDbLine
 10
475.60354863579
 20
255.2957280873676
 30
0.0
 11
574.9324386357898
 21
255.2957280873676
 31
0.0
  0
LINE
  5
21D0
330
19
100
AcDbEntity
  8
SEIHIN
100
AcDbLine
 10
568.6571586357899
 20
261.5957310873676
 30
0.0
 11
495.4106886357899
 21
261.5957310873676
 31
0.0
  0
LINE
  5
21D1
330
19
100
AcDbEntity
  8
SEIHIN
100
AcDbLine
 10
491.10820863579
 20
260.8750980873675
 30
0.0
 11
568.6571586357899
 21
260.8750980873675
 31
0.0
  0
LINE
  5
21D2
330
19
100
AcDbEntity
  8
SEIHIN
100
AcDbLine
 10
491.5067586359537
 20
262.5957300873675
 30
0.0
 11
568.6571586357899
 21
262.5957300873675
 31
0.0
  0
LINE
  5
21D3
330
19
100
AcDbEntity
  8
SEIHIN
100
AcDbLine
 10
568.6571586357899
 20
259.8957300873675
 30
0.0
 11
490.2069786357901
 21
259.8957300873675
 31
0.0
  0
LINE
  5
21D4
330
19
100
AcDbEntity
  8
SEIHIN
100
AcDbLine
 10
575.3743686357897
 20
250.6957290873675
 30
0.0
 11
376.84207563579
 21
250.6957290873675
 31
0.0
  0
ARC
  5
21D5
330
19
100
AcDbEntity
  8
SEIHIN
100
AcDbCircle
 10
476.1082086357901
 20
371.3957280873676
 30
0.0
 40
111.499998
100
AcDbArc
 50
282.6346199999945
 51
339.7283099999993
  0
ARC
  5
21D6
330
19
100
AcDbEntity
  8
SEIHIN
100
AcDbCircle
 10
476.1082086357901
 20
371.3957280873676
 30
0.0
 40
115.5
100
AcDbArc
 50
289.611280000004
 51
332.9619699999984
  0
LINE
  5
21D7
330
19
100
AcDbEntity
  8
SEIHIN
100
AcDbLine
 10
362.9582226357902
 20
410.7957300873676
 30
0.0
 11
362.9582226357902
 21
405.7957290873676
 31
0.0
  0
LINE
  5
21D8
330
19
100
AcDbEntity
  8
SEIHIN
100
AcDbLine
 10
347.4582306357901
 20
411.2957280873676
 30
0.0
 11
347.4582306357901
 21
409.7957280873676
 31
0.0
  0
LINE
  5
21D9
330
19
100
AcDbEntity
  8
SEIHIN
100
AcDbLine
 10
342.3363276357899
 20
410.2433970873676
 30
0.0
 11
343.9333926357899
 21
379.7695620873675
 31
0.0
  0
LINE
  5
21DA
330
19
100
AcDbEntity
  8
SEIHIN
100
AcDbLine
 10
346.4582226357902
 20
382.2957270873676
 30
0.0
 11
346.4582226357902
 21
410.7957300873676
 31
0.0
  0
LINE
  5
21DB
330
19
100
AcDbEntity
  8
SEIHIN
100
AcDbLine
 10
341.2437306357901
 20
373.7695620873675
 30
0.0
 11
339.3322086357898
 21
410.2433970873676
 31
0.0
  0
LINE
  5
21DC
330
19
100
AcDbEntity
  8
SEIHIN
100
AcDbLine
 10
377.2839906357899
 20
255.2957280873676
 30
0.0
 11
475.60354863579
 21
255.2957280873676
 31
0.0
  0
LINE
  5
21DD
330
19
100
AcDbEntity
  8
SEIHIN
100
AcDbLine
 10
476.1082086357901
 20
257.7957270873675
 30
0.0
 11
377.2839906357899
 21
257.7957270873675
 31
0.0
  0
LINE
  5
21DE
330
19
100
AcDbEntity
  8
SEIHIN
100
AcDbLine
 10
383.5592766357899
 20
260.8750980873675
 30
0.0
 11
459.4399986357898
 21
260.8750980873675
 31
0.0
  0
LINE
  5
21DF
330
19
100
AcDbEntity
  8
SEIHIN
100
AcDbLine
 10
456.8057286357897
 20
261.5957310873676
 30
0.0
 11
383.5592766357899
 21
261.5957310873676
 31
0.0
  0
LINE
  5
21E0
330
19
100
AcDbEntity
  8
SEIHIN
100
AcDbLine
 10
383.5592766357899
 20
262.5957300873675
 30
0.0
 11
460.7096886357894
 21
262.5957300873675
 31
0.0
  0
LINE
  5
21E1
330
19
100
AcDbEntity
  8
SEIHIN
100
AcDbLine
 10
462.0094686357901
 20
259.8957300873675
 30
0.0
 11
383.5592766357899
 21
259.8957300873675
 31
0.0
  0
ARC
  5
21E2
330
19
100
AcDbEntity
  8
SEIHIN
100
AcDbCircle
 10
460.6444386357898
 20
354.2957280873675
 30
0.0
 40
99.999999
100
AcDbArc
 50
211.412849999997
 51
246.4913599999945
  0
ARC
  5
21E3
330
19
100
AcDbEntity
  8
SEIHIN
100
AcDbCircle
 10
460.6444386357898
 20
354.2957280873675
 30
0.0
 40
99.0
100
AcDbArc
 50
210.1011200000008
 51
247.8595200000004
  0
ARC
  5
21E4
330
19
100
AcDbEntity
  8
SEIHIN
100
AcDbCircle
 10
476.1082086357901
 20
371.3957280873676
 30
0.0
 40
111.499998
100
AcDbArc
 50
200.271680000003
 51
257.3653700000083
  0
ARC
  5
21E5
330
19
100
AcDbEntity
  8
SEIHIN
100
AcDbCircle
 10
476.1082086357901
 20
371.3957280873676
 30
0.0
 40
115.5
100
AcDbArc
 50
207.0380199999946
 51
250.3887099999997
  0
LINE
  5
21E6
330
19
100
AcDbEntity
  8
SEIHIN
100
AcDbLine
 10
368.8034286357901
 20
257.8006230873675
 30
0.0
 11
354.5605416357898
 21
372.8571540873675
 31
0.0
  0
LINE
  5
21E7
330
19
100
AcDbEntity
  8
SEIHIN
100
AcDbLine
 10
378.7956396357899
 20
265.8060390873675
 30
0.0
 11
365.1339426357899
 21
376.1676180873676
 31
0.0
  0
LINE
  5
21E8
330
19
100
AcDbEntity
  8
SEIHIN
100
AcDbLine
 10
358.4529186357899
 20
378.8571540873675
 30
0.0
 11
373.31428863579
 21
258.8043210873675
 31
0.0
  0
LINE
  5
21E9
330
19
100
AcDbEntity
  8
SEIHIN
100
AcDbLine
 10
375.7953546357898
 20
259.1114520873675
 30
0.0
 11
360.6082321045405
 21
381.7957290873676
 31
0.0
  0
LINE
  5
21EA
330
19
100
AcDbEntity
  8
SEIHIN
100
AcDbLine
 10
366.1339716357902
 20
376.2290430873675
 30
0.0
 11
379.7880576357901
 21
265.9288890873675
 31
0.0
  0
LINE
  5
21EB
330
19
100
AcDbEntity
  8
SEIHIN
100
AcDbLine
 10
363.9570666357899
 20
379.8087750873675
 30
0.0
 11
378.0804636357897
 21
265.7175030873675
 31
0.0
  0
LINE
  5
21EC
330
19
100
AcDbEntity
  8
SEIHIN
100
AcDbLine
 10
377.1085086357897
 20
265.5971880873675
 30
0.0
 11
362.7396126357898
 21
381.6716790873675
 31
0.0
  0
ARC
  5
21ED
330
19
100
AcDbEntity
  8
SEIHIN
100
AcDbCircle
 10
377.2839906357899
 20
259.2957300873675
 30
0.0
 40
3.9999999
100
AcDbArc
 50
187.0567600000018
 51
270.0
  0
ARC
  5
21EE
330
19
100
AcDbEntity
  8
SEIHIN
100
AcDbCircle
 10
376.8420696357898
 20
258.7957290873676
 30
0.0
 40
8.100000000000001
100
AcDbArc
 50
187.0567600000018
 51
270.0
  0
ARC
  5
21EF
330
19
100
AcDbEntity
  8
SEIHIN
100
AcDbCircle
 10
383.5592736357898
 20
266.3957280873676
 30
0.0
 40
3.7999998
100
AcDbArc
 50
187.0567600000018
 51
270.0
  0
ARC
  5
21F0
330
19
100
AcDbEntity
  8
SEIHIN
100
AcDbCircle
 10
377.2839906357899
 20
259.2957300873675
 30
0.0
 40
1.5
100
AcDbArc
 50
187.0567600000018
 51
270.0
  0
ARC
  5
21F1
330
19
100
AcDbEntity
  8
SEIHIN
100
AcDbCircle
 10
383.5592736357898
 20
266.3957280873676
 30
0.0
 40
4.8
100
AcDbArc
 50
187.0567600000018
 51
270.0
  0
ARC
  5
21F2
330
19
100
AcDbEntity
  8
SEIHIN
100
AcDbCircle
 10
383.5592736357898
 20
266.3957280873676
 30
0.0
 40
5.520633
100
AcDbArc
 50
187.0567600000018
 51
270.0
  0
ARC
  5
21F3
330
19
100
AcDbEntity
  8
SEIHIN
100
AcDbCircle
 10
383.5592736357898
 20
266.3957280873676
 30
0.0
 40
6.4999998
100
AcDbArc
 50
187.0567600000018
 51
270.0
  0
ARC
  5
21F4
330
19
100
AcDbEntity
  8
SEIHIN
100
AcDbCircle
 10
357.9566813111732
 20
378.7957022816367
 30
0.0
 40
0.500027805997373
100
AcDbArc
 50
7.059313470173529
 51
89.998129440695
  0
LINE
  5
21F5
330
19
100
AcDbEntity
  8
SEIHIN
100
AcDbLine
 10
347.4582306357901
 20
409.7957280873676
 30
0.0
 11
360.4582266357902
 21
409.7957280873676
 31
0.0
  0
LINE
  5
21F6
330
19
100
AcDbEntity
  8
SEIHIN
100
AcDbLine
 10
360.4582266357902
 20
408.7957290873675
 30
0.0
 11
346.9183754609334
 21
408.7957290873675
 31
0.0
  0
LINE
  5
21F7
330
19
100
AcDbEntity
  8
SEIHIN
100
AcDbLine
 10
359.7243846357901
 20
381.7957290873676
 30
0.0
 11
346.9582326357899
 21
381.7957290873676
 31
0.0
  0
LINE
  5
21F8
330
19
100
AcDbEntity
  8
SEIHIN
100
AcDbLine
 10
346.9582326357899
 20
386.7957300873675
 30
0.0
 11
358.60822863579
 21
386.7957300873675
 31
0.0
  0
LINE
  5
21F9
330
19
100
AcDbEntity
  8
SEIHIN
100
AcDbLine
 10
354.3436313457123
 20
373.1928935772473
 30
0.0
 11
358.2359993457121
 21
379.1928935772473
 31
0.0
  0
ARC
  5
21FA
330
19
100
AcDbEntity
  8
SEIHIN
100
AcDbCircle
 10
346.9582232873708
 20
387.295724945747
 30
0.0
 40
0.4999948584668346
100
AcDbArc
 50
191.2493808114277
 51
270.0010712609272
  0
LINE
  5
21FB
330
19
100
AcDbEntity
  8
SEIHIN
100
AcDbLine
 10
355.7524806357901
 20
386.7957300873675
 30
0.0
 11
346.4582226357902
 21
398.4957432590884
 31
0.0
  0
LINE
  5
21FC
330
19
100
AcDbEntity
  8
SEIHIN
100
AcDbLine
 10
354.0643326357899
 20
373.2957300873676
 30
0.0
 11
341.7430356357899
 21
373.2957300873676
 31
0.0
  0
LINE
  5
21FD
330
19
100
AcDbEntity
  8
SEIHIN
100
AcDbLine
 10
341.3972900078006
 20
373.4115108889337
 30
0.0
 11
344.0869520078003
 21
379.4115108889337
 31
0.0
  0
ARC
  5
21FE
330
19
100
AcDbEntity
  8
SEIHIN
100
AcDbCircle
 10
341.7430353611221
 20
373.7957184962034
 30
0.0
 40
0.4999893663490045
100
AcDbArc
 50
182.9987362722822
 51
267.7081133721746
  0
ARC
  5
21FF
330
19
100
AcDbEntity
  8
SEIHIN
100
AcDbCircle
 10
354.0643275802776
 20
372.7957287281872
 30
0.0
 40
0.5000013592059318
100
AcDbArc
 50
8.617208867423954
 51
89.99942068255929
  0
ARC
  5
2200
330
19
100
AcDbEntity
  8
SEIHIN
100
AcDbCircle
 10
344.4326990259669
 20
379.79571648643
 30
0.0
 40
0.4999863991750321
100
AcDbArc
 50
183.0666881596781
 51
270.0012158292608
  0
ARC
  5
2201
330
19
100
AcDbEntity
  8
SEIHIN
100
AcDbCircle
 10
346.9582296357898
 20
382.2957300873675
 30
0.0
 40
0.4999998000000002
100
AcDbArc
 50
180.0
 51
270.0
  0
LINE
  5
2202
330
19
100
AcDbEntity
  8
SEIHIN
100
AcDbLine
 10
344.4327096357901
 20
379.2957300873676
 30
0.0
 11
357.95669763579
 21
379.2957300873676
 31
0.0
  0
ARC
  5
2203
330
19
100
AcDbEntity
  8
SEIHIN
100
AcDbCircle
 10
346.9582309802763
 20
408.2957180658568
 30
0.0
 40
0.5000083445352351
100
AcDbArc
 50
94.56231862958086
 51
179.9991954075608
  0
ARC
  5
2204
330
19
100
AcDbEntity
  8
SEIHIN
100
AcDbCircle
 10
347.4546825152956
 20
414.5511512347208
 30
0.0
 40
4.755424471016416
100
AcDbArc
 50
265.9183824602738
 51
270.0427495693967
  0
ARC
  5
2205
330
19
100
AcDbEntity
  8
SEIHIN
100
AcDbCircle
 10
346.9298846079195
 20
408.6645328021383
 30
0.0
 40
1.15833821803095
100
AcDbArc
 50
80.74374699542175
 51
98.64685092786958
  0
ARC
  5
2206
330
19
100
AcDbEntity
  8
SEIHIN
100
AcDbCircle
 10
346.8246641826908
 20
409.4478013803334
 30
0.0
 40
0.368409334494894
100
AcDbArc
 50
100.7834587439011
 51
174.0754560637699
  0
ARC
  5
2207
330
19
100
AcDbEntity
  8
SEIHIN
100
AcDbCircle
 10
346.9249836357898
 20
408.6695910873674
 30
0.0
 40
1.999999799999999
100
AcDbArc
 50
290.4575999999991
 51
2.999999999999731
  0
LINE
  5
2208
330
19
100
AcDbEntity
  8
0
100
AcDbLine
 10
348.9211176357898
 20
408.7957290873675
 30
0.0
 11
348.9222456357901
 21
408.7742610873675
 31
0.0
  0
LINE
  5
2209
330
19
100
AcDbEntity
  8
SEIHIN
100
AcDbLine
 10
347.0248416357899
 20
406.7643240873676
 30
0.0
 11
346.9184586357901
 21
408.7941420873676
 31
0.0
  0
LINE
  5
220A
330
19
100
AcDbEntity
  8
SEIHIN
100
AcDbLine
 10
347.6240136357901
 20
406.7957280873676
 30
0.0
 11
347.0248416357899
 21
406.7643240873676
 31
0.0
  0
ARC
  5
220B
330
19
100
AcDbEntity
  8
SEIHIN
100
AcDbCircle
 10
358.60822863579
 20
384.7957290873675
 30
0.0
 40
1.999999799999999
100
AcDbArc
 50
0.0
 51
90.0
  0
LINE
  5
220C
330
19
100
AcDbEntity
  8
SEIHIN
100
AcDbLine
 10
365.48427363579
 20
381.4773750873675
 30
0.0
 11
366.1339711785221
 21
376.2290467812626
 31
0.0
  0
LINE
  5
220D
330
19
100
AcDbEntity
  8
SEIHIN
100
AcDbLine
 10
365.1339426357899
 20
376.1676180873676
 30
0.0
 11
364.8196446357901
 21
378.1540740873675
 31
0.0
  0
ARC
  5
220E
330
19
100
AcDbEntity
  8
SEIHIN
100
AcDbCircle
 10
361.5419623674224
 20
377.7217968159516
 30
0.0
 40
3.306064834777576
100
AcDbArc
 50
7.513096553919191
 51
25.49429117613673
  0
ARC
  5
220F
330
19
100
AcDbEntity
  8
SEIHIN
100
AcDbCircle
 10
365.3261323137621
 20
378.6319265393929
 30
0.0
 40
0.5128903361405968
100
AcDbArc
 50
358.0142141264822
 51
89.49669697559071
  0
ARC
  5
2210
330
19
100
AcDbEntity
  8
SEIHIN
100
AcDbCircle
 10
364.9820363195067
 20
381.4155053664416
 30
0.0
 40
0.5060337777610576
100
AcDbArc
 50
7.022783339813834
 51
48.71007002289148
  0
ARC
  5
2211
330
19
100
AcDbEntity
  8
SEIHIN
100
AcDbCircle
 10
359.7243846357901
 20
380.7957300873675
 30
0.0
 40
0.9999998999999998
100
AcDbArc
 50
7.056763099997769
 51
90.0
  0
LINE
  5
2212
330
19
100
AcDbEntity
  8
SEIHIN
100
AcDbLine
 10
364.5261096357899
 20
379.1447970873675
 30
0.0
 11
363.9570666357899
 21
379.8087750873675
 31
0.0
  0
LINE
  5
2213
330
19
100
AcDbEntity
  8
SEIHIN
100
AcDbLine
 10
364.5261096357899
 20
379.1447970873675
 30
0.0
 11
365.33063763579
 21
379.1447970873675
 31
0.0
  0
LINE
  5
2214
330
19
100
AcDbEntity
  8
SEIHIN
100
AcDbLine
 10
363.9570666357899
 20
379.8087750873675
 30
0.0
 11
362.7396126357898
 21
381.6716790873675
 31
0.0
  0
LINE
  5
2215
330
19
100
AcDbEntity
  8
SEIHIN
100
AcDbLine
 10
360.6235858499157
 20
381.6716790873676
 30
0.0
 11
362.7396126357898
 21
381.6716790873675
 31
0.0
  0
LINE
  5
2216
330
19
100
AcDbEntity
  8
SEIHIN
100
AcDbLine
 10
365.3159526357899
 20
381.7957290873676
 30
0.0
 11
360.6082296357899
 21
381.7957290873676
 31
0.0
  0
LINE
  5
2217
330
19
100
AcDbEntity
  8
SEIHIN
100
AcDbLine
 10
360.6082296357899
 20
384.7957320873675
 30
0.0
 11
360.6082296357899
 21
381.7957290873676
 31
0.0
  0
LINE
  5
2218
330
19
100
AcDbEntity
  8
SEIHIN
100
AcDbLine
 10
365.6377780425714
 20
376.1676180873675
 30
0.0
 11
365.1339426357899
 21
376.1676180873676
 31
0.0
  0
LINE
  5
2219
330
19
100
AcDbEntity
  8
SEIHIN
100
AcDbLine
 10
365.6378102519647
 20
376.1676180873676
 30
0.0
 11
366.1339711785221
 21
376.2290467812626
 31
0.0
  0
ARC
  5
221A
330
19
100
AcDbEntity
  8
SEIHIN
100
AcDbCircle
 10
360.4582195091547
 20
408.2957239607818
 30
0.0
 40
0.5000051266365789
100
AcDbArc
 50
0.0001290958993481
 51
89.99918335611447
  0
ARC
  5
221B
330
19
100
AcDbEntity
  8
SEIHIN
100
AcDbCircle
 10
360.4518391299206
 20
409.2893704499108
 30
0.0
 40
0.5063979238128379
100
AcDbArc
 50
359.5987478271167
 51
89.27727422227652
  0
ARC
  5
221C
330
19
100
AcDbEntity
  8
SEIHIN
100
AcDbCircle
 10
362.45822763579
 20
405.7957290873676
 30
0.0
 40
0.4999998000000002
100
AcDbArc
 50
270.0
 51
0.0
  0
LINE
  5
221D
330
19
100
AcDbEntity
  8
SEIHIN
100
AcDbLine
 10
360.9582246357899
 20
409.2858240873674
 30
0.0
 11
360.9582246357899
 21
405.2957310873676
 31
0.0
  0
LINE
  5
221E
330
19
100
AcDbEntity
  8
SEIHIN
100
AcDbLine
 10
362.45822763579
 20
405.2957310873676
 30
0.0
 11
360.9582246357899
 21
405.2957310873676
 31
0.0
  0
LINE
  5
221F
330
19
100
AcDbEntity
  8
0
100
AcDbLine
 10
362.4595692750954
 20
405.2957310873676
 30
0.0
 11
362.45822763579
 21
405.2957310873676
 31
0.0
  0
LINE
  5
2220
330
19
100
AcDbEntity
  8
0
100
AcDbLine
 10
362.9582226357902
 20
405.7957290873676
 30
0.0
 11
362.9582226357902
 21
405.7935382028647
 31
0.0
  0
LINE
  5
2221
330
19
100
AcDbEntity
  8
CENTER_L
  6
CENTER
 48
5.0
100
AcDbLine
 10
476.1082086357901
 20
230.3762588684344
 30
0.0
 11
476.1082086357901
 21
317.2222175544898
 31
0.0
  0
LINE
  5
2222
330
19
100
AcDbEntity
  8
SEIHIN
100
AcDbLine
 10
490.2069786357901
 20
259.8957300873675
 30
0.0
 11
462.0094686357901
 21
259.8957300873675
 31
0.0
  0
ARC
  5
2223
330
19
100
AcDbEntity
  8
SEIHIN
100
AcDbCircle
 10
476.1082086357901
 20
371.3957280873676
 30
0.0
 40
111.499998
100
AcDbArc
 50
262.2686000000099
 51
277.7313899999916
  0
ARC
  5
2224
330
19
100
AcDbEntity
  8
SEIHIN
100
AcDbCircle
 10
458.5396675921279
 20
260.9681523431273
 30
0.0
 40
0.5311243392467492
100
AcDbArc
 50
61.27015254841769
 51
84.74000023360925
  0
ARC
  5
2225
330
19
100
AcDbEntity
  8
SEIHIN
100
AcDbCircle
 10
457.0126327156722
 20
249.1840482057575
 30
0.0
 40
12.41340731837648
100
AcDbArc
 50
82.70734675958427
 51
90.95503830737909
  0
ARC
  5
2226
330
19
100
AcDbEntity
  8
SEIHIN
100
AcDbCircle
 10
460.7101112443115
 20
262.0922708429715
 30
0.0
 40
0.5034594217667631
100
AcDbArc
 50
37.74678849511774
 51
90.04809461594899
  0
ARC
  5
2227
330
19
100
AcDbEntity
  8
SEIHIN
100
AcDbCircle
 10
458.2959187070368
 20
262.0966822756973
 30
0.0
 40
0.4990508447892199
100
AcDbArc
 50
359.8902204258103
 51
89.80023923970954
  0
ARC
  5
2228
330
19
100
AcDbEntity
  8
SEIHIN
100
AcDbCircle
 10
463.322586837518
 20
267.0391852187871
 30
0.0
 40
7.284947584432702
100
AcDbArc
 50
237.7943072892851
 51
258.2179556085961
  0
ARC
  5
2229
330
19
100
AcDbEntity
  8
SEIHIN
100
AcDbCircle
 10
462.1173151289831
 20
260.8990626149555
 30
0.0
 40
1.009111999240067
100
AcDbArc
 50
180.1892727558556
 51
263.8649301832943
  0
LINE
  5
222A
330
19
100
AcDbEntity
  8
SEIHIN
100
AcDbLine
 10
459.4159686357897
 20
260.8957290873675
 30
0.0
 11
458.7949686357901
 21
261.4338930873675
 31
0.0
  0
LINE
  5
222B
330
19
100
AcDbEntity
  8
SEIHIN
100
AcDbLine
 10
456.8057286357897
 20
261.5957310873676
 30
0.0
 11
456.8057286357897
 21
262.5957300873675
 31
0.0
  0
LINE
  5
222C
330
19
100
AcDbEntity
  8
SEIHIN
100
AcDbLine
 10
458.7949686357901
 20
262.0957260873675
 30
0.0
 11
458.7949686357901
 21
261.4338930873675
 31
0.0
  0
LINE
  5
222D
330
19
100
AcDbEntity
  8
SEIHIN
100
AcDbLine
 10
459.4159686357897
 20
260.8957290873675
 30
0.0
 11
461.10820863579
 21
260.8957290873675
 31
0.0
  0
LINE
  5
222E
330
19
100
AcDbEntity
  8
SEIHIN
100
AcDbLine
 10
461.10820863579
 20
262.4004750873675
 30
0.0
 11
461.10820863579
 21
260.8957290873675
 31
0.0
  0
LINE
  5
222F
330
19
100
AcDbEntity
  8
SEIHIN
100
AcDbLine
 10
476.1082086357901
 20
255.7957260873675
 30
0.0
 11
475.60354863579
 21
255.2957280873676
 31
0.0
  0
LINE
  5
2230
330
19
100
AcDbEntity
  8
SEIHIN
100
AcDbLine
 10
476.1082086357901
 20
255.7957260873675
 30
0.0
 11
476.1082086357901
 21
257.7957270873675
 31
0.0
  0
LINE
  5
2231
330
19
100
AcDbEntity
  8
SEIHIN
100
AcDbLine
 10
494.6935386357917
 20
261.5837220873676
 30
0.0
 11
495.4106886357899
 21
261.5957310873676
 31
0.0
  0
ARC
  5
2232
330
19
100
AcDbEntity
  8
SEIHIN
100
AcDbCircle
 10
495.1091327355643
 20
248.9451404040564
 30
0.0
 40
12.64541282131566
100
AcDbArc
 50
91.88337675756075
 51
95.83614157309211
  0
ARC
  5
2233
330
19
100
AcDbEntity
  8
SEIHIN
100
AcDbCircle
 10
493.9151597323493
 20
260.188335564083
 30
0.0
 40
1.339826320427789
100
AcDbArc
 50
93.93139419040926
 51
111.621072570791
  0
ARC
  5
2234
330
19
100
AcDbEntity
  8
SEIHIN
100
AcDbCircle
 10
489.160875449329
 20
266.520550718617
 30
0.0
 40
6.70399171228145
100
AcDbArc
 50
279.6234084681281
 51
302.6371205313933
  0
ARC
  5
2235
330
19
100
AcDbEntity
  8
SEIHIN
100
AcDbCircle
 10
490.1080439141192
 20
260.8961156009697
 30
0.0
 40
1.000385528860174
100
AcDbArc
 50
270.0100069564021
 51
358.796160682769
  0
ARC
  5
2236
330
19
100
AcDbEntity
  8
SEIHIN
100
AcDbCircle
 10
493.9201247046034
 20
262.0970839596569
 30
0.0
 40
0.4986479176339415
100
AcDbArc
 50
90.15351752820242
 51
180.1560228062719
  0
ARC
  5
2237
330
19
100
AcDbEntity
  8
SEIHIN
100
AcDbCircle
 10
491.5065093078347
 20
262.091855978608
 30
0.0
 40
0.5038741704460551
100
AcDbArc
 50
89.97164879452382
 51
142.2300600144647
  0
LINE
  5
2238
330
19
100
AcDbEntity
  8
SEIHIN
100
AcDbLine
 10
493.4214786357897
 20
261.4338930873675
 30
0.0
 11
493.4214786357897
 21
262.0957260873675
 31
0.0
  0
LINE
  5
2239
330
19
100
AcDbEntity
  8
SEIHIN
100
AcDbLine
 10
493.4214786357897
 20
261.4338930873675
 30
0.0
 11
492.8004486357899
 21
260.8957290873675
 31
0.0
  0
LINE
  5
223A
330
19
100
AcDbEntity
  8
SEIHIN
100
AcDbLine
 10
491.10820863579
 20
260.8957290873675
 30
0.0
 11
491.10820863579
 21
262.4004750873675
 31
0.0
  0
LINE
  5
223B
330
19
100
AcDbEntity
  8
SEIHIN
100
AcDbLine
 10
340.3308396357897
 20
411.2957280873676
 30
0.0
 11
362.4568859964465
 21
411.2957280873675
 31
0.0
  0
ARC
  5
223C
330
19
100
AcDbEntity
  8
SEIHIN
100
AcDbCircle
 10
340.3308526634309
 20
410.295714580527
 30
0.0
 40
1.000013506925464
100
AcDbArc
 50
90.00074641876237
 51
182.9989001490533
  0
ARC
  5
223D
330
19
100
AcDbEntity
  8
SEIHIN
100
AcDbCircle
 10
345.9582235978182
 20
410.7957290494108
 30
0.0
 40
0.499999037973046
100
AcDbArc
 50
0.0001189413093388
 51
89.99953728161168
  0
ARC
  5
223E
330
19
100
AcDbEntity
  8
SEIHIN
100
AcDbCircle
 10
343.3349622650798
 20
410.2957249477656
 30
0.0
 40
1.000003139608675
100
AcDbArc
 50
90.00020794234536
 51
182.9246552854097
  0
ARC
  5
223F
330
19
100
AcDbEntity
  8
SEIHIN
100
AcDbCircle
 10
362.45822763579
 20
410.7957300873676
 30
0.0
 40
0.4999998000000002
100
AcDbArc
 50
0.0
 51
90.0
  0
LINE
  5
2240
330
19
100
AcDbEntity
  8
SEIHIN
100
AcDbLine
 10
779.69839863579
 20
381.7957290873675
 30
0.0
 11
779.69839863579
 21
410.7957300873676
 31
0.0
  0
LINE
  5
2241
330
19
100
AcDbEntity
  8
SEIHIN
100
AcDbLine
 10
604.75819863579
 20
409.7957280873676
 30
0.0
 11
604.75819863579
 21
411.2957280873676
 31
0.0
  0
LINE
  5
2242
330
19
100
AcDbEntity
  8
SEIHIN
100
AcDbLine
 10
605.7582186357899
 20
410.7957300873676
 30
0.0
 11
605.7582186357899
 21
382.2957270873676
 31
0.0
  0
LINE
  5
2243
330
19
100
AcDbEntity
  8
SEIHIN
100
AcDbLine
 10
608.2830486357898
 20
379.7695620873675
 30
0.0
 11
609.8801286357902
 21
410.2433970873676
 31
0.0
  0
LINE
  5
2244
330
19
100
AcDbEntity
  8
SEIHIN
100
AcDbLine
 10
589.2582186357899
 20
405.7957290873676
 30
0.0
 11
589.2582186357899
 21
410.7957300873676
 31
0.0
  0
LINE
  5
2245
330
19
100
AcDbEntity
  8
SEIHIN
100
AcDbLine
 10
612.88423863579
 20
410.2433970873676
 30
0.0
 11
610.97269863579
 21
373.7695620873675
 31
0.0
  0
LINE
  5
2246
330
19
100
AcDbEntity
  8
STOPPER
100
AcDbLine
 10
613.0648686357899
 20
373.5648900873675
 30
0.0
 11
614.98684863579
 21
410.2387200873675
 31
0.0
  0
LINE
  5
2247
330
19
100
AcDbEntity
  8
STOPPER
100
AcDbLine
 10
611.06761863579
 20
373.6695630873676
 30
0.0
 11
612.9895986357901
 21
410.3433930873675
 31
0.0
  0
LINE
  5
2248
330
19
100
AcDbEntity
  8
SEIHIN
100
AcDbLine
 10
587.0824986357901
 20
376.1676180873676
 30
0.0
 11
573.42079863579
 21
265.8060390873675
 31
0.0
  0
LINE
  5
2249
330
19
100
AcDbEntity
  8
SEIHIN
100
AcDbLine
 10
597.6559086357902
 20
372.8571540873675
 30
0.0
 11
583.4130186357902
 21
257.8006230873675
 31
0.0
  0
LINE
  5
224A
330
19
100
AcDbEntity
  8
SEIHIN
100
AcDbLine
 10
591.4996386357898
 20
380.9185800873675
 30
0.0
 11
576.4210986357902
 21
259.1114520873675
 31
0.0
  0
LINE
  5
224B
330
19
100
AcDbEntity
  8
SEIHIN
100
AcDbLine
 10
578.9021586357899
 20
258.8043210873675
 30
0.0
 11
593.7635286357899
 21
378.8571540873675
 31
0.0
  0
LINE
  5
224C
330
19
100
AcDbEntity
  8
SEIHIN
100
AcDbLine
 10
572.42839863579
 20
265.9288890873675
 30
0.0
 11
586.0824786357897
 21
376.2290430873675
 31
0.0
  0
LINE
  5
224D
330
19
100
AcDbEntity
  8
SEIHIN
100
AcDbLine
 10
574.13596863579
 20
265.7175030873675
 30
0.0
 11
588.25936863579
 21
379.8087750873675
 31
0.0
  0
LINE
  5
224E
330
19
100
AcDbEntity
  8
SEIHIN
100
AcDbLine
 10
589.4768286357898
 20
381.6716790873675
 30
0.0
 11
575.1079386357901
 21
265.5971880873675
 31
0.0
  0
ARC
  5
224F
330
19
100
AcDbEntity
  8
SEIHIN
100
AcDbCircle
 10
491.5719786357899
 20
354.2957280873675
 30
0.0
 40
99.999999
100
AcDbArc
 50
293.5086299999884
 51
328.5871400000018
  0
ARC
  5
2250
330
19
100
AcDbEntity
  8
SEIHIN
100
AcDbCircle
 10
491.5719786357899
 20
354.2957280873675
 30
0.0
 40
99.0
100
AcDbArc
 50
292.1404700000106
 51
329.8988700000056
  0
ARC
  5
2251
330
19
100
AcDbEntity
  8
SEIHIN
100
AcDbCircle
 10
568.6571586357899
 20
266.3957280873676
 30
0.0
 40
4.8
100
AcDbArc
 50
270.0
 51
352.9432299999985
  0
ARC
  5
2252
330
19
100
AcDbEntity
  8
SEIHIN
100
AcDbCircle
 10
568.6571586357899
 20
266.3957280873676
 30
0.0
 40
5.520633
100
AcDbArc
 50
270.0
 51
352.9432299999985
  0
ARC
  5
2253
330
19
100
AcDbEntity
  8
SEIHIN
100
AcDbCircle
 10
568.6571586357899
 20
266.3957280873676
 30
0.0
 40
3.7999998
100
AcDbArc
 50
270.0
 51
352.9432299999985
  0
ARC
  5
2254
330
19
100
AcDbEntity
  8
SEIHIN
100
AcDbCircle
 10
568.6571586357899
 20
266.3957280873676
 30
0.0
 40
6.4999998
100
AcDbArc
 50
270.0
 51
352.9432299999985
  0
ARC
  5
2255
330
19
100
AcDbEntity
  8
SEIHIN
100
AcDbCircle
 10
574.9324386357898
 20
259.2957300873675
 30
0.0
 40
1.5
100
AcDbArc
 50
270.0
 51
352.9432299999985
  0
ARC
  5
2256
330
19
100
AcDbEntity
  8
SEIHIN
100
AcDbCircle
 10
574.9324386357898
 20
259.2957300873675
 30
0.0
 40
3.9999999
100
AcDbArc
 50
268.2260500000049
 51
352.9432299999985
  0
ARC
  5
2257
330
19
100
AcDbEntity
  8
SEIHIN
100
AcDbCircle
 10
575.3743686357897
 20
258.7957290873676
 30
0.0
 40
8.100000000000001
100
AcDbArc
 50
270.0
 51
352.9432299999985
  0
LINE
  5
2258
330
19
100
AcDbEntity
  8
SEIHIN
100
AcDbLine
 10
588.25936863579
 20
379.8087750873675
 30
0.0
 11
587.6903286357901
 21
379.1447970873675
 31
0.0
  0
LINE
  5
2259
330
19
100
AcDbEntity
  8
SEIHIN
100
AcDbLine
 10
586.9004886357897
 20
381.7957290873676
 30
0.0
 11
592.4907269953733
 21
381.7957290873676
 31
0.0
  0
LINE
  5
225A
330
19
100
AcDbEntity
  8
SEIHIN
100
AcDbLine
 10
587.5565886357899
 20
378.8212710873675
 30
0.0
 11
587.6903286357901
 21
379.1447970873675
 31
0.0
  0
LINE
  5
225B
330
19
100
AcDbEntity
  8
SEIHIN
100
AcDbLine
 10
586.0824786357897
 20
376.2290430873675
 30
0.0
 11
586.7321586357897
 21
381.4773750873675
 31
0.0
  0
ARC
  5
225C
330
19
100
AcDbEntity
  8
SEIHIN
100
AcDbCircle
 10
586.8880451788452
 20
378.6341055265255
 30
0.0
 40
0.5106964145256092
100
AcDbArc
 50
90.24979992120581
 51
182.23895098723
  0
LINE
  5
225D
330
19
100
AcDbEntity
  8
SEIHIN
100
AcDbLine
 10
586.0824786357897
 20
376.2290430873675
 30
0.0
 11
586.5786786357898
 21
376.1676180873676
 31
0.0
  0
ARC
  5
225E
330
19
100
AcDbEntity
  8
SEIHIN
100
AcDbCircle
 10
606.6102410668772
 20
374.0480532373687
 30
0.0
 40
19.64243568420751
100
AcDbArc
 50
165.9360106190509
 51
173.8052976334676
  0
ARC
  5
225F
330
19
100
AcDbEntity
  8
SEIHIN
100
AcDbCircle
 10
587.2352795029183
 20
381.4150287482113
 30
0.0
 40
0.5069691045283654
100
AcDbArc
 50
131.3286509773735
 51
172.9359638957026
  0
LINE
  5
2260
330
19
100
AcDbEntity
  8
SEIHIN
100
AcDbLine
 10
586.8858186357901
 20
379.1447970873675
 30
0.0
 11
587.6903286357901
 21
379.1447970873675
 31
0.0
  0
LINE
  5
2261
330
19
100
AcDbEntity
  8
SEIHIN
100
AcDbLine
 10
587.0824986357901
 20
376.1676180873676
 30
0.0
 11
586.5786786357898
 21
376.1676180873676
 31
0.0
  0
ARC
  5
2262
330
19
100
AcDbEntity
  8
STOPPER
100
AcDbCircle
 10
624.6255186357902
 20
370.1957280873675
 30
0.0
 40
27.0
100
AcDbArc
 50
182.4918999999979
 51
218.4167399999963
  0
ARC
  5
2263
330
19
100
AcDbEntity
  8
STOPPER
100
AcDbCircle
 10
624.6255186357902
 20
370.1957280873675
 30
0.0
 40
24.9999999
100
AcDbArc
 50
182.4918999999979
 51
234.252400000012
  0
ARC
  5
2264
330
19
100
AcDbEntity
  8
STOPPER
100
AcDbCircle
 10
604.70053863579
 20
351.2419710873675
 30
0.0
 40
2.4999999
100
AcDbArc
 50
119.4677299999963
 51
327.670250000002
  0
ARC
  5
2265
330
19
100
AcDbEntity
  8
STOPPER
100
AcDbCircle
 10
609.4359186357901
 20
349.0941660873675
 30
0.0
 40
0.9999998999999998
100
AcDbArc
 50
234.252400000012
 51
326.4566299999969
  0
ARC
  5
2266
330
19
100
AcDbEntity
  8
STOPPER
100
AcDbCircle
 10
624.6255186357902
 20
370.1957280873675
 30
0.0
 40
27.0
100
AcDbArc
 50
228.7212300000122
 51
234.252400000012
  0
ARC
  5
2267
330
19
100
AcDbEntity
  8
STOPPER
100
AcDbCircle
 10
609.4359186357901
 20
349.0941660873675
 30
0.0
 40
0.9999998999999998
100
AcDbArc
 50
326.4566299999969
 51
54.25240799999849
  0
ARC
  5
2268
330
19
100
AcDbEntity
  8
SEIHIN
100
AcDbCircle
 10
605.2581875831791
 20
387.2957766127744
 30
0.0
 40
0.5000465258500157
100
AcDbArc
 50
270.0024122270687
 51
348.7457606391124
  0
ARC
  5
2269
330
19
100
AcDbEntity
  8
SEIHIN
100
AcDbCircle
 10
593.6082186357898
 20
384.7957290873675
 30
0.0
 40
1.999999799999999
100
AcDbArc
 50
90.0
 51
180.0
  0
LINE
  5
226A
330
19
100
AcDbEntity
  8
SEIHIN
100
AcDbLine
 10
596.3909586357899
 20
401.9190480873676
 30
0.0
 11
594.23536863579
 21
386.7957300873675
 31
0.0
  0
LINE
  5
226B
330
19
100
AcDbEntity
  8
SEIHIN
100
AcDbLine
 10
605.2582086357902
 20
381.7957290873676
 30
0.0
 11
592.49206863579
 21
381.7957290873676
 31
0.0
  0
LINE
  5
226C
330
19
100
AcDbEntity
  8
SEIHIN
100
AcDbLine
 10
594.2597586357901
 20
379.2957300873676
 30
0.0
 11
607.7837286357898
 21
379.2957300873676
 31
0.0
  0
LINE
  5
226D
330
19
100
AcDbEntity
  8
SEIHIN
100
AcDbLine
 10
605.2582086357902
 20
386.7957300873675
 30
0.0
 11
593.6082186357898
 21
386.7957300873675
 31
0.0
  0
ARC
  5
226E
330
19
100
AcDbEntity
  8
STOPPER
100
AcDbCircle
 10
605.4618486357899
 20
370.6957290873675
 30
0.0
 40
2.4999999
100
AcDbArc
 50
168.4630399999994
 51
11.53695900000176
  0
LINE
  5
226F
330
19
100
AcDbEntity
  8
SEIHIN
100
AcDbLine
 10
610.4734086357898
 20
373.2957300873676
 30
0.0
 11
598.128382485765
 21
373.2957300873676
 31
0.0
  0
LINE
  5
2270
330
19
100
AcDbEntity
  8
STOPPER
100
AcDbLine
 10
601.6472886357901
 20
373.1957310873675
 30
0.0
 11
610.5682986357901
 21
373.1957310873675
 31
0.0
  0
ARC
  5
2271
330
19
100
AcDbEntity
  8
SEIHIN
100
AcDbCircle
 10
598.1520944841563
 20
372.7957427022868
 30
0.0
 40
0.4999841727857826
100
AcDbArc
 50
92.67744047751632
 51
172.1642871619729
  0
ARC
  5
2272
330
19
100
AcDbEntity
  8
SEIHIN
100
AcDbCircle
 10
591.7238531063558
 20
381.0181939730092
 30
0.0
 40
0.6337573428335768
100
AcDbArc
 50
71.51520048978011
 51
87.02831461899506
  0
ARC
  5
2273
330
19
100
AcDbEntity
  8
SEIHIN
100
AcDbCircle
 10
591.2935135777764
 20
376.4576893604159
 30
0.0
 40
5.214024765357847
100
AcDbArc
 50
84.90333187485582
 51
90.21005039370111
  0
ARC
  5
2274
330
19
100
AcDbEntity
  8
SEIHIN
100
AcDbCircle
 10
594.2597502199994
 20
378.7957200909925
 30
0.0
 40
0.5000099964460471
100
AcDbArc
 50
89.99903564070207
 51
172.9424901541251
  0
ARC
  5
2275
330
19
100
AcDbEntity
  8
SEIHIN
100
AcDbCircle
 10
592.49206863579
 20
380.7957300873675
 30
0.0
 40
0.9999998999999998
100
AcDbArc
 50
90.0
 51
172.9432299999985
  0
LINE
  5
2276
330
19
100
AcDbEntity
  8
SEIHIN
100
AcDbLine
 10
591.6082086357901
 20
384.7957320873675
 30
0.0
 11
591.6082086357901
 21
381.7957290873676
 31
0.0
  0
LINE
  5
2277
330
19
100
AcDbEntity
  8
SEIHIN
100
AcDbLine
 10
589.4768286357898
 20
381.6716790873675
 30
0.0
 11
588.25936863579
 21
379.8087750873675
 31
0.0
  0
LINE
  5
2278
330
19
100
AcDbEntity
  8
SEIHIN
100
AcDbLine
 10
589.4768286357898
 20
381.6716790873675
 30
0.0
 11
591.27439863579
 21
381.6716790873675
 31
0.0
  0
LINE
  5
2279
330
19
100
AcDbEntity
  8
STOPPER
100
AcDbLine
 10
601.6472886357901
 20
371.1957300873675
 30
0.0
 11
603.0123486357902
 21
371.1957300873675
 31
0.0
  0
ARC
  5
227A
330
19
100
AcDbEntity
  8
STOPPER
100
AcDbCircle
 10
601.6472886357901
 20
369.1957290873675
 30
0.0
 40
1.999999799999999
100
AcDbArc
 50
90.0
 51
182.4918999999979
  0
ARC
  5
227B
330
19
100
AcDbEntity
  8
STOPPER
100
AcDbCircle
 10
601.6472886357901
 20
369.1957290873675
 30
0.0
 40
3.9999999
100
AcDbArc
 50
90.0
 51
182.4918999999979
  0
LINE
  5
227C
330
19
100
AcDbEntity
  8
SEIHIN
100
AcDbLine
 10
594.0009123603106
 20
379.1383260618567
 30
0.0
 11
597.8932623603107
 21
373.1383260618567
 31
0.0
  0
ARC
  5
227D
330
19
100
AcDbEntity
  8
SEIHIN
100
AcDbCircle
 10
610.4734215422304
 20
373.7956928414409
 30
0.0
 40
0.4999626278124321
100
AcDbArc
 50
272.2888401293122
 51
356.9992274688786
  0
ARC
  5
227E
330
19
100
AcDbEntity
  8
SEIHIN
100
AcDbCircle
 10
607.7837453665658
 20
379.7957195236826
 30
0.0
 40
0.4999894365949722
100
AcDbArc
 50
269.9980827537918
 51
356.9329819381076
  0
ARC
  5
227F
330
19
100
AcDbEntity
  8
SEIHIN
100
AcDbCircle
 10
605.2582086357902
 20
382.2957300873675
 30
0.0
 40
0.4999998000000002
100
AcDbArc
 50
270.0
 51
0.0
  0
ARC
  5
2280
330
19
100
AcDbEntity
  8
STOPPER
100
AcDbCircle
 10
610.5682986357901
 20
373.6957290873675
 30
0.0
 40
0.4999998000000002
100
AcDbArc
 50
270.0
 51
356.999999999997
  0
ARC
  5
2281
330
19
100
AcDbEntity
  8
STOPPER
100
AcDbCircle
 10
610.5682986357901
 20
373.6957290873675
 30
0.0
 40
2.4999999
100
AcDbArc
 50
270.0
 51
356.999999999997
  0
LINE
  5
2282
330
19
100
AcDbEntity
  8
STOPPER
100
AcDbLine
 10
607.9113486357901
 20
371.1957300873675
 30
0.0
 11
610.5682986357901
 21
371.1957300873675
 31
0.0
  0
LINE
  5
2283
330
19
100
AcDbEntity
  8
SEIHIN
100
AcDbLine
 10
608.1653113631928
 20
379.3773830090927
 30
0.0
 11
610.8549613631931
 21
373.3773830090928
 31
0.0
  0
ARC
  5
2284
330
19
100
AcDbEntity
  8
SEIHIN
100
AcDbCircle
 10
605.2980786357898
 20
408.7957290873675
 30
0.0
 40
1.999999799999999
100
AcDbArc
 50
180.0
 51
266.9999999999943
  0
LINE
  5
2285
330
19
100
AcDbEntity
  8
SEIHIN
100
AcDbLine
 10
605.2582086357902
 20
408.7957290873675
 30
0.0
 11
591.7582086357902
 21
408.7957290873675
 31
0.0
  0
LINE
  5
2286
330
19
100
AcDbEntity
  8
SEIHIN
100
AcDbLine
 10
591.7582086357902
 20
409.7957280873676
 30
0.0
 11
604.75819863579
 21
409.7957280873676
 31
0.0
  0
LINE
  5
2287
330
19
100
AcDbEntity
  8
SEIHIN
100
AcDbLine
 10
605.4333616848057
 20
404.4957300873675
 30
0.0
 11
599.3609286357901
 21
404.4957300873675
 31
0.0
  0
ARC
  5
2288
330
19
100
AcDbEntity
  8
SEIHIN
100
AcDbCircle
 10
591.763198822289
 20
409.2907584494482
 30
0.0
 40
0.504994294207244
100
AcDbArc
 50
90.56618714710056
 51
180.5598530993295
  0
ARC
  5
2289
330
19
100
AcDbEntity
  8
SEIHIN
100
AcDbCircle
 10
591.7582026559557
 20
408.2957550663391
 30
0.0
 40
0.4999740210642813
100
AcDbArc
 50
89.99931472583135
 51
180.0034355155923
  0
LINE
  5
228A
330
19
100
AcDbEntity
  8
STOPPER
100
AcDbLine
 10
601.1924286357898
 20
408.7957290873675
 30
0.0
 11
600.96709863579
 21
404.4957300873675
 31
0.0
  0
LINE
  5
228B
330
19
100
AcDbEntity
  8
STOPPER
100
AcDbLine
 10
603.1951986357898
 20
408.7957290873675
 30
0.0
 11
602.96983863579
 21
404.4957300873675
 31
0.0
  0
LINE
  5
228C
330
19
100
AcDbEntity
  8
SEIHIN
100
AcDbLine
 10
591.2582286357901
 20
405.7957290873676
 30
0.0
 11
591.2582286357901
 21
405.2957310873676
 31
0.0
  0
LINE
  5
228D
330
19
100
AcDbEntity
  8
SEIHIN
100
AcDbLine
 10
591.2582286357901
 20
409.2858240873674
 30
0.0
 11
591.2582286357901
 21
405.7957290873676
 31
0.0
  0
ARC
  5
228E
330
19
100
AcDbEntity
  8
SEIHIN
100
AcDbCircle
 10
599.3609286357901
 20
401.4957300873675
 30
0.0
 40
3.0
100
AcDbArc
 50
90.0
 51
171.8880999999996
  0
ARC
  5
228F
330
19
100
AcDbEntity
  8
SEIHIN
100
AcDbCircle
 10
589.7582286357901
 20
405.7957290873676
 30
0.0
 40
0.4999998000000002
100
AcDbArc
 50
180.0
 51
270.0
  0
LINE
  5
2290
330
19
100
AcDbEntity
  8
SEIHIN
100
AcDbLine
 10
591.2582286357901
 20
405.2957310873676
 30
0.0
 11
589.7582286357901
 21
405.2957310873676
 31
0.0
  0
ARC
  5
2291
330
19
100
AcDbEntity
  8
SEIHIN
100
AcDbCircle
 10
605.2581809163132
 20
404.995785464177
 30
0.0
 40
0.5000553775778258
100
AcDbArc
 50
270.0031760663136
 51
348.744577911875
  0
ARC
  5
2292
330
19
100
AcDbEntity
  8
SEIHIN
100
AcDbCircle
 10
605.2582303720746
 20
408.295740823877
 30
0.0
 40
0.4999882639630134
100
AcDbArc
 50
359.9981966865204
 51
90.00249085317824
  0
ARC
  5
2293
330
19
100
AcDbEntity
  8
SEIHIN
100
AcDbCircle
 10
605.391521736798
 20
409.4472350533396
 30
0.0
 40
0.3690140275929248
100
AcDbArc
 50
6.465693296119184
 51
79.19358787969793
  0
ARC
  5
2294
330
19
100
AcDbEntity
  8
SEIHIN
100
AcDbCircle
 10
604.7765140491847
 20
414.13242472144
 30
0.0
 40
4.336735310154753
100
AcDbArc
 50
269.7580209692046
 51
276.3771781270156
  0
LINE
  5
2295
330
19
100
AcDbEntity
  8
SEIHIN
100
AcDbLine
 10
605.2582086357902
 20
409.8225240873675
 30
0.0
 11
605.4607086357901
 21
409.8097050873675
 31
0.0
  0
LINE
  5
2296
330
19
100
AcDbEntity
  8
SEIHIN
100
AcDbLine
 10
605.2979886357897
 20
408.7941420873676
 30
0.0
 11
605.1934086357901
 21
406.7984730873676
 31
0.0
  0
LINE
  5
2297
330
19
100
AcDbEntity
  8
SEIHIN
100
AcDbLine
 10
779.69839863579
 20
255.7957260873674
 30
0.0
 11
779.69839863579
 21
381.7957290873676
 31
0.0
  0
LINE
  5
2298
330
19
100
AcDbEntity
  8
0
100
AcDbLine
 10
603.50815863579
 20
411.2957280873676
 30
0.0
 11
604.84978863579
 21
411.2957280873676
 31
0.0
  0
LINE
  5
2299
330
19
100
AcDbEntity
  8
STOPPER
100
AcDbLine
 10
605.7379386357897
 20
413.3957280873675
 30
0.0
 11
604.2804186357898
 21
413.3957280873675
 31
0.0
  0
LINE
  5
229A
330
19
100
AcDbEntity
  8
STOPPER
100
AcDbLine
 10
611.99098863579
 20
411.3957300873676
 30
0.0
 11
604.2804186357898
 21
411.3957300873676
 31
0.0
  0
LINE
  5
229B
330
19
100
AcDbEntity
  8
SEIHIN
100
AcDbLine
 10
589.7582286357901
 20
411.2957280873676
 30
0.0
 11
604.75819863579
 21
411.2957280873676
 31
0.0
  0
LINE
  5
229C
330
19
100
AcDbEntity
  8
0
100
AcDbLine
 10
600.65182863579
 20
411.2957280873676
 30
0.0
 11
603.50815863579
 21
411.2957280873676
 31
0.0
  0
LINE
  5
229D
330
19
100
AcDbEntity
  8
0
100
AcDbLine
 10
600.65182863579
 20
411.2957280873676
 30
0.0
 11
601.4185986357902
 21
411.2957280873676
 31
0.0
  0
ARC
  5
229E
330
19
100
AcDbEntity
  8
STOPPER
100
AcDbCircle
 10
604.2804186357898
 20
410.3957280873676
 30
0.0
 40
3.0
100
AcDbArc
 50
90.0
 51
162.5423900000004
  0
ARC
  5
229F
330
19
100
AcDbEntity
  8
SEIHIN
100
AcDbCircle
 10
589.7582286357901
 20
410.7957300873676
 30
0.0
 40
0.4999998000000002
100
AcDbArc
 50
90.0
 51
180.0
  0
ARC
  5
22A0
330
19
100
AcDbEntity
  8
SEIHIN
100
AcDbCircle
 10
606.2581875375408
 20
410.7957591864588
 30
0.0
 40
0.4999689025978135
100
AcDbArc
 50
89.99529019462128
 51
180.0033347176298
  0
ARC
  5
22A1
330
19
100
AcDbEntity
  8
SEIHIN
100
AcDbCircle
 10
611.8855718660756
 20
410.2956929987042
 30
0.0
 40
1.000035089021676
100
AcDbArc
 50
357.002402829253
 51
89.99846626217603
  0
ARC
  5
22A2
330
19
100
AcDbEntity
  8
SEIHIN
100
AcDbCircle
 10
608.881469161925
 20
410.2957007746156
 30
0.0
 40
1.000028209822263
100
AcDbArc
 50
357.0019360650781
 51
89.92325594277328
  0
ARC
  5
22A3
330
19
100
AcDbEntity
  8
STOPPER
100
AcDbCircle
 10
611.99098863579
 20
410.3957280873676
 30
0.0
 40
3.0
100
AcDbArc
 50
356.999999999997
 51
90.0
  0
LINE
  5
22A4
330
19
100
AcDbEntity
  8
STOPPER
100
AcDbLine
 10
611.99098863579
 20
413.3957280873675
 30
0.0
 11
610.5334686357901
 21
413.3957280873675
 31
0.0
  0
ARC
  5
22A5
330
19
100
AcDbEntity
  8
STOPPER
100
AcDbCircle
 10
611.99098863579
 20
410.3957280873676
 30
0.0
 40
0.9999998999999998
100
AcDbArc
 50
356.999999999997
 51
90.0
  0
LINE
  5
22A6
330
19
100
AcDbEntity
  8
SEIHIN
100
AcDbLine
 10
604.75819863579
 20
411.2957280873676
 30
0.0
 11
611.8855450936316
 21
411.2957280873676
 31
0.0
  0
ARC
  5
22A7
330
19
100
AcDbEntity
  8
STOPPER
100
AcDbCircle
 10
608.1356886357898
 20
414.1008420873674
 30
0.0
 40
2.4993033
100
AcDbArc
 50
343.6129799999986
 51
196.3870099999974
  0
LINE
  5
22A8
330
19
100
AcDbEntity
  8
SEIHIN
100
AcDbLine
 10
779.69839863579
 20
775.7346739094698
 30
0.0
 11
779.69839863579
 21
908.9810989094701
 31
0.0
  0
DIMENSION
  5
22A9
330
19
100
AcDbEntity
  8
SUNPOU
100
AcDbDimension
  2
*D27
 10
1058.69839863579
 20
595.7429409614532
 30
0.0
 11
924.1983936357899
 21
605.7429409614533
 31
0.0
 70
    32
  3
STANDARD
100
AcDbAlignedDimension
 13
789.6983886357897
 23
642.48823390947
 33
0.0
 14
1058.69839863579
 24
642.46207390947
 34
0.0
100
AcDbRotatedDimension
1001
ACAD
1000
DSTYLE
1002
{
1070
    41
1040
14.0
1070
    42
1040
12.0
1070
    43
1040
28.0
1070
    44
1040
6.0
1070
    73
1070
     0
1070
    74
1070
     0
1070
    77
1070
     3
1070
   140
1040
12.0
1070
   141
1040
150.0
1070
   143
1040
0.03937
1070
   147
1040
4.0
1070
   172
1070
     1
1070
   173
1070
     1
1070
   176
1070
   256
1070
   177
1070
   256
1070
   178
1070
   256
1070
   271
1070
     0
1070
   272
1070
     0
1070
   341
1005
27
1070
     6
1000
OPEN
1070
     7
1000
OPEN
1070
   371
1070
    -1
1070
   372
1070
    -1
1002
}
  0
DIMENSION
  5
22B0
330
19
100
AcDbEntity
  8
SUNPOU
100
AcDbDimension
  2
*D28
 10
1042.698408635789
 20
486.3599185229118
 30
0.0
 11
1000.698408635789
 21
496.3599185229118
 31
0.0
 70
    32
  3
STANDARD
100
AcDbAlignedDimension
 13
1068.698388635789
 23
410.7957300873676
 33
0.0
 14
1042.698408635789
 24
411.2957280873676
 34
0.0
100
AcDbRotatedDimension
1001
ACAD
1000
DSTYLE
1002
{
1070
    41
1040
14.0
1070
    42
1040
12.0
1070
    43
1040
28.0
1070
    44
1040
6.0
1070
    73
1070
     0
1070
    74
1070
     0
1070
    77
1070
     3
1070
   140
1040
12.0
1070
   141
1040
150.0
1070
   143
1040
0.03937
1070
   147
1040
4.0
1070
   172
1070
     1
1070
   173
1070
     1
1070
   176
1070
   256
1070
   177
1070
   256
1070
   178
1070
   256
1070
   271
1070
     0
1070
   272
1070
     0
1070
   341
1005
27
1070
     6
1000
OPEN
1070
     7
1000
OPEN
1070
   371
1070
    -1
1070
   372
1070
    -1
1002
}
  0
DIMENSION
  5
22B1
330
19
100
AcDbEntity
  8
SUNPOU
100
AcDbDimension
  2
*D29
 10
1110.698418635789
 20
519.2950507606737
 30
0.0
 11
1076.69841863579
 21
529.2950507606738
 31
0.0
 70
    32
  3
STANDARD
100
AcDbAlignedDimension
 13
1042.698418635789
 23
411.2957280873676
 33
0.0
 14
1110.698418635789
 24
411.2957280873676
 34
0.0
100
AcDbRotatedDimension
1001
ACAD
1000
DSTYLE
1002
{
1070
    41
1040
14.0
1070
    42
1040
12.0
1070
    43
1040
28.0
1070
    44
1040
6.0
1070
    73
1070
     0
1070
    74
1070
     0
1070
    77
1070
     3
1070
   140
1040
12.0
1070
   141
1040
150.0
1070
   143
1040
0.03937
1070
   147
1040
4.0
1070
   172
1070
     1
1070
   173
1070
     1
1070
   176
1070
   256
1070
   177
1070
   256
1070
   178
1070
   256
1070
   271
1070
     0
1070
   272
1070
     0
1070
   341
1005
27
1070
     6
1000
OPEN
1070
     7
1000
OPEN
1070
   371
1070
    -1
1070
   372
1070
    -1
1002
}
  0
LINE
  5
22B2
330
19
100
AcDbEntity
  8
SEIHIN
100
AcDbLine
 10
1024.698408635789
 20
411.2957280873676
 30
0.0
 11
1048.673418635789
 21
411.2957280873676
 31
0.0
  0
LINE
  5
22B3
330
19
100
AcDbEntity
  8
SEIHIN
100
AcDbLine
 10
1048.698408635789
 20
379.2957300873676
 30
0.0
 11
1024.698408635789
 21
379.2957300873676
 31
0.0
  0
LINE
  5
22B4
330
19
100
AcDbEntity
  8
SEIHIN
100
AcDbLine
 10
1024.698408635789
 20
255.2957280873676
 30
0.0
 11
1048.64734863579
 21
255.2957280873676
 31
0.0
  0
LINE
  5
22B5
330
19
100
AcDbEntity
  8
SEIHIN
  6
PHANTOM
 62
     6
 48
5.0
100
AcDbLine
 10
1042.698408635789
 20
411.2957280873676
 30
0.0
 11
1110.698418635789
 21
411.2957280873676
 31
0.0
  0
LINE
  5
22B6
330
19
100
AcDbEntity
  8
SEIHIN
  6
PHANTOM
 62
     6
 48
5.0
100
AcDbLine
 10
1042.698408635789
 20
255.7957290873675
 30
0.0
 11
1110.698418635789
 21
255.7957290873675
 31
0.0
  0
LINE
  5
22B7
330
19
100
AcDbEntity
  8
SEIHIN
  6
PHANTOM
 62
     6
 48
5.0
100
AcDbLine
 10
1042.698408635789
 20
381.7957290873676
 30
0.0
 11
1110.698418635789
 21
381.7957290873676
 31
0.0
  0
LINE
  5
22B8
330
19
100
AcDbEntity
  8
SEIHIN
100
AcDbLine
 10
843.69841863579
 20
411.2957280873676
 30
0.0
 11
843.69841863579
 21
379.2957267339531
 31
0.0
  0
LINE
  5
22B9
330
19
100
AcDbEntity
  8
SEIHIN
  6
PHANTOM
 62
     6
 48
5.0
100
AcDbLine
 10
1042.698408635789
 20
255.7957290873675
 30
0.0
 11
1042.698408635789
 21
411.2957280873676
 31
0.0
  0
LINE
  5
22BA
330
19
100
AcDbEntity
  8
SEIHIN
100
AcDbLine
 10
860.6983986357899
 20
411.2957280873676
 30
0.0
 11
860.6983986357899
 21
373.2957267339529
 31
0.0
  0
LINE
  5
22BB
330
19
100
AcDbEntity
  8
SEIHIN
100
AcDbLine
 10
1024.698408635789
 20
410.2433970873676
 30
0.0
 11
1024.698408635789
 21
374.7695160873675
 31
0.0
  0
LINE
  5
22BC
330
19
100
AcDbEntity
  8
STOPPER
100
AcDbLine
 10
888.4078386357906
 20
348.0941670873675
 30
0.0
 11
888.40783863579
 21
416.6001480873676
 31
0.0
  0
LINE
  5
22BD
330
19
100
AcDbEntity
  8
STOPPER
100
AcDbLine
 10
903.4078386357901
 20
348.0941670873675
 30
0.0
 11
903.4078386357901
 21
416.6001480873676
 31
0.0
  0
LINE
  5
22BE
330
19
100
AcDbEntity
  8
SEIHIN
100
AcDbLine
 10
799.6984086357898
 20
379.2957300873676
 30
0.0
 11
799.6984086357898
 21
411.2957280873675
 31
0.0
  0
LINE
  5
22BF
330
19
100
AcDbEntity
  8
SEIHIN
100
AcDbLine
 10
789.6984186357899
 20
410.7957300873676
 30
0.0
 11
789.6984186357899
 21
379.7957310873675
 31
0.0
  0
LINE
  5
22C0
330
19
100
AcDbEntity
  8
SEIHIN
100
AcDbLine
 10
951.6983886357902
 20
373.2957300873676
 30
0.0
 11
903.4078386357901
 21
373.2957300873676
 31
0.0
  0
LINE
  5
22C1
330
19
100
AcDbEntity
  8
SEIHIN
100
AcDbLine
 10
934.6984086357897
 20
250.6957290873675
 30
0.0
 11
860.6983986357899
 21
250.6957290873675
 31
0.0
  0
LINE
  5
22C2
330
19
100
AcDbEntity
  8
SEIHIN
100
AcDbLine
 10
860.6983986357899
 20
373.295726733953
 30
0.0
 11
860.6983986357899
 21
250.6957290873675
 31
0.0
  0
LINE
  5
22C3
330
19
100
AcDbEntity
  8
SEIHIN
100
AcDbLine
 10
843.69841863579
 20
379.2957267339531
 30
0.0
 11
843.69841863579
 21
255.2957280873676
 31
0.0
  0
LINE
  5
22C4
330
19
100
AcDbEntity
  8
SEIHIN
100
AcDbLine
 10
799.6984086357898
 20
255.2957280873676
 30
0.0
 11
799.6984086357898
 21
379.2957300873675
 31
0.0
  0
LINE
  5
22C5
330
19
100
AcDbEntity
  8
SEIHIN
100
AcDbLine
 10
789.6984186357899
 20
379.7957310873675
 30
0.0
 11
789.6984186357899
 21
255.7957260873676
 31
0.0
  0
LINE
  5
22C6
330
19
100
AcDbEntity
  8
SEIHIN
100
AcDbLine
 10
843.69841863579
 20
255.2957280873676
 30
0.0
 11
860.6983986357899
 21
250.6957290873675
 31
0.0
  0
LINE
  5
22C7
330
19
100
AcDbEntity
  8
SEIHIN
100
AcDbLine
 10
799.7494686357899
 20
255.2957280873676
 30
0.0
 11
843.69841863579
 21
255.2957280873676
 31
0.0
  0
LINE
  5
22C8
330
19
100
AcDbEntity
  8
SEIHIN
100
AcDbLine
 10
796.3608186357901
 20
255.4638150873675
 30
0.0
 11
799.6984086357898
 21
255.2976450873675
 31
0.0
  0
LINE
  5
22C9
330
19
100
AcDbEntity
  8
SEIHIN
100
AcDbLine
 10
789.6984186357899
 20
255.7957260873675
 30
0.0
 11
796.3608186357901
 21
255.4638150873675
 31
0.0
  0
LINE
  5
22CA
330
19
100
AcDbEntity
  8
SEIHIN
100
AcDbLine
 10
789.6984186357899
 20
255.2957280873676
 30
0.0
 11
799.7494686357899
 21
255.2957280873676
 31
0.0
  0
LINE
  5
22CB
330
19
100
AcDbEntity
  8
SEIHIN
100
AcDbLine
 10
860.6972586357896
 20
373.2961290873676
 30
0.0
 11
843.69727863579
 21
379.2961290873676
 31
0.0
  0
LINE
  5
22CC
330
19
100
AcDbEntity
  8
SEIHIN
100
AcDbLine
 10
843.69841863579
 20
379.2957300873676
 30
0.0
 11
799.6984086357898
 21
379.2957300873676
 31
0.0
  0
LINE
  5
22CD
330
19
100
AcDbEntity
  8
SEIHIN
100
AcDbLine
 10
799.6984086357898
 20
379.2957300873676
 30
0.0
 11
789.6984186357899
 21
379.7957310873675
 31
0.0
  0
LINE
  5
22CE
330
19
100
AcDbEntity
  8
STOPPER
100
AcDbLine
 10
888.40783863579
 20
349.9057650873676
 30
0.0
 11
903.4078386357901
 21
349.9057650873676
 31
0.0
  0
LINE
  5
22CF
330
19
100
AcDbEntity
  8
STOPPER
100
AcDbLine
 10
888.40783863579
 20
348.0941670873675
 30
0.0
 11
903.4078386357901
 21
348.0941670873675
 31
0.0
  0
LINE
  5
22D0
330
19
100
AcDbEntity
  8
STOPPER
100
AcDbLine
 10
888.40783863579
 20
348.5415990873675
 30
0.0
 11
903.4078386357901
 21
348.5415990873675
 31
0.0
  0
LINE
  5
22D1
330
19
100
AcDbEntity
  8
SEIHIN
100
AcDbLine
 10
888.40783863579
 20
373.2957300873676
 30
0.0
 11
860.6983986357899
 21
373.2957300873676
 31
0.0
  0
LINE
  5
22D2
330
19
100
AcDbEntity
  8
STOPPER
100
AcDbLine
 10
888.40783863579
 20
368.1957300873675
 30
0.0
 11
903.4078386357901
 21
368.1957300873675
 31
0.0
  0
LINE
  5
22D3
330
19
100
AcDbEntity
  8
STOPPER
100
AcDbLine
 10
888.40783863579
 20
373.5648900873675
 30
0.0
 11
903.4078386357901
 21
373.5648900873675
 31
0.0
  0
LINE
  5
22D4
330
19
100
AcDbEntity
  8
STOPPER
100
AcDbLine
 10
888.40783863579
 20
371.1957300873675
 30
0.0
 11
903.4078386357901
 21
371.1957300873675
 31
0.0
  0
LINE
  5
22D5
330
19
100
AcDbEntity
  8
SEIHIN
100
AcDbLine
 10
1024.698408635789
 20
373.8571950873676
 30
0.0
 11
1024.698408635789
 21
253.2957300873675
 31
0.0
  0
LINE
  5
22D6
330
19
100
AcDbEntity
  8
SEIHIN
100
AcDbLine
 10
934.6984086357897
 20
250.6957290873675
 30
0.0
 11
934.6984086357897
 21
372.8568900873675
 31
0.0
  0
LINE
  5
22D7
330
19
100
AcDbEntity
  8
SEIHIN
100
AcDbLine
 10
951.6983886357902
 20
373.2957300873676
 30
0.0
 11
951.6983886357902
 21
252.2857260873675
 31
0.0
  0
LINE
  5
22D8
330
19
100
AcDbEntity
  8
SEIHIN
100
AcDbLine
 10
1024.698408635789
 20
253.2957300873675
 30
0.0
 11
951.6983886357902
 21
252.2957280873675
 31
0.0
  0
LINE
  5
22D9
330
19
100
AcDbEntity
  8
SEIHIN
100
AcDbLine
 10
934.6984086357897
 20
250.6957290873675
 30
0.0
 11
951.6983886357902
 21
252.2857260873675
 31
0.0
  0
LINE
  5
22DA
330
19
100
AcDbEntity
  8
SEIHIN
100
AcDbLine
 10
1024.698408635789
 20
374.2957290873675
 30
0.0
 11
951.6983886357902
 21
373.2957300873676
 31
0.0
  0
LINE
  5
22DB
330
19
100
AcDbEntity
  8
SEIHIN
100
AcDbLine
 10
934.7217486357903
 20
373.2957300873676
 30
0.0
 11
934.7175186357899
 21
373.2875640873675
 31
0.0
  0
LINE
  5
22DC
330
19
100
AcDbEntity
  8
SEIHIN
100
AcDbLine
 10
934.7175186357899
 20
373.2875640873675
 30
0.0
 11
934.71340863579
 21
373.2633420873675
 31
0.0
  0
LINE
  5
22DD
330
19
100
AcDbEntity
  8
SEIHIN
100
AcDbLine
 10
934.71340863579
 20
373.2633420873675
 30
0.0
 11
934.7095986357899
 21
373.2238470873675
 31
0.0
  0
LINE
  5
22DE
330
19
100
AcDbEntity
  8
SEIHIN
100
AcDbLine
 10
934.7095986357899
 20
373.2238470873675
 30
0.0
 11
934.7061786357899
 21
373.1703720873675
 31
0.0
  0
LINE
  5
22DF
330
19
100
AcDbEntity
  8
SEIHIN
100
AcDbLine
 10
934.7061786357899
 20
373.1703720873675
 30
0.0
 11
934.70323863579
 21
373.1046600873675
 31
0.0
  0
LINE
  5
22E0
330
19
100
AcDbEntity
  8
SEIHIN
100
AcDbLine
 10
934.70323863579
 20
373.1046600873675
 30
0.0
 11
934.7009286357897
 21
373.0288650873675
 31
0.0
  0
LINE
  5
22E1
330
19
100
AcDbEntity
  8
SEIHIN
100
AcDbLine
 10
934.7009286357897
 20
373.0288650873675
 30
0.0
 11
934.6993086357898
 21
372.9454560873675
 31
0.0
  0
LINE
  5
22E2
330
19
100
AcDbEntity
  8
SEIHIN
100
AcDbLine
 10
934.6993086357898
 20
372.9454560873675
 30
0.0
 11
934.6984086357897
 21
372.8571540873675
 31
0.0
  0
LINE
  5
22E3
330
19
100
AcDbEntity
  8
SEIHIN
100
AcDbLine
 10
934.6984086357897
 20
372.8568900873675
 30
0.0
 11
934.6984086357897
 21
372.8571540873675
 31
0.0
  0
LINE
  5
22E4
330
19
100
AcDbEntity
  8
SEIHIN
100
AcDbLine
 10
1024.698408635789
 20
374.7695160873675
 30
0.0
 11
1024.698408635789
 21
374.2957290873675
 31
0.0
  0
LINE
  5
22E5
330
19
100
AcDbEntity
  8
SEIHIN
100
AcDbLine
 10
1024.698408635789
 20
374.2957290873675
 30
0.0
 11
1024.698408635789
 21
373.8571950873676
 31
0.0
  0
LINE
  5
22E6
330
19
100
AcDbEntity
  8
SEIHIN
100
AcDbLine
 10
903.4078386357901
 20
411.2957280873676
 30
0.0
 11
951.6915486357902
 21
411.2957280873676
 31
0.0
  0
LINE
  5
22E7
330
19
100
AcDbEntity
  8
SEIHIN
100
AcDbLine
 10
799.6984086357898
 20
411.2957280873676
 30
0.0
 11
888.40783863579
 21
411.2957280873676
 31
0.0
  0
LINE
  5
22E8
330
19
100
AcDbEntity
  8
SEIHIN
100
AcDbLine
 10
789.6984186357899
 20
410.7957300873676
 30
0.0
 11
799.69837863579
 21
411.2957280873676
 31
0.0
  0
LINE
  5
22E9
330
19
100
AcDbEntity
  8
SEIHIN
100
AcDbLine
 10
789.6984186357899
 20
411.2957280873676
 30
0.0
 11
799.6984086357898
 21
411.2957280873676
 31
0.0
  0
LINE
  5
22EA
330
19
100
AcDbEntity
  8
STOPPER
100
AcDbLine
 10
903.4078386357901
 20
416.6001480873676
 30
0.0
 11
888.40783863579
 21
416.6001480873676
 31
0.0
  0
LINE
  5
22EB
330
19
100
AcDbEntity
  8
STOPPER
100
AcDbLine
 10
888.40783863579
 20
410.2387200873675
 30
0.0
 11
903.4078386357901
 21
410.2387200873675
 31
0.0
  0
LINE
  5
22EC
330
19
100
AcDbEntity
  8
STOPPER
100
AcDbLine
 10
888.40783863579
 20
413.3957280873675
 30
0.0
 11
903.4078386357901
 21
413.3957280873675
 31
0.0
  0
LINE
  5
22ED
330
19
100
AcDbEntity
  8
SEIHIN
100
AcDbLine
 10
951.6915486357902
 20
411.2957280873676
 30
0.0
 11
1024.698408635789
 21
411.2957280873676
 31
0.0
  0
LINE
  5
22EE
330
19
100
AcDbEntity
  8
SEIHIN
100
AcDbLine
 10
951.6939786357898
 20
411.2313750873676
 30
0.0
 11
951.69277863579
 21
411.2795100873674
 31
0.0
  0
LINE
  5
22EF
330
19
100
AcDbEntity
  8
SEIHIN
100
AcDbLine
 10
951.69277863579
 20
411.2795100873674
 30
0.0
 11
951.6915486357902
 21
411.2957280873676
 31
0.0
  0
LINE
  5
22F0
330
19
100
AcDbEntity
  8
SEIHIN
100
AcDbLine
 10
1024.698408635789
 20
411.2957280873676
 30
0.0
 11
1024.698408635789
 21
410.2433970873676
 31
0.0
  0
LINE
  5
22F1
330
19
100
AcDbEntity
  8
SEIHIN
  6
PHANTOM
 62
     6
 48
5.0
100
AcDbLine
 10
1110.698418635789
 20
255.7957290873675
 30
0.0
 11
1110.698418635789
 21
411.2957280873676
 31
0.0
  0
LINE
  5
22F2
330
19
100
AcDbEntity
  8
SEIHIN
100
AcDbLine
 10
1048.698408635789
 20
379.7695620873675
 30
0.0
 11
1048.698408635789
 21
410.2433970873676
 31
0.0
  0
LINE
  5
22F3
330
19
100
AcDbEntity
  8
SEIHIN
100
AcDbLine
 10
1058.69839863579
 20
411.2957280873675
 30
0.0
 11
1058.69839863579
 21
255.7957290873675
 31
0.0
  0
LINE
  5
22F4
330
19
100
AcDbEntity
  8
SEIHIN
100
AcDbLine
 10
1068.698388635789
 20
255.7957290873675
 30
0.0
 11
1068.698388635789
 21
411.2957280873675
 31
0.0
  0
LINE
  5
22F5
330
19
100
AcDbEntity
  8
SEIHIN
100
AcDbLine
 10
1048.698408635789
 20
255.2957280873676
 30
0.0
 11
1048.698408635789
 21
378.8571540873675
 31
0.0
  0
LINE
  5
22F6
330
19
100
AcDbEntity
  8
SEIHIN
100
AcDbLine
 10
1058.69839863579
 20
257.7957270873675
 30
0.0
 11
1068.698388635789
 21
257.7957270873675
 31
0.0
  0
LINE
  5
22F7
330
19
100
AcDbEntity
  8
SEIHIN
100
AcDbLine
 10
1058.69839863579
 20
259.1114520873675
 30
0.0
 11
1068.698388635789
 21
259.1114520873675
 31
0.0
  0
LINE
  5
22F8
330
19
100
AcDbEntity
  8
SEIHIN
100
AcDbLine
 10
1058.69839863579
 20
255.7957260873675
 30
0.0
 11
1068.698388635789
 21
255.7957260873675
 31
0.0
  0
LINE
  5
22F9
330
19
100
AcDbEntity
  8
SEIHIN
100
AcDbLine
 10
1068.698388635789
 20
255.7957260873675
 30
0.0
 11
1058.69839863579
 21
255.2957280873676
 31
0.0
  0
LINE
  5
22FA
330
19
100
AcDbEntity
  8
SEIHIN
100
AcDbLine
 10
1058.69839863579
 20
255.7957260873675
 30
0.0
 11
1052.035998635789
 21
255.4638150873675
 31
0.0
  0
LINE
  5
22FB
330
19
100
AcDbEntity
  8
SEIHIN
100
AcDbLine
 10
1052.035998635789
 20
255.4638150873675
 30
0.0
 11
1048.698408635789
 21
255.2976450873675
 31
0.0
  0
LINE
  5
22FC
330
19
100
AcDbEntity
  8
SEIHIN
100
AcDbLine
 10
1058.69839863579
 20
255.2957280873676
 30
0.0
 11
1048.698408635789
 21
255.2957280873676
 31
0.0
  0
LINE
  5
22FD
330
19
100
AcDbEntity
  8
SEIHIN
100
AcDbLine
 10
1058.69839863579
 20
381.7957290873676
 30
0.0
 11
1068.698388635789
 21
381.7957290873676
 31
0.0
  0
LINE
  5
22FE
330
19
100
AcDbEntity
  8
SEIHIN
100
AcDbLine
 10
1048.698408635789
 20
379.7689680873675
 30
0.0
 11
1048.698408635789
 21
379.7695620873675
 31
0.0
  0
LINE
  5
22FF
330
19
100
AcDbEntity
  8
SEIHIN
100
AcDbLine
 10
1048.698408635789
 20
379.2957300873676
 30
0.0
 11
1048.700418635789
 21
379.3047930873675
 31
0.0
  0
LINE
  5
2300
330
19
100
AcDbEntity
  8
SEIHIN
100
AcDbLine
 10
1048.700418635789
 20
379.3047930873675
 30
0.0
 11
1048.701888635789
 21
379.3314330873675
 31
0.0
  0
LINE
  5
2301
330
19
100
AcDbEntity
  8
SEIHIN
100
AcDbLine
 10
1048.701888635789
 20
379.3314330873675
 30
0.0
 11
1048.70281863579
 21
379.3747020873675
 31
0.0
  0
LINE
  5
2302
330
19
100
AcDbEntity
  8
SEIHIN
100
AcDbLine
 10
1048.70281863579
 20
379.3747020873675
 30
0.0
 11
1048.70311863579
 21
379.4330430873675
 31
0.0
  0
LINE
  5
2303
330
19
100
AcDbEntity
  8
SEIHIN
100
AcDbLine
 10
1048.70311863579
 20
379.4330430873675
 30
0.0
 11
1048.70281863579
 21
379.5043680873675
 31
0.0
  0
LINE
  5
2304
330
19
100
AcDbEntity
  8
SEIHIN
100
AcDbLine
 10
1048.70281863579
 20
379.5043680873675
 30
0.0
 11
1048.701888635789
 21
379.5861300873675
 31
0.0
  0
LINE
  5
2305
330
19
100
AcDbEntity
  8
SEIHIN
100
AcDbLine
 10
1048.701888635789
 20
379.5861300873675
 30
0.0
 11
1048.700418635789
 21
379.6753980873675
 31
0.0
  0
LINE
  5
2306
330
19
100
AcDbEntity
  8
SEIHIN
100
AcDbLine
 10
1048.700418635789
 20
379.6753980873675
 30
0.0
 11
1048.698408635789
 21
379.7689680873675
 31
0.0
  0
LINE
  5
2307
330
19
100
AcDbEntity
  8
SEIHIN
100
AcDbLine
 10
1048.698408635789
 20
378.8577030873675
 30
0.0
 11
1048.696608635789
 21
378.9458490873675
 31
0.0
  0
LINE
  5
2308
330
19
100
AcDbEntity
  8
SEIHIN
100
AcDbLine
 10
1048.696608635789
 20
378.9458490873675
 30
0.0
 11
1048.69528863579
 21
379.0291110873675
 31
0.0
  0
LINE
  5
2309
330
19
100
AcDbEntity
  8
SEIHIN
100
AcDbLine
 10
1048.69528863579
 20
379.0291110873675
 30
0.0
 11
1048.69450863579
 21
379.1047710873675
 31
0.0
  0
LINE
  5
230A
330
19
100
AcDbEntity
  8
SEIHIN
100
AcDbLine
 10
1048.69450863579
 20
379.1047710873675
 30
0.0
 11
1048.69423863579
 21
379.1703690873676
 31
0.0
  0
LINE
  5
230B
330
19
100
AcDbEntity
  8
SEIHIN
100
AcDbLine
 10
1048.69423863579
 20
379.1703690873676
 30
0.0
 11
1048.69450863579
 21
379.2237750873675
 31
0.0
  0
LINE
  5
230C
330
19
100
AcDbEntity
  8
SEIHIN
100
AcDbLine
 10
1048.69450863579
 20
379.2237750873675
 30
0.0
 11
1048.69528863579
 21
379.2632430873676
 31
0.0
  0
LINE
  5
230D
330
19
100
AcDbEntity
  8
SEIHIN
100
AcDbLine
 10
1048.69528863579
 20
379.2632430873676
 30
0.0
 11
1048.696608635789
 21
379.2874920873675
 31
0.0
  0
LINE
  5
230E
330
19
100
AcDbEntity
  8
SEIHIN
100
AcDbLine
 10
1048.696608635789
 20
379.2874920873675
 30
0.0
 11
1048.698408635789
 21
379.2957300873676
 31
0.0
  0
LINE
  5
230F
330
19
100
AcDbEntity
  8
SEIHIN
100
AcDbLine
 10
1048.698408635789
 20
378.8577030873675
 30
0.0
 11
1048.698408635789
 21
378.8571540873675
 31
0.0
  0
LINE
  5
2310
330
19
100
AcDbEntity
  8
SEIHIN
100
AcDbLine
 10
1058.69839863579
 20
379.7957310873675
 30
0.0
 11
1048.698408635789
 21
379.2957300873676
 31
0.0
  0
TEXT
  5
2311
330
19
100
AcDbEntity
  8
SUNPOU
 48
5.0
100
AcDbText
 10
1120.884583225798
 20
524.6640876437631
 30
0.0
 40
12.0
  1
スライド巾
100
AcDbText
  0
DIMENSION
  5
2312
330
19
100
AcDbEntity
  8
SUNPOU
100
AcDbDimension
  2
*D30
 10
1110.698418635789
 20
486.3599185229118
 30
0.0
 11
1089.698403635789
 21
496.3599185229118
 31
0.0
 70
    32
  3
STANDARD
100
AcDbAlignedDimension
 13
1068.698388635789
 23
410.7957300873676
 33
0.0
 14
1110.698418635789
 24
411.2957280873676
 34
0.0
100
AcDbRotatedDimension
1001
ACAD
1000
DSTYLE
1002
{
1070
    41
1040
14.0
1070
    42
1040
12.0
1070
    43
1040
28.0
1070
    44
1040
6.0
1070
    73
1070
     0
1070
    74
1070
     0
1070
    77
1070
     3
1070
   140
1040
12.0
1070
   141
1040
150.0
1070
   143
1040
0.03937
1070
   147
1040
4.0
1070
   172
1070
     1
1070
   173
1070
     1
1070
   176
1070
   256
1070
   177
1070
   256
1070
   178
1070
   256
1070
   271
1070
     0
1070
   272
1070
     0
1070
   341
1005
27
1070
     6
1000
OPEN
1070
     7
1000
OPEN
1070
   371
1070
    -1
1070
   372
1070
    -1
1002
}
  0
LINE
  5
2313
330
19
100
AcDbEntity
  8
SEIHIN
100
AcDbLine
 10
1058.69839863579
 20
411.2957280873676
 30
0.0
 11
1068.698388635789
 21
411.2957280873676
 31
0.0
  0
LINE
  5
2314
330
19
100
AcDbEntity
  8
SEIHIN
100
AcDbLine
 10
1048.698408635789
 20
410.2434570873676
 30
0.0
 11
1048.698228635789
 21
410.4234270873676
 31
0.0
  0
LINE
  5
2315
330
19
100
AcDbEntity
  8
SEIHIN
100
AcDbLine
 10
1048.698228635789
 20
410.4234270873676
 30
0.0
 11
1048.69726863579
 21
410.5992570873675
 31
0.0
  0
LINE
  5
2316
330
19
100
AcDbEntity
  8
SEIHIN
100
AcDbLine
 10
1048.69726863579
 20
410.5992570873675
 30
0.0
 11
1048.69549863579
 21
410.7652350873674
 31
0.0
  0
LINE
  5
2317
330
19
100
AcDbEntity
  8
SEIHIN
100
AcDbLine
 10
1048.69549863579
 20
410.7652350873674
 30
0.0
 11
1048.693038635789
 21
410.9159940873675
 31
0.0
  0
LINE
  5
2318
330
19
100
AcDbEntity
  8
SEIHIN
100
AcDbLine
 10
1048.693038635789
 20
410.9159940873675
 30
0.0
 11
1048.68994863579
 21
411.0466290873675
 31
0.0
  0
LINE
  5
2319
330
19
100
AcDbEntity
  8
SEIHIN
100
AcDbLine
 10
1048.68994863579
 20
411.0466290873675
 30
0.0
 11
1048.68631863579
 21
411.1529040873675
 31
0.0
  0
LINE
  5
231A
330
19
100
AcDbEntity
  8
SEIHIN
100
AcDbLine
 10
1048.68631863579
 20
411.1529040873675
 30
0.0
 11
1048.682238635789
 21
411.2313810873676
 31
0.0
  0
LINE
  5
231B
330
19
100
AcDbEntity
  8
SEIHIN
100
AcDbLine
 10
1048.682238635789
 20
411.2313810873676
 30
0.0
 11
1048.67788863579
 21
411.2795100873674
 31
0.0
  0
LINE
  5
231C
330
19
100
AcDbEntity
  8
SEIHIN
100
AcDbLine
 10
1048.67788863579
 20
411.2795100873674
 30
0.0
 11
1048.673418635789
 21
411.2957280873676
 31
0.0
  0
LINE
  5
231D
330
19
100
AcDbEntity
  8
SEIHIN
100
AcDbLine
 10
1048.698408635789
 20
410.2433970873676
 30
0.0
 11
1048.698408635789
 21
410.2434570873676
 31
0.0
  0
LINE
  5
231E
330
19
100
AcDbEntity
  8
SEIHIN
100
AcDbLine
 10
1048.673418635789
 20
411.2957280873676
 30
0.0
 11
1058.69839863579
 21
411.2957280873676
 31
0.0
  0
LINE
  5
2322
330
19
100
AcDbEntity
  8
SEIHIN
  6
PHANTOM
 62
     6
 48
5.0
100
AcDbLine
 10
1046.69839863579
 20
641.9614039094701
 30
0.0
 11
1090.69840863579
 21
641.9614039094701
 31
0.0
  0
LINE
  5
2323
330
19
100
AcDbEntity
  8
SEIHIN
  6
PHANTOM
 62
     6
 48
5.0
100
AcDbLine
 10
1100.69842863579
 20
909.5079169094699
 30
0.0
 11
1046.69839863579
 21
909.5079169094699
 31
0.0
  0
DIMENSION
  5
2324
330
19
100
AcDbEntity
  8
SUNPOU
100
AcDbDimension
  2
*D31
 10
1068.69838863579
 20
805.909334643641
 30
0.0
 11
1036.94839863579
 21
815.9093346436412
 31
0.0
 70
    32
  3
STANDARD
100
AcDbAlignedDimension
 13
1005.19840863579
 23
775.7346739094697
 33
0.0
 14
1068.69838863579
 24
775.7346739094697
 34
0.0
100
AcDbRotatedDimension
1001
ACAD
1000
DSTYLE
1002
{
1070
    41
1040
14.0
1070
    42
1040
12.0
1070
    43
1040
28.0
1070
    44
1040
6.0
1070
    73
1070
     0
1070
    74
1070
     0
1070
    77
1070
     3
1070
   140
1040
12.0
1070
   141
1040
150.0
1070
   143
1040
0.03937
1070
   147
1040
4.0
1070
   172
1070
     1
1070
   173
1070
     1
1070
   176
1070
   256
1070
   177
1070
   256
1070
   178
1070
   256
1070
   271
1070
     0
1070
   272
1070
     0
1070
   341
1005
27
1070
     6
1000
OPEN
1070
     7
1000
OPEN
1070
   371
1070
    -1
1070
   372
1070
    -1
1002
}
  0
LINE
  5
2325
330
19
100
AcDbEntity
  8
SEIHIN
100
AcDbLine
 10
1004.69839863579
 20
641.9614039094701
 30
0.0
 11
1048.69840863579
 21
641.9614039094701
 31
0.0
  0
LINE
  5
2326
330
19
100
AcDbEntity
  8
SEIHIN
100
AcDbLine
 10
1034.69839863579
 20
646.0846639094699
 30
0.0
 11
1058.69839863579
 21
646.0846639094699
 31
0.0
  0
LINE
  5
2327
330
19
100
AcDbEntity
  8
SEIHIN
100
AcDbLine
 10
1033.83235863579
 20
646.5846739094697
 30
0.0
 11
1058.69839863579
 21
646.5846739094697
 31
0.0
  0
LINE
  5
2328
330
19
100
AcDbEntity
  8
SEIHIN
100
AcDbLine
 10
1058.69839863579
 20
659.3508139094699
 30
0.0
 11
1033.69837863579
 21
659.3508139094699
 31
0.0
  0
LINE
  5
2329
330
19
100
AcDbEntity
  8
SEIHIN
100
AcDbLine
 10
1033.69837863579
 20
660.3432439094701
 30
0.0
 11
1058.69839863579
 21
660.3432439094701
 31
0.0
  0
LINE
  5
232A
330
19
100
AcDbEntity
  8
SEIHIN
100
AcDbLine
 10
1027.69837863579
 20
675.4217839094697
 30
0.0
 11
1058.69839863579
 21
675.4217839094697
 31
0.0
  0
LINE
  5
232B
330
19
100
AcDbEntity
  8
SEIHIN
100
AcDbLine
 10
1027.69837863579
 20
676.9104439094701
 30
0.0
 11
1058.69839863579
 21
676.9104439094701
 31
0.0
  0
LINE
  5
232C
330
19
100
AcDbEntity
  8
SEIHIN
100
AcDbLine
 10
1058.69842863579
 20
909.5079169094699
 30
0.0
 11
1004.69839863579
 21
909.5079169094699
 31
0.0
  0
LINE
  5
232D
330
19
100
AcDbEntity
  8
SEIHIN
100
AcDbLine
 10
1068.69838863579
 20
905.3846599094695
 30
0.0
 11
1034.69839863579
 21
905.3846599094695
 31
0.0
  0
LINE
  5
232E
330
19
100
AcDbEntity
  8
SEIHIN
100
AcDbLine
 10
1068.69838863579
 20
904.8846499094699
 30
0.0
 11
1033.83235863579
 21
904.8846499094699
 31
0.0
  0
LINE
  5
232F
330
19
100
AcDbEntity
  8
SEIHIN
100
AcDbLine
 10
1033.69837863579
 20
892.1184979094697
 30
0.0
 11
1068.69838863579
 21
892.1184979094697
 31
0.0
  0
LINE
  5
2330
330
19
100
AcDbEntity
  8
SEIHIN
100
AcDbLine
 10
1068.69838863579
 20
891.1260679094699
 30
0.0
 11
1033.69837863579
 21
891.1260679094699
 31
0.0
  0
LINE
  5
2331
330
19
100
AcDbEntity
  8
SEIHIN
100
AcDbLine
 10
1027.69837863579
 20
876.04752790947
 30
0.0
 11
1068.69838863579
 21
876.04752790947
 31
0.0
  0
LINE
  5
2332
330
19
100
AcDbEntity
  8
SEIHIN
100
AcDbLine
 10
1027.69837863579
 20
874.5588919094698
 30
0.0
 11
1068.69838863579
 21
874.5588919094698
 31
0.0
  0
LINE
  5
2333
330
19
100
AcDbEntity
  8
SEIHIN
  6
PHANTOM
 62
     6
 48
5.0
100
AcDbLine
 10
1042.698388635791
 20
775.7346739094697
 30
0.0
 11
1042.698388635789
 21
909.0072379094694
 31
0.0
  0
LINE
  5
2334
330
19
100
AcDbEntity
  8
SEIHIN
100
AcDbLine
 10
1005.19840863579
 20
790.8909139094701
 30
0.0
 11
1005.19840863579
 21
760.5784039094698
 31
0.0
  0
LINE
  5
2335
330
19
100
AcDbEntity
  8
SEIHIN
100
AcDbLine
 10
843.6983886357902
 20
761.6359039094698
 30
0.0
 11
843.6983886357902
 21
789.8334139094697
 31
0.0
  0
LINE
  5
2336
330
19
100
AcDbEntity
  8
SEIHIN
100
AcDbLine
 10
845.6983986357899
 20
868.28360590947
 30
0.0
 11
845.6983986357899
 21
775.7346739094697
 31
0.0
  0
LINE
  5
2337
330
19
100
AcDbEntity
  8
SEIHIN
100
AcDbLine
 10
1002.69838863579
 20
760.7346739094698
 30
0.0
 11
1002.69838863579
 21
891.0004639094696
 31
0.0
  0
LINE
  5
2338
330
19
100
AcDbEntity
  8
SEIHIN
100
AcDbLine
 10
860.6983986357899
 20
880.5583879094699
 30
0.0
 11
860.6983986357899
 21
656.3422499018251
 31
0.0
  0
LINE
  5
2339
330
19
100
AcDbEntity
  8
SEIHIN
100
AcDbLine
 10
886.6983786357895
 20
651.4910239094698
 30
0.0
 11
886.69837863579
 21
902.91789790947
 31
0.0
  0
LINE
  5
233A
330
19
100
AcDbEntity
  8
SEIHIN
100
AcDbLine
 10
980.69839863579
 20
890.6070499094772
 30
0.0
 11
980.69839863579
 21
660.8622739094774
 31
0.0
  0
LINE
  5
233B
330
19
100
AcDbEntity
  8
SEIHIN
100
AcDbLine
 10
903.4078386357901
 20
638.9572939094698
 30
0.0
 11
951.69841863579
 21
638.9572939094698
 31
0.0
  0
LINE
  5
233C
330
19
100
AcDbEntity
  8
SEIHIN
100
AcDbLine
 10
975.1984086357902
 20
648.5448139094699
 30
0.0
 11
906.6821586357901
 21
648.5448139094699
 31
0.0
  0
LINE
  5
233D
330
19
100
AcDbEntity
  8
SEIHIN
100
AcDbLine
 10
906.7984086357901
 20
646.9930939094699
 30
0.0
 11
975.1984086357902
 21
646.9930939094699
 31
0.0
  0
LINE
  5
233E
330
19
100
AcDbEntity
  8
SEIHIN
100
AcDbLine
 10
890.69839863579
 20
662.4592939094697
 30
0.0
 11
980.1946086357897
 21
662.4592939094697
 31
0.0
  0
LINE
  5
233F
330
19
100
AcDbEntity
  8
SEIHIN
100
AcDbLine
 10
890.69839863579
 20
666.2514739094697
 30
0.0
 11
980.1983886357902
 21
666.2514739094697
 31
0.0
  0
LINE
  5
2340
330
19
100
AcDbEntity
  8
SEIHIN
100
AcDbLine
 10
845.6983986357899
 20
775.7346739094698
 30
0.0
 11
845.6983986357899
 21
649.490988861347
 31
0.0
  0
LINE
  5
2341
330
19
100
AcDbEntity
  8
SEIHIN
100
AcDbLine
 10
820.6984086357902
 20
664.7603839094696
 30
0.0
 11
820.6984086357902
 21
756.43219390947
 31
0.0
  0
LINE
  5
2342
330
19
100
AcDbEntity
  8
SEIHIN
100
AcDbLine
 10
843.69826863579
 20
641.9614039094701
 30
0.0
 11
860.6982786357898
 21
638.9572939094698
 31
0.0
  0
LINE
  5
2343
330
19
100
AcDbEntity
  8
SEIHIN
100
AcDbLine
 10
860.5268586357901
 20
655.5451939094698
 30
0.0
 11
845.6983986357899
 21
658.9403539094698
 31
0.0
  0
LINE
  5
2344
330
19
100
AcDbEntity
  8
SEIHIN
100
AcDbLine
 10
845.6983986357899
 20
659.88193390947
 30
0.0
 11
860.6983986357899
 21
656.44747390947
 31
0.0
  0
LINE
  5
2345
330
19
100
AcDbEntity
  8
SEIHIN
100
AcDbLine
 10
846.6983886357903
 20
648.4910539094701
 30
0.0
 11
884.8983786357898
 21
648.4910539094701
 31
0.0
  0
LINE
  5
2346
330
19
100
AcDbEntity
  8
SEIHIN
100
AcDbLine
 10
860.6983986357899
 20
670.9109239094698
 30
0.0
 11
845.6983986357899
 21
674.89111390947
 31
0.0
  0
LINE
  5
2347
330
19
100
AcDbEntity
  8
SEIHIN
100
AcDbLine
 10
860.6983986357899
 20
676.4685139094702
 30
0.0
 11
845.6983986357899
 21
676.8584539094697
 31
0.0
  0
LINE
  5
2348
330
19
100
AcDbEntity
  8
SEIHIN
100
AcDbLine
 10
789.6983886357902
 20
642.48823390947
 30
0.0
 11
799.6970286357901
 21
641.9614039094701
 31
0.0
  0
LINE
  5
2349
330
19
100
AcDbEntity
  8
SEIHIN
100
AcDbLine
 10
799.6984086357902
 20
641.9614039094701
 30
0.0
 11
799.6984086357902
 21
645.5846539094697
 31
0.0
  0
LINE
  5
234A
330
19
100
AcDbEntity
  8
SEIHIN
100
AcDbLine
 10
799.6970586357901
 20
641.9614039094701
 30
0.0
 11
843.69826863579
 21
641.9614039094701
 31
0.0
  0
LINE
  5
234B
330
19
100
AcDbEntity
  8
SEIHIN
100
AcDbLine
 10
820.6984086357902
 20
675.4217839094697
 30
0.0
 11
789.6983886357902
 21
675.4217839094697
 31
0.0
  0
LINE
  5
234C
330
19
100
AcDbEntity
  8
SEIHIN
100
AcDbLine
 10
820.6984086357902
 20
676.9104439094701
 30
0.0
 11
789.6983886357902
 21
676.9104439094701
 31
0.0
  0
LINE
  5
234D
330
19
100
AcDbEntity
  8
SEIHIN
100
AcDbLine
 10
815.1983886357902
 20
662.5846639094699
 30
0.0
 11
845.1983886357902
 21
662.5846639094699
 31
0.0
  0
LINE
  5
234E
330
19
100
AcDbEntity
  8
SEIHIN
100
AcDbLine
 10
789.6983886357897
 20
642.48823390947
 30
0.0
 11
789.6983886357902
 21
675.4217839094697
 31
0.0
  0
LINE
  5
234F
330
19
100
AcDbEntity
  8
SEIHIN
100
AcDbLine
 10
789.6983886357902
 20
646.0846639094699
 30
0.0
 11
813.6983886357903
 21
646.0846639094699
 31
0.0
  0
LINE
  5
2350
330
19
100
AcDbEntity
  8
SEIHIN
100
AcDbLine
 10
789.6983886357902
 20
646.5846739094697
 30
0.0
 11
814.5644286357901
 21
646.5846739094697
 31
0.0
  0
LINE
  5
2351
330
19
100
AcDbEntity
  8
SEIHIN
100
AcDbLine
 10
814.6984086357901
 20
659.3508139094699
 30
0.0
 11
789.6983886357902
 21
659.3508139094699
 31
0.0
  0
LINE
  5
2352
330
19
100
AcDbEntity
  8
SEIHIN
100
AcDbLine
 10
789.6983886357902
 20
660.3432439094701
 30
0.0
 11
814.6984086357901
 21
660.3432439094701
 31
0.0
  0
ARC
  5
2353
330
19
100
AcDbEntity
  8
SEIHIN
100
AcDbCircle
 10
797.4750256760117
 20
635.1298993032699
 30
0.0
 40
10.74603419337165
100
AcDbArc
 50
79.10430651463006
 51
87.12989870345833
  0
ARC
  5
2354
330
19
100
AcDbEntity
  8
SEIHIN
100
AcDbCircle
 10
790.6632177094565
 20
526.5148160763261
 30
0.0
 40
119.5737404532557
100
AcDbArc
 50
86.47595879146136
 51
90.46231918097136
  0
LINE
  5
2355
330
19
100
AcDbEntity
  8
SEIHIN
100
AcDbLine
 10
799.6984086357902
 20
645.5846539094697
 30
0.0
 11
799.5062586357899
 21
645.68221390947
 31
0.0
  0
ARC
  5
2356
330
19
100
AcDbEntity
  8
SEIHIN
100
AcDbCircle
 10
813.6983886357903
 20
647.0846539094698
 30
0.0
 40
0.9999998999999998
100
AcDbArc
 50
270.0
 51
0.0
  0
ARC
  5
2357
330
19
100
AcDbEntity
  8
SEIHIN
100
AcDbCircle
 10
815.1983886357902
 20
662.0846539094698
 30
0.0
 40
0.4999998000000002
100
AcDbArc
 50
90.0
 51
180.0
  0
LINE
  5
2358
330
19
100
AcDbEntity
  8
SEIHIN
100
AcDbLine
 10
814.6984086357901
 20
647.0846839094699
 30
0.0
 11
814.6984086357901
 21
662.0846539094698
 31
0.0
  0
LINE
  5
2359
330
19
100
AcDbEntity
  8
0
100
AcDbLine
 10
789.6983886357902
 20
675.4217839094697
 30
0.0
 11
789.6983886357902
 21
676.9104439094701
 31
0.0
  0
ARC
  5
235A
330
19
100
AcDbEntity
  8
SEIHIN
100
AcDbCircle
 10
821.1965154326131
 20
665.2622969846906
 30
0.0
 40
0.4981104469929113
100
AcDbArc
 50
89.78453194501579
 51
179.780653047425
  0
LINE
  5
235B
330
19
100
AcDbEntity
  8
SEIHIN
100
AcDbLine
 10
823.3906086357901
 20
665.4532939094699
 30
0.0
 11
845.6983986357899
 21
665.1107239094701
 31
0.0
  0
LINE
  5
235C
330
19
100
AcDbEntity
  8
SEIHIN
100
AcDbLine
 10
841.0018386357901
 20
662.5846639094699
 30
0.0
 11
828.68143863579
 21
663.5835139094699
 31
0.0
  0
ARC
  5
235D
330
19
100
AcDbEntity
  8
SEIHIN
100
AcDbCircle
 10
824.1424949277007
 20
675.1729885556386
 30
0.0
 40
11.05041513520201
100
AcDbArc
 50
252.8969152869093
 51
265.778508416878
  0
ARC
  5
235E
330
19
100
AcDbEntity
  8
SEIHIN
100
AcDbCircle
 10
820.9397996363936
 20
664.8737332836217
 30
0.0
 40
0.2666790126595054
100
AcDbArc
 50
205.1532253600456
 51
259.8182892687507
  0
LINE
  5
235F
330
19
100
AcDbEntity
  8
SEIHIN
100
AcDbLine
 10
820.6984086357902
 20
664.7603839094697
 30
0.0
 11
820.6984086357902
 21
665.26420390947
 31
0.0
  0
LINE
  5
2360
330
19
100
AcDbEntity
  8
SEIHIN
100
AcDbLine
 10
828.68143863579
 20
663.5835139094699
 30
0.0
 11
823.3290486357899
 21
664.1525539094698
 31
0.0
  0
ARC
  5
2361
330
19
100
AcDbEntity
  8
SEIHIN
100
AcDbCircle
 10
846.6976711496959
 20
649.4903263853926
 30
0.0
 40
0.999272733502811
100
AcDbArc
 50
180.0379847021612
 51
270.0411388474935
  0
ARC
  5
2362
330
19
100
AcDbEntity
  8
SEIHIN
100
AcDbCircle
 10
845.1983886357902
 20
662.0846539094698
 30
0.0
 40
0.4999998000000002
100
AcDbArc
 50
0.0
 51
90.0
  0
LINE
  5
2363
330
19
100
AcDbEntity
  8
SEIHIN
100
AcDbLine
 10
845.6983986357899
 20
679.4144839094699
 30
0.0
 11
821.1983886357902
 21
679.4144839094699
 31
0.0
  0
LINE
  5
2364
330
19
100
AcDbEntity
  8
SEIHIN
100
AcDbLine
 10
845.6983986357899
 20
683.1857239094699
 30
0.0
 11
820.6984086357897
 21
683.18572390947
 31
0.0
  0
ARC
  5
2365
330
19
100
AcDbEntity
  8
SEIHIN
100
AcDbCircle
 10
823.2266856882942
 20
674.3008461333772
 30
0.0
 40
8.849070634110828
100
AcDbArc
 50
257.8239195630998
 51
271.0614256205883
  0
ARC
  5
2366
330
19
100
AcDbEntity
  8
SEIHIN
100
AcDbCircle
 10
821.3750622051806
 20
665.8470747146266
 30
0.0
 40
0.1967876484633564
100
AcDbArc
 50
206.1311971796233
 51
265.6887056369158
  0
ARC
  5
2367
330
19
100
AcDbEntity
  8
SEIHIN
100
AcDbCircle
 10
821.1964643366004
 20
678.9164284699475
 30
0.0
 40
0.4980591568934509
100
AcDbArc
 50
89.77863172503745
 51
179.7865532674318
  0
LINE
  5
2368
330
19
100
AcDbEntity
  8
STOPPER
100
AcDbLine
 10
888.4078386357897
 20
636.8518939094699
 30
0.0
 11
888.40783863579
 21
651.63958390947
 31
0.0
  0
LINE
  5
2369
330
19
100
AcDbEntity
  8
STOPPER
100
AcDbLine
 10
903.4078386357901
 20
636.8518939094699
 30
0.0
 11
903.4078386357901
 21
651.63958390947
 31
0.0
  0
LINE
  5
236A
330
19
100
AcDbEntity
  8
SEIHIN
100
AcDbLine
 10
860.6982786357898
 20
638.9572939094698
 30
0.0
 11
888.40783863579
 21
638.9572939094698
 31
0.0
  0
LINE
  5
236B
330
19
100
AcDbEntity
  8
STOPPER
100
AcDbLine
 10
888.40783863579
 20
641.2078939094701
 30
0.0
 11
903.4078386357901
 21
641.2078939094701
 31
0.0
  0
LINE
  5
236C
330
19
100
AcDbEntity
  8
STOPPER
100
AcDbLine
 10
888.40783863579
 20
636.8518939094699
 30
0.0
 11
903.4078386357901
 21
636.8518939094699
 31
0.0
  0
LINE
  5
236D
330
19
100
AcDbEntity
  8
STOPPER
100
AcDbLine
 10
888.40783863579
 20
639.8518939094699
 30
0.0
 11
903.4078386357901
 21
639.8518939094699
 31
0.0
  0
LINE
  5
236E
330
19
100
AcDbEntity
  8
SEIHIN
100
AcDbLine
 10
886.69837863579
 20
655.5263539094701
 30
0.0
 11
860.5222986357899
 21
655.5263539094701
 31
0.0
  0
LINE
  5
236F
330
19
100
AcDbEntity
  8
SEIHIN
100
AcDbLine
 10
860.69596863579
 20
656.4428239094702
 30
0.0
 11
886.69837863579
 21
656.4428239094702
 31
0.0
  0
LINE
  5
2370
330
19
100
AcDbEntity
  8
SEIHIN
100
AcDbLine
 10
886.69837863579
 20
670.9109239094698
 30
0.0
 11
860.6983986357899
 21
670.9109239094698
 31
0.0
  0
LINE
  5
2371
330
19
100
AcDbEntity
  8
SEIHIN
100
AcDbLine
 10
886.69837863579
 20
676.4685139094702
 30
0.0
 11
860.6983986357899
 21
676.4685139094702
 31
0.0
  0
LINE
  5
2372
330
19
100
AcDbEntity
  8
SEIHIN
100
AcDbLine
 10
860.7200402960529
 20
656.4425187483696
 30
0.0
 11
859.0154286357901
 21
648.5448139094699
 31
0.0
  0
ARC
  5
2373
330
19
100
AcDbEntity
  8
SEIHIN
100
AcDbCircle
 10
890.6788216800569
 20
662.2709862260401
 30
0.0
 40
3.980535825128301
100
AcDbArc
 50
89.71820842457191
 51
179.6088017481907
  0
LINE
  5
2374
330
19
100
AcDbEntity
  8
STOPPER
100
AcDbLine
 10
903.4078386357901
 20
646.20649390947
 30
0.0
 11
888.40783863579
 21
646.20649390947
 31
0.0
  0
LINE
  5
2375
330
19
100
AcDbEntity
  8
STOPPER
100
AcDbLine
 10
903.4078386357901
 20
651.63958390947
 30
0.0
 11
888.40783863579
 21
651.63958390947
 31
0.0
  0
LINE
  5
2376
330
19
100
AcDbEntity
  8
STOPPER
100
AcDbLine
 10
888.40783863579
 20
647.5624639094701
 30
0.0
 11
903.4078386357901
 21
647.5624639094701
 31
0.0
  0
LINE
  5
2377
330
19
100
AcDbEntity
  8
STOPPER
100
AcDbLine
 10
888.40783863579
 20
650.5583539094698
 30
0.0
 11
903.4078386357901
 21
650.5583539094698
 31
0.0
  0
LINE
  5
2378
330
19
100
AcDbEntity
  8
STOPPER
100
AcDbLine
 10
903.4078386357901
 20
651.6382039094699
 30
0.0
 11
888.40783863579
 21
651.6382039094699
 31
0.0
  0
ARC
  5
2379
330
19
100
AcDbEntity
  8
SEIHIN
100
AcDbCircle
 10
884.8977162562096
 20
648.7930815251997
 30
0.0
 40
0.3020283420642289
100
AcDbArc
 50
270.1256557068834
 51
5.451261075299312
  0
ARC
  5
237A
330
19
100
AcDbEntity
  8
SEIHIN
100
AcDbCircle
 10
888.6207967042437
 20
656.3623884297988
 30
0.0
 40
1.956581873967144
100
AcDbArc
 50
90.7244392380568
 51
100.057429754598
  0
ARC
  5
237B
330
19
100
AcDbEntity
  8
SEIHIN
100
AcDbCircle
 10
888.2909553156336
 20
658.1486803739113
 30
0.0
 40
0.1407230746818961
100
AcDbArc
 50
94.82912315746879
 51
134.1429299857625
  0
LINE
  5
237C
330
19
100
AcDbEntity
  8
SEIHIN
100
AcDbLine
 10
887.97712863579
 20
655.45192390947
 30
0.0
 11
887.9487786357898
 21
652.4819539094699
 31
0.0
  0
ARC
  5
237D
330
19
100
AcDbEntity
  8
SEIHIN
100
AcDbCircle
 10
890.7060372578744
 20
658.4516876178683
 30
0.0
 40
4.007613571320432
100
AcDbArc
 50
90.10920740334052
 51
179.8435036016393
  0
ARC
  5
237E
330
19
100
AcDbEntity
  8
SEIHIN
100
AcDbCircle
 10
888.4980415472297
 20
648.7907683462595
 30
0.0
 40
0.2996629415956349
100
AcDbArc
 50
180.0257044160125
 51
252.4814492798319
  0
LINE
  5
237F
330
19
100
AcDbEntity
  8
SEIHIN
100
AcDbLine
 10
888.1983786357901
 20
651.1910539094699
 30
0.0
 11
888.1983786357901
 21
648.3347239094698
 31
0.0
  0
ARC
  5
2380
330
19
100
AcDbEntity
  8
SEIHIN
100
AcDbCircle
 10
887.8984086357901
 20
651.1910239094698
 30
0.0
 40
0.3
100
AcDbArc
 50
0.0
 51
90.0
  0
LINE
  5
2381
330
19
100
AcDbEntity
  8
SEIHIN
100
AcDbLine
 10
885.4983786357898
 20
651.49102390947
 30
0.0
 11
887.8984086357901
 21
651.49102390947
 31
0.0
  0
LINE
  5
2382
330
19
100
AcDbEntity
  8
SEIHIN
100
AcDbLine
 10
885.19837863579
 20
648.7643891409298
 30
0.0
 11
885.19837863579
 21
651.1910539094699
 31
0.0
  0
ARC
  5
2383
330
19
100
AcDbEntity
  8
SEIHIN
100
AcDbCircle
 10
885.49840863579
 20
651.1910239094698
 30
0.0
 40
0.3
100
AcDbArc
 50
90.0
 51
180.0
  0
LINE
  5
2384
330
19
100
AcDbEntity
  8
0
100
AcDbLine
 10
888.40783863579
 20
651.6382039094699
 30
0.0
 11
888.40783863579
 21
651.63958390947
 31
0.0
  0
LINE
  5
2385
330
19
100
AcDbEntity
  8
SEIHIN
100
AcDbLine
 10
888.1983786357901
 20
648.3347239094698
 30
0.0
 11
888.28753863579
 21
647.7643639094701
 31
0.0
  0
LINE
  5
2386
330
19
100
AcDbEntity
  8
SEIHIN
100
AcDbLine
 10
888.28753863579
 20
647.7643639094701
 30
0.0
 11
888.40783863579
 21
647.32420390947
 31
0.0
  0
LINE
  5
2387
330
19
100
AcDbEntity
  8
SEIHIN
100
AcDbLine
 10
887.9487786357898
 20
652.4819539094699
 30
0.0
 11
886.69837863579
 21
652.4819539094699
 31
0.0
  0
LINE
  5
2388
330
19
100
AcDbEntity
  8
SEIHIN
100
AcDbLine
 10
887.97712863579
 20
655.45192390947
 30
0.0
 11
888.1929486357899
 21
658.2496639094699
 31
0.0
  0
LINE
  5
2389
330
19
100
AcDbEntity
  8
SEIHIN
100
AcDbLine
 10
886.69837863579
 20
655.45192390947
 30
0.0
 11
887.97712863579
 21
655.45192390947
 31
0.0
  0
LINE
  5
238A
330
19
100
AcDbEntity
  8
SEIHIN
100
AcDbLine
 10
887.70091863579
 20
658.3201639094697
 30
0.0
 11
887.3710386357897
 21
658.3281139094699
 31
0.0
  0
LINE
  5
238B
330
19
100
AcDbEntity
  8
SEIHIN
100
AcDbLine
 10
887.3710386357897
 20
658.3281139094699
 30
0.0
 11
887.0783886357898
 21
658.3510039094701
 31
0.0
  0
LINE
  5
238C
330
19
100
AcDbEntity
  8
SEIHIN
100
AcDbLine
 10
887.0783886357898
 20
658.3510039094701
 30
0.0
 11
886.8542586357898
 21
658.3863739094697
 31
0.0
  0
LINE
  5
238D
330
19
100
AcDbEntity
  8
SEIHIN
100
AcDbLine
 10
886.8542586357898
 20
658.3863739094697
 30
0.0
 11
886.7242986357901
 21
658.4304739094697
 31
0.0
  0
LINE
  5
238E
330
19
100
AcDbEntity
  8
SEIHIN
100
AcDbLine
 10
886.7242986357901
 20
658.4304739094697
 30
0.0
 11
886.6984386357898
 21
658.4626339094699
 31
0.0
  0
LINE
  5
238F
330
19
100
AcDbEntity
  8
SEIHIN
100
AcDbLine
 10
888.1983870646649
 20
658.3201639094698
 30
0.0
 11
887.70091863579
 21
658.3201639094697
 31
0.0
  0
LINE
  5
2390
330
19
100
AcDbEntity
  8
SEIHIN
100
AcDbLine
 10
887.9487786357898
 20
651.4867639094697
 30
0.0
 11
887.9487786357898
 21
652.4819539094699
 31
0.0
  0
ARC
  5
2391
330
19
100
AcDbEntity
  8
SEIHIN
100
AcDbCircle
 10
905.217645988287
 20
657.6408760929129
 30
0.0
 40
0.6637880634951211
100
AcDbArc
 50
96.90190872229635
 51
106.5289318542088
  0
ARC
  5
2392
330
19
100
AcDbEntity
  8
SEIHIN
100
AcDbCircle
 10
905.4681716997334
 20
655.6335239976948
 30
0.0
 40
2.68670964313517
100
AcDbArc
 50
89.58719754541094
 51
97.06157209736252
  0
LINE
  5
2393
330
19
100
AcDbEntity
  8
SEIHIN
100
AcDbLine
 10
903.4932786357899
 20
658.2634939094698
 30
0.0
 11
903.50383863579
 21
658.2496639094699
 31
0.0
  0
ARC
  5
2394
330
19
100
AcDbEntity
  8
SEIHIN
100
AcDbCircle
 10
903.0637483323262
 20
656.4938665740701
 30
0.0
 40
1.827279051770446
100
AcDbArc
 50
77.34049784396784
 51
91.87822516471435
  0
ARC
  5
2395
330
19
100
AcDbEntity
  8
SEIHIN
100
AcDbCircle
 10
903.1977370955164
 20
648.821756958994
 30
0.0
 40
0.3006715407513383
100
AcDbArc
 50
314.3287470806894
 51
0.0032300720442753
  0
ARC
  5
2396
330
19
100
AcDbEntity
  8
SEIHIN
100
AcDbCircle
 10
906.7987406958419
 20
648.821627947585
 30
0.0
 40
0.300362095517041
100
AcDbArc
 50
179.9721569384429
 51
247.1612859423972
  0
LINE
  5
2397
330
19
100
AcDbEntity
  8
SEIHIN
100
AcDbLine
 10
906.7984086357901
 20
648.5448139094699
 30
0.0
 11
906.7984086357901
 21
646.9930939094699
 31
0.0
  0
LINE
  5
2398
330
19
100
AcDbEntity
  8
SEIHIN
100
AcDbLine
 10
906.4983786357897
 20
648.3347239094698
 30
0.0
 11
906.5875386357902
 21
647.7643639094701
 31
0.0
  0
LINE
  5
2399
330
19
100
AcDbEntity
  8
SEIHIN
100
AcDbLine
 10
906.5875386357902
 20
647.7643639094701
 30
0.0
 11
906.7962486357901
 21
647.0006239094698
 31
0.0
  0
LINE
  5
239A
330
19
100
AcDbEntity
  8
0
100
AcDbLine
 10
906.7962486357901
 20
647.0006239094698
 30
0.0
 11
906.7984086357901
 21
646.9930939094699
 31
0.0
  0
LINE
  5
239B
330
19
100
AcDbEntity
  8
0
100
AcDbLine
 10
906.7984086357901
 20
646.9930939094699
 30
0.0
 11
906.7943886357898
 21
646.9987639094699
 31
0.0
  0
LINE
  5
239C
330
19
100
AcDbEntity
  8
SEIHIN
100
AcDbLine
 10
903.49840863579
 20
648.3347239094698
 30
0.0
 11
906.4983786357897
 21
648.3347239094698
 31
0.0
  0
LINE
  5
239D
330
19
100
AcDbEntity
  8
SEIHIN
100
AcDbLine
 10
906.4983786357897
 20
651.1910539094699
 30
0.0
 11
906.4983786357897
 21
648.3347239094698
 31
0.0
  0
LINE
  5
239E
330
19
100
AcDbEntity
  8
SEIHIN
100
AcDbLine
 10
903.79837863579
 20
651.49102390947
 30
0.0
 11
906.1983786357901
 21
651.49102390947
 31
0.0
  0
ARC
  5
239F
330
19
100
AcDbEntity
  8
SEIHIN
100
AcDbCircle
 10
906.1984086357902
 20
651.1910239094698
 30
0.0
 40
0.3
100
AcDbArc
 50
0.0
 51
90.0
  0
ARC
  5
23A0
330
19
100
AcDbEntity
  8
SEIHIN
100
AcDbCircle
 10
903.7984086357901
 20
651.1910239094698
 30
0.0
 40
0.3
100
AcDbArc
 50
90.0
 51
180.0
  0
LINE
  5
23A1
330
19
100
AcDbEntity
  8
SEIHIN
100
AcDbLine
 10
903.49840863579
 20
648.3347239094698
 30
0.0
 11
903.49840863579
 21
651.1910539094699
 31
0.0
  0
LINE
  5
23A2
330
19
100
AcDbEntity
  8
0
100
AcDbLine
 10
903.4078386357901
 20
651.63958390947
 30
0.0
 11
903.4078386357901
 21
651.6382039094699
 31
0.0
  0
LINE
  5
23A3
330
19
100
AcDbEntity
  8
0
100
AcDbLine
 10
903.4078386357901
 20
647.7592639094698
 30
0.0
 11
903.4092486357899
 21
647.7643639094701
 31
0.0
  0
LINE
  5
23A4
330
19
100
AcDbEntity
  8
SEIHIN
100
AcDbLine
 10
903.4092486357899
 20
647.7643639094701
 30
0.0
 11
903.49840863579
 21
648.3347239094698
 31
0.0
  0
LINE
  5
23A5
330
19
100
AcDbEntity
  8
SEIHIN
100
AcDbLine
 10
904.9876386357901
 20
658.25047390947
 30
0.0
 11
904.9990986357897
 21
658.26415390947
 31
0.0
  0
LINE
  5
23A6
330
19
100
AcDbEntity
  8
SEIHIN
100
AcDbLine
 10
904.9990986357897
 20
658.26415390947
 30
0.0
 11
905.0287986357899
 21
658.2772339094701
 31
0.0
  0
LINE
  5
23A7
330
19
100
AcDbEntity
  8
SEIHIN
100
AcDbLine
 10
903.4642086357898
 20
658.2767239094699
 30
0.0
 11
903.4932786357899
 21
658.2634939094698
 31
0.0
  0
LINE
  5
23A8
330
19
100
AcDbEntity
  8
SEIHIN
100
AcDbLine
 10
905.4875286357901
 20
658.3201639094697
 30
0.0
 11
903.00385863579
 21
658.3201639094697
 31
0.0
  0
LINE
  5
23A9
330
19
100
AcDbEntity
  8
SEIHIN
100
AcDbLine
 10
904.9876386357901
 20
651.49102390947
 30
0.0
 11
904.9876386357901
 21
658.25047390947
 31
0.0
  0
LINE
  5
23AA
330
19
100
AcDbEntity
  8
SEIHIN
100
AcDbLine
 10
903.50383863579
 20
658.2496639094699
 30
0.0
 11
903.50383863579
 21
651.2479039094698
 31
0.0
  0
LINE
  5
23AB
330
19
100
AcDbEntity
  8
SEIHIN
100
AcDbLine
 10
903.00385863579
 20
651.63958390947
 30
0.0
 11
903.00385863579
 21
658.3201639094697
 31
0.0
  0
LINE
  5
23AC
330
19
100
AcDbEntity
  8
SEIHIN
100
AcDbLine
 10
905.4875286357901
 20
658.3201639094697
 30
0.0
 11
905.4875286357901
 21
651.49102390947
 31
0.0
  0
ARC
  5
23AD
330
19
100
AcDbEntity
  8
SEIHIN
100
AcDbCircle
 10
822.6983886357903
 20
756.43219390947
 30
0.0
 40
1.999999799999999
100
AcDbArc
 50
95.94686000000232
 51
180.0
  0
ARC
  5
23AE
330
19
100
AcDbEntity
  8
SEIHIN
100
AcDbCircle
 10
815.2083763816863
 20
900.6076530238884
 30
0.0
 40
142.1834302511452
100
AcDbArc
 50
275.3448932156017
 51
280.3871933805696
  0
LINE
  5
23AF
330
19
100
AcDbEntity
  8
SEIHIN
100
AcDbLine
 10
822.4911765940223
 20
758.4214305393726
 30
0.0
 11
828.4528686357898
 21
759.04243390947
 31
0.0
  0
ARC
  5
23B0
330
19
100
AcDbEntity
  8
SEIHIN
100
AcDbCircle
 10
837.3512683856947
 20
780.1690612805889
 30
0.0
 40
19.72637010794389
100
AcDbArc
 50
280.1983506612543
 51
287.2421577714731
  0
LINE
  5
23B1
330
19
100
AcDbEntity
  8
SEIHIN
100
AcDbLine
 10
842.96734863579
 20
761.2530139094699
 30
0.0
 11
843.5145486357901
 21
761.4615139094701
 31
0.0
  0
LINE
  5
23B2
330
19
100
AcDbEntity
  8
SEIHIN
100
AcDbLine
 10
843.5145486357901
 20
761.4615139094701
 30
0.0
 11
843.6983886357902
 21
761.6359039094698
 31
0.0
  0
LINE
  5
23B3
330
19
100
AcDbEntity
  8
SEIHIN
100
AcDbLine
 10
843.6983886357902
 20
761.6359039094698
 30
0.0
 11
844.64644863579
 21
761.7346639094701
 31
0.0
  0
LINE
  5
23B4
330
19
100
AcDbEntity
  8
SEIHIN
100
AcDbLine
 10
844.64644863579
 20
761.7346639094701
 30
0.0
 11
845.6983986357899
 21
761.7346639094701
 31
0.0
  0
LINE
  5
23B5
330
19
100
AcDbEntity
  8
SEIHIN
  6
PHANTOM
 62
     6
 48
5.0
100
AcDbLine
 10
1032.69839863579
 20
676.9104439094711
 30
0.0
 11
1042.69838863579
 21
775.7346739094698
 31
0.0
  0
LINE
  5
23B6
330
19
100
AcDbEntity
  8
SEIHIN
100
AcDbLine
 10
1002.69838863579
 20
660.4688539094714
 30
0.0
 11
1002.69838863579
 21
760.7346739094697
 31
0.0
  0
LINE
  5
23B7
330
19
100
AcDbEntity
  8
SEIHIN
100
AcDbLine
 10
1027.69837863579
 20
756.43219390947
 30
0.0
 11
1027.69837863579
 21
664.7603839094699
 31
0.0
  0
LINE
  5
23B8
330
19
100
AcDbEntity
  8
SEIHIN
  6
PHANTOM
 62
     6
 48
5.0
100
AcDbLine
 10
978.6983986357899
 20
641.9614039094701
 30
0.0
 11
1022.69840863579
 21
641.9614039094701
 31
0.0
  0
LINE
  5
23B9
330
19
100
AcDbEntity
  8
SEIHIN
100
AcDbLine
 10
951.69841863579
 20
638.9572939094698
 30
0.0
 11
1024.69840863579
 21
639.9586639094698
 31
0.0
  0
LINE
  5
23BA
330
19
100
AcDbEntity
  8
SEIHIN
100
AcDbLine
 10
975.27214863579
 20
642.16192390947
 30
0.0
 11
1004.19838863579
 21
642.16192390947
 31
0.0
  0
LINE
  5
23BB
330
19
100
AcDbEntity
  8
SEIHIN
100
AcDbLine
 10
1024.69840863579
 20
641.4069439094698
 30
0.0
 11
976.19839863579
 21
641.4069439094698
 31
0.0
  0
LINE
  5
23BC
330
19
100
AcDbEntity
  8
SEIHIN
100
AcDbLine
 10
981.1983786357901
 20
660.3432439094701
 30
0.0
 11
1002.19840863579
 21
660.3432439094701
 31
0.0
  0
LINE
  5
23BD
330
19
100
AcDbEntity
  8
SEIHIN
100
AcDbLine
 10
1004.69839863579
 20
645.7846639094699
 30
0.0
 11
975.1984086357902
 21
645.7846639094698
 31
0.0
  0
LINE
  5
23BE
330
19
100
AcDbEntity
  8
SEIHIN
100
AcDbLine
 10
975.1984086357902
 20
644.1619339094698
 30
0.0
 11
1004.69839863579
 21
644.1619339094698
 31
0.0
  0
LINE
  5
23BF
330
19
100
AcDbEntity
  8
SEIHIN
100
AcDbLine
 10
981.1983786357901
 20
675.4217839094697
 30
0.0
 11
1002.19840863579
 21
675.4217839094697
 31
0.0
  0
LINE
  5
23C0
330
19
100
AcDbEntity
  8
SEIHIN
100
AcDbLine
 10
980.69839863579
 20
676.91044390947
 30
0.0
 11
1002.69838863579
 21
676.9104439094701
 31
0.0
  0
ARC
  5
23C1
330
19
100
AcDbEntity
  8
SEIHIN
100
AcDbCircle
 10
976.1990638839751
 20
642.4075991917653
 30
0.0
 40
1.000655503428202
100
AcDbArc
 50
179.9590765139888
 51
269.9619090526149
  0
ARC
  5
23C2
330
19
100
AcDbEntity
  8
SEIHIN
100
AcDbCircle
 10
981.2080483350497
 20
660.8528882978211
 30
0.0
 40
0.5097361137504906
100
AcDbArc
 50
178.9449711107344
 51
268.9130332806744
  0
ARC
  5
23C3
330
19
100
AcDbEntity
  8
SEIHIN
100
AcDbCircle
 10
980.1822114553642
 20
661.9462522544486
 30
0.0
 40
0.5131914164026835
100
AcDbArc
 50
2.158813118318454
 51
88.61576948423108
  0
LINE
  5
23C4
330
19
100
AcDbEntity
  8
SEIHIN
100
AcDbLine
 10
975.1984086357897
 20
648.5448139094699
 30
0.0
 11
975.1984086357905
 21
642.4083139104498
 31
0.0
  0
ARC
  5
23C5
330
19
100
AcDbEntity
  8
SEIHIN
100
AcDbCircle
 10
980.2007641957452
 20
665.753717164448
 30
0.0
 40
0.4977624137072413
100
AcDbArc
 50
2.376108259889003
 51
90.27344386065747
  0
ARC
  5
23C6
330
19
100
AcDbEntity
  8
SEIHIN
100
AcDbCircle
 10
981.1970535625915
 20
675.9204429920568
 30
0.0
 40
0.4986608431244508
100
AcDbArc
 50
180.2791009814811
 51
270.1522501560271
  0
LINE
  5
23C7
330
19
100
AcDbEntity
  8
SEIHIN
  6
PHANTOM
 62
     6
 48
5.0
100
AcDbLine
 10
1022.69840863579
 20
641.9614039094701
 30
0.0
 11
1032.69839863579
 21
642.46207390947
 31
0.0
  0
LINE
  5
23C8
330
19
100
AcDbEntity
  8
SEIHIN
100
AcDbLine
 10
1004.58736863579
 20
642.1185139094697
 30
0.0
 11
1004.20237863579
 21
642.1642339094699
 31
0.0
  0
LINE
  5
23C9
330
19
100
AcDbEntity
  8
SEIHIN
100
AcDbLine
 10
1004.69839863579
 20
641.9614039094701
 30
0.0
 11
1004.69839863579
 21
662.5846639094699
 31
0.0
  0
LINE
  5
23CA
330
19
100
AcDbEntity
  8
SEIHIN
100
AcDbLine
 10
1004.69839863579
 20
642.08617390947
 30
0.0
 11
1004.58736863579
 21
642.1185139094697
 31
0.0
  0
LINE
  5
23CB
330
19
100
AcDbEntity
  8
SEIHIN
100
AcDbLine
 10
1024.69840863579
 20
641.9614039094701
 30
0.0
 11
1024.69840863579
 21
639.9600439094699
 31
0.0
  0
LINE
  5
23CC
330
19
100
AcDbEntity
  8
SEIHIN
100
AcDbLine
 10
1004.69839863579
 20
662.5846639094699
 30
0.0
 11
1033.198398635789
 21
662.5846639094699
 31
0.0
  0
LINE
  5
23CD
330
19
100
AcDbEntity
  8
SEIHIN
100
AcDbLine
 10
1002.69838863579
 20
665.1107239094701
 30
0.0
 11
1025.00617863579
 21
665.4532939094699
 31
0.0
  0
LINE
  5
23CE
330
19
100
AcDbEntity
  8
SEIHIN
100
AcDbLine
 10
1007.39494863579
 20
662.5846639094699
 30
0.0
 11
1019.71534863579
 21
663.5835139094699
 31
0.0
  0
LINE
  5
23CF
330
19
100
AcDbEntity
  8
SEIHIN
100
AcDbLine
 10
1027.19839863579
 20
679.4144839094699
 30
0.0
 11
1002.69838863579
 21
679.4144839094699
 31
0.0
  0
LINE
  5
23D0
330
19
100
AcDbEntity
  8
SEIHIN
100
AcDbLine
 10
1027.69837863579
 20
683.1857239094699
 30
0.0
 11
1002.69838863579
 21
683.1857239094699
 31
0.0
  0
LINE
  5
23D1
330
19
100
AcDbEntity
  8
SEIHIN
100
AcDbLine
 10
1002.19840863579
 20
659.3508139094699
 30
0.0
 11
1002.268968635789
 21
659.4510139094698
 31
0.0
  0
ARC
  5
23D2
330
19
100
AcDbEntity
  8
SEIHIN
100
AcDbCircle
 10
1002.152217461723
 20
658.8956411734755
 30
0.0
 40
0.4575104852945445
100
AcDbArc
 50
84.20543054875542
 51
172.7164957978804
  0
ARC
  5
23D3
330
19
100
AcDbEntity
  8
SEIHIN
100
AcDbCircle
 10
999.7520309277643
 20
658.8930928050306
 30
0.0
 40
0.4599251205300157
100
AcDbArc
 50
8.437005472693931
 51
95.6114491321149
  0
ARC
  5
23D4
330
19
100
AcDbEntity
  8
SEIHIN
100
AcDbCircle
 10
1002.198392086103
 20
646.5846573597832
 30
0.0
 40
0.4999934505871366
100
AcDbArc
 50
179.9981035207795
 51
270.0018964792742
  0
ARC
  5
23D5
330
19
100
AcDbEntity
  8
SEIHIN
100
AcDbCircle
 10
999.7069753108975
 20
646.5846672274643
 30
0.0
 40
0.5000033249372337
100
AcDbArc
 50
270.0095482658656
 51
0.0007656963361584
  0
ARC
  5
23D6
330
19
100
AcDbEntity
  8
SEIHIN
100
AcDbCircle
 10
1002.200281919241
 20
660.8413506389905
 30
0.0
 40
0.4981102520370079
100
AcDbArc
 50
269.7845226269281
 51
359.7841262355335
  0
LINE
  5
23D7
330
19
100
AcDbEntity
  8
0
100
AcDbLine
 10
1004.20237863579
 20
642.1642339094699
 30
0.0
 11
1004.19838863579
 21
642.1646539094697
 31
0.0
  0
LINE
  5
23D8
330
19
100
AcDbEntity
  8
SEIHIN
100
AcDbLine
 10
1002.69838863579
 20
660.4688539094698
 30
0.0
 11
1002.63880863579
 21
660.1227439094698
 31
0.0
  0
LINE
  5
23D9
330
19
100
AcDbEntity
  8
SEIHIN
100
AcDbLine
 10
1002.63880863579
 20
660.1227439094698
 30
0.0
 11
1002.268968635789
 21
659.4510139094698
 31
0.0
  0
LINE
  5
23DA
330
19
100
AcDbEntity
  8
SEIHIN
100
AcDbLine
 10
1002.19840863579
 20
659.3508139094699
 30
0.0
 11
1002.19840863579
 21
660.3432439094701
 31
0.0
  0
LINE
  5
23DB
330
19
100
AcDbEntity
  8
SEIHIN
100
AcDbLine
 10
1003.69837863579
 20
659.3508139094699
 30
0.0
 11
1003.86988863579
 21
659.5560139094698
 31
0.0
  0
LINE
  5
23DC
330
19
100
AcDbEntity
  8
SEIHIN
100
AcDbLine
 10
1003.86988863579
 20
659.5560139094698
 30
0.0
 11
1004.377098635789
 21
659.7524539094699
 31
0.0
  0
LINE
  5
23DD
330
19
100
AcDbEntity
  8
SEIHIN
100
AcDbLine
 10
1004.377098635789
 20
659.7524539094699
 30
0.0
 11
1004.69839863579
 21
659.8332439094699
 31
0.0
  0
LINE
  5
23DE
330
19
100
AcDbEntity
  8
SEIHIN
100
AcDbLine
 10
1004.69839863579
 20
659.3508139094699
 30
0.0
 11
1003.69837863579
 21
659.3508139094699
 31
0.0
  0
LINE
  5
23DF
330
19
100
AcDbEntity
  8
SEIHIN
100
AcDbLine
 10
1001.69839863579
 20
658.9536439094697
 30
0.0
 11
1001.69839863579
 21
646.5846739094697
 31
0.0
  0
LINE
  5
23E0
330
19
100
AcDbEntity
  8
SEIHIN
100
AcDbLine
 10
1000.20697863579
 20
658.9605739094698
 30
0.0
 11
1000.20697863579
 21
646.5846739094697
 31
0.0
  0
LINE
  5
23E1
330
19
100
AcDbEntity
  8
SEIHIN
100
AcDbLine
 10
1003.69837863579
 20
664.6289239094701
 30
0.0
 11
1003.63330863579
 21
664.7170939094701
 31
0.0
  0
LINE
  5
23E2
330
19
100
AcDbEntity
  8
SEIHIN
100
AcDbLine
 10
1003.63330863579
 20
664.7170939094701
 30
0.0
 11
1003.440198635789
 21
664.80046390947
 31
0.0
  0
LINE
  5
23E3
330
19
100
AcDbEntity
  8
SEIHIN
100
AcDbLine
 10
1003.440198635789
 20
664.80046390947
 30
0.0
 11
1003.12516863579
 21
664.8763639094702
 31
0.0
  0
LINE
  5
23E4
330
19
100
AcDbEntity
  8
SEIHIN
100
AcDbLine
 10
1003.12516863579
 20
664.8763639094702
 30
0.0
 11
1002.69838863579
 21
664.9423939094702
 31
0.0
  0
LINE
  5
23E5
330
19
100
AcDbEntity
  8
0
100
AcDbLine
 10
1002.69838863579
 20
665.1107239094701
 30
0.0
 11
1002.69838863579
 21
664.9423939094702
 31
0.0
  0
LINE
  5
23E6
330
19
100
AcDbEntity
  8
SEIHIN
100
AcDbLine
 10
1003.69837863579
 20
664.6289239094701
 30
0.0
 11
1003.69837863579
 21
659.3508139094699
 31
0.0
  0
ARC
  5
23E7
330
19
100
AcDbEntity
  8
SEIHIN
100
AcDbCircle
 10
1002.200281919241
 20
675.9198906389907
 30
0.0
 40
0.4981102520376874
100
AcDbArc
 50
269.7845226270063
 51
359.7841262355083
  0
LINE
  5
23E8
330
19
100
AcDbEntity
  8
SEIHIN
  6
PHANTOM
 62
     6
 48
5.0
100
AcDbLine
 10
1032.69839863579
 20
642.46207390947
 30
0.0
 11
1032.69839863579
 21
676.9104439094682
 31
0.0
  0
ARC
  5
23E9
330
19
100
AcDbEntity
  8
SEIHIN
100
AcDbCircle
 10
1023.426910637402
 20
665.0054437971728
 30
0.0
 40
1.64154108502614
100
AcDbArc
 50
358.3111206568538
 51
15.83231923803717
  0
ARC
  5
23EA
330
19
100
AcDbEntity
  8
SEIHIN
100
AcDbCircle
 10
1027.199575777278
 20
665.2611044487757
 30
0.0
 40
0.4993008482986755
100
AcDbArc
 50
11.54273197372873
 51
90.13507948543511
  0
ARC
  5
23EB
330
19
100
AcDbEntity
  8
SEIHIN
100
AcDbCircle
 10
1027.456987635184
 20
664.873733283624
 30
0.0
 40
0.2666790126620965
100
AcDbArc
 50
280.1817107315004
 51
334.8467746396871
  0
ARC
  5
23EC
330
19
100
AcDbEntity
  8
SEIHIN
100
AcDbCircle
 10
1023.951914816887
 20
676.7790700533222
 30
0.0
 40
12.67572375550197
100
AcDbArc
 50
275.0501931232229
 51
286.2743831729847
  0
LINE
  5
23ED
330
19
100
AcDbEntity
  8
SEIHIN
100
AcDbLine
 10
1019.71534863579
 20
663.5835139094699
 30
0.0
 11
1025.06773863579
 21
664.1525539094698
 31
0.0
  0
LINE
  5
23EE
330
19
100
AcDbEntity
  8
SEIHIN
100
AcDbLine
 10
1025.06773863579
 20
664.1525539094698
 30
0.0
 11
1025.06773863579
 21
664.9570639094697
 31
0.0
  0
ARC
  5
23EF
330
19
100
AcDbEntity
  8
SEIHIN
100
AcDbCircle
 10
1034.69839863579
 20
647.0846539094698
 30
0.0
 40
0.9999998999999998
100
AcDbArc
 50
180.0
 51
270.0
  0
ARC
  5
23F0
330
19
100
AcDbEntity
  8
SEIHIN
100
AcDbCircle
 10
1033.198398635789
 20
662.0846539094698
 30
0.0
 40
0.4999998000000002
100
AcDbArc
 50
0.0
 51
90.0
  0
LINE
  5
23F1
330
19
100
AcDbEntity
  8
SEIHIN
100
AcDbLine
 10
1033.69837863579
 20
662.0846539094698
 30
0.0
 11
1033.69837863579
 21
647.0846839094699
 31
0.0
  0
ARC
  5
23F2
330
19
100
AcDbEntity
  8
SEIHIN
100
AcDbCircle
 10
1025.040253513249
 20
675.6353727368624
 30
0.0
 40
10.18213584394298
100
AcDbArc
 50
269.8082572910157
 51
281.3063975252875
  0
ARC
  5
23F3
330
19
100
AcDbEntity
  8
SEIHIN
100
AcDbCircle
 10
1027.021725066401
 20
665.8470747146197
 30
0.0
 40
0.1967876484566225
100
AcDbArc
 50
274.3112943624439
 51
333.8688028216198
  0
ARC
  5
23F4
330
19
100
AcDbEntity
  8
SEIHIN
100
AcDbCircle
 10
1027.200051879917
 20
678.9157690182743
 30
0.0
 40
0.4987176314472984
100
AcDbArc
 50
11.48787615603618
 51
90.18993530315327
  0
LINE
  5
23F5
330
19
100
AcDbEntity
  8
SEIHIN
100
AcDbLine
 10
1003.69837863579
 20
760.7346739094698
 30
0.0
 11
1025.90560863579
 21
758.4214039094701
 31
0.0
  0
LINE
  5
23F6
330
19
100
AcDbEntity
  8
SEIHIN
100
AcDbLine
 10
1002.69838863579
 20
760.7346739094698
 30
0.0
 11
1003.69837863579
 21
760.7346739094698
 31
0.0
  0
ARC
  5
23F7
330
19
100
AcDbEntity
  8
SEIHIN
100
AcDbCircle
 10
1025.69839863579
 20
756.43219390947
 30
0.0
 40
1.999999799999999
100
AcDbArc
 50
0.0
 51
84.05312999999749
  0
LINE
  5
23F8
330
19
100
AcDbEntity
  8
SEIHIN
100
AcDbLine
 10
951.69841863579
 20
912.5120359094699
 30
0.0
 11
860.6982786357898
 21
912.5120359094701
 31
0.0
  0
LINE
  5
23F9
330
19
100
AcDbEntity
  8
SEIHIN
100
AcDbLine
 10
846.1363686357898
 20
902.9178979094702
 30
0.0
 11
975.1984086357902
 21
902.91789790947
 31
0.0
  0
LINE
  5
23FA
330
19
100
AcDbEntity
  8
SEIHIN
100
AcDbLine
 10
845.6983986357899
 20
904.47622690947
 30
0.0
 11
975.1984086357902
 21
904.47622690947
 31
0.0
  0
LINE
  5
23FB
330
19
100
AcDbEntity
  8
SEIHIN
100
AcDbLine
 10
980.6908086357898
 20
889.0100419094698
 30
0.0
 11
890.69839863579
 21
889.0100419094698
 31
0.0
  0
LINE
  5
23FC
330
19
100
AcDbEntity
  8
SEIHIN
100
AcDbLine
 10
890.69839863579
 20
885.2178559094697
 30
0.0
 11
980.1983886357902
 21
885.2178559094696
 31
0.0
  0
LINE
  5
23FD
330
19
100
AcDbEntity
  8
SEIHIN
100
AcDbLine
 10
845.6983986357899
 20
888.8846599094696
 30
0.0
 11
845.6983986357899
 21
872.0548249094697
 31
0.0
  0
LINE
  5
23FE
330
19
100
AcDbEntity
  8
SEIHIN
100
AcDbLine
 10
820.6984086357902
 20
872.55103390947
 30
0.0
 11
820.6984086357902
 21
886.7089399094702
 31
0.0
  0
LINE
  5
23FF
330
19
100
AcDbEntity
  8
SEIHIN
100
AcDbLine
 10
820.6984086357902
 20
795.0371539094701
 30
0.0
 11
820.6984086357902
 21
868.28360590947
 31
0.0
  0
ARC
  5
2400
330
19
100
AcDbEntity
  8
SEIHIN
100
AcDbCircle
 10
813.2952942274968
 20
637.0104081936975
 30
0.0
 40
156.1538601180412
100
AcDbArc
 50
79.83869964778572
 51
84.42739715619275
  0
LINE
  5
2401
330
19
100
AcDbEntity
  8
SEIHIN
100
AcDbLine
 10
822.491176246835
 20
793.0479173157327
 30
0.0
 11
828.458927146492
 21
792.426276966686
 31
0.0
  0
ARC
  5
2402
330
19
100
AcDbEntity
  8
SEIHIN
100
AcDbCircle
 10
822.6983886357903
 20
795.0371539094701
 30
0.0
 40
1.999999799999999
100
AcDbArc
 50
180.0
 51
264.0531299999974
  0
LINE
  5
2403
330
19
100
AcDbEntity
  8
SEIHIN
100
AcDbLine
 10
844.64644863579
 20
789.7346539094699
 30
0.0
 11
843.6983886357902
 21
789.8334139094697
 31
0.0
  0
LINE
  5
2404
330
19
100
AcDbEntity
  8
SEIHIN
100
AcDbLine
 10
843.6983886357902
 20
789.8334139094697
 30
0.0
 11
843.5145486357901
 21
790.0078039094698
 31
0.0
  0
LINE
  5
2405
330
19
100
AcDbEntity
  8
SEIHIN
100
AcDbLine
 10
843.5145486357901
 20
790.0078039094698
 30
0.0
 11
842.96734863579
 21
790.21630390947
 31
0.0
  0
LINE
  5
2406
330
19
100
AcDbEntity
  8
SEIHIN
100
AcDbLine
 10
842.96734863579
 20
790.21630390947
 30
0.0
 11
842.0699886357901
 21
790.4539339094701
 31
0.0
  0
LINE
  5
2407
330
19
100
AcDbEntity
  8
SEIHIN
100
AcDbLine
 10
845.6983986357899
 20
789.7346539094699
 30
0.0
 11
844.64644863579
 21
789.7346539094699
 31
0.0
  0
LINE
  5
2408
330
19
100
AcDbEntity
  8
SEIHIN
100
AcDbLine
 10
842.0699886357901
 20
790.4539339094701
 30
0.0
 11
840.8439486357902
 21
790.71499390947
 31
0.0
  0
LINE
  5
2409
330
19
100
AcDbEntity
  8
SEIHIN
100
AcDbLine
 10
845.6983986357899
 20
872.0548249094697
 30
0.0
 11
821.1983886357902
 21
872.0548249094697
 31
0.0
  0
LINE
  5
240A
330
19
100
AcDbEntity
  8
SEIHIN
100
AcDbLine
 10
845.6983986357899
 20
868.28360590947
 30
0.0
 11
821.1983886357902
 21
868.28360590947
 31
0.0
  0
ARC
  5
240B
330
19
100
AcDbEntity
  8
SEIHIN
100
AcDbCircle
 10
821.1970378700808
 20
872.5534582075381
 30
0.0
 40
0.4986351276339513
100
AcDbArc
 50
180.2785656026029
 51
270.1552102220867
  0
LINE
  5
240C
330
19
100
AcDbEntity
  8
SEIHIN
100
AcDbLine
 10
821.1983886357902
 20
872.0548249094697
 30
0.0
 11
821.1983886357902
 21
868.28360590947
 31
0.0
  0
LINE
  5
240D
330
19
100
AcDbEntity
  8
SEIHIN
100
AcDbLine
 10
820.6984086357902
 20
868.28360590947
 30
0.0
 11
820.6984086357902
 21
872.55103390947
 31
0.0
  0
LINE
  5
240E
330
19
100
AcDbEntity
  8
0
100
AcDbLine
 10
845.6983986357899
 20
872.0548249094697
 30
0.0
 11
845.6983986357899
 21
868.28360590947
 31
0.0
  0
LINE
  5
240F
330
19
100
AcDbEntity
  8
SEIHIN
100
AcDbLine
 10
860.6983986357899
 20
880.5583879094699
 30
0.0
 11
845.6983986357899
 21
876.5782129094699
 31
0.0
  0
LINE
  5
2410
330
19
100
AcDbEntity
  8
SEIHIN
100
AcDbLine
 10
860.6983986357899
 20
875.0008069094699
 30
0.0
 11
845.6983986357899
 21
874.6108819094699
 31
0.0
  0
LINE
  5
2411
330
19
100
AcDbEntity
  8
SEIHIN
100
AcDbLine
 10
860.6982786357898
 20
912.5120359094701
 30
0.0
 11
843.69826863579
 21
909.5079169094699
 31
0.0
  0
LINE
  5
2412
330
19
100
AcDbEntity
  8
SEIHIN
100
AcDbLine
 10
845.6983986357899
 20
892.5289759094701
 30
0.0
 11
860.5268586357901
 21
895.9241389094698
 31
0.0
  0
LINE
  5
2413
330
19
100
AcDbEntity
  8
SEIHIN
100
AcDbLine
 10
860.6983986357899
 20
895.0218439094699
 30
0.0
 11
845.6983986357899
 21
891.58739890947
 31
0.0
  0
LINE
  5
2414
330
19
100
AcDbEntity
  8
SEIHIN
100
AcDbLine
 10
843.69826863579
 20
909.5079169094699
 30
0.0
 11
789.6970686357899
 21
909.5079169094699
 31
0.0
  0
LINE
  5
2415
330
19
100
AcDbEntity
  8
SEIHIN
100
AcDbLine
 10
845.1983886357902
 20
888.8846599094698
 30
0.0
 11
815.1983886357902
 21
888.8846599094698
 31
0.0
  0
LINE
  5
2416
330
19
100
AcDbEntity
  8
SEIHIN
100
AcDbLine
 10
814.6984086357901
 20
889.3846549094698
 30
0.0
 11
814.6984086357901
 21
904.3846519094698
 31
0.0
  0
ARC
  5
2417
330
19
100
AcDbEntity
  8
SEIHIN
100
AcDbCircle
 10
815.1983886357902
 20
889.3846549094698
 30
0.0
 40
0.4999998000000002
100
AcDbArc
 50
180.0
 51
270.0
  0
LINE
  5
2418
330
19
100
AcDbEntity
  8
SEIHIN
100
AcDbLine
 10
789.6983886357902
 20
905.8846549094699
 30
0.0
 11
789.6983886357902
 21
909.5079169094699
 31
0.0
  0
LINE
  5
2419
330
19
100
AcDbEntity
  8
SEIHIN
100
AcDbLine
 10
788.93719863579
 20
905.69331490947
 30
0.0
 11
789.5062386357899
 21
905.7871129094699
 31
0.0
  0
LINE
  5
241A
330
19
100
AcDbEntity
  8
SEIHIN
100
AcDbLine
 10
789.5062386357899
 20
905.7871129094699
 30
0.0
 11
789.6983886357902
 21
905.8846549094699
 31
0.0
  0
ARC
  5
241B
330
19
100
AcDbEntity
  8
SEIHIN
100
AcDbCircle
 10
813.6983886357903
 20
904.3846549094698
 30
0.0
 40
0.9999998999999998
100
AcDbArc
 50
0.0
 51
90.0
  0
LINE
  5
241C
330
19
100
AcDbEntity
  8
SEIHIN
100
AcDbLine
 10
845.6983986357899
 20
904.47622690947
 30
0.0
 11
845.6983986357899
 21
889.3846549094698
 31
0.0
  0
LINE
  5
241D
330
19
100
AcDbEntity
  8
SEIHIN
100
AcDbLine
 10
828.68143863579
 20
887.8858159094701
 30
0.0
 11
841.0018386357901
 21
888.8846599094698
 31
0.0
  0
LINE
  5
241E
330
19
100
AcDbEntity
  8
SEIHIN
100
AcDbLine
 10
845.6983986357899
 20
886.3586089094699
 30
0.0
 11
823.3906086357901
 21
886.0160359094701
 31
0.0
  0
ARC
  5
241F
330
19
100
AcDbEntity
  8
SEIHIN
100
AcDbCircle
 10
821.1965051565476
 20
886.2070074000833
 30
0.0
 40
0.4981000516520274
100
AcDbArc
 50
180.2157356744086
 51
270.2166546022372
  0
ARC
  5
2420
330
19
100
AcDbEntity
  8
SEIHIN
100
AcDbCircle
 10
822.1702409351578
 20
883.0514495768861
 30
0.0
 40
2.883131210784215
100
AcDbArc
 50
96.87802162307644
 51
106.316012882495
  0
ARC
  5
2421
330
19
100
AcDbEntity
  8
SEIHIN
100
AcDbCircle
 10
823.485607160579
 20
872.5178301253988
 30
0.0
 40
13.49854007323919
100
AcDbArc
 50
90.40323319656284
 51
97.06663344994066
  0
ARC
  5
2422
330
19
100
AcDbEntity
  8
SEIHIN
100
AcDbCircle
 10
822.2158650007981
 20
883.4143477404696
 30
0.0
 40
3.689197759830346
100
AcDbArc
 50
101.9768040802314
 51
111.018568641035
  0
ARC
  5
2423
330
19
100
AcDbEntity
  8
SEIHIN
100
AcDbCircle
 10
824.9632450060834
 20
870.698043933207
 30
0.0
 40
16.69888471015846
100
AcDbArc
 50
95.6161030452724
 51
102.1440430621169
  0
LINE
  5
2424
330
19
100
AcDbEntity
  8
SEIHIN
100
AcDbLine
 10
821.3602686357898
 20
885.81846790947
 30
0.0
 11
821.2391886357901
 21
885.76459990947
 31
0.0
  0
LINE
  5
2425
330
19
100
AcDbEntity
  8
SEIHIN
100
AcDbLine
 10
821.2391886357901
 20
885.76459990947
 30
0.0
 11
821.1983886357902
 21
885.7089109094697
 31
0.0
  0
LINE
  5
2426
330
19
100
AcDbEntity
  8
SEIHIN
100
AcDbLine
 10
820.6984086357902
 20
886.70893990947
 30
0.0
 11
820.7473686357898
 21
886.78021990947
 31
0.0
  0
LINE
  5
2427
330
19
100
AcDbEntity
  8
SEIHIN
100
AcDbLine
 10
820.7473686357898
 20
886.78021990947
 30
0.0
 11
820.8926586357902
 21
886.8580819094697
 31
0.0
  0
LINE
  5
2428
330
19
100
AcDbEntity
  8
SEIHIN
100
AcDbLine
 10
823.3290486357899
 20
887.3167729094701
 30
0.0
 11
828.68143863579
 21
887.8858159094701
 31
0.0
  0
ARC
  5
2429
330
19
100
AcDbEntity
  8
SEIHIN
100
AcDbCircle
 10
845.1983886357902
 20
889.3846549094698
 30
0.0
 40
0.4999998000000002
100
AcDbArc
 50
270.0
 51
0.0
  0
ARC
  5
242A
330
19
100
AcDbEntity
  8
SEIHIN
100
AcDbCircle
 10
846.1987160190911
 20
902.4214475004429
 30
0.0
 40
0.5003175227826242
100
AcDbArc
 50
90.03863674529126
 51
180.0427832067301
  0
LINE
  5
242B
330
19
100
AcDbEntity
  8
SEIHIN
100
AcDbLine
 10
886.69837863579
 20
880.5583879094699
 30
0.0
 11
860.6983986357899
 21
880.5583879094699
 31
0.0
  0
LINE
  5
242C
330
19
100
AcDbEntity
  8
SEIHIN
100
AcDbLine
 10
886.69837863579
 20
875.0008069094699
 30
0.0
 11
860.6983986357899
 21
875.0008069094699
 31
0.0
  0
LINE
  5
242D
330
19
100
AcDbEntity
  8
SEIHIN
100
AcDbLine
 10
860.5222986357899
 20
895.9429579094701
 30
0.0
 11
886.69837863579
 21
895.9429579094701
 31
0.0
  0
LINE
  5
242E
330
19
100
AcDbEntity
  8
SEIHIN
100
AcDbLine
 10
886.69837863579
 20
895.0264939094697
 30
0.0
 11
860.69596863579
 21
895.0264939094697
 31
0.0
  0
LINE
  5
242F
330
19
100
AcDbEntity
  8
SEIHIN
100
AcDbLine
 10
860.7200408838357
 20
895.0267991835092
 30
0.0
 11
859.01683863579
 21
902.9178979094702
 31
0.0
  0
LINE
  5
2430
330
19
100
AcDbEntity
  8
SEIHIN
100
AcDbLine
 10
891.6983886357902
 20
892.5156889094699
 30
0.0
 11
891.6983886357902
 21
902.9178979094702
 31
0.0
  0
LINE
  5
2431
330
19
100
AcDbEntity
  8
SEIHIN
100
AcDbLine
 10
893.18980863579
 20
892.5087589094699
 30
0.0
 11
893.18980863579
 21
902.9178979094702
 31
0.0
  0
LINE
  5
2432
330
19
100
AcDbEntity
  8
SEIHIN
100
AcDbLine
 10
891.1984086357902
 20
892.1184979094698
 30
0.0
 11
891.1984086357902
 21
902.9178979094702
 31
0.0
  0
LINE
  5
2433
330
19
100
AcDbEntity
  8
SEIHIN
100
AcDbLine
 10
893.6897286357899
 20
902.9178979094702
 30
0.0
 11
893.6897286357899
 21
892.1184979094698
 31
0.0
  0
ARC
  5
2434
330
19
100
AcDbEntity
  8
SEIHIN
100
AcDbCircle
 10
893.6572180145294
 20
892.592178644875
 30
0.0
 40
0.474795092211979
100
AcDbArc
 50
190.119180320984
 51
273.926283302686
  0
ARC
  5
2435
330
19
100
AcDbEntity
  8
SEIHIN
100
AcDbCircle
 10
891.2445468126506
 20
892.5737000156956
 30
0.0
 40
0.4575343581377173
100
AcDbArc
 50
264.2124046663009
 51
352.7158211824636
  0
ARC
  5
2436
330
19
100
AcDbEntity
  8
SEIHIN
100
AcDbCircle
 10
890.7060774262617
 20
893.0177405902385
 30
0.0
 40
4.007706037081234
100
AcDbArc
 50
179.8910424852959
 51
269.8902208517941
  0
ARC
  5
2437
330
19
100
AcDbEntity
  8
SEIHIN
100
AcDbCircle
 10
890.6789563307661
 20
889.198786201155
 30
0.0
 40
3.980977768147262
100
AcDbArc
 50
181.097318209091
 51
270.2798223238264
  0
LINE
  5
2438
330
19
100
AcDbEntity
  8
SEIHIN
100
AcDbLine
 10
893.6897286357899
 20
892.1184979094698
 30
0.0
 11
891.1984086357902
 21
892.1184979094698
 31
0.0
  0
LINE
  5
2439
330
19
100
AcDbEntity
  8
SEIHIN
100
AcDbLine
 10
1027.69837863579
 20
886.7089399094696
 30
0.0
 11
1027.69837863579
 21
795.04605332517
 31
0.0
  0
LINE
  5
243A
330
19
100
AcDbEntity
  8
SEIHIN
100
AcDbLine
 10
1025.90560863579
 20
793.0479139094698
 30
0.0
 11
1003.69837863579
 21
790.7346739094698
 31
0.0
  0
LINE
  5
243B
330
19
100
AcDbEntity
  8
SEIHIN
100
AcDbLine
 10
1003.69837863579
 20
790.7346739094698
 30
0.0
 11
1002.69838863579
 21
790.7346739094698
 31
0.0
  0
LINE
  5
243C
330
19
100
AcDbEntity
  8
0
100
AcDbLine
 10
1002.69838863579
 20
791.13319390947
 30
0.0
 11
1002.69838863579
 21
790.7346739094698
 31
0.0
  0
ARC
  5
243D
330
19
100
AcDbEntity
  8
SEIHIN
100
AcDbCircle
 10
1025.69839863579
 20
795.0371539094701
 30
0.0
 40
1.999999799999999
100
AcDbArc
 50
275.9468630000037
 51
0.0
  0
LINE
  5
243E
330
19
100
AcDbEntity
  8
SEIHIN
100
AcDbLine
 10
1027.19839863579
 20
872.0548249094695
 30
0.0
 11
1002.69838863579
 21
872.0548249094695
 31
0.0
  0
LINE
  5
243F
330
19
100
AcDbEntity
  8
SEIHIN
100
AcDbLine
 10
1027.698378635789
 20
868.2836059094698
 30
0.0
 11
1002.69838863579
 21
868.2836059094698
 31
0.0
  0
ARC
  5
2440
330
19
100
AcDbEntity
  8
SEIHIN
100
AcDbCircle
 10
1027.20154664667
 20
872.5521450307695
 30
0.0
 40
0.4968332315805116
100
AcDbArc
 50
280.9508666580633
 51
359.8718632128163
  0
LINE
  5
2441
330
19
100
AcDbEntity
  8
SEIHIN
  6
PHANTOM
 62
     6
 48
5.0
100
AcDbLine
 10
1032.69842863579
 20
909.5079169094699
 30
0.0
 11
978.6983986357899
 21
909.5079169094699
 31
0.0
  0
LINE
  5
2442
330
19
100
AcDbEntity
  8
SEIHIN
100
AcDbLine
 10
981.1983786357901
 20
876.04752790947
 30
0.0
 11
1002.69838863579
 21
876.0475279094698
 31
0.0
  0
LINE
  5
2443
330
19
100
AcDbEntity
  8
SEIHIN
100
AcDbLine
 10
980.69839863579
 20
874.55889190947
 30
0.0
 11
1002.69838863579
 21
874.5588919094698
 31
0.0
  0
LINE
  5
2444
330
19
100
AcDbEntity
  8
SEIHIN
100
AcDbLine
 10
1024.69840863579
 20
911.5106659094696
 30
0.0
 11
951.69841863579
 21
912.5120359094699
 31
0.0
  0
LINE
  5
2445
330
19
100
AcDbEntity
  8
SEIHIN
100
AcDbLine
 10
1004.19838863579
 20
909.30739990947
 30
0.0
 11
975.27214863579
 21
909.30739990947
 31
0.0
  0
LINE
  5
2446
330
19
100
AcDbEntity
  8
SEIHIN
100
AcDbLine
 10
976.19839863579
 20
910.0623859094699
 30
0.0
 11
1024.69840863579
 21
910.0623859094699
 31
0.0
  0
LINE
  5
2447
330
19
100
AcDbEntity
  8
SEIHIN
100
AcDbLine
 10
1004.495994263765
 20
905.3846599094695
 30
0.0
 11
975.1984086357902
 21
905.3846599094695
 31
0.0
  0
LINE
  5
2448
330
19
100
AcDbEntity
  8
SEIHIN
100
AcDbLine
 10
1002.19840863579
 20
891.1260679094699
 30
0.0
 11
981.1983786357901
 21
891.1260679094699
 31
0.0
  0
LINE
  5
2449
330
19
100
AcDbEntity
  8
SEIHIN
100
AcDbLine
 10
1004.19838863579
 20
907.3073989094696
 30
0.0
 11
975.1984086357902
 21
907.3073989094696
 31
0.0
  0
ARC
  5
244A
330
19
100
AcDbEntity
  8
SEIHIN
100
AcDbCircle
 10
981.1964900786811
 20
875.5494364898119
 30
0.0
 40
0.4980949999601833
100
AcDbArc
 50
89.7827590901725
 51
179.7834650853483
  0
ARC
  5
244B
330
19
100
AcDbEntity
  8
SEIHIN
100
AcDbCircle
 10
980.1973011698946
 20
884.9289994483116
 30
0.0
 40
0.2888585081571237
100
AcDbArc
 50
69.42860142660762
 51
89.78429801580334
  0
ARC
  5
244C
330
19
100
AcDbEntity
  8
SEIHIN
100
AcDbCircle
 10
981.2092642776324
 20
890.6152523971554
 30
0.0
 40
0.5109314874024768
100
AcDbArc
 50
91.22080659606067
 51
180.9198652408943
  0
LINE
  5
244D
330
19
100
AcDbEntity
  8
SEIHIN
100
AcDbLine
 10
980.2987986357903
 20
885.1994389094699
 30
0.0
 11
980.40670863579
 21
885.1382599094696
 31
0.0
  0
LINE
  5
244E
330
19
100
AcDbEntity
  8
SEIHIN
100
AcDbLine
 10
980.40670863579
 20
885.1382599094696
 30
0.0
 11
980.60653863579
 21
884.8901239094699
 31
0.0
  0
LINE
  5
244F
330
19
100
AcDbEntity
  8
SEIHIN
100
AcDbLine
 10
980.60653863579
 20
884.8901239094699
 30
0.0
 11
980.69839863579
 21
884.54694490947
 31
0.0
  0
ARC
  5
2450
330
19
100
AcDbEntity
  8
SEIHIN
100
AcDbCircle
 10
976.204092711905
 20
909.0496281688745
 30
0.0
 40
1.0127737475069
100
AcDbArc
 50
90.32213339773443
 51
186.7834111185294
  0
LINE
  5
2451
330
19
100
AcDbEntity
  8
SEIHIN
100
AcDbLine
 10
975.1984086357902
 20
908.9300029094692
 30
0.0
 11
975.1984086357902
 21
902.91789790947
 31
0.0
  0
LINE
  5
2452
330
19
100
AcDbEntity
  8
SEIHIN
100
AcDbLine
 10
1033.198398635789
 20
888.8846599094696
 30
0.0
 11
1004.69839863579
 21
888.8846599094696
 31
0.0
  0
LINE
  5
2453
330
19
100
AcDbEntity
  8
SEIHIN
100
AcDbLine
 10
1025.00617863579
 20
886.0160359094699
 30
0.0
 11
1002.69838863579
 21
886.3586089094697
 31
0.0
  0
LINE
  5
2454
330
19
100
AcDbEntity
  8
SEIHIN
100
AcDbLine
 10
1019.71534863579
 20
887.8858159094699
 30
0.0
 11
1007.39494863579
 21
888.8846599094696
 31
0.0
  0
LINE
  5
2455
330
19
100
AcDbEntity
  8
SEIHIN
100
AcDbLine
 10
1004.69839863579
 20
909.5079169094699
 30
0.0
 11
1004.69839863579
 21
888.8846599094696
 31
0.0
  0
LINE
  5
2456
330
19
100
AcDbEntity
  8
SEIHIN
100
AcDbLine
 10
1001.69839863579
 20
892.5156889094697
 30
0.0
 11
1001.69839863579
 21
904.8846499094699
 31
0.0
  0
LINE
  5
2457
330
19
100
AcDbEntity
  8
SEIHIN
100
AcDbLine
 10
1000.20697863579
 20
904.8846499094699
 30
0.0
 11
1000.20697863579
 21
892.5087589094697
 31
0.0
  0
ARC
  5
2458
330
19
100
AcDbEntity
  8
SEIHIN
100
AcDbCircle
 10
1002.200783582898
 20
890.62846657619
 30
0.0
 40
0.497607000810609
100
AcDbArc
 50
0.1603171269410689
 51
90.2734586977751
  0
LINE
  5
2459
330
19
100
AcDbEntity
  8
SEIHIN
100
AcDbLine
 10
1002.198408635789
 20
892.1184979094697
 30
0.0
 11
1002.268968635789
 21
892.0183069094697
 31
0.0
  0
ARC
  5
245A
330
19
100
AcDbEntity
  8
SEIHIN
100
AcDbCircle
 10
1002.152245185615
 20
892.5737024799881
 30
0.0
 40
0.4575393591297657
100
AcDbArc
 50
187.284409872416
 51
275.7907129557476
  0
ARC
  5
245B
330
19
100
AcDbEntity
  8
SEIHIN
100
AcDbCircle
 10
999.7520127767698
 20
892.5762386345281
 30
0.0
 40
0.4599428727224274
100
AcDbArc
 50
264.3910401245454
 51
351.563496251765
  0
LINE
  5
245C
330
19
100
AcDbEntity
  8
SEIHIN
100
AcDbLine
 10
1003.69837863579
 20
886.84041190947
 30
0.0
 11
1003.69837863579
 21
892.1184979094697
 31
0.0
  0
LINE
  5
245D
330
19
100
AcDbEntity
  8
SEIHIN
100
AcDbLine
 10
1002.69838863579
 20
886.5269299094698
 30
0.0
 11
1003.12516863579
 21
886.5929449094698
 31
0.0
  0
LINE
  5
245E
330
19
100
AcDbEntity
  8
SEIHIN
100
AcDbLine
 10
1003.12516863579
 20
886.5929449094698
 30
0.0
 11
1003.440198635789
 21
886.6688629094698
 31
0.0
  0
LINE
  5
245F
330
19
100
AcDbEntity
  8
SEIHIN
100
AcDbLine
 10
1003.440198635789
 20
886.6688629094698
 30
0.0
 11
1003.63330863579
 21
886.7522359094698
 31
0.0
  0
LINE
  5
2460
330
19
100
AcDbEntity
  8
SEIHIN
100
AcDbLine
 10
1003.63330863579
 20
886.7522359094698
 30
0.0
 11
1003.69837863579
 21
886.84041190947
 31
0.0
  0
LINE
  5
2461
330
19
100
AcDbEntity
  8
SEIHIN
100
AcDbLine
 10
1002.268968635789
 20
892.0183069094697
 30
0.0
 11
1002.63880863579
 21
891.3465919094697
 31
0.0
  0
LINE
  5
2462
330
19
100
AcDbEntity
  8
SEIHIN
100
AcDbLine
 10
1002.63880863579
 20
891.3465919094697
 30
0.0
 11
1002.69838863579
 21
891.0004639094696
 31
0.0
  0
LINE
  5
2463
330
19
100
AcDbEntity
  8
SEIHIN
100
AcDbLine
 10
1004.69839863579
 20
891.6360919094696
 30
0.0
 11
1004.377098635789
 21
891.7168819094696
 31
0.0
  0
LINE
  5
2464
330
19
100
AcDbEntity
  8
SEIHIN
100
AcDbLine
 10
1004.377098635789
 20
891.7168819094696
 30
0.0
 11
1003.86988863579
 21
891.9133189094697
 31
0.0
  0
LINE
  5
2465
330
19
100
AcDbEntity
  8
SEIHIN
100
AcDbLine
 10
1003.86988863579
 20
891.9133189094697
 30
0.0
 11
1003.69837863579
 21
892.1184979094697
 31
0.0
  0
LINE
  5
2466
330
19
100
AcDbEntity
  8
0
100
AcDbLine
 10
1002.69838863579
 20
886.5269299094698
 30
0.0
 11
1002.69838863579
 21
886.3586089094697
 31
0.0
  0
LINE
  5
2467
330
19
100
AcDbEntity
  8
SEIHIN
100
AcDbLine
 10
1003.69837863579
 20
892.1184979094697
 30
0.0
 11
1004.69839863579
 21
892.1184979094697
 31
0.0
  0
ARC
  5
2468
330
19
100
AcDbEntity
  8
SEIHIN
100
AcDbCircle
 10
1004.512131449778
 20
905.1935665677373
 30
0.0
 40
0.1917734966746117
100
AcDbArc
 50
13.76316601093825
 51
94.82698190687537
  0
ARC
  5
2469
330
19
100
AcDbEntity
  8
SEIHIN
100
AcDbCircle
 10
1002.198401703499
 20
904.8846568417602
 30
0.0
 40
0.5000030677573147
100
AcDbArc
 50
89.9992056228454
 51
180.0007943770878
  0
ARC
  5
246A
330
19
100
AcDbEntity
  8
SEIHIN
100
AcDbCircle
 10
999.7069994884968
 20
904.8846807647224
 30
0.0
 40
0.4999791482457062
100
AcDbArc
 50
359.9964641010397
 51
89.99322193675936
  0
LINE
  5
246B
330
19
100
AcDbEntity
  8
0
100
AcDbLine
 10
1004.19838863579
 20
909.3046609094701
 30
0.0
 11
1004.20237863579
 21
909.3050749094697
 31
0.0
  0
LINE
  5
246C
330
19
100
AcDbEntity
  8
SEIHIN
100
AcDbLine
 10
1004.20237863579
 20
909.3050749094697
 30
0.0
 11
1004.58736863579
 21
909.3508189094697
 31
0.0
  0
LINE
  5
246D
330
19
100
AcDbEntity
  8
SEIHIN
100
AcDbLine
 10
1004.58736863579
 20
909.3508189094697
 30
0.0
 11
1004.69839863579
 21
909.38316190947
 31
0.0
  0
LINE
  5
246E
330
19
100
AcDbEntity
  8
SEIHIN
100
AcDbLine
 10
1004.19838863579
 20
905.3846599094695
 30
0.0
 11
1004.19838863579
 21
909.30739990947
 31
0.0
  0
LINE
  5
246F
330
19
100
AcDbEntity
  8
SEIHIN
100
AcDbLine
 10
1033.69837863579
 20
904.3846519094696
 30
0.0
 11
1033.69837863579
 21
889.3846549094698
 31
0.0
  0
ARC
  5
2470
330
19
100
AcDbEntity
  8
SEIHIN
100
AcDbCircle
 10
1027.199742992788
 20
886.2075506063151
 30
0.0
 40
0.4986415090683445
100
AcDbArc
 50
269.8455281517971
 51
359.7220815715057
  0
ARC
  5
2471
330
19
100
AcDbEntity
  8
SEIHIN
100
AcDbCircle
 10
1024.911180111001
 20
872.5178301253993
 30
0.0
 40
13.4985400732385
100
AcDbArc
 50
82.93336655005935
 51
89.59676680343715
  0
ARC
  5
2472
330
19
100
AcDbEntity
  8
SEIHIN
100
AcDbCircle
 10
1024.255184831238
 20
875.5329614521022
 30
0.0
 40
11.79799032188852
100
AcDbArc
 50
75.20845249897416
 51
83.46757615711599
  0
LINE
  5
2473
330
19
100
AcDbEntity
  8
SEIHIN
100
AcDbLine
 10
1027.19839863579
 20
885.7089109094696
 30
0.0
 11
1027.157598635789
 21
885.7645999094698
 31
0.0
  0
LINE
  5
2474
330
19
100
AcDbEntity
  8
SEIHIN
100
AcDbLine
 10
1027.157598635789
 20
885.7645999094698
 30
0.0
 11
1027.036518635789
 21
885.8184679094698
 31
0.0
  0
LINE
  5
2475
330
19
100
AcDbEntity
  8
SEIHIN
100
AcDbLine
 10
1027.036518635789
 20
885.8184679094698
 30
0.0
 11
1026.83908863579
 21
885.8687599094697
 31
0.0
  0
LINE
  5
2476
330
19
100
AcDbEntity
  8
SEIHIN
100
AcDbLine
 10
1027.26724863579
 20
886.9399789094696
 30
0.0
 11
1027.50412863579
 21
886.8580819094697
 31
0.0
  0
LINE
  5
2477
330
19
100
AcDbEntity
  8
SEIHIN
100
AcDbLine
 10
1027.50412863579
 20
886.8580819094697
 30
0.0
 11
1027.64941863579
 21
886.78021990947
 31
0.0
  0
LINE
  5
2478
330
19
100
AcDbEntity
  8
SEIHIN
100
AcDbLine
 10
1027.64941863579
 20
886.78021990947
 30
0.0
 11
1027.69837863579
 21
886.7089399094698
 31
0.0
  0
LINE
  5
2479
330
19
100
AcDbEntity
  8
SEIHIN
100
AcDbLine
 10
1025.06773863579
 20
887.3167729094699
 30
0.0
 11
1019.71534863579
 21
887.8858159094699
 31
0.0
  0
LINE
  5
247A
330
19
100
AcDbEntity
  8
SEIHIN
100
AcDbLine
 10
1025.06773863579
 20
887.3167729094699
 30
0.0
 11
1025.59738863579
 21
887.2543549094698
 31
0.0
  0
LINE
  5
247B
330
19
100
AcDbEntity
  8
SEIHIN
100
AcDbLine
 10
1026.83908863579
 20
885.8687599094697
 30
0.0
 11
1026.571818635789
 21
885.9138319094697
 31
0.0
  0
ARC
  5
247C
330
19
100
AcDbEntity
  8
SEIHIN
100
AcDbCircle
 10
1033.198398635789
 20
889.3846549094698
 30
0.0
 40
0.4999998000000002
100
AcDbArc
 50
270.0
 51
0.0
  0
LINE
  5
247D
330
19
100
AcDbEntity
  8
SEIHIN
100
AcDbLine
 10
1024.69840863579
 20
909.5079169094699
 30
0.0
 11
1024.69840863579
 21
911.5106659094694
 31
0.0
  0
LINE
  5
247E
330
19
100
AcDbEntity
  8
SEIHIN
  6
PHANTOM
 62
     6
 48
5.0
100
AcDbLine
 10
1042.69838863579
 20
909.0072379094696
 30
0.0
 11
1032.69842863579
 21
909.5079169094699
 31
0.0
  0
ARC
  5
247F
330
19
100
AcDbEntity
  8
SEIHIN
100
AcDbCircle
 10
1034.69839863579
 20
904.3846549094698
 30
0.0
 40
0.9999998999999998
100
AcDbArc
 50
90.0
 51
180.0
  0
LINE
  5
2480
330
19
100
AcDbEntity
  8
SEIHIN
  6
PHANTOM
 62
     6
 48
5.0
100
AcDbLine
 10
1110.698388635791
 20
775.7346739094697
 30
0.0
 11
1110.698388635789
 21
909.0072379094694
 31
0.0
  0
LINE
  5
2481
330
19
100
AcDbEntity
  8
SEIHIN
100
AcDbLine
 10
1068.698388635791
 20
775.7346739094697
 30
0.0
 11
1068.698388635789
 21
909.0072379094694
 31
0.0
  0
LINE
  5
2482
330
19
100
AcDbEntity
  8
SEIHIN
  6
PHANTOM
 62
     6
 48
5.0
100
AcDbLine
 10
1100.69839863579
 20
676.9104439094711
 30
0.0
 11
1110.69838863579
 21
775.7346739094698
 31
0.0
  0
LINE
  5
2483
330
19
100
AcDbEntity
  8
SEIHIN
100
AcDbLine
 10
1058.69839863579
 20
676.9104439094711
 30
0.0
 11
1068.69838863579
 21
775.7346739094698
 31
0.0
  0
LINE
  5
2484
330
19
100
AcDbEntity
  8
SEIHIN
  6
PHANTOM
 62
     6
 48
5.0
100
AcDbLine
 10
1090.69840863579
 20
641.9614039094701
 30
0.0
 11
1100.69839863579
 21
642.46207390947
 31
0.0
  0
LINE
  5
2485
330
19
100
AcDbEntity
  8
SEIHIN
100
AcDbLine
 10
1048.69840863579
 20
641.9614039094701
 30
0.0
 11
1058.69839863579
 21
642.46207390947
 31
0.0
  0
LINE
  5
2486
330
19
100
AcDbEntity
  8
SEIHIN
100
AcDbLine
 10
1058.69839863579
 20
642.46207390947
 30
0.0
 11
1058.69839863579
 21
676.9104439094682
 31
0.0
  0
LINE
  5
2487
330
19
100
AcDbEntity
  8
SEIHIN
  6
PHANTOM
 62
     6
 48
5.0
100
AcDbLine
 10
1100.69839863579
 20
642.46207390947
 30
0.0
 11
1100.69839863579
 21
676.9104439094682
 31
0.0
  0
LINE
  5
2488
330
19
100
AcDbEntity
  8
SEIHIN
100
AcDbLine
 10
1068.69838863579
 20
909.0072379094696
 30
0.0
 11
1058.69842863579
 21
909.5079169094699
 31
0.0
  0
LINE
  5
2489
330
19
100
AcDbEntity
  8
SEIHIN
  6
PHANTOM
 62
     6
 48
5.0
100
AcDbLine
 10
1110.69838863579
 20
909.0072379094696
 30
0.0
 11
1100.69842863579
 21
909.5079169094699
 31
0.0
  0
VIEWPORT
  5
22
330
16
100
AcDbEntity
 67
     1
  8
0
100
AcDbViewport
 10
313.6808219178082
 20
148.5
 30
0.0
 40
627.3616438356165
 41
297.0
 68
     2
 69
     1
1001
ACAD
1000
MVIEW
1002
{
1070
    16
1010
0.0
1020
0.0
1030
0.0
1010
0.0
1020
0.0
1030
1.0
1040
0.0
1040
297.0
1040
313.6808219178082
1040
148.5
1040
50.0
1040
0.0
1040
0.0
1070
     0
1070
   100
1070
     1
1070
     0
1070
     0
1070
     0
1070
     0
1070
     0
1040
0.0
1040
0.0
1040
0.0
1040
10.0
1040
10.0
1040
10.0
1040
10.0
1070
     0
1002
{
1002
}
1002
}
  0
VIEWPORT
  5
25
330
16
100
AcDbEntity
 67
     1
  8
VIEWPORT
100
AcDbViewport
 10
210.0
 20
148.5
 30
0.0
 40
420.0
 41
297.0
 68
     1
 69
     2
1001
ACAD
1000
MVIEW
1002
{
1070
    16
1010
0.0
1020
0.0
1030
0.0
1010
0.0
1020
0.0
1030
1.0
1040
0.0
1040
1212.607689320388
1040
841.0
1040
594.0
1040
50.0
1040
0.0
1040
0.0
1070
     0
1070
   100
1070
     1
1070
     0
1070
     0
1070
     0
1070
     0
1070
     0
1040
0.0
1040
0.0
1040
0.0
1040
57.0
1040
57.0
1040
57.0
1040
57.0
1070
     0
1002
{
1002
}
1002
}
  0
ENDSEC
  0
SECTION
  2
OBJECTS
  0
DICTIONARY
  5
C
330
0
100
AcDbDictionary
  3
ACAD_GROUP
350
D
  3
ACAD_LAYOUT
350
11DA
  3
ACAD_MLINESTYLE
350
E
  3
ACAD_PLOTSETTINGS
350
11DB
1001
ACAD
1000
TREAT_AS_HARD
1070
     0
  0
DICTIONARY
  5
13D5
330
19
100
AcDbDictionary
  3
ACAD_LAYOUTSELFREF
350
2714
1001
ACAD
1000
TREAT_AS_HARD
1070
     1
  0
DICTIONARY
  5
13D3
330
16
100
AcDbDictionary
  3
ACAD_LAYOUTSELFREF
350
2713
1001
ACAD
1000
TREAT_AS_HARD
1070
     1
  0
DICTIONARY
  5
D
102
{ACAD_REACTORS
330
C
102
}
330
C
100
AcDbDictionary
1001
ACAD
1000
TREAT_AS_HARD
1070
     0
  0
DICTIONARY
  5
11DA
102
{ACAD_REACTORS
330
C
102
}
330
C
100
AcDbDictionary
1001
ACAD
1000
TREAT_AS_HARD
1070
     0
  0
DICTIONARY
  5
E
102
{ACAD_REACTORS
330
C
102
}
330
C
100
AcDbDictionary
  3
STANDARD
350
1C
1001
ACAD
1000
TREAT_AS_HARD
1070
     0
  0
DICTIONARY
  5
11DB
102
{ACAD_REACTORS
330
C
102
}
330
C
100
AcDbDictionary
1001
ACAD
1000
TREAT_AS_HARD
1070
     0
  0
XRECORD
  5
2714
102
{ACAD_REACTORS
330
13D5
102
}
330
13D5
100
AcDbXrecord
340
19
  0
XRECORD
  5
2713
102
{ACAD_REACTORS
330
13D3
102
}
330
13D3
100
AcDbXrecord
340
16
  0
MLINESTYLE
  5
1C
102
{ACAD_REACTORS
330
E
102
}
330
E
100
AcDbMlineStyle
  2
STANDARD
 70
     0
  3

 62
     0
 51
90.0
 52
90.0
 71
     2
 49
0.5
 62
   256
  6
BYLAYER
 49
-0.5
 62
   256
  6
BYLAYER
  0
ENDSEC
  0
EOF
