  0
SECTION
  2
HEADER
  9
$ACADVER
  1
AC1015
  9
$ACADMAINTVER
 70
     6
  9
$DWGCODEPAGE
  3
ANSI_932
  9
$INSBASE
 10
0.0
 20
0.0
 30
0.0
  9
$EXTMIN
 10
10.05047808566086
 20
13.78258628282265
 30
0.0
  9
$EXTMAX
 10
807.6504780856607
 20
565.3825862828227
 30
0.0
  9
$LIMMIN
 10
0.0
 20
0.0
  9
$LIMMAX
 10
840.0
 20
594.0
  9
$ORTHOMODE
 70
     1
  9
$REGENMODE
 70
     1
  9
$FILLMODE
 70
     1
  9
$QTEXTMODE
 70
     0
  9
$MIRRTEXT
 70
     1
  9
$LTSCALE
 40
2.0
  9
$ATTMODE
 70
     1
  9
$TEXTSIZE
 40
5.0
  9
$TRACEWID
 40
1.0
  9
$TEXTSTYLE
  7
STANDARD
  9
$CLAYER
  8
SUNPOU
  9
$CELTYPE
  6
BYLAYER
  9
$CECOLOR
 62
   256
  9
$CELTSCALE
 40
1.0
  9
$DISPSILH
 70
     0
  9
$DIMSCALE
 40
1.0
  9
$DIMASZ
 40
7.0
  9
$DIMEXO
 40
6.0
  9
$DIMDLI
 40
14.0
  9
$DIMRND
 40
0.0
  9
$DIMDLE
 40
0.0
  9
$DIMEXE
 40
3.0
  9
$DIMTP
 40
0.0
  9
$DIMTM
 40
0.0
  9
$DIMTXT
 40
6.0
  9
$DIMCEN
 40
150.0
  9
$DIMTSZ
 40
0.0
  9
$DIMTOL
 70
     0
  9
$DIMLIM
 70
     0
  9
$DIMTIH
 70
     0
  9
$DIMTOH
 70
     0
  9
$DIMSE1
 70
     0
  9
$DIMSE2
 70
     0
  9
$DIMTAD
 70
     3
  9
$DIMZIN
 70
     0
  9
$DIMBLK
  1

  9
$DIMASO
 70
     1
  9
$DIMSHO
 70
     1
  9
$DIMPOST
  1

  9
$DIMAPOST
  1

  9
$DIMALT
 70
     0
  9
$DIMALTD
 70
     2
  9
$DIMALTF
 40
25.4
  9
$DIMLFAC
 40
1.0
  9
$DIMTOFL
 70
     1
  9
$DIMTVP
 40
0.0
  9
$DIMTIX
 70
     0
  9
$DIMSOXD
 70
     0
  9
$DIMSAH
 70
     1
  9
$DIMBLK1
  1
OPEN
  9
$DIMBLK2
  1
OPEN
  9
$DIMSTYLE
  2
STANDARD
  9
$DIMCLRD
 70
   256
  9
$DIMCLRE
 70
   256
  9
$DIMCLRT
 70
   256
  9
$DIMTFAC
 40
1.0
  9
$DIMGAP
 40
2.0
  9
$DIMJUST
 70
     0
  9
$DIMSD1
 70
     0
  9
$DIMSD2
 70
     0
  9
$DIMTOLJ
 70
     1
  9
$DIMTZIN
 70
     0
  9
$DIMALTZ
 70
     0
  9
$DIMALTTZ
 70
     0
  9
$DIMUPT
 70
     0
  9
$DIMDEC
 70
     0
  9
$DIMTDEC
 70
     0
  9
$DIMALTU
 70
     2
  9
$DIMALTTD
 70
     2
  9
$DIMTXSTY
  7
STANDARD
  9
$DIMAUNIT
 70
     0
  9
$DIMADEC
 70
     0
  9
$DIMALTRND
 40
0.0
  9
$DIMAZIN
 70
     0
  9
$DIMDSEP
 70
    46
  9
$DIMATFIT
 70
     3
  9
$DIMFRAC
 70
     0
  9
$DIMLDRBLK
  1
OPEN
  9
$DIMLUNIT
 70
     2
  9
$DIMLWD
 70
    -1
  9
$DIMLWE
 70
    -1
  9
$DIMTMOVE
 70
     0
  9
$LUNITS
 70
     2
  9
$LUPREC
 70
     4
  9
$SKETCHINC
 40
1.0
  9
$FILLETRAD
 40
1.0
  9
$AUNITS
 70
     0
  9
$AUPREC
 70
     0
  9
$MENU
  1
.
  9
$ELEVATION
 40
0.0
  9
$PELEVATION
 40
0.0
  9
$THICKNESS
 40
0.0
  9
$LIMCHECK
 70
     0
  9
$CHAMFERA
 40
20.0
  9
$CHAMFERB
 40
20.0
  9
$CHAMFERC
 40
40.0
  9
$CHAMFERD
 40
0.0
  9
$SKPOLY
 70
     0
  9
$TDCREATE
 40
2454866.469916053
  9
$TDUCREATE
 40
2454866.094916053
  9
$TDUPDATE
 40
2454876.594046817
  9
$TDUUPDATE
 40
2454876.219046817
  9
$TDINDWG
 40
0.0159597222
  9
$TDUSRTIMER
 40
0.0159597222
  9
$USRTIMER
 70
     1
  9
$ANGBASE
 50
0.0
  9
$ANGDIR
 70
     0
  9
$PDMODE
 70
     0
  9
$PDSIZE
 40
0.0
  9
$PLINEWID
 40
0.0
  9
$SPLFRAME
 70
     0
  9
$SPLINETYPE
 70
     6
  9
$SPLINESEGS
 70
     8
  9
$HANDSEED
  5
439F
  9
$SURFTAB1
 70
     6
  9
$SURFTAB2
 70
     6
  9
$SURFTYPE
 70
     6
  9
$SURFU
 70
     6
  9
$SURFV
 70
     6
  9
$UCSBASE
  2

  9
$UCSNAME
  2

  9
$UCSORG
 10
0.0
 20
0.0
 30
0.0
  9
$UCSXDIR
 10
1.0
 20
0.0
 30
0.0
  9
$UCSYDIR
 10
0.0
 20
1.0
 30
0.0
  9
$UCSORTHOREF
  2

  9
$UCSORTHOVIEW
 70
     0
  9
$UCSORGTOP
 10
0.0
 20
0.0
 30
0.0
  9
$UCSORGBOTTOM
 10
0.0
 20
0.0
 30
0.0
  9
$UCSORGLEFT
 10
0.0
 20
0.0
 30
0.0
  9
$UCSORGRIGHT
 10
0.0
 20
0.0
 30
0.0
  9
$UCSORGFRONT
 10
0.0
 20
0.0
 30
0.0
  9
$UCSORGBACK
 10
0.0
 20
0.0
 30
0.0
  9
$PUCSBASE
  2

  9
$PUCSNAME
  2

  9
$PUCSORG
 10
0.0
 20
0.0
 30
0.0
  9
$PUCSXDIR
 10
1.0
 20
0.0
 30
0.0
  9
$PUCSYDIR
 10
0.0
 20
1.0
 30
0.0
  9
$PUCSORTHOREF
  2

  9
$PUCSORTHOVIEW
 70
     0
  9
$PUCSORGTOP
 10
0.0
 20
0.0
 30
0.0
  9
$PUCSORGBOTTOM
 10
0.0
 20
0.0
 30
0.0
  9
$PUCSORGLEFT
 10
0.0
 20
0.0
 30
0.0
  9
$PUCSORGRIGHT
 10
0.0
 20
0.0
 30
0.0
  9
$PUCSORGFRONT
 10
0.0
 20
0.0
 30
0.0
  9
$PUCSORGBACK
 10
0.0
 20
0.0
 30
0.0
  9
$USERI1
 70
     0
  9
$USERI2
 70
     0
  9
$USERI3
 70
     0
  9
$USERI4
 70
     0
  9
$USERI5
 70
     0
  9
$USERR1
 40
0.0
  9
$USERR2
 40
0.0
  9
$USERR3
 40
0.0
  9
$USERR4
 40
0.0
  9
$USERR5
 40
0.0
  9
$WORLDVIEW
 70
     1
  9
$SHADEDGE
 70
     3
  9
$SHADEDIF
 70
    70
  9
$TILEMODE
 70
     1
  9
$MAXACTVP
 70
    16
  9
$PINSBASE
 10
0.0
 20
0.0
 30
0.0
  9
$PLIMCHECK
 70
     0
  9
$PEXTMIN
 10
0.0
 20
0.0
 30
0.0
  9
$PEXTMAX
 10
420.0
 20
297.0
 30
0.0
  9
$PLIMMIN
 10
0.0
 20
0.0
  9
$PLIMMAX
 10
420.0
 20
297.0
  9
$UNITMODE
 70
     0
  9
$VISRETAIN
 70
     0
  9
$PLINEGEN
 70
     0
  9
$PSLTSCALE
 70
     1
  9
$TREEDEPTH
 70
  3020
  9
$CMLSTYLE
  2
STANDARD
  9
$CMLJUST
 70
     0
  9
$CMLSCALE
 40
1.0
  9
$PROXYGRAPHICS
 70
     1
  9
$MEASUREMENT
 70
     1
  9
$CELWEIGHT
370
    -1
  9
$ENDCAPS
280
     0
  9
$JOINSTYLE
280
     0
  9
$LWDISPLAY
290
     0
  9
$INSUNITS
 70
     0
  9
$HYPERLINKBASE
  1

  9
$STYLESHEET
  1
print.ctb
  9
$XEDIT
290
     1
  9
$CEPSNTYPE
380
     0
  9
$PSTYLEMODE
290
     1
  9
$FINGERPRINTGUID
  2
{8D6CB018-5425-46D7-BA3D-129D74F567FA}
  9
$VERSIONGUID
  2
{DCFBC678-3F36-4577-B2DE-D0046E6F1961}
  9
$EXTNAMES
290
     1
  9
$PSVPSCALE
 40
0.0
  9
$OLESTARTUP
290
     0
  0
ENDSEC
  0
SECTION
  2
CLASSES
  0
CLASS
  1
ACDBDICTIONARYWDFLT
  2
AcDbDictionaryWithDefault
  3
AutoCAD 2000
 90
        0
280
     0
281
     0
  0
CLASS
  1
ACDBPLACEHOLDER
  2
AcDbPlaceHolder
  3
AutoCAD 2000
 90
        0
280
     0
281
     0
  0
CLASS
  1
LAYOUT
  2
AcDbLayout
  3
AutoCAD 2000
 90
        0
280
     0
281
     0
  0
CLASS
  1
LONG_TRANSACTION
  2
AcDbLongTransaction
  3
AutoCAD 2000
 90
    32768
280
     0
281
     0
  0
CLASS
  1
LWPOLYLINE
  2
AcDbPolyline
  3
AutoCAD 2000
 90
    32768
280
     0
281
     1
  0
CLASS
  1
HATCH
  2
AcDbHatch
  3
AutoCAD 2000
 90
    32768
280
     0
281
     1
  0
CLASS
  1
XRECORD
  2
AcDbXrecord
  3
AutoCAD 2000
 90
    32768
280
     0
281
     0
  0
CLASS
  1
LONG_TRANSACTION
  2
AcDbLongTransaction
  3
AutoCAD 2000
 90
    32768
280
     0
281
     0
  0
CLASS
  1
LWPOLYLINE
  2
AcDbPolyline
  3
AutoCAD 2000
 90
    32768
280
     0
281
     1
  0
CLASS
  1
HATCH
  2
AcDbHatch
  3
AutoCAD 2000
 90
    32768
280
     0
281
     1
  0
CLASS
  1
XRECORD
  2
AcDbXrecord
  3
AutoCAD 2000
 90
    32768
280
     0
281
     0
  0
CLASS
  1
LONG_TRANSACTION
  2
AcDbLongTransaction
  3
AutoCAD 2000
 90
    32768
280
     0
281
     0
  0
CLASS
  1
LWPOLYLINE
  2
AcDbPolyline
  3
AutoCAD 2000
 90
    32768
280
     0
281
     1
  0
CLASS
  1
HATCH
  2
AcDbHatch
  3
AutoCAD 2000
 90
    32768
280
     0
281
     1
  0
CLASS
  1
XRECORD
  2
AcDbXrecord
  3
AutoCAD 2000
 90
    32768
280
     0
281
     0
  0
CLASS
  1
LONG_TRANSACTION
  2
AcDbLongTransaction
  3
AutoCAD 2000
 90
    32768
280
     0
281
     0
  0
CLASS
  1
LWPOLYLINE
  2
AcDbPolyline
  3
AutoCAD 2000
 90
    32768
280
     0
281
     1
  0
CLASS
  1
HATCH
  2
AcDbHatch
  3
AutoCAD 2000
 90
    32768
280
     0
281
     1
  0
CLASS
  1
XRECORD
  2
AcDbXrecord
  3
AutoCAD 2000
 90
    32768
280
     0
281
     0
  0
CLASS
  1
DICTIONARYVAR
  2
AcDbDictionaryVar
  3
AutoCAD 2000
 90
        0
280
     0
281
     0
  0
CLASS
  1
LONG_TRANSACTION
  2
AcDbLongTransaction
  3
AutoCAD 2000
 90
    32768
280
     0
281
     0
  0
CLASS
  1
LWPOLYLINE
  2
AcDbPolyline
  3
AutoCAD 2000
 90
    32768
280
     0
281
     1
  0
CLASS
  1
HATCH
  2
AcDbHatch
  3
AutoCAD 2000
 90
    32768
280
     0
281
     1
  0
CLASS
  1
XRECORD
  2
AcDbXrecord
  3
AutoCAD 2000
 90
    32768
280
     0
281
     0
  0
CLASS
  1
LONG_TRANSACTION
  2
AcDbLongTransaction
  3
AutoCAD 2000
 90
    32768
280
     0
281
     0
  0
CLASS
  1
LWPOLYLINE
  2
AcDbPolyline
  3
AutoCAD 2000
 90
    32768
280
     0
281
     1
  0
CLASS
  1
HATCH
  2
AcDbHatch
  3
AutoCAD 2000
 90
    32768
280
     0
281
     1
  0
CLASS
  1
XRECORD
  2
AcDbXrecord
  3
AutoCAD 2000
 90
    32768
280
     0
281
     0
  0
CLASS
  1
LONG_TRANSACTION
  2
AcDbLongTransaction
  3
AutoCAD 2000
 90
    32768
280
     0
281
     0
  0
CLASS
  1
LWPOLYLINE
  2
AcDbPolyline
  3
AutoCAD 2000
 90
    32768
280
     0
281
     1
  0
CLASS
  1
HATCH
  2
AcDbHatch
  3
AutoCAD 2000
 90
    32768
280
     0
281
     1
  0
CLASS
  1
XRECORD
  2
AcDbXrecord
  3
AutoCAD 2000
 90
    32768
280
     0
281
     0
  0
CLASS
  1
LONG_TRANSACTION
  2
AcDbLongTransaction
  3
AutoCAD 2000
 90
    32768
280
     0
281
     0
  0
CLASS
  1
LWPOLYLINE
  2
AcDbPolyline
  3
AutoCAD 2000
 90
    32768
280
     0
281
     1
  0
CLASS
  1
HATCH
  2
AcDbHatch
  3
AutoCAD 2000
 90
    32768
280
     0
281
     1
  0
CLASS
  1
XRECORD
  2
AcDbXrecord
  3
AutoCAD 2000
 90
    32768
280
     0
281
     0
  0
CLASS
  1
LONG_TRANSACTION
  2
AcDbLongTransaction
  3
AutoCAD 2000
 90
    32768
280
     0
281
     0
  0
CLASS
  1
LWPOLYLINE
  2
AcDbPolyline
  3
AutoCAD 2000
 90
    32768
280
     0
281
     1
  0
CLASS
  1
HATCH
  2
AcDbHatch
  3
AutoCAD 2000
 90
    32768
280
     0
281
     1
  0
CLASS
  1
XRECORD
  2
AcDbXrecord
  3
AutoCAD 2000
 90
    32768
280
     0
281
     0
  0
CLASS
  1
LONG_TRANSACTION
  2
AcDbLongTransaction
  3
AutoCAD 2000
 90
    32768
280
     0
281
     0
  0
CLASS
  1
LWPOLYLINE
  2
AcDbPolyline
  3
AutoCAD 2000
 90
    32768
280
     0
281
     1
  0
CLASS
  1
HATCH
  2
AcDbHatch
  3
AutoCAD 2000
 90
    32768
280
     0
281
     1
  0
CLASS
  1
XRECORD
  2
AcDbXrecord
  3
AutoCAD 2000
 90
    32768
280
     0
281
     0
  0
ENDSEC
  0
SECTION
  2
TABLES
  0
TABLE
  2
VPORT
  5
8
330
0
100
AcDbSymbolTable
 70
     2
  0
VPORT
  5
439E
330
8
100
AcDbSymbolTableRecord
100
AcDbViewportTableRecord
  2
*Active
 70
     0
 10
0.0
 20
0.0
 11
1.0
 21
1.0
 12
419.9999999999999
 22
311.3136066706732
 13
0.0
 23
0.0
 14
5.0
 24
5.0
 15
0.0
 25
0.0
 16
0.0
 26
0.0
 36
1.0
 17
0.0
 27
0.0
 37
0.0
 40
627.0435702186698
 41
1.553475935828877
 42
50.0
 43
0.0
 44
0.0
 50
0.0
 51
0.0
 71
     0
 72
   100
 73
     1
 74
     0
 75
     0
 76
     0
 77
     0
 78
     0
281
     0
 65
     1
110
0.0
120
0.0
130
0.0
111
1.0
121
0.0
131
0.0
112
0.0
122
1.0
132
0.0
 79
     0
146
0.0
  0
ENDTAB
  0
TABLE
  2
LTYPE
  5
5
330
0
100
AcDbSymbolTable
 70
     4
  0
LTYPE
  5
14
330
5
100
AcDbSymbolTableRecord
100
AcDbLinetypeTableRecord
  2
BYBLOCK
 70
     0
  3

 72
    65
 73
     0
 40
0.0
  0
LTYPE
  5
15
330
5
100
AcDbSymbolTableRecord
100
AcDbLinetypeTableRecord
  2
BYLAYER
 70
     0
  3

 72
    65
 73
     0
 40
0.0
  0
LTYPE
  5
16
330
5
100
AcDbSymbolTableRecord
100
AcDbLinetypeTableRecord
  2
CONTINUOUS
 70
     0
  3
Solid line
 72
    65
 73
     0
 40
0.0
  0
LTYPE
  5
135
330
5
100
AcDbSymbolTableRecord
100
AcDbLinetypeTableRecord
  2
CENTER
 70
     0
  3
____ _ ____ _ ____ _ ____ _ ____ _ ____ _ ____ 
 72
    65
 73
     4
 40
2.0
 49
1.25
 74
     0
 49
-0.25
 74
     0
 49
0.25
 74
     0
 49
-0.25
 74
     0
  0
LTYPE
  5
1527
330
5
100
AcDbSymbolTableRecord
100
AcDbLinetypeTableRecord
  2
SLDSECTION0
 70
     0
  3

 72
    65
 73
     4
 40
10.16
 49
6.349999999999999
 74
     0
 49
-1.27
 74
     0
 49
1.27
 74
     0
 49
-1.27
 74
     0
  0
LTYPE
  5
3AC3
330
5
100
AcDbSymbolTableRecord
100
AcDbLinetypeTableRecord
  2
PHANTOM
 70
     0
  3
______  __  __  ______  __  __  ______  __  __ 
 72
    65
 73
     6
 40
2.5
 49
1.25
 74
     0
 49
-0.25
 74
     0
 49
0.25
 74
     0
 49
-0.25
 74
     0
 49
0.25
 74
     0
 49
-0.25
 74
     0
  0
ENDTAB
  0
TABLE
  2
LAYER
  5
2
330
0
100
AcDbSymbolTable
 70
    10
  0
LAYER
  5
F
330
2
100
AcDbSymbolTableRecord
100
AcDbLayerTableRecord
  2
0
 70
     0
 62
     7
  6
CONTINUOUS
370
    -3
390
33F
  0
LAYER
  5
62
330
2
100
AcDbSymbolTableRecord
100
AcDbLayerTableRecord
  2
VIEWPORT
 70
     0
 62
     7
  6
CONTINUOUS
370
    -3
390
33F
  0
LAYER
  5
65
330
2
100
AcDbSymbolTableRecord
100
AcDbLayerTableRecord
  2
ZUWAKU
 70
     0
 62
     7
  6
CONTINUOUS
370
    -3
390
33F
  0
LAYER
  5
153
330
2
100
AcDbSymbolTableRecord
100
AcDbLayerTableRecord
  2
SEIHIN
 70
     0
 62
     3
  6
CONTINUOUS
370
    -3
390
33F
  0
LAYER
  5
154
330
2
100
AcDbSymbolTableRecord
100
AcDbLayerTableRecord
  2
SUNPOU
 70
     0
 62
     4
  6
CONTINUOUS
370
    -3
390
33F
  0
LAYER
  5
155
330
2
100
AcDbSymbolTableRecord
100
AcDbLayerTableRecord
  2
CENTER L
 70
     0
 62
     1
  6
CENTER
370
    -3
390
33F
  0
LAYER
  5
24D
330
2
100
AcDbSymbolTableRecord
100
AcDbLayerTableRecord
  2
DEFPOINTS
 70
     0
 62
     7
  6
CONTINUOUS
290
     0
370
    -3
390
33F
  0
LAYER
  5
59A
330
2
100
AcDbSymbolTableRecord
100
AcDbLayerTableRecord
  2
moji
 70
     0
 62
     2
  6
CONTINUOUS
370
    -3
390
33F
  0
LAYER
  5
1528
330
2
100
AcDbSymbolTableRecord
100
AcDbLayerTableRecord
  2
NOKITOI
 70
     0
 62
     9
  6
SLDSECTION0
370
    -3
390
33F
  0
LAYER
  5
3AC4
330
2
100
AcDbSymbolTableRecord
100
AcDbLayerTableRecord
  2
STOPER
 70
     0
 62
     2
  6
CONTINUOUS
370
    -3
390
33F
  0
ENDTAB
  0
TABLE
  2
STYLE
  5
3
330
0
100
AcDbSymbolTable
 70
     2
  0
STYLE
  5
10
330
3
100
AcDbSymbolTableRecord
100
AcDbTextStyleTableRecord
  2
STANDARD
 70
     0
 40
0.0
 41
1.0
 50
0.0
 71
     0
 42
5.0
  3
TXT
  4
bigfont.shx
  0
STYLE
  5
59B
330
3
100
AcDbSymbolTableRecord
100
AcDbTextStyleTableRecord
  2
ｽﾀｲﾙ1
 70
     0
 40
0.0
 41
1.0
 50
0.0
 71
     0
 42
2.5
  3
MS PGothic.ttf
  4

1001
ACAD
1000
MS PGothic
1071
    32818
  0
ENDTAB
  0
TABLE
  2
VIEW
  5
6
330
0
100
AcDbSymbolTable
 70
     0
  0
ENDTAB
  0
TABLE
  2
UCS
  5
7
330
0
100
AcDbSymbolTable
 70
     0
  0
ENDTAB
  0
TABLE
  2
APPID
  5
9
330
0
100
AcDbSymbolTable
 70
     1
  0
APPID
  5
11
330
9
100
AcDbSymbolTableRecord
100
AcDbRegAppTableRecord
  2
ACAD
 70
     0
  0
ENDTAB
  0
TABLE
  2
DIMSTYLE
  5
A
330
0
100
AcDbSymbolTable
 70
     1
100
AcDbDimStyleTable
 71
     0
  0
DIMSTYLE
105
1D
102
{ACAD_REACTORS
330
3D5B
330
3D5C
330
3D5D
330
3D75
330
3D76
330
3DF8
330
3E2F
330
3ED0
330
3ED1
330
3EFE
330
3F90
102
}
330
A
100
AcDbSymbolTableRecord
100
AcDbDimStyleTableRecord
  2
STANDARD
 70
     0
340
10
  0
ENDTAB
  0
TABLE
  2
BLOCK_RECORD
  5
1
330
0
100
AcDbSymbolTable
 70
    13
  0
BLOCK_RECORD
  5
1A
102
{ACAD_XDICTIONARY
360
385
102
}
330
1
100
AcDbSymbolTableRecord
100
AcDbBlockTableRecord
  2
*MODEL_SPACE
340
342
  0
BLOCK_RECORD
  5
17
102
{ACAD_XDICTIONARY
360
383
102
}
330
1
100
AcDbSymbolTableRecord
100
AcDbBlockTableRecord
  2
*PAPER_SPACE
340
343
  0
BLOCK_RECORD
  5
6D
330
1
100
AcDbSymbolTableRecord
100
AcDbBlockTableRecord
  2
_OPEN
340
0
102
{BLKREFS
331
4194
331
4195
331
4128
331
4129
331
418B
331
418C
331
4143
331
4144
331
4131
331
4132
331
413A
331
413B
331
414C
331
414D
331
4167
331
4168
331
415E
331
415F
331
4155
331
4156
331
419D
331
419E
102
}
  0
BLOCK_RECORD
  5
3A4
330
1
100
AcDbSymbolTableRecord
100
AcDbBlockTableRecord
  2
*X1
340
0
102
{BLKREFS
331
6D8
102
}
  0
BLOCK_RECORD
  5
3FED
330
1
100
AcDbSymbolTableRecord
100
AcDbBlockTableRecord
  2
*D2
340
0
  0
BLOCK_RECORD
  5
3FF9
330
1
100
AcDbSymbolTableRecord
100
AcDbBlockTableRecord
  2
*D3
340
0
  0
BLOCK_RECORD
  5
4005
330
1
100
AcDbSymbolTableRecord
100
AcDbBlockTableRecord
  2
*D4
340
0
  0
BLOCK_RECORD
  5
4011
330
1
100
AcDbSymbolTableRecord
100
AcDbBlockTableRecord
  2
*D5
340
0
  0
BLOCK_RECORD
  5
401D
330
1
100
AcDbSymbolTableRecord
100
AcDbBlockTableRecord
  2
*D6
340
0
  0
BLOCK_RECORD
  5
4029
330
1
100
AcDbSymbolTableRecord
100
AcDbBlockTableRecord
  2
*D7
340
0
  0
BLOCK_RECORD
  5
4035
330
1
100
AcDbSymbolTableRecord
100
AcDbBlockTableRecord
  2
*D8
340
0
  0
BLOCK_RECORD
  5
4041
330
1
100
AcDbSymbolTableRecord
100
AcDbBlockTableRecord
  2
*D9
340
0
  0
BLOCK_RECORD
  5
404D
330
1
100
AcDbSymbolTableRecord
100
AcDbBlockTableRecord
  2
*D10
340
0
  0
BLOCK_RECORD
  5
4059
330
1
100
AcDbSymbolTableRecord
100
AcDbBlockTableRecord
  2
*D11
340
0
  0
BLOCK_RECORD
  5
4065
330
1
100
AcDbSymbolTableRecord
100
AcDbBlockTableRecord
  2
*D12
340
0
  0
ENDTAB
  0
ENDSEC
  0
SECTION
  2
BLOCKS
  0
BLOCK
  5
1B
330
1A
100
AcDbEntity
  8
0
100
AcDbBlockBegin
  2
*MODEL_SPACE
 70
     0
 10
0.0
 20
0.0
 30
0.0
  3
*MODEL_SPACE
  1

  0
ENDBLK
  5
1C
330
1A
100
AcDbEntity
  8
0
100
AcDbBlockEnd
  0
BLOCK
  5
18
330
17
100
AcDbEntity
 67
     1
  8
0
100
AcDbBlockBegin
  2
*PAPER_SPACE
 70
     0
 10
0.0
 20
0.0
 30
0.0
  3
*PAPER_SPACE
  1

  0
ENDBLK
  5
19
330
17
100
AcDbEntity
 67
     1
  8
0
100
AcDbBlockEnd
  0
BLOCK
  5
6E
330
6D
100
AcDbEntity
  8
0
100
AcDbBlockBegin
  2
_OPEN
 70
     0
 10
0.0
 20
0.0
 30
0.0
  3
_OPEN
  1

  0
LINE
  5
6F
330
6D
100
AcDbEntity
  8
0
  6
ByBlock
 62
     0
100
AcDbLine
 10
-1.0
 20
0.1666666666666666
 30
0.0
 11
0.0
 21
0.0
 31
0.0
  0
LINE
  5
70
330
6D
100
AcDbEntity
  8
0
  6
ByBlock
 62
     0
100
AcDbLine
 10
0.0
 20
0.0
 30
0.0
 11
-1.0
 21
-0.1666666666666666
 31
0.0
  0
LINE
  5
71
330
6D
100
AcDbEntity
  8
0
  6
ByBlock
 62
     0
100
AcDbLine
 10
0.0
 20
0.0
 30
0.0
 11
-1.0
 21
0.0
 31
0.0
  0
ENDBLK
  5
72
330
6D
100
AcDbEntity
  8
0
100
AcDbBlockEnd
  0
BLOCK
  5
538
330
3A4
100
AcDbEntity
  8
0
100
AcDbBlockBegin
  2
*X1
 70
     1
 10
0.0
 20
0.0
 30
0.0
  3
*X1
  1

  0
LINE
  5
3A5
330
3A4
100
AcDbEntity
  8
0
 62
     0
100
AcDbLine
 10
66.75047808566091
 20
28.71175535310772
 30
0.0
 11
66.10464715594599
 21
29.35758628282269
 31
0.0
  0
LINE
  5
3A6
330
3A4
100
AcDbEntity
  8
0
 62
     0
100
AcDbLine
 10
66.75047808566091
 20
27.81372974100082
 30
0.0
 11
65.20662154383905
 21
29.35758628282269
 31
0.0
  0
LINE
  5
3A7
330
3A4
100
AcDbEntity
  8
0
 62
     0
100
AcDbLine
 10
66.75047808566086
 20
26.91570412889388
 30
0.0
 11
64.32934413964591
 21
29.33683807490882
 31
0.0
  0
LINE
  5
3A8
330
3A4
100
AcDbEntity
  8
0
 62
     0
100
AcDbLine
 10
66.75047808566091
 20
26.01767851678704
 30
0.0
 11
63.95047808566085
 21
28.81767851678705
 31
0.0
  0
LINE
  5
3A9
330
3A4
100
AcDbEntity
  8
0
 62
     0
100
AcDbLine
 10
66.75047808566091
 20
25.11965290468009
 30
0.0
 11
63.95047808566085
 21
27.91965290468016
 31
0.0
  0
LINE
  5
3AA
330
3A4
100
AcDbEntity
  8
0
 62
     0
100
AcDbLine
 10
66.75047808566086
 20
24.22162729257314
 30
0.0
 11
63.95047808566079
 21
27.02162729257321
 31
0.0
  0
LINE
  5
3AB
330
3A4
100
AcDbEntity
  8
0
 62
     0
100
AcDbLine
 10
61.85047808566082
 20
28.22360168046634
 30
0.0
 11
60.71649348330453
 21
29.35758628282269
 31
0.0
  0
LINE
  5
3AC
330
3A4
100
AcDbEntity
  8
0
 62
     0
100
AcDbLine
 10
66.75047808566091
 20
23.32360168046631
 30
0.0
 11
63.95047808566085
 21
26.12360168046638
 31
0.0
  0
LINE
  5
3AD
330
3A4
100
AcDbEntity
  8
0
 62
     0
100
AcDbLine
 10
61.85047808566082
 20
27.32557606835945
 30
0.0
 11
59.81846787119758
 21
29.35758628282263
 31
0.0
  0
LINE
  5
3AE
330
3A4
100
AcDbEntity
  8
0
 62
     0
100
AcDbLine
 10
66.75047808566086
 20
22.42557606835936
 30
0.0
 11
63.95047808566085
 21
25.22557606835943
 31
0.0
  0
LINE
  5
3AF
330
3A4
100
AcDbEntity
  8
0
 62
     0
100
AcDbLine
 10
61.85047808566082
 20
26.4275504562525
 30
0.0
 11
59.14496712052375
 21
29.13306142138958
 31
0.0
  0
LINE
  5
3B0
330
3A4
100
AcDbEntity
  8
0
 62
     0
100
AcDbLine
 10
66.75047808566086
 20
21.52755045625247
 30
0.0
 11
63.95047808566079
 21
24.32755045625248
 31
0.0
  0
LINE
  5
3B1
330
3A4
100
AcDbEntity
  8
0
 62
     0
100
AcDbLine
 10
61.85047808566094
 20
25.5295248441455
 30
0.0
 11
59.05047808566076
 21
28.32952484414562
 31
0.0
  0
LINE
  5
3B2
330
3A4
100
AcDbEntity
  8
0
 62
     0
100
AcDbLine
 10
66.75047808566091
 20
20.62952484414552
 30
0.0
 11
63.95047808566085
 21
23.42952484414559
 31
0.0
  0
LINE
  5
3B3
330
3A4
100
AcDbEntity
  8
0
 62
     0
100
AcDbLine
 10
61.85047808566088
 20
24.6314992320386
 30
0.0
 11
59.05047808566076
 21
27.43149923203878
 31
0.0
  0
LINE
  5
3B4
330
3A4
100
AcDbEntity
  8
0
 62
     0
100
AcDbLine
 10
66.75047808566086
 20
19.73149923203862
 30
0.0
 11
63.95047808566079
 21
22.53149923203869
 31
0.0
  0
LINE
  5
3B5
330
3A4
100
AcDbEntity
  8
0
 62
     0
100
AcDbLine
 10
61.85047808566088
 20
23.73347361993171
 30
0.0
 11
59.05047808566076
 21
26.53347361993183
 31
0.0
  0
LINE
  5
3B6
330
3A4
100
AcDbEntity
  8
0
 62
     0
100
AcDbLine
 10
66.75047808566086
 20
18.83347361993173
 30
0.0
 11
63.95047808566079
 21
21.6334736199318
 31
0.0
  0
LINE
  5
3B7
330
3A4
100
AcDbEntity
  8
0
 62
     0
100
AcDbLine
 10
61.85047808566082
 20
22.83544800782476
 30
0.0
 11
59.0504780856607
 21
25.63544800782489
 31
0.0
  0
LINE
  5
3B8
330
3A4
100
AcDbEntity
  8
0
 62
     0
100
AcDbLine
 10
66.7504780856608
 20
17.93544800782479
 30
0.0
 11
63.95047808566079
 21
20.73544800782485
 31
0.0
  0
LINE
  5
3B9
330
3A4
100
AcDbEntity
  8
0
 62
     0
100
AcDbLine
 10
61.85047808566088
 20
21.93742239571793
 30
0.0
 11
59.05047808566076
 21
24.73742239571805
 31
0.0
  0
LINE
  5
3BA
330
3A4
100
AcDbEntity
  8
0
 62
     0
100
AcDbLine
 10
55.55047808566081
 20
28.23742239571799
 30
0.0
 11
54.43031419855618
 21
29.35758628282263
 31
0.0
  0
LINE
  5
3BB
330
3A4
100
AcDbEntity
  8
0
 62
     0
100
AcDbLine
 10
66.75047808566086
 20
17.03742239571795
 30
0.0
 11
63.95047808566079
 21
19.83742239571796
 31
0.0
  0
LINE
  5
3BC
330
3A4
100
AcDbEntity
  8
0
 62
     0
100
AcDbLine
 10
61.85047808566088
 20
21.03939678361098
 30
0.0
 11
59.0504780856607
 21
23.8393967836111
 31
0.0
  0
LINE
  5
3BD
330
3A4
100
AcDbEntity
  8
0
 62
     0
100
AcDbLine
 10
55.55047808566076
 20
27.33939678361105
 30
0.0
 11
53.53228858644922
 21
29.35758628282263
 31
0.0
  0
LINE
  5
3BE
330
3A4
100
AcDbEntity
  8
0
 62
     0
100
AcDbLine
 10
66.75047808566086
 20
16.139396783611
 30
0.0
 11
63.95047808566079
 21
18.93939678361107
 31
0.0
  0
LINE
  5
3BF
330
3A4
100
AcDbEntity
  8
0
 62
     0
100
AcDbLine
 10
61.85047808566082
 20
20.14137117150409
 30
0.0
 11
59.05047808566076
 21
22.9413711715041
 31
0.0
  0
LINE
  5
3C0
330
3A4
100
AcDbEntity
  8
0
 62
     0
100
AcDbLine
 10
55.55047808566076
 20
26.44137117150416
 30
0.0
 11
52.85071536233676
 21
29.14113389482816
 31
0.0
  0
LINE
  5
3C1
330
3A4
100
AcDbEntity
  8
0
 62
     0
100
AcDbLine
 10
66.7504780856608
 20
15.24137117150411
 30
0.0
 11
63.95047808566073
 21
18.04137117150412
 31
0.0
  0
LINE
  5
3C2
330
3A4
100
AcDbEntity
  8
0
 62
     0
100
AcDbLine
 10
61.85047808566088
 20
19.24334555939714
 30
0.0
 11
59.05047808566081
 21
22.04334555939721
 31
0.0
  0
LINE
  5
3C3
330
3A4
100
AcDbEntity
  8
0
 62
     0
100
AcDbLine
 10
55.55047808566081
 20
25.54334555939721
 30
0.0
 11
52.7504780856608
 21
28.34334555939722
 31
0.0
  0
LINE
  5
3C4
330
3A4
100
AcDbEntity
  8
0
 62
     0
100
AcDbLine
 10
66.75047808566086
 20
14.34334555939716
 30
0.0
 11
63.95047808566079
 21
17.14334555939723
 31
0.0
  0
LINE
  5
3C5
330
3A4
100
AcDbEntity
  8
0
 62
     0
100
AcDbLine
 10
61.85047808566082
 20
18.34531994729024
 30
0.0
 11
59.05047808566081
 21
21.14531994729031
 31
0.0
  0
LINE
  5
3C6
330
3A4
100
AcDbEntity
  8
0
 62
     0
100
AcDbLine
 10
55.55047808566087
 20
24.64531994729026
 30
0.0
 11
52.7504780856608
 21
27.44531994729033
 31
0.0
  0
LINE
  5
3C7
330
3A4
100
AcDbEntity
  8
0
 62
     0
100
AcDbLine
 10
66.67851273077104
 20
13.51728530218008
 30
0.0
 11
63.95047808566079
 21
16.24531994729034
 31
0.0
  0
LINE
  5
3C8
330
3A4
100
AcDbEntity
  8
0
 62
     0
100
AcDbLine
 10
61.85047808566088
 20
17.44729433518324
 30
0.0
 11
59.05047808566076
 21
20.24729433518337
 31
0.0
  0
LINE
  5
3C9
330
3A4
100
AcDbEntity
  8
0
 62
     0
100
AcDbLine
 10
55.55047808566081
 20
23.74729433518337
 30
0.0
 11
52.75047808566075
 21
26.54729433518338
 31
0.0
  0
LINE
  5
3CA
330
3A4
100
AcDbEntity
  8
0
 62
     0
100
AcDbLine
 10
66.04018613802157
 20
13.25758628282261
 30
0.0
 11
63.95047808566073
 21
15.34729433518345
 31
0.0
  0
LINE
  5
3CB
330
3A4
100
AcDbEntity
  8
0
 62
     0
100
AcDbLine
 10
55.55047808566081
 20
22.84926872307642
 30
0.0
 11
52.75047808566075
 21
25.64926872307649
 31
0.0
  0
LINE
  5
3CC
330
3A4
100
AcDbEntity
  8
0
 62
     0
100
AcDbLine
 10
61.85047808566088
 20
16.54926872307635
 30
0.0
 11
59.05047808566076
 21
19.34926872307647
 31
0.0
  0
LINE
  5
3CD
330
3A4
100
AcDbEntity
  8
0
 62
     0
100
AcDbLine
 10
50.1254780856608
 20
28.27426872307643
 30
0.0
 11
49.04216052591465
 21
29.35758628282252
 31
0.0
  0
LINE
  5
3CE
330
3A4
100
AcDbEntity
  8
0
 62
     0
100
AcDbLine
 10
65.14216052591468
 20
13.2575862828225
 30
0.0
 11
63.95047808566073
 21
14.4492687230765
 31
0.0
  0
LINE
  5
3CF
330
3A4
100
AcDbEntity
  8
0
 62
     0
100
AcDbLine
 10
55.55047808566081
 20
21.95124311096952
 30
0.0
 11
52.75047808566085
 21
24.75124311096954
 31
0.0
  0
LINE
  5
3D0
330
3A4
100
AcDbEntity
  8
0
 62
     0
100
AcDbLine
 10
50.1254780856608
 20
27.37624311096954
 30
0.0
 11
48.14413491380782
 21
29.35758628282258
 31
0.0
  0
LINE
  5
3D1
330
3A4
100
AcDbEntity
  8
0
 62
     0
100
AcDbLine
 10
61.82451978501529
 20
15.6772014116151
 30
0.0
 11
59.05047808566076
 21
18.45124311096958
 31
0.0
  0
LINE
  5
3D2
330
3A4
100
AcDbEntity
  8
0
 62
     0
100
AcDbLine
 10
55.55047808566081
 20
21.05321749886263
 30
0.0
 11
52.75047808566085
 21
23.85321749886259
 31
0.0
  0
LINE
  5
3D3
330
3A4
100
AcDbEntity
  8
0
 62
     0
100
AcDbLine
 10
49.92989753954697
 20
26.67379804497647
 30
0.0
 11
47.24610930170081
 21
29.35758628282263
 31
0.0
  0
LINE
  5
3D4
330
3A4
100
AcDbEntity
  8
0
 62
     0
100
AcDbLine
 10
61.63153448975805
 20
14.97216109476534
 30
0.0
 11
59.05047808566076
 21
17.55321749886269
 31
0.0
  0
LINE
  5
3D5
330
3A4
100
AcDbEntity
  8
0
 62
     0
100
AcDbLine
 10
55.55047808566081
 20
20.15519188675568
 30
0.0
 11
52.7504780856608
 21
22.95519188675569
 31
0.0
  0
LINE
  5
3D6
330
3A4
100
AcDbEntity
  8
0
 62
     0
100
AcDbLine
 10
49.14808368959382
 20
26.55758628282262
 30
0.0
 11
46.34808368959392
 21
29.35758628282252
 31
0.0
  0
LINE
  5
3D7
330
3A4
100
AcDbEntity
  8
0
 62
     0
100
AcDbLine
 10
61.30650261383448
 20
14.39916735858196
 30
0.0
 11
58.97896234650125
 21
16.72670762591525
 31
0.0
  0
LINE
  5
3D8
330
3A4
100
AcDbEntity
  8
0
 62
     0
100
AcDbLine
 10
55.55047808566081
 20
19.25716627464885
 30
0.0
 11
52.75047808566085
 21
22.0571662746488
 31
0.0
  0
LINE
  5
3D9
330
3A4
100
AcDbEntity
  8
0
 62
     0
100
AcDbLine
 10
48.25005807748704
 20
26.55758628282256
 30
0.0
 11
45.5124913483096
 21
29.29515301200007
 31
0.0
  0
LINE
  5
3DA
330
3A4
100
AcDbEntity
  8
0
 62
     0
100
AcDbLine
 10
60.87446081650944
 20
13.93318354380016
 30
0.0
 11
58.57737670803373
 21
16.23026765227587
 31
0.0
  0
LINE
  5
3DB
330
3A4
100
AcDbEntity
  8
0
 62
     0
100
AcDbLine
 10
55.55047808566081
 20
18.3591406625419
 30
0.0
 11
52.7504780856608
 21
21.15914066254185
 31
0.0
  0
LINE
  5
3DC
330
3A4
100
AcDbEntity
  8
0
 62
     0
100
AcDbLine
 10
47.35203246538015
 20
26.55758628282256
 30
0.0
 11
44.8478509237762
 21
29.06176782442645
 31
0.0
  0
LINE
  5
3DD
330
3A4
100
AcDbEntity
  8
0
 62
     0
100
AcDbLine
 10
60.33829847158341
 20
13.5713202766193
 30
0.0
 11
57.85203246538014
 21
16.05758628282257
 31
0.0
  0
LINE
  5
3DE
330
3A4
100
AcDbEntity
  8
0
 62
     0
100
AcDbLine
 10
55.55047808566076
 20
17.46111505043495
 30
0.0
 11
52.7504780856608
 21
20.26111505043496
 31
0.0
  0
LINE
  5
3DF
330
3A4
100
AcDbEntity
  8
0
 62
     0
100
AcDbLine
 10
46.47579668129123
 20
26.53579645480448
 30
0.0
 11
44.30524998656602
 21
28.70634314952969
 31
0.0
  0
LINE
  5
3E0
330
3A4
100
AcDbEntity
  8
0
 62
     0
100
AcDbLine
 10
59.68188591167211
 20
13.32970722442365
 30
0.0
 11
56.95400685327314
 21
16.05758628282262
 31
0.0
  0
LINE
  5
3E1
330
3A4
100
AcDbEntity
  8
0
 62
     0
100
AcDbLine
 10
46.10047808566088
 20
26.01308943832788
 30
0.0
 11
43.86713792752146
 21
28.24642959646729
 31
0.0
  0
LINE
  5
3E2
330
3A4
100
AcDbEntity
  8
0
 62
     0
100
AcDbLine
 10
58.85598124116626
 20
13.25758628282255
 30
0.0
 11
52.7504780856608
 21
19.36308943832801
 31
0.0
  0
LINE
  5
3E3
330
3A4
100
AcDbEntity
  8
0
 62
     0
100
AcDbLine
 10
46.10047808566088
 20
25.1150638262211
 30
0.0
 11
43.53536701516844
 21
27.68017489671354
 31
0.0
  0
LINE
  5
3E4
330
3A4
100
AcDbEntity
  8
0
 62
     0
100
AcDbLine
 10
57.95795562905937
 20
13.25758628282255
 30
0.0
 11
52.7504780856608
 21
18.46506382622118
 31
0.0
  0
LINE
  5
3E5
330
3A4
100
AcDbEntity
  8
0
 62
     0
100
AcDbLine
 10
46.30702236676467
 20
24.01049393301036
 30
0.0
 11
43.33318849580433
 21
26.98432780397064
 31
0.0
  0
LINE
  5
3E6
330
3A4
100
AcDbEntity
  8
0
 62
     0
100
AcDbLine
 10
57.05993001695247
 20
13.25758628282255
 30
0.0
 11
52.7504780856608
 21
17.56703821411423
 31
0.0
  0
LINE
  5
3E7
330
3A4
100
AcDbEntity
  8
0
 62
     0
100
AcDbLine
 10
50.52408178835225
 20
18.89540889931583
 30
0.0
 11
43.30047808566075
 21
26.11901260200733
 31
0.0
  0
LINE
  5
3E8
330
3A4
100
AcDbEntity
  8
0
 62
     0
100
AcDbLine
 10
41.20047808566073
 20
28.21901260200729
 30
0.0
 11
40.06190440484544
 21
29.35758628282263
 31
0.0
  0
LINE
  5
3E9
330
3A4
100
AcDbEntity
  8
0
 62
     0
100
AcDbLine
 10
56.16190440484553
 20
13.25758628282255
 30
0.0
 11
52.75047808566075
 21
16.66901260200728
 31
0.0
  0
LINE
  5
3EA
330
3A4
100
AcDbEntity
  8
0
 62
     0
100
AcDbLine
 10
50.65047808566089
 20
17.87098698990035
 30
0.0
 11
43.30047808566081
 21
25.22098698990044
 31
0.0
  0
LINE
  5
3EB
330
3A4
100
AcDbEntity
  8
0
 62
     0
100
AcDbLine
 10
41.20047808566084
 20
27.32098698990034
 30
0.0
 11
39.16387879273855
 21
29.35758628282269
 31
0.0
  0
LINE
  5
3EC
330
3A4
100
AcDbEntity
  8
0
 62
     0
100
AcDbLine
 10
55.24743091399376
 20
13.2740341615675
 30
0.0
 11
52.76692596440574
 21
15.7545391111555
 31
0.0
  0
LINE
  5
3ED
330
3A4
100
AcDbEntity
  8
0
 62
     0
100
AcDbLine
 10
41.20047808566084
 20
26.42296137779345
 30
0.0
 11
38.49308819788552
 21
29.13035126556872
 31
0.0
  0
LINE
  5
3EE
330
3A4
100
AcDbEntity
  8
0
 62
     0
100
AcDbLine
 10
50.65047808566084
 20
16.97296137779341
 30
0.0
 11
43.3238887535432
 21
24.2995507099111
 31
0.0
  0
LINE
  5
3EF
330
3A4
100
AcDbEntity
  8
0
 62
     0
100
AcDbLine
 10
41.20047808566084
 20
25.5249357656865
 30
0.0
 11
38.40047808566078
 21
28.32493576568657
 31
0.0
  0
LINE
  5
3F0
330
3A4
100
AcDbEntity
  8
0
 62
     0
100
AcDbLine
 10
50.65047808566072
 20
16.07493576568657
 30
0.0
 11
43.64200817138322
 21
23.08340567996413
 31
0.0
  0
LINE
  5
3F1
330
3A4
100
AcDbEntity
  8
0
 62
     0
100
AcDbLine
 10
41.20047808566084
 20
24.62691015357961
 30
0.0
 11
38.40047808566078
 21
27.42691015357962
 31
0.0
  0
LINE
  5
3F2
330
3A4
100
AcDbEntity
  8
0
 62
     0
100
AcDbLine
 10
50.54191626807176
 20
15.2854719711687
 30
0.0
 11
47.84628147903345
 21
17.98110676020701
 31
0.0
  0
LINE
  5
3F3
330
3A4
100
AcDbEntity
  8
0
 62
     0
100
AcDbLine
 10
41.20047808566084
 20
23.72888454147272
 30
0.0
 11
38.40047808566078
 21
26.52888454147279
 31
0.0
  0
LINE
  5
3F4
330
3A4
100
AcDbEntity
  8
0
 62
     0
100
AcDbLine
 10
36.10899118508382
 20
28.82037144204969
 30
0.0
 11
35.57177634431093
 21
29.35758628282263
 31
0.0
  0
LINE
  5
3F5
330
3A4
100
AcDbEntity
  8
0
 62
     0
100
AcDbLine
 10
50.2740405603102
 20
14.65532206682337
 30
0.0
 11
47.85047808566088
 21
17.07888454147268
 31
0.0
  0
LINE
  5
3F6
330
3A4
100
AcDbEntity
  8
0
 62
     0
100
AcDbLine
 10
41.20047808566079
 20
22.83085892936577
 30
0.0
 11
38.40047808566078
 21
25.63085892936584
 31
0.0
  0
LINE
  5
3F7
330
3A4
100
AcDbEntity
  8
0
 62
     0
100
AcDbLine
 10
35.91006352083121
 20
28.12127349419535
 30
0.0
 11
34.67375073220398
 21
29.35758628282263
 31
0.0
  0
LINE
  5
3F8
330
3A4
100
AcDbEntity
  8
0
 62
     0
100
AcDbLine
 10
49.8910537621349
 20
14.14028325289172
 30
0.0
 11
47.75319290277439
 21
16.27814411225222
 31
0.0
  0
LINE
  5
3F9
330
3A4
100
AcDbEntity
  8
0
 62
     0
100
AcDbLine
 10
41.20047808566079
 20
21.93283331725888
 30
0.0
 11
38.40047808566072
 21
24.73283331725889
 31
0.0
  0
LINE
  5
3FA
330
3A4
100
AcDbEntity
  8
0
 62
     0
100
AcDbLine
 10
35.69453737392553
 20
27.43877402899409
 30
0.0
 11
33.78532181045494
 21
29.34798959246473
 31
0.0
  0
LINE
  5
3FB
330
3A4
100
AcDbEntity
  8
0
 62
     0
100
AcDbLine
 10
49.40473479701927
 20
13.72857660590034
 30
0.0
 11
47.07572512009704
 21
16.05758628282262
 31
0.0
  0
LINE
  5
3FC
330
3A4
100
AcDbEntity
  8
0
 62
     0
100
AcDbLine
 10
41.20047808566084
 20
21.03480770515198
 30
0.0
 11
38.40047808566078
 21
23.83480770515205
 31
0.0
  0
LINE
  5
3FD
330
3A4
100
AcDbEntity
  8
0
 62
     0
100
AcDbLine
 10
35.47901122702
 20
26.75627456379283
 30
0.0
 11
33.35101122701996
 21
28.88427456379287
 31
0.0
  0
LINE
  5
3FE
330
3A4
100
AcDbEntity
  8
0
 62
     0
100
AcDbLine
 10
48.8086508485589
 20
13.42663494225388
 30
0.0
 11
46.17769950799015
 21
16.05758628282268
 31
0.0
  0
LINE
  5
3FF
330
3A4
100
AcDbEntity
  8
0
 62
     0
100
AcDbLine
 10
41.20047808566079
 20
20.13678209304509
 30
0.0
 11
38.40047808566072
 21
22.9367820930451
 31
0.0
  0
LINE
  5
400
330
3A4
100
AcDbEntity
  8
0
 62
     0
100
AcDbLine
 10
35.26348508011415
 20
26.07377509859174
 30
0.0
 11
33.13548508011416
 21
28.20177509859172
 31
0.0
  0
LINE
  5
401
330
3A4
100
AcDbEntity
  8
0
 62
     0
100
AcDbLine
 10
48.07097819691143
 20
13.26628198179446
 30
0.0
 11
45.27967389588326
 21
16.05758628282262
 31
0.0
  0
LINE
  5
402
330
3A4
100
AcDbEntity
  8
0
 62
     0
100
AcDbLine
 10
41.20047808566079
 20
19.23875648093815
 30
0.0
 11
38.40047808566078
 21
22.0387564809381
 31
0.0
  0
LINE
  5
403
330
3A4
100
AcDbEntity
  8
0
 62
     0
100
AcDbLine
 10
35.04795893320857
 20
25.39127563339036
 30
0.0
 11
32.91995893320847
 21
27.5192756333904
 31
0.0
  0
LINE
  5
404
330
3A4
100
AcDbEntity
  8
0
 62
     0
100
AcDbLine
 10
47.18164828377638
 20
13.25758628282255
 30
0.0
 11
44.38164828377631
 21
16.05758628282262
 31
0.0
  0
LINE
  5
405
330
3A4
100
AcDbEntity
  8
0
 62
     0
100
AcDbLine
 10
41.20047808566079
 20
18.34073086883125
 30
0.0
 11
38.40047808566083
 21
21.14073086883127
 31
0.0
  0
LINE
  5
406
330
3A4
100
AcDbEntity
  8
0
 62
     0
100
AcDbLine
 10
34.83243278630294
 20
24.70877616818916
 30
0.0
 11
32.70443278630284
 21
26.8367761681892
 31
0.0
  0
LINE
  5
407
330
3A4
100
AcDbEntity
  8
0
 62
     0
100
AcDbLine
 10
46.28362267166949
 20
13.25758628282261
 30
0.0
 11
43.8500109743731
 21
15.691197980119
 31
0.0
  0
LINE
  5
408
330
3A4
100
AcDbEntity
  8
0
 62
     0
100
AcDbLine
 10
34.61690663939731
 20
24.02627670298778
 30
0.0
 11
32.48890663939721
 21
26.15427670298794
 31
0.0
  0
LINE
  5
409
330
3A4
100
AcDbEntity
  8
0
 62
     0
100
AcDbLine
 10
41.20047808566079
 20
17.44270525672436
 30
0.0
 11
38.40047808566083
 21
20.24270525672432
 31
0.0
  0
LINE
  5
40A
330
3A4
100
AcDbEntity
  8
0
 62
     0
100
AcDbLine
 10
30.35047808566082
 20
28.29270525672433
 30
0.0
 11
29.28559705956251
 21
29.35758628282258
 31
0.0
  0
LINE
  5
40B
330
3A4
100
AcDbEntity
  8
0
 62
     0
100
AcDbLine
 10
45.38559705956259
 20
13.25758628282255
 30
0.0
 11
43.82547808566084
 21
14.8177052567243
 31
0.0
  0
LINE
  5
40C
330
3A4
100
AcDbEntity
  8
0
 62
     0
100
AcDbLine
 10
34.40138049249151
 20
23.34377723778669
 30
0.0
 11
32.27338049249158
 21
25.47177723778662
 31
0.0
  0
LINE
  5
40D
330
3A4
100
AcDbEntity
  8
0
 62
     0
100
AcDbLine
 10
41.20047808566079
 20
16.54467964461741
 30
0.0
 11
38.40047808566078
 21
19.34467964461743
 31
0.0
  0
LINE
  5
40E
330
3A4
100
AcDbEntity
  8
0
 62
     0
100
AcDbLine
 10
30.35047808566082
 20
27.39467964461738
 30
0.0
 11
28.38757144745562
 21
29.35758628282258
 31
0.0
  0
LINE
  5
40F
330
3A4
100
AcDbEntity
  8
0
 62
     0
100
AcDbLine
 10
44.48757144745559
 20
13.25758628282261
 30
0.0
 11
43.82547808566079
 21
13.91967964461736
 31
0.0
  0
LINE
  5
410
330
3A4
100
AcDbEntity
  8
0
 62
     0
100
AcDbLine
 10
34.18585434558588
 20
22.66127777258537
 30
0.0
 11
32.05785434558583
 21
24.78927777258542
 31
0.0
  0
LINE
  5
411
330
3A4
100
AcDbEntity
  8
0
 62
     0
100
AcDbLine
 10
30.35047808566076
 20
26.49665403251043
 30
0.0
 11
27.67503315676316
 21
29.17209896140809
 31
0.0
  0
LINE
  5
412
330
3A4
100
AcDbEntity
  8
0
 62
     0
100
AcDbLine
 10
41.20047808566073
 20
15.64665403251052
 30
0.0
 11
38.40047808566078
 21
18.44665403251048
 31
0.0
  0
LINE
  5
413
330
3A4
100
AcDbEntity
  8
0
 62
     0
100
AcDbLine
 10
33.97032819868025
 20
21.97877830738417
 30
0.0
 11
31.84232819868026
 21
24.10677830738416
 31
0.0
  0
LINE
  5
414
330
3A4
100
AcDbEntity
  8
0
 62
     0
100
AcDbLine
 10
30.35047808566082
 20
25.59862842040359
 30
0.0
 11
27.55047808566075
 21
28.39862842040361
 31
0.0
  0
LINE
  5
415
330
3A4
100
AcDbEntity
  8
0
 62
     0
100
AcDbLine
 10
41.20047808566079
 20
14.74862842040363
 30
0.0
 11
38.40047808566078
 21
17.54862842040358
 31
0.0
  0
LINE
  5
416
330
3A4
100
AcDbEntity
  8
0
 62
     0
100
AcDbLine
 10
33.76523968928819
 20
21.28584120466928
 30
0.0
 11
31.62680205177451
 21
23.42427884218295
 31
0.0
  0
LINE
  5
417
330
3A4
100
AcDbEntity
  8
0
 62
     0
100
AcDbLine
 10
30.35047808566082
 20
24.70060280829665
 30
0.0
 11
27.55047808566075
 21
27.50060280829671
 31
0.0
  0
LINE
  5
418
330
3A4
100
AcDbEntity
  8
0
 62
     0
100
AcDbLine
 10
41.20047808566073
 20
13.85060280829668
 30
0.0
 11
38.40047808566078
 21
16.65060280829669
 31
0.0
  0
LINE
  5
419
330
3A4
100
AcDbEntity
  8
0
 62
     0
100
AcDbLine
 10
34.17971304872219
 20
19.97334223312833
 30
0.0
 11
31.33625455608989
 21
22.81680072576063
 31
0.0
  0
LINE
  5
41A
330
3A4
100
AcDbEntity
  8
0
 62
     0
100
AcDbLine
 10
30.35047808566088
 20
23.80257719618964
 30
0.0
 11
27.5504780856607
 21
26.60257719618977
 31
0.0
  0
LINE
  5
41B
330
3A4
100
AcDbEntity
  8
0
 62
     0
100
AcDbLine
 10
40.8614330883284
 20
13.29162219352207
 30
0.0
 11
38.40047808566078
 21
15.75257719618974
 31
0.0
  0
LINE
  5
41C
330
3A4
100
AcDbEntity
  8
0
 62
     0
100
AcDbLine
 10
34.59418640815619
 20
18.6608432615875
 30
0.0
 11
27.55047808566075
 21
25.70455158408293
 31
0.0
  0
LINE
  5
41D
330
3A4
100
AcDbEntity
  8
0
 62
     0
100
AcDbLine
 10
25.10047808566088
 20
28.15455158408281
 30
0.0
 11
23.89744338692111
 21
29.35758628282258
 31
0.0
  0
LINE
  5
41E
330
3A4
100
AcDbEntity
  8
0
 62
     0
100
AcDbLine
 10
39.99744338692113
 20
13.25758628282255
 30
0.0
 11
38.40047808566089
 21
14.8545515840828
 31
0.0
  0
LINE
  5
41F
330
3A4
100
AcDbEntity
  8
0
 62
     0
100
AcDbLine
 10
35.00865976759024
 20
17.34834429004649
 30
0.0
 11
27.55047808566075
 21
24.80652597197599
 31
0.0
  0
LINE
  5
420
330
3A4
100
AcDbEntity
  8
0
 62
     0
100
AcDbLine
 10
25.10047808566088
 20
27.25652597197586
 30
0.0
 11
22.9994177748141
 21
29.35758628282263
 31
0.0
  0
LINE
  5
421
330
3A4
100
AcDbEntity
  8
0
 62
     0
100
AcDbLine
 10
39.09941777481418
 20
13.2575862828225
 30
0.0
 11
38.40047808566083
 21
13.9565259719759
 31
0.0
  0
LINE
  5
422
330
3A4
100
AcDbEntity
  8
0
 62
     0
100
AcDbLine
 10
24.83357139027077
 20
26.62540705525902
 30
0.0
 11
22.13334967205935
 21
29.32562877347038
 31
0.0
  0
LINE
  5
423
330
3A4
100
AcDbEntity
  8
0
 62
     0
100
AcDbLine
 10
35.42313312702418
 20
16.0358453185056
 30
0.0
 11
27.55047808566081
 21
23.90850035986898
 31
0.0
  0
LINE
  5
424
330
3A4
100
AcDbEntity
  8
0
 62
     0
100
AcDbLine
 10
30.68798700800243
 20
19.87296582542046
 30
0.0
 11
27.55047808566081
 21
23.01047474776209
 31
0.0
  0
LINE
  5
425
330
3A4
100
AcDbEntity
  8
0
 62
     0
100
AcDbLine
 10
24.00336655060033
 20
26.55758628282251
 30
0.0
 11
21.39530660247209
 21
29.16564623095081
 31
0.0
  0
LINE
  5
426
330
3A4
100
AcDbEntity
  8
0
 62
     0
100
AcDbLine
 10
35.83760648645824
 20
14.72334634696466
 30
0.0
 11
31.74529879415013
 21
18.81565403927277
 31
0.0
  0
LINE
  5
427
330
3A4
100
AcDbEntity
  8
0
 62
     0
100
AcDbLine
 10
30.35047808566088
 20
19.31244913565512
 30
0.0
 11
27.55047808566081
 21
22.11244913565519
 31
0.0
  0
LINE
  5
428
330
3A4
100
AcDbEntity
  8
0
 62
     0
100
AcDbLine
 10
23.10534093849332
 20
26.55758628282262
 30
0.0
 11
20.75658518664135
 21
28.90634203467459
 31
0.0
  0
LINE
  5
429
330
3A4
100
AcDbEntity
  8
0
 62
     0
100
AcDbLine
 10
36.07264534416884
 20
13.5902818771471
 30
0.0
 11
32.15977215358407
 21
17.50315506773193
 31
0.0
  0
LINE
  5
42A
330
3A4
100
AcDbEntity
  8
0
 62
     0
100
AcDbLine
 10
30.35047808566082
 20
18.41442352354823
 30
0.0
 11
27.55047808566075
 21
21.21442352354824
 31
0.0
  0
LINE
  5
42B
330
3A4
100
AcDbEntity
  8
0
 62
     0
100
AcDbLine
 10
22.26222743594979
 20
26.50267417325926
 30
0.0
 11
20.19783621130682
 21
28.56706539790224
 31
0.0
  0
LINE
  5
42C
330
3A4
100
AcDbEntity
  8
0
 62
     0
100
AcDbLine
 10
35.5073153263865
 20
13.25758628282255
 30
0.0
 11
32.57424551301812
 21
16.19065609619087
 31
0.0
  0
LINE
  5
42D
330
3A4
100
AcDbEntity
  8
0
 62
     0
100
AcDbLine
 10
30.35047808566082
 20
17.51639791144128
 30
0.0
 11
27.55047808566075
 21
20.31639791144135
 31
0.0
  0
LINE
  5
42E
330
3A4
100
AcDbEntity
  8
0
 62
     0
100
AcDbLine
 10
21.6903712431108
 20
26.1765047539913
 30
0.0
 11
19.71018100269503
 21
28.15669499440707
 31
0.0
  0
LINE
  5
42F
330
3A4
100
AcDbEntity
  8
0
 62
     0
100
AcDbLine
 10
34.60928971427955
 20
13.25758628282255
 30
0.0
 11
32.98871887245207
 21
14.87815712465004
 31
0.0
  0
LINE
  5
430
330
3A4
100
AcDbEntity
  8
0
 62
     0
100
AcDbLine
 10
25.43590721845856
 20
21.53294316653671
 30
0.0
 11
23.92583496937481
 21
23.04301541562046
 31
0.0
  0
LINE
  5
431
330
3A4
100
AcDbEntity
  8
0
 62
     0
100
AcDbLine
 10
30.35047808566094
 20
16.61837229933434
 30
0.0
 11
27.55047808566081
 21
19.41837229933446
 31
0.0
  0
LINE
  5
432
330
3A4
100
AcDbEntity
  8
0
 62
     0
100
AcDbLine
 10
21.33424967298185
 20
25.63460071201342
 30
0.0
 11
19.2908149766838
 21
27.67803540831147
 31
0.0
  0
LINE
  5
433
330
3A4
100
AcDbEntity
  8
0
 62
     0
100
AcDbLine
 10
33.66093109796804
 20
13.30791928702723
 30
0.0
 11
33.41057692637673
 21
13.55827345861854
 31
0.0
  0
LINE
  5
434
330
3A4
100
AcDbEntity
  8
0
 62
     0
100
AcDbLine
 10
25.34939355831665
 20
20.72143121457167
 30
0.0
 11
23.11432301740978
 21
22.95650175547854
 31
0.0
  0
LINE
  5
435
330
3A4
100
AcDbEntity
  8
0
 62
     0
100
AcDbLine
 10
21.25047808566091
 20
24.82034668722741
 30
0.0
 11
18.94187595572214
 21
27.12894881716619
 31
0.0
  0
LINE
  5
436
330
3A4
100
AcDbEntity
  8
0
 62
     0
100
AcDbLine
 10
30.35047808566088
 20
15.72034668722739
 30
0.0
 11
27.55047808566075
 21
18.52034668722757
 31
0.0
  0
LINE
  5
437
330
3A4
100
AcDbEntity
  8
0
 62
     0
100
AcDbLine
 10
25.0175379990186
 20
20.15526116176272
 30
0.0
 11
22.54815296460083
 21
22.62464619618049
 31
0.0
  0
LINE
  5
438
330
3A4
100
AcDbEntity
  8
0
 62
     0
100
AcDbLine
 10
21.25047808566091
 20
23.92232107512046
 30
0.0
 11
18.67129624851196
 21
26.50150291226941
 31
0.0
  0
LINE
  5
439
330
3A4
100
AcDbEntity
  8
0
 62
     0
100
AcDbLine
 10
30.35047808566088
 20
14.82232107512049
 30
0.0
 11
27.55047808566081
 21
17.62232107512056
 31
0.0
  0
LINE
  5
43A
330
3A4
100
AcDbEntity
  8
0
 62
     0
100
AcDbLine
 10
21.25047808566091
 20
23.02429546301357
 30
0.0
 11
18.49658237558611
 21
25.77819117308843
 31
0.0
  0
LINE
  5
43B
330
3A4
100
AcDbEntity
  8
0
 62
     0
100
AcDbLine
 10
24.51570455688215
 20
19.75906899179238
 30
0.0
 11
22.15196079463049
 21
22.12281275404405
 31
0.0
  0
LINE
  5
43C
330
3A4
100
AcDbEntity
  8
0
 62
     0
100
AcDbLine
 10
15.82547808566073
 20
28.44929546301375
 30
0.0
 11
14.91718726585185
 21
29.35758628282269
 31
0.0
  0
LINE
  5
43D
330
3A4
100
AcDbEntity
  8
0
 62
     0
100
AcDbLine
 10
30.35047808566094
 20
13.9242954630136
 30
0.0
 11
27.55047808566087
 21
16.72429546301367
 31
0.0
  0
LINE
  5
43E
330
3A4
100
AcDbEntity
  8
0
 62
     0
100
AcDbLine
 10
21.25047808566091
 20
22.12626985090668
 30
0.0
 11
18.45047808566084
 21
24.92626985090675
 31
0.0
  0
LINE
  5
43F
330
3A4
100
AcDbEntity
  8
0
 62
     0
100
AcDbLine
 10
23.81538511445473
 20
19.56136282211287
 30
0.0
 11
21.95425462495097
 21
21.42249331161662
 31
0.0
  0
LINE
  5
440
330
3A4
100
AcDbEntity
  8
0
 62
     0
100
AcDbLine
 10
15.82547808566073
 20
27.55126985090686
 30
0.0
 11
14.0191616537449
 21
29.35758628282263
 31
0.0
  0
LINE
  5
441
330
3A4
100
AcDbEntity
  8
0
 62
     0
100
AcDbLine
 10
30.06257428439022
 20
13.31417365217737
 30
0.0
 11
27.55047808566081
 21
15.82626985090672
 31
0.0
  0
LINE
  5
442
330
3A4
100
AcDbEntity
  8
0
 62
     0
100
AcDbLine
 10
21.25047808566091
 20
21.22824423879973
 30
0.0
 11
18.45047808566084
 21
24.0282442387998
 31
0.0
  0
LINE
  5
443
330
3A4
100
AcDbEntity
  8
0
 62
     0
100
AcDbLine
 10
15.71644411539045
 20
26.76227820907019
 30
0.0
 11
13.12113604163789
 21
29.35758628282269
 31
0.0
  0
LINE
  5
444
330
3A4
100
AcDbEntity
  8
0
 62
     0
100
AcDbLine
 10
29.22113604163809
 20
13.2575862828225
 30
0.0
 11
27.55047808566081
 21
14.92824423879983
 31
0.0
  0
LINE
  5
445
330
3A4
100
AcDbEntity
  8
0
 62
     0
100
AcDbLine
 10
21.25047808566085
 20
20.33021862669284
 30
0.0
 11
18.45047808566079
 21
23.13021862669285
 31
0.0
  0
LINE
  5
446
330
3A4
100
AcDbEntity
  8
0
 62
     0
100
AcDbLine
 10
15.02311042953112
 20
26.55758628282256
 30
0.0
 11
12.223110429531
 21
29.35758628282269
 31
0.0
  0
LINE
  5
447
330
3A4
100
AcDbEntity
  8
0
 62
     0
100
AcDbLine
 10
28.32311042953108
 20
13.25758628282255
 30
0.0
 11
27.55047808566081
 21
14.03021862669288
 31
0.0
  0
LINE
  5
448
330
3A4
100
AcDbEntity
  8
0
 62
     0
100
AcDbLine
 10
21.25047808566091
 20
19.43219301458595
 30
0.0
 11
18.45047808566084
 21
22.23219301458601
 31
0.0
  0
LINE
  5
449
330
3A4
100
AcDbEntity
  8
0
 62
     0
100
AcDbLine
 10
14.12508481742423
 20
26.55758628282256
 30
0.0
 11
11.35995554531933
 21
29.32271555492752
 31
0.0
  0
LINE
  5
44A
330
3A4
100
AcDbEntity
  8
0
 62
     0
100
AcDbLine
 10
25.09787563682391
 20
15.58479546342289
 30
0.0
 11
24.6276872662612
 21
16.05498383398566
 31
0.0
  0
LINE
  5
44B
330
3A4
100
AcDbEntity
  8
0
 62
     0
100
AcDbLine
 10
21.25047808566085
 20
18.53416740247899
 30
0.0
 11
18.45047808566084
 21
21.33416740247906
 31
0.0
  0
LINE
  5
44C
330
3A4
100
AcDbEntity
  8
0
 62
     0
100
AcDbLine
 10
13.22705920531734
 20
26.55758628282256
 30
0.0
 11
10.66682073684086
 21
29.11782475129905
 31
0.0
  0
LINE
  5
44D
330
3A4
100
AcDbEntity
  8
0
 62
     0
100
AcDbLine
 10
25.10047808566082
 20
14.68416740247903
 30
0.0
 11
23.72705920531728
 21
16.05758628282262
 31
0.0
  0
LINE
  5
44E
330
3A4
100
AcDbEntity
  8
0
 62
     0
100
AcDbLine
 10
21.25047808566085
 20
17.6361417903721
 30
0.0
 11
18.4504780856609
 21
20.43614179037206
 31
0.0
  0
LINE
  5
44F
330
3A4
100
AcDbEntity
  8
0
 62
     0
100
AcDbLine
 10
12.32903359321039
 20
26.55758628282251
 30
0.0
 11
10.10257407699362
 21
28.78404579903929
 31
0.0
  0
LINE
  5
450
330
3A4
100
AcDbEntity
  8
0
 62
     0
100
AcDbLine
 10
25.10047808566082
 20
13.78614179037214
 30
0.0
 11
22.82903359321039
 21
16.05758628282251
 31
0.0
  0
LINE
  5
451
330
3A4
100
AcDbEntity
  8
0
 62
     0
100
AcDbLine
 10
11.8187407655958
 20
26.16985349833032
 30
0.0
 11
9.644481264752869
 21
28.34411299917326
 31
0.0
  0
LINE
  5
452
330
3A4
100
AcDbEntity
  8
0
 62
     0
100
AcDbLine
 10
24.71274530116852
 20
13.2758489627576
 30
0.0
 11
18.4504780856609
 21
19.53811617826522
 31
0.0
  0
LINE
  5
453
330
3A4
100
AcDbEntity
  8
0
 62
     0
100
AcDbLine
 10
11.80047808566087
 20
25.29009056615831
 30
0.0
 11
9.291000062283785
 21
27.79956858953539
 31
0.0
  0
LINE
  5
454
330
3A4
100
AcDbEntity
  8
0
 62
     0
100
AcDbLine
 10
23.83298236899662
 20
13.25758628282255
 30
0.0
 11
18.4504780856609
 21
18.64009056615827
 31
0.0
  0
LINE
  5
455
330
3A4
100
AcDbEntity
  8
0
 62
     0
100
AcDbLine
 10
11.86261379379629
 20
24.32992924591587
 30
0.0
 11
9.060119959990061
 21
27.13242307972217
 31
0.0
  0
LINE
  5
456
330
3A4
100
AcDbEntity
  8
0
 62
     0
100
AcDbLine
 10
22.93495675688962
 20
13.25758628282261
 30
0.0
 11
18.45047808566084
 21
17.74206495405133
 31
0.0
  0
LINE
  5
457
330
3A4
100
AcDbEntity
  8
0
 62
     0
100
AcDbLine
 10
16.15485417688353
 20
19.13966325072181
 30
0.0
 11
9.000478085660915
 21
26.29403934194442
 31
0.0
  0
LINE
  5
458
330
3A4
100
AcDbEntity
  8
0
 62
     0
100
AcDbLine
 10
21.98365905772607
 20
13.31085836987927
 30
0.0
 11
18.5037501727175
 21
16.79076725488783
 31
0.0
  0
LINE
  5
459
330
3A4
100
AcDbEntity
  8
0
 62
     0
100
AcDbLine
 10
16.34674869096875
 20
18.04974312452969
 30
0.0
 11
9.000478085660802
 21
25.39601372983764
 31
0.0
  0
LINE
  5
45A
330
3A4
100
AcDbEntity
  8
0
 62
     0
100
AcDbLine
 10
20.60985114512448
 20
13.78664067037391
 30
0.0
 11
18.97953247321209
 21
15.41695934228636
 31
0.0
  0
LINE
  5
45B
330
3A4
100
AcDbEntity
  8
0
 62
     0
100
AcDbLine
 10
16.35047808566088
 20
17.14798811773062
 30
0.0
 11
9.008042533083198
 21
24.49042367030824
 31
0.0
  0
LINE
  5
45C
330
3A4
100
AcDbEntity
  8
0
 62
     0
100
AcDbLine
 10
16.35047808566082
 20
16.24996250562372
 30
0.0
 11
9.231333291407054
 21
23.36910729987744
 31
0.0
  0
LINE
  5
45D
330
3A4
100
AcDbEntity
  8
0
 62
     0
100
AcDbLine
 10
16.27795808952891
 20
15.4244568896488
 30
0.0
 11
13.51456644590985
 21
18.18784853326786
 31
0.0
  0
LINE
  5
45E
330
3A4
100
AcDbEntity
  8
0
 62
     0
100
AcDbLine
 10
16.03602015050006
 20
14.7683692165707
 30
0.0
 11
13.55047808566081
 21
17.25391128140995
 31
0.0
  0
LINE
  5
45F
330
3A4
100
AcDbEntity
  8
0
 62
     0
100
AcDbLine
 10
15.67390090311829
 20
14.23246285184552
 30
0.0
 11
13.51457905336013
 21
16.39178470160368
 31
0.0
  0
LINE
  5
460
330
3A4
100
AcDbEntity
  8
0
 62
     0
100
AcDbLine
 10
15.20767453085142
 20
13.8006636120055
 30
0.0
 11
12.9507518600343
 21
16.05758628282268
 31
0.0
  0
LINE
  5
461
330
3A4
100
AcDbEntity
  8
0
 62
     0
100
AcDbLine
 10
14.6344100831186
 20
13.47590244763142
 30
0.0
 11
12.05272624792735
 21
16.05758628282262
 31
0.0
  0
LINE
  5
462
330
3A4
100
AcDbEntity
  8
0
 62
     0
100
AcDbLine
 10
13.92899749403267
 20
13.28328942461041
 30
0.0
 11
11.15470063582046
 21
16.05758628282262
 31
0.0
  0
LINE
  5
463
330
3A4
100
AcDbEntity
  8
0
 62
     0
100
AcDbLine
 10
13.05667502371363
 20
13.25758628282244
 30
0.0
 11
10.25667502371351
 21
16.05758628282262
 31
0.0
  0
LINE
  5
464
330
3A4
100
AcDbEntity
  8
0
 62
     0
100
AcDbLine
 10
12.15864941160669
 20
13.25758628282255
 30
0.0
 11
9.605325516788809
 21
15.81091017764049
 31
0.0
  0
LINE
  5
465
330
3A4
100
AcDbEntity
  8
0
 62
     0
100
AcDbLine
 10
11.26062379949979
 20
13.25758628282255
 30
0.0
 11
9.525478085660836
 21
14.99273199666151
 31
0.0
  0
LINE
  5
466
330
3A4
100
AcDbEntity
  8
0
 62
     0
100
AcDbLine
 10
10.36259818739284
 20
13.25758628282255
 30
0.0
 11
9.525478085660836
 21
14.09470638455457
 31
0.0
  0
LINE
  5
467
330
3A4
100
AcDbEntity
  8
0
 62
     0
100
AcDbLine
 10
66.34216537032779
 20
13.27071805994012
 30
0.0
 11
66.73734630854358
 21
13.66589899815591
 31
0.0
  0
LINE
  5
468
330
3A4
100
AcDbEntity
  8
0
 62
     0
100
AcDbLine
 10
65.43100798110334
 20
13.2575862828225
 30
0.0
 11
66.75047808566103
 21
14.57705638738019
 31
0.0
  0
LINE
  5
469
330
3A4
100
AcDbEntity
  8
0
 62
     0
100
AcDbLine
 10
64.53298236899644
 20
13.2575862828225
 30
0.0
 11
66.75047808566103
 21
15.47508199948708
 31
0.0
  0
LINE
  5
46A
330
3A4
100
AcDbEntity
  8
0
 62
     0
100
AcDbLine
 10
63.9816756489127
 20
13.6043051748457
 30
0.0
 11
66.75047808566097
 21
16.37310761159403
 31
0.0
  0
LINE
  5
46B
330
3A4
100
AcDbEntity
  8
0
 62
     0
100
AcDbLine
 10
63.9504780856609
 20
14.47113322370086
 30
0.0
 11
66.75047808566097
 21
17.27113322370087
 31
0.0
  0
LINE
  5
46C
330
3A4
100
AcDbEntity
  8
0
 62
     0
100
AcDbLine
 10
63.95047808566096
 20
15.36915883580775
 30
0.0
 11
66.75047808566097
 21
18.16915883580782
 31
0.0
  0
LINE
  5
46D
330
3A4
100
AcDbEntity
  8
0
 62
     0
100
AcDbLine
 10
63.9504780856609
 20
16.2671844479147
 30
0.0
 11
66.75047808566097
 21
19.06718444791477
 31
0.0
  0
LINE
  5
46E
330
3A4
100
AcDbEntity
  8
0
 62
     0
100
AcDbLine
 10
63.9504780856609
 20
17.16521006002159
 30
0.0
 11
66.75047808566097
 21
19.96521006002166
 31
0.0
  0
LINE
  5
46F
330
3A4
100
AcDbEntity
  8
0
 62
     0
100
AcDbLine
 10
60.37704294772618
 20
13.59177492208686
 30
0.0
 11
61.51628944639674
 21
14.73102142075748
 31
0.0
  0
LINE
  5
470
330
3A4
100
AcDbEntity
  8
0
 62
     0
100
AcDbLine
 10
63.9504780856609
 20
18.06323567212848
 30
0.0
 11
66.75047808566097
 21
20.86323567212855
 31
0.0
  0
LINE
  5
471
330
3A4
100
AcDbEntity
  8
0
 62
     0
100
AcDbLine
 10
59.14647478120338
 20
13.25923236767096
 30
0.0
 11
61.8488320008127
 21
15.96158958728023
 31
0.0
  0
LINE
  5
472
330
3A4
100
AcDbEntity
  8
0
 62
     0
100
AcDbLine
 10
63.9504780856609
 20
18.96126128423543
 30
0.0
 11
66.75047808566097
 21
21.76126128423544
 31
0.0
  0
LINE
  5
473
330
3A4
100
AcDbEntity
  8
0
 62
     0
100
AcDbLine
 10
58.24680308424797
 20
13.2575862828225
 30
0.0
 11
61.850478085661
 21
16.86126128423546
 31
0.0
  0
LINE
  5
474
330
3A4
100
AcDbEntity
  8
0
 62
     0
100
AcDbLine
 10
63.9504780856609
 20
19.85928689634232
 30
0.0
 11
66.75047808566091
 21
22.65928689634239
 31
0.0
  0
LINE
  5
475
330
3A4
100
AcDbEntity
  8
0
 62
     0
100
AcDbLine
 10
57.34877747214108
 20
13.2575862828225
 30
0.0
 11
61.85047808566094
 21
17.75928689634241
 31
0.0
  0
LINE
  5
476
330
3A4
100
AcDbEntity
  8
0
 62
     0
100
AcDbLine
 10
63.9504780856609
 20
20.75731250844921
 30
0.0
 11
66.75047808566097
 21
23.55731250844928
 31
0.0
  0
LINE
  5
477
330
3A4
100
AcDbEntity
  8
0
 62
     0
100
AcDbLine
 10
56.45075186003424
 20
13.25758628282255
 30
0.0
 11
61.850478085661
 21
18.6573125084493
 31
0.0
  0
LINE
  5
478
330
3A4
100
AcDbEntity
  8
0
 62
     0
100
AcDbLine
 10
58.94588688357988
 20
16.65074691847513
 30
0.0
 11
61.850478085661
 21
19.5553381205562
 31
0.0
  0
LINE
  5
479
330
3A4
100
AcDbEntity
  8
0
 62
     0
100
AcDbLine
 10
63.9504780856609
 20
21.65533812055611
 30
0.0
 11
66.75047808566097
 21
24.45533812055618
 31
0.0
  0
LINE
  5
47A
330
3A4
100
AcDbEntity
  8
0
 62
     0
100
AcDbLine
 10
55.55272624792724
 20
13.2575862828225
 30
0.0
 11
58.45731745000836
 21
16.16217748490356
 31
0.0
  0
LINE
  5
47B
330
3A4
100
AcDbEntity
  8
0
 62
     0
100
AcDbLine
 10
59.05047808566087
 20
17.65336373266308
 30
0.0
 11
61.85047808566094
 21
20.45336373266315
 31
0.0
  0
LINE
  5
47C
330
3A4
100
AcDbEntity
  8
0
 62
     0
100
AcDbLine
 10
63.95047808566085
 20
22.55336373266306
 30
0.0
 11
66.75047808566091
 21
25.35336373266313
 31
0.0
  0
LINE
  5
47D
330
3A4
100
AcDbEntity
  8
0
 62
     0
100
AcDbLine
 10
54.76665038719755
 20
13.36953603419971
 30
0.0
 11
57.45470063582041
 21
16.05758628282257
 31
0.0
  0
LINE
  5
47E
330
3A4
100
AcDbEntity
  8
0
 62
     0
100
AcDbLine
 10
59.05047808566092
 20
18.55138934477008
 30
0.0
 11
61.85047808566094
 21
21.35138934477004
 31
0.0
  0
LINE
  5
47F
330
3A4
100
AcDbEntity
  8
0
 62
     0
100
AcDbLine
 10
63.95047808566085
 20
23.45138934477
 30
0.0
 11
66.75047808566091
 21
26.25138934477002
 31
0.0
  0
LINE
  5
480
330
3A4
100
AcDbEntity
  8
0
 62
     0
100
AcDbLine
 10
54.1386635199874
 20
13.63957477909656
 30
0.0
 11
56.55755280935784
 21
16.058464068467
 31
0.0
  0
LINE
  5
481
330
3A4
100
AcDbEntity
  8
0
 62
     0
100
AcDbLine
 10
59.05047808566099
 20
19.44941495687698
 30
0.0
 11
61.85047808566094
 21
22.24941495687693
 31
0.0
  0
LINE
  5
482
330
3A4
100
AcDbEntity
  8
0
 62
     0
100
AcDbLine
 10
63.9504780856609
 20
24.34941495687684
 30
0.0
 11
66.75047808566091
 21
27.14941495687691
 31
0.0
  0
LINE
  5
483
330
3A4
100
AcDbEntity
  8
0
 62
     0
100
AcDbLine
 10
53.62540363862234
 20
14.02434050983828
 30
0.0
 11
55.91407422064515
 21
16.31301109186114
 31
0.0
  0
LINE
  5
484
330
3A4
100
AcDbEntity
  8
0
 62
     0
100
AcDbLine
 10
59.05047808566099
 20
20.34744056898387
 30
0.0
 11
61.85047808566094
 21
23.14744056898388
 31
0.0
  0
LINE
  5
485
330
3A4
100
AcDbEntity
  8
0
 62
     0
100
AcDbLine
 10
63.95047808566085
 20
25.24744056898379
 30
0.0
 11
66.75047808566091
 21
28.04744056898385
 31
0.0
  0
LINE
  5
486
330
3A4
100
AcDbEntity
  8
0
 62
     0
100
AcDbLine
 10
53.21543946339722
 20
14.5124019467201
 30
0.0
 11
55.57683594223573
 21
16.87379842555867
 31
0.0
  0
LINE
  5
487
330
3A4
100
AcDbEntity
  8
0
 62
     0
100
AcDbLine
 10
59.05047808566092
 20
21.24546618109082
 30
0.0
 11
61.850478085661
 21
24.04546618109089
 31
0.0
  0
LINE
  5
488
330
3A4
100
AcDbEntity
  8
0
 62
     0
100
AcDbLine
 10
63.95047808566085
 20
26.14546618109068
 30
0.0
 11
66.74032893211045
 21
28.93531702754035
 31
0.0
  0
LINE
  5
489
330
3A4
100
AcDbEntity
  8
0
 62
     0
100
AcDbLine
 10
52.91551458496321
 20
15.11050268039309
 30
0.0
 11
55.55047808566093
 21
17.74546618109076
 31
0.0
  0
LINE
  5
48A
330
3A4
100
AcDbEntity
  8
0
 62
     0
100
AcDbLine
 10
59.05047808566099
 20
22.14349179319765
 30
0.0
 11
61.85047808566105
 21
24.94349179319772
 31
0.0
  0
LINE
  5
48B
330
3A4
100
AcDbEntity
  8
0
 62
     0
100
AcDbLine
 10
63.95047808566085
 20
27.04349179319757
 30
0.0
 11
66.26321458703097
 21
29.3562282945677
 31
0.0
  0
LINE
  5
48C
330
3A4
100
AcDbEntity
  8
0
 62
     0
100
AcDbLine
 10
52.75810105000676
 20
15.85111475754348
 30
0.0
 11
55.55047808566093
 21
18.64349179319765
 31
0.0
  0
LINE
  5
48D
330
3A4
100
AcDbEntity
  8
0
 62
     0
100
AcDbLine
 10
59.05047808566092
 20
23.0415174053046
 30
0.0
 11
61.850478085661
 21
25.84151740530467
 31
0.0
  0
LINE
  5
48E
330
3A4
100
AcDbEntity
  8
0
 62
     0
100
AcDbLine
 10
63.9504780856609
 20
27.94151740530458
 30
0.0
 11
65.3665469631789
 21
29.35758628282258
 31
0.0
  0
LINE
  5
48F
330
3A4
100
AcDbEntity
  8
0
 62
     0
100
AcDbLine
 10
52.75047808566097
 20
16.74151740530459
 30
0.0
 11
55.55047808566098
 21
19.54151740530465
 31
0.0
  0
LINE
  5
490
330
3A4
100
AcDbEntity
  8
0
 62
     0
100
AcDbLine
 10
59.05047808566092
 20
23.93954301741155
 30
0.0
 11
61.850478085661
 21
26.73954301741156
 31
0.0
  0
LINE
  5
491
330
3A4
100
AcDbEntity
  8
0
 62
     0
100
AcDbLine
 10
52.75047808566092
 20
17.63954301741154
 30
0.0
 11
55.55047808566098
 21
20.4395430174116
 31
0.0
  0
LINE
  5
492
330
3A4
100
AcDbEntity
  8
0
 62
     0
100
AcDbLine
 10
63.95052480040835
 20
28.83958973215897
 30
0.0
 11
64.46847463632463
 21
29.3575395680752
 31
0.0
  0
LINE
  5
493
330
3A4
100
AcDbEntity
  8
0
 62
     0
100
AcDbLine
 10
48.42892245494891
 20
13.31798738669948
 30
0.0
 11
50.59007698178408
 21
15.4791419135347
 31
0.0
  0
LINE
  5
494
330
3A4
100
AcDbEntity
  8
0
 62
     0
100
AcDbLine
 10
52.75047808566092
 20
18.53756862951843
 30
0.0
 11
55.55047808566098
 21
21.33756862951849
 31
0.0
  0
LINE
  5
495
330
3A4
100
AcDbEntity
  8
0
 62
     0
100
AcDbLine
 10
59.05047808566092
 20
24.83756862951844
 30
0.0
 11
61.85047808566094
 21
27.63756862951851
 31
0.0
  0
LINE
  5
496
330
3A4
100
AcDbEntity
  8
0
 62
     0
100
AcDbLine
 10
47.47049573896504
 20
13.25758628282261
 30
0.0
 11
50.65047808566089
 21
16.43756862951846
 31
0.0
  0
LINE
  5
497
330
3A4
100
AcDbEntity
  8
0
 62
     0
100
AcDbLine
 10
52.75047808566092
 20
19.43559424162532
 30
0.0
 11
55.55047808566098
 21
22.23559424162539
 31
0.0
  0
LINE
  5
498
330
3A4
100
AcDbEntity
  8
0
 62
     0
100
AcDbLine
 10
59.05047808566092
 20
25.73559424162533
 30
0.0
 11
61.850478085661
 21
28.5355942416254
 31
0.0
  0
LINE
  5
499
330
3A4
100
AcDbEntity
  8
0
 62
     0
100
AcDbLine
 10
46.57247012685814
 20
13.25758628282255
 30
0.0
 11
50.65047808566095
 21
17.3355942416253
 31
0.0
  0
LINE
  5
49A
330
3A4
100
AcDbEntity
  8
0
 62
     0
100
AcDbLine
 10
52.75047808566092
 20
20.33361985373227
 30
0.0
 11
55.55047808566098
 21
23.13361985373228
 31
0.0
  0
LINE
  5
49B
330
3A4
100
AcDbEntity
  8
0
 62
     0
100
AcDbLine
 10
59.05047808566092
 20
26.63361985373223
 30
0.0
 11
61.65674063082684
 21
29.2398823988982
 31
0.0
  0
LINE
  5
49C
330
3A4
100
AcDbEntity
  8
0
 62
     0
100
AcDbLine
 10
45.67444451475125
 20
13.25758628282261
 30
0.0
 11
50.63615948524807
 21
18.21930125331937
 31
0.0
  0
LINE
  5
49D
330
3A4
100
AcDbEntity
  8
0
 62
     0
100
AcDbLine
 10
52.75047808566092
 20
21.23164546583916
 30
0.0
 11
55.55047808566093
 21
24.03164546583923
 31
0.0
  0
LINE
  5
49E
330
3A4
100
AcDbEntity
  8
0
 62
     0
100
AcDbLine
 10
59.05047808566087
 20
27.53164546583917
 30
0.0
 11
60.87641890264433
 21
29.35758628282263
 31
0.0
  0
LINE
  5
49F
330
3A4
100
AcDbEntity
  8
0
 62
     0
100
AcDbLine
 10
44.77641890264431
 20
13.25758628282261
 30
0.0
 11
50.50124711461927
 21
18.98241449479758
 31
0.0
  0
LINE
  5
4A0
330
3A4
100
AcDbEntity
  8
0
 62
     0
100
AcDbLine
 10
52.75047808566092
 20
22.12967107794605
 30
0.0
 11
55.55047808566098
 21
24.92967107794612
 31
0.0
  0
LINE
  5
4A1
330
3A4
100
AcDbEntity
  8
0
 62
     0
100
AcDbLine
 10
47.85047808566105
 20
17.22967107794613
 30
0.0
 11
50.26065965770072
 21
19.63985264998586
 31
0.0
  0
LINE
  5
4A2
330
3A4
100
AcDbEntity
  8
0
 62
     0
100
AcDbLine
 10
59.05047808566092
 20
28.42967107794606
 30
0.0
 11
59.9783932905375
 21
29.35758628282263
 31
0.0
  0
LINE
  5
4A3
330
3A4
100
AcDbEntity
  8
0
 62
     0
100
AcDbLine
 10
44.00664864366854
 20
13.38584163595368
 30
0.0
 11
46.67839329053743
 21
16.05758628282257
 31
0.0
  0
LINE
  5
4A4
330
3A4
100
AcDbEntity
  8
0
 62
     0
100
AcDbLine
 10
47.83060751053364
 20
18.10782611492567
 30
0.0
 11
49.93716035284013
 21
20.21437895723215
 31
0.0
  0
LINE
  5
4A5
330
3A4
100
AcDbEntity
  8
0
 62
     0
100
AcDbLine
 10
52.75047808566092
 20
23.02769669005294
 30
0.0
 11
55.55047808566093
 21
25.82769669005301
 31
0.0
  0
LINE
  5
4A6
330
3A4
100
AcDbEntity
  8
0
 62
     0
100
AcDbLine
 10
43.82547808566096
 20
14.10269669005299
 30
0.0
 11
45.78036767843047
 21
16.05758628282257
 31
0.0
  0
LINE
  5
4A7
330
3A4
100
AcDbEntity
  8
0
 62
     0
100
AcDbLine
 10
47.55622267339475
 20
18.73146688989379
 30
0.0
 11
49.54128923491231
 21
20.71653345141135
 31
0.0
  0
LINE
  5
4A8
330
3A4
100
AcDbEntity
  8
0
 62
     0
100
AcDbLine
 10
52.75047808566085
 20
23.92572230215989
 30
0.0
 11
55.55047808566093
 21
26.72572230215996
 31
0.0
  0
LINE
  5
4A9
330
3A4
100
AcDbEntity
  8
0
 62
     0
100
AcDbLine
 10
43.8254780856609
 20
15.00072230215994
 30
0.0
 11
44.88234206632358
 21
16.05758628282262
 31
0.0
  0
LINE
  5
4AA
330
3A4
100
AcDbEntity
  8
0
 62
     0
100
AcDbLine
 10
52.75047808566092
 20
24.82374791426678
 30
0.0
 11
55.55047808566098
 21
27.6237479142668
 31
0.0
  0
LINE
  5
4AB
330
3A4
100
AcDbEntity
  8
0
 62
     0
100
AcDbLine
 10
47.11494777627769
 20
19.1882176048835
 30
0.0
 11
49.09484676360006
 21
21.16811659220593
 31
0.0
  0
LINE
  5
4AC
330
3A4
100
AcDbEntity
  8
0
 62
     0
100
AcDbLine
 10
46.66593497022421
 20
19.63723041093698
 30
0.0
 11
48.64583395754658
 21
21.6171293982594
 31
0.0
  0
LINE
  5
4AD
330
3A4
100
AcDbEntity
  8
0
 62
     0
100
AcDbLine
 10
52.75047808566085
 20
25.72177352637368
 30
0.0
 11
55.55047808566093
 21
28.52177352637374
 31
0.0
  0
LINE
  5
4AE
330
3A4
100
AcDbEntity
  8
0
 62
     0
100
AcDbLine
 10
40.28629084210973
 20
13.25758628282255
 30
0.0
 11
41.2004780856609
 21
14.17177352637366
 31
0.0
  0
LINE
  5
4AF
330
3A4
100
AcDbEntity
  8
0
 62
     0
100
AcDbLine
 10
46.21692216417073
 20
20.08624321699045
 30
0.0
 11
48.19682115149311
 21
22.06614220431288
 31
0.0
  0
LINE
  5
4B0
330
3A4
100
AcDbEntity
  8
0
 62
     0
100
AcDbLine
 10
52.75047808566085
 20
26.61979913848063
 30
0.0
 11
55.36429717756226
 21
29.23361823038197
 31
0.0
  0
LINE
  5
4B1
330
3A4
100
AcDbEntity
  8
0
 62
     0
100
AcDbLine
 10
39.38826523000278
 20
13.25758628282255
 30
0.0
 11
41.20047808566096
 21
15.06979913848067
 31
0.0
  0
LINE
  5
4B2
330
3A4
100
AcDbEntity
  8
0
 62
     0
100
AcDbLine
 10
45.76790935811726
 20
20.53525602304393
 30
0.0
 11
47.74780834543963
 21
22.51515501036635
 31
0.0
  0
LINE
  5
4B3
330
3A4
100
AcDbEntity
  8
0
 62
     0
100
AcDbLine
 10
52.75047808566085
 20
27.51782475058752
 30
0.0
 11
54.59023961789597
 21
29.35758628282269
 31
0.0
  0
LINE
  5
4B4
330
3A4
100
AcDbEntity
  8
0
 62
     0
100
AcDbLine
 10
38.60185075575788
 20
13.36919742068454
 30
0.0
 11
41.2004780856609
 21
15.96782475058762
 31
0.0
  0
LINE
  5
4B5
330
3A4
100
AcDbEntity
  8
0
 62
     0
100
AcDbLine
 10
45.31889655206384
 20
20.98426882909734
 30
0.0
 11
47.29879553938622
 21
22.96416781641977
 31
0.0
  0
LINE
  5
4B6
330
3A4
100
AcDbEntity
  8
0
 62
     0
100
AcDbLine
 10
52.75047808566085
 20
28.41585036269441
 30
0.0
 11
53.69221400578914
 21
29.35758628282263
 31
0.0
  0
LINE
  5
4B7
330
3A4
100
AcDbEntity
  8
0
 62
     0
100
AcDbLine
 10
38.40047808566095
 20
14.0658503626945
 30
0.0
 11
41.20047808566096
 21
16.86585036269446
 31
0.0
  0
LINE
  5
4B8
330
3A4
100
AcDbEntity
  8
0
 62
     0
100
AcDbLine
 10
44.86988374601037
 20
21.43328163515082
 30
0.0
 11
46.84978273333274
 21
23.41318062247324
 31
0.0
  0
LINE
  5
4B9
330
3A4
100
AcDbEntity
  8
0
 62
     0
100
AcDbLine
 10
38.40047808566095
 20
14.96387597480145
 30
0.0
 11
41.2004780856609
 21
17.7638759748014
 31
0.0
  0
LINE
  5
4BA
330
3A4
100
AcDbEntity
  8
0
 62
     0
100
AcDbLine
 10
44.42289984496904
 20
21.88432334621649
 30
0.0
 11
46.40687337835106
 21
23.86829687959846
 31
0.0
  0
LINE
  5
4BB
330
3A4
100
AcDbEntity
  8
0
 62
     0
100
AcDbLine
 10
38.40047808566095
 20
15.86190158690834
 30
0.0
 11
41.2004780856609
 21
18.66190158690835
 31
0.0
  0
LINE
  5
4BC
330
3A4
100
AcDbEntity
  8
0
 62
     0
100
AcDbLine
 10
49.09616278157511
 20
26.55758628282256
 30
0.0
 11
50.12547808566097
 21
27.58690158690837
 31
0.0
  0
LINE
  5
4BD
330
3A4
100
AcDbEntity
  8
0
 62
     0
100
AcDbLine
 10
35.90782186095072
 20
13.36924536219811
 30
0.0
 11
35.99747422240574
 21
13.45889772365319
 31
0.0
  0
LINE
  5
4BE
330
3A4
100
AcDbEntity
  8
0
 62
     0
100
AcDbLine
 10
44.02489766614706
 20
22.38434677950135
 30
0.0
 11
46.12453194356567
 21
24.48398105691996
 31
0.0
  0
LINE
  5
4BF
330
3A4
100
AcDbEntity
  8
0
 62
     0
100
AcDbLine
 10
38.40047808566095
 20
16.75992719901523
 30
0.0
 11
41.20047808566096
 21
19.55992719901519
 31
0.0
  0
LINE
  5
4C0
330
3A4
100
AcDbEntity
  8
0
 62
     0
100
AcDbLine
 10
48.19813716946834
 20
26.55758628282262
 30
0.0
 11
50.12547808566097
 21
28.48492719901526
 31
0.0
  0
LINE
  5
4C1
330
3A4
100
AcDbEntity
  8
0
 62
     0
100
AcDbLine
 10
34.89813716946827
 20
13.25758628282255
 30
0.0
 11
35.9639162657748
 21
14.32336537912908
 31
0.0
  0
LINE
  5
4C2
330
3A4
100
AcDbEntity
  8
0
 62
     0
100
AcDbLine
 10
43.69906340175037
 20
22.95653812721161
 30
0.0
 11
46.10047808566105
 21
25.35795281112228
 31
0.0
  0
LINE
  5
4C3
330
3A4
100
AcDbEntity
  8
0
 62
     0
100
AcDbLine
 10
38.40047808566095
 20
17.65795281112213
 30
0.0
 11
41.2004780856609
 21
20.45795281112213
 31
0.0
  0
LINE
  5
4C4
330
3A4
100
AcDbEntity
  8
0
 62
     0
100
AcDbLine
 10
47.30011155736133
 20
26.55758628282256
 30
0.0
 11
49.95880915386305
 21
29.21628387932429
 31
0.0
  0
LINE
  5
4C5
330
3A4
100
AcDbEntity
  8
0
 62
     0
100
AcDbLine
 10
34.00011155736126
 20
13.2575862828225
 30
0.0
 11
35.74839011886911
 21
15.00586484433034
 31
0.0
  0
LINE
  5
4C6
330
3A4
100
AcDbEntity
  8
0
 62
     0
100
AcDbLine
 10
38.40047808566089
 20
18.55597842322907
 30
0.0
 11
41.2004780856609
 21
21.35597842322903
 31
0.0
  0
LINE
  5
4C7
330
3A4
100
AcDbEntity
  8
0
 62
     0
100
AcDbLine
 10
43.45568133908028
 20
23.61118167664847
 30
0.0
 11
49.20208594525445
 21
29.35758628282263
 31
0.0
  0
LINE
  5
4C8
330
3A4
100
AcDbEntity
  8
0
 62
     0
100
AcDbLine
 10
33.40809724670629
 20
13.56359758427447
 30
0.0
 11
35.53286397196342
 21
15.6883643095316
 31
0.0
  0
LINE
  5
4C9
330
3A4
100
AcDbEntity
  8
0
 62
     0
100
AcDbLine
 10
38.40047808566089
 20
19.45400403533602
 30
0.0
 11
41.20047808566084
 21
22.25400403533598
 31
0.0
  0
LINE
  5
4CA
330
3A4
100
AcDbEntity
  8
0
 62
     0
100
AcDbLine
 10
43.31697447999459
 20
24.37050042966973
 30
0.0
 11
48.30406033314756
 21
29.35758628282263
 31
0.0
  0
LINE
  5
4CB
330
3A4
100
AcDbEntity
  8
0
 62
     0
100
AcDbLine
 10
33.18933782505769
 20
14.24286377473282
 30
0.0
 11
35.31733782505773
 21
16.37086377473286
 31
0.0
  0
LINE
  5
4CC
330
3A4
100
AcDbEntity
  8
0
 62
     0
100
AcDbLine
 10
38.40047808566095
 20
20.35202964744286
 30
0.0
 11
41.2004780856609
 21
23.15202964744287
 31
0.0
  0
LINE
  5
4CD
330
3A4
100
AcDbEntity
  8
0
 62
     0
100
AcDbLine
 10
43.30047808566092
 20
25.25202964744284
 30
0.0
 11
47.40603472104067
 21
29.35758628282263
 31
0.0
  0
LINE
  5
4CE
330
3A4
100
AcDbEntity
  8
0
 62
     0
100
AcDbLine
 10
32.97381167815206
 20
14.92536323993403
 30
0.0
 11
35.10181167815216
 21
17.05336323993407
 31
0.0
  0
LINE
  5
4CF
330
3A4
100
AcDbEntity
  8
0
 62
     0
100
AcDbLine
 10
38.40047808566089
 20
21.25005525954981
 30
0.0
 11
41.2004780856609
 21
24.05005525954976
 31
0.0
  0
LINE
  5
4D0
330
3A4
100
AcDbEntity
  8
0
 62
     0
100
AcDbLine
 10
43.30047808566098
 20
26.15005525954984
 30
0.0
 11
46.50800910893377
 21
29.35758628282263
 31
0.0
  0
LINE
  5
4D1
330
3A4
100
AcDbEntity
  8
0
 62
     0
100
AcDbLine
 10
32.75828553124631
 20
15.60786270513523
 30
0.0
 11
34.88628553124653
 21
17.73586270513544
 31
0.0
  0
LINE
  5
4D2
330
3A4
100
AcDbEntity
  8
0
 62
     0
100
AcDbLine
 10
38.40047808566089
 20
22.1480808716567
 30
0.0
 11
41.20047808566096
 21
24.94808087165677
 31
0.0
  0
LINE
  5
4D3
330
3A4
100
AcDbEntity
  8
0
 62
     0
100
AcDbLine
 10
32.54275938434068
 20
16.29036217033655
 30
0.0
 11
34.67075938434078
 21
18.41836217033659
 31
0.0
  0
LINE
  5
4D4
330
3A4
100
AcDbEntity
  8
0
 62
     0
100
AcDbLine
 10
43.35379475578213
 20
27.101397541778
 30
0.0
 11
45.55666682670545
 21
29.30426961270132
 31
0.0
  0
LINE
  5
4D5
330
3A4
100
AcDbEntity
  8
0
 62
     0
100
AcDbLine
 10
29.50998349682669
 20
13.25758628282255
 30
0.0
 11
30.35047808566088
 21
14.09808087165674
 31
0.0
  0
LINE
  5
4D6
330
3A4
100
AcDbEntity
  8
0
 62
     0
100
AcDbLine
 10
32.32723323743511
 20
16.97286163553775
 30
0.0
 11
34.45523323743515
 21
19.10086163553785
 31
0.0
  0
LINE
  5
4D7
330
3A4
100
AcDbEntity
  8
0
 62
     0
100
AcDbLine
 10
38.40047808566089
 20
23.04610648376359
 30
0.0
 11
41.20047808566096
 21
25.84610648376366
 31
0.0
  0
LINE
  5
4D8
330
3A4
100
AcDbEntity
  8
0
 62
     0
100
AcDbLine
 10
28.61195788471985
 20
13.2575862828225
 30
0.0
 11
30.35047808566094
 21
14.99610648376363
 31
0.0
  0
LINE
  5
4D9
330
3A4
100
AcDbEntity
  8
0
 62
     0
100
AcDbLine
 10
32.11170709052942
 20
17.65536110073901
 30
0.0
 11
34.23970709052946
 21
19.78336110073911
 31
0.0
  0
LINE
  5
4DA
330
3A4
100
AcDbEntity
  8
0
 62
     0
100
AcDbLine
 10
38.40047808566089
 20
23.94413209587054
 30
0.0
 11
41.20047808566096
 21
26.74413209587055
 31
0.0
  0
LINE
  5
4DB
330
3A4
100
AcDbEntity
  8
0
 62
     0
100
AcDbLine
 10
27.7950820202642
 20
13.33873603047385
 30
0.0
 11
30.35047808566094
 21
15.89413209587053
 31
0.0
  0
LINE
  5
4DC
330
3A4
100
AcDbEntity
  8
0
 62
     0
100
AcDbLine
 10
31.89618094362373
 20
18.33786056594027
 30
0.0
 11
34.02418094362377
 21
20.46586056594037
 31
0.0
  0
LINE
  5
4DD
330
3A4
100
AcDbEntity
  8
0
 62
     0
100
AcDbLine
 10
38.40047808566089
 20
24.84215770797743
 30
0.0
 11
41.2004780856609
 21
27.6421577079775
 31
0.0
  0
LINE
  5
4DE
330
3A4
100
AcDbEntity
  8
0
 62
     0
100
AcDbLine
 10
27.55047808566092
 20
13.99215770797747
 30
0.0
 11
30.35047808566099
 21
16.79215770797753
 31
0.0
  0
LINE
  5
4DF
330
3A4
100
AcDbEntity
  8
0
 62
     0
100
AcDbLine
 10
31.6806547967181
 20
19.02036003114147
 30
0.0
 11
33.80865479671825
 21
21.14836003114163
 31
0.0
  0
LINE
  5
4E0
330
3A4
100
AcDbEntity
  8
0
 62
     0
100
AcDbLine
 10
38.40047808566089
 20
25.74018332008432
 30
0.0
 11
41.20047808566096
 21
28.54018332008439
 31
0.0
  0
LINE
  5
4E1
330
3A4
100
AcDbEntity
  8
0
 62
     0
100
AcDbLine
 10
27.55047808566092
 20
14.89018332008436
 30
0.0
 11
30.35047808566099
 21
17.69018332008442
 31
0.0
  0
LINE
  5
4E2
330
3A4
100
AcDbEntity
  8
0
 62
     0
100
AcDbLine
 10
31.44585600974636
 20
19.68358685627674
 30
0.0
 11
34.07615007767736
 21
22.31388092420769
 31
0.0
  0
LINE
  5
4E3
330
3A4
100
AcDbEntity
  8
0
 62
     0
100
AcDbLine
 10
38.40047808566095
 20
26.63820893219133
 30
0.0
 11
41.00420266316251
 21
29.24193350969284
 31
0.0
  0
LINE
  5
4E4
330
3A4
100
AcDbEntity
  8
0
 62
     0
100
AcDbLine
 10
27.55047808566092
 20
15.7882089321913
 30
0.0
 11
30.35047808566099
 21
18.58820893219132
 31
0.0
  0
LINE
  5
4E5
330
3A4
100
AcDbEntity
  8
0
 62
     0
100
AcDbLine
 10
30.75867063987897
 20
19.8944270985163
 30
0.0
 11
34.49062343711125
 21
23.62637989574858
 31
0.0
  0
LINE
  5
4E6
330
3A4
100
AcDbEntity
  8
0
 62
     0
100
AcDbLine
 10
27.55047808566092
 20
16.6862345442982
 30
0.0
 11
30.36363726996722
 21
19.4993937286045
 31
0.0
  0
LINE
  5
4E7
330
3A4
100
AcDbEntity
  8
0
 62
     0
100
AcDbLine
 10
38.40047808566095
 20
27.53623454429822
 30
0.0
 11
40.2218298241853
 21
29.35758628282263
 31
0.0
  0
LINE
  5
4E8
330
3A4
100
AcDbEntity
  8
0
 62
     0
100
AcDbLine
 10
24.12182982418528
 20
13.25758628282255
 30
0.0
 11
25.10047808566094
 21
14.23623454429827
 31
0.0
  0
LINE
  5
4E9
330
3A4
100
AcDbEntity
  8
0
 62
     0
100
AcDbLine
 10
27.55047808566087
 20
17.58426015640515
 30
0.0
 11
34.90509679654519
 21
24.93887886728947
 31
0.0
  0
LINE
  5
4EA
330
3A4
100
AcDbEntity
  8
0
 62
     0
100
AcDbLine
 10
38.40047808566089
 20
28.43426015640517
 30
0.0
 11
39.3238042120783
 21
29.35758628282258
 31
0.0
  0
LINE
  5
4EB
330
3A4
100
AcDbEntity
  8
0
 62
     0
100
AcDbLine
 10
23.22380421207833
 20
13.25758628282261
 30
0.0
 11
25.10047808566099
 21
15.13426015640527
 31
0.0
  0
LINE
  5
4EC
330
3A4
100
AcDbEntity
  8
0
 62
     0
100
AcDbLine
 10
27.55047808566092
 20
18.48228576851198
 30
0.0
 11
35.3195701559793
 21
26.25137783883042
 31
0.0
  0
LINE
  5
4ED
330
3A4
100
AcDbEntity
  8
0
 62
     0
100
AcDbLine
 10
22.33745922432154
 20
13.26926690717266
 30
0.0
 11
24.95914380205476
 21
15.89095148490582
 31
0.0
  0
LINE
  5
4EE
330
3A4
100
AcDbEntity
  8
0
 62
     0
100
AcDbLine
 10
27.55047808566087
 20
19.38031138061893
 30
0.0
 11
30.87775298786453
 21
22.7075862828226
 31
0.0
  0
LINE
  5
4EF
330
3A4
100
AcDbEntity
  8
0
 62
     0
100
AcDbLine
 10
31.64173582310542
 20
23.47156911806348
 30
0.0
 11
35.73404351541324
 21
27.56387681037131
 31
0.0
  0
LINE
  5
4F0
330
3A4
100
AcDbEntity
  8
0
 62
     0
100
AcDbLine
 10
21.56929870687457
 20
13.39913200183258
 30
0.0
 11
24.2277529878645
 21
16.05758628282257
 31
0.0
  0
LINE
  5
4F1
330
3A4
100
AcDbEntity
  8
0
 62
     0
100
AcDbLine
 10
27.55047808566087
 20
20.27833699272588
 30
0.0
 11
30.3684686563692
 21
23.09632756343416
 31
0.0
  0
LINE
  5
4F2
330
3A4
100
AcDbEntity
  8
0
 62
     0
100
AcDbLine
 10
32.05620918253936
 20
24.78406808960432
 30
0.0
 11
36.10911496721456
 21
28.83697387427957
 31
0.0
  0
LINE
  5
4F3
330
3A4
100
AcDbEntity
  8
0
 62
     0
100
AcDbLine
 10
20.90816445004816
 20
13.63602335711317
 30
0.0
 11
23.32972737575761
 21
16.05758628282257
 31
0.0
  0
LINE
  5
4F4
330
3A4
100
AcDbEntity
  8
0
 62
     0
100
AcDbLine
 10
27.55047808566092
 20
21.17636260483271
 30
0.0
 11
30.35047808566094
 21
23.97636260483278
 31
0.0
  0
LINE
  5
4F5
330
3A4
100
AcDbEntity
  8
0
 62
     0
100
AcDbLine
 10
32.4706825419733
 20
26.09656706114515
 30
0.0
 11
35.71510309464537
 21
29.34098761381722
 31
0.0
  0
LINE
  5
4F6
330
3A4
100
AcDbEntity
  8
0
 62
     0
100
AcDbLine
 10
20.33056116588386
 20
13.95644568505565
 30
0.0
 11
22.44662302437672
 21
16.07250754354856
 31
0.0
  0
LINE
  5
4F7
330
3A4
100
AcDbEntity
  8
0
 62
     0
100
AcDbLine
 10
27.55047808566087
 20
22.07438821693966
 30
0.0
 11
30.35047808566094
 21
24.87438821693973
 31
0.0
  0
LINE
  5
4F8
330
3A4
100
AcDbEntity
  8
0
 62
     0
100
AcDbLine
 10
32.88515590140724
 20
27.40906603268598
 30
0.0
 11
34.83367615154378
 21
29.35758628282258
 31
0.0
  0
LINE
  5
4F9
330
3A4
100
AcDbEntity
  8
0
 62
     0
100
AcDbLine
 10
19.8256061995018
 20
14.34951633078054
 30
0.0
 11
21.81230688335841
 21
16.33621701463715
 31
0.0
  0
LINE
  5
4FA
330
3A4
100
AcDbEntity
  8
0
 62
     0
100
AcDbLine
 10
27.55047808566087
 20
22.97241382904656
 30
0.0
 11
30.35047808566094
 21
25.77241382904662
 31
0.0
  0
LINE
  5
4FB
330
3A4
100
AcDbEntity
  8
0
 62
     0
100
AcDbLine
 10
24.21211221743738
 20
19.63404796082312
 30
0.0
 11
25.37401640766046
 21
20.79595215104621
 31
0.0
  0
LINE
  5
4FC
330
3A4
100
AcDbEntity
  8
0
 62
     0
100
AcDbLine
 10
33.29962926084113
 20
28.72156500422687
 30
0.0
 11
33.93565053943683
 21
29.35758628282258
 31
0.0
  0
LINE
  5
4FD
330
3A4
100
AcDbEntity
  8
0
 62
     0
100
AcDbLine
 10
19.38916912617196
 20
14.8111048695577
 30
0.0
 11
21.40205593208623
 21
16.82399167547197
 31
0.0
  0
LINE
  5
4FE
330
3A4
100
AcDbEntity
  8
0
 62
     0
100
AcDbLine
 10
23.28713937580755
 20
19.60710073130025
 30
0.0
 11
25.40096363718333
 21
21.72092499267597
 31
0.0
  0
LINE
  5
4FF
330
3A4
100
AcDbEntity
  8
0
 62
     0
100
AcDbLine
 10
27.55047808566092
 20
23.87043944115356
 30
0.0
 11
30.35047808566099
 21
26.67043944115363
 31
0.0
  0
LINE
  5
500
330
3A4
100
AcDbEntity
  8
0
 62
     0
100
AcDbLine
 10
19.02214990122899
 20
15.34211125672163
 30
0.0
 11
21.25047808566091
 21
17.57043944115361
 31
0.0
  0
LINE
  5
501
330
3A4
100
AcDbEntity
  8
0
 62
     0
100
AcDbLine
 10
22.67299280638735
 20
19.89097977398682
 30
0.0
 11
25.1170845944967
 21
22.33507156209623
 31
0.0
  0
LINE
  5
502
330
3A4
100
AcDbEntity
  8
0
 62
     0
100
AcDbLine
 10
27.55047808566092
 20
24.76846505326045
 30
0.0
 11
30.35047808566099
 21
27.56846505326052
 31
0.0
  0
LINE
  5
503
330
3A4
100
AcDbEntity
  8
0
 62
     0
100
AcDbLine
 10
18.73083239130426
 20
15.94881935890379
 30
0.0
 11
21.25047808566091
 21
18.46846505326044
 31
0.0
  0
LINE
  5
504
330
3A4
100
AcDbEntity
  8
0
 62
     0
100
AcDbLine
 10
22.23503287939763
 20
20.35104545910411
 30
0.0
 11
24.65701890937947
 21
22.77303148908589
 31
0.0
  0
LINE
  5
505
330
3A4
100
AcDbEntity
  8
0
 62
     0
100
AcDbLine
 10
27.55047808566092
 20
25.6664906653674
 30
0.0
 11
30.35047808566099
 21
28.46649066536741
 31
0.0
  0
LINE
  5
506
330
3A4
100
AcDbEntity
  8
0
 62
     0
100
AcDbLine
 10
18.5296950271296
 20
16.64570760683608
 30
0.0
 11
21.25047808566091
 21
19.36649066536739
 31
0.0
  0
LINE
  5
507
330
3A4
100
AcDbEntity
  8
0
 62
     0
100
AcDbLine
 10
21.97898214698926
 20
20.99302033880263
 30
0.0
 11
24.01504402968089
 21
23.02908222149432
 31
0.0
  0
LINE
  5
508
330
3A4
100
AcDbEntity
  8
0
 62
     0
100
AcDbLine
 10
18.45047808566084
 20
17.46451627747427
 30
0.0
 11
21.25047808566091
 21
20.26451627747428
 31
0.0
  0
LINE
  5
509
330
3A4
100
AcDbEntity
  8
0
 62
     0
100
AcDbLine
 10
27.55047808566092
 20
26.56451627747429
 30
0.0
 11
30.1932279773058
 21
29.20726616911924
 31
0.0
  0
LINE
  5
50A
330
3A4
100
AcDbEntity
  8
0
 62
     0
100
AcDbLine
 10
14.36448132778525
 20
13.37851951959868
 30
0.0
 11
16.22954484888498
 21
15.24358304069841
 31
0.0
  0
LINE
  5
50B
330
3A4
100
AcDbEntity
  8
0
 62
     0
100
AcDbLine
 10
22.09739523047005
 20
22.00945903439031
 30
0.0
 11
22.99860533409327
 21
22.91066913801353
 31
0.0
  0
LINE
  5
50C
330
3A4
100
AcDbEntity
  8
0
 62
     0
100
AcDbLine
 10
18.45047808566084
 20
18.3625418895811
 30
0.0
 11
21.25047808566091
 21
21.16254188958117
 31
0.0
  0
LINE
  5
50D
330
3A4
100
AcDbEntity
  8
0
 62
     0
100
AcDbLine
 10
27.55047808566092
 20
27.46254188958118
 30
0.0
 11
29.44552247890232
 21
29.35758628282258
 31
0.0
  0
LINE
  5
50E
330
3A4
100
AcDbEntity
  8
0
 62
     0
100
AcDbLine
 10
13.34552247890229
 20
13.25758628282255
 30
0.0
 11
16.35047808566105
 21
16.26254188958125
 31
0.0
  0
LINE
  5
50F
330
3A4
100
AcDbEntity
  8
0
 62
     0
100
AcDbLine
 10
18.45047808566084
 20
19.26056750168805
 30
0.0
 11
21.25047808566091
 21
22.06056750168812
 31
0.0
  0
LINE
  5
510
330
3A4
100
AcDbEntity
  8
0
 62
     0
100
AcDbLine
 10
27.55047808566092
 20
28.36056750168808
 30
0.0
 11
28.54749686679543
 21
29.35758628282263
 31
0.0
  0
LINE
  5
511
330
3A4
100
AcDbEntity
  8
0
 62
     0
100
AcDbLine
 10
12.44749686679529
 20
13.2575862828225
 30
0.0
 11
16.35047808566099
 21
17.1605675016882
 31
0.0
  0
LINE
  5
512
330
3A4
100
AcDbEntity
  8
0
 62
     0
100
AcDbLine
 10
18.45047808566084
 20
20.15859311379494
 30
0.0
 11
21.25047808566085
 21
22.95859311379501
 31
0.0
  0
LINE
  5
513
330
3A4
100
AcDbEntity
  8
0
 62
     0
100
AcDbLine
 10
11.54947125468845
 20
13.25758628282261
 30
0.0
 11
16.34653873309974
 21
18.0546537612339
 31
0.0
  0
LINE
  5
514
330
3A4
100
AcDbEntity
  8
0
 62
     0
100
AcDbLine
 10
18.45047808566084
 20
21.05661872590189
 30
0.0
 11
21.25047808566091
 21
23.85661872590196
 31
0.0
  0
LINE
  5
515
330
3A4
100
AcDbEntity
  8
0
 62
     0
100
AcDbLine
 10
23.95144564258163
 20
26.55758628282268
 30
0.0
 11
25.10047808566105
 21
27.7066187259021
 31
0.0
  0
LINE
  5
516
330
3A4
100
AcDbEntity
  8
0
 62
     0
100
AcDbLine
 10
10.6514456425815
 20
13.25758628282255
 30
0.0
 11
16.23687689677842
 21
18.84301753701947
 31
0.0
  0
LINE
  5
517
330
3A4
100
AcDbEntity
  8
0
 62
     0
100
AcDbLine
 10
18.45047808566084
 20
21.95464433800879
 30
0.0
 11
21.25047808566091
 21
24.7546443380088
 31
0.0
  0
LINE
  5
518
330
3A4
100
AcDbEntity
  8
0
 62
     0
100
AcDbLine
 10
13.55047808566092
 20
17.05464433800887
 30
0.0
 11
16.0145381527343
 21
19.51870440508224
 31
0.0
  0
LINE
  5
519
330
3A4
100
AcDbEntity
  8
0
 62
     0
100
AcDbLine
 10
23.05342003047462
 20
26.55758628282256
 30
0.0
 11
25.10047808566105
 21
28.60464433800894
 31
0.0
  0
LINE
  5
51A
330
3A4
100
AcDbEntity
  8
0
 62
     0
100
AcDbLine
 10
9.811145905734576
 20
13.31531215808252
 30
0.0
 11
12.55342003047462
 21
16.05758628282257
 31
0.0
  0
LINE
  5
51B
330
3A4
100
AcDbEntity
  8
0
 62
     0
100
AcDbLine
 10
18.45047808566079
 20
22.85266995011568
 30
0.0
 11
21.41629279144058
 21
25.81848465589547
 31
0.0
  0
LINE
  5
51C
330
3A4
100
AcDbEntity
  8
0
 62
     0
100
AcDbLine
 10
13.54831899405167
 20
17.9505108585065
 30
0.0
 11
15.70610661806227
 21
20.10829848251717
 31
0.0
  0
LINE
  5
51D
330
3A4
100
AcDbEntity
  8
0
 62
     0
100
AcDbLine
 10
21.98957971258812
 20
26.39177157704301
 30
0.0
 11
24.86701067074113
 21
29.26920253519597
 31
0.0
  0
LINE
  5
51E
330
3A4
100
AcDbEntity
  8
0
 62
     0
100
AcDbLine
 10
9.52547808566095
 20
13.92766995011578
 30
0.0
 11
11.65539441836773
 21
16.05758628282257
 31
0.0
  0
LINE
  5
51F
330
3A4
100
AcDbEntity
  8
0
 62
     0
100
AcDbLine
 10
13.32871597455095
 20
18.6289334511128
 30
0.0
 11
15.32386465322338
 21
20.62408212978522
 31
0.0
  0
LINE
  5
520
330
3A4
100
AcDbEntity
  8
0
 62
     0
100
AcDbLine
 10
18.45047808566079
 20
23.75069556222263
 30
0.0
 11
24.05736880626085
 21
29.35758628282269
 31
0.0
  0
LINE
  5
521
330
3A4
100
AcDbEntity
  8
0
 62
     0
100
AcDbLine
 10
9.525478085660893
 20
14.82569556222273
 30
0.0
 11
10.75736880626078
 21
16.05758628282262
 31
0.0
  0
LINE
  5
522
330
3A4
100
AcDbEntity
  8
0
 62
     0
100
AcDbLine
 10
12.90246114624625
 20
19.10070423491492
 30
0.0
 11
14.88236013356862
 21
21.08060322223729
 31
0.0
  0
LINE
  5
523
330
3A4
100
AcDbEntity
  8
0
 62
     0
100
AcDbLine
 10
18.45047808566084
 20
24.64872117432946
 30
0.0
 11
23.15934319415379
 21
29.35758628282247
 31
0.0
  0
LINE
  5
524
330
3A4
100
AcDbEntity
  8
0
 62
     0
100
AcDbLine
 10
9.594430007680671
 20
15.79267309634934
 30
0.0
 11
9.790391272134286
 21
15.98863436080296
 31
0.0
  0
LINE
  5
525
330
3A4
100
AcDbEntity
  8
0
 62
     0
100
AcDbLine
 10
18.47045319981742
 20
25.56672190059299
 30
0.0
 11
22.24134246789043
 21
29.33761116866605
 31
0.0
  0
LINE
  5
526
330
3A4
100
AcDbEntity
  8
0
 62
     0
100
AcDbLine
 10
12.45344834019277
 20
19.5497170409684
 30
0.0
 11
14.43334732751515
 21
21.52961602829077
 31
0.0
  0
LINE
  5
527
330
3A4
100
AcDbEntity
  8
0
 62
     0
100
AcDbLine
 10
18.7699166320832
 20
26.76421094496578
 30
0.0
 11
21.0438534235177
 21
29.03814773640027
 31
0.0
  0
LINE
  5
528
330
3A4
100
AcDbEntity
  8
0
 62
     0
100
AcDbLine
 10
12.0044355341393
 20
19.99872984702187
 30
0.0
 11
13.98433452146167
 21
21.97862883434424
 31
0.0
  0
LINE
  5
529
330
3A4
100
AcDbEntity
  8
0
 62
     0
100
AcDbLine
 10
11.55542272808588
 20
20.44774265307529
 30
0.0
 11
13.5353217154082
 21
22.42764164039755
 31
0.0
  0
LINE
  5
52A
330
3A4
100
AcDbEntity
  8
0
 62
     0
100
AcDbLine
 10
11.10640992203241
 20
20.89675545912876
 30
0.0
 11
13.08630890935472
 21
22.87665444645103
 31
0.0
  0
LINE
  5
52B
330
3A4
100
AcDbEntity
  8
0
 62
     0
100
AcDbLine
 10
10.65739711597893
 20
21.34576826518224
 30
0.0
 11
12.63729610330125
 21
23.3256672525045
 31
0.0
  0
LINE
  5
52C
330
3A4
100
AcDbEntity
  8
0
 62
     0
100
AcDbLine
 10
14.97118952151237
 20
26.55758628282256
 30
0.0
 11
15.82547808566084
 21
27.4118748469711
 31
0.0
  0
LINE
  5
52D
330
3A4
100
AcDbEntity
  8
0
 62
     0
100
AcDbLine
 10
10.20846762395359
 20
21.79486438526385
 30
0.0
 11
12.18853326738605
 21
23.7749300286963
 31
0.0
  0
LINE
  5
52E
330
3A4
100
AcDbEntity
  8
0
 62
     0
100
AcDbLine
 10
14.07316390940548
 20
26.55758628282256
 30
0.0
 11
15.8254780856609
 21
28.30990045907799
 31
0.0
  0
LINE
  5
52F
330
3A4
100
AcDbEntity
  8
0
 62
     0
100
AcDbLine
 10
9.796999699402022
 20
22.28142207281905
 30
0.0
 11
11.85863638609811
 21
24.3430587595152
 31
0.0
  0
LINE
  5
530
330
3A4
100
AcDbEntity
  8
0
 62
     0
100
AcDbLine
 10
13.17513829729853
 20
26.55758628282256
 30
0.0
 11
15.73891918589976
 21
29.12136717142379
 31
0.0
  0
LINE
  5
531
330
3A4
100
AcDbEntity
  8
0
 62
     0
100
AcDbLine
 10
9.456539093139554
 20
22.83898707866353
 30
0.0
 11
11.80047808566098
 21
25.18292607118496
 31
0.0
  0
LINE
  5
532
330
3A4
100
AcDbEntity
  8
0
 62
     0
100
AcDbLine
 10
12.27464603602152
 20
26.55511963365245
 30
0.0
 11
15.0771126851917
 21
29.35758628282263
 31
0.0
  0
LINE
  5
533
330
3A4
100
AcDbEntity
  8
0
 62
     0
100
AcDbLine
 10
9.195845797407457
 20
23.47631939503838
 30
0.0
 11
11.80294473483104
 21
26.08341833246203
 31
0.0
  0
LINE
  5
534
330
3A4
100
AcDbEntity
  8
0
 62
     0
100
AcDbLine
 10
9.034033835159391
 20
24.21253304489721
 30
0.0
 11
14.17908707308481
 21
29.35758628282263
 31
0.0
  0
LINE
  5
535
330
3A4
100
AcDbEntity
  8
0
 62
     0
100
AcDbLine
 10
9.000478085660972
 20
25.07700290750574
 30
0.0
 11
13.2810614609778
 21
29.35758628282258
 31
0.0
  0
LINE
  5
536
330
3A4
100
AcDbEntity
  8
0
 62
     0
100
AcDbLine
 10
9.000478085660972
 20
25.97502851961263
 30
0.0
 11
12.38303584887086
 21
29.35758628282258
 31
0.0
  0
LINE
  5
537
330
3A4
100
AcDbEntity
  8
0
 62
     0
100
AcDbLine
 10
9.020670096099195
 20
26.8932461421578
 30
0.0
 11
11.4648182263258
 21
29.33739427238441
 31
0.0
  0
ENDBLK
  5
539
330
3A4
100
AcDbEntity
  8
0
100
AcDbBlockEnd
  0
BLOCK
  5
3FF7
330
3FED
100
AcDbEntity
  8
0
100
AcDbBlockBegin
  2
*D2
 70
     1
 10
0.0
 20
0.0
 30
0.0
  3
*D2
  1

  0
LINE
  5
4191
330
3FED
100
AcDbEntity
  8
SUNPOU
100
AcDbLine
 10
384.9938951005047
 20
540.7664091653693
 30
0.0
 11
384.9938951005047
 21
551.3990421689564
 31
0.0
  0
LINE
  5
4192
330
3FED
100
AcDbEntity
  8
SUNPOU
100
AcDbLine
 10
663.9938951005044
 20
540.7925421653693
 30
0.0
 11
663.9938951005044
 21
551.3990421689564
 31
0.0
  0
LINE
  5
4193
330
3FED
100
AcDbEntity
  8
SUNPOU
100
AcDbLine
 10
391.9938951005046
 20
548.3990421689565
 30
0.0
 11
656.9938951005044
 21
548.3990421689565
 31
0.0
  0
INSERT
  5
4194
330
3FED
100
AcDbEntity
  8
SUNPOU
100
AcDbBlockReference
  2
_OPEN
 10
384.9938951005047
 20
548.3990421689565
 30
0.0
 41
7.0
 42
7.0
 43
7.0
 50
180.0
  0
INSERT
  5
4195
330
3FED
100
AcDbEntity
  8
SUNPOU
100
AcDbBlockReference
  2
_OPEN
 10
663.9938951005044
 20
548.3990421689565
 30
0.0
 41
7.0
 42
7.0
 43
7.0
  0
MTEXT
  5
4196
330
3FED
100
AcDbEntity
  8
SUNPOU
100
AcDbMText
 10
524.4938951005045
 20
553.3990421689565
 30
0.0
 40
6.0
 41
0.0
 71
     5
 72
     5
  1
\A1;279
 73
     1
 44
1.0
1001
ACAD
1000
MTEXTBEGIN
1070
    73
1070
     1
1070
    44
1040
1.0
1070
    74
1070
     0
1000
MTEXTEND
  0
POINT
  5
4197
330
3FED
100
AcDbEntity
  8
DEFPOINTS
 62
     0
100
AcDbPoint
 10
384.9938951005047
 20
534.7664091653692
 30
0.0
  0
POINT
  5
4198
330
3FED
100
AcDbEntity
  8
DEFPOINTS
 62
     0
100
AcDbPoint
 10
663.9938951005044
 20
534.7925421653693
 30
0.0
  0
POINT
  5
4199
330
3FED
100
AcDbEntity
  8
DEFPOINTS
 62
     0
100
AcDbPoint
 10
663.9938951005044
 20
548.3990421689565
 30
0.0
  0
ENDBLK
  5
3FF8
330
3FED
100
AcDbEntity
  8
0
100
AcDbBlockEnd
  0
BLOCK
  5
4003
330
3FF9
100
AcDbEntity
  8
0
100
AcDbBlockBegin
  2
*D3
 70
     1
 10
0.0
 20
0.0
 30
0.0
  3
*D3
  1

  0
LINE
  5
4125
330
3FF9
100
AcDbEntity
  8
SUNPOU
100
AcDbLine
 10
384.9938951005035
 20
254.1779032622053
 30
0.0
 11
384.9938951005035
 21
300.8604682070321
 31
0.0
  0
LINE
  5
4126
330
3FF9
100
AcDbEntity
  8
SUNPOU
100
AcDbLine
 10
663.9938951005035
 20
254.1779032622053
 30
0.0
 11
663.9938951005035
 21
300.8604682070321
 31
0.0
  0
LINE
  5
4127
330
3FF9
100
AcDbEntity
  8
SUNPOU
100
AcDbLine
 10
391.9938951005035
 20
297.8604682070321
 30
0.0
 11
656.9938951005035
 21
297.8604682070321
 31
0.0
  0
INSERT
  5
4128
330
3FF9
100
AcDbEntity
  8
SUNPOU
100
AcDbBlockReference
  2
_OPEN
 10
384.9938951005035
 20
297.8604682070321
 30
0.0
 41
7.0
 42
7.0
 43
7.0
 50
180.0
  0
INSERT
  5
4129
330
3FF9
100
AcDbEntity
  8
SUNPOU
100
AcDbBlockReference
  2
_OPEN
 10
663.9938951005035
 20
297.8604682070321
 30
0.0
 41
7.0
 42
7.0
 43
7.0
  0
MTEXT
  5
412A
330
3FF9
100
AcDbEntity
  8
SUNPOU
100
AcDbMText
 10
524.4938951005035
 20
302.8604682070321
 30
0.0
 40
6.0
 41
0.0
 71
     5
 72
     5
  1
\A1;279
 73
     1
 44
1.0
1001
ACAD
1000
MTEXTBEGIN
1070
    73
1070
     1
1070
    44
1040
1.0
1070
    74
1070
     0
1000
MTEXTEND
  0
POINT
  5
412B
330
3FF9
100
AcDbEntity
  8
DEFPOINTS
 62
     0
100
AcDbPoint
 10
384.9938951005035
 20
248.1779032622053
 30
0.0
  0
POINT
  5
412C
330
3FF9
100
AcDbEntity
  8
DEFPOINTS
 62
     0
100
AcDbPoint
 10
663.9938951005035
 20
248.1779032622053
 30
0.0
  0
POINT
  5
412D
330
3FF9
100
AcDbEntity
  8
DEFPOINTS
 62
     0
100
AcDbPoint
 10
663.9938951005035
 20
297.8604682070321
 30
0.0
  0
ENDBLK
  5
4004
330
3FF9
100
AcDbEntity
  8
0
100
AcDbBlockEnd
  0
BLOCK
  5
400F
330
4005
100
AcDbEntity
  8
0
100
AcDbBlockBegin
  2
*D4
 70
     1
 10
0.0
 20
0.0
 30
0.0
  3
*D4
  1

  0
LINE
  5
4188
330
4005
100
AcDbEntity
  8
SUNPOU
100
AcDbLine
 10
438.4938851005045
 20
433.572096652458
 30
0.0
 11
438.4938851005045
 21
455.2592353573883
 31
0.0
  0
LINE
  5
4189
330
4005
100
AcDbEntity
  8
SUNPOU
100
AcDbLine
 10
384.9940051804482
 20
433.5715524311209
 30
0.0
 11
384.9940051804482
 21
455.2592353573883
 31
0.0
  0
LINE
  5
418A
330
4005
100
AcDbEntity
  8
SUNPOU
100
AcDbLine
 10
431.4938851005044
 20
452.2592353573883
 30
0.0
 11
391.9940051804483
 21
452.2592353573883
 31
0.0
  0
INSERT
  5
418B
330
4005
100
AcDbEntity
  8
SUNPOU
100
AcDbBlockReference
  2
_OPEN
 10
438.4938851005045
 20
452.2592353573883
 30
0.0
 41
7.0
 42
7.0
 43
7.0
  0
INSERT
  5
418C
330
4005
100
AcDbEntity
  8
SUNPOU
100
AcDbBlockReference
  2
_OPEN
 10
384.9940051804482
 20
452.2592353573883
 30
0.0
 41
7.0
 42
7.0
 43
7.0
 50
180.0
  0
MTEXT
  5
418D
330
4005
100
AcDbEntity
  8
SUNPOU
100
AcDbMText
 10
411.7439451404764
 20
457.2592353573883
 30
0.0
 40
6.0
 41
0.0
 71
     5
 72
     5
  1
\A1;\U+203B53
 73
     1
 44
1.0
1001
ACAD
1000
MTEXTBEGIN
1070
    73
1070
     1
1070
    44
1040
1.0
1070
    74
1070
     0
1000
MTEXTEND
  0
POINT
  5
418E
330
4005
100
AcDbEntity
  8
DEFPOINTS
 62
     0
100
AcDbPoint
 10
438.4938851005045
 20
427.572096652458
 30
0.0
  0
POINT
  5
418F
330
4005
100
AcDbEntity
  8
DEFPOINTS
 62
     0
100
AcDbPoint
 10
384.9940051804482
 20
427.571552431121
 30
0.0
  0
POINT
  5
4190
330
4005
100
AcDbEntity
  8
DEFPOINTS
 62
     0
100
AcDbPoint
 10
384.9940051804482
 20
452.2592353573883
 30
0.0
  0
ENDBLK
  5
4010
330
4005
100
AcDbEntity
  8
0
100
AcDbBlockEnd
  0
BLOCK
  5
401B
330
4011
100
AcDbEntity
  8
0
100
AcDbBlockBegin
  2
*D5
 70
     1
 10
0.0
 20
0.0
 30
0.0
  3
*D5
  1

  0
LINE
  5
4140
330
4011
100
AcDbEntity
  8
SUNPOU
100
AcDbLine
 10
83.03899167291957
 20
81.57791626220543
 30
0.0
 11
83.03899167291957
 21
50.81252748922214
 31
0.0
  0
LINE
  5
4141
330
4011
100
AcDbEntity
  8
SUNPOU
100
AcDbLine
 10
245.8233397072883
 20
81.57791626220543
 30
0.0
 11
245.8233397072883
 21
50.81252748922214
 31
0.0
  0
LINE
  5
4142
330
4011
100
AcDbEntity
  8
SUNPOU
100
AcDbLine
 10
90.03899167291956
 20
53.81252748922213
 30
0.0
 11
238.8233397072883
 21
53.81252748922213
 31
0.0
  0
INSERT
  5
4143
330
4011
100
AcDbEntity
  8
SUNPOU
100
AcDbBlockReference
  2
_OPEN
 10
83.03899167291957
 20
53.81252748922213
 30
0.0
 41
7.0
 42
7.0
 43
7.0
 50
180.0
  0
INSERT
  5
4144
330
4011
100
AcDbEntity
  8
SUNPOU
100
AcDbBlockReference
  2
_OPEN
 10
245.8233397072883
 20
53.81252748922213
 30
0.0
 41
7.0
 42
7.0
 43
7.0
  0
MTEXT
  5
4145
330
4011
100
AcDbEntity
  8
SUNPOU
100
AcDbMText
 10
164.4311656901039
 20
58.81252748922213
 30
0.0
 40
6.0
 41
0.0
 71
     5
 72
     5
  1
\A1;163
 73
     1
 44
1.0
1001
ACAD
1000
MTEXTBEGIN
1070
    73
1070
     1
1070
    44
1040
1.0
1070
    74
1070
     0
1000
MTEXTEND
  0
POINT
  5
4146
330
4011
100
AcDbEntity
  8
DEFPOINTS
 62
     0
100
AcDbPoint
 10
83.03899167291957
 20
87.57791626220543
 30
0.0
  0
POINT
  5
4147
330
4011
100
AcDbEntity
  8
DEFPOINTS
 62
     0
100
AcDbPoint
 10
245.8233397072883
 20
87.57791626220543
 30
0.0
  0
POINT
  5
4148
330
4011
100
AcDbEntity
  8
DEFPOINTS
 62
     0
100
AcDbPoint
 10
245.8233397072883
 20
53.81252748922213
 30
0.0
  0
ENDBLK
  5
401C
330
4011
100
AcDbEntity
  8
0
100
AcDbBlockEnd
  0
BLOCK
  5
4027
330
401D
100
AcDbEntity
  8
0
100
AcDbBlockBegin
  2
*D6
 70
     1
 10
0.0
 20
0.0
 30
0.0
  3
*D6
  1

  0
LINE
  5
412E
330
401D
100
AcDbEntity
  8
SUNPOU
100
AcDbLine
 10
53.70757069010392
 20
253.1255632622054
 30
0.0
 11
53.70757069010392
 21
292.2103296282615
 31
0.0
  0
LINE
  5
412F
330
401D
100
AcDbEntity
  8
SUNPOU
100
AcDbLine
 10
275.154760690104
 20
253.1255632622054
 30
0.0
 11
275.154760690104
 21
292.2103296282615
 31
0.0
  0
LINE
  5
4130
330
401D
100
AcDbEntity
  8
SUNPOU
100
AcDbLine
 10
60.70757069010392
 20
289.2103296282615
 30
0.0
 11
268.154760690104
 21
289.2103296282615
 31
0.0
  0
INSERT
  5
4131
330
401D
100
AcDbEntity
  8
SUNPOU
100
AcDbBlockReference
  2
_OPEN
 10
53.70757069010392
 20
289.2103296282615
 30
0.0
 41
7.0
 42
7.0
 43
7.0
 50
180.0
  0
INSERT
  5
4132
330
401D
100
AcDbEntity
  8
SUNPOU
100
AcDbBlockReference
  2
_OPEN
 10
275.154760690104
 20
289.2103296282615
 30
0.0
 41
7.0
 42
7.0
 43
7.0
  0
MTEXT
  5
4133
330
401D
100
AcDbEntity
  8
SUNPOU
100
AcDbMText
 10
164.4311656901039
 20
294.2103296282615
 30
0.0
 40
6.0
 41
0.0
 71
     5
 72
     5
  1
\A1;221
 73
     1
 44
1.0
1001
ACAD
1000
MTEXTBEGIN
1070
    73
1070
     1
1070
    44
1040
1.0
1070
    74
1070
     0
1000
MTEXTEND
  0
POINT
  5
4134
330
401D
100
AcDbEntity
  8
DEFPOINTS
 62
     0
100
AcDbPoint
 10
53.70757069010392
 20
247.1255632622054
 30
0.0
  0
POINT
  5
4135
330
401D
100
AcDbEntity
  8
DEFPOINTS
 62
     0
100
AcDbPoint
 10
275.154760690104
 20
247.1255632622054
 30
0.0
  0
POINT
  5
4136
330
401D
100
AcDbEntity
  8
DEFPOINTS
 62
     0
100
AcDbPoint
 10
275.154760690104
 20
289.2103296282615
 30
0.0
  0
ENDBLK
  5
4028
330
401D
100
AcDbEntity
  8
0
100
AcDbBlockEnd
  0
BLOCK
  5
4033
330
4029
100
AcDbEntity
  8
0
100
AcDbBlockBegin
  2
*D7
 70
     1
 10
0.0
 20
0.0
 30
0.0
  3
*D7
  1

  0
LINE
  5
4137
330
4029
100
AcDbEntity
  8
SUNPOU
100
AcDbLine
 10
280.1561506901039
 20
248.1779032622053
 30
0.0
 11
326.9822926929219
 21
248.1779032622053
 31
0.0
  0
LINE
  5
4138
330
4029
100
AcDbEntity
  8
SUNPOU
100
AcDbLine
 10
244.7019706901037
 20
87.57791626220543
 30
0.0
 11
326.9822926929218
 21
87.57791626220543
 31
0.0
  0
LINE
  5
4139
330
4029
100
AcDbEntity
  8
SUNPOU
100
AcDbLine
 10
323.9822926929219
 20
241.1779032622053
 30
0.0
 11
323.9822926929218
 21
94.57791626220542
 31
0.0
  0
INSERT
  5
413A
330
4029
100
AcDbEntity
  8
SUNPOU
100
AcDbBlockReference
  2
_OPEN
 10
323.9822926929219
 20
248.1779032622053
 30
0.0
 41
7.0
 42
7.0
 43
7.0
 50
90.0
  0
INSERT
  5
413B
330
4029
100
AcDbEntity
  8
SUNPOU
100
AcDbBlockReference
  2
_OPEN
 10
323.9822926929218
 20
87.57791626220543
 30
0.0
 41
7.0
 42
7.0
 43
7.0
 50
270.0
  0
MTEXT
  5
413C
330
4029
100
AcDbEntity
  8
SUNPOU
100
AcDbMText
 10
318.9822926929218
 20
167.8779097622054
 30
0.0
 40
6.0
 41
0.0
 71
     5
 72
     5
  1
\A1;161
 11
0.0000000000000001
 21
1.0
 31
0.0
 73
     1
 44
1.0
1001
ACAD
1000
MTEXTBEGIN
1070
    73
1070
     1
1070
    44
1040
1.0
1070
    74
1070
     0
1000
MTEXTEND
  0
POINT
  5
413D
330
4029
100
AcDbEntity
  8
DEFPOINTS
 62
     0
100
AcDbPoint
 10
274.1561506901039
 20
248.1779032622053
 30
0.0
  0
POINT
  5
413E
330
4029
100
AcDbEntity
  8
DEFPOINTS
 62
     0
100
AcDbPoint
 10
238.7019706901037
 20
87.57791626220543
 30
0.0
  0
POINT
  5
413F
330
4029
100
AcDbEntity
  8
DEFPOINTS
 62
     0
100
AcDbPoint
 10
323.9822926929218
 20
87.57791626220543
 30
0.0
  0
ENDBLK
  5
4034
330
4029
100
AcDbEntity
  8
0
100
AcDbBlockEnd
  0
BLOCK
  5
403F
330
4035
100
AcDbEntity
  8
0
100
AcDbBlockBegin
  2
*D8
 70
     1
 10
0.0
 20
0.0
 30
0.0
  3
*D8
  1

  0
LINE
  5
4149
330
4035
100
AcDbEntity
  8
SUNPOU
100
AcDbLine
 10
280.1561506901039
 20
248.1779032622053
 30
0.0
 11
309.6956913416643
 21
248.1779032622053
 31
0.0
  0
LINE
  5
414A
330
4035
100
AcDbEntity
  8
SUNPOU
100
AcDbLine
 10
278.7963406901039
 20
211.1779132622053
 30
0.0
 11
309.6956913416643
 21
211.1779132622053
 31
0.0
  0
LINE
  5
414B
330
4035
100
AcDbEntity
  8
SUNPOU
100
AcDbLine
 10
306.6956913416643
 20
241.1779032622054
 30
0.0
 11
306.6956913416643
 21
218.1779132622053
 31
0.0
  0
INSERT
  5
414C
330
4035
100
AcDbEntity
  8
SUNPOU
100
AcDbBlockReference
  2
_OPEN
 10
306.6956913416643
 20
248.1779032622053
 30
0.0
 41
7.0
 42
7.0
 43
7.0
 50
90.0
  0
INSERT
  5
414D
330
4035
100
AcDbEntity
  8
SUNPOU
100
AcDbBlockReference
  2
_OPEN
 10
306.6956913416643
 20
211.1779132622053
 30
0.0
 41
7.0
 42
7.0
 43
7.0
 50
270.0
  0
MTEXT
  5
414E
330
4035
100
AcDbEntity
  8
SUNPOU
100
AcDbMText
 10
301.6956913416642
 20
229.6779082622054
 30
0.0
 40
6.0
 41
0.0
 71
     5
 72
     5
  1
\A1;37
 11
0.0000000000000001
 21
1.0
 31
0.0
 73
     1
 44
1.0
1001
ACAD
1000
MTEXTBEGIN
1070
    73
1070
     1
1070
    44
1040
1.0
1070
    74
1070
     0
1000
MTEXTEND
  0
POINT
  5
414F
330
4035
100
AcDbEntity
  8
DEFPOINTS
 62
     0
100
AcDbPoint
 10
274.1561506901039
 20
248.1779032622053
 30
0.0
  0
POINT
  5
4150
330
4035
100
AcDbEntity
  8
DEFPOINTS
 62
     0
100
AcDbPoint
 10
272.7963406901039
 20
211.1779132622053
 30
0.0
  0
POINT
  5
4151
330
4035
100
AcDbEntity
  8
DEFPOINTS
 62
     0
100
AcDbPoint
 10
306.6956913416643
 20
211.1779132622053
 30
0.0
  0
ENDBLK
  5
4040
330
4035
100
AcDbEntity
  8
0
100
AcDbBlockEnd
  0
BLOCK
  5
404B
330
4041
100
AcDbEntity
  8
0
100
AcDbBlockBegin
  2
*D9
 70
     1
 10
0.0
 20
0.0
 30
0.0
  3
*D9
  1

  0
LINE
  5
4164
330
4041
100
AcDbEntity
  8
SUNPOU
100
AcDbLine
 10
637.9939151005037
 20
254.1779032622053
 30
0.0
 11
637.9939151005037
 21
286.1439570376627
 31
0.0
  0
LINE
  5
4165
330
4041
100
AcDbEntity
  8
SUNPOU
100
AcDbLine
 10
705.9938951005038
 20
254.1779032622053
 30
0.0
 11
705.9938951005038
 21
286.1439570376627
 31
0.0
  0
LINE
  5
4166
330
4041
100
AcDbEntity
  8
SUNPOU
100
AcDbLine
 10
644.9939151005037
 20
283.1439570376627
 30
0.0
 11
698.9938951005037
 21
283.1439570376627
 31
0.0
  0
INSERT
  5
4167
330
4041
100
AcDbEntity
  8
SUNPOU
100
AcDbBlockReference
  2
_OPEN
 10
637.9939151005037
 20
283.1439570376627
 30
0.0
 41
7.0
 42
7.0
 43
7.0
 50
180.0
  0
INSERT
  5
4168
330
4041
100
AcDbEntity
  8
SUNPOU
100
AcDbBlockReference
  2
_OPEN
 10
705.9938951005038
 20
283.1439570376627
 30
0.0
 41
7.0
 42
7.0
 43
7.0
  0
MTEXT
  5
4169
330
4041
100
AcDbEntity
  8
SUNPOU
100
AcDbMText
 10
671.9939051005037
 20
288.1439570376627
 30
0.0
 40
6.0
 41
0.0
 71
     5
 72
     5
  1
\A1;68
 73
     1
 44
1.0
1001
ACAD
1000
MTEXTBEGIN
1070
    73
1070
     1
1070
    44
1040
1.0
1070
    74
1070
     0
1000
MTEXTEND
  0
POINT
  5
416A
330
4041
100
AcDbEntity
  8
DEFPOINTS
 62
     0
100
AcDbPoint
 10
637.9939151005037
 20
248.1779032622053
 30
0.0
  0
POINT
  5
416B
330
4041
100
AcDbEntity
  8
DEFPOINTS
 62
     0
100
AcDbPoint
 10
705.9938951005038
 20
248.1779032622053
 30
0.0
  0
POINT
  5
416C
330
4041
100
AcDbEntity
  8
DEFPOINTS
 62
     0
100
AcDbPoint
 10
705.9938951005038
 20
283.1439570376627
 30
0.0
  0
ENDBLK
  5
404C
330
4041
100
AcDbEntity
  8
0
100
AcDbBlockEnd
  0
BLOCK
  5
4057
330
404D
100
AcDbEntity
  8
0
100
AcDbBlockBegin
  2
*D10
 70
     1
 10
0.0
 20
0.0
 30
0.0
  3
*D10
  1

  0
LINE
  5
415B
330
404D
100
AcDbEntity
  8
SUNPOU
100
AcDbLine
 10
663.9938951005035
 20
254.1779032622053
 30
0.0
 11
663.9938951005035
 21
272.7155860603151
 31
0.0
  0
LINE
  5
415C
330
404D
100
AcDbEntity
  8
SUNPOU
100
AcDbLine
 10
705.9938951005038
 20
254.1779032622053
 30
0.0
 11
705.9938951005038
 21
272.7155860603151
 31
0.0
  0
LINE
  5
415D
330
404D
100
AcDbEntity
  8
SUNPOU
100
AcDbLine
 10
670.9938951005035
 20
269.715586060315
 30
0.0
 11
698.9938951005037
 21
269.715586060315
 31
0.0
  0
INSERT
  5
415E
330
404D
100
AcDbEntity
  8
SUNPOU
100
AcDbBlockReference
  2
_OPEN
 10
663.9938951005035
 20
269.715586060315
 30
0.0
 41
7.0
 42
7.0
 43
7.0
 50
180.0
  0
INSERT
  5
415F
330
404D
100
AcDbEntity
  8
SUNPOU
100
AcDbBlockReference
  2
_OPEN
 10
705.9938951005038
 20
269.715586060315
 30
0.0
 41
7.0
 42
7.0
 43
7.0
  0
MTEXT
  5
4160
330
404D
100
AcDbEntity
  8
SUNPOU
100
AcDbMText
 10
684.9938951005036
 20
274.7155860603151
 30
0.0
 40
6.0
 41
0.0
 71
     5
 72
     5
  1
\A1;42
 73
     1
 44
1.0
1001
ACAD
1000
MTEXTBEGIN
1070
    73
1070
     1
1070
    44
1040
1.0
1070
    74
1070
     0
1000
MTEXTEND
  0
POINT
  5
4161
330
404D
100
AcDbEntity
  8
DEFPOINTS
 62
     0
100
AcDbPoint
 10
663.9938951005035
 20
248.1779032622053
 30
0.0
  0
POINT
  5
4162
330
404D
100
AcDbEntity
  8
DEFPOINTS
 62
     0
100
AcDbPoint
 10
705.9938951005038
 20
248.1779032622053
 30
0.0
  0
POINT
  5
4163
330
404D
100
AcDbEntity
  8
DEFPOINTS
 62
     0
100
AcDbPoint
 10
705.9938951005038
 20
269.715586060315
 30
0.0
  0
ENDBLK
  5
4058
330
404D
100
AcDbEntity
  8
0
100
AcDbBlockEnd
  0
BLOCK
  5
4063
330
4059
100
AcDbEntity
  8
0
100
AcDbBlockBegin
  2
*D11
 70
     1
 10
0.0
 20
0.0
 30
0.0
  3
*D11
  1

  0
LINE
  5
4152
330
4059
100
AcDbEntity
  8
SUNPOU
100
AcDbLine
 10
637.9939151005037
 20
254.1779032622053
 30
0.0
 11
637.9939151005037
 21
272.7155860603151
 31
0.0
  0
LINE
  5
4153
330
4059
100
AcDbEntity
  8
SUNPOU
100
AcDbLine
 10
663.9938951005035
 20
254.1779032622053
 30
0.0
 11
663.9938951005035
 21
272.7155860603151
 31
0.0
  0
LINE
  5
4154
330
4059
100
AcDbEntity
  8
SUNPOU
100
AcDbLine
 10
644.9939151005037
 20
269.715586060315
 30
0.0
 11
656.9938951005035
 21
269.715586060315
 31
0.0
  0
INSERT
  5
4155
330
4059
100
AcDbEntity
  8
SUNPOU
100
AcDbBlockReference
  2
_OPEN
 10
637.9939151005037
 20
269.715586060315
 30
0.0
 41
7.0
 42
7.0
 43
7.0
 50
180.0
  0
INSERT
  5
4156
330
4059
100
AcDbEntity
  8
SUNPOU
100
AcDbBlockReference
  2
_OPEN
 10
663.9938951005035
 20
269.715586060315
 30
0.0
 41
7.0
 42
7.0
 43
7.0
  0
MTEXT
  5
4157
330
4059
100
AcDbEntity
  8
SUNPOU
100
AcDbMText
 10
650.9939051005036
 20
274.7155860603151
 30
0.0
 40
6.0
 41
0.0
 71
     5
 72
     5
  1
\A1;26
 73
     1
 44
1.0
1001
ACAD
1000
MTEXTBEGIN
1070
    73
1070
     1
1070
    44
1040
1.0
1070
    74
1070
     0
1000
MTEXTEND
  0
POINT
  5
4158
330
4059
100
AcDbEntity
  8
DEFPOINTS
 62
     0
100
AcDbPoint
 10
637.9939151005037
 20
248.1779032622053
 30
0.0
  0
POINT
  5
4159
330
4059
100
AcDbEntity
  8
DEFPOINTS
 62
     0
100
AcDbPoint
 10
663.9938951005035
 20
248.1779032622053
 30
0.0
  0
POINT
  5
415A
330
4059
100
AcDbEntity
  8
DEFPOINTS
 62
     0
100
AcDbPoint
 10
663.9938951005035
 20
269.715586060315
 30
0.0
  0
ENDBLK
  5
4064
330
4059
100
AcDbEntity
  8
0
100
AcDbBlockEnd
  0
BLOCK
  5
406F
330
4065
100
AcDbEntity
  8
0
100
AcDbBlockBegin
  2
*D12
 70
     1
 10
0.0
 20
0.0
 30
0.0
  3
*D12
  1

  0
LINE
  5
419A
330
4065
100
AcDbEntity
  8
SUNPOU
100
AcDbLine
 10
610.4939051005044
 20
433.5738463027561
 30
0.0
 11
610.4939051005044
 21
455.2592353573883
 31
0.0
  0
LINE
  5
419B
330
4065
100
AcDbEntity
  8
SUNPOU
100
AcDbLine
 10
663.9938951005044
 20
433.5723651653692
 30
0.0
 11
663.9938951005044
 21
455.2592353573883
 31
0.0
  0
LINE
  5
419C
330
4065
100
AcDbEntity
  8
SUNPOU
100
AcDbLine
 10
617.4939051005044
 20
452.2592353573883
 30
0.0
 11
656.9938951005044
 21
452.2592353573883
 31
0.0
  0
INSERT
  5
419D
330
4065
100
AcDbEntity
  8
SUNPOU
100
AcDbBlockReference
  2
_OPEN
 10
610.4939051005044
 20
452.2592353573883
 30
0.0
 41
7.0
 42
7.0
 43
7.0
 50
180.0
  0
INSERT
  5
419E
330
4065
100
AcDbEntity
  8
SUNPOU
100
AcDbBlockReference
  2
_OPEN
 10
663.9938951005044
 20
452.2592353573883
 30
0.0
 41
7.0
 42
7.0
 43
7.0
  0
MTEXT
  5
419F
330
4065
100
AcDbEntity
  8
SUNPOU
100
AcDbMText
 10
637.2439001005044
 20
457.2592353573883
 30
0.0
 40
6.0
 41
0.0
 71
     5
 72
     5
  1
\A1;\U+203B53
 73
     1
 44
1.0
1001
ACAD
1000
MTEXTBEGIN
1070
    73
1070
     1
1070
    44
1040
1.0
1070
    74
1070
     0
1000
MTEXTEND
  0
POINT
  5
41A0
330
4065
100
AcDbEntity
  8
DEFPOINTS
 62
     0
100
AcDbPoint
 10
610.4939051005044
 20
427.5738463027561
 30
0.0
  0
POINT
  5
41A1
330
4065
100
AcDbEntity
  8
DEFPOINTS
 62
     0
100
AcDbPoint
 10
663.9938951005044
 20
427.5723651653692
 30
0.0
  0
POINT
  5
41A2
330
4065
100
AcDbEntity
  8
DEFPOINTS
 62
     0
100
AcDbPoint
 10
663.9938951005044
 20
452.2592353573883
 30
0.0
  0
ENDBLK
  5
4070
330
4065
100
AcDbEntity
  8
0
100
AcDbBlockEnd
  0
ENDSEC
  0
SECTION
  2
ENTITIES
  0
LWPOLYLINE
  5
6C0
330
1A
100
AcDbEntity
  8
ZUWAKU
100
AcDbPolyline
 90
        4
 70
     1
 43
0.0
 10
10.85047808566059
 20
564.5825862828226
 10
10.85047808566059
 20
14.58258628282271
 10
806.8504780856606
 20
14.58258628282271
 10
806.8504780856606
 20
564.5825862828226
  0
LWPOLYLINE
  5
6C1
330
1A
100
AcDbEntity
  8
ZUWAKU
100
AcDbPolyline
 90
        4
 70
     1
 43
0.0
 10
10.45047808566073
 20
564.9825862828227
 10
10.45047808566073
 20
14.18258628282274
 10
807.2504780856606
 20
14.18258628282272
 10
807.2504780856606
 20
564.9825862828227
  0
LWPOLYLINE
  5
6C2
330
1A
100
AcDbEntity
  8
ZUWAKU
100
AcDbPolyline
 90
        4
 70
     1
 43
0.0
 10
10.05047808566086
 20
565.3825862828226
 10
10.05047808566086
 20
13.78258628282265
 10
807.6504780856607
 20
13.78258628282271
 10
807.6504780856607
 20
565.3825862828227
  0
LWPOLYLINE
  5
6C3
330
1A
100
AcDbEntity
  8
ZUWAKU
100
AcDbPolyline
 90
        4
 70
     1
 43
0.0
 10
10.65047808566077
 20
564.7825862828227
 10
10.65047808566077
 20
14.38258628282267
 10
807.0504780856609
 20
14.38258628282271
 10
807.0504780856609
 20
564.7825862828227
  0
LWPOLYLINE
  5
6C4
330
1A
100
AcDbEntity
  8
ZUWAKU
100
AcDbPolyline
 90
        4
 70
     1
 43
0.0
 10
10.25047808566068
 20
565.1825862828227
 10
10.25047808566068
 20
13.98258628282269
 10
807.4504780856605
 20
13.98258628282271
 10
807.450478085661
 20
565.1825862828227
  0
LINE
  5
6C5
330
1A
100
AcDbEntity
  8
ZUWAKU
100
AcDbLine
 10
10.05047808566086
 20
43.78258628282265
 30
0.0
 11
807.4504780856605
 21
43.78258628282265
 31
0.0
  0
LINE
  5
6C6
330
1A
100
AcDbEntity
  8
ZUWAKU
100
AcDbLine
 10
10.05047808566086
 20
43.98258628282265
 30
0.0
 11
807.4504780856605
 21
43.98258628282265
 31
0.0
  0
LINE
  5
6C7
330
1A
100
AcDbEntity
  8
ZUWAKU
100
AcDbLine
 10
10.05047808566086
 20
44.18258628282266
 30
0.0
 11
807.4504780856605
 21
44.18258628282266
 31
0.0
  0
LINE
  5
6C8
330
1A
100
AcDbEntity
  8
ZUWAKU
100
AcDbLine
 10
10.05047808566086
 20
44.38258628282265
 30
0.0
 11
807.4504780856605
 21
44.38258628282265
 31
0.0
  0
LINE
  5
6C9
330
1A
100
AcDbEntity
  8
ZUWAKU
100
AcDbLine
 10
10.05047808566086
 20
44.58258628282266
 30
0.0
 11
807.4504780856605
 21
44.58258628282266
 31
0.0
  0
LINE
  5
6CA
330
1A
100
AcDbEntity
  8
ZUWAKU
100
AcDbLine
 10
218.6970793757286
 20
29.18258628282268
 30
0.0
 11
457.474842056652
 21
29.18258628282268
 31
0.0
  0
LINE
  5
6CB
330
1A
100
AcDbEntity
  8
ZUWAKU
100
AcDbLine
 10
218.6970793757286
 20
29.38258628282268
 30
0.0
 11
457.474842056652
 21
29.38258628282268
 31
0.0
  0
LINE
  5
6CC
330
1A
100
AcDbEntity
  8
ZUWAKU
100
AcDbLine
 10
218.6970793757286
 20
28.98258628282269
 30
0.0
 11
457.474842056652
 21
28.98258628282268
 31
0.0
  0
LINE
  5
6D2
330
1A
100
AcDbEntity
  8
ZUWAKU
100
AcDbLine
 10
22.57284175945824
 20
29.44753577648383
 30
0.0
 11
25.48263973410303
 21
26.53773780183917
 31
0.0
  0
LINE
  5
6D3
330
1A
100
AcDbEntity
  8
ZUWAKU
100
AcDbLine
 10
27.46253872142551
 20
28.51763678916148
 30
0.0
 11
24.55274074678072
 21
31.42743476380615
 31
0.0
  0
ARC
  5
6D4
330
1A
100
AcDbEntity
  8
ZUWAKU
100
AcDbCircle
 10
24.66769024044197
 20
33.70758628282265
 30
0.0
 40
0.525
100
AcDbArc
 50
90.0
 51
180.0
  0
LINE
  5
6D5
330
1A
100
AcDbEntity
  8
ZUWAKU
100
AcDbLine
 10
24.14269024044187
 20
37.03258628282265
 30
0.0
 11
27.64269024044188
 21
37.03258628282265
 31
0.0
  0
LINE
  5
6D6
330
1A
100
AcDbEntity
  8
ZUWAKU
100
AcDbLine
 10
22.39269024044188
 20
23.73258628282265
 30
0.0
 11
25.36769024044179
 21
23.73258628282265
 31
0.0
  0
LINE
  5
6D7
330
1A
100
AcDbEntity
  8
ZUWAKU
100
AcDbLine
 10
22.39269024044188
 20
20.93258628282265
 30
0.0
 11
25.89269024044188
 21
20.93258628282265
 31
0.0
  0
INSERT
  5
6D8
330
1A
100
AcDbEntity
  8
ZUWAKU
  6
Continuous
100
AcDbBlockReference
  2
*X1
 10
12.342212154781
 20
7.675000000000004
 30
0.0
1001
ACAD
1000
HATCH
1002
{
1070
    19
1000
ANSI37
1040
0.2
1040
0.0
1000
R14_HATCH_DATA
1000
4E4
1011
13.34221215478101
1021
7.675000000000004
1031
0.0
1011
12.342212154781
1021
8.675000000000004
1031
0.0
1011
12.342212154781
1021
7.675000000000004
1031
1.0
1040
0.0
1010
0.0
1020
0.0
1030
1.0
1000
ANSI37
1070
     0
1070
     0
1071
        8
1071
        7
1070
     1
1070
     1
1071
       24
1040
12.2105285919996
1040
23.75243476380622
1040
-0.1989123673796348
1040
11.80047808566087
1040
24.74238425746728
1040
0.0
1040
11.80047808566087
1040
26.03258628282265
1040
-0.4142135623730912
1040
12.32547808566084
1040
26.55758628282264
1040
0.0
1040
15.30047808566075
1040
26.55758628282264
1040
0.4142135623731546
1040
15.82547808566084
1040
27.08258628282264
1040
0.0
1040
15.82547808566084
1040
28.83258628282265
1040
0.4142135623731586
1040
15.30047808566075
1040
29.35758628282265
1040
0.0
1040
11.80047808566087
1040
29.35758628282265
1040
0.4142135623730928
1040
9.000478085660915
1040
26.55758628282267
1040
0.0
1040
9.000478085660915
1040
24.7423842574674
1040
0.1989123673796619
1040
10.23062960467734
1040
21.7725357764838
1040
0.0
1040
13.14042757932202
1040
18.86273780183914
1040
-0.1989123673796613
1040
13.55047808566087
1040
17.87278830817795
1040
0.0
1040
13.55047808566087
1040
16.58258628282264
1040
-0.4142135623730911
1040
13.02547808566089
1040
16.05758628282264
1040
0.0
1040
10.05047808566098
1040
16.05758628282264
1040
0.4142135623731526
1040
9.525478085660893
1040
15.53258628282265
1040
0.0
1040
9.525478085660893
1040
13.78258628282263
1040
0.4142135623731526
1040
10.05047808566098
1040
13.25758628282265
1040
0.0
1040
13.55047808566087
1040
13.25758628282265
1040
0.4142135623731044
1040
16.35047808566094
1040
16.05758628282262
1040
0.0
1040
16.35047808566094
1040
17.87278830817789
1040
0.1989123673796604
1040
15.12032656664439
1040
20.84263678916144
1040
0.0
1071
        0
1071
        7
1070
     1
1070
     1
1071
       16
1040
21.25047808566091
1040
25.15758628282265
1040
-0.4142135623730935
1040
22.65047808566089
1040
26.55758628282264
1040
0.0
1040
24.57547808566085
1040
26.55758628282264
1040
0.4142135623731546
1040
25.10047808566094
1040
27.08258628282264
1040
0.0
1040
25.10047808566094
1040
28.83258628282265
1040
0.4142135623730951
1040
24.57547808566096
1040
29.35758628282265
1040
0.0
1040
22.65047808566078
1040
29.35758628282261
1040
0.4142135623730892
1040
18.45047808566084
1040
25.15758628282258
1040
0.0
1040
18.45047808566084
1040
17.45758628282267
1040
0.4142135623730969
1040
22.65047808566089
1040
13.25758628282265
1040
0.0
1040
24.57547808566085
1040
13.25758628282265
1040
0.4142135623731526
1040
25.10047808566094
1040
13.78258628282263
1040
0.0
1040
25.10047808566094
1040
15.53258628282265
1040
0.4142135623730891
1040
24.57547808566096
1040
16.05758628282264
1040
0.0
1040
22.65047808566089
1040
16.05758628282264
1040
-0.4142135623730928
1040
21.25047808566091
1040
17.45758628282263
1040
0.0
1071
        0
1071
        7
1070
     1
1070
     1
1071
        2
1040
21.95047808566084
1040
21.30758628282265
1040
1.0
1040
25.45047808566085
1040
21.30758628282265
1040
1.0
1071
        0
1071
        7
1070
     1
1070
     1
1071
       26
1040
35.02312456783886
1040
25.31263347638607
1040
0.0
1040
36.08476420097668
1040
28.67449231465566
1040
0.5069206636600134
1040
35.58413330178132
1040
29.35758628282265
1040
0.0
1040
33.88524392217209
1040
29.35758628282265
1040
0.3272098845218764
1040
33.38461302297673
1040
28.99068025098962
1040
0.0
1040
31.51634314834495
1040
23.07449231465573
1040
-0.3272098845219541
1040
31.01571224914948
1040
22.70758628282264
1040
0.0
1040
30.87547808566103
1040
22.70758628282264
1040
-0.4142135623731526
1040
30.35047808566094
1040
23.23258628282263
1040
0.0
1040
30.35047808566094
1040
28.83258628282265
1040
0.4142135623730951
1040
29.82547808566096
1040
29.35758628282265
1040
0.0
1040
28.07547808566084
1040
29.35758628282265
1040
0.4142135623730871
1040
27.55047808566087
1040
28.83258628282266
1040
0.0
1040
27.55047808566087
1040
13.78258628282263
1040
0.4142135623730891
1040
28.07547808566084
1040
13.25758628282265
1040
0.0
1040
29.82547808566085
1040
13.25758628282265
1040
0.4142135623731526
1040
30.35047808566094
1040
13.78258628282263
1040
0.0
1040
30.35047808566094
1040
19.38258628282266
1040
-0.4142135623731526
1040
30.87547808566103
1040
19.90758628282264
1040
0.0
1040
31.0157122491496
1040
19.90758628282264
1040
-0.3272098845218915
1040
31.51634314834495
1040
19.54068025098957
1040
0.0
1040
33.38461302297673
1040
13.62449231465572
1040
0.3272098845218902
1040
33.88524392217209
1040
13.25758628282265
1040
0.0
1040
35.58413330178132
1040
13.25758628282265
1040
0.5069206636600335
1040
36.08476420097668
1040
13.94068025098965
1040
0.0
1040
33.75837282250301
1040
21.30758628282279
1040
0.0
1071
        0
1071
        7
1070
     1
1070
     1
1071
        8
1040
41.20047808566084
1040
28.83258628282266
1040
0.4142135623731546
1040
40.67547808566075
1040
29.35758628282265
1040
0.0
1040
38.92547808566098
1040
29.35758628282265
1040
0.4142135623731507
1040
38.40047808566089
1040
28.83258628282266
1040
0.0
1040
38.40047808566089
1040
13.78258628282263
1040
0.4142135623731526
1040
38.92547808566098
1040
13.25758628282265
1040
0.0
1040
40.67547808566075
1040
13.25758628282265
1040
0.4142135623731526
1040
41.20047808566084
1040
13.78258628282263
1040
0.0
1071
        0
1071
        7
1070
     1
1070
     1
1071
       24
1040
46.10047808566093
1040
26.03258628282265
1040
-0.4142135623731546
1040
46.62547808566102
1040
26.55758628282264
1040
0.0
1040
49.60047808566094
1040
26.55758628282264
1040
0.4142135623730911
1040
50.12547808566091
1040
27.08258628282264
1040
0.0
1040
50.12547808566091
1040
28.83258628282265
1040
0.4142135623730952
1040
49.60047808566094
1040
29.35758628282265
1040
0.0
1040
46.10047808566093
1040
29.35758628282265
1040
0.4142135623731048
1040
43.30047808566087
1040
26.55758628282267
1040
0.0
1040
43.30047808566087
1040
24.7423842574674
1040
0.1989123673796613
1040
44.53062960467741
1040
21.77253577648385
1040
0.0
1040
47.44042757932208
1040
18.86273780183918
1040
-0.1989123673796402
1040
47.85047808566093
1040
17.87278830817811
1040
0.0
1040
47.85047808566093
1040
16.58258628282264
1040
-0.4142135623730911
1040
47.32547808566096
1040
16.05758628282264
1040
0.0
1040
44.35047808566094
1040
16.05758628282264
1040
0.4142135623731526
1040
43.82547808566084
1040
15.53258628282265
1040
0.0
1040
43.82547808566084
1040
13.78258628282263
1040
0.4142135623730891
1040
44.35047808566082
1040
13.25758628282265
1040
0.0
1040
47.85047808566093
1040
13.25758628282265
1040
0.4142135623730925
1040
50.65047808566089
1040
16.05758628282262
1040
0.0
1040
50.65047808566089
1040
17.87278830817789
1040
0.1989123673796675
1040
49.42032656664435
1040
20.84263678916155
1040
0.0
1040
46.51052859199978
1040
23.75243476380607
1040
-0.1989123673796652
1040
46.10047808566093
1040
24.74238425746723
1040
0.0
1071
        0
1071
        7
1070
     1
1070
     1
1071
       16
1040
55.55047808566087
1040
28.83258628282264
1040
0.414213562373103
1040
55.02547808566089
1040
29.35758628282265
1040
0.0
1040
53.27547808566089
1040
29.35758628282265
1040
0.4142135623730871
1040
52.75047808566092
1040
28.83258628282266
1040
0.0
1040
52.75047808566092
1040
16.05758628282262
1040
0.4142135623730926
1040
55.55047808566087
1040
13.25758628282265
1040
0.0
1040
59.05047808566087
1040
13.25758628282265
1040
0.4142135623731044
1040
61.85047808566094
1040
16.05758628282262
1040
0.0
1040
61.85047808566094
1040
28.83258628282265
1040
0.4142135623730951
1040
61.32547808566096
1040
29.35758628282265
1040
0.0
1040
59.57547808566085
1040
29.35758628282265
1040
0.4142135623730871
1040
59.05047808566087
1040
28.83258628282266
1040
0.0
1040
59.05047808566087
1040
17.10758628282262
1040
-0.414213562373088
1040
58.00047808566091
1040
16.05758628282264
1040
0.0
1040
56.60047808566094
1040
16.05758628282264
1040
-0.4142135623731197
1040
55.55047808566087
1040
17.10758628282262
1040
0.0
1071
        0
1071
        7
1070
     1
1070
     1
1071
        8
1040
66.75047808566091
1040
28.83258628282266
1040
0.4142135623730871
1040
66.22547808566094
1040
29.35758628282265
1040
0.0
1040
64.47547808566094
1040
29.35758628282265
1040
0.4142135623731507
1040
63.95047808566085
1040
28.83258628282266
1040
0.0
1040
63.95047808566085
1040
13.78258628282263
1040
0.4142135623730891
1040
64.47547808566082
1040
13.25758628282265
1040
0.0
1040
66.22547808566094
1040
13.25758628282265
1040
0.4142135623730891
1040
66.75047808566091
1040
13.78258628282263
1040
0.0
1071
        0
1070
     0
1070
     1
1040
0.0
1040
0.2
1070
     0
1070
     2
1040
0.7853981633974483
1040
-903.2340384037992
1040
-7.092413717177286
1040
-0.4490128060534576
1040
0.4490128060534577
1070
     0
1040
2.356194490192344
1040
-903.2340384037992
1040
-7.092413717177286
1040
-0.4490128060534577
1040
-0.4490128060534576
1070
     0
1040
0.057451373970553
1071
        8
1040
13.78812089390305
1040
21.2747599287082
1040
0.0
1040
20.11278093731891
1040
24.95164846527365
1040
0.0
1040
22.8726338165394
1040
21.61946792889336
1040
0.0
1040
28.62232591251688
1040
22.30888392926414
1040
0.0
1040
39.54673794983648
1040
22.76849619680576
1040
0.0
1040
44.6064668260093
1040
25.52616259922985
1040
0.0
1040
54.2659519032801
1040
24.83674419791766
1040
0.0
1040
65.53534555050248
1040
25.29635646545927
1040
0.0
1002
}
  0
ARC
  5
6D9
330
1A
100
AcDbEntity
  8
ZUWAKU
100
AcDbCircle
 10
22.39269024044188
 20
23.20758628282265
 30
0.0
 40
0.525
100
AcDbArc
 50
90.0
 51
180.0
  0
ARC
  5
6DA
330
1A
100
AcDbEntity
  8
ZUWAKU
100
AcDbCircle
 10
22.39269024044188
 20
21.45758628282265
 30
0.0
 40
0.525
100
AcDbArc
 50
180.0
 51
270.0
  0
LINE
  5
6DB
330
1A
100
AcDbEntity
  8
ZUWAKU
100
AcDbLine
 10
21.86769024044179
 20
21.45758628282265
 30
0.0
 11
21.86769024044179
 21
23.20758628282265
 31
0.0
  0
ARC
  5
6DC
330
1A
100
AcDbEntity
  8
ZUWAKU
100
AcDbCircle
 10
25.54269024044197
 20
32.41738425746735
 30
0.0
 40
4.199999999999999
100
AcDbArc
 50
180.0
 51
224.9999999999996
  0
ARC
  5
6DD
330
1A
100
AcDbEntity
  8
ZUWAKU
100
AcDbCircle
 10
25.54269024044197
 20
32.41738425746735
 30
0.0
 40
1.399999999999999
100
AcDbArc
 50
180.0000000000016
 51
224.9999999999993
  0
ARC
  5
6DE
330
1A
100
AcDbEntity
  8
ZUWAKU
100
AcDbCircle
 10
24.14269024044187
 20
34.23258628282265
 30
0.0
 40
2.799999999999999
100
AcDbArc
 50
90.0
 51
180.0
  0
LINE
  5
6DF
330
1A
100
AcDbEntity
  8
ZUWAKU
100
AcDbLine
 10
21.34269024044192
 20
34.23258628282265
 30
0.0
 11
21.34269024044192
 21
32.41738425746731
 31
0.0
  0
LINE
  5
6E0
330
1A
100
AcDbEntity
  8
ZUWAKU
100
AcDbLine
 10
24.14269024044187
 20
33.70758628282265
 30
0.0
 11
24.14269024044187
 21
32.41738425746731
 31
0.0
  0
LINE
  5
6E1
330
1A
100
AcDbEntity
  8
ZUWAKU
100
AcDbLine
 10
89.17710763364903
 20
43.78258628282265
 30
0.0
 11
89.17710763364903
 21
14.58258628282271
 31
0.0
  0
LINE
  5
6E2
330
1A
100
AcDbEntity
  8
ZUWAKU
100
AcDbLine
 10
89.57710763364913
 20
43.78258628282265
 30
0.0
 11
89.57710763364913
 21
14.58258628282271
 31
0.0
  0
LINE
  5
6E3
330
1A
100
AcDbEntity
  8
ZUWAKU
100
AcDbLine
 10
89.37710763364885
 20
43.78258628282265
 30
0.0
 11
89.37710763364931
 21
14.58258628282271
 31
0.0
  0
LINE
  5
6E4
330
1A
100
AcDbEntity
  8
ZUWAKU
100
AcDbLine
 10
56.87284175945842
 20
29.44753577648383
 30
0.0
 11
59.78263973410321
 21
26.53773780183917
 31
0.0
  0
ARC
  5
6E5
330
1A
100
AcDbEntity
  8
ZUWAKU
100
AcDbCircle
 10
58.44269024044206
 20
34.23258628282265
 30
0.0
 40
2.799999999999999
100
AcDbArc
 50
90.0
 51
180.0
  0
LINE
  5
6E6
330
1A
100
AcDbEntity
  8
ZUWAKU
100
AcDbLine
 10
56.69269024044206
 20
20.93258628282265
 30
0.0
 11
60.19269024044206
 21
20.93258628282265
 31
0.0
  0
LINE
  5
6E7
330
1A
100
AcDbEntity
  8
ZUWAKU
100
AcDbLine
 10
56.69269024044206
 20
23.73258628282265
 30
0.0
 11
59.66769024044197
 21
23.73258628282265
 31
0.0
  0
LINE
  5
6E8
330
1A
100
AcDbEntity
  8
ZUWAKU
100
AcDbLine
 10
42.16769024044197
 20
37.03258628282265
 30
0.0
 11
40.41769024044197
 21
37.03258628282265
 31
0.0
  0
LINE
  5
6E9
330
1A
100
AcDbEntity
  8
ZUWAKU
100
AcDbLine
 10
40.41769024044197
 20
20.93258628282265
 30
0.0
 11
42.16769024044197
 21
20.93258628282265
 31
0.0
  0
LINE
  5
6EA
330
1A
100
AcDbEntity
  8
ZUWAKU
100
AcDbLine
 10
39.89269024044188
 20
36.50758628282265
 30
0.0
 11
39.89269024044188
 21
21.45758628282265
 31
0.0
  0
LINE
  5
6EB
330
1A
100
AcDbEntity
  8
ZUWAKU
100
AcDbLine
 10
30.79269024044197
 20
25.13258628282265
 30
0.0
 11
30.79269024044197
 21
32.83258628282261
 31
0.0
  0
LINE
  5
6EC
330
1A
100
AcDbEntity
  8
ZUWAKU
100
AcDbLine
 10
33.59269024044192
 20
32.83258628282265
 30
0.0
 11
33.59269024044192
 21
25.13258628282265
 31
0.0
  0
ARC
  5
6ED
330
1A
100
AcDbEntity
  8
ZUWAKU
100
AcDbCircle
 10
24.49269024044179
 20
25.54778830817795
 30
0.0
 40
4.199999999999999
100
AcDbArc
 50
0.0
 51
44.9999999999996
  0
CIRCLE
  5
6EE
330
1A
100
AcDbEntity
  8
ZUWAKU
100
AcDbCircle
 10
36.04269024044197
 20
28.98258628282265
 30
0.0
 40
1.75
  0
ARC
  5
6EF
330
1A
100
AcDbEntity
  8
ZUWAKU
100
AcDbCircle
 10
34.99269024044179
 20
25.13258628282265
 30
0.0
 40
4.199999999999999
100
AcDbArc
 50
180.0
 51
270.0
  0
LINE
  5
6F0
330
1A
100
AcDbEntity
  8
ZUWAKU
100
AcDbLine
 10
28.69269024044206
 20
23.73258628282265
 30
0.0
 11
28.69269024044206
 21
25.547788308178
 31
0.0
  0
ARC
  5
6F1
330
1A
100
AcDbEntity
  8
ZUWAKU
100
AcDbCircle
 10
25.36769024044179
 20
24.25758628282265
 30
0.0
 40
0.525
100
AcDbArc
 50
270.0
 51
0.0
  0
LINE
  5
6F2
330
1A
100
AcDbEntity
  8
ZUWAKU
100
AcDbLine
 10
25.89269024044188
 20
24.25758628282265
 30
0.0
 11
25.89269024044188
 21
25.547788308178
 31
0.0
  0
ARC
  5
6F3
330
1A
100
AcDbEntity
  8
ZUWAKU
100
AcDbCircle
 10
25.89269024044188
 20
23.73258628282265
 30
0.0
 40
2.799999999999999
100
AcDbArc
 50
270.0
 51
0.0
  0
ARC
  5
6F4
330
1A
100
AcDbEntity
  8
ZUWAKU
100
AcDbCircle
 10
24.49269024044179
 20
25.547788308178
 30
0.0
 40
1.399999999999999
100
AcDbArc
 50
0.0
 51
44.9999999999996
  0
ARC
  5
6F5
330
1A
100
AcDbEntity
  8
ZUWAKU
100
AcDbCircle
 10
40.41769024044197
 20
21.45758628282265
 30
0.0
 40
0.525
100
AcDbArc
 50
180.0
 51
270.0
  0
ARC
  5
6F6
330
1A
100
AcDbEntity
  8
ZUWAKU
100
AcDbCircle
 10
36.91769024044197
 20
23.20758628282265
 30
0.0
 40
0.525
100
AcDbArc
 50
0.0
 51
90.0
  0
ARC
  5
6F7
330
1A
100
AcDbEntity
  8
ZUWAKU
100
AcDbCircle
 10
36.91769024044197
 20
21.45758628282265
 30
0.0
 40
0.525
100
AcDbArc
 50
270.0
 51
0.0
  0
LINE
  5
6F8
330
1A
100
AcDbEntity
  8
ZUWAKU
100
AcDbLine
 10
37.44269024044206
 20
23.20758628282265
 30
0.0
 11
37.44269024044206
 21
21.45758628282265
 31
0.0
  0
ARC
  5
6F9
330
1A
100
AcDbEntity
  8
ZUWAKU
100
AcDbCircle
 10
34.99269024044179
 20
25.13258628282265
 30
0.0
 40
1.399999999999999
100
AcDbArc
 50
180.0
 51
270.0
  0
LINE
  5
6FA
330
1A
100
AcDbEntity
  8
ZUWAKU
100
AcDbLine
 10
36.91769024044197
 20
20.93258628282265
 30
0.0
 11
34.99269024044179
 21
20.93258628282265
 31
0.0
  0
LINE
  5
6FB
330
1A
100
AcDbEntity
  8
ZUWAKU
100
AcDbLine
 10
34.99269024044179
 20
23.73258628282265
 30
0.0
 11
36.91769024044197
 21
23.73258628282265
 31
0.0
  0
ARC
  5
6FC
330
1A
100
AcDbEntity
  8
ZUWAKU
100
AcDbCircle
 10
34.99269024044179
 20
32.83258628282261
 30
0.0
 40
4.199999999999999
100
AcDbArc
 50
90.0
 51
180.0
  0
LINE
  5
6FD
330
1A
100
AcDbEntity
  8
ZUWAKU
100
AcDbLine
 10
28.16769024044197
 20
36.50758628282265
 30
0.0
 11
28.16769024044197
 21
34.75758628282265
 31
0.0
  0
LINE
  5
6FE
330
1A
100
AcDbEntity
  8
ZUWAKU
100
AcDbLine
 10
27.64269024044188
 20
34.23258628282265
 30
0.0
 11
24.66769024044197
 21
34.23258628282265
 31
0.0
  0
ARC
  5
6FF
330
1A
100
AcDbEntity
  8
ZUWAKU
100
AcDbCircle
 10
27.64269024044188
 20
34.75758628282265
 30
0.0
 40
0.525
100
AcDbArc
 50
270.0
 51
0.0
  0
ARC
  5
700
330
1A
100
AcDbEntity
  8
ZUWAKU
100
AcDbCircle
 10
27.64269024044188
 20
36.50758628282265
 30
0.0
 40
0.525
100
AcDbArc
 50
0.0
 51
90.0
  0
LINE
  5
701
330
1A
100
AcDbEntity
  8
ZUWAKU
100
AcDbLine
 10
37.44269024044206
 20
36.50758628282265
 30
0.0
 11
37.44269024044206
 21
34.75758628282265
 31
0.0
  0
ARC
  5
702
330
1A
100
AcDbEntity
  8
ZUWAKU
100
AcDbCircle
 10
36.91769024044197
 20
34.75758628282265
 30
0.0
 40
0.525
100
AcDbArc
 50
270.0
 51
0.0
  0
ARC
  5
703
330
1A
100
AcDbEntity
  8
ZUWAKU
100
AcDbCircle
 10
40.41769024044197
 20
36.50758628282265
 30
0.0
 40
0.525
100
AcDbArc
 50
90.0
 51
180.0
  0
ARC
  5
704
330
1A
100
AcDbEntity
  8
ZUWAKU
100
AcDbCircle
 10
36.91769024044197
 20
36.50758628282265
 30
0.0
 40
0.525
100
AcDbArc
 50
0.0
 51
90.0
  0
ARC
  5
705
330
1A
100
AcDbEntity
  8
ZUWAKU
100
AcDbCircle
 10
34.99269024044179
 20
32.83258628282265
 30
0.0
 40
1.399999999999999
100
AcDbArc
 50
90.0
 51
180.0
  0
LINE
  5
706
330
1A
100
AcDbEntity
  8
ZUWAKU
100
AcDbLine
 10
36.91769024044197
 20
34.23258628282265
 30
0.0
 11
34.99269024044179
 21
34.23258628282265
 31
0.0
  0
LINE
  5
707
330
1A
100
AcDbEntity
  8
ZUWAKU
100
AcDbLine
 10
34.99269024044179
 20
37.03258628282261
 30
0.0
 11
36.91769024044197
 21
37.03258628282265
 31
0.0
  0
ARC
  5
708
330
1A
100
AcDbEntity
  8
ZUWAKU
100
AcDbCircle
 10
43.21769024044215
 20
27.05758628282265
 30
0.0
 40
0.525
100
AcDbArc
 50
90.0
 51
180.0
  0
ARC
  5
709
330
1A
100
AcDbEntity
  8
ZUWAKU
100
AcDbCircle
 10
43.35792440393061
 20
27.05758628282265
 30
0.0
 40
0.525
100
AcDbArc
 50
17.52556837372255
 51
90.0
  0
LINE
  5
70A
330
1A
100
AcDbEntity
  8
ZUWAKU
100
AcDbLine
 10
53.54269024044197
 20
21.45758628282265
 30
0.0
 11
53.54269024044197
 21
36.50758628282265
 31
0.0
  0
LINE
  5
70B
330
1A
100
AcDbEntity
  8
ZUWAKU
100
AcDbLine
 10
50.74269024044179
 20
36.50758628282265
 30
0.0
 11
50.74269024044179
 21
21.45758628282265
 31
0.0
  0
LINE
  5
70C
330
1A
100
AcDbEntity
  8
ZUWAKU
100
AcDbLine
 10
48.42697635575769
 20
21.61568025098962
 30
0.0
 11
46.10058497728414
 21
28.98258628282267
 31
0.0
  0
LINE
  5
70D
330
1A
100
AcDbEntity
  8
ZUWAKU
100
AcDbLine
 10
43.21769024044215
 20
27.58258628282265
 30
0.0
 11
43.35792440393061
 21
27.58258628282265
 31
0.0
  0
ARC
  5
70E
330
1A
100
AcDbEntity
  8
ZUWAKU
100
AcDbCircle
 10
46.22745607695333
 20
21.45758628282265
 30
0.0
 40
0.525
100
AcDbArc
 50
197.5255683737225
 51
270.0
  0
ARC
  5
70F
330
1A
100
AcDbEntity
  8
ZUWAKU
100
AcDbCircle
 10
47.9263454565621
 20
21.45758628282265
 30
0.0
 40
0.525
100
AcDbArc
 50
270.0
 51
17.52556837372255
  0
LINE
  5
710
330
1A
100
AcDbEntity
  8
ZUWAKU
100
AcDbLine
 10
46.22745607695333
 20
20.93258628282265
 30
0.0
 11
47.9263454565621
 21
20.93258628282265
 31
0.0
  0
ARC
  5
711
330
1A
100
AcDbEntity
  8
ZUWAKU
100
AcDbCircle
 10
42.16769024044197
 20
21.45758628282265
 30
0.0
 40
0.525
100
AcDbArc
 50
270.0
 51
0.0
  0
LINE
  5
712
330
1A
100
AcDbEntity
  8
ZUWAKU
100
AcDbLine
 10
45.72682517775774
 20
21.29949231465567
 30
0.0
 11
43.85855530312574
 21
27.21568025098962
 31
0.0
  0
LINE
  5
713
330
1A
100
AcDbEntity
  8
ZUWAKU
100
AcDbLine
 10
42.69269024044206
 20
21.45758628282265
 30
0.0
 11
42.69269024044206
 21
27.05758628282265
 31
0.0
  0
ARC
  5
714
330
1A
100
AcDbEntity
  8
ZUWAKU
100
AcDbCircle
 10
56.69269024044206
 20
23.20758628282265
 30
0.0
 40
0.525
100
AcDbArc
 50
90.0
 51
180.0
  0
ARC
  5
715
330
1A
100
AcDbEntity
  8
ZUWAKU
100
AcDbCircle
 10
53.01769024044188
 20
21.45758628282265
 30
0.0
 40
0.525
100
AcDbArc
 50
270.0
 51
0.0
  0
ARC
  5
716
330
1A
100
AcDbEntity
  8
ZUWAKU
100
AcDbCircle
 10
56.69269024044206
 20
21.45758628282265
 30
0.0
 40
0.525
100
AcDbArc
 50
180.0
 51
270.0
  0
LINE
  5
717
330
1A
100
AcDbEntity
  8
ZUWAKU
100
AcDbLine
 10
56.16769024044197
 20
21.45758628282265
 30
0.0
 11
56.16769024044197
 21
23.20758628282265
 31
0.0
  0
ARC
  5
718
330
1A
100
AcDbEntity
  8
ZUWAKU
100
AcDbCircle
 10
51.26769024044188
 20
21.45758628282265
 30
0.0
 40
0.525
100
AcDbArc
 50
180.0
 51
270.0
  0
LINE
  5
719
330
1A
100
AcDbEntity
  8
ZUWAKU
100
AcDbLine
 10
51.26769024044188
 20
20.93258628282265
 30
0.0
 11
53.01769024044188
 21
20.93258628282265
 31
0.0
  0
LINE
  5
71A
330
1A
100
AcDbEntity
  8
ZUWAKU
100
AcDbLine
 10
47.36533672261976
 20
32.98763347638608
 30
0.0
 11
46.10058497728414
 21
28.98258628282267
 31
0.0
  0
ARC
  5
71B
330
1A
100
AcDbEntity
  8
ZUWAKU
100
AcDbCircle
 10
46.22745607695333
 20
36.50758628282265
 30
0.0
 40
0.525
100
AcDbArc
 50
90.0
 51
162.4744316262773
  0
LINE
  5
71C
330
1A
100
AcDbEntity
  8
ZUWAKU
100
AcDbLine
 10
48.42697635575769
 20
36.34949231465568
 30
0.0
 11
47.36533672261976
 21
32.98763347638608
 31
0.0
  0
ARC
  5
71D
330
1A
100
AcDbEntity
  8
ZUWAKU
100
AcDbCircle
 10
47.9263454565621
 20
36.50758628282265
 30
0.0
 40
0.525
100
AcDbArc
 50
342.4744316262774
 51
90.0
  0
LINE
  5
71E
330
1A
100
AcDbEntity
  8
ZUWAKU
100
AcDbLine
 10
46.22745607695333
 20
37.03258628282265
 30
0.0
 11
47.9263454565621
 21
37.03258628282265
 31
0.0
  0
LINE
  5
71F
330
1A
100
AcDbEntity
  8
ZUWAKU
100
AcDbLine
 10
42.69269024044206
 20
30.90758628282265
 30
0.0
 11
42.69269024044206
 21
36.50758628282265
 31
0.0
  0
ARC
  5
720
330
1A
100
AcDbEntity
  8
ZUWAKU
100
AcDbCircle
 10
43.21769024044215
 20
30.90758628282265
 30
0.0
 40
0.525
100
AcDbArc
 50
180.0
 51
270.0
  0
LINE
  5
721
330
1A
100
AcDbEntity
  8
ZUWAKU
100
AcDbLine
 10
43.35792440393061
 20
30.38258628282265
 30
0.0
 11
43.21769024044215
 21
30.38258628282265
 31
0.0
  0
ARC
  5
722
330
1A
100
AcDbEntity
  8
ZUWAKU
100
AcDbCircle
 10
43.35792440393061
 20
30.90758628282265
 30
0.0
 40
0.525
100
AcDbArc
 50
270.0
 51
342.4744316262774
  0
ARC
  5
723
330
1A
100
AcDbEntity
  8
ZUWAKU
100
AcDbCircle
 10
42.16769024044197
 20
36.50758628282265
 30
0.0
 40
0.525
100
AcDbArc
 50
0.0
 51
90.0
  0
LINE
  5
724
330
1A
100
AcDbEntity
  8
ZUWAKU
100
AcDbLine
 10
45.72682517775774
 20
36.66568025098962
 30
0.0
 11
43.85855530312574
 21
30.74949231465568
 31
0.0
  0
ARC
  5
725
330
1A
100
AcDbEntity
  8
ZUWAKU
100
AcDbCircle
 10
59.84269024044215
 20
32.41738425746735
 30
0.0
 40
4.199999999999999
100
AcDbArc
 50
180.0
 51
224.9999999999996
  0
LINE
  5
726
330
1A
100
AcDbEntity
  8
ZUWAKU
100
AcDbLine
 10
55.64269024044188
 20
34.23258628282265
 30
0.0
 11
55.64269024044188
 21
32.41738425746731
 31
0.0
  0
ARC
  5
727
330
1A
100
AcDbEntity
  8
ZUWAKU
100
AcDbCircle
 10
53.01769024044188
 20
36.50758628282265
 30
0.0
 40
0.525
100
AcDbArc
 50
0.0
 51
90.0
  0
ARC
  5
728
330
1A
100
AcDbEntity
  8
ZUWAKU
100
AcDbCircle
 10
51.26769024044188
 20
36.50758628282265
 30
0.0
 40
0.525
100
AcDbArc
 50
90.0
 51
180.0
  0
LINE
  5
729
330
1A
100
AcDbEntity
  8
ZUWAKU
100
AcDbLine
 10
53.01769024044188
 20
37.03258628282265
 30
0.0
 11
51.26769024044188
 21
37.03258628282265
 31
0.0
  0
ARC
  5
72A
330
1A
100
AcDbEntity
  8
ZUWAKU
100
AcDbCircle
 10
73.66769024044197
 20
36.50758628282265
 30
0.0
 40
0.525
100
AcDbArc
 50
0.0
 51
90.0
  0
ARC
  5
72B
330
1A
100
AcDbEntity
  8
ZUWAKU
100
AcDbCircle
 10
71.39269024044188
 20
23.73258628282265
 30
0.0
 40
2.799999999999999
100
AcDbArc
 50
270.0
 51
0.0
  0
LINE
  5
72C
330
1A
100
AcDbEntity
  8
ZUWAKU
100
AcDbLine
 10
67.89269024044187
 20
24.78258628282265
 30
0.0
 11
67.89269024044187
 21
36.50758628282265
 31
0.0
  0
LINE
  5
72D
330
1A
100
AcDbEntity
  8
ZUWAKU
100
AcDbLine
 10
65.09269024044215
 20
36.50758628282265
 30
0.0
 11
65.09269024044215
 21
23.73258628282265
 31
0.0
  0
LINE
  5
72E
330
1A
100
AcDbEntity
  8
ZUWAKU
100
AcDbLine
 10
71.39269024044188
 20
36.50758628282265
 30
0.0
 11
71.39269024044188
 21
24.78258628282265
 31
0.0
  0
ARC
  5
72F
330
1A
100
AcDbEntity
  8
ZUWAKU
100
AcDbCircle
 10
58.79269024044197
 20
25.54778830817795
 30
0.0
 40
4.199999999999999
100
AcDbArc
 50
0.0
 51
44.9999999999996
  0
ARC
  5
730
330
1A
100
AcDbEntity
  8
ZUWAKU
100
AcDbCircle
 10
67.89269024044187
 20
23.73258628282265
 30
0.0
 40
2.799999999999999
100
AcDbArc
 50
180.0
 51
270.0
  0
LINE
  5
731
330
1A
100
AcDbEntity
  8
ZUWAKU
100
AcDbLine
 10
62.99269024044178
 20
23.73258628282265
 30
0.0
 11
62.99269024044178
 21
25.547788308178
 31
0.0
  0
ARC
  5
732
330
1A
100
AcDbEntity
  8
ZUWAKU
100
AcDbCircle
 10
59.66769024044197
 20
24.25758628282265
 30
0.0
 40
0.525
100
AcDbArc
 50
270.0
 51
0.0
  0
LINE
  5
733
330
1A
100
AcDbEntity
  8
ZUWAKU
100
AcDbLine
 10
60.19269024044206
 20
24.25758628282265
 30
0.0
 11
60.19269024044206
 21
25.547788308178
 31
0.0
  0
ARC
  5
734
330
1A
100
AcDbEntity
  8
ZUWAKU
100
AcDbCircle
 10
60.19269024044206
 20
23.73258628282265
 30
0.0
 40
2.799999999999999
100
AcDbArc
 50
270.0
 51
0.0
  0
ARC
  5
735
330
1A
100
AcDbEntity
  8
ZUWAKU
100
AcDbCircle
 10
58.79269024044197
 20
25.547788308178
 30
0.0
 40
1.399999999999999
100
AcDbArc
 50
0.0
 51
44.9999999999996
  0
ARC
  5
736
330
1A
100
AcDbEntity
  8
ZUWAKU
100
AcDbCircle
 10
70.34269024044215
 20
24.78258628282265
 30
0.0
 40
1.049999999999999
100
AcDbArc
 50
270.0
 51
0.0
  0
ARC
  5
737
330
1A
100
AcDbEntity
  8
ZUWAKU
100
AcDbCircle
 10
68.94269024044206
 20
24.78258628282265
 30
0.0
 40
1.049999999999999
100
AcDbArc
 50
180.0
 51
270.0
  0
LINE
  5
738
330
1A
100
AcDbEntity
  8
ZUWAKU
100
AcDbLine
 10
67.89269024044187
 20
20.93258628282265
 30
0.0
 11
71.39269024044188
 21
20.93258628282265
 31
0.0
  0
LINE
  5
739
330
1A
100
AcDbEntity
  8
ZUWAKU
100
AcDbLine
 10
70.34269024044215
 20
23.73258628282265
 30
0.0
 11
68.94269024044206
 21
23.73258628282265
 31
0.0
  0
LINE
  5
73A
330
1A
100
AcDbEntity
  8
ZUWAKU
100
AcDbLine
 10
67.36769024044178
 20
37.03258628282265
 30
0.0
 11
65.61769024044179
 21
37.03258628282265
 31
0.0
  0
LINE
  5
73B
330
1A
100
AcDbEntity
  8
ZUWAKU
100
AcDbLine
 10
62.46769024044215
 20
36.50758628282265
 30
0.0
 11
62.46769024044215
 21
34.75758628282265
 31
0.0
  0
ARC
  5
73C
330
1A
100
AcDbEntity
  8
ZUWAKU
100
AcDbCircle
 10
61.94269024044206
 20
34.75758628282265
 30
0.0
 40
0.525
100
AcDbArc
 50
270.0
 51
0.0
  0
ARC
  5
73D
330
1A
100
AcDbEntity
  8
ZUWAKU
100
AcDbCircle
 10
61.94269024044206
 20
36.50758628282265
 30
0.0
 40
0.525
100
AcDbArc
 50
0.0
 51
90.0
  0
ARC
  5
73E
330
1A
100
AcDbEntity
  8
ZUWAKU
100
AcDbCircle
 10
65.61769024044179
 20
36.50758628282265
 30
0.0
 40
0.525
100
AcDbArc
 50
90.0
 51
180.0
  0
ARC
  5
73F
330
1A
100
AcDbEntity
  8
ZUWAKU
100
AcDbCircle
 10
59.84269024044215
 20
32.41738425746735
 30
0.0
 40
1.399999999999999
100
AcDbArc
 50
180.0000000000016
 51
224.9999999999993
  0
LINE
  5
740
330
1A
100
AcDbEntity
  8
ZUWAKU
100
AcDbLine
 10
58.44269024044206
 20
33.70758628282265
 30
0.0
 11
58.44269024044206
 21
32.41738425746731
 31
0.0
  0
ARC
  5
741
330
1A
100
AcDbEntity
  8
ZUWAKU
100
AcDbCircle
 10
58.96769024044215
 20
33.70758628282265
 30
0.0
 40
0.525
100
AcDbArc
 50
90.0
 51
180.0
  0
LINE
  5
742
330
1A
100
AcDbEntity
  8
ZUWAKU
100
AcDbLine
 10
61.76253872142524
 20
28.51763678916148
 30
0.0
 11
58.85274074678045
 21
31.42743476380615
 31
0.0
  0
LINE
  5
743
330
1A
100
AcDbEntity
  8
ZUWAKU
100
AcDbLine
 10
61.94269024044206
 20
34.23258628282265
 30
0.0
 11
58.96769024044215
 21
34.23258628282265
 31
0.0
  0
LINE
  5
744
330
1A
100
AcDbEntity
  8
ZUWAKU
100
AcDbLine
 10
58.44269024044206
 20
37.03258628282265
 30
0.0
 11
61.94269024044206
 21
37.03258628282265
 31
0.0
  0
ARC
  5
745
330
1A
100
AcDbEntity
  8
ZUWAKU
100
AcDbCircle
 10
71.91769024044197
 20
36.50758628282265
 30
0.0
 40
0.525
100
AcDbArc
 50
90.0
 51
180.0
  0
LINE
  5
746
330
1A
100
AcDbEntity
  8
ZUWAKU
100
AcDbLine
 10
73.66769024044197
 20
37.03258628282265
 30
0.0
 11
71.91769024044197
 21
37.03258628282265
 31
0.0
  0
ARC
  5
747
330
1A
100
AcDbEntity
  8
ZUWAKU
100
AcDbCircle
 10
67.36769024044178
 20
36.50758628282265
 30
0.0
 40
0.525
100
AcDbArc
 50
0.0
 51
90.0
  0
LINE
  5
748
330
1A
100
AcDbEntity
  8
ZUWAKU
100
AcDbLine
 10
76.29269024044197
 20
36.50758628282265
 30
0.0
 11
76.29269024044197
 21
21.45758628282265
 31
0.0
  0
LINE
  5
749
330
1A
100
AcDbEntity
  8
ZUWAKU
100
AcDbLine
 10
79.09269024044215
 20
21.45758628282265
 30
0.0
 11
79.09269024044215
 21
36.50758628282265
 31
0.0
  0
LINE
  5
74A
330
1A
100
AcDbEntity
  8
ZUWAKU
100
AcDbLine
 10
74.19269024044206
 20
23.73258628282265
 30
0.0
 11
74.19269024044206
 21
36.50758628282265
 31
0.0
  0
ARC
  5
74B
330
1A
100
AcDbEntity
  8
ZUWAKU
100
AcDbCircle
 10
78.56769024044206
 20
21.45758628282265
 30
0.0
 40
0.525
100
AcDbArc
 50
270.0
 51
0.0
  0
ARC
  5
74C
330
1A
100
AcDbEntity
  8
ZUWAKU
100
AcDbCircle
 10
76.81769024044206
 20
21.45758628282265
 30
0.0
 40
0.525
100
AcDbArc
 50
180.0
 51
270.0
  0
LINE
  5
74D
330
1A
100
AcDbEntity
  8
ZUWAKU
100
AcDbLine
 10
76.81769024044206
 20
20.93258628282265
 30
0.0
 11
78.56769024044206
 21
20.93258628282265
 31
0.0
  0
ARC
  5
74E
330
1A
100
AcDbEntity
  8
ZUWAKU
100
AcDbCircle
 10
78.56769024044206
 20
36.50758628282265
 30
0.0
 40
0.525
100
AcDbArc
 50
0.0
 51
90.0
  0
ARC
  5
74F
330
1A
100
AcDbEntity
  8
ZUWAKU
100
AcDbCircle
 10
76.81769024044206
 20
36.50758628282265
 30
0.0
 40
0.525
100
AcDbArc
 50
90.0
 51
180.0
  0
LINE
  5
750
330
1A
100
AcDbEntity
  8
ZUWAKU
100
AcDbLine
 10
78.56769024044206
 20
37.03258628282265
 30
0.0
 11
76.81769024044206
 21
37.03258628282265
 31
0.0
  0
TEXT
  5
751
330
1A
100
AcDbEntity
  8
moji
100
AcDbText
 10
103.0082676738297
 20
26.52376441309741
 30
0.0
 40
6.0
  1
大型　のきとい
 41
0.9
  7
ｽﾀｲﾙ1
100
AcDbText
  0
TEXT
  5
756
330
1A
100
AcDbEntity
  8
moji
100
AcDbText
 10
249.8776807665117
 20
16.98750734023007
 30
0.0
 40
5.599999999999999
  1
Ｐ３００
 41
0.9
  7
ｽﾀｲﾙ1
100
AcDbText
  0
LINE
  5
757
330
1A
100
AcDbEntity
  8
ZUWAKU
100
AcDbLine
 10
218.4970793757283
 20
43.78258628282265
 30
0.0
 11
218.4970793757288
 21
14.58258628282271
 31
0.0
  0
LINE
  5
758
330
1A
100
AcDbEntity
  8
ZUWAKU
100
AcDbLine
 10
218.6970793757286
 20
43.78258628282265
 30
0.0
 11
218.6970793757286
 21
14.58258628282271
 31
0.0
  0
LINE
  5
759
330
1A
100
AcDbEntity
  8
ZUWAKU
100
AcDbLine
 10
218.2970793757285
 20
43.78258628282265
 30
0.0
 11
218.2970793757285
 21
14.58258628282271
 31
0.0
  0
TEXT
  5
75A
330
1A
100
AcDbEntity
  8
ZUWAKU
100
AcDbText
 10
219.7745243979379
 20
37.83794282120823
 30
0.0
 40
4.0
  1
品名
 41
0.9
  7
ｽﾀｲﾙ1
100
AcDbText
  0
TEXT
  5
75B
330
1A
100
AcDbEntity
  8
ZUWAKU
100
AcDbText
 10
219.7745243979384
 20
23.43794282120826
 30
0.0
 40
4.0
  1
サイズ
 41
0.9
  7
ｽﾀｲﾙ1
100
AcDbText
  0
TEXT
  5
75C
330
1A
100
AcDbEntity
  8
moji
100
AcDbText
 10
249.8776807665117
 20
31.78750734023003
 30
0.0
 40
5.599999999999999
  1
伸縮ジョイント
 41
0.9
  7
ｽﾀｲﾙ1
100
AcDbText
  0
TEXT
  5
792
330
1A
100
AcDbEntity
  8
ZUWAKU
100
AcDbText
 10
668.254415772963
 20
31.78750734023003
 30
0.0
 40
5.599999999999999
  1
　　．　　．　　
 41
0.9
  7
ｽﾀｲﾙ1
100
AcDbText
  0
LINE
  5
793
330
1A
100
AcDbEntity
  8
ZUWAKU
100
AcDbLine
 10
658.8676805958648
 20
29.38258628282268
 30
0.0
 11
707.2994886342021
 21
29.38258628282268
 31
0.0
  0
LINE
  5
794
330
1A
100
AcDbEntity
  8
ZUWAKU
100
AcDbLine
 10
658.8676805958653
 20
29.18258628282268
 30
0.0
 11
707.2994886342021
 21
29.18258628282268
 31
0.0
  0
LINE
  5
795
330
1A
100
AcDbEntity
  8
ZUWAKU
100
AcDbLine
 10
658.8676805958648
 20
28.98258628282268
 30
0.0
 11
707.2994886342021
 21
28.98258628282268
 31
0.0
  0
LINE
  5
79A
330
1A
100
AcDbEntity
  8
ZUWAKU
100
AcDbLine
 10
515.2496575838017
 20
29.38258628282268
 30
0.0
 11
562.5774338517731
 21
29.38258628282268
 31
0.0
  0
LINE
  5
79B
330
1A
100
AcDbEntity
  8
ZUWAKU
100
AcDbLine
 10
515.2496575838017
 20
29.18258628282268
 30
0.0
 11
562.5774338517731
 21
29.18258628282268
 31
0.0
  0
LINE
  5
79C
330
1A
100
AcDbEntity
  8
ZUWAKU
100
AcDbLine
 10
515.2496575838017
 20
28.98258628282269
 30
0.0
 11
562.5774338517731
 21
28.98258628282269
 31
0.0
  0
TEXT
  5
79D
330
1A
100
AcDbEntity
  8
moji
100
AcDbText
 10
538.0913860579735
 20
16.98750734023007
 30
0.0
 40
5.599999999999999
  1
１/２
 41
0.9
  7
ｽﾀｲﾙ1
100
AcDbText
  0
LINE
  5
79E
330
1A
100
AcDbEntity
  8
ZUWAKU
100
AcDbLine
 10
514.8496575838017
 20
43.78258628282265
 30
0.0
 11
514.8496575838017
 21
14.58258628282271
 31
0.0
  0
LINE
  5
79F
330
1A
100
AcDbEntity
  8
ZUWAKU
100
AcDbLine
 10
515.2496575838017
 20
43.78258628282265
 30
0.0
 11
515.2496575838017
 21
14.58258628282271
 31
0.0
  0
LINE
  5
7A0
330
1A
100
AcDbEntity
  8
ZUWAKU
100
AcDbLine
 10
515.0496575838015
 20
43.78258628282265
 30
0.0
 11
515.0496575838019
 21
14.58258628282271
 31
0.0
  0
LINE
  5
7A1
330
1A
100
AcDbEntity
  8
ZUWAKU
100
AcDbLine
 10
457.474842056652
 20
43.78258628282265
 30
0.0
 11
457.474842056652
 21
14.58258628282271
 31
0.0
  0
LINE
  5
7A2
330
1A
100
AcDbEntity
  8
ZUWAKU
100
AcDbLine
 10
457.8748420566521
 20
43.78258628282265
 30
0.0
 11
457.8748420566521
 21
14.58258628282271
 31
0.0
  0
LINE
  5
7A3
330
1A
100
AcDbEntity
  8
ZUWAKU
100
AcDbLine
 10
457.6748420566518
 20
43.78258628282265
 30
0.0
 11
457.6748420566523
 21
14.58258628282271
 31
0.0
  0
TEXT
  5
7A4
330
1A
100
AcDbEntity
  8
moji
100
AcDbText
 10
472.1486881474166
 20
25.56402850121991
 30
0.0
 40
5.599999999999999
  1
ＧＳ７６
 41
0.9
  7
ｽﾀｲﾙ1
100
AcDbText
  0
TEXT
  5
7A5
330
1A
100
AcDbEntity
  8
ZUWAKU
100
AcDbText
 10
459.3522870788615
 20
37.83794282120823
 30
0.0
 40
4.0
  1
品番
 41
0.9
  7
ｽﾀｲﾙ1
100
AcDbText
  0
TEXT
  5
7A6
330
1A
100
AcDbEntity
  8
ZUWAKU
100
AcDbText
 10
516.7271026060111
 20
37.83794282120823
 30
0.0
 40
4.0
  1
用紙
 41
0.9
  7
ｽﾀｲﾙ1
100
AcDbText
  0
TEXT
  5
7A7
330
1A
100
AcDbEntity
  8
ZUWAKU
100
AcDbText
 10
516.7271026060116
 20
23.43794282120826
 30
0.0
 40
4.0
  1
縮尺
 41
0.9
  7
ｽﾀｲﾙ1
100
AcDbText
  0
TEXT
  5
7A8
330
1A
100
AcDbEntity
  8
moji
100
AcDbText
 10
538.0913860579735
 20
31.78750734023003
 30
0.0
 40
5.599999999999999
  1
Ａ３
 41
0.9
  7
ｽﾀｲﾙ1
100
AcDbText
  0
LINE
  5
7A9
330
1A
100
AcDbEntity
  8
ZUWAKU
100
AcDbLine
 10
562.9774338517732
 20
43.78258628282265
 30
0.0
 11
562.9774338517732
 21
14.58258628282271
 31
0.0
  0
LINE
  5
7AA
330
1A
100
AcDbEntity
  8
ZUWAKU
100
AcDbLine
 10
658.4676805958651
 20
43.78258628282265
 30
0.0
 11
658.4676805958651
 21
14.58258628282271
 31
0.0
  0
LINE
  5
7AB
330
1A
100
AcDbEntity
  8
ZUWAKU
100
AcDbLine
 10
658.8676805958653
 20
43.78258628282265
 30
0.0
 11
658.8676805958653
 21
14.58258628282271
 31
0.0
  0
LINE
  5
7AC
330
1A
100
AcDbEntity
  8
ZUWAKU
100
AcDbLine
 10
658.667680595865
 20
43.78258628282265
 30
0.0
 11
658.6676805958655
 21
14.58258628282271
 31
0.0
  0
LINE
  5
7AD
330
1A
100
AcDbEntity
  8
ZUWAKU
100
AcDbLine
 10
562.5774338517731
 20
43.78258628282265
 30
0.0
 11
562.5774338517731
 21
14.58258628282271
 31
0.0
  0
LINE
  5
7AE
330
1A
100
AcDbEntity
  8
ZUWAKU
100
AcDbLine
 10
562.7774338517729
 20
43.78258628282265
 30
0.0
 11
562.7774338517733
 21
14.58258628282271
 31
0.0
  0
TEXT
  5
7AF
330
1A
100
AcDbEntity
  8
ZUWAKU
100
AcDbText
 10
660.3451256180747
 20
37.83794282120823
 30
0.0
 40
4.0
  1
DATE
 41
0.9
  7
ｽﾀｲﾙ1
100
AcDbText
  0
LINE
  5
7BB
330
1A
100
AcDbEntity
  8
ZUWAKU
100
AcDbLine
 10
707.899488634202
 20
43.78258628282265
 30
0.0
 11
707.899488634202
 21
14.58258628282271
 31
0.0
  0
LINE
  5
7BC
330
1A
100
AcDbEntity
  8
ZUWAKU
100
AcDbLine
 10
707.6994886342017
 20
43.78258628282265
 30
0.0
 11
707.6994886342022
 21
14.58258628282271
 31
0.0
  0
LINE
  5
7BD
330
1A
100
AcDbEntity
  8
ZUWAKU
100
AcDbLine
 10
707.4994886342019
 20
43.78258628282265
 30
0.0
 11
707.4994886342019
 21
14.58258628282271
 31
0.0
  0
LINE
  5
7BE
330
1A
100
AcDbEntity
  8
ZUWAKU
100
AcDbLine
 10
707.2994886342021
 20
43.78258628282265
 30
0.0
 11
707.2994886342021
 21
14.58258628282271
 31
0.0
  0
TEXT
  5
7BF
330
1A
100
AcDbEntity
  8
ZUWAKU
100
AcDbText
 10
718.5785622779044
 20
31.33642561850945
 30
0.0
 40
6.0
  1
積水化学工業株式会社
 41
0.9
  7
ｽﾀｲﾙ1
100
AcDbText
  0
TEXT
  5
7C0
330
1A
100
AcDbEntity
  8
ZUWAKU
100
AcDbText
 10
718.5785622779044
 20
20.43142659667671
 30
0.0
 40
6.0
  1
建材事業部
 41
0.9
  7
ｽﾀｲﾙ1
100
AcDbText
  0
DIMENSION
  5
3D5B
330
1A
100
AcDbEntity
  8
SUNPOU
100
AcDbDimension
  2
*D2
 10
663.9938951005044
 20
548.3990421689565
 30
0.0
 11
524.4938951005045
 21
553.3990421689565
 31
0.0
 70
    32
 71
     5
 42
-1.0
  3
STANDARD
100
AcDbAlignedDimension
 13
384.9938951005047
 23
534.7664091653692
 33
0.0
 14
663.9938951005044
 24
534.7925421653693
 34
0.0
100
AcDbRotatedDimension
1001
ACAD
1000
DSTYLE
1002
{
1070
    41
1040
7.0
1070
    42
1040
6.0
1070
    43
1040
14.0
1070
    44
1040
3.0
1070
    73
1070
     0
1070
    74
1070
     0
1070
    77
1070
     3
1070
   140
1040
6.0
1070
   141
1040
150.0
1070
   147
1040
2.0
1070
   172
1070
     1
1070
   173
1070
     1
1070
   176
1070
   256
1070
   177
1070
   256
1070
   178
1070
   256
1070
   271
1070
     0
1070
   272
1070
     0
1070
   341
1005
6D
1070
     6
1000
OPEN
1070
     7
1000
OPEN
1070
   371
1070
    -1
1070
   372
1070
    -1
1002
}
  0
DIMENSION
  5
3D5C
330
1A
100
AcDbEntity
  8
SUNPOU
100
AcDbDimension
  2
*D3
 10
663.9938951005035
 20
297.8604682070321
 30
0.0
 11
524.4938951005035
 21
302.8604682070321
 31
0.0
 70
    32
 71
     5
 42
-1.0
  3
STANDARD
100
AcDbAlignedDimension
 13
384.9938951005035
 23
248.1779032622053
 33
0.0
 14
663.9938951005035
 24
248.1779032622053
 34
0.0
100
AcDbRotatedDimension
1001
ACAD
1000
DSTYLE
1002
{
1070
    41
1040
7.0
1070
    42
1040
6.0
1070
    43
1040
14.0
1070
    44
1040
3.0
1070
    73
1070
     0
1070
    74
1070
     0
1070
    77
1070
     3
1070
   140
1040
6.0
1070
   141
1040
150.0
1070
   147
1040
2.0
1070
   172
1070
     1
1070
   173
1070
     1
1070
   176
1070
   256
1070
   177
1070
   256
1070
   178
1070
   256
1070
   271
1070
     0
1070
   272
1070
     0
1070
   341
1005
6D
1070
     6
1000
OPEN
1070
     7
1000
OPEN
1070
   371
1070
    -1
1070
   372
1070
    -1
1002
}
  0
DIMENSION
  5
3D5D
330
1A
100
AcDbEntity
  8
SUNPOU
100
AcDbDimension
  2
*D4
 10
384.9940051804482
 20
452.2592353573883
 30
0.0
 11
411.7439451404764
 21
457.2592353573883
 31
0.0
 70
    32
  1
\U+203B<>
 71
     5
 42
-1.0
  3
STANDARD
100
AcDbAlignedDimension
 13
438.4938851005045
 23
427.572096652458
 33
0.0
 14
384.9940051804482
 24
427.571552431121
 34
0.0
100
AcDbRotatedDimension
1001
ACAD
1000
DSTYLE
1002
{
1070
    41
1040
7.0
1070
    42
1040
6.0
1070
    43
1040
14.0
1070
    44
1040
3.0
1070
    73
1070
     0
1070
    74
1070
     0
1070
    77
1070
     3
1070
   140
1040
6.0
1070
   141
1040
150.0
1070
   147
1040
2.0
1070
   172
1070
     1
1070
   173
1070
     1
1070
   176
1070
   256
1070
   177
1070
   256
1070
   178
1070
   256
1070
   271
1070
     0
1070
   272
1070
     0
1070
   341
1005
6D
1070
     6
1000
OPEN
1070
     7
1000
OPEN
1070
   371
1070
    -1
1070
   372
1070
    -1
1002
}
  0
LINE
  5
3D5E
330
1A
100
AcDbEntity
  8
CENTER L
 48
5.0
100
AcDbLine
 10
375.4729245516755
 20
427.5714555790301
 30
0.0
 11
729.3722566560711
 21
427.5750555790296
 31
0.0
  0
ARC
  5
3D5F
330
1A
100
AcDbEntity
  8
SEIHIN
100
AcDbCircle
 10
390.9667416232182
 20
690.417101411194
 30
0.0
 40
278.950267604605
100
AcDbArc
 50
275.5172804612267
 51
279.2188902072132
  0
ARC
  5
3D60
330
1A
100
AcDbEntity
  8
SEIHIN
100
AcDbCircle
 10
390.9667412617821
 20
164.7276564405748
 30
0.0
 40
278.9502701094596
100
AcDbArc
 50
80.78110980108162
 51
84.48271958557659
  0
LINE
  5
3D61
330
1A
100
AcDbEntity
  8
SEIHIN
100
AcDbLine
 10
384.9938951005035
 20
248.1779032622053
 30
0.0
 11
619.9939151005037
 21
248.1779032622053
 31
0.0
  0
LINE
  5
3D62
330
1A
100
AcDbEntity
  8
SEIHIN
100
AcDbLine
 10
404.9939051005039
 20
248.1779032622053
 30
0.0
 11
439.0814651005038
 21
248.1779032622053
 31
0.0
  0
LINE
  5
3D63
330
1A
100
AcDbEntity
  8
SEIHIN
100
AcDbLine
 10
438.9938951005038
 20
217.1779132622053
 30
0.0
 11
404.9939051005039
 21
217.1779132622053
 31
0.0
  0
LINE
  5
3D64
330
1A
100
AcDbEntity
  8
SEIHIN
100
AcDbLine
 10
405.0851951005038
 20
92.17791526220542
 30
0.0
 11
438.9938951005038
 21
92.17791526220542
 31
0.0
  0
LINE
  5
3D65
330
1A
100
AcDbEntity
  8
SEIHIN
100
AcDbLine
 10
404.9925551005044
 20
319.8515151653692
 30
0.0
 11
438.9937751005045
 21
319.8515151653692
 31
0.0
  0
LINE
  5
3D66
330
1A
100
AcDbEntity
  8
SEIHIN
100
AcDbLine
 10
410.4938951005044
 20
338.4223851653692
 30
0.0
 11
440.4938951005044
 21
338.4223851653692
 31
0.0
  0
LINE
  5
3D67
330
1A
100
AcDbEntity
  8
SEIHIN
100
AcDbLine
 10
423.9839051005044
 20
339.2111451653692
 30
0.0
 11
418.6247951005043
 21
339.9390951653691
 31
0.0
  0
LINE
  5
3D68
330
1A
100
AcDbEntity
  8
SEIHIN
100
AcDbLine
 10
418.6863251005044
 20
341.3184351653693
 30
0.0
 11
440.9939051005044
 21
340.9613451653691
 31
0.0
  0
LINE
  5
3D69
330
1A
100
AcDbEntity
  8
SEIHIN
100
AcDbLine
 10
440.9939051005044
 20
355.9262151653691
 30
0.0
 11
416.4938951005044
 21
355.9262151653691
 31
0.0
  0
LINE
  5
3D6A
330
1A
100
AcDbEntity
  8
SEIHIN
100
AcDbLine
 10
440.9939051005044
 20
360.6866751653691
 30
0.0
 11
415.9938851005044
 21
360.6866751653691
 31
0.0
  0
LINE
  5
3D6B
330
1A
100
AcDbEntity
  8
SEIHIN
100
AcDbLine
 10
438.9937751005045
 20
535.2932271653691
 30
0.0
 11
394.9925651005046
 21
535.2932271653691
 31
0.0
  0
LINE
  5
3D6C
330
1A
100
AcDbEntity
  8
SEIHIN
100
AcDbLine
 10
440.4938951005046
 20
516.7223661653691
 30
0.0
 11
410.4938951005046
 21
516.7223661653691
 31
0.0
  0
LINE
  5
3D6D
330
1A
100
AcDbEntity
  8
SEIHIN
100
AcDbLine
 10
418.6247951005046
 20
515.2056651653693
 30
0.0
 11
423.9839051005047
 21
515.9335911653691
 31
0.0
  0
LINE
  5
3D6E
330
1A
100
AcDbEntity
  8
SEIHIN
100
AcDbLine
 10
440.9939051005044
 20
514.1834001653693
 30
0.0
 11
418.6863251005044
 21
513.8263191653692
 31
0.0
  0
LINE
  5
3D6F
330
1A
100
AcDbEntity
  8
SEIHIN
100
AcDbLine
 10
440.9939051005044
 20
499.2185421653693
 30
0.0
 11
416.4938951005046
 21
499.2185421653693
 31
0.0
  0
LINE
  5
3D70
330
1A
100
AcDbEntity
  8
SEIHIN
100
AcDbLine
 10
440.9939051005044
 20
494.4580851653691
 30
0.0
 11
415.9938851005044
 21
494.4580851653691
 31
0.0
  0
LINE
  5
3D72
330
1A
100
AcDbEntity
  8
NOKITOI
100
AcDbLine
 10
236.9217096872862
 20
95.52791426220546
 30
0.0
 11
91.94193321560261
 21
95.5279142622054
 31
0.0
  0
LINE
  5
3D73
330
1A
100
AcDbEntity
  8
NOKITOI
100
AcDbLine
 10
233.9712275514443
 20
96.37791426220543
 30
0.0
 11
94.89241536212807
 21
96.37791426220548
 31
0.0
  0
LINE
  5
3D74
330
1A
100
AcDbEntity
  8
NOKITOI
100
AcDbLine
 10
238.1107100514443
 20
94.67791426220543
 30
0.0
 11
90.75293292209677
 21
94.67791426220543
 31
0.0
  0
DIMENSION
  5
3D75
330
1A
100
AcDbEntity
  8
SUNPOU
100
AcDbDimension
  2
*D5
 10
245.8233397072883
 20
53.81252748922213
 30
0.0
 11
164.4311656901039
 21
58.81252748922213
 31
0.0
 70
    32
 71
     5
 42
-1.0
  3
STANDARD
100
AcDbAlignedDimension
 13
83.03899167291957
 23
87.57791626220543
 33
0.0
 14
245.8233397072883
 24
87.57791626220543
 34
0.0
100
AcDbRotatedDimension
1001
ACAD
1000
DSTYLE
1002
{
1070
    41
1040
7.0
1070
    42
1040
6.0
1070
    43
1040
14.0
1070
    44
1040
3.0
1070
    73
1070
     0
1070
    74
1070
     0
1070
    77
1070
     3
1070
   140
1040
6.0
1070
   141
1040
150.0
1070
   147
1040
2.0
1070
   172
1070
     1
1070
   173
1070
     1
1070
   176
1070
   256
1070
   177
1070
   256
1070
   178
1070
   256
1070
   271
1070
     0
1070
   272
1070
     0
1070
   341
1005
6D
1070
     6
1000
OPEN
1070
     7
1000
OPEN
1070
   371
1070
    -1
1070
   372
1070
    -1
1002
}
  0
DIMENSION
  5
3D76
330
1A
100
AcDbEntity
  8
SUNPOU
100
AcDbDimension
  2
*D6
 10
275.154760690104
 20
289.2103296282615
 30
0.0
 11
164.4311656901039
 21
294.2103296282615
 31
0.0
 70
    32
 71
     5
 42
-1.0
  3
STANDARD
100
AcDbAlignedDimension
 13
53.70757069010392
 23
247.1255632622054
 33
0.0
 14
275.154760690104
 24
247.1255632622054
 34
0.0
100
AcDbRotatedDimension
1001
ACAD
1000
DSTYLE
1002
{
1070
    41
1040
7.0
1070
    42
1040
6.0
1070
    43
1040
14.0
1070
    44
1040
3.0
1070
    73
1070
     0
1070
    74
1070
     0
1070
    77
1070
     3
1070
   140
1040
6.0
1070
   141
1040
150.0
1070
   147
1040
2.0
1070
   172
1070
     1
1070
   173
1070
     1
1070
   176
1070
   256
1070
   177
1070
   256
1070
   178
1070
   256
1070
   271
1070
     0
1070
   272
1070
     0
1070
   341
1005
6D
1070
     6
1000
OPEN
1070
     7
1000
OPEN
1070
   371
1070
    -1
1070
   372
1070
    -1
1002
}
  0
LINE
  5
3D77
330
1A
100
AcDbEntity
  8
SEIHIN
100
AcDbLine
 10
176.0299306901038
 20
96.57791626220546
 30
0.0
 11
152.8324006901039
 21
96.57791626220546
 31
0.0
  0
ARC
  5
3D78
330
1A
100
AcDbEntity
  8
SEIHIN
100
AcDbCircle
 10
164.4311806901039
 20
180.2779162622053
 30
0.0
 40
83.499999
100
AcDbArc
 50
261.3904200000002
 51
278.6095700000008
  0
LINE
  5
3D79
330
1A
100
AcDbEntity
  8
SEIHIN
100
AcDbLine
 10
90.59995069010392
 20
92.17791526220542
 30
0.0
 11
163.7570206901038
 21
92.17791526220542
 31
0.0
  0
LINE
  5
3D7A
330
1A
100
AcDbEntity
  8
SEIHIN
100
AcDbLine
 10
164.4311806901039
 20
94.67791426220543
 30
0.0
 11
90.59995069010392
 21
94.67791426220543
 31
0.0
  0
LINE
  5
3D7B
330
1A
100
AcDbEntity
  8
SEIHIN
100
AcDbLine
 10
238.7019706901037
 20
87.57791626220546
 30
0.0
 11
90.16036069010386
 21
87.57791626220546
 31
0.0
  0
LINE
  5
3D7C
330
1A
100
AcDbEntity
  8
NOKITOI
100
AcDbLine
 10
89.95795245526574
 20
97.27528737802083
 30
0.0
 11
74.16493400985223
 21
221.3042277042978
 31
0.0
  0
LINE
  5
3D7D
330
1A
100
AcDbEntity
  8
NOKITOI
100
AcDbLine
 10
89.26494735184405
 20
95.98844409906702
 30
0.0
 11
73.44344615144439
 21
220.2410709822055
 31
0.0
  0
LINE
  5
3D7E
330
1A
100
AcDbEntity
  8
NOKITOI
100
AcDbLine
 10
72.21242185144433
 20
243.3673844222054
 30
0.0
 11
90.42845865116134
 21
100.3095037744287
 31
0.0
  0
ARC
  5
3D7F
330
1A
100
AcDbEntity
  8
SEIHIN
100
AcDbCircle
 10
155.6243206901037
 20
171.1779142622054
 30
0.0
 40
79.99999799999999
100
AcDbArc
 50
214.8069600000009
 51
243.9942400000002
  0
ARC
  5
3D80
330
1A
100
AcDbEntity
  8
SEIHIN
100
AcDbCircle
 10
155.6243206901037
 20
171.1779142622054
 30
0.0
 40
78.999999
100
AcDbArc
 50
213.3762100000022
 51
245.522849999999
  0
ARC
  5
3D81
330
1A
100
AcDbEntity
  8
SEIHIN
100
AcDbCircle
 10
164.4311806901039
 20
180.2779162622053
 30
0.0
 40
87.49999799999999
100
AcDbArc
 50
209.7656100000008
 51
247.7763099999965
  0
LINE
  5
3D82
330
1A
100
AcDbEntity
  8
SEIHIN
100
AcDbLine
 10
82.12705069010395
 20
94.64065426220543
 30
0.0
 11
67.13604830354973
 21
210.7419417454281
 31
0.0
  0
ARC
  5
3D83
330
1A
100
AcDbEntity
  8
SEIHIN
100
AcDbCircle
 10
164.4311806901039
 20
180.2779162622053
 30
0.0
 40
83.499999
100
AcDbArc
 50
201.7123999999999
 51
255.9442500000004
  0
LINE
  5
3D84
330
1A
100
AcDbEntity
  8
SEIHIN
100
AcDbLine
 10
70.99951669010386
 20
216.7419232622054
 30
0.0
 11
86.63288569010388
 21
95.66568826220544
 31
0.0
  0
LINE
  5
3D85
330
1A
100
AcDbEntity
  8
SEIHIN
100
AcDbLine
 10
89.11230169010389
 20
95.98583026220547
 30
0.0
 11
73.14117848680609
 21
219.6779032622054
 31
0.0
  0
LINE
  5
3D86
330
1A
100
AcDbEntity
  8
SEIHIN
100
AcDbLine
 10
76.06995469010394
 20
217.6931332622053
 30
0.0
 11
90.85155469010397
 21
103.2135952622053
 31
0.0
  0
LINE
  5
3D87
330
1A
100
AcDbEntity
  8
SEIHIN
100
AcDbLine
 10
91.79323669010386
 20
103.3351852622054
 30
0.0
 11
77.49754069010396
 21
214.0515532622054
 31
0.0
  0
LINE
  5
3D88
330
1A
100
AcDbEntity
  8
SEIHIN
100
AcDbLine
 10
77.81228303385922
 20
219.4229582769362
 30
0.0
 11
92.78500369010385
 21
103.4632432622054
 31
0.0
  0
LINE
  5
3D89
330
1A
100
AcDbEntity
  8
SEIHIN
100
AcDbLine
 10
90.10723369010383
 20
103.1174872622054
 30
0.0
 11
75.07295869010386
 21
219.5539432622054
 31
0.0
  0
ARC
  5
3D8D
330
1A
100
AcDbEntity
  8
NOKITOI
100
AcDbCircle
 10
94.89241536212807
 20
100.8779142622054
 30
0.0
 40
4.5
100
AcDbArc
 50
187.256611705485
 51
270.0
  0
ARC
  5
3D8E
330
1A
100
AcDbEntity
  8
SEIHIN
100
AcDbCircle
 10
97.54546069010395
 20
104.0779162622054
 30
0.0
 40
4.8
100
AcDbArc
 50
187.3573199999993
 51
270.0
  0
ARC
  5
3D8F
330
1A
100
AcDbEntity
  8
SEIHIN
100
AcDbCircle
 10
97.54546069010395
 20
104.0779162622054
 30
0.0
 40
5.799999899999999
100
AcDbArc
 50
187.3573199999993
 51
270.0
  0
ARC
  5
3D90
330
1A
100
AcDbEntity
  8
SEIHIN
100
AcDbCircle
 10
97.54546069010395
 20
104.0779162622054
 30
0.0
 40
6.749500799999999
100
AcDbArc
 50
187.3573199999993
 51
270.0
  0
ARC
  5
3D91
330
1A
100
AcDbEntity
  8
SEIHIN
100
AcDbCircle
 10
97.54546069010395
 20
104.0779162622054
 30
0.0
 40
7.5
100
AcDbArc
 50
187.3573199999993
 51
270.0
  0
ARC
  5
3D92
330
1A
100
AcDbEntity
  8
NOKITOI
100
AcDbCircle
 10
91.94193321560261
 20
97.52791426220539
 30
0.0
 40
2.0
100
AcDbArc
 50
187.2566117265172
 51
270.0
  0
ARC
  5
3D93
330
1A
100
AcDbEntity
  8
SEIHIN
100
AcDbCircle
 10
90.16036069010386
 20
95.67791626220543
 30
0.0
 40
8.100000000000001
100
AcDbArc
 50
187.3573199999993
 51
270.0
  0
ARC
  5
3D94
330
1A
100
AcDbEntity
  8
NOKITOI
100
AcDbCircle
 10
90.75293292209677
 20
96.17791426220543
 30
0.0
 40
1.5
100
AcDbArc
 50
187.2566117265172
 51
270.0
  0
ARC
  5
3D95
330
1A
100
AcDbEntity
  8
SEIHIN
100
AcDbCircle
 10
90.59995069010392
 20
96.17791426220543
 30
0.0
 40
3.9999999
100
AcDbArc
 50
187.3573199999993
 51
270.0
  0
ARC
  5
3D96
330
1A
100
AcDbEntity
  8
SEIHIN
100
AcDbCircle
 10
90.59995069010392
 20
96.17791426220543
 30
0.0
 40
1.5
100
AcDbArc
 50
187.3573199999993
 51
270.0
  0
LINE
  5
3D97
330
1A
100
AcDbEntity
  8
SEIHIN
100
AcDbLine
 10
97.54546069010395
 20
99.27791626220539
 30
0.0
 11
151.5326206901038
 21
99.27791626220539
 31
0.0
  0
LINE
  5
3D98
330
1A
100
AcDbEntity
  8
SEIHIN
100
AcDbLine
 10
97.54546069010395
 20
97.32841426220545
 30
0.0
 11
150.2952706901037
 21
97.32841426220545
 31
0.0
  0
LINE
  5
3D99
330
1A
100
AcDbEntity
  8
SEIHIN
100
AcDbLine
 10
147.6286906901038
 20
98.27791426220541
 30
0.0
 11
97.54546069010395
 21
98.27791426220541
 31
0.0
  0
LINE
  5
3D9A
330
1A
100
AcDbEntity
  8
SEIHIN
100
AcDbLine
 10
152.8324006901039
 20
96.57791626220546
 30
0.0
 11
97.54546069010395
 21
96.57791626220546
 31
0.0
  0
ARC
  5
3D9B
330
1A
100
AcDbEntity
  8
SEIHIN
100
AcDbCircle
 10
152.9311648217251
 20
97.57791039383
 30
0.0
 40
0.9999941316330295
100
AcDbArc
 50
179.9997210609995
 51
269.9997632741318
  0
ARC
  5
3D9C
330
1A
100
AcDbEntity
  8
SEIHIN
100
AcDbCircle
 10
155.3370411631187
 20
108.9157966187248
 30
0.0
 40
12.63672739987466
100
AcDbArc
 50
246.4857245820882
 51
255.6567554688866
  0
LINE
  5
3D9D
330
1A
100
AcDbEntity
  8
SEIHIN
100
AcDbLine
 10
150.0447706901038
 20
97.57791526220541
 30
0.0
 11
151.9311706901039
 21
97.57791526220541
 31
0.0
  0
ARC
  5
3D9E
330
1A
100
AcDbEntity
  8
SEIHIN
100
AcDbCircle
 10
149.1191320485074
 20
98.77933583594881
 30
0.0
 40
0.4985825599451915
100
AcDbArc
 50
11.11596594318035
 51
89.83237655459651
  0
ARC
  5
3D9F
330
1A
100
AcDbEntity
  8
SEIHIN
100
AcDbCircle
 10
155.391118371152
 20
102.6951676764315
 30
0.0
 40
7.400655768075738
100
AcDbArc
 50
218.7306870618508
 51
226.4832150849816
  0
ARC
  5
3DA0
330
1A
100
AcDbEntity
  8
SEIHIN
100
AcDbCircle
 10
147.8344355885881
 20
88.80611533190352
 30
0.0
 40
9.474033245630936
100
AcDbArc
 50
80.41893713673976
 51
91.24437405095408
  0
LINE
  5
3DA1
330
1A
100
AcDbEntity
  8
SEIHIN
100
AcDbLine
 10
147.6286906901041
 20
98.27791426220541
 30
0.0
 11
147.6286906901038
 21
99.27791626220539
 31
0.0
  0
LINE
  5
3DA2
330
1A
100
AcDbEntity
  8
SEIHIN
100
AcDbLine
 10
149.6963946459411
 20
97.97532690558426
 30
0.0
 11
149.6083606901038
 21
98.87546026220542
 31
0.0
  0
LINE
  5
3DA3
330
1A
100
AcDbEntity
  8
SEIHIN
100
AcDbLine
 10
149.6179006901038
 20
98.06486926220543
 30
0.0
 11
149.5467706901038
 21
98.10756226220542
 31
0.0
  0
LINE
  5
3DA4
330
1A
100
AcDbEntity
  8
SEIHIN
100
AcDbLine
 10
149.5467706901038
 20
98.10756226220542
 30
0.0
 11
149.4113206901038
 21
98.14799626220542
 31
0.0
  0
ARC
  5
3DA5
330
1A
100
AcDbEntity
  8
SEIHIN
100
AcDbCircle
 10
151.5330701259224
 20
98.77444587339226
 30
0.0
 40
0.5034705894133281
100
AcDbArc
 50
37.74784025962922
 51
90.05114654069087
  0
ARC
  5
3DA6
330
1A
100
AcDbEntity
  8
SEIHIN
100
AcDbCircle
 10
152.9614344719329
 20
99.61826787333706
 30
0.0
 40
3.040502330401449
100
AcDbArc
 50
255.6242868054225
 51
269.4295059165236
  0
LINE
  5
3DA7
330
1A
100
AcDbEntity
  8
SEIHIN
100
AcDbLine
 10
151.9311706901039
 20
97.57791526220541
 30
0.0
 11
151.9311706901039
 21
99.0826642622053
 31
0.0
  0
LINE
  5
3DA8
330
1A
100
AcDbEntity
  8
SEIHIN
100
AcDbLine
 10
55.73045441340742
 20
211.3571531241627
 30
0.0
 11
58.42012241340739
 21
217.3571531241627
 31
0.0
  0
LINE
  5
3DA9
330
1A
100
AcDbEntity
  8
SEIHIN
100
AcDbLine
 10
66.89269104733603
 20
211.0791906440521
 30
0.0
 11
70.75616004733593
 21
217.0791906440521
 31
0.0
  0
LINE
  5
3DAA
330
1A
100
AcDbEntity
  8
SEIHIN
100
AcDbLine
 10
55.56667669010391
 20
211.6517332622054
 30
0.0
 11
53.70757069010392
 21
247.1255632622054
 31
0.0
  0
LINE
  5
3DAB
330
1A
100
AcDbEntity
  8
SEIHIN
100
AcDbLine
 10
66.64016489655148
 20
211.1779132622053
 30
0.0
 11
56.06599069010394
 21
211.1779132622053
 31
0.0
  0
ARC
  5
3DAC
330
1A
100
AcDbEntity
  8
SEIHIN
100
AcDbCircle
 10
56.06598313437928
 20
211.6779036519434
 30
0.0
 40
0.4999903897953125
100
AcDbArc
 50
183.0037769877936
 51
270.0008658389115
  0
ARC
  5
3DAD
330
1A
100
AcDbEntity
  8
SEIHIN
100
AcDbCircle
 10
66.64016489655148
 20
210.6779132622053
 30
0.0
 40
0.5
100
AcDbArc
 50
7.357326230785121
 51
90.0
  0
ARC
  5
3DAE
330
1A
100
AcDbEntity
  8
SEIHIN
100
AcDbCircle
 10
61.28111925769724
 20
225.177841235631
 30
0.0
 40
0.4999279769585053
100
AcDbArc
 50
191.2437908778433
 51
270.0068114333022
  0
ARC
  5
3DAF
330
1A
100
AcDbEntity
  8
SEIHIN
100
AcDbCircle
 10
61.28122045119687
 20
245.1778735019705
 30
0.0
 40
0.5000397619786361
100
AcDbArc
 50
90.00478508823421
 51
179.9965899994707
  0
ARC
  5
3DB0
330
1A
100
AcDbEntity
  8
SEIHIN
100
AcDbCircle
 10
61.20834844847593
 20
246.2491208864845
 30
0.0
 40
0.4613571649119851
100
AcDbArc
 50
80.91724501147451
 51
153.5962910722842
  0
LINE
  5
3DB1
330
1A
100
AcDbEntity
  8
SEIHIN
100
AcDbLine
 10
54.70620169010373
 20
248.1779032622053
 30
0.0
 11
74.78117869010384
 21
248.1779032622053
 31
0.0
  0
ARC
  5
3DB2
330
1A
100
AcDbEntity
  8
SEIHIN
100
AcDbCircle
 10
61.28117869010385
 20
220.1779132622053
 30
0.0
 40
0.4999998000000002
100
AcDbArc
 50
180.0
 51
270.0
  0
LINE
  5
3DB3
330
1A
100
AcDbEntity
  8
SEIHIN
100
AcDbLine
 10
58.7556616901038
 20
217.1779132622053
 30
0.0
 11
70.50363469010381
 21
217.1779132622053
 31
0.0
  0
LINE
  5
3DB4
330
1A
100
AcDbEntity
  8
SEIHIN
100
AcDbLine
 10
60.78118069010383
 20
220.1779132622053
 30
0.0
 11
60.78118069010383
 21
247.6778932622054
 31
0.0
  0
LINE
  5
3DB5
330
1A
100
AcDbEntity
  8
SEIHIN
100
AcDbLine
 10
56.71168969010387
 20
247.1255632622054
 30
0.0
 11
58.25634769010389
 21
217.6517332622054
 31
0.0
  0
ARC
  5
3DB6
330
1A
100
AcDbEntity
  8
SEIHIN
100
AcDbCircle
 10
58.75567547311288
 20
217.6779183601881
 30
0.0
 40
0.5000157173446857
100
AcDbArc
 50
183.0707194667645
 51
267.7062780495222
  0
ARC
  5
3DB7
330
1A
100
AcDbEntity
  8
SEIHIN
100
AcDbCircle
 10
57.71031621775899
 20
247.1779067332283
 30
0.0
 40
0.9999973903442198
100
AcDbArc
 50
90.07520251299379
 51
183.0004389934255
  0
ARC
  5
3DB8
330
1A
100
AcDbEntity
  8
SEIHIN
100
AcDbCircle
 10
54.70619428611292
 20
247.1779086967365
 30
0.0
 40
0.9999945654963255
100
AcDbArc
 50
89.99957578028153
 51
183.0005601327936
  0
ARC
  5
3DB9
330
1A
100
AcDbEntity
  8
SEIHIN
100
AcDbCircle
 10
60.28118381973911
 20
247.6779063916852
 30
0.0
 40
0.4999968705371099
100
AcDbArc
 50
359.9984954630157
 51
90.00047322426871
  0
LINE
  5
3DBA
330
1A
100
AcDbEntity
  8
NOKITOI
100
AcDbLine
 10
63.43182145144442
 20
241.4779142622054
 30
0.0
 11
63.43182145144442
 21
223.8779142622055
 31
0.0
  0
LINE
  5
3DBB
330
1A
100
AcDbEntity
  8
NOKITOI
100
AcDbLine
 10
70.71516225144432
 20
241.6673844222053
 30
0.0
 11
72.95622895144447
 21
224.0673844222054
 31
0.0
  0
LINE
  5
3DBC
330
1A
100
AcDbEntity
  8
NOKITOI
100
AcDbLine
 10
63.63182145144446
 20
241.4779142622054
 30
0.0
 11
63.63182145144446
 21
223.8779142622055
 31
0.0
  0
LINE
  5
3DBD
330
1A
100
AcDbEntity
  8
NOKITOI
100
AcDbLine
 10
61.93182145144442
 20
243.1779142622054
 30
0.0
 11
61.93182145144442
 21
222.1779142622054
 31
0.0
  0
ARC
  5
3DBE
330
1A
100
AcDbEntity
  8
SEIHIN
100
AcDbCircle
 10
77.68383832516633
 20
216.5306923870152
 30
0.0
 40
0.4980671326054328
100
AcDbArc
 50
17.90805686357387
 51
90.28720475966585
  0
ARC
  5
3DBF
330
1A
100
AcDbEntity
  8
SEIHIN
100
AcDbCircle
 10
77.2734102587874
 20
219.2620750694062
 30
0.0
 40
0.5623764523686291
100
AcDbArc
 50
16.62326223376976
 51
47.68139575759259
  0
LINE
  5
3DC0
330
1A
100
AcDbEntity
  8
SEIHIN
100
AcDbLine
 10
78.00169069010394
 20
214.0515532622054
 30
0.0
 11
77.49754069010396
 21
214.0515532622054
 31
0.0
  0
ARC
  5
3DC1
330
1A
100
AcDbEntity
  8
NOKITOI
100
AcDbCircle
 10
71.46824335144447
 20
223.8779142622055
 30
0.0
 40
1.500000014556298
100
AcDbArc
 50
270.0
 51
7.256611464071905
  0
ARC
  5
3DC2
330
1A
100
AcDbEntity
  8
SEIHIN
100
AcDbCircle
 10
71.14117969010385
 20
222.6779032622054
 30
0.0
 40
1.999999799999999
100
AcDbArc
 50
0.0
 51
90.0
  0
LINE
  5
3DC3
330
1A
100
AcDbEntity
  8
NOKITOI
100
AcDbLine
 10
65.13182145144447
 20
222.3779142622055
 30
0.0
 11
71.46824335144447
 21
222.3779142622055
 31
0.0
  0
LINE
  5
3DC4
330
1A
100
AcDbEntity
  8
NOKITOI
100
AcDbLine
 10
63.43182145144442
 20
220.6779142622055
 30
0.0
 11
72.94745095144435
 21
220.6779142622055
 31
0.0
  0
LINE
  5
3DC5
330
1A
100
AcDbEntity
  8
NOKITOI
100
AcDbLine
 10
65.13182145144447
 20
222.1779142622054
 30
0.0
 11
73.1729436296838
 21
222.1779142622054
 31
0.0
  0
LINE
  5
3DC6
330
1A
100
AcDbEntity
  8
SEIHIN
100
AcDbLine
 10
72.26199769010384
 20
219.6779032622054
 30
0.0
 11
61.28117869010385
 21
219.6779032622054
 31
0.0
  0
ARC
  5
3DC7
330
1A
100
AcDbEntity
  8
NOKITOI
100
AcDbCircle
 10
63.43182145144442
 20
222.1779142622054
 30
0.0
 40
1.5
100
AcDbArc
 50
180.0
 51
270.0
  0
ARC
  5
3DC8
330
1A
100
AcDbEntity
  8
NOKITOI
100
AcDbCircle
 10
65.13182145144447
 20
223.8779142622055
 30
0.0
 40
1.7
100
AcDbArc
 50
180.0
 51
270.0
  0
ARC
  5
3DC9
330
1A
100
AcDbEntity
  8
NOKITOI
100
AcDbCircle
 10
65.13182145144447
 20
223.8779142622055
 30
0.0
 40
1.5
100
AcDbArc
 50
180.0
 51
270.0
  0
ARC
  5
3DCA
330
1A
100
AcDbEntity
  8
NOKITOI
100
AcDbCircle
 10
72.94745095144435
 20
220.1779142622054
 30
0.0
 40
0.5000000048520898
100
AcDbArc
 50
7.256611464071905
 51
90.0
  0
ARC
  5
3DCB
330
1A
100
AcDbEntity
  8
NOKITOI
100
AcDbCircle
 10
73.1729436296838
 20
221.1779142622054
 30
0.0
 40
1.0
100
AcDbArc
 50
7.256611726520427
 51
90.0
  0
LINE
  5
3DCC
330
1A
100
AcDbEntity
  8
SEIHIN
100
AcDbLine
 10
76.87620169010393
 20
216.9137332622054
 30
0.0
 11
76.96307269010356
 21
216.7052932622066
 31
0.0
  0
LINE
  5
3DCD
330
1A
100
AcDbEntity
  8
SEIHIN
100
AcDbLine
 10
76.79788069010385
 20
217.0287532622054
 30
0.0
 11
76.87620169010393
 21
216.9137332622054
 31
0.0
  0
ARC
  5
3DCE
330
1A
100
AcDbEntity
  8
SEIHIN
100
AcDbCircle
 10
68.01854122555994
 20
213.8267811358129
 30
0.0
 40
9.396301143641899
100
AcDbArc
 50
10.88487596902262
 51
17.83911506527193
  0
ARC
  5
3DCF
330
1A
100
AcDbEntity
  8
SEIHIN
100
AcDbCircle
 10
70.50361047338902
 20
216.6778904092743
 30
0.0
 40
0.5000231814933446
100
AcDbArc
 50
7.357488116927608
 51
89.93431723384395
  0
ARC
  5
3DD0
330
1A
100
AcDbEntity
  8
SEIHIN
100
AcDbCircle
 10
54.34976260327039
 20
211.0861414990371
 30
0.0
 40
23.33695132793546
100
AcDbArc
 50
7.300275186487423
 51
11.15536357408435
  0
ARC
  5
3DD1
330
1A
100
AcDbEntity
  8
SEIHIN
100
AcDbCircle
 10
73.19487330655647
 20
219.4818635563034
 30
0.0
 40
0.0313447089229369
100
AcDbArc
 50
93.69060327049709
 51
161.2576578374834
  0
ARC
  5
3DD2
330
1A
100
AcDbEntity
  8
SEIHIN
100
AcDbCircle
 10
73.60339246682087
 20
217.5092414495508
 30
0.0
 40
2.04552265198841
100
AcDbArc
 50
88.3767736376922
 51
101.577906981813
  0
LINE
  5
3DD3
330
1A
100
AcDbEntity
  8
SEIHIN
100
AcDbLine
 10
76.79788069010385
 20
217.0287532622054
 30
0.0
 11
76.06995469010394
 21
217.6931332622053
 31
0.0
  0
LINE
  5
3DD4
330
1A
100
AcDbEntity
  8
SEIHIN
100
AcDbLine
 10
76.79788069010385
 20
217.0287532622054
 30
0.0
 11
77.68134169010386
 21
217.0287532622054
 31
0.0
  0
LINE
  5
3DD5
330
1A
100
AcDbEntity
  8
SEIHIN
100
AcDbLine
 10
76.06995469010394
 20
217.6931332622053
 30
0.0
 11
75.07295869010386
 21
219.5539432622054
 31
0.0
  0
ARC
  5
3DD6
330
1A
100
AcDbEntity
  8
SEIHIN
100
AcDbCircle
 10
72.26199769010384
 20
218.6779132622053
 30
0.0
 40
0.9999998999999998
100
AcDbArc
 50
7.357324199999269
 51
90.0
  0
LINE
  5
3DD7
330
1A
100
AcDbEntity
  8
SEIHIN
100
AcDbLine
 10
73.14118069010397
 20
222.6779032622054
 30
0.0
 11
73.14118069010397
 21
219.6779032622054
 31
0.0
  0
LINE
  5
3DD8
330
1A
100
AcDbEntity
  8
SEIHIN
100
AcDbLine
 10
73.6613356901039
 20
219.5539432622054
 30
0.0
 11
75.07295869010386
 21
219.5539432622054
 31
0.0
  0
LINE
  5
3DD9
330
1A
100
AcDbEntity
  8
SEIHIN
100
AcDbLine
 10
77.65203169010385
 20
219.6779032622054
 30
0.0
 11
73.14118069010397
 21
219.6779032622054
 31
0.0
  0
LINE
  5
3DDA
330
1A
100
AcDbEntity
  8
SEIHIN
100
AcDbLine
 10
61.28117869010385
 20
224.6779132622053
 30
0.0
 11
71.14117969010385
 21
224.6779132622053
 31
0.0
  0
LINE
  5
3DDB
330
1A
100
AcDbEntity
  8
SEIHIN
100
AcDbLine
 10
68.60568469010388
 20
224.6779132622053
 30
0.0
 11
61.28117869010385
 21
234.6941632622054
 31
0.0
  0
LINE
  5
3DDC
330
1A
100
AcDbEntity
  8
SEIHIN
100
AcDbLine
 10
78.00169069010394
 20
214.0515532622054
 30
0.0
 11
78.49757269010388
 21
214.1155732622054
 31
0.0
  0
LINE
  5
3DDD
330
1A
100
AcDbEntity
  8
SEIHIN
100
AcDbLine
 10
61.78117969010384
 20
248.1779032622053
 30
0.0
 11
61.78117969010395
 21
246.6779032622054
 31
0.0
  0
LINE
  5
3DDE
330
1A
100
AcDbEntity
  8
SEIHIN
100
AcDbLine
 10
75.28117969010395
 20
247.6778932622054
 30
0.0
 11
75.28117969010395
 21
242.6779132622054
 31
0.0
  0
ARC
  5
3DDF
330
1A
100
AcDbEntity
  8
NOKITOI
100
AcDbCircle
 10
69.22717665144432
 20
241.4779142622054
 30
0.0
 40
1.700000014556298
100
AcDbArc
 50
7.256611464071905
 51
90.0
  0
ARC
  5
3DE0
330
1A
100
AcDbEntity
  8
NOKITOI
100
AcDbCircle
 10
69.22717665144432
 20
241.4779142622054
 30
0.0
 40
1.500000014556298
100
AcDbArc
 50
7.256611464071905
 51
90.0
  0
ARC
  5
3DE1
330
1A
100
AcDbEntity
  8
NOKITOI
100
AcDbCircle
 10
69.22717665144432
 20
241.4779142622054
 30
0.0
 40
1.500000014556298
100
AcDbArc
 50
7.256611464071905
 51
90.0
  0
LINE
  5
3DE2
330
1A
100
AcDbEntity
  8
NOKITOI
100
AcDbLine
 10
63.43182145144442
 20
244.6779142622054
 30
0.0
 11
70.72443635144441
 21
244.6779142622054
 31
0.0
  0
LINE
  5
3DE3
330
1A
100
AcDbEntity
  8
SEIHIN
100
AcDbLine
 10
61.78117969010395
 20
246.6779032622054
 30
0.0
 11
72.78117869010384
 21
246.6779032622054
 31
0.0
  0
LINE
  5
3DE4
330
1A
100
AcDbEntity
  8
SEIHIN
100
AcDbLine
 10
72.78118069010384
 20
245.6779132622053
 30
0.0
 11
61.28117869010385
 21
245.6779132622053
 31
0.0
  0
LINE
  5
3DE5
330
1A
100
AcDbEntity
  8
NOKITOI
100
AcDbLine
 10
65.13182145144447
 20
243.1779142622054
 30
0.0
 11
69.22717665144432
 21
243.1779142622054
 31
0.0
  0
LINE
  5
3DE6
330
1A
100
AcDbEntity
  8
NOKITOI
100
AcDbLine
 10
65.13182145144447
 20
242.9779142622054
 30
0.0
 11
69.22717665144432
 21
242.9779142622054
 31
0.0
  0
ARC
  5
3DE7
330
1A
100
AcDbEntity
  8
NOKITOI
100
AcDbCircle
 10
63.43182145144442
 20
243.1779142622054
 30
0.0
 40
1.5
100
AcDbArc
 50
90.0
 51
180.0
  0
ARC
  5
3DE8
330
1A
100
AcDbEntity
  8
NOKITOI
100
AcDbCircle
 10
65.13182145144447
 20
241.4779142622054
 30
0.0
 40
1.7
100
AcDbArc
 50
90.0
 51
180.0
  0
ARC
  5
3DE9
330
1A
100
AcDbEntity
  8
NOKITOI
100
AcDbCircle
 10
65.13182145144447
 20
241.4779142622054
 30
0.0
 40
1.5
100
AcDbArc
 50
90.0
 51
180.0
  0
ARC
  5
3DEA
330
1A
100
AcDbEntity
  8
SEIHIN
100
AcDbCircle
 10
61.7457908748853
 20
250.8331458285204
 30
0.0
 40
4.154513819276599
100
AcDbArc
 50
263.5790030886096
 51
268.0928723819279
  0
LINE
  5
3DEB
330
1A
100
AcDbEntity
  8
SEIHIN
100
AcDbLine
 10
61.78117969010395
 20
246.6779032622054
 30
0.0
 11
61.60753069010389
 21
246.6809332622053
 31
0.0
  0
LINE
  5
3DEC
330
1A
100
AcDbEntity
  8
SEIHIN
100
AcDbLine
 10
61.3984036901038
 20
243.6806332622053
 30
0.0
 11
61.29373369010386
 21
245.6779132622053
 31
0.0
  0
ARC
  5
3DED
330
1A
100
AcDbEntity
  8
SEIHIN
100
AcDbCircle
 10
61.29373369010386
 20
245.6779132622053
 30
0.0
 40
1.999999799999999
100
AcDbArc
 50
272.999999999999
 51
0.0
  0
ARC
  5
3DEE
330
1A
100
AcDbEntity
  8
NOKITOI
100
AcDbCircle
 10
70.72443635144441
 20
243.1779142622054
 30
0.0
 40
1.499999964956768
100
AcDbArc
 50
7.256611946556306
 51
90.0
  0
ARC
  5
3DEF
330
1A
100
AcDbEntity
  8
SEIHIN
100
AcDbCircle
 10
72.78117869010384
 20
246.1779032622053
 30
0.0
 40
0.5
100
AcDbArc
 50
0.0
 51
90.0
  0
LINE
  5
3DF0
330
1A
100
AcDbEntity
  8
SEIHIN
100
AcDbLine
 10
72.78118069010384
 20
245.6779132622053
 30
0.0
 11
72.78118069010384
 21
246.6779032622054
 31
0.0
  0
ARC
  5
3DF1
330
1A
100
AcDbEntity
  8
SEIHIN
100
AcDbCircle
 10
74.78117869010384
 20
242.6779132622054
 30
0.0
 40
0.4999998000000002
100
AcDbArc
 50
270.0
 51
0.0
  0
LINE
  5
3DF2
330
1A
100
AcDbEntity
  8
SEIHIN
100
AcDbLine
 10
74.78117869010384
 20
242.1779032622054
 30
0.0
 11
73.28117869010384
 21
242.1779032622054
 31
0.0
  0
LINE
  5
3DF3
330
1A
100
AcDbEntity
  8
SEIHIN
100
AcDbLine
 10
73.28117869010384
 20
246.1779032622053
 30
0.0
 11
73.28117869010384
 21
242.1779032622054
 31
0.0
  0
ARC
  5
3DF4
330
1A
100
AcDbEntity
  8
SEIHIN
100
AcDbCircle
 10
74.78117869010384
 20
247.6778932622054
 30
0.0
 40
0.4999998000000002
100
AcDbArc
 50
0.0
 51
90.0
  0
LINE
  5
3DF5
330
1A
100
AcDbEntity
  8
NOKITOI
100
AcDbLine
 10
254.6987088930366
 20
221.3042277042977
 30
0.0
 11
238.905690447623
 21
97.27528737802083
 31
0.0
  0
LINE
  5
3DF6
330
1A
100
AcDbEntity
  8
NOKITOI
100
AcDbLine
 10
256.6512210514442
 20
243.3673844222054
 30
0.0
 11
238.4351842514443
 21
100.3095037722054
 31
0.0
  0
LINE
  5
3DF7
330
1A
100
AcDbEntity
  8
NOKITOI
100
AcDbLine
 10
255.4201967514443
 20
220.2410709822055
 30
0.0
 11
239.5986955514445
 21
95.98844410220545
 31
0.0
  0
DIMENSION
  5
3DF8
330
1A
100
AcDbEntity
  8
SUNPOU
100
AcDbDimension
  2
*D7
 10
323.9822926929218
 20
87.57791626220543
 30
0.0
 11
318.9822926929218
 21
167.8779097622054
 31
0.0
 70
    32
 71
     5
 42
-1.0
  3
STANDARD
100
AcDbAlignedDimension
 13
274.1561506901039
 23
248.1779032622053
 33
0.0
 14
238.7019706901037
 24
87.57791626220543
 34
0.0
 50
90.0
100
AcDbRotatedDimension
1001
ACAD
1000
DSTYLE
1002
{
1070
    41
1040
7.0
1070
    42
1040
6.0
1070
    43
1040
14.0
1070
    44
1040
3.0
1070
    73
1070
     0
1070
    74
1070
     0
1070
    77
1070
     3
1070
   140
1040
6.0
1070
   141
1040
150.0
1070
   147
1040
2.0
1070
   172
1070
     1
1070
   173
1070
     1
1070
   176
1070
   256
1070
   177
1070
   256
1070
   178
1070
   256
1070
   271
1070
     0
1070
   272
1070
     0
1070
   341
1005
6D
1070
     6
1000
OPEN
1070
     7
1000
OPEN
1070
   371
1070
    -1
1070
   372
1070
    -1
1002
}
  0
LINE
  5
3DF9
330
1A
100
AcDbEntity
  8
SEIHIN
100
AcDbLine
 10
404.9939051005039
 20
92.17791526220542
 30
0.0
 11
404.9939051005042
 21
248.1779032622053
 31
0.0
  0
LINE
  5
3DFA
330
1A
100
AcDbEntity
  8
SEIHIN
100
AcDbLine
 10
394.9939151005039
 20
248.1779032622053
 30
0.0
 11
394.9939151005035
 21
92.17791526220542
 31
0.0
  0
LINE
  5
3DFB
330
1A
100
AcDbEntity
  8
SEIHIN
100
AcDbLine
 10
384.9938951005037
 20
92.67791626220542
 30
0.0
 11
384.993895100504
 21
248.1779032622053
 31
0.0
  0
LINE
  5
3DFC
330
1A
100
AcDbEntity
  8
SEIHIN
100
AcDbLine
 10
261.7262806901039
 20
210.7419232622054
 30
0.0
 11
246.7352806901039
 21
94.64065426220543
 31
0.0
  0
LINE
  5
3DFD
330
1A
100
AcDbEntity
  8
SEIHIN
100
AcDbLine
 10
242.2294606901039
 20
95.66568826220544
 30
0.0
 11
257.8628206901039
 21
216.7419232622054
 31
0.0
  0
LINE
  5
3DFE
330
1A
100
AcDbEntity
  8
SEIHIN
100
AcDbLine
 10
255.6085906901039
 20
218.8059532622054
 30
0.0
 11
239.7500506901039
 21
95.98583026220547
 31
0.0
  0
LINE
  5
3DFF
330
1A
100
AcDbEntity
  8
SEIHIN
100
AcDbLine
 10
251.3647906901039
 20
214.0515532622054
 30
0.0
 11
237.0691006901038
 21
103.3351852622054
 31
0.0
  0
LINE
  5
3E00
330
1A
100
AcDbEntity
  8
SEIHIN
100
AcDbLine
 10
236.0773306901039
 20
103.4632432622054
 30
0.0
 11
251.0421942723223
 21
219.3620343335678
 31
0.0
  0
LINE
  5
3E01
330
1A
100
AcDbEntity
  8
SEIHIN
100
AcDbLine
 10
238.0108006901039
 20
103.2135952622053
 30
0.0
 11
252.7924006901039
 21
217.6931332622053
 31
0.0
  0
LINE
  5
3E02
330
1A
100
AcDbEntity
  8
SEIHIN
100
AcDbLine
 10
253.789390690104
 20
219.5539432622054
 30
0.0
 11
238.7551006901039
 21
103.1174872622054
 31
0.0
  0
ARC
  5
3E03
330
1A
100
AcDbEntity
  8
SEIHIN
100
AcDbCircle
 10
164.4311806901039
 20
180.2779162622053
 30
0.0
 40
83.499999
100
AcDbArc
 50
284.0557400000033
 51
338.2875899999995
  0
ARC
  5
3E04
330
1A
100
AcDbEntity
  8
SEIHIN
100
AcDbCircle
 10
172.9287706901038
 20
171.1779142622054
 30
0.0
 40
79.99999799999999
100
AcDbArc
 50
296.0057500000001
 51
325.6734099999976
  0
ARC
  5
3E05
330
1A
100
AcDbEntity
  8
SEIHIN
100
AcDbCircle
 10
164.4311806901039
 20
180.2779162622053
 30
0.0
 40
87.49999799999999
100
AcDbArc
 50
292.2236800000025
 51
330.2343799999978
  0
ARC
  5
3E06
330
1A
100
AcDbEntity
  8
SEIHIN
100
AcDbCircle
 10
172.9287706901038
 20
171.1779142622054
 30
0.0
 40
78.999999
100
AcDbArc
 50
294.4771399999977
 51
327.1355299999981
  0
LINE
  5
3E0B
330
1A
100
AcDbEntity
  8
SEIHIN
100
AcDbLine
 10
238.262380690104
 20
94.67791426220543
 30
0.0
 11
164.4311806901039
 21
94.67791426220543
 31
0.0
  0
LINE
  5
3E0C
330
1A
100
AcDbEntity
  8
SEIHIN
100
AcDbLine
 10
163.7570206901038
 20
92.17791526220542
 30
0.0
 11
238.262380690104
 21
92.17791526220542
 31
0.0
  0
LINE
  5
3E0D
330
1A
100
AcDbEntity
  8
SEIHIN
100
AcDbLine
 10
178.5670606901039
 20
97.32841426220545
 30
0.0
 11
231.316870690104
 21
97.32841426220545
 31
0.0
  0
LINE
  5
3E0E
330
1A
100
AcDbEntity
  8
SEIHIN
100
AcDbLine
 10
231.316870690104
 20
98.27791426220541
 30
0.0
 11
181.2336406901038
 21
98.27791426220541
 31
0.0
  0
LINE
  5
3E0F
330
1A
100
AcDbEntity
  8
SEIHIN
100
AcDbLine
 10
177.3297106901036
 20
99.27791626220539
 30
0.0
 11
231.316870690104
 21
99.27791626220539
 31
0.0
  0
LINE
  5
3E10
330
1A
100
AcDbEntity
  8
SEIHIN
100
AcDbLine
 10
231.316870690104
 20
96.57791626220546
 30
0.0
 11
176.0299306901038
 21
96.57791626220546
 31
0.0
  0
LINE
  5
3E11
330
1A
100
AcDbEntity
  8
CENTER L
 48
5.0
100
AcDbLine
 10
164.4320902764429
 20
72.11659190047908
 30
0.0
 11
164.4315832422378
 21
114.4746237553279
 31
0.0
  0
ARC
  5
3E12
330
1A
100
AcDbEntity
  8
SEIHIN
100
AcDbCircle
 10
175.9311665584823
 20
97.57791039383006
 30
0.0
 40
0.9999941316331318
100
AcDbArc
 50
270.0002367258681
 51
0.0002789389992105
  0
LINE
  5
3E13
330
1A
100
AcDbEntity
  8
SEIHIN
100
AcDbLine
 10
164.4311806901039
 20
92.67791626220542
 30
0.0
 11
164.4311806901039
 21
94.67791426220543
 31
0.0
  0
ARC
  5
3E14
330
1A
100
AcDbEntity
  8
SEIHIN
100
AcDbCircle
 10
174.6066077942089
 20
106.1082350638064
 30
0.0
 40
9.631741298894523
100
AcDbArc
 50
279.077802381525
 51
294.2794618402548
  0
LINE
  5
3E15
330
1A
100
AcDbEntity
  8
SEIHIN
100
AcDbLine
 10
178.8175606901038
 20
97.57791526220541
 30
0.0
 11
178.5670606901039
 21
97.32841426220545
 31
0.0
  0
ARC
  5
3E16
330
1A
100
AcDbEntity
  8
SEIHIN
100
AcDbCircle
 10
179.7434158987364
 20
98.77893282806105
 30
0.0
 40
0.498986246177553
100
AcDbArc
 50
90.19235513101188
 51
180.1168414355338
  0
ARC
  5
3E17
330
1A
100
AcDbEntity
  8
SEIHIN
100
AcDbCircle
 10
179.5101714048598
 20
97.70272435634025
 30
0.0
 40
0.4491848843440199
100
AcDbArc
 50
97.56823432374414
 51
126.271096144621
  0
ARC
  5
3E18
330
1A
100
AcDbEntity
  8
SEIHIN
100
AcDbCircle
 10
181.1077784600468
 20
87.71002979165542
 30
0.0
 40
10.56863394596702
100
AcDbArc
 50
89.31764643480624
 51
99.01904237750235
  0
LINE
  5
3E19
330
1A
100
AcDbEntity
  8
SEIHIN
100
AcDbLine
 10
181.2336406901038
 20
99.27791626220539
 30
0.0
 11
181.2336406901038
 21
98.27791426220541
 31
0.0
  0
LINE
  5
3E1A
330
1A
100
AcDbEntity
  8
SEIHIN
100
AcDbLine
 10
178.7404306901039
 20
97.49396026220541
 30
0.0
 11
178.6567306901038
 21
97.41059626220545
 31
0.0
  0
LINE
  5
3E1B
330
1A
100
AcDbEntity
  8
SEIHIN
100
AcDbLine
 10
179.2444306901038
 20
98.06486926220543
 30
0.0
 11
178.8175606901038
 21
97.57791526220541
 31
0.0
  0
LINE
  5
3E1C
330
1A
100
AcDbEntity
  8
SEIHIN
100
AcDbLine
 10
176.9311606901037
 20
97.57791526220541
 30
0.0
 11
178.8175606901038
 21
97.57791526220541
 31
0.0
  0
LINE
  5
3E1D
330
1A
100
AcDbEntity
  8
SEIHIN
100
AcDbLine
 10
177.8925106901037
 20
97.05933226220544
 30
0.0
 11
177.5587306901038
 21
96.94006126220546
 31
0.0
  0
LINE
  5
3E1E
330
1A
100
AcDbEntity
  8
SEIHIN
100
AcDbLine
 10
179.2444306901038
 20
98.06486926220543
 30
0.0
 11
179.2444306901038
 21
98.77791526220541
 31
0.0
  0
LINE
  5
3E1F
330
1A
100
AcDbEntity
  8
SEIHIN
100
AcDbLine
 10
176.9311606901037
 20
97.57791526220541
 30
0.0
 11
176.9311606901037
 21
99.08266426220547
 31
0.0
  0
ARC
  5
3E20
330
1A
100
AcDbEntity
  8
NOKITOI
100
AcDbCircle
 10
236.9217096872862
 20
97.52791426220547
 30
0.0
 40
2.0
100
AcDbArc
 50
270.0
 51
352.7433882734795
  0
ARC
  5
3E21
330
1A
100
AcDbEntity
  8
NOKITOI
100
AcDbCircle
 10
233.9712275514443
 20
100.8779142622054
 30
0.0
 40
4.499999994700932
100
AcDbArc
 50
270.0
 51
352.7433882487971
  0
ARC
  5
3E22
330
1A
100
AcDbEntity
  8
SEIHIN
100
AcDbCircle
 10
231.316870690104
 20
104.0779162622054
 30
0.0
 40
6.749500799999999
100
AcDbArc
 50
270.0
 51
352.6426699999987
  0
ARC
  5
3E23
330
1A
100
AcDbEntity
  8
SEIHIN
100
AcDbCircle
 10
231.316870690104
 20
104.0779162622054
 30
0.0
 40
7.5
100
AcDbArc
 50
270.0
 51
352.6426699999987
  0
ARC
  5
3E24
330
1A
100
AcDbEntity
  8
SEIHIN
100
AcDbCircle
 10
238.262380690104
 20
96.17791426220543
 30
0.0
 40
3.9999999
100
AcDbArc
 50
267.6322200000021
 51
352.6426699999987
  0
ARC
  5
3E25
330
1A
100
AcDbEntity
  8
SEIHIN
100
AcDbCircle
 10
238.7019706901037
 20
95.67791626220543
 30
0.0
 40
8.100000000000001
100
AcDbArc
 50
270.0
 51
352.6426699999987
  0
ARC
  5
3E26
330
1A
100
AcDbEntity
  8
NOKITOI
100
AcDbCircle
 10
238.1107100514443
 20
96.17791426220543
 30
0.0
 40
1.499999964956768
100
AcDbArc
 50
270.0
 51
352.7433880534437
  0
ARC
  5
3E27
330
1A
100
AcDbEntity
  8
SEIHIN
100
AcDbCircle
 10
238.262380690104
 20
96.17791426220543
 30
0.0
 40
1.5
100
AcDbArc
 50
270.0
 51
352.6426699999987
  0
ARC
  5
3E28
330
1A
100
AcDbEntity
  8
SEIHIN
100
AcDbCircle
 10
231.316870690104
 20
104.0779162622054
 30
0.0
 40
5.799999899999999
100
AcDbArc
 50
270.0
 51
352.6426699999987
  0
ARC
  5
3E29
330
1A
100
AcDbEntity
  8
SEIHIN
100
AcDbCircle
 10
231.316870690104
 20
104.0779162622054
 30
0.0
 40
4.8
100
AcDbArc
 50
270.0
 51
352.6426699999987
  0
LINE
  5
3E2A
330
1A
100
AcDbEntity
  8
SEIHIN
100
AcDbLine
 10
384.9938951005037
 20
92.67791626220542
 30
0.0
 11
394.9939151005037
 21
92.17791526220542
 31
0.0
  0
LINE
  5
3E2B
330
1A
100
AcDbEntity
  8
SEIHIN
100
AcDbLine
 10
394.9939151005037
 20
92.67791626220542
 30
0.0
 11
384.9938951005037
 21
92.67791626220542
 31
0.0
  0
LINE
  5
3E2C
330
1A
100
AcDbEntity
  8
SEIHIN
100
AcDbLine
 10
394.9939151005037
 20
94.67791426220543
 30
0.0
 11
384.9938951005037
 21
94.67791426220543
 31
0.0
  0
LINE
  5
3E2D
330
1A
100
AcDbEntity
  8
SEIHIN
100
AcDbLine
 10
394.9939151005037
 20
92.67791626220542
 30
0.0
 11
404.9939051005039
 21
92.18132926220539
 31
0.0
  0
LINE
  5
3E2E
330
1A
100
AcDbEntity
  8
SEIHIN
100
AcDbLine
 10
394.9939151005037
 20
92.17791526220542
 30
0.0
 11
405.0851951005038
 21
92.17791526220542
 31
0.0
  0
DIMENSION
  5
3E2F
330
1A
100
AcDbEntity
  8
SUNPOU
100
AcDbDimension
  2
*D8
 10
306.6956913416643
 20
211.1779132622053
 30
0.0
 11
301.6956913416642
 21
229.6779082622054
 31
0.0
 70
    32
 71
     5
 42
-1.0
  3
STANDARD
100
AcDbAlignedDimension
 13
274.1561506901039
 23
248.1779032622053
 33
0.0
 14
272.7963406901039
 24
211.1779132622053
 34
0.0
 50
90.0
100
AcDbRotatedDimension
1001
ACAD
1000
DSTYLE
1002
{
1070
    41
1040
7.0
1070
    42
1040
6.0
1070
    43
1040
14.0
1070
    44
1040
3.0
1070
    73
1070
     0
1070
    74
1070
     0
1070
    77
1070
     3
1070
   140
1040
6.0
1070
   141
1040
150.0
1070
   147
1040
2.0
1070
   172
1070
     1
1070
   173
1070
     1
1070
   176
1070
   256
1070
   177
1070
   256
1070
   178
1070
   256
1070
   271
1070
     0
1070
   272
1070
     0
1070
   341
1005
6D
1070
     6
1000
OPEN
1070
     7
1000
OPEN
1070
   371
1070
    -1
1070
   372
1070
    -1
1002
}
  0
LINE
  5
3E30
330
1A
100
AcDbEntity
  8
SEIHIN
100
AcDbLine
 10
270.4869976125462
 20
217.2779790445255
 30
0.0
 11
273.1766476125462
 21
211.2779790445255
 31
0.0
  0
LINE
  5
3E31
330
1A
100
AcDbEntity
  8
SEIHIN
100
AcDbLine
 10
258.0984659143598
 20
217.0589695233696
 30
0.0
 11
261.9619259143598
 21
211.0589695233696
 31
0.0
  0
LINE
  5
3E32
330
1A
100
AcDbEntity
  8
SEIHIN
100
AcDbLine
 10
275.154760690104
 20
247.1255632622054
 30
0.0
 11
273.2956606901038
 21
211.6517332622054
 31
0.0
  0
LINE
  5
3E33
330
1A
100
AcDbEntity
  8
STOPER
100
AcDbLine
 10
273.3925306901039
 20
211.5891832622054
 30
0.0
 11
275.262100690104
 21
247.2629932622054
 31
0.0
  0
LINE
  5
3E34
330
1A
100
AcDbEntity
  8
STOPER
100
AcDbLine
 10
275.389780690104
 20
211.4844832622054
 30
0.0
 11
277.259380690104
 21
247.1583232622053
 31
0.0
  0
ARC
  5
3E35
330
1A
100
AcDbEntity
  8
STOPER
100
AcDbCircle
 10
268.0204306901039
 20
190.0301782622054
 30
0.0
 40
2.4999999
100
AcDbArc
 50
117.0190699999967
 51
325.2215900000006
  0
ARC
  5
3E36
330
1A
100
AcDbEntity
  8
STOPER
100
AcDbCircle
 10
288.736990690104
 20
208.1153332622053
 30
0.0
 40
24.9999999
100
AcDbArc
 50
182.4918999999993
 51
234.2523999999979
  0
ARC
  5
3E37
330
1A
100
AcDbEntity
  8
STOPER
100
AcDbCircle
 10
273.5473906901038
 20
187.0137892622054
 30
0.0
 40
0.9999998999999998
100
AcDbArc
 50
326.4566300000023
 51
54.25240799999873
  0
ARC
  5
3E38
330
1A
100
AcDbEntity
  8
STOPER
100
AcDbCircle
 10
273.5473906901038
 20
187.0137892622054
 30
0.0
 40
0.9999998999999998
100
AcDbArc
 50
234.2523999999979
 51
326.4566300000023
  0
ARC
  5
3E39
330
1A
100
AcDbEntity
  8
STOPER
100
AcDbCircle
 10
288.736990690104
 20
208.1153332622053
 30
0.0
 40
27.0
100
AcDbArc
 50
226.2725699999958
 51
234.2523999999979
  0
ARC
  5
3E3A
330
1A
100
AcDbEntity
  8
STOPER
100
AcDbCircle
 10
272.8932106901038
 20
211.6153432622053
 30
0.0
 40
2.4999999
100
AcDbArc
 50
270.0
 51
356.9999999999994
  0
ARC
  5
3E3B
330
1A
100
AcDbEntity
  8
STOPER
100
AcDbCircle
 10
288.736990690104
 20
208.1153332622053
 30
0.0
 40
27.0
100
AcDbArc
 50
182.4918999999993
 51
215.9680900000012
  0
LINE
  5
3E3C
330
1A
100
AcDbEntity
  8
STOPER
100
AcDbLine
 10
265.7587306901039
 20
211.1153332622054
 30
0.0
 11
272.8932106901038
 21
211.1153332622054
 31
0.0
  0
LINE
  5
3E3D
330
1A
100
AcDbEntity
  8
SEIHIN
100
AcDbLine
 10
272.7963406901039
 20
211.1779132622053
 30
0.0
 11
262.2221806901038
 21
211.1779132622053
 31
0.0
  0
ARC
  5
3E3E
330
1A
100
AcDbEntity
  8
STOPER
100
AcDbCircle
 10
267.7867606901038
 20
208.6153432622054
 30
0.0
 40
2.4999999
100
AcDbArc
 50
169.5579900000007
 51
11.53695899999897
  0
ARC
  5
3E3F
330
1A
100
AcDbEntity
  8
SEIHIN
100
AcDbCircle
 10
262.2222093385882
 20
210.6778645183505
 30
0.0
 40
0.5000487446757047
100
AcDbArc
 50
90.00328255448117
 51
172.6398988609966
  0
ARC
  5
3E40
330
1A
100
AcDbEntity
  8
STOPER
100
AcDbCircle
 10
265.7587306901039
 20
207.1153432622053
 30
0.0
 40
1.999999799999999
100
AcDbArc
 50
102.4325299999999
 51
182.4918999999993
  0
ARC
  5
3E41
330
1A
100
AcDbEntity
  8
STOPER
100
AcDbCircle
 10
265.7587306901039
 20
207.1153432622053
 30
0.0
 40
3.9999999
100
AcDbArc
 50
90.0
 51
182.4918999999993
  0
ARC
  5
3E42
330
1A
100
AcDbEntity
  8
SEIHIN
100
AcDbCircle
 10
272.7964237258502
 20
211.6778335894413
 30
0.0
 40
0.4999203341319749
100
AcDbArc
 50
269.990483288025
 51
357.0038425676193
  0
LINE
  5
3E43
330
1A
100
AcDbEntity
  8
STOPER
100
AcDbLine
 10
270.2362606901037
 20
209.1153232622054
 30
0.0
 11
272.8932106901038
 21
209.1153232622054
 31
0.0
  0
ARC
  5
3E44
330
1A
100
AcDbEntity
  8
STOPER
100
AcDbCircle
 10
272.8932106901038
 20
211.6153432622053
 30
0.0
 40
0.4999998000000002
100
AcDbArc
 50
270.0
 51
356.9999999999994
  0
ARC
  5
3E45
330
1A
100
AcDbEntity
  8
NOKITOI
100
AcDbCircle
 10
259.6364662514442
 20
241.4779142622054
 30
0.0
 40
1.700000014556298
100
AcDbArc
 50
90.0
 51
172.743388535928
  0
ARC
  5
3E46
330
1A
100
AcDbEntity
  8
NOKITOI
100
AcDbCircle
 10
259.6364662514442
 20
241.4779142622054
 30
0.0
 40
1.500000014556298
100
AcDbArc
 50
90.0
 51
172.743388535928
  0
LINE
  5
3E47
330
1A
100
AcDbEntity
  8
NOKITOI
100
AcDbLine
 10
265.4318214514444
 20
244.6779142622054
 30
0.0
 11
258.1392065514444
 21
244.6779142622054
 31
0.0
  0
LINE
  5
3E48
330
1A
100
AcDbEntity
  8
NOKITOI
100
AcDbLine
 10
263.7318214514443
 20
222.1779142622054
 30
0.0
 11
255.6906992732051
 21
222.1779142622054
 31
0.0
  0
LINE
  5
3E49
330
1A
100
AcDbEntity
  8
NOKITOI
100
AcDbLine
 10
263.7318214514443
 20
222.3779142622055
 30
0.0
 11
257.3953995514443
 21
222.3779142622055
 31
0.0
  0
LINE
  5
3E4A
330
1A
100
AcDbEntity
  8
NOKITOI
100
AcDbLine
 10
265.4318214514444
 20
220.6779142622055
 30
0.0
 11
255.9161919514445
 21
220.6779142622055
 31
0.0
  0
ARC
  5
3E4B
330
1A
100
AcDbEntity
  8
SEIHIN
100
AcDbCircle
 10
258.3587332894708
 20
216.6778827727995
 30
0.0
 40
0.5000304895645476
100
AcDbArc
 50
90.00144369307175
 51
172.6417377223672
  0
LINE
  5
3E4C
330
1A
100
AcDbEntity
  8
SEIHIN
100
AcDbLine
 10
267.5811706901038
 20
245.6779132622053
 30
0.0
 11
256.081180690104
 21
245.6779132622053
 31
0.0
  0
LINE
  5
3E4D
330
1A
100
AcDbEntity
  8
SEIHIN
100
AcDbLine
 10
256.081180690104
 20
246.6779032622054
 30
0.0
 11
267.0811606901038
 21
246.6779032622054
 31
0.0
  0
LINE
  5
3E4E
330
1A
100
AcDbEntity
  8
SEIHIN
100
AcDbLine
 10
254.0811706901038
 20
248.1779032622053
 30
0.0
 11
274.1561506901039
 21
248.1779032622053
 31
0.0
  0
LINE
  5
3E4F
330
1A
100
AcDbEntity
  8
SEIHIN
100
AcDbLine
 10
267.5811706901038
 20
219.6779032622054
 30
0.0
 11
251.2103206901037
 21
219.6779032622054
 31
0.0
  0
LINE
  5
3E50
330
1A
100
AcDbEntity
  8
SEIHIN
100
AcDbLine
 10
267.5811706901038
 20
224.6779132622053
 30
0.0
 11
257.7211606901039
 21
224.6779132622053
 31
0.0
  0
LINE
  5
3E51
330
1A
100
AcDbEntity
  8
SEIHIN
100
AcDbLine
 10
258.894760690104
 20
238.5771232622054
 30
0.0
 11
257.9697106901039
 21
224.6779132622053
 31
0.0
  0
LINE
  5
3E52
330
1A
100
AcDbEntity
  8
NOKITOI
100
AcDbLine
 10
258.1484806514445
 20
241.6673844222053
 30
0.0
 11
255.9074139514443
 21
224.0673844222054
 31
0.0
  0
ARC
  5
3E53
330
1A
100
AcDbEntity
  8
NOKITOI
100
AcDbCircle
 10
257.3953995514443
 20
223.8779142622055
 30
0.0
 40
1.500000014556298
100
AcDbArc
 50
172.743388535928
 51
270.0
  0
ARC
  5
3E54
330
1A
100
AcDbEntity
  8
SEIHIN
100
AcDbCircle
 10
257.7211606901039
 20
222.6779032622054
 30
0.0
 40
1.999999799999999
100
AcDbArc
 50
90.0
 51
180.0
  0
ARC
  5
3E55
330
1A
100
AcDbEntity
  8
NOKITOI
100
AcDbCircle
 10
255.9161919514445
 20
220.1779142622054
 30
0.0
 40
0.5000000048521179
100
AcDbArc
 50
90.0
 51
172.743388535928
  0
ARC
  5
3E56
330
1A
100
AcDbEntity
  8
NOKITOI
100
AcDbCircle
 10
255.6906992732051
 20
221.1779142622054
 30
0.0
 40
1.0
100
AcDbArc
 50
90.0
 51
172.7433882734795
  0
ARC
  5
3E57
330
1A
100
AcDbEntity
  8
SEIHIN
100
AcDbCircle
 10
255.5563468961454
 20
217.9599047793178
 30
0.0
 40
1.60346322928796
100
AcDbArc
 50
73.11144540429705
 51
96.21521156398365
  0
ARC
  5
3E58
330
1A
100
AcDbEntity
  8
SEIHIN
100
AcDbCircle
 10
251.5440461583473
 20
219.2975939223988
 30
0.0
 40
0.5059722147494159
100
AcDbArc
 50
131.2672938748892
 51
172.6829606758222
  0
ARC
  5
3E59
330
1A
100
AcDbEntity
  8
SEIHIN
100
AcDbCircle
 10
251.1782139455408
 20
216.5311281235139
 30
0.0
 40
0.4974206288224674
100
AcDbArc
 50
100.0651629244085
 51
172.4311136275567
  0
ARC
  5
3E5A
330
1A
100
AcDbEntity
  8
SEIHIN
100
AcDbCircle
 10
266.4003406559531
 20
212.4039923418651
 30
0.0
 40
15.12554857721798
100
AcDbArc
 50
163.4786135463763
 51
173.7466095803078
  0
ARC
  5
3E5B
330
1A
100
AcDbEntity
  8
SEIHIN
100
AcDbCircle
 10
256.600360690104
 20
218.6779132622053
 30
0.0
 40
0.9999998999999998
100
AcDbArc
 50
90.0
 51
172.6426699999986
  0
LINE
  5
3E5C
330
1A
100
AcDbEntity
  8
SEIHIN
100
AcDbLine
 10
253.789390690104
 20
219.5539432622054
 30
0.0
 11
255.3827506901038
 21
219.5539432622054
 31
0.0
  0
LINE
  5
3E5D
330
1A
100
AcDbEntity
  8
SEIHIN
100
AcDbLine
 10
255.7211806901038
 20
222.6779032622054
 30
0.0
 11
255.7211806901038
 21
219.6779032622054
 31
0.0
  0
LINE
  5
3E5E
330
1A
100
AcDbEntity
  8
SEIHIN
100
AcDbLine
 10
251.3647906901039
 20
214.0515532622054
 30
0.0
 11
250.8606406901039
 21
214.0515532622054
 31
0.0
  0
LINE
  5
3E5F
330
1A
100
AcDbEntity
  8
SEIHIN
100
AcDbLine
 10
250.3647706901038
 20
214.1155732622054
 30
0.0
 11
250.8606406901039
 21
214.0515532622054
 31
0.0
  0
LINE
  5
3E60
330
1A
100
AcDbEntity
  8
SEIHIN
100
AcDbLine
 10
250.8507106901038
 20
216.9056932622054
 30
0.0
 11
250.9234306901039
 21
216.9583432622054
 31
0.0
  0
LINE
  5
3E61
330
1A
100
AcDbEntity
  8
SEIHIN
100
AcDbLine
 10
252.7924006901039
 20
217.6931332622053
 30
0.0
 11
252.0644506901039
 21
217.0287532622054
 31
0.0
  0
LINE
  5
3E62
330
1A
100
AcDbEntity
  8
SEIHIN
100
AcDbLine
 10
251.1810106901039
 20
217.0287532622054
 30
0.0
 11
252.0644506901039
 21
217.0287532622054
 31
0.0
  0
LINE
  5
3E63
330
1A
100
AcDbEntity
  8
SEIHIN
100
AcDbLine
 10
253.789390690104
 20
219.5539432622054
 30
0.0
 11
252.7924006901039
 21
217.6931332622053
 31
0.0
  0
LINE
  5
3E64
330
1A
100
AcDbEntity
  8
SEIHIN
100
AcDbLine
 10
253.5811606901038
 20
242.6779132622054
 30
0.0
 11
253.5811606901038
 21
247.6778932622054
 31
0.0
  0
ARC
  5
3E65
330
1A
100
AcDbEntity
  8
NOKITOI
100
AcDbCircle
 10
258.1392065514444
 20
243.1779142622054
 30
0.0
 40
1.499999964956796
100
AcDbArc
 50
90.0
 51
172.7433880534436
  0
ARC
  5
3E66
330
1A
100
AcDbEntity
  8
SEIHIN
100
AcDbCircle
 10
256.0811651947385
 20
245.1779187575707
 30
0.0
 40
0.4999945048748511
100
AcDbArc
 50
89.9982243423987
 51
180.0017756575911
  0
ARC
  5
3E67
330
1A
100
AcDbEntity
  8
SEIHIN
100
AcDbCircle
 10
256.0861301078873
 20
246.1729438331181
 30
0.0
 40
0.5049836846479812
100
AcDbArc
 50
90.56157317373097
 51
180.5617040148258
  0
LINE
  5
3E68
330
1A
100
AcDbEntity
  8
SEIHIN
100
AcDbLine
 10
256.081180690104
 20
246.6779032622054
 30
0.0
 11
256.081180690104
 21
245.6779132622053
 31
0.0
  0
LINE
  5
3E69
330
1A
100
AcDbEntity
  8
SEIHIN
100
AcDbLine
 10
255.5907706901038
 20
246.2674732622054
 30
0.0
 11
255.6192406901038
 21
246.3631432622054
 31
0.0
  0
LINE
  5
3E6A
330
1A
100
AcDbEntity
  8
SEIHIN
100
AcDbLine
 10
255.5811706901038
 20
242.1779032622054
 30
0.0
 11
254.0811706901038
 21
242.1779032622054
 31
0.0
  0
ARC
  5
3E6B
330
1A
100
AcDbEntity
  8
SEIHIN
100
AcDbCircle
 10
254.0811706901038
 20
242.6779132622054
 30
0.0
 40
0.4999998000000002
100
AcDbArc
 50
180.0
 51
270.0
  0
LINE
  5
3E6C
330
1A
100
AcDbEntity
  8
SEIHIN
100
AcDbLine
 10
255.5811706901038
 20
246.1679932622053
 30
0.0
 11
255.5811706901038
 21
242.1779032622054
 31
0.0
  0
ARC
  5
3E6D
330
1A
100
AcDbEntity
  8
SEIHIN
100
AcDbCircle
 10
254.0811706901038
 20
247.6778932622054
 30
0.0
 40
0.4999998000000002
100
AcDbArc
 50
90.0
 51
180.0
  0
LINE
  5
3E6E
330
1A
100
AcDbEntity
  8
NOKITOI
100
AcDbLine
 10
265.4318214514444
 20
241.4779142622054
 30
0.0
 11
265.4318214514444
 21
223.8779142622055
 31
0.0
  0
LINE
  5
3E6F
330
1A
100
AcDbEntity
  8
NOKITOI
100
AcDbLine
 10
266.9318214514444
 20
243.1779142622054
 30
0.0
 11
266.9318214514444
 21
222.1779142622054
 31
0.0
  0
LINE
  5
3E70
330
1A
100
AcDbEntity
  8
NOKITOI
100
AcDbLine
 10
265.2318214514443
 20
241.4779142622054
 30
0.0
 11
265.2318214514443
 21
223.8779142622055
 31
0.0
  0
LINE
  5
3E71
330
1A
100
AcDbEntity
  8
SEIHIN
100
AcDbLine
 10
268.081180690104
 20
247.6778932622054
 30
0.0
 11
268.081180690104
 21
220.1779132622053
 31
0.0
  0
LINE
  5
3E72
330
1A
100
AcDbEntity
  8
SEIHIN
100
AcDbLine
 10
270.6060106901038
 20
217.6517332622054
 30
0.0
 11
272.1506506901039
 21
247.1255632622054
 31
0.0
  0
ARC
  5
3E73
330
1A
100
AcDbEntity
  8
NOKITOI
100
AcDbCircle
 10
265.4318214514444
 20
222.1779142622054
 30
0.0
 40
1.5
100
AcDbArc
 50
270.0
 51
0.0
  0
LINE
  5
3E74
330
1A
100
AcDbEntity
  8
SEIHIN
100
AcDbLine
 10
258.3587206901038
 20
217.1779132622053
 30
0.0
 11
270.1066906901039
 21
217.1779132622053
 31
0.0
  0
ARC
  5
3E75
330
1A
100
AcDbEntity
  8
NOKITOI
100
AcDbCircle
 10
263.7318214514443
 20
223.8779142622055
 30
0.0
 40
1.7
100
AcDbArc
 50
270.0
 51
0.0
  0
ARC
  5
3E76
330
1A
100
AcDbEntity
  8
NOKITOI
100
AcDbCircle
 10
263.7318214514443
 20
223.8779142622055
 30
0.0
 40
1.5
100
AcDbArc
 50
270.0
 51
0.0
  0
ARC
  5
3E77
330
1A
100
AcDbEntity
  8
SEIHIN
100
AcDbCircle
 10
270.1066603703861
 20
217.6779533589513
 30
0.0
 40
0.5000400976651316
100
AcDbArc
 50
270.0034741051245
 51
356.9254143804785
  0
ARC
  5
3E78
330
1A
100
AcDbEntity
  8
SEIHIN
100
AcDbCircle
 10
267.5811706901038
 20
220.1779132622053
 30
0.0
 40
0.4999998000000002
100
AcDbArc
 50
270.0
 51
0.0
  0
ARC
  5
3E79
330
1A
100
AcDbEntity
  8
SEIHIN
100
AcDbCircle
 10
267.5811735602478
 20
225.1779203927894
 30
0.0
 40
0.5000071305923325
100
AcDbArc
 50
269.9996711104093
 51
359.996891108412
  0
ARC
  5
3E7A
330
1A
100
AcDbEntity
  8
SEIHIN
100
AcDbCircle
 10
274.1561607543762
 20
247.1779141948342
 30
0.0
 40
0.9999890674218626
100
AcDbArc
 50
357.0455807353373
 51
90.00057664663621
  0
LINE
  5
3E7B
330
1A
100
AcDbEntity
  8
SEIHIN
100
AcDbLine
 10
275.1548206901038
 20
247.1263732622054
 30
0.0
 11
272.1507106901039
 21
247.1263732622054
 31
0.0
  0
ARC
  5
3E7C
330
1A
100
AcDbEntity
  8
STOPER
100
AcDbCircle
 10
274.2634906901039
 20
247.3153432622055
 30
0.0
 40
0.9999998999999998
100
AcDbArc
 50
356.9999999999994
 51
90.0
  0
ARC
  5
3E7D
330
1A
100
AcDbEntity
  8
STOPER
100
AcDbCircle
 10
274.2634906901039
 20
247.3153432622055
 30
0.0
 40
3.0
100
AcDbArc
 50
356.9999999999994
 51
90.0
  0
ARC
  5
3E7E
330
1A
100
AcDbEntity
  8
SEIHIN
100
AcDbCircle
 10
271.1520464127663
 20
247.177927812755
 30
0.0
 40
0.9999762741543932
100
AcDbArc
 50
356.9982881339391
 51
89.92641456272663
  0
LINE
  5
3E7F
330
1A
100
AcDbEntity
  8
SEIHIN
100
AcDbLine
 10
267.0811606901038
 20
246.6779032622054
 30
0.0
 11
267.0811606901038
 21
248.1779032622053
 31
0.0
  0
ARC
  5
3E80
330
1A
100
AcDbEntity
  8
NOKITOI
100
AcDbCircle
 10
265.4318214514444
 20
243.1779142622054
 30
0.0
 40
1.5
100
AcDbArc
 50
0.0
 51
90.0
  0
LINE
  5
3E81
330
1A
100
AcDbEntity
  8
SEIHIN
100
AcDbLine
 10
268.081180690104
 20
241.3778932622054
 30
0.0
 11
261.8881306901039
 21
241.3778932622054
 31
0.0
  0
ARC
  5
3E82
330
1A
100
AcDbEntity
  8
SEIHIN
100
AcDbCircle
 10
267.5686006901039
 20
245.6779132622053
 30
0.0
 40
1.999999799999999
100
AcDbArc
 50
180.0
 51
267.0000000000009
  0
ARC
  5
3E83
330
1A
100
AcDbEntity
  8
NOKITOI
100
AcDbCircle
 10
263.7318214514443
 20
241.4779142622054
 30
0.0
 40
1.7
100
AcDbArc
 50
0.0
 51
90.0
  0
ARC
  5
3E84
330
1A
100
AcDbEntity
  8
NOKITOI
100
AcDbCircle
 10
263.7318214514443
 20
241.4779142622054
 30
0.0
 40
1.5
100
AcDbArc
 50
0.0
 51
90.0
  0
LINE
  5
3E85
330
1A
100
AcDbEntity
  8
NOKITOI
100
AcDbLine
 10
263.7318214514443
 20
243.1779142622054
 30
0.0
 11
259.6364662514442
 21
243.1779142622054
 31
0.0
  0
LINE
  5
3E86
330
1A
100
AcDbEntity
  8
NOKITOI
100
AcDbLine
 10
263.7318214514443
 20
242.9779142622054
 30
0.0
 11
259.6364662514442
 21
242.9779142622054
 31
0.0
  0
ARC
  5
3E87
330
1A
100
AcDbEntity
  8
SEIHIN
100
AcDbCircle
 10
261.8881306901039
 20
238.3778932622054
 30
0.0
 40
3.0
100
AcDbArc
 50
90.0
 51
176.1923300000002
  0
LINE
  5
3E88
330
1A
100
AcDbEntity
  8
STOPER
100
AcDbLine
 10
263.4629806901039
 20
245.6779132622053
 30
0.0
 11
263.2376206901037
 21
241.3778932622054
 31
0.0
  0
LINE
  5
3E89
330
1A
100
AcDbEntity
  8
STOPER
100
AcDbLine
 10
265.4657206901038
 20
245.6779132622053
 30
0.0
 11
265.2403906901038
 21
241.3778932622054
 31
0.0
  0
ARC
  5
3E8A
330
1A
100
AcDbEntity
  8
SEIHIN
100
AcDbCircle
 10
267.5811173413587
 20
241.8779566109504
 30
0.0
 40
0.5000633515907724
100
AcDbArc
 50
270.0061125413965
 51
359.9938874585969
  0
ARC
  5
3E8B
330
1A
100
AcDbEntity
  8
SEIHIN
100
AcDbCircle
 10
267.580880370293
 20
245.1777636456403
 30
0.0
 40
0.5003003392920967
100
AcDbArc
 50
0.0159892756586237
 51
91.40644420120812
  0
LINE
  5
3E8C
330
1A
100
AcDbEntity
  8
SEIHIN
100
AcDbLine
 10
267.5811706901038
 20
246.7046932622054
 30
0.0
 11
267.7836706901039
 21
246.6918832622053
 31
0.0
  0
LINE
  5
3E8D
330
1A
100
AcDbEntity
  8
SEIHIN
100
AcDbLine
 10
267.7836706901039
 20
246.6918832622053
 30
0.0
 11
267.9533206901037
 21
246.6106732622054
 31
0.0
  0
LINE
  5
3E8E
330
1A
100
AcDbEntity
  8
SEIHIN
100
AcDbLine
 10
267.9533206901037
 20
246.6106732622054
 30
0.0
 11
268.067230690104
 21
246.4542832622054
 31
0.0
  0
LINE
  5
3E8F
330
1A
100
AcDbEntity
  8
SEIHIN
100
AcDbLine
 10
268.067230690104
 20
246.4542832622054
 30
0.0
 11
268.0811506901038
 21
246.3709732622054
 31
0.0
  0
LINE
  5
3E90
330
1A
100
AcDbEntity
  8
SEIHIN
100
AcDbLine
 10
267.5811706901038
 20
246.7046932622054
 30
0.0
 11
267.4231906901038
 21
246.6899632622054
 31
0.0
  0
LINE
  5
3E91
330
1A
100
AcDbEntity
  8
SEIHIN
100
AcDbLine
 10
267.4231906901038
 20
246.6899632622054
 30
0.0
 11
267.2548006901038
 21
246.6809332622053
 31
0.0
  0
LINE
  5
3E92
330
1A
100
AcDbEntity
  8
SEIHIN
100
AcDbLine
 10
267.2548006901038
 20
246.6809332622053
 30
0.0
 11
267.0811606901038
 21
246.6779032622054
 31
0.0
  0
LINE
  5
3E93
330
1A
100
AcDbEntity
  8
SEIHIN
100
AcDbLine
 10
267.5811706901038
 20
245.6779132622053
 30
0.0
 11
267.5811706901038
 21
246.7046932622054
 31
0.0
  0
LINE
  5
3E94
330
1A
100
AcDbEntity
  8
SEIHIN
100
AcDbLine
 10
268.0141906901039
 20
241.6279132622054
 30
0.0
 11
267.964180690104
 21
241.5565132622053
 31
0.0
  0
LINE
  5
3E95
330
1A
100
AcDbEntity
  8
SEIHIN
100
AcDbLine
 10
267.5686006901039
 20
245.6779132622053
 30
0.0
 11
267.463930690104
 21
243.6806332622053
 31
0.0
  0
ARC
  5
3E96
330
1A
100
AcDbEntity
  8
STOPER
100
AcDbCircle
 10
266.5529206901039
 20
247.3153432622055
 30
0.0
 40
3.0
100
AcDbArc
 50
90.0
 51
163.2903699999983
  0
ARC
  5
3E97
330
1A
100
AcDbEntity
  8
SEIHIN
100
AcDbCircle
 10
268.5811195631379
 20
247.6779643858038
 30
0.0
 40
0.4999388780930826
100
AcDbArc
 50
89.99528662066872
 51
180.0081511604858
  0
LINE
  5
3E98
330
1A
100
AcDbEntity
  8
STOPER
100
AcDbLine
 10
274.2634906901039
 20
248.3153332622054
 30
0.0
 11
266.5529206901039
 21
248.3153332622054
 31
0.0
  0
LINE
  5
3E99
330
1A
100
AcDbEntity
  8
STOPER
100
AcDbLine
 10
268.0117006901038
 20
250.3153432622054
 30
0.0
 11
266.5529206901039
 21
250.3153432622054
 31
0.0
  0
LINE
  5
3E9A
330
1A
100
AcDbEntity
  8
STOPER
100
AcDbLine
 10
274.2634906901039
 20
250.3153432622054
 30
0.0
 11
272.909530690104
 21
250.3153432622054
 31
0.0
  0
ARC
  5
3E9B
330
1A
100
AcDbEntity
  8
STOPER
100
AcDbCircle
 10
270.460600690104
 20
250.8146332622053
 30
0.0
 40
2.4993033
100
AcDbArc
 50
348.476069999999
 51
191.5239199999986
  0
LINE
  5
3E9C
330
1A
100
AcDbEntity
  8
SEIHIN
100
AcDbLine
 10
384.9938951005037
 20
219.6779032622054
 30
0.0
 11
394.9939151005037
 21
219.6779032622054
 31
0.0
  0
LINE
  5
3E9D
330
1A
100
AcDbEntity
  8
SEIHIN
100
AcDbLine
 10
404.9939051005039
 20
217.1779132622053
 30
0.0
 11
394.9939151005037
 21
217.6778932622054
 31
0.0
  0
LINE
  5
3E9E
330
1A
100
AcDbEntity
  8
SEIHIN
100
AcDbLine
 10
415.9938851005044
 20
444.3748551653692
 30
0.0
 11
415.9938851005044
 21
514.5529711614464
 31
0.0
  0
LINE
  5
3E9F
330
1A
100
AcDbEntity
  8
SEIHIN
100
AcDbLine
 10
384.9938951005044
 20
427.5723651653692
 30
0.0
 11
384.9938951005047
 21
534.766409165369
 31
0.0
  0
LINE
  5
3EA0
330
1A
100
AcDbEntity
  8
SEIHIN
100
AcDbLine
 10
415.9938851005044
 20
340.6387551653691
 30
0.0
 11
415.9938851005044
 21
410.7699051653693
 31
0.0
  0
LINE
  5
3EA1
330
1A
100
AcDbEntity
  8
SEIHIN
100
AcDbLine
 10
394.9938851005045
 20
353.7411651653691
 30
0.0
 11
384.9938951005044
 21
427.5723651653692
 31
0.0
  0
ARC
  5
3EA2
330
1A
100
AcDbEntity
  8
SEIHIN
100
AcDbCircle
 10
416.4918395712517
 20
341.1408205738061
 30
0.0
 40
0.4979588341012122
100
AcDbArc
 50
89.76348750690563
 51
179.7601435315004
  0
LINE
  5
3EA3
330
1A
100
AcDbEntity
  8
SEIHIN
100
AcDbLine
 10
394.9938851005045
 20
320.3783451653693
 30
0.0
 11
394.9938851005045
 21
353.7411651653691
 31
0.0
  0
LINE
  5
3EA4
330
1A
100
AcDbEntity
  8
SEIHIN
100
AcDbLine
 10
394.9938851005045
 20
323.9223651653691
 30
0.0
 11
408.9938951005044
 21
323.9223651653691
 31
0.0
  0
LINE
  5
3EA5
330
1A
100
AcDbEntity
  8
SEIHIN
100
AcDbLine
 10
394.9938851005045
 20
324.4223751653693
 30
0.0
 11
409.8599051005043
 21
324.4223751653693
 31
0.0
  0
LINE
  5
3EA6
330
1A
100
AcDbEntity
  8
SEIHIN
100
AcDbLine
 10
409.9938851005044
 20
335.4031851653691
 30
0.0
 11
394.9938851005045
 21
335.4031851653691
 31
0.0
  0
ARC
  5
3EA7
330
1A
100
AcDbEntity
  8
SEIHIN
100
AcDbCircle
 10
397.4743388687934
 20
247.8623345946131
 30
0.0
 40
76.05227424075436
100
AcDbArc
 50
84.90171484446621
 51
90.3989550796745
  0
LINE
  5
3EA8
330
1A
100
AcDbEntity
  8
SEIHIN
100
AcDbLine
 10
394.9938851005045
 20
320.378345165369
 30
0.0
 11
404.9925251005045
 21
319.8515151653692
 31
0.0
  0
LINE
  5
3EA9
330
1A
100
AcDbEntity
  8
SEIHIN
100
AcDbLine
 10
404.9938751005044
 20
320.8502151653691
 30
0.0
 11
404.9895851005044
 21
319.8598251653692
 31
0.0
  0
ARC
  5
3EAA
330
1A
100
AcDbEntity
  8
SEIHIN
100
AcDbCircle
 10
404.3107927065027
 20
322.3145907963818
 30
0.0
 40
1.301480275224675
100
AcDbArc
 50
58.34027813003062
 51
93.44064144062254
  0
LINE
  5
3EAB
330
1A
100
AcDbEntity
  8
SEIHIN
100
AcDbLine
 10
404.9939051005044
 20
320.8515051653693
 30
0.0
 11
404.9939051005044
 21
323.4223851653692
 31
0.0
  0
LINE
  5
3EAC
330
1A
100
AcDbEntity
  8
SEIHIN
100
AcDbLine
 10
409.9938851005044
 20
324.9223851653693
 30
0.0
 11
409.9938851005044
 21
337.9223751653693
 31
0.0
  0
ARC
  5
3EAD
330
1A
100
AcDbEntity
  8
SEIHIN
100
AcDbCircle
 10
408.9938951005044
 20
324.9223851653693
 30
0.0
 40
0.9999998999999998
100
AcDbArc
 50
270.0
 51
0.0
  0
ARC
  5
3EAE
330
1A
100
AcDbEntity
  8
SEIHIN
100
AcDbCircle
 10
410.4938951005044
 20
337.9223751653693
 30
0.0
 40
0.4999998000000002
100
AcDbArc
 50
90.0
 51
180.0
  0
ARC
  5
3EAF
330
1A
100
AcDbEntity
  8
SEIHIN
100
AcDbCircle
 10
420.3842458693034
 20
354.2056508459696
 30
0.0
 40
14.37464009968605
100
AcDbArc
 50
254.0125097457667
 51
262.9693870791001
  0
LINE
  5
3EB0
330
1A
100
AcDbEntity
  8
SEIHIN
100
AcDbLine
 10
416.4250751005044
 20
340.3869951653692
 30
0.0
 11
416.1881651005044
 21
340.4783151653692
 31
0.0
  0
LINE
  5
3EB1
330
1A
100
AcDbEntity
  8
SEIHIN
100
AcDbLine
 10
416.1881651005044
 20
340.4783151653692
 30
0.0
 11
416.0428751005045
 21
340.5631551653692
 31
0.0
  0
LINE
  5
3EB2
330
1A
100
AcDbEntity
  8
SEIHIN
100
AcDbLine
 10
416.0428751005045
 20
340.5631551653692
 30
0.0
 11
415.9938851005044
 21
340.6387551653691
 31
0.0
  0
LINE
  5
3EB3
330
1A
100
AcDbEntity
  8
SEIHIN
100
AcDbLine
 10
415.9938851005044
 20
352.2534951653691
 30
0.0
 11
394.9938851005045
 21
352.2534951653691
 31
0.0
  0
LINE
  5
3EB4
330
1A
100
AcDbEntity
  8
SEIHIN
100
AcDbLine
 10
416.4938951005044
 20
341.6387751653693
 30
0.0
 11
416.5346951005044
 21
341.580695165369
 31
0.0
  0
ARC
  5
3EB5
330
1A
100
AcDbEntity
  8
SEIHIN
100
AcDbCircle
 10
418.5226947697708
 20
349.813041359814
 30
0.0
 40
8.496182041589886
100
AcDbArc
 50
257.3066618396353
 51
271.1035435663477
  0
LINE
  5
3EB6
330
1A
100
AcDbEntity
  8
SEIHIN
100
AcDbLine
 10
416.5346951005044
 20
341.580695165369
 30
0.0
 11
416.6558051005044
 21
341.5245051653692
 31
0.0
  0
ARC
  5
3EB7
330
1A
100
AcDbEntity
  8
SEIHIN
100
AcDbCircle
 10
416.4922008239968
 20
355.4274541603389
 30
0.0
 40
0.4987638827257502
100
AcDbArc
 50
89.80536866586872
 51
168.4796623880566
  0
ARC
  5
3EB8
330
1A
100
AcDbEntity
  8
SEIHIN
100
AcDbCircle
 10
417.9938951005044
 20
410.7699051653693
 30
0.0
 40
1.999999799999999
100
AcDbArc
 50
95.94686000000237
 51
180.0
  0
ARC
  5
3EB9
330
1A
100
AcDbEntity
  8
SEIHIN
100
AcDbCircle
 10
417.9938951005044
 20
444.3748551653692
 30
0.0
 40
1.999999799999999
100
AcDbArc
 50
180.0
 51
264.0531299999975
  0
LINE
  5
3EBA
330
1A
100
AcDbEntity
  8
SEIHIN
100
AcDbLine
 10
409.9938851005044
 20
517.2223671653693
 30
0.0
 11
409.9938851005044
 21
530.2223661653691
 31
0.0
  0
LINE
  5
3EBB
330
1A
100
AcDbEntity
  8
SEIHIN
100
AcDbLine
 10
415.9938851005044
 20
502.8912441653694
 30
0.0
 11
384.9938951005047
 21
502.8912441653694
 31
0.0
  0
LINE
  5
3EBC
330
1A
100
AcDbEntity
  8
SEIHIN
100
AcDbLine
 10
415.9938851005044
 20
501.4035951653692
 30
0.0
 11
384.9938951005047
 21
501.4035951653692
 31
0.0
  0
LINE
  5
3EBD
330
1A
100
AcDbEntity
  8
SEIHIN
100
AcDbLine
 10
409.9938851005044
 20
518.7497811653692
 30
0.0
 11
384.9938951005047
 21
518.7497811653692
 31
0.0
  0
LINE
  5
3EBE
330
1A
100
AcDbEntity
  8
SEIHIN
100
AcDbLine
 10
384.9938951005047
 20
519.7415481653694
 30
0.0
 11
409.9938851005044
 21
519.7415481653694
 31
0.0
  0
ARC
  5
3EBF
330
1A
100
AcDbEntity
  8
SEIHIN
100
AcDbCircle
 10
416.4918548640832
 20
499.7165121267697
 30
0.0
 40
0.4979741409165612
100
AcDbArc
 50
180.2402368250492
 51
270.2347456495847
  0
ARC
  5
3EC0
330
1A
100
AcDbEntity
  8
SEIHIN
100
AcDbCircle
 10
416.89853006171
 20
513.1045107372934
 30
0.0
 40
0.5700013447233272
100
AcDbArc
 50
94.56081999470436
 51
135.2254961033387
  0
ARC
  5
3EC1
330
1A
100
AcDbEntity
  8
SEIHIN
100
AcDbCircle
 10
416.5022387131293
 20
514.0372140456712
 30
0.0
 40
0.5313063982070682
100
AcDbArc
 50
196.9028066479557
 51
269.1001925777003
  0
LINE
  5
3EC2
330
1A
100
AcDbEntity
  8
SEIHIN
100
AcDbLine
 10
418.6863251005044
 20
513.8263191653692
 30
0.0
 11
418.2448751005044
 21
513.8139441653692
 31
0.0
  0
ARC
  5
3EC3
330
1A
100
AcDbEntity
  8
SEIHIN
100
AcDbCircle
 10
418.4630297948747
 20
504.7373850268328
 30
0.0
 40
9.079180429203061
100
AcDbArc
 50
91.37683642466461
 51
100.2130832539239
  0
LINE
  5
3EC4
330
1A
100
AcDbEntity
  8
SEIHIN
100
AcDbLine
 10
416.4250751005044
 20
514.7577561653691
 30
0.0
 11
415.9938851005044
 21
514.5529711614464
 31
0.0
  0
ARC
  5
3EC5
330
1A
100
AcDbEntity
  8
SEIHIN
100
AcDbCircle
 10
420.0628855095708
 20
502.5176157848679
 30
0.0
 40
12.76928741577594
100
AcDbArc
 50
96.46642912451264
 51
106.5521242292425
  0
ARC
  5
3EC6
330
1A
100
AcDbEntity
  8
SEIHIN
100
AcDbCircle
 10
410.4938951005044
 20
517.2223671653693
 30
0.0
 40
0.4999998000000002
100
AcDbArc
 50
180.0
 51
270.0
  0
ARC
  5
3EC7
330
1A
100
AcDbEntity
  8
SEIHIN
100
AcDbCircle
 10
385.9590211850479
 20
650.776884974458
 30
0.0
 40
119.5584153254837
100
AcDbArc
 50
269.5374792165089
 51
273.524336484732
  0
LINE
  5
3EC8
330
1A
100
AcDbEntity
  8
SEIHIN
100
AcDbLine
 10
394.9925351005044
 20
535.2932271653691
 30
0.0
 11
384.9938951005047
 21
534.7664091653692
 31
0.0
  0
LINE
  5
3EC9
330
1A
100
AcDbEntity
  8
SEIHIN
100
AcDbLine
 10
408.9938951005047
 20
531.2223651653693
 30
0.0
 11
384.9938951005047
 21
531.2223651653693
 31
0.0
  0
LINE
  5
3ECA
330
1A
100
AcDbEntity
  8
SEIHIN
100
AcDbLine
 10
409.8599051005043
 20
530.7223671653693
 30
0.0
 11
384.9938951005047
 21
530.7223671653693
 31
0.0
  0
ARC
  5
3ECB
330
1A
100
AcDbEntity
  8
SEIHIN
100
AcDbCircle
 10
392.7714808512432
 20
542.1690278521572
 30
0.0
 40
10.737887453794
100
AcDbArc
 50
272.8670518305634
 51
280.8987429513372
  0
LINE
  5
3ECC
330
1A
100
AcDbEntity
  8
SEIHIN
100
AcDbLine
 10
394.9925351005044
 20
535.2932271653691
 30
0.0
 11
394.9938851005045
 21
534.2945421653693
 31
0.0
  0
LINE
  5
3ECD
330
1A
100
AcDbEntity
  8
SEIHIN
100
AcDbLine
 10
394.9938851005045
 20
531.7223661653692
 30
0.0
 11
394.9938851005045
 21
534.2932281653692
 31
0.0
  0
LINE
  5
3ECE
330
1A
100
AcDbEntity
  8
SEIHIN
100
AcDbLine
 10
394.8017351005046
 20
531.6248211653693
 30
0.0
 11
394.9938851005045
 21
531.7223661653692
 31
0.0
  0
ARC
  5
3ECF
330
1A
100
AcDbEntity
  8
SEIHIN
100
AcDbCircle
 10
408.9938951005047
 20
530.2223661653691
 30
0.0
 40
0.9999998999999998
100
AcDbArc
 50
0.0
 51
90.0
  0
DIMENSION
  5
3ED0
330
1A
100
AcDbEntity
  8
SUNPOU
100
AcDbDimension
  2
*D9
 10
705.9938951005038
 20
283.1439570376627
 30
0.0
 11
671.9939051005037
 21
288.1439570376627
 31
0.0
 70
    32
 71
     5
 42
-1.0
  3
STANDARD
100
AcDbAlignedDimension
 13
637.9939151005037
 23
248.1779032622053
 33
0.0
 14
705.9938951005038
 24
248.1779032622053
 34
0.0
100
AcDbRotatedDimension
1001
ACAD
1000
DSTYLE
1002
{
1070
    41
1040
7.0
1070
    42
1040
6.0
1070
    43
1040
14.0
1070
    44
1040
3.0
1070
    73
1070
     0
1070
    74
1070
     0
1070
    77
1070
     3
1070
   140
1040
6.0
1070
   141
1040
150.0
1070
   147
1040
2.0
1070
   172
1070
     1
1070
   173
1070
     1
1070
   176
1070
   256
1070
   177
1070
   256
1070
   178
1070
   256
1070
   271
1070
     0
1070
   272
1070
     0
1070
   341
1005
6D
1070
     6
1000
OPEN
1070
     7
1000
OPEN
1070
   371
1070
    -1
1070
   372
1070
    -1
1002
}
  0
DIMENSION
  5
3ED1
330
1A
100
AcDbEntity
  8
SUNPOU
100
AcDbDimension
  2
*D10
 10
705.9938951005038
 20
269.715586060315
 30
0.0
 11
684.9938951005036
 21
274.7155860603151
 31
0.0
 70
    32
 71
     5
 42
-1.0
  3
STANDARD
100
AcDbAlignedDimension
 13
663.9938951005035
 23
248.1779032622053
 33
0.0
 14
705.9938951005038
 24
248.1779032622053
 34
0.0
100
AcDbRotatedDimension
1001
ACAD
1000
DSTYLE
1002
{
1070
    41
1040
7.0
1070
    42
1040
6.0
1070
    43
1040
14.0
1070
    44
1040
3.0
1070
    73
1070
     0
1070
    74
1070
     0
1070
    77
1070
     3
1070
   140
1040
6.0
1070
   141
1040
150.0
1070
   147
1040
2.0
1070
   172
1070
     1
1070
   173
1070
     1
1070
   176
1070
   256
1070
   177
1070
   256
1070
   178
1070
   256
1070
   271
1070
     0
1070
   272
1070
     0
1070
   341
1005
6D
1070
     6
1000
OPEN
1070
     7
1000
OPEN
1070
   371
1070
    -1
1070
   372
1070
    -1
1002
}
  0
LINE
  5
3ED2
330
1A
100
AcDbEntity
  8
SEIHIN
  6
PHANTOM
 62
     6
 48
5.0
100
AcDbLine
 10
637.9939151005037
 20
248.1779032622053
 30
0.0
 11
705.9938951005038
 21
248.1779032622053
 31
0.0
  0
LINE
  5
3ED3
330
1A
100
AcDbEntity
  8
SEIHIN
  6
PHANTOM
 62
     6
 48
5.0
100
AcDbLine
 10
637.9939151005037
 20
218.8059532622054
 30
0.0
 11
705.9938951005038
 21
218.8059532622054
 31
0.0
  0
LINE
  5
3ED4
330
1A
100
AcDbEntity
  8
SEIHIN
  6
PHANTOM
 62
     6
 48
5.0
100
AcDbLine
 10
637.9939151005037
 20
92.67791626220542
 30
0.0
 11
705.9938951005038
 21
92.67791626220542
 31
0.0
  0
TEXT
  5
3ED5
330
1A
100
AcDbEntity
  8
SUNPOU
 48
5.0
100
AcDbText
 10
683.2491167626454
 20
286.0336365048767
 30
0.0
 40
6.0
  1
スライド巾（６８ｍｍ）
100
AcDbText
  0
TEXT
  5
3ED6
330
1A
100
AcDbEntity
  8
SUNPOU
 62
     4
100
AcDbText
 10
624.444734923536
 20
61.69321537072602
 30
0.0
 40
8.0
  1
※ のきといの差込み寸法を示す。
100
AcDbText
  0
LINE
  5
3ED9
330
1A
100
AcDbEntity
  8
SEIHIN
100
AcDbLine
 10
619.9939151005037
 20
248.1779032622053
 30
0.0
 11
619.993915100504
 21
90.17791426220544
 31
0.0
  0
LINE
  5
3EDA
330
1A
100
AcDbEntity
  8
SEIHIN
100
AcDbLine
 10
529.9939151005037
 20
87.57791626220546
 30
0.0
 11
529.9939151005037
 21
210.7416532622054
 31
0.0
  0
LINE
  5
3EDB
330
1A
100
AcDbEntity
  8
SEIHIN
100
AcDbLine
 10
546.9938951005038
 20
248.1779032622053
 30
0.0
 11
546.9938951005035
 21
89.16791626220538
 31
0.0
  0
LINE
  5
3EDC
330
1A
100
AcDbEntity
  8
SEIHIN
  6
PHANTOM
 62
     6
 48
5.0
100
AcDbLine
 10
637.9939151005037
 20
92.67791626220542
 30
0.0
 11
637.9939151005037
 21
248.1779032622053
 31
0.0
  0
LINE
  5
3EDD
330
1A
100
AcDbEntity
  8
SEIHIN
 48
5.0
100
AcDbLine
 10
643.9939151005037
 20
92.17791526220542
 30
0.0
 11
643.9939151005037
 21
248.1779032622053
 31
0.0
  0
LINE
  5
3EDE
330
1A
100
AcDbEntity
  8
SEIHIN
100
AcDbLine
 10
653.9939051005037
 20
248.1779032622053
 30
0.0
 11
653.9939051005037
 21
92.67791626220542
 31
0.0
  0
LINE
  5
3EDF
330
1A
100
AcDbEntity
  8
SEIHIN
100
AcDbLine
 10
663.9938951005038
 20
92.67791626220542
 30
0.0
 11
663.9938951005035
 21
248.1779032622053
 31
0.0
  0
LINE
  5
3EE0
330
1A
100
AcDbEntity
  8
SEIHIN
100
AcDbLine
 10
455.9939051005035
 20
248.1779032622053
 30
0.0
 11
455.993905100504
 21
87.57791626220546
 31
0.0
  0
LINE
  5
3EE1
330
1A
100
AcDbEntity
  8
SEIHIN
100
AcDbLine
 10
438.9938951005038
 20
248.1779032622053
 30
0.0
 11
438.9938951005038
 21
92.17791526220542
 31
0.0
  0
LINE
  5
3EE2
330
1A
100
AcDbEntity
  8
SEIHIN
100
AcDbLine
 10
619.9939151005037
 20
90.17791426220544
 30
0.0
 11
546.9938951005038
 21
89.17791526220538
 31
0.0
  0
LINE
  5
3EE3
330
1A
100
AcDbEntity
  8
SEIHIN
100
AcDbLine
 10
529.9939151005037
 20
87.57791626220546
 30
0.0
 11
455.9939051005037
 21
87.57791626220546
 31
0.0
  0
LINE
  5
3EE4
330
1A
100
AcDbEntity
  8
SEIHIN
100
AcDbLine
 10
438.9938951005038
 20
92.17791526220542
 30
0.0
 11
455.9939051005037
 21
87.57791626220546
 31
0.0
  0
LINE
  5
3EE5
330
1A
100
AcDbEntity
  8
SEIHIN
100
AcDbLine
 10
529.9939151005037
 20
87.57791626220546
 30
0.0
 11
546.9938951005038
 21
89.16791626220538
 31
0.0
  0
LINE
  5
3EE9
330
1A
100
AcDbEntity
  8
SEIHIN
100
AcDbLine
 10
643.902595100504
 20
92.17791526220542
 30
0.0
 11
653.9939051005037
 21
92.67791626220542
 31
0.0
  0
LINE
  5
3EEA
330
1A
100
AcDbEntity
  8
SEIHIN
100
AcDbLine
 10
653.9939051005037
 20
92.17791526220542
 30
0.0
 11
643.9939151005037
 21
92.17791526220542
 31
0.0
  0
LINE
  5
3EEB
330
1A
100
AcDbEntity
  8
SEIHIN
100
AcDbLine
 10
619.9939151005037
 20
92.17791526220542
 30
0.0
 11
643.902595100504
 21
92.17791526220542
 31
0.0
  0
LINE
  5
3EEC
330
1A
100
AcDbEntity
  8
SEIHIN
100
AcDbLine
 10
663.9938951005038
 20
92.67791626220542
 30
0.0
 11
653.9939051005037
 21
92.17791526220542
 31
0.0
  0
LINE
  5
3EED
330
1A
100
AcDbEntity
  8
SEIHIN
100
AcDbLine
 10
653.9939051005037
 20
94.67791426220543
 30
0.0
 11
663.9938951005038
 21
94.67791426220543
 31
0.0
  0
LINE
  5
3EEE
330
1A
100
AcDbEntity
  8
SEIHIN
100
AcDbLine
 10
619.9939151005037
 20
212.1779032622054
 30
0.0
 11
546.9938951005038
 21
211.1779132622053
 31
0.0
  0
LINE
  5
3EEF
330
1A
100
AcDbEntity
  8
STOPER
100
AcDbLine
 10
498.6439151005038
 20
186.0137902622054
 30
0.0
 11
498.6439151005035
 21
253.3139332622054
 31
0.0
  0
LINE
  5
3EF0
330
1A
100
AcDbEntity
  8
SEIHIN
100
AcDbLine
 10
455.9927651005039
 20
211.1783032622054
 30
0.0
 11
438.9927551005039
 21
217.1783032622054
 31
0.0
  0
LINE
  5
3EF1
330
1A
100
AcDbEntity
  8
STOPER
100
AcDbLine
 10
483.6439151005038
 20
186.0137902622054
 30
0.0
 11
483.6439151005038
 21
253.3139332622054
 31
0.0
  0
LINE
  5
3EF2
330
1A
100
AcDbEntity
  8
STOPER
100
AcDbLine
 10
483.6439151005038
 20
186.0137902622054
 30
0.0
 11
498.6439151005038
 21
186.0137902622054
 31
0.0
  0
LINE
  5
3EF3
330
1A
100
AcDbEntity
  8
STOPER
100
AcDbLine
 10
483.6439151005038
 20
206.1153232622054
 30
0.0
 11
498.6439151005038
 21
206.1153232622054
 31
0.0
  0
LINE
  5
3EF4
330
1A
100
AcDbEntity
  8
STOPER
100
AcDbLine
 10
483.6439151005038
 20
211.4844832622054
 30
0.0
 11
498.6439151005038
 21
211.4844832622054
 31
0.0
  0
LINE
  5
3EF5
330
1A
100
AcDbEntity
  8
STOPER
100
AcDbLine
 10
483.6439151005038
 20
209.1153232622054
 30
0.0
 11
498.6439151005038
 21
209.1153232622054
 31
0.0
  0
LINE
  5
3EF6
330
1A
100
AcDbEntity
  8
STOPER
100
AcDbLine
 10
483.6439151005038
 20
187.8253882622054
 30
0.0
 11
498.6439151005038
 21
187.8253882622054
 31
0.0
  0
LINE
  5
3EF7
330
1A
100
AcDbEntity
  8
STOPER
100
AcDbLine
 10
483.6439151005038
 20
186.4612222622054
 30
0.0
 11
498.6439151005038
 21
186.4612222622054
 31
0.0
  0
LINE
  5
3EF8
330
1A
100
AcDbEntity
  8
SEIHIN
100
AcDbLine
 10
483.6439151005038
 20
211.1779132622053
 30
0.0
 11
455.9939051005037
 21
211.1779132622053
 31
0.0
  0
LINE
  5
3EF9
330
1A
100
AcDbEntity
  8
SEIHIN
100
AcDbLine
 10
529.9939151005037
 20
210.7419232622054
 30
0.0
 11
498.6439151005038
 21
210.7419232622054
 31
0.0
  0
LINE
  5
3EFA
330
1A
100
AcDbEntity
  8
SEIHIN
100
AcDbLine
 10
546.9938951005038
 20
211.1779132622053
 30
0.0
 11
498.6439151005038
 21
211.1779132622053
 31
0.0
  0
LINE
  5
3EFB
330
1A
100
AcDbEntity
  8
STOPER
100
AcDbLine
 10
498.6439151005038
 20
253.3139332622054
 30
0.0
 11
483.6439151005038
 21
253.3139332622054
 31
0.0
  0
LINE
  5
3EFC
330
1A
100
AcDbEntity
  8
STOPER
100
AcDbLine
 10
483.6439151005038
 20
247.1583232622053
 30
0.0
 11
498.6439151005038
 21
247.1583232622053
 31
0.0
  0
LINE
  5
3EFD
330
1A
100
AcDbEntity
  8
STOPER
100
AcDbLine
 10
483.6439151005038
 20
250.3153432622054
 30
0.0
 11
498.6439151005038
 21
250.3153432622054
 31
0.0
  0
DIMENSION
  5
3EFE
330
1A
100
AcDbEntity
  8
SUNPOU
100
AcDbDimension
  2
*D11
 10
663.9938951005035
 20
269.715586060315
 30
0.0
 11
650.9939051005036
 21
274.7155860603151
 31
0.0
 70
    32
 71
     5
 42
-1.0
  3
STANDARD
100
AcDbAlignedDimension
 13
637.9939151005037
 23
248.1779032622053
 33
0.0
 14
663.9938951005035
 24
248.1779032622053
 34
0.0
100
AcDbRotatedDimension
1001
ACAD
1000
DSTYLE
1002
{
1070
    41
1040
7.0
1070
    42
1040
6.0
1070
    43
1040
14.0
1070
    44
1040
3.0
1070
    73
1070
     0
1070
    74
1070
     0
1070
    77
1070
     3
1070
   140
1040
6.0
1070
   141
1040
150.0
1070
   147
1040
2.0
1070
   172
1070
     1
1070
   173
1070
     1
1070
   176
1070
   256
1070
   177
1070
   256
1070
   178
1070
   256
1070
   271
1070
     0
1070
   272
1070
     0
1070
   341
1005
6D
1070
     6
1000
OPEN
1070
     7
1000
OPEN
1070
   371
1070
    -1
1070
   372
1070
    -1
1002
}
  0
LINE
  5
3EFF
330
1A
100
AcDbEntity
  8
SEIHIN
100
AcDbLine
 10
619.9939151005037
 20
248.1779032622053
 30
0.0
 11
663.9938951005035
 21
248.1779032622053
 31
0.0
  0
LINE
  5
3F00
330
1A
100
AcDbEntity
  8
SEIHIN
100
AcDbLine
 10
653.9939051005037
 20
217.6778932622054
 30
0.0
 11
643.9939151005037
 21
217.1779132622053
 31
0.0
  0
LINE
  5
3F01
330
1A
100
AcDbEntity
  8
SEIHIN
100
AcDbLine
 10
643.9939151005037
 20
217.1779132622053
 30
0.0
 11
619.9939151005037
 21
217.1779132622053
 31
0.0
  0
LINE
  5
3F02
330
1A
100
AcDbEntity
  8
SEIHIN
100
AcDbLine
 10
653.9939051005037
 20
219.6779032622054
 30
0.0
 11
663.9938951005038
 21
219.6779032622054
 31
0.0
  0
LINE
  5
3F03
330
1A
100
AcDbEntity
  8
SEIHIN
  6
PHANTOM
 62
     6
 48
5.0
100
AcDbLine
 10
705.9938951005038
 20
92.67791626220542
 30
0.0
 11
705.9938951005038
 21
248.1779032622053
 31
0.0
  0
LINE
  5
3F07
330
1A
100
AcDbEntity
  8
SEIHIN
  6
PHANTOM
 62
     6
 48
5.0
100
AcDbLine
 10
652.4938951005042
 20
319.8515151653692
 30
0.0
 11
685.9939151005046
 21
319.8515151653692
 31
0.0
  0
LINE
  5
3F08
330
1A
100
AcDbEntity
  8
SEIHIN
  6
PHANTOM
 62
     6
 48
5.0
100
AcDbLine
 10
695.9939351005045
 20
535.2932271653691
 30
0.0
 11
652.4938951005045
 21
535.2932271653693
 31
0.0
  0
LINE
  5
3F09
330
1A
100
AcDbEntity
  8
SEIHIN
100
AcDbLine
 10
632.99390517436
 20
514.5060050514383
 30
0.0
 11
632.9938949005045
 21
444.3748551653692
 31
0.0
  0
LINE
  5
3F0A
330
1A
100
AcDbEntity
  8
SEIHIN
100
AcDbLine
 10
663.9938951005044
 20
427.5723651653692
 30
0.0
 11
663.9938951005044
 21
534.7925421653693
 31
0.0
  0
LINE
  5
3F0B
330
1A
100
AcDbEntity
  8
SEIHIN
100
AcDbLine
 10
607.9938851005045
 20
440.0723751653689
 30
0.0
 11
607.9938851005045
 21
533.0927061653691
 31
0.0
  0
LINE
  5
3F0C
330
1A
100
AcDbEntity
  8
SEIHIN
100
AcDbLine
 10
440.9939051005044
 20
528.2132391653704
 30
0.0
 11
440.9939051005044
 21
327.3610707296694
 31
0.0
  0
LINE
  5
3F0D
330
1A
100
AcDbEntity
  8
SEIHIN
100
AcDbLine
 10
455.9939051005044
 20
522.6228471653692
 30
0.0
 11
455.9939051005044
 21
332.5218951653693
 31
0.0
  0
LINE
  5
3F0E
330
1A
100
AcDbEntity
  8
SEIHIN
100
AcDbLine
 10
485.9939051005044
 20
516.632348165369
 30
0.0
 11
485.9939051005044
 21
338.5123851653689
 31
0.0
  0
LINE
  5
3F0F
330
1A
100
AcDbEntity
  8
SEIHIN
100
AcDbLine
 10
481.9938851005044
 20
329.3811651653692
 30
0.0
 11
481.9938851005044
 21
528.7098141653692
 31
0.0
  0
LINE
  5
3F10
330
1A
100
AcDbEntity
  8
SEIHIN
100
AcDbLine
 10
575.9939051005044
 20
518.2290951653634
 30
0.0
 11
575.9939051005044
 21
335.4908887667471
 31
0.0
  0
LINE
  5
3F11
330
1A
100
AcDbEntity
  8
SEIHIN
100
AcDbLine
 10
502.0938851005046
 20
324.883205165369
 30
0.0
 11
570.4938851005045
 21
324.883205165369
 31
0.0
  0
LINE
  5
3F12
330
1A
100
AcDbEntity
  8
SEIHIN
100
AcDbLine
 10
502.0938851005046
 20
326.3811651653692
 30
0.0
 11
570.4938851005045
 21
326.3811651653692
 31
0.0
  0
LINE
  5
3F13
330
1A
100
AcDbEntity
  8
SEIHIN
100
AcDbLine
 10
485.9939051005044
 20
338.5123851653692
 30
0.0
 11
575.4897851005043
 21
338.5123851653692
 31
0.0
  0
LINE
  5
3F14
330
1A
100
AcDbEntity
  8
SEIHIN
100
AcDbLine
 10
485.9939051005044
 20
345.4072851653692
 30
0.0
 11
575.4938951005044
 21
345.4072851653692
 31
0.0
  0
LINE
  5
3F15
330
1A
100
AcDbEntity
  8
SEIHIN
100
AcDbLine
 10
546.9938951005044
 20
316.8474051653692
 30
0.0
 11
619.9938851005044
 21
317.8487751653691
 31
0.0
  0
LINE
  5
3F16
330
1A
100
AcDbEntity
  8
STOPER
100
AcDbLine
 10
483.6438851005046
 20
319.0436451653691
 30
0.0
 11
498.6438851005045
 21
319.0436451653691
 31
0.0
  0
LINE
  5
3F17
330
1A
100
AcDbEntity
  8
STOPER
100
AcDbLine
 10
498.6438851005045
 20
324.0422451653693
 30
0.0
 11
483.6438851005046
 21
324.0422451653693
 31
0.0
  0
LINE
  5
3F18
330
1A
100
AcDbEntity
  8
STOPER
100
AcDbLine
 10
483.6438851005046
 20
314.7400551653692
 30
0.0
 11
498.6438851005045
 21
314.7400551653692
 31
0.0
  0
LINE
  5
3F19
330
1A
100
AcDbEntity
  8
STOPER
100
AcDbLine
 10
498.6438851005045
 20
329.4753351653692
 30
0.0
 11
483.6438851005046
 21
329.4753351653692
 31
0.0
  0
LINE
  5
3F1A
330
1A
100
AcDbEntity
  8
STOPER
100
AcDbLine
 10
483.6438851005046
 20
317.7400551653692
 30
0.0
 11
498.6438851005045
 21
317.7400551653692
 31
0.0
  0
LINE
  5
3F1B
330
1A
100
AcDbEntity
  8
STOPER
100
AcDbLine
 10
483.6438851005046
 20
325.4506251653691
 30
0.0
 11
498.6438851005045
 21
325.4506251653691
 31
0.0
  0
LINE
  5
3F1C
330
1A
100
AcDbEntity
  8
STOPER
100
AcDbLine
 10
483.6438851005046
 20
328.446515165369
 30
0.0
 11
498.6438851005045
 21
328.446515165369
 31
0.0
  0
LINE
  5
3F1D
330
1A
100
AcDbEntity
  8
STOPER
100
AcDbLine
 10
498.6438851005045
 20
329.4739551653691
 30
0.0
 11
483.6438851005046
 21
329.4739551653691
 31
0.0
  0
LINE
  5
3F1E
330
1A
100
AcDbEntity
  8
SEIHIN
100
AcDbLine
 10
455.9939051005044
 20
332.4189345412104
 30
0.0
 11
454.5022151005043
 21
326.4349251653692
 31
0.0
  0
LINE
  5
3F1F
330
1A
100
AcDbEntity
  8
SEIHIN
100
AcDbLine
 10
438.9937751005045
 20
319.8515151653692
 30
0.0
 11
455.9937851005044
 21
316.8474051653692
 31
0.0
  0
LINE
  5
3F20
330
1A
100
AcDbEntity
  8
SEIHIN
100
AcDbLine
 10
441.9938951005044
 20
326.3811651653692
 30
0.0
 11
480.1938851005045
 21
326.3811651653692
 31
0.0
  0
LINE
  5
3F21
330
1A
100
AcDbEntity
  8
SEIHIN
100
AcDbLine
 10
455.7978551005044
 20
331.6314651653691
 30
0.0
 11
440.9939051005044
 21
334.9958451653691
 31
0.0
  0
LINE
  5
3F22
330
1A
100
AcDbEntity
  8
SEIHIN
100
AcDbLine
 10
435.8591051005046
 20
338.4223851653692
 30
0.0
 11
423.9839051005044
 21
339.2111451653692
 31
0.0
  0
ARC
  5
3F23
330
1A
100
AcDbEntity
  8
SEIHIN
100
AcDbCircle
 10
441.9934821481968
 20
327.3809395773509
 30
0.0
 40
0.9997744972652588
100
AcDbArc
 50
181.1387329645274
 51
270.0236657617336
  0
ARC
  5
3F24
330
1A
100
AcDbEntity
  8
SEIHIN
100
AcDbCircle
 10
440.4938951005044
 20
337.9223751653693
 30
0.0
 40
0.4999998000000002
100
AcDbArc
 50
0.0
 51
90.0
  0
LINE
  5
3F25
330
1A
100
AcDbEntity
  8
STOPER
100
AcDbLine
 10
483.6438851005046
 20
314.7400551653692
 30
0.0
 11
483.6438851005046
 21
329.4739551653693
 31
0.0
  0
LINE
  5
3F26
330
1A
100
AcDbEntity
  8
SEIHIN
100
AcDbLine
 10
455.9937851005044
 20
316.8474051653692
 30
0.0
 11
483.6438851005046
 21
316.8474051653692
 31
0.0
  0
LINE
  5
3F27
330
1A
100
AcDbEntity
  8
SEIHIN
100
AcDbLine
 10
481.9938851005044
 20
331.6177851653693
 30
0.0
 11
455.7941951005045
 21
331.6177851653693
 31
0.0
  0
LINE
  5
3F28
330
1A
100
AcDbEntity
  8
SEIHIN
100
AcDbLine
 10
483.4884551005045
 20
329.1380151653692
 30
0.0
 11
483.4884551005045
 21
334.3336851653692
 31
0.0
  0
ARC
  5
3F29
330
1A
100
AcDbEntity
  8
SEIHIN
100
AcDbCircle
 10
483.7933374193619
 20
326.6807963950508
 30
0.0
 40
0.299452323239695
100
AcDbArc
 50
180.0098020430047
 51
240.0604830018431
  0
LINE
  5
3F2A
330
1A
100
AcDbEntity
  8
SEIHIN
100
AcDbLine
 10
483.4938851005045
 20
326.2248651653691
 30
0.0
 11
483.5830451005044
 21
325.6545051653692
 31
0.0
  0
LINE
  5
3F2B
330
1A
100
AcDbEntity
  8
SEIHIN
100
AcDbLine
 10
483.5830451005044
 20
325.6545051653692
 30
0.0
 11
483.6438851005046
 21
325.4318451653692
 31
0.0
  0
LINE
  5
3F2C
330
1A
100
AcDbEntity
  8
SEIHIN
100
AcDbLine
 10
480.7938851005044
 20
329.3811651653692
 30
0.0
 11
483.1938851005045
 21
329.3811651653692
 31
0.0
  0
ARC
  5
3F2D
330
1A
100
AcDbEntity
  8
SEIHIN
100
AcDbCircle
 10
483.1938851005043
 20
329.081165165369
 30
0.0
 40
0.3
100
AcDbArc
 50
0.0
 51
90.0
  0
LINE
  5
3F2E
330
1A
100
AcDbEntity
  8
SEIHIN
100
AcDbLine
 10
480.4938851005042
 20
326.6807451653695
 30
0.0
 11
480.4938851005045
 21
329.081165165369
 31
0.0
  0
LINE
  5
3F2F
330
1A
100
AcDbEntity
  8
SEIHIN
100
AcDbLine
 10
483.4938851005045
 20
329.081165165369
 30
0.0
 11
483.4938851005045
 21
326.2248651653691
 31
0.0
  0
ARC
  5
3F30
330
1A
100
AcDbEntity
  8
SEIHIN
100
AcDbCircle
 10
485.9998963878265
 20
334.5063642042836
 30
0.0
 40
4.00602544127979
100
AcDbArc
 50
90.08568982159459
 51
180.1523069968454
  0
LINE
  5
3F31
330
1A
100
AcDbEntity
  8
SEIHIN
100
AcDbLine
 10
482.4938951005044
 20
334.3755351653693
 30
0.0
 11
481.9938851005044
 21
334.3987499153689
 31
0.0
  0
LINE
  5
3F32
330
1A
100
AcDbEntity
  8
SEIHIN
100
AcDbLine
 10
483.9884351005044
 20
334.3665951653691
 30
0.0
 11
482.9939051005044
 21
334.3665951653691
 31
0.0
  0
LINE
  5
3F33
330
1A
100
AcDbEntity
  8
SEIHIN
100
AcDbLine
 10
455.9939051005044
 20
347.7476751653692
 30
0.0
 11
440.9939051005044
 21
351.7233951653691
 31
0.0
  0
LINE
  5
3F34
330
1A
100
AcDbEntity
  8
SEIHIN
100
AcDbLine
 10
455.9939051005044
 20
353.3015751653694
 30
0.0
 11
440.9939051005044
 21
353.6894451653691
 31
0.0
  0
LINE
  5
3F35
330
1A
100
AcDbEntity
  8
SEIHIN
100
AcDbLine
 10
481.9938851005044
 20
347.7476751653692
 30
0.0
 11
455.9939051005044
 21
347.7476751653692
 31
0.0
  0
LINE
  5
3F36
330
1A
100
AcDbEntity
  8
SEIHIN
100
AcDbLine
 10
481.9938851005044
 20
353.3015751653694
 30
0.0
 11
455.9939051005044
 21
353.3015751653694
 31
0.0
  0
ARC
  5
3F37
330
1A
100
AcDbEntity
  8
SEIHIN
100
AcDbCircle
 10
485.9748216544726
 20
341.425942358136
 30
0.0
 40
3.981388542533875
100
AcDbArc
 50
89.72537091237333
 51
178.8008219488654
  0
LINE
  5
3F38
330
1A
100
AcDbEntity
  8
SEIHIN
100
AcDbLine
 10
498.6438851005045
 20
316.8474051653692
 30
0.0
 11
546.9938951005044
 21
316.8474051653692
 31
0.0
  0
LINE
  5
3F39
330
1A
100
AcDbEntity
  8
STOPER
100
AcDbLine
 10
498.6438851005045
 20
314.7400551653692
 30
0.0
 11
498.6438851005045
 21
329.4739551653691
 31
0.0
  0
LINE
  5
3F3A
330
1A
100
AcDbEntity
  8
SEIHIN
100
AcDbLine
 10
500.2831451005045
 20
329.3811651653692
 30
0.0
 11
500.2831451005045
 21
334.3340751653692
 31
0.0
  0
LINE
  5
3F3B
330
1A
100
AcDbEntity
  8
SEIHIN
100
AcDbLine
 10
498.7993151005043
 20
334.3336851653692
 30
0.0
 11
498.7993151005043
 21
329.1380151653692
 31
0.0
  0
ARC
  5
3F3C
330
1A
100
AcDbEntity
  8
SEIHIN
100
AcDbCircle
 10
502.0936873340226
 20
326.6809674160382
 30
0.0
 40
0.2998023158980595
100
AcDbArc
 50
180.0424747435683
 51
270.0377955237907
  0
LINE
  5
3F3D
330
1A
100
AcDbEntity
  8
SEIHIN
100
AcDbLine
 10
501.7938851005044
 20
326.2248651653691
 30
0.0
 11
501.8830451005044
 21
325.6545051653692
 31
0.0
  0
LINE
  5
3F3E
330
1A
100
AcDbEntity
  8
SEIHIN
100
AcDbLine
 10
501.8830451005044
 20
325.6545051653692
 30
0.0
 11
502.0917551005045
 21
324.8907351653691
 31
0.0
  0
LINE
  5
3F3F
330
1A
100
AcDbEntity
  8
SEIHIN
100
AcDbLine
 10
498.6438851005045
 20
325.4318451653692
 30
0.0
 11
498.7047251005044
 21
325.6545051653692
 31
0.0
  0
LINE
  5
3F40
330
1A
100
AcDbEntity
  8
SEIHIN
100
AcDbLine
 10
498.7047251005044
 20
325.6545051653692
 30
0.0
 11
498.7938851005044
 21
326.2248651653691
 31
0.0
  0
LINE
  5
3F41
330
1A
100
AcDbEntity
  8
SEIHIN
100
AcDbLine
 10
499.0938851005046
 20
329.3811651653692
 30
0.0
 11
501.4938851005044
 21
329.3811651653692
 31
0.0
  0
ARC
  5
3F42
330
1A
100
AcDbEntity
  8
SEIHIN
100
AcDbCircle
 10
501.4938851005044
 20
329.081165165369
 30
0.0
 40
0.3
100
AcDbArc
 50
0.0
 51
90.0
  0
ARC
  5
3F43
330
1A
100
AcDbEntity
  8
SEIHIN
100
AcDbCircle
 10
499.0938851005044
 20
329.081165165369
 30
0.0
 40
0.3
100
AcDbArc
 50
90.0
 51
180.0
  0
LINE
  5
3F44
330
1A
100
AcDbEntity
  8
SEIHIN
100
AcDbLine
 10
502.0938851005046
 20
326.3811651653692
 30
0.0
 11
502.0938851005046
 21
324.883205165369
 31
0.0
  0
LINE
  5
3F45
330
1A
100
AcDbEntity
  8
SEIHIN
100
AcDbLine
 10
501.7938851005044
 20
329.081165165369
 30
0.0
 11
501.7938851005044
 21
326.2248651653691
 31
0.0
  0
LINE
  5
3F46
330
1A
100
AcDbEntity
  8
SEIHIN
100
AcDbLine
 10
498.7938851005044
 20
326.2248651653691
 30
0.0
 11
498.7938851005044
 21
329.081165165369
 31
0.0
  0
LINE
  5
3F47
330
1A
100
AcDbEntity
  8
SEIHIN
100
AcDbLine
 10
500.7830051005046
 20
334.3665951653691
 30
0.0
 11
498.2993651005044
 21
334.3665951653691
 31
0.0
  0
LINE
  5
3F48
330
1A
100
AcDbEntity
  8
SEIHIN
100
AcDbLine
 10
438.4938851005045
 20
415.6981251653693
 30
0.0
 11
438.4938851005045
 21
439.4466351653692
 31
0.0
  0
ARC
  5
3F49
330
1A
100
AcDbEntity
  8
SEIHIN
100
AcDbCircle
 10
432.2203962258818
 20
436.6836260834324
 30
0.0
 40
21.88514698661349
100
AcDbArc
 50
279.0329693289117
 51
287.4402173690011
  0
LINE
  5
3F4A
330
1A
100
AcDbEntity
  8
SEIHIN
100
AcDbLine
 10
439.9419551005044
 20
416.0723751653692
 30
0.0
 11
440.9939051005044
 21
416.0723751653692
 31
0.0
  0
LINE
  5
3F4B
330
1A
100
AcDbEntity
  8
SEIHIN
100
AcDbLine
 10
438.7796051005046
 20
415.8045351653692
 30
0.0
 11
438.9938951005044
 21
415.9736151653693
 31
0.0
  0
LINE
  5
3F4C
330
1A
100
AcDbEntity
  8
SEIHIN
100
AcDbLine
 10
438.9938951005044
 20
415.9736151653693
 30
0.0
 11
439.9419551005044
 21
416.0723751653692
 31
0.0
  0
ARC
  5
3F4D
330
1A
100
AcDbEntity
  8
SEIHIN
100
AcDbCircle
 10
432.2203962258834
 20
418.4611342473127
 30
0.0
 40
21.88514698660668
100
AcDbArc
 50
72.55978263099253
 51
80.96703067108819
  0
LINE
  5
3F4E
330
1A
100
AcDbEntity
  8
SEIHIN
100
AcDbLine
 10
440.9939051005044
 20
439.0723851653693
 30
0.0
 11
439.9419551005044
 21
439.0723851653693
 31
0.0
  0
LINE
  5
3F4F
330
1A
100
AcDbEntity
  8
SEIHIN
100
AcDbLine
 10
439.9419551005044
 20
439.0723851653693
 30
0.0
 11
438.9938951005047
 21
439.1711451653692
 31
0.0
  0
LINE
  5
3F50
330
1A
100
AcDbEntity
  8
SEIHIN
100
AcDbLine
 10
438.9938951005047
 20
439.1711451653692
 30
0.0
 11
438.7796051005046
 21
439.3402251653693
 31
0.0
  0
LINE
  5
3F51
330
1A
100
AcDbEntity
  8
SEIHIN
100
AcDbLine
 10
632.9939051005044
 20
410.7699051653693
 30
0.0
 11
632.9939051005044
 21
340.6387551653689
 31
0.0
  0
LINE
  5
3F52
330
1A
100
AcDbEntity
  8
SEIHIN
100
AcDbLine
 10
653.9939051005044
 20
353.7411651653691
 30
0.0
 11
663.9938951005044
 21
427.5723651653692
 31
0.0
  0
LINE
  5
3F53
330
1A
100
AcDbEntity
  8
SEIHIN
100
AcDbLine
 10
607.9938851005045
 20
336.890855165369
 30
0.0
 11
607.9938851005045
 21
415.0723851653693
 31
0.0
  0
ARC
  5
3F54
330
1A
100
AcDbEntity
  8
SEIHIN
100
AcDbCircle
 10
610.7221712873736
 20
464.4418226653705
 30
0.0
 40
126.042413244707
100
AcDbArc
 50
271.0940084368206
 51
278.9647547114125
  0
LINE
  5
3F55
330
1A
100
AcDbEntity
  8
SEIHIN
100
AcDbLine
 10
610.4938951005042
 20
319.8515151653692
 30
0.0
 11
643.9939151005046
 21
319.8515151653692
 31
0.0
  0
LINE
  5
3F56
330
1A
100
AcDbEntity
  8
SEIHIN
100
AcDbLine
 10
619.9938851005044
 20
319.2970551653692
 30
0.0
 11
571.4939051005044
 21
319.2970551653692
 31
0.0
  0
LINE
  5
3F57
330
1A
100
AcDbEntity
  8
SEIHIN
100
AcDbLine
 10
610.4939051005044
 20
338.4223851653692
 30
0.0
 11
638.4938951005044
 21
338.4223851653692
 31
0.0
  0
LINE
  5
3F58
330
1A
100
AcDbEntity
  8
SEIHIN
100
AcDbLine
 10
630.3629651005044
 20
340.8225351653692
 30
0.0
 11
608.9939051005044
 21
340.4804751653693
 31
0.0
  0
LINE
  5
3F59
330
1A
100
AcDbEntity
  8
SEIHIN
100
AcDbLine
 10
632.4938951005044
 20
355.9262151653691
 30
0.0
 11
607.9938851005045
 21
355.9262151653691
 31
0.0
  0
LINE
  5
3F5A
330
1A
100
AcDbEntity
  8
SEIHIN
100
AcDbLine
 10
632.9939051005044
 20
360.6866751653691
 30
0.0
 11
607.9938851005045
 21
360.6866751653691
 31
0.0
  0
LINE
  5
3F5B
330
1A
100
AcDbEntity
  8
SEIHIN
100
AcDbLine
 10
570.5676251005045
 20
320.0520351653691
 30
0.0
 11
609.4938851005045
 21
320.0520351653691
 31
0.0
  0
LINE
  5
3F5C
330
1A
100
AcDbEntity
  8
SEIHIN
100
AcDbLine
 10
570.4938851005045
 20
323.9223651653691
 30
0.0
 11
609.6202451005044
 21
323.9223651653691
 31
0.0
  0
LINE
  5
3F5D
330
1A
100
AcDbEntity
  8
SEIHIN
100
AcDbLine
 10
607.4939051005044
 20
335.4031851653693
 30
0.0
 11
576.4938851005044
 21
335.4031851653691
 31
0.0
  0
LINE
  5
3F5E
330
1A
100
AcDbEntity
  8
SEIHIN
100
AcDbLine
 10
609.9938951005044
 20
323.6223651653691
 30
0.0
 11
570.4938851005045
 21
323.6223651653691
 31
0.0
  0
LINE
  5
3F5F
330
1A
100
AcDbEntity
  8
SEIHIN
100
AcDbLine
 10
570.4938851005045
 20
322.0520451653693
 30
0.0
 11
609.9938951005044
 21
322.0520451653693
 31
0.0
  0
LINE
  5
3F60
330
1A
100
AcDbEntity
  8
SEIHIN
100
AcDbLine
 10
570.4938851005045
 20
324.4223751653693
 30
0.0
 11
605.0025551005046
 21
324.4223751653693
 31
0.0
  0
LINE
  5
3F61
330
1A
100
AcDbEntity
  8
SEIHIN
100
AcDbLine
 10
570.4938851005045
 20
326.3811651653692
 30
0.0
 11
570.5073851005045
 21
320.2654251653692
 31
0.0
  0
ARC
  5
3F62
330
1A
100
AcDbEntity
  8
SEIHIN
100
AcDbCircle
 10
571.4867501254893
 20
320.2764561770671
 30
0.0
 40
0.9794271465418676
100
AcDbArc
 50
180.6453198475216
 51
270.4185645851227
  0
ARC
  5
3F63
330
1A
100
AcDbEntity
  8
SEIHIN
100
AcDbCircle
 10
575.4739847630103
 20
337.9928147667525
 30
0.0
 40
0.5198105902957547
100
AcDbArc
 50
3.219185890001555
 51
88.2581499227021
  0
LINE
  5
3F64
330
1A
100
AcDbEntity
  8
SEIHIN
100
AcDbLine
 10
576.4938851005044
 20
335.4031851653691
 30
0.0
 11
576.2334251005045
 21
335.4261651653692
 31
0.0
  0
LINE
  5
3F65
330
1A
100
AcDbEntity
  8
SEIHIN
100
AcDbLine
 10
576.2334251005045
 20
335.4261651653692
 30
0.0
 11
575.9939051005044
 21
335.4908887667471
 31
0.0
  0
LINE
  5
3F66
330
1A
100
AcDbEntity
  8
SEIHIN
100
AcDbLine
 10
609.9938951005042
 20
320.3515151653693
 30
0.0
 11
609.9938951005044
 21
337.9223751653693
 31
0.0
  0
LINE
  5
3F67
330
1A
100
AcDbEntity
  8
SEIHIN
100
AcDbLine
 10
607.4939051005044
 20
335.4031851653691
 30
0.0
 11
607.4939051005044
 21
323.9223651653691
 31
0.0
  0
LINE
  5
3F68
330
1A
100
AcDbEntity
  8
SEIHIN
100
AcDbLine
 10
605.0025551005046
 20
323.9223651653691
 30
0.0
 11
605.0025551005046
 21
335.4031851653691
 31
0.0
  0
ARC
  5
3F69
330
1A
100
AcDbEntity
  8
SEIHIN
100
AcDbCircle
 10
610.4938951005042
 20
320.3515151653693
 30
0.0
 40
0.5
100
AcDbArc
 50
179.9999999999996
 51
270.0
  0
ARC
  5
3F6A
330
1A
100
AcDbEntity
  8
SEIHIN
100
AcDbCircle
 10
609.4894142228436
 20
320.5739116582587
 30
0.0
 40
0.519615562379646
100
AcDbArc
 50
270.7874187401288
 51
346.1374524308307
  0
LINE
  5
3F6B
330
1A
100
AcDbEntity
  8
SEIHIN
100
AcDbLine
 10
609.6202451005044
 20
323.9223651653691
 30
0.0
 11
609.8415251005044
 21
323.9580351653693
 31
0.0
  0
LINE
  5
3F6C
330
1A
100
AcDbEntity
  8
SEIHIN
100
AcDbLine
 10
609.8415251005044
 20
323.9580351653693
 30
0.0
 11
609.9272051005045
 21
324.0133551653692
 31
0.0
  0
LINE
  5
3F6D
330
1A
100
AcDbEntity
  8
SEIHIN
100
AcDbLine
 10
609.9272051005045
 20
324.0133551653692
 30
0.0
 11
609.9806351005045
 21
324.1053951653692
 31
0.0
  0
LINE
  5
3F6E
330
1A
100
AcDbEntity
  8
SEIHIN
100
AcDbLine
 10
609.9806351005045
 20
324.1053951653692
 30
0.0
 11
609.9938951005044
 21
324.2036751653691
 31
0.0
  0
LINE
  5
3F6F
330
1A
100
AcDbEntity
  8
SEIHIN
100
AcDbLine
 10
607.4939051005044
 20
324.4223751653693
 30
0.0
 11
609.9938951005044
 21
324.4223751653693
 31
0.0
  0
ARC
  5
3F70
330
1A
100
AcDbEntity
  8
SEIHIN
100
AcDbCircle
 10
606.1495261402249
 20
336.68403445513
 30
0.0
 40
1.855918850744028
100
AcDbArc
 50
316.5795749001184
 51
6.398242243795189
  0
LINE
  5
3F71
330
1A
100
AcDbEntity
  8
SEIHIN
100
AcDbLine
 10
608.9939051005044
 20
335.4031851653691
 30
0.0
 11
609.1653851005044
 21
335.6082951653692
 31
0.0
  0
LINE
  5
3F72
330
1A
100
AcDbEntity
  8
SEIHIN
100
AcDbLine
 10
609.1653851005044
 20
335.6082951653692
 30
0.0
 11
609.6725651005044
 21
335.8046751653692
 31
0.0
  0
LINE
  5
3F73
330
1A
100
AcDbEntity
  8
SEIHIN
100
AcDbLine
 10
609.6725651005044
 20
335.8046751653692
 30
0.0
 11
609.9938951005044
 21
335.8854651653692
 31
0.0
  0
LINE
  5
3F74
330
1A
100
AcDbEntity
  8
SEIHIN
100
AcDbLine
 10
609.9938951005044
 20
335.4031851653691
 30
0.0
 11
608.9939051005044
 21
335.4031851653691
 31
0.0
  0
LINE
  5
3F75
330
1A
100
AcDbEntity
  8
SEIHIN
100
AcDbLine
 10
608.9939051005044
 20
340.4804751653693
 30
0.0
 11
608.9288051005046
 21
340.5685851653692
 31
0.0
  0
LINE
  5
3F76
330
1A
100
AcDbEntity
  8
SEIHIN
100
AcDbLine
 10
608.9288051005046
 20
340.5685851653692
 30
0.0
 11
608.7356951005045
 21
340.6518051653691
 31
0.0
  0
LINE
  5
3F77
330
1A
100
AcDbEntity
  8
SEIHIN
100
AcDbLine
 10
608.7356951005045
 20
340.6518051653691
 30
0.0
 11
608.4206951005044
 21
340.727495165369
 31
0.0
  0
LINE
  5
3F78
330
1A
100
AcDbEntity
  8
SEIHIN
100
AcDbLine
 10
608.4206951005044
 20
340.727495165369
 30
0.0
 11
607.9938851005045
 21
340.7932251653693
 31
0.0
  0
ARC
  5
3F79
330
1A
100
AcDbEntity
  8
SEIHIN
100
AcDbCircle
 10
610.4939051005044
 20
337.9223751653693
 30
0.0
 40
0.4999998000000002
100
AcDbArc
 50
90.0
 51
180.0
  0
LINE
  5
3F7A
330
1A
100
AcDbEntity
  8
SEIHIN
100
AcDbLine
 10
608.9939051005044
 20
340.4804751653693
 30
0.0
 11
608.9939051005044
 21
335.4031851653691
 31
0.0
  0
LINE
  5
3F7B
330
1A
100
AcDbEntity
  8
SEIHIN
100
AcDbLine
 10
576.4938851005044
 20
352.2534951653691
 30
0.0
 11
607.4939051005044
 21
352.2534951653691
 31
0.0
  0
LINE
  5
3F7C
330
1A
100
AcDbEntity
  8
SEIHIN
100
AcDbLine
 10
575.9939051005044
 20
353.7411651653693
 30
0.0
 11
607.4939051005044
 21
353.7411651653691
 31
0.0
  0
ARC
  5
3F7D
330
1A
100
AcDbEntity
  8
SEIHIN
100
AcDbCircle
 10
575.4962517213376
 20
344.9095179511926
 30
0.0
 40
0.4977727927185302
100
AcDbArc
 50
2.667609193708675
 51
90.27125816042879
  0
ARC
  5
3F7E
330
1A
100
AcDbEntity
  8
SEIHIN
100
AcDbCircle
 10
576.491859448276
 20
352.7514496311865
 30
0.0
 40
0.4979585859232384
100
AcDbArc
 50
180.2363902496434
 51
270.2330748918027
  0
LINE
  5
3F7F
330
1A
100
AcDbEntity
  8
SEIHIN
100
AcDbLine
 10
653.9939051005044
 20
320.352215165369
 30
0.0
 11
653.9939051005044
 21
353.7411651653693
 31
0.0
  0
LINE
  5
3F80
330
1A
100
AcDbEntity
  8
SEIHIN
100
AcDbLine
 10
643.9939151005046
 20
319.8515151653692
 30
0.0
 11
653.9939051005044
 21
320.352215165369
 31
0.0
  0
LINE
  5
3F81
330
1A
100
AcDbEntity
  8
SEIHIN
100
AcDbLine
 10
639.9938951005045
 20
323.9223651653691
 30
0.0
 11
653.9939051005044
 21
323.9223651653691
 31
0.0
  0
LINE
  5
3F82
330
1A
100
AcDbEntity
  8
SEIHIN
100
AcDbLine
 10
639.1278551005045
 20
324.4223751653693
 30
0.0
 11
653.9939051005044
 21
324.4223751653693
 31
0.0
  0
LINE
  5
3F83
330
1A
100
AcDbEntity
  8
SEIHIN
100
AcDbLine
 10
653.9939051005044
 20
335.4031851653691
 30
0.0
 11
638.9939051005044
 21
335.4031851653691
 31
0.0
  0
LINE
  5
3F84
330
1A
100
AcDbEntity
  8
SEIHIN
100
AcDbLine
 10
619.9938851005044
 20
318.8488551653691
 30
0.0
 11
619.9938851005044
 21
317.8501551653693
 31
0.0
  0
ARC
  5
3F85
330
1A
100
AcDbEntity
  8
SEIHIN
100
AcDbCircle
 10
632.3971231068201
 20
342.2854985515986
 30
0.0
 40
1.319759330350627
100
AcDbArc
 50
277.2066640545705
 51
294.5237003824284
  0
ARC
  5
3F86
330
1A
100
AcDbEntity
  8
SEIHIN
100
AcDbCircle
 10
632.73779742649
 20
340.7510438545222
 30
0.0
 40
0.2796424331190378
100
AcDbArc
 50
282.7670805303583
 51
336.3252747190985
  0
ARC
  5
3F87
330
1A
100
AcDbEntity
  8
SEIHIN
100
AcDbCircle
 10
631.3650213526568
 20
343.8470407605569
 30
0.0
 40
3.661463365061278
100
AcDbArc
 50
283.8567622335439
 51
293.0667580378539
  0
ARC
  5
3F88
330
1A
100
AcDbEntity
  8
SEIHIN
100
AcDbCircle
 10
628.3033708413606
 20
356.0773774868074
 30
0.0
 40
16.26917591025265
100
AcDbArc
 50
277.2728670233979
 51
284.0097433131802
  0
ARC
  5
3F89
330
1A
100
AcDbEntity
  8
SEIHIN
100
AcDbCircle
 10
630.3261659705695
 20
357.1743734114783
 30
0.0
 40
16.35187965351016
100
AcDbArc
 50
270.1289415443001
 51
277.8612395090653
  0
LINE
  5
3F8A
330
1A
100
AcDbEntity
  8
SEIHIN
100
AcDbLine
 10
630.3629651005044
 20
339.9390951653691
 30
0.0
 11
630.3629651005044
 21
340.8225351653692
 31
0.0
  0
LINE
  5
3F8B
330
1A
100
AcDbEntity
  8
SEIHIN
100
AcDbLine
 10
638.9939051005044
 20
337.9223751653693
 30
0.0
 11
638.9939051005044
 21
324.9223851653693
 31
0.0
  0
ARC
  5
3F8C
330
1A
100
AcDbEntity
  8
SEIHIN
100
AcDbCircle
 10
639.9938951005042
 20
324.9223851653693
 30
0.0
 40
0.9999998999999998
100
AcDbArc
 50
180.0
 51
270.0
  0
ARC
  5
3F8D
330
1A
100
AcDbEntity
  8
SEIHIN
100
AcDbCircle
 10
638.4938951005042
 20
337.9223751653693
 30
0.0
 40
0.4999998000000002
100
AcDbArc
 50
0.0
 51
90.0
  0
LINE
  5
3F8E
330
1A
100
AcDbEntity
  8
SEIHIN
100
AcDbLine
 10
632.9939051005044
 20
352.2534951653691
 30
0.0
 11
653.9939051005044
 21
352.2534951653691
 31
0.0
  0
ARC
  5
3F8F
330
1A
100
AcDbEntity
  8
SEIHIN
100
AcDbCircle
 10
632.4958996214984
 20
355.4282092679956
 30
0.0
 40
0.4980099315508277
100
AcDbArc
 50
0.242283102271201
 51
90.23061970405063
  0
DIMENSION
  5
3F90
330
1A
100
AcDbEntity
  8
SUNPOU
100
AcDbDimension
  2
*D12
 10
663.9938951005044
 20
452.2592353573883
 30
0.0
 11
637.2439001005044
 21
457.2592353573883
 31
0.0
 70
    32
  1
\U+203B<>
 71
     5
 42
-1.0
  3
STANDARD
100
AcDbAlignedDimension
 13
610.4939051005044
 23
427.5738463027561
 33
0.0
 14
663.9938951005044
 24
427.5723651653692
 34
0.0
100
AcDbRotatedDimension
1001
ACAD
1000
DSTYLE
1002
{
1070
    41
1040
7.0
1070
    42
1040
6.0
1070
    43
1040
14.0
1070
    44
1040
3.0
1070
    73
1070
     0
1070
    74
1070
     0
1070
    77
1070
     3
1070
   140
1040
6.0
1070
   141
1040
150.0
1070
   147
1040
2.0
1070
   172
1070
     1
1070
   173
1070
     1
1070
   176
1070
   256
1070
   177
1070
   256
1070
   178
1070
   256
1070
   271
1070
     0
1070
   272
1070
     0
1070
   341
1005
6D
1070
     6
1000
OPEN
1070
     7
1000
OPEN
1070
   371
1070
    -1
1070
   372
1070
    -1
1002
}
  0
LINE
  5
3F91
330
1A
100
AcDbEntity
  8
SEIHIN
100
AcDbLine
 10
631.2011051005044
 20
442.3856451653692
 30
0.0
 11
608.9939051005044
 21
440.0723751653692
 31
0.0
  0
LINE
  5
3F92
330
1A
100
AcDbEntity
  8
SEIHIN
100
AcDbLine
 10
608.9939051005044
 20
415.0723851653693
 30
0.0
 11
631.2011051005044
 21
412.7591151653692
 31
0.0
  0
LINE
  5
3F93
330
1A
100
AcDbEntity
  8
SEIHIN
100
AcDbLine
 10
607.9938851005045
 20
415.0723851653693
 30
0.0
 11
607.9938851005045
 21
440.0723751653692
 31
0.0
  0
LINE
  5
3F94
330
1A
100
AcDbEntity
  8
SEIHIN
100
AcDbLine
 10
610.4939051005044
 20
440.2286151653692
 30
0.0
 11
610.4939051005044
 21
414.9161151653691
 31
0.0
  0
LINE
  5
3F95
330
1A
100
AcDbEntity
  8
SEIHIN
100
AcDbLine
 10
607.9938851005045
 20
415.0723851653693
 30
0.0
 11
608.9939051005044
 21
415.0723851653693
 31
0.0
  0
LINE
  5
3F96
330
1A
100
AcDbEntity
  8
SEIHIN
100
AcDbLine
 10
608.9939051005044
 20
440.0723751653692
 30
0.0
 11
607.9938851005045
 21
440.0723751653692
 31
0.0
  0
ARC
  5
3F97
330
1A
100
AcDbEntity
  8
SEIHIN
100
AcDbCircle
 10
630.9938951005042
 20
410.7699051653693
 30
0.0
 40
1.999999799999999
100
AcDbArc
 50
0.0
 51
84.05312999999754
  0
ARC
  5
3F98
330
1A
100
AcDbEntity
  8
SEIHIN
100
AcDbCircle
 10
630.9938951005042
 20
444.3748551653692
 30
0.0
 40
1.999999799999999
100
AcDbArc
 50
275.9468630000037
 51
0.0
  0
LINE
  5
3F99
330
1A
100
AcDbEntity
  8
SEIHIN
100
AcDbLine
 10
441.4938851005045
 20
528.7098141653692
 30
0.0
 11
570.4938851005045
 21
528.7098141653692
 31
0.0
  0
LINE
  5
3F9A
330
1A
100
AcDbEntity
  8
SEIHIN
100
AcDbLine
 10
575.4897851005043
 20
516.6323481653693
 30
0.0
 11
485.9939051005044
 21
516.6323481653693
 31
0.0
  0
LINE
  5
3F9B
330
1A
100
AcDbEntity
  8
SEIHIN
100
AcDbLine
 10
485.9939051005044
 20
509.7374541653692
 30
0.0
 11
575.4938951005044
 21
509.7374541653692
 31
0.0
  0
LINE
  5
3F9C
330
1A
100
AcDbEntity
  8
SEIHIN
100
AcDbLine
 10
619.9938851005044
 20
537.2959731653692
 30
0.0
 11
546.9938951005044
 21
538.2973461653692
 31
0.0
  0
LINE
  5
3F9D
330
1A
100
AcDbEntity
  8
SEIHIN
100
AcDbLine
 10
488.9852351005044
 20
519.7415481653694
 30
0.0
 11
486.4938851005044
 21
519.7415481653694
 31
0.0
  0
LINE
  5
3F9E
330
1A
100
AcDbEntity
  8
SEIHIN
100
AcDbLine
 10
546.9938951005044
 20
538.2973461653692
 30
0.0
 11
455.9937851005044
 21
538.2973461653692
 31
0.0
  0
LINE
  5
3F9F
330
1A
100
AcDbEntity
  8
SEIHIN
100
AcDbLine
 10
486.4938851005044
 20
519.7415481653694
 30
0.0
 11
486.4938851005044
 21
528.7098141653692
 31
0.0
  0
LINE
  5
3FA0
330
1A
100
AcDbEntity
  8
SEIHIN
100
AcDbLine
 10
456.0195755804613
 20
522.6228471653691
 30
0.0
 11
454.5022151005046
 21
528.7098141653692
 31
0.0
  0
LINE
  5
3FA1
330
1A
100
AcDbEntity
  8
SEIHIN
100
AcDbLine
 10
455.9939051005044
 20
501.8431851653692
 30
0.0
 11
440.9939051005044
 21
501.4553121653692
 31
0.0
  0
LINE
  5
3FA2
330
1A
100
AcDbEntity
  8
SEIHIN
100
AcDbLine
 10
455.9939051005044
 20
522.6167721653693
 30
0.0
 11
440.9939051005044
 21
519.2078301653692
 31
0.0
  0
LINE
  5
3FA3
330
1A
100
AcDbEntity
  8
SEIHIN
100
AcDbLine
 10
455.9939051005044
 20
507.3970791653692
 30
0.0
 11
440.9939051005044
 21
503.4213441653693
 31
0.0
  0
LINE
  5
3FA4
330
1A
100
AcDbEntity
  8
SEIHIN
100
AcDbLine
 10
423.9839051005047
 20
515.9335911653691
 30
0.0
 11
435.8591051005046
 21
516.7223661653691
 31
0.0
  0
ARC
  5
3FA5
330
1A
100
AcDbEntity
  8
SEIHIN
100
AcDbCircle
 10
440.4938951005044
 20
517.2223671653693
 30
0.0
 40
0.4999998000000002
100
AcDbArc
 50
270.0
 51
0.0
  0
LINE
  5
3FA6
330
1A
100
AcDbEntity
  8
SEIHIN
100
AcDbLine
 10
481.9938851005044
 20
501.8431851653692
 30
0.0
 11
455.9939051005044
 21
501.8431851653692
 31
0.0
  0
LINE
  5
3FA7
330
1A
100
AcDbEntity
  8
SEIHIN
100
AcDbLine
 10
481.9938851005044
 20
522.6228471653692
 30
0.0
 11
455.9901551005046
 21
522.6228471653692
 31
0.0
  0
LINE
  5
3FA8
330
1A
100
AcDbEntity
  8
SEIHIN
100
AcDbLine
 10
481.9938851005044
 20
507.3970791653692
 30
0.0
 11
455.9939051005044
 21
507.3970791653692
 31
0.0
  0
ARC
  5
3FA9
330
1A
100
AcDbEntity
  8
SEIHIN
100
AcDbCircle
 10
485.9748447418176
 20
513.7188204050277
 30
0.0
 40
3.981411864096069
100
AcDbArc
 50
181.1993355838057
 51
270.2742952293207
  0
ARC
  5
3FAA
330
1A
100
AcDbEntity
  8
SEIHIN
100
AcDbCircle
 10
485.9999221916964
 20
520.6383948233616
 30
0.0
 40
4.006051176832396
100
AcDbArc
 50
179.8480615079742
 51
269.9139416735693
  0
LINE
  5
3FAB
330
1A
100
AcDbEntity
  8
SEIHIN
100
AcDbLine
 10
455.9937851005044
 20
538.2973461653692
 30
0.0
 11
438.9937751005045
 21
535.2932271653691
 31
0.0
  0
ARC
  5
3FAC
330
1A
100
AcDbEntity
  8
SEIHIN
100
AcDbCircle
 10
441.493531111753
 20
528.2129271821164
 30
0.0
 40
0.4996261086547657
100
AcDbArc
 50
89.9594055178281
 51
179.9642225964556
  0
LINE
  5
3FAD
330
1A
100
AcDbEntity
  8
SEIHIN
100
AcDbLine
 10
488.9852351005044
 20
528.7098141653692
 30
0.0
 11
488.9852351005044
 21
519.7415481653694
 31
0.0
  0
LINE
  5
3FAE
330
1A
100
AcDbEntity
  8
SEIHIN
100
AcDbLine
 10
653.9939351005045
 20
535.2932271653691
 30
0.0
 11
610.4938951005045
 21
535.2932271653693
 31
0.0
  0
LINE
  5
3FAF
330
1A
100
AcDbEntity
  8
SEIHIN
100
AcDbLine
 10
571.4939051005044
 20
535.8476931653691
 30
0.0
 11
619.9938851005044
 21
535.8476931653691
 31
0.0
  0
LINE
  5
3FB0
330
1A
100
AcDbEntity
  8
SEIHIN
100
AcDbLine
 10
638.4938951005044
 20
516.7223661653691
 30
0.0
 11
610.4939051005044
 21
516.7223661653691
 31
0.0
  0
LINE
  5
3FB1
330
1A
100
AcDbEntity
  8
SEIHIN
100
AcDbLine
 10
630.3014651005046
 20
513.8263191653692
 30
0.0
 11
607.9938851005045
 21
514.1834001653693
 31
0.0
  0
LINE
  5
3FB2
330
1A
100
AcDbEntity
  8
SEIHIN
100
AcDbLine
 10
625.0038851005046
 20
515.9335911653691
 30
0.0
 11
613.1286851005045
 21
516.7223661653691
 31
0.0
  0
LINE
  5
3FB3
330
1A
100
AcDbEntity
  8
SEIHIN
100
AcDbLine
 10
632.4938951005044
 20
499.2185421653693
 30
0.0
 11
607.9938851005045
 21
499.2185421653693
 31
0.0
  0
LINE
  5
3FB4
330
1A
100
AcDbEntity
  8
SEIHIN
100
AcDbLine
 10
632.9939022374419
 20
494.4580851653691
 30
0.0
 11
607.9938851005045
 21
494.4580851653691
 31
0.0
  0
LINE
  5
3FB5
330
1A
100
AcDbEntity
  8
SEIHIN
100
AcDbLine
 10
609.9938951005044
 20
517.2223671653693
 30
0.0
 11
609.9938951005044
 21
534.7932271653693
 31
0.0
  0
LINE
  5
3FB6
330
1A
100
AcDbEntity
  8
SEIHIN
100
AcDbLine
 10
607.4939051005044
 20
531.222365165369
 30
0.0
 11
607.4939051005044
 21
519.7415481653694
 31
0.0
  0
LINE
  5
3FB7
330
1A
100
AcDbEntity
  8
SEIHIN
100
AcDbLine
 10
605.0025551005046
 20
519.7415481653694
 30
0.0
 11
605.0025551005046
 21
531.222365165369
 31
0.0
  0
LINE
  5
3FB8
330
1A
100
AcDbEntity
  8
SEIHIN
100
AcDbLine
 10
576.4938851005044
 20
502.8912441653694
 30
0.0
 11
607.4939051005044
 21
502.8912441653694
 31
0.0
  0
LINE
  5
3FB9
330
1A
100
AcDbEntity
  8
SEIHIN
100
AcDbLine
 10
575.9939051005044
 20
501.4035951653692
 30
0.0
 11
607.9938851005045
 21
501.4035951653692
 31
0.0
  0
LINE
  5
3FBA
330
1A
100
AcDbEntity
  8
SEIHIN
100
AcDbLine
 10
607.4939051005044
 20
518.7497811653692
 30
0.0
 11
576.4938851005044
 21
518.7497811653692
 31
0.0
  0
ARC
  5
3FBB
330
1A
100
AcDbEntity
  8
SEIHIN
100
AcDbCircle
 10
576.4921258816193
 20
502.3925974330528
 30
0.0
 40
0.4986498355569874
100
AcDbArc
 50
89.79786210830946
 51
168.4893360179053
  0
ARC
  5
3FBC
330
1A
100
AcDbEntity
  8
SEIHIN
100
AcDbCircle
 10
575.4962920035607
 20
510.2350727903282
 30
0.0
 40
0.4976243975632386
100
AcDbArc
 50
269.7240228559154
 51
359.6138653737959
  0
ARC
  5
3FBD
330
1A
100
AcDbEntity
  8
SEIHIN
100
AcDbCircle
 10
575.4798426402203
 20
517.1381603851981
 30
0.0
 40
0.5059099270072922
100
AcDbArc
 50
271.1260852136839
 51
358.8753013211264
  0
ARC
  5
3FBE
330
1A
100
AcDbEntity
  8
SEIHIN
100
AcDbCircle
 10
576.5044328874505
 20
518.2392611244705
 30
0.0
 40
0.510628992487328
100
AcDbArc
 50
91.18361211405959
 51
181.1407598158819
  0
ARC
  5
3FBF
330
1A
100
AcDbEntity
  8
SEIHIN
100
AcDbCircle
 10
607.4959613541214
 20
502.3933204789308
 30
0.0
 40
0.4979279322305112
100
AcDbArc
 50
0.2349342872472987
 51
90.23661052356183
  0
LINE
  5
3FC0
330
1A
100
AcDbEntity
  8
SEIHIN
100
AcDbLine
 10
608.9939051005044
 20
514.6642611653693
 30
0.0
 11
608.9939051005044
 21
519.7415481653694
 31
0.0
  0
ARC
  5
3FC1
330
1A
100
AcDbEntity
  8
SEIHIN
100
AcDbCircle
 10
607.515038036156
 20
518.8796399409026
 30
0.0
 40
4.553374303753917
100
AcDbArc
 50
276.0365648823082
 51
285.5498971006353
  0
LINE
  5
3FC2
330
1A
100
AcDbEntity
  8
SEIHIN
100
AcDbLine
 10
608.7356951005045
 20
514.4929311653692
 30
0.0
 11
608.9288051005046
 21
514.5761601653693
 31
0.0
  0
LINE
  5
3FC3
330
1A
100
AcDbEntity
  8
SEIHIN
100
AcDbLine
 10
608.9288051005046
 20
514.5761601653693
 30
0.0
 11
608.9939051005044
 21
514.6642611653693
 31
0.0
  0
ARC
  5
3FC4
330
1A
100
AcDbEntity
  8
SEIHIN
100
AcDbCircle
 10
607.4959613541216
 20
518.2518574789309
 30
0.0
 40
0.4979279322305075
100
AcDbArc
 50
0.2349342871426721
 51
90.23661052357487
  0
LINE
  5
3FC5
330
1A
100
AcDbEntity
  8
SEIHIN
100
AcDbLine
 10
607.4939051005044
 20
519.7415481653694
 30
0.0
 11
607.9343051005044
 21
518.969645165369
 31
0.0
  0
ARC
  5
3FC6
330
1A
100
AcDbEntity
  8
SEIHIN
100
AcDbCircle
 10
610.4939051005044
 20
517.2223671653693
 30
0.0
 40
0.4999998000000002
100
AcDbArc
 50
180.0
 51
270.0
  0
LINE
  5
3FC7
330
1A
100
AcDbEntity
  8
SEIHIN
100
AcDbLine
 10
605.0025551005046
 20
519.7415481653694
 30
0.0
 11
607.4939051005044
 21
519.7415481653694
 31
0.0
  0
LINE
  5
3FC8
330
1A
100
AcDbEntity
  8
SEIHIN
100
AcDbLine
 10
607.9343051005044
 20
518.969645165369
 30
0.0
 11
607.9938851005045
 21
518.6235141653693
 31
0.0
  0
LINE
  5
3FC9
330
1A
100
AcDbEntity
  8
SEIHIN
100
AcDbLine
 10
609.9938951005044
 20
519.2592891653693
 30
0.0
 11
609.6725651005044
 21
519.3400581653691
 31
0.0
  0
LINE
  5
3FCA
330
1A
100
AcDbEntity
  8
SEIHIN
100
AcDbLine
 10
609.6725651005044
 20
519.3400581653691
 30
0.0
 11
609.1653851005044
 21
519.5364411653692
 31
0.0
  0
LINE
  5
3FCB
330
1A
100
AcDbEntity
  8
SEIHIN
100
AcDbLine
 10
609.1653851005044
 20
519.5364411653692
 30
0.0
 11
608.9939051005044
 21
519.7415481653694
 31
0.0
  0
LINE
  5
3FCC
330
1A
100
AcDbEntity
  8
SEIHIN
100
AcDbLine
 10
608.9939051005044
 20
519.7415481653694
 30
0.0
 11
609.9938951005044
 21
519.7415481653694
 31
0.0
  0
LINE
  5
3FCD
330
1A
100
AcDbEntity
  8
SEIHIN
100
AcDbLine
 10
609.4938851005045
 20
535.0927071653692
 30
0.0
 11
570.5676251005045
 21
535.0927071653692
 31
0.0
  0
LINE
  5
3FCE
330
1A
100
AcDbEntity
  8
SEIHIN
100
AcDbLine
 10
609.9938951005044
 20
533.0927061653691
 30
0.0
 11
570.4938851005045
 21
533.0927061653693
 31
0.0
  0
LINE
  5
3FCF
330
1A
100
AcDbEntity
  8
SEIHIN
100
AcDbLine
 10
570.4938851005045
 20
531.5223651653692
 30
0.0
 11
607.9938851005045
 21
531.5223651653692
 31
0.0
  0
ARC
  5
3FD0
330
1A
100
AcDbEntity
  8
SEIHIN
100
AcDbCircle
 10
571.4945659318666
 20
534.8470123128366
 30
0.0
 40
1.00068107073304
100
AcDbArc
 50
90.03783708103929
 51
180.0396301409133
  0
LINE
  5
3FD1
330
1A
100
AcDbEntity
  8
SEIHIN
100
AcDbLine
 10
570.4938851005045
 20
534.8463201654148
 30
0.0
 11
570.4938851005045
 21
528.7098141653692
 31
0.0
  0
ARC
  5
3FD2
330
1A
100
AcDbEntity
  8
SEIHIN
100
AcDbCircle
 10
610.4938951005045
 20
534.7932271653693
 30
0.0
 40
0.5
100
AcDbArc
 50
90.0
 51
180.0
  0
ARC
  5
3FD3
330
1A
100
AcDbEntity
  8
SEIHIN
100
AcDbCircle
 10
609.4893923538598
 20
534.5708168698283
 30
0.0
 40
0.5196386638620087
100
AcDbArc
 50
13.86280510759542
 51
89.21020474792907
  0
LINE
  5
3FD4
330
1A
100
AcDbEntity
  8
SEIHIN
100
AcDbLine
 10
607.4939051005044
 20
531.2223651653693
 30
0.0
 11
605.0025551005046
 21
531.2223651653693
 31
0.0
  0
LINE
  5
3FD5
330
1A
100
AcDbEntity
  8
SEIHIN
100
AcDbLine
 10
638.9939051005044
 20
530.2223661653691
 30
0.0
 11
638.9939051005044
 21
517.2223671653693
 31
0.0
  0
LINE
  5
3FD6
330
1A
100
AcDbEntity
  8
SEIHIN
100
AcDbLine
 10
632.9939051005044
 20
502.8912441653694
 30
0.0
 11
663.9938951005044
 21
502.8912441653694
 31
0.0
  0
LINE
  5
3FD7
330
1A
100
AcDbEntity
  8
SEIHIN
100
AcDbLine
 10
638.9939051005044
 20
519.7415481653694
 30
0.0
 11
663.9938951005044
 21
519.7415481653694
 31
0.0
  0
ARC
  5
3FD8
330
1A
100
AcDbEntity
  8
SEIHIN
100
AcDbCircle
 10
632.4953552161555
 20
499.7170950861924
 30
0.0
 40
0.4985550589443841
100
AcDbArc
 50
269.8321979036953
 51
359.6906300480353
  0
LINE
  5
3FD9
330
1A
100
AcDbEntity
  8
SEIHIN
100
AcDbLine
 10
630.3629651005044
 20
515.2056651653693
 30
0.0
 11
625.0038851005046
 21
515.9335911653691
 31
0.0
  0
ARC
  5
3FDA
330
1A
100
AcDbEntity
  8
SEIHIN
100
AcDbCircle
 10
630.6419006491083
 20
506.8599113597858
 30
0.0
 40
6.968396709319811
100
AcDbArc
 50
75.96375653206653
 51
79.87219166827852
  0
ARC
  5
3FDB
330
1A
100
AcDbEntity
  8
SEIHIN
100
AcDbCircle
 10
632.3140785990435
 20
513.423040934512
 30
0.0
 40
0.1980195169992151
100
AcDbArc
 50
24.7593776530155
 51
84.81177206909171
  0
ARC
  5
3FDC
330
1A
100
AcDbEntity
  8
SEIHIN
100
AcDbCircle
 10
632.4951350498865
 20
514.0052578661704
 30
0.0
 40
0.4992862404758829
100
AcDbArc
 50
269.8577089980056
 51
348.4294891281841
  0
LINE
  5
3FDD
330
1A
100
AcDbEntity
  8
SEIHIN
100
AcDbLine
 10
632.7995951005045
 20
514.6664181653692
 30
0.0
 11
632.9449151005019
 21
514.5815781653708
 31
0.0
  0
LINE
  5
3FDE
330
1A
100
AcDbEntity
  8
SEIHIN
100
AcDbLine
 10
632.2419251004965
 20
514.8526131653713
 30
0.0
 11
632.7995951005045
 21
514.6664181653692
 31
0.0
  0
ARC
  5
3FDF
330
1A
100
AcDbEntity
  8
SEIHIN
100
AcDbCircle
 10
630.2060736840917
 20
500.8714992261622
 30
0.0
 40
12.95517113663877
100
AcDbArc
 50
82.63294562367006
 51
89.57811634498559
  0
ARC
  5
3FE0
330
1A
100
AcDbEntity
  8
SEIHIN
100
AcDbCircle
 10
628.3026880511968
 20
499.0642855308745
 30
0.0
 40
16.27233474412272
100
AcDbArc
 50
75.99055398204568
 51
82.72612879708546
  0
LINE
  5
3FE1
330
1A
100
AcDbEntity
  8
SEIHIN
100
AcDbLine
 10
632.9449151005047
 20
514.5815781653692
 30
0.0
 11
632.9939051005044
 21
514.5060051653691
 31
0.0
  0
ARC
  5
3FE2
330
1A
100
AcDbEntity
  8
SEIHIN
100
AcDbCircle
 10
638.4938951005042
 20
517.2223671653693
 30
0.0
 40
0.4999998000000002
100
AcDbArc
 50
270.0
 51
0.0
  0
LINE
  5
3FE3
330
1A
100
AcDbEntity
  8
SEIHIN
100
AcDbLine
 10
663.9938951005044
 20
531.2223651653693
 30
0.0
 11
639.9938951005045
 21
531.2223651653693
 31
0.0
  0
LINE
  5
3FE4
330
1A
100
AcDbEntity
  8
SEIHIN
100
AcDbLine
 10
663.9938951005044
 20
530.7223671653693
 30
0.0
 11
639.1278551005045
 21
530.7223671653693
 31
0.0
  0
LINE
  5
3FE5
330
1A
100
AcDbEntity
  8
SEIHIN
100
AcDbLine
 10
619.9938851005044
 20
537.2946021653691
 30
0.0
 11
619.9938851005044
 21
535.2932271653693
 31
0.0
  0
ARC
  5
3FE6
330
1A
100
AcDbEntity
  8
SEIHIN
100
AcDbCircle
 10
639.9938951005045
 20
530.2223661653691
 30
0.0
 40
0.9999998999999998
100
AcDbArc
 50
90.0
 51
180.0
  0
LINE
  5
3FE7
330
1A
100
AcDbEntity
  8
SEIHIN
100
AcDbLine
 10
663.9938951005044
 20
534.7925421653691
 30
0.0
 11
653.9939351005045
 21
535.2932271653691
 31
0.0
  0
LINE
  5
3FE8
330
1A
100
AcDbEntity
  8
SEIHIN
  6
PHANTOM
 62
     6
 48
5.0
100
AcDbLine
 10
705.9938951005044
 20
427.5723651653692
 30
0.0
 11
705.9938951005044
 21
534.7925421653693
 31
0.0
  0
LINE
  5
3FE9
330
1A
100
AcDbEntity
  8
SEIHIN
  6
PHANTOM
 62
     6
 48
5.0
100
AcDbLine
 10
695.9939051005044
 20
353.7411651653691
 30
0.0
 11
705.9938951005044
 21
427.5723651653692
 31
0.0
  0
LINE
  5
3FEA
330
1A
100
AcDbEntity
  8
SEIHIN
  6
PHANTOM
 62
     6
 48
5.0
100
AcDbLine
 10
695.9939051005044
 20
320.352215165369
 30
0.0
 11
695.9939051005044
 21
353.7411651653693
 31
0.0
  0
LINE
  5
3FEB
330
1A
100
AcDbEntity
  8
SEIHIN
  6
PHANTOM
 62
     6
 48
5.0
100
AcDbLine
 10
685.9939151005046
 20
319.8515151653692
 30
0.0
 11
695.9939051005044
 21
320.352215165369
 31
0.0
  0
LINE
  5
3FEC
330
1A
100
AcDbEntity
  8
SEIHIN
  6
PHANTOM
 62
     6
 48
5.0
100
AcDbLine
 10
705.9938951005044
 20
534.7925421653691
 30
0.0
 11
695.9939351005045
 21
535.2932271653691
 31
0.0
  0
VIEWPORT
  5
22
330
17
100
AcDbEntity
 67
     1
  8
0
100
AcDbViewport
 10
313.6808219178082
 20
148.5
 30
0.0
 40
627.3616438356165
 41
297.0
 68
     2
 69
     1
 12
313.6808219178082
 22
148.5
 13
0.0
 23
0.0
 14
1.0
 24
1.0
 15
10.0
 25
10.0
 16
0.0
 26
0.0
 36
1.0
 17
0.0
 27
0.0
 37
0.0
 42
50.0
 43
0.0
 44
0.0
 45
297.0
 50
0.0
 51
0.0
 72
   100
 90
    32768
  1

281
     0
 71
     1
 74
     0
110
0.0
120
0.0
130
0.0
111
1.0
121
0.0
131
0.0
112
0.0
122
1.0
132
0.0
 79
     0
146
0.0
  0
VIEWPORT
  5
64
330
17
100
AcDbEntity
 67
     1
  8
VIEWPORT
100
AcDbViewport
 10
210.0
 20
148.5
 30
0.0
 40
420.0
 41
297.0
 68
     1
 69
     2
 12
420.0
 22
297.0
 13
0.0
 23
0.0
 14
10.0
 24
10.0
 15
0.0
 25
0.0
 16
0.0
 26
0.0
 36
1.0
 17
0.0
 27
0.0
 37
0.0
 42
50.0
 43
0.0
 44
0.0
 45
605.8799999999998
 50
0.0
 51
0.0
 72
   100
 90
    32768
  1

281
     0
 71
     1
 74
     0
110
0.0
120
0.0
130
0.0
111
1.0
121
0.0
131
0.0
112
0.0
122
1.0
132
0.0
 79
     0
146
0.0
  0
ENDSEC
  0
SECTION
  2
OBJECTS
  0
DICTIONARY
  5
C
330
0
100
AcDbDictionary
281
     1
  3
ACAD_GROUP
350
D
  3
ACAD_LAYOUT
350
340
  3
ACAD_MLINESTYLE
350
E
  3
ACAD_PLOTSETTINGS
350
341
  3
ACAD_PLOTSTYLENAME
350
33E
  3
AcDbVariableDictionary
350
11E9
  0
DICTIONARY
  5
385
330
1A
100
AcDbDictionary
280
     1
281
     1
  3
ACAD_LAYOUTSELFREF
360
4377
  0
DICTIONARY
  5
383
330
17
100
AcDbDictionary
280
     1
281
     1
  3
ACAD_LAYOUTSELFREF
360
4376
  0
DICTIONARY
  5
D
102
{ACAD_REACTORS
330
C
102
}
330
C
100
AcDbDictionary
281
     1
  0
DICTIONARY
  5
340
102
{ACAD_REACTORS
330
C
102
}
330
C
100
AcDbDictionary
281
     1
  3
Model
350
342
  3
ﾚｲｱｳﾄ1
350
343
  0
DICTIONARY
  5
E
102
{ACAD_REACTORS
330
C
102
}
330
C
100
AcDbDictionary
281
     1
  3
STANDARD
350
13
  0
DICTIONARY
  5
341
102
{ACAD_REACTORS
330
C
102
}
330
C
100
AcDbDictionary
281
     1
  0
ACDBDICTIONARYWDFLT
  5
33E
102
{ACAD_REACTORS
330
C
102
}
330
C
100
AcDbDictionary
281
     1
  3
Normal
350
33F
100
AcDbDictionaryWithDefault
340
33F
1001
ACAD
1000
TREAT_AS_HARD
1070
     0
1000
TREAT_AS_HARD
1070
     0
1000
TREAT_AS_HARD
1070
     0
1000
TREAT_AS_HARD
1070
     0
1000
TREAT_AS_HARD
1070
     0
1000
TREAT_AS_HARD
1070
     0
1000
TREAT_AS_HARD
1070
     0
1000
TREAT_AS_HARD
1070
     0
1000
TREAT_AS_HARD
1070
     0
1000
TREAT_AS_HARD
1070
     0
  0
DICTIONARY
  5
11E9
102
{ACAD_REACTORS
330
C
102
}
330
C
100
AcDbDictionary
281
     1
  3
SORTENTS
350
11EA
  0
XRECORD
  5
4377
102
{ACAD_REACTORS
330
385
102
}
330
385
100
AcDbXrecord
280
     1
340
1A
  0
XRECORD
  5
4376
102
{ACAD_REACTORS
330
383
102
}
330
383
100
AcDbXrecord
280
     1
340
17
  0
LAYOUT
  5
342
102
{ACAD_REACTORS
330
340
102
}
330
340
100
AcDbPlotSettings
  1

  2
Acrobat Distiller
  4
A3
  6

 40
3.174999952316284
 41
3.174999952316284
 42
3.17498779296875
 43
3.17498779296875
 44
297.0318298339843
 45
420.1583251953125
 46
0.0
 47
0.0
 48
0.0
 49
0.0
140
0.0
141
0.0
142
1.0
143
2.0
 70
 11952
 72
     1
 73
     1
 74
     2
  7
print.ctb
 75
    17
147
0.5
148
0.0
149
0.0
100
AcDbLayout
  1
Model
 70
     1
 71
     0
 10
0.0
 20
0.0
 11
12.0
 21
9.0
 12
0.0
 22
0.0
 32
0.0
 14
0.0
 24
0.0
 34
0.0
 15
0.0
 25
0.0
 35
0.0
146
0.0
 13
0.0
 23
0.0
 33
0.0
 16
1.0
 26
0.0
 36
0.0
 17
0.0
 27
1.0
 37
0.0
 76
     0
330
1A
  0
LAYOUT
  5
343
102
{ACAD_REACTORS
330
340
102
}
330
340
100
AcDbPlotSettings
  1

  2
Acrobat Distiller
  4

  6

 40
0.0
 41
0.0
 42
0.0
 43
0.0
 44
0.0
 45
0.0
 46
0.0
 47
0.0
 48
0.0
 49
0.0
140
0.0
141
0.0
142
1.0
143
1.0
 70
   688
 72
     0
 73
     0
 74
     5
  7
print.ctb
 75
    16
147
1.0
148
0.0
149
0.0
100
AcDbLayout
  1
ﾚｲｱｳﾄ1
 70
     1
 71
     1
 10
0.0
 20
0.0
 11
420.0
 21
297.0
 12
0.0
 22
0.0
 32
0.0
 14
0.0
 24
0.0
 34
0.0
 15
420.0
 25
297.0
 35
0.0
146
0.0
 13
0.0
 23
0.0
 33
0.0
 16
1.0
 26
0.0
 36
0.0
 17
0.0
 27
1.0
 37
0.0
 76
     0
330
17
331
64
  0
MLINESTYLE
  5
13
102
{ACAD_REACTORS
330
E
102
}
330
E
100
AcDbMlineStyle
  2
STANDARD
 70
     0
  3

 62
     0
 51
90.0
 52
90.0
 71
     2
 49
0.5
 62
   256
  6
BYLAYER
 49
-0.5
 62
   256
  6
BYLAYER
  0
ACDBPLACEHOLDER
  5
33F
102
{ACAD_REACTORS
330
33E
102
}
330
33E
  0
DICTIONARYVAR
  5
11EA
102
{ACAD_REACTORS
330
11E9
102
}
330
11E9
100
DictionaryVariables
280
     0
  1
96
  0
ENDSEC
  0
EOF
