  0
SECTION
  2
HEADER
  9
$ACADVER
  1
AC1015
  9
$ACADMAINTVER
 70
    11
  9
$DWGCODEPAGE
  3
ANSI_932
  9
$INSBASE
 10
0.0
 20
0.0
 30
0.0
  9
$EXTMIN
 10
10.05047808566086
 20
4.949376903717846
 30
0.0
  9
$EXTMAX
 10
806.2246110975902
 20
563.7825862828226
 30
0.0
  9
$LIMMIN
 10
0.0
 20
0.0
  9
$LIMMAX
 10
840.0
 20
594.0
  9
$ORTHOMODE
 70
     0
  9
$REGENMODE
 70
     1
  9
$FILLMODE
 70
     1
  9
$QTEXTMODE
 70
     0
  9
$MIRRTEXT
 70
     1
  9
$LTSCALE
 40
2.0
  9
$ATTMODE
 70
     1
  9
$TEXTSIZE
 40
5.0
  9
$TRACEWID
 40
1.0
  9
$TEXTSTYLE
  7
STANDARD
  9
$CLAYER
  8
SEIHIN
  9
$CELTYPE
  6
BYLAYER
  9
$CECOLOR
 62
   256
  9
$CELTSCALE
 40
1.0
  9
$DISPSILH
 70
     0
  9
$DIMSCALE
 40
1.0
  9
$DIMASZ
 40
7.0
  9
$DIMEXO
 40
6.0
  9
$DIMDLI
 40
14.0
  9
$DIMRND
 40
0.0
  9
$DIMDLE
 40
0.0
  9
$DIMEXE
 40
3.0
  9
$DIMTP
 40
0.0
  9
$DIMTM
 40
0.0
  9
$DIMTXT
 40
6.0
  9
$DIMCEN
 40
150.0
  9
$DIMTSZ
 40
0.0
  9
$DIMTOL
 70
     0
  9
$DIMLIM
 70
     0
  9
$DIMTIH
 70
     0
  9
$DIMTOH
 70
     0
  9
$DIMSE1
 70
     0
  9
$DIMSE2
 70
     0
  9
$DIMTAD
 70
     3
  9
$DIMZIN
 70
     0
  9
$DIMBLK
  1

  9
$DIMASO
 70
     1
  9
$DIMSHO
 70
     1
  9
$DIMPOST
  1

  9
$DIMAPOST
  1

  9
$DIMALT
 70
     0
  9
$DIMALTD
 70
     2
  9
$DIMALTF
 40
25.4
  9
$DIMLFAC
 40
1.0
  9
$DIMTOFL
 70
     1
  9
$DIMTVP
 40
0.0
  9
$DIMTIX
 70
     0
  9
$DIMSOXD
 70
     0
  9
$DIMSAH
 70
     1
  9
$DIMBLK1
  1
OPEN
  9
$DIMBLK2
  1
OPEN
  9
$DIMSTYLE
  2
STANDARD
  9
$DIMCLRD
 70
   256
  9
$DIMCLRE
 70
   256
  9
$DIMCLRT
 70
   256
  9
$DIMTFAC
 40
1.0
  9
$DIMGAP
 40
2.0
  9
$DIMJUST
 70
     0
  9
$DIMSD1
 70
     0
  9
$DIMSD2
 70
     0
  9
$DIMTOLJ
 70
     1
  9
$DIMTZIN
 70
     0
  9
$DIMALTZ
 70
     0
  9
$DIMALTTZ
 70
     0
  9
$DIMUPT
 70
     0
  9
$DIMDEC
 70
     0
  9
$DIMTDEC
 70
     0
  9
$DIMALTU
 70
     2
  9
$DIMALTTD
 70
     2
  9
$DIMTXSTY
  7
STANDARD
  9
$DIMAUNIT
 70
     0
  9
$DIMADEC
 70
     0
  9
$DIMALTRND
 40
0.0
  9
$DIMAZIN
 70
     0
  9
$DIMDSEP
 70
    46
  9
$DIMATFIT
 70
     3
  9
$DIMFRAC
 70
     0
  9
$DIMLDRBLK
  1
OPEN
  9
$DIMLUNIT
 70
     2
  9
$DIMLWD
 70
    -2
  9
$DIMLWE
 70
    -2
  9
$DIMTMOVE
 70
     0
  9
$LUNITS
 70
     2
  9
$LUPREC
 70
     4
  9
$SKETCHINC
 40
1.0
  9
$FILLETRAD
 40
20.0
  9
$AUNITS
 70
     0
  9
$AUPREC
 70
     0
  9
$MENU
  1
.
  9
$ELEVATION
 40
0.0
  9
$PELEVATION
 40
0.0
  9
$THICKNESS
 40
0.0
  9
$LIMCHECK
 70
     0
  9
$CHAMFERA
 40
20.0
  9
$CHAMFERB
 40
20.0
  9
$CHAMFERC
 40
40.0
  9
$CHAMFERD
 40
0.0
  9
$SKPOLY
 70
     0
  9
$TDCREATE
 40
2450994.354346065
  9
$TDUCREATE
 40
2450993.979346065
  9
$TDUPDATE
 40
2455610.741298287
  9
$TDUUPDATE
 40
2455610.366298287
  9
$TDINDWG
 40
0.0131051620
  9
$TDUSRTIMER
 40
0.0131049769
  9
$USRTIMER
 70
     1
  9
$ANGBASE
 50
0.0
  9
$ANGDIR
 70
     0
  9
$PDMODE
 70
     1
  9
$PDSIZE
 40
0.0
  9
$PLINEWID
 40
0.0
  9
$SPLFRAME
 70
     0
  9
$SPLINETYPE
 70
     6
  9
$SPLINESEGS
 70
     8
  9
$HANDSEED
  5
5EB
  9
$SURFTAB1
 70
     6
  9
$SURFTAB2
 70
     6
  9
$SURFTYPE
 70
     6
  9
$SURFU
 70
     6
  9
$SURFV
 70
     6
  9
$UCSBASE
  2

  9
$UCSNAME
  2

  9
$UCSORG
 10
0.0
 20
0.0
 30
0.0
  9
$UCSXDIR
 10
1.0
 20
0.0
 30
0.0
  9
$UCSYDIR
 10
0.0
 20
1.0
 30
0.0
  9
$UCSORTHOREF
  2

  9
$UCSORTHOVIEW
 70
     0
  9
$UCSORGTOP
 10
0.0
 20
0.0
 30
0.0
  9
$UCSORGBOTTOM
 10
0.0
 20
0.0
 30
0.0
  9
$UCSORGLEFT
 10
0.0
 20
0.0
 30
0.0
  9
$UCSORGRIGHT
 10
0.0
 20
0.0
 30
0.0
  9
$UCSORGFRONT
 10
0.0
 20
0.0
 30
0.0
  9
$UCSORGBACK
 10
0.0
 20
0.0
 30
0.0
  9
$PUCSBASE
  2

  9
$PUCSNAME
  2

  9
$PUCSORG
 10
0.0
 20
0.0
 30
0.0
  9
$PUCSXDIR
 10
1.0
 20
0.0
 30
0.0
  9
$PUCSYDIR
 10
0.0
 20
1.0
 30
0.0
  9
$PUCSORTHOREF
  2

  9
$PUCSORTHOVIEW
 70
     0
  9
$PUCSORGTOP
 10
0.0
 20
0.0
 30
0.0
  9
$PUCSORGBOTTOM
 10
0.0
 20
0.0
 30
0.0
  9
$PUCSORGLEFT
 10
0.0
 20
0.0
 30
0.0
  9
$PUCSORGRIGHT
 10
0.0
 20
0.0
 30
0.0
  9
$PUCSORGFRONT
 10
0.0
 20
0.0
 30
0.0
  9
$PUCSORGBACK
 10
0.0
 20
0.0
 30
0.0
  9
$USERI1
 70
     0
  9
$USERI2
 70
     0
  9
$USERI3
 70
     0
  9
$USERI4
 70
     0
  9
$USERI5
 70
     0
  9
$USERR1
 40
0.0
  9
$USERR2
 40
0.0
  9
$USERR3
 40
0.0
  9
$USERR4
 40
0.0
  9
$USERR5
 40
0.0
  9
$WORLDVIEW
 70
     1
  9
$SHADEDGE
 70
     3
  9
$SHADEDIF
 70
    70
  9
$TILEMODE
 70
     1
  9
$MAXACTVP
 70
    16
  9
$PINSBASE
 10
0.0
 20
0.0
 30
0.0
  9
$PLIMCHECK
 70
     0
  9
$PEXTMIN
 10
0.0
 20
0.0
 30
0.0
  9
$PEXTMAX
 10
420.0
 20
297.0
 30
0.0
  9
$PLIMMIN
 10
0.0
 20
0.0
  9
$PLIMMAX
 10
420.0
 20
297.0
  9
$UNITMODE
 70
     0
  9
$VISRETAIN
 70
     0
  9
$PLINEGEN
 70
     0
  9
$PSLTSCALE
 70
     1
  9
$TREEDEPTH
 70
  3020
  9
$CMLSTYLE
  2
STANDARD
  9
$CMLJUST
 70
     0
  9
$CMLSCALE
 40
1.0
  9
$PROXYGRAPHICS
 70
     1
  9
$MEASUREMENT
 70
     0
  9
$CELWEIGHT
370
    -1
  9
$ENDCAPS
280
     0
  9
$JOINSTYLE
280
     0
  9
$LWDISPLAY
290
     0
  9
$INSUNITS
 70
     0
  9
$HYPERLINKBASE
  1

  9
$STYLESHEET
  1

  9
$XEDIT
290
     1
  9
$CEPSNTYPE
380
     0
  9
$PSTYLEMODE
290
     1
  9
$FINGERPRINTGUID
  2
{14D1FB45-B787-469D-9788-E9BB951C42AA}
  9
$VERSIONGUID
  2
{24F21F8A-7ED2-4289-A416-3B0E4F07CE87}
  9
$EXTNAMES
290
     1
  9
$PSVPSCALE
 40
0.0
  9
$OLESTARTUP
290
     0
  0
ENDSEC
  0
SECTION
  2
CLASSES
  0
CLASS
  1
ACDBDICTIONARYWDFLT
  2
AcDbDictionaryWithDefault
  3
AutoCAD 2000
 90
        0
280
     0
281
     0
  0
CLASS
  1
ACDBPLACEHOLDER
  2
AcDbPlaceHolder
  3
AutoCAD 2000
 90
        0
280
     0
281
     0
  0
CLASS
  1
LAYOUT
  2
AcDbLayout
  3
AutoCAD 2000
 90
        0
280
     0
281
     0
  0
CLASS
  1
LONG_TRANSACTION
  2
AcDbLongTransaction
  3
AutoCAD 2000
 90
    32768
280
     0
281
     0
  0
CLASS
  1
LWPOLYLINE
  2
AcDbPolyline
  3
AutoCAD 2000
 90
    32768
280
     0
281
     1
  0
CLASS
  1
HATCH
  2
AcDbHatch
  3
AutoCAD 2000
 90
    32768
280
     0
281
     1
  0
CLASS
  1
XRECORD
  2
AcDbXrecord
  3
AutoCAD 2000
 90
    32768
280
     0
281
     0
  0
CLASS
  1
LONG_TRANSACTION
  2
AcDbLongTransaction
  3
AutoCAD 2000
 90
    32768
280
     0
281
     0
  0
CLASS
  1
LWPOLYLINE
  2
AcDbPolyline
  3
AutoCAD 2000
 90
    32768
280
     0
281
     1
  0
CLASS
  1
HATCH
  2
AcDbHatch
  3
AutoCAD 2000
 90
    32768
280
     0
281
     1
  0
CLASS
  1
XRECORD
  2
AcDbXrecord
  3
AutoCAD 2000
 90
    32768
280
     0
281
     0
  0
CLASS
  1
LONG_TRANSACTION
  2
AcDbLongTransaction
  3
AutoCAD 2000
 90
    32768
280
     0
281
     0
  0
CLASS
  1
LWPOLYLINE
  2
AcDbPolyline
  3
AutoCAD 2000
 90
    32768
280
     0
281
     1
  0
CLASS
  1
HATCH
  2
AcDbHatch
  3
AutoCAD 2000
 90
    32768
280
     0
281
     1
  0
CLASS
  1
XRECORD
  2
AcDbXrecord
  3
AutoCAD 2000
 90
    32768
280
     0
281
     0
  0
CLASS
  1
LONG_TRANSACTION
  2
AcDbLongTransaction
  3
AutoCAD 2000
 90
    32768
280
     0
281
     0
  0
CLASS
  1
LWPOLYLINE
  2
AcDbPolyline
  3
AutoCAD 2000
 90
    32768
280
     0
281
     1
  0
CLASS
  1
HATCH
  2
AcDbHatch
  3
AutoCAD 2000
 90
    32768
280
     0
281
     1
  0
CLASS
  1
XRECORD
  2
AcDbXrecord
  3
AutoCAD 2000
 90
    32768
280
     0
281
     0
  0
CLASS
  1
LONG_TRANSACTION
  2
AcDbLongTransaction
  3
AutoCAD 2000
 90
    32768
280
     0
281
     0
  0
CLASS
  1
LWPOLYLINE
  2
AcDbPolyline
  3
AutoCAD 2000
 90
    32768
280
     0
281
     1
  0
CLASS
  1
HATCH
  2
AcDbHatch
  3
AutoCAD 2000
 90
    32768
280
     0
281
     1
  0
CLASS
  1
XRECORD
  2
AcDbXrecord
  3
AutoCAD 2000
 90
    32768
280
     0
281
     0
  0
ENDSEC
  0
SECTION
  2
TABLES
  0
TABLE
  2
VPORT
  5
8
330
0
100
AcDbSymbolTable
 70
     3
  0
VPORT
  5
5EA
330
8
100
AcDbSymbolTableRecord
100
AcDbViewportTableRecord
  2
*Active
 70
     0
 10
0.0
 20
0.0
 11
1.0
 21
1.0
 12
453.1886392694415
 22
335.1657705592945
 13
0.0
 23
0.0
 14
5.0
 24
5.0
 15
0.0
 25
0.0
 16
0.0
 26
0.0
 36
1.0
 17
0.0
 27
0.0
 37
0.0
 40
676.8950770301914
 41
1.651537335285505
 42
50.0
 43
0.0
 44
0.0
 50
0.0
 51
0.0
 71
     0
 72
   100
 73
     1
 74
     0
 75
     0
 76
     0
 77
     0
 78
     0
281
     0
 65
     1
110
0.0
120
0.0
130
0.0
111
1.0
121
0.0
131
0.0
112
0.0
122
1.0
132
0.0
 79
     0
146
0.0
  0
ENDTAB
  0
TABLE
  2
LTYPE
  5
5
330
0
100
AcDbSymbolTable
 70
     4
  0
LTYPE
  5
14
330
5
100
AcDbSymbolTableRecord
100
AcDbLinetypeTableRecord
  2
BYBLOCK
 70
     0
  3

 72
    65
 73
     0
 40
0.0
  0
LTYPE
  5
15
330
5
100
AcDbSymbolTableRecord
100
AcDbLinetypeTableRecord
  2
BYLAYER
 70
     0
  3

 72
    65
 73
     0
 40
0.0
  0
LTYPE
  5
16
330
5
100
AcDbSymbolTableRecord
100
AcDbLinetypeTableRecord
  2
CONTINUOUS
 70
     0
  3
Solid line
 72
    65
 73
     0
 40
0.0
  0
LTYPE
  5
115
330
5
100
AcDbSymbolTableRecord
100
AcDbLinetypeTableRecord
  2
PHANTOM
 70
     0
  3
______  __  __  ______  __  __  ______  __  __ 
 72
    65
 73
     6
 40
2.5
 49
1.25
 74
     0
 49
-0.25
 74
     0
 49
0.25
 74
     0
 49
-0.25
 74
     0
 49
0.25
 74
     0
 49
-0.25
 74
     0
  0
LTYPE
  5
135
330
5
100
AcDbSymbolTableRecord
100
AcDbLinetypeTableRecord
  2
CENTER
 70
     0
  3
____ _ ____ _ ____ _ ____ _ ____ _ ____ _ ____ 
 72
    65
 73
     4
 40
2.0
 49
1.25
 74
     0
 49
-0.25
 74
     0
 49
0.25
 74
     0
 49
-0.25
 74
     0
  0
LTYPE
  5
4D2
330
5
100
AcDbSymbolTableRecord
100
AcDbLinetypeTableRecord
  2
SLDSECTION0
 70
     0
  3

 72
    65
 73
     4
 40
10.16
 49
6.349999999999998
 74
     0
 49
-1.27
 74
     0
 49
1.27
 74
     0
 49
-1.27
 74
     0
  0
ENDTAB
  0
TABLE
  2
LAYER
  5
2
330
0
100
AcDbSymbolTable
 70
     8
  0
LAYER
  5
F
330
2
100
AcDbSymbolTableRecord
100
AcDbLayerTableRecord
  2
0
 70
     0
 62
     7
  6
CONTINUOUS
370
    -3
390
5E5
  0
LAYER
  5
62
330
2
100
AcDbSymbolTableRecord
100
AcDbLayerTableRecord
  2
VIEWPORT
 70
     0
 62
     7
  6
CONTINUOUS
370
    -3
390
5E5
  0
LAYER
  5
65
330
2
100
AcDbSymbolTableRecord
100
AcDbLayerTableRecord
  2
ZUWAKU
 70
     0
 62
     7
  6
CONTINUOUS
370
    -3
390
5E5
  0
LAYER
  5
158
330
2
100
AcDbSymbolTableRecord
100
AcDbLayerTableRecord
  2
NOKITOI
 70
     0
 62
     8
  6
PHANTOM
370
    -3
390
5E5
  0
LAYER
  5
159
330
2
100
AcDbSymbolTableRecord
100
AcDbLayerTableRecord
  2
SEIHIN
 70
     0
 62
     3
  6
CONTINUOUS
370
    -3
390
5E5
  0
LAYER
  5
15A
330
2
100
AcDbSymbolTableRecord
100
AcDbLayerTableRecord
  2
SUNPOU
 70
     0
 62
     4
  6
CONTINUOUS
370
    -3
390
5E5
  0
LAYER
  5
15B
330
2
100
AcDbSymbolTableRecord
100
AcDbLayerTableRecord
  2
CENTER_L
 70
     0
 62
     1
  6
CENTER
370
    -3
390
5E5
  0
LAYER
  5
1D3
330
2
100
AcDbSymbolTableRecord
100
AcDbLayerTableRecord
  2
DEFPOINTS
 70
     0
 62
     7
  6
CONTINUOUS
290
     0
370
    -3
390
5E5
  0
ENDTAB
  0
TABLE
  2
STYLE
  5
3
330
0
100
AcDbSymbolTable
 70
     1
  0
STYLE
  5
10
330
3
100
AcDbSymbolTableRecord
100
AcDbTextStyleTableRecord
  2
STANDARD
 70
     0
 40
0.0
 41
1.0
 50
0.0
 71
     0
 42
5.0
  3
TXT
  4
bigfont.shx
  0
ENDTAB
  0
TABLE
  2
VIEW
  5
6
330
0
100
AcDbSymbolTable
 70
     0
  0
ENDTAB
  0
TABLE
  2
UCS
  5
7
330
0
100
AcDbSymbolTable
 70
     0
  0
ENDTAB
  0
TABLE
  2
APPID
  5
9
330
0
100
AcDbSymbolTable
 70
     1
  0
APPID
  5
11
330
9
100
AcDbSymbolTableRecord
100
AcDbRegAppTableRecord
  2
ACAD
 70
     0
  0
ENDTAB
  0
TABLE
  2
DIMSTYLE
  5
A
330
0
100
AcDbSymbolTable
 70
     1
100
AcDbDimStyleTable
 71
     0
  0
DIMSTYLE
105
1D
102
{ACAD_REACTORS
330
27D
330
281
330
282
330
283
330
29B
330
29D
330
2A8
330
2DA
330
2E5
102
}
330
A
100
AcDbSymbolTableRecord
100
AcDbDimStyleTableRecord
  2
STANDARD
 70
     0
340
10
  0
ENDTAB
  0
TABLE
  2
BLOCK_RECORD
  5
1
330
0
100
AcDbSymbolTable
 70
    10
  0
BLOCK_RECORD
  5
1A
102
{ACAD_XDICTIONARY
360
42F
102
}
330
1
100
AcDbSymbolTableRecord
100
AcDbBlockTableRecord
  2
*MODEL_SPACE
340
5E6
  0
BLOCK_RECORD
  5
17
102
{ACAD_XDICTIONARY
360
42D
102
}
330
1
100
AcDbSymbolTableRecord
100
AcDbBlockTableRecord
  2
*PAPER_SPACE
340
5E7
  0
BLOCK_RECORD
  5
6D
330
1
100
AcDbSymbolTableRecord
100
AcDbBlockTableRecord
  2
_OPEN
340
0
102
{BLKREFS
331
449
331
44A
331
452
331
453
331
45B
331
45C
331
464
331
465
331
5D7
331
5D8
331
475
331
476
331
47E
331
47F
331
487
331
488
331
490
331
491
102
}
  0
BLOCK_RECORD
  5
322
330
1
100
AcDbSymbolTableRecord
100
AcDbBlockTableRecord
  2
*D1
340
0
  0
BLOCK_RECORD
  5
32E
330
1
100
AcDbSymbolTableRecord
100
AcDbBlockTableRecord
  2
*D2
340
0
  0
BLOCK_RECORD
  5
33A
330
1
100
AcDbSymbolTableRecord
100
AcDbBlockTableRecord
  2
*D3
340
0
  0
BLOCK_RECORD
  5
346
330
1
100
AcDbSymbolTableRecord
100
AcDbBlockTableRecord
  2
*D4
340
0
  0
BLOCK_RECORD
  5
352
330
1
100
AcDbSymbolTableRecord
100
AcDbBlockTableRecord
  2
*D5
340
0
  0
BLOCK_RECORD
  5
35D
330
1
100
AcDbSymbolTableRecord
100
AcDbBlockTableRecord
  2
*D6
340
0
  0
BLOCK_RECORD
  5
369
330
1
100
AcDbSymbolTableRecord
100
AcDbBlockTableRecord
  2
*D7
340
0
  0
BLOCK_RECORD
  5
375
330
1
100
AcDbSymbolTableRecord
100
AcDbBlockTableRecord
  2
*D8
340
0
  0
BLOCK_RECORD
  5
381
330
1
100
AcDbSymbolTableRecord
100
AcDbBlockTableRecord
  2
*D9
340
0
  0
ENDTAB
  0
ENDSEC
  0
SECTION
  2
BLOCKS
  0
BLOCK
  5
1B
330
1A
100
AcDbEntity
  8
0
100
AcDbBlockBegin
  2
*MODEL_SPACE
 70
     0
 10
0.0
 20
0.0
 30
0.0
  3
*MODEL_SPACE
  1

  0
ENDBLK
  5
1C
330
1A
100
AcDbEntity
  8
0
100
AcDbBlockEnd
  0
BLOCK
  5
18
330
17
100
AcDbEntity
 67
     1
  8
0
100
AcDbBlockBegin
  2
*PAPER_SPACE
 70
     0
 10
0.0
 20
0.0
 30
0.0
  3
*PAPER_SPACE
  1

  0
ENDBLK
  5
19
330
17
100
AcDbEntity
 67
     1
  8
0
100
AcDbBlockEnd
  0
BLOCK
  5
6E
330
6D
100
AcDbEntity
  8
0
100
AcDbBlockBegin
  2
_OPEN
 70
     0
 10
0.0
 20
0.0
 30
0.0
  3
_OPEN
  1

  0
LINE
  5
6F
330
6D
100
AcDbEntity
  8
0
  6
ByBlock
 62
     0
100
AcDbLine
 10
-1.0
 20
0.1666666666666666
 30
0.0
 11
0.0
 21
0.0
 31
0.0
  0
LINE
  5
70
330
6D
100
AcDbEntity
  8
0
  6
ByBlock
 62
     0
100
AcDbLine
 10
0.0
 20
0.0
 30
0.0
 11
-1.0
 21
-0.1666666666666666
 31
0.0
  0
LINE
  5
71
330
6D
100
AcDbEntity
  8
0
  6
ByBlock
 62
     0
100
AcDbLine
 10
0.0
 20
0.0
 30
0.0
 11
-1.0
 21
0.0
 31
0.0
  0
ENDBLK
  5
72
330
6D
100
AcDbEntity
  8
0
100
AcDbBlockEnd
  0
BLOCK
  5
38D
330
322
100
AcDbEntity
  8
0
100
AcDbBlockBegin
  2
*D1
 70
     1
 10
0.0
 20
0.0
 30
0.0
  3
*D1
  1

  0
LINE
  5
446
330
322
100
AcDbEntity
  8
SUNPOU
  6
Continuous
 62
     4
100
AcDbLine
 10
400.7856596162786
 20
397.3365055265748
 30
0.0
 11
433.8940142741708
 21
397.3365055265748
 31
0.0
  0
LINE
  5
447
330
322
100
AcDbEntity
  8
SUNPOU
  6
Continuous
 62
     4
100
AcDbLine
 10
315.8853596162787
 20
180.3364055265745
 30
0.0
 11
433.8940142741708
 21
180.3364055265745
 31
0.0
  0
LINE
  5
448
330
322
100
AcDbEntity
  8
SUNPOU
  6
Continuous
 62
     4
100
AcDbLine
 10
430.8940142741708
 20
390.3365055265748
 30
0.0
 11
430.8940142741708
 21
187.3364055265746
 31
0.0
  0
INSERT
  5
449
330
322
100
AcDbEntity
  8
SUNPOU
  6
Continuous
 62
     4
100
AcDbBlockReference
  2
_OPEN
 10
430.8940142741708
 20
397.3365055265748
 30
0.0
 41
7.0
 42
7.0
 43
7.0
 50
90.0
  0
INSERT
  5
44A
330
322
100
AcDbEntity
  8
SUNPOU
  6
Continuous
 62
     4
100
AcDbBlockReference
  2
_OPEN
 10
430.8940142741708
 20
180.3364055265745
 30
0.0
 41
7.0
 42
7.0
 43
7.0
 50
270.0
  0
MTEXT
  5
44B
330
322
100
AcDbEntity
  8
SUNPOU
  6
Continuous
 62
     4
100
AcDbMText
 10
425.8940142741706
 20
288.8364555265748
 30
0.0
 40
6.0
 41
0.0
 71
     5
 72
     5
  1
\A1;217
 11
0.0000000000000001
 21
1.0
 31
0.0
 73
     1
 44
1.0
1001
ACAD
1000
MTEXTBEGIN
1070
    73
1070
     1
1070
    44
1040
1.0
1070
    74
1070
     0
1000
MTEXTEND
1000
MTEXTBEGIN
1070
    73
1070
     1
1070
    44
1040
1.0
1070
    74
1070
     0
1000
MTEXTEND
1000
MTEXTBEGIN
1070
    73
1070
     1
1070
    44
1040
1.0
1070
    74
1070
     0
1000
MTEXTEND
1000
MTEXTBEGIN
1070
    73
1070
     1
1070
    44
1040
1.0
1070
    74
1070
     0
1000
MTEXTEND
  0
POINT
  5
44C
330
322
100
AcDbEntity
  8
DEFPOINTS
  6
Continuous
 62
     0
100
AcDbPoint
 10
394.7856596162786
 20
397.3365055265748
 30
0.0
  0
POINT
  5
44D
330
322
100
AcDbEntity
  8
DEFPOINTS
  6
Continuous
 62
     0
100
AcDbPoint
 10
309.8853596162787
 20
180.3364055265745
 30
0.0
  0
POINT
  5
44E
330
322
100
AcDbEntity
  8
DEFPOINTS
  6
Continuous
 62
     0
100
AcDbPoint
 10
430.8940142741708
 20
180.3364055265745
 30
0.0
  0
ENDBLK
  5
397
330
322
100
AcDbEntity
  8
0
100
AcDbBlockEnd
  0
BLOCK
  5
398
330
32E
100
AcDbEntity
  8
0
100
AcDbBlockBegin
  2
*D2
 70
     1
 10
0.0
 20
0.0
 30
0.0
  3
*D2
  1

  0
LINE
  5
44F
330
32E
100
AcDbEntity
  8
SUNPOU
  6
Continuous
 62
     4
100
AcDbLine
 10
327.7853596162788
 20
253.3363055265746
 30
0.0
 11
327.7853596162788
 21
98.93481960537815
 31
0.0
  0
LINE
  5
450
330
32E
100
AcDbEntity
  8
SUNPOU
  6
Continuous
 62
     4
100
AcDbLine
 10
202.7856596162787
 20
253.3367055265746
 30
0.0
 11
202.7856596162787
 21
98.93481960537815
 31
0.0
  0
LINE
  5
451
330
32E
100
AcDbEntity
  8
SUNPOU
  6
Continuous
 62
     4
100
AcDbLine
 10
320.7853596162788
 20
101.934819605378
 30
0.0
 11
209.7856596162786
 21
101.934819605378
 31
0.0
  0
INSERT
  5
452
330
32E
100
AcDbEntity
  8
SUNPOU
  6
Continuous
 62
     4
100
AcDbBlockReference
  2
_OPEN
 10
327.7853596162788
 20
101.934819605378
 30
0.0
 41
7.0
 42
7.0
 43
7.0
  0
INSERT
  5
453
330
32E
100
AcDbEntity
  8
SUNPOU
  6
Continuous
 62
     4
100
AcDbBlockReference
  2
_OPEN
 10
202.7856596162787
 20
101.934819605378
 30
0.0
 41
7.0
 42
7.0
 43
7.0
 50
180.0
  0
MTEXT
  5
454
330
32E
100
AcDbEntity
  8
SUNPOU
  6
Continuous
 62
     4
100
AcDbMText
 10
265.2855096162787
 20
106.934819605378
 30
0.0
 40
6.0
 41
0.0
 71
     5
 72
     5
  1
\A1;φ125
 73
     1
 44
1.0
1001
ACAD
1000
MTEXTBEGIN
1070
    73
1070
     1
1070
    44
1040
1.0
1070
    74
1070
     0
1000
MTEXTEND
1000
MTEXTBEGIN
1070
    73
1070
     1
1070
    44
1040
1.0
1070
    74
1070
     0
1000
MTEXTEND
1000
MTEXTBEGIN
1070
    73
1070
     1
1070
    44
1040
1.0
1070
    74
1070
     0
1000
MTEXTEND
1000
MTEXTBEGIN
1070
    73
1070
     1
1070
    44
1040
1.0
1070
    74
1070
     0
1000
MTEXTEND
  0
POINT
  5
455
330
32E
100
AcDbEntity
  8
DEFPOINTS
  6
Continuous
 62
     0
100
AcDbPoint
 10
327.7853596162788
 20
259.3363055265746
 30
0.0
  0
POINT
  5
456
330
32E
100
AcDbEntity
  8
DEFPOINTS
  6
Continuous
 62
     0
100
AcDbPoint
 10
202.7856596162787
 20
259.3367055265746
 30
0.0
  0
POINT
  5
457
330
32E
100
AcDbEntity
  8
DEFPOINTS
  6
Continuous
 62
     0
100
AcDbPoint
 10
202.7856596162787
 20
101.934819605378
 30
0.0
  0
ENDBLK
  5
3A2
330
32E
100
AcDbEntity
  8
0
100
AcDbBlockEnd
  0
BLOCK
  5
3A3
330
33A
100
AcDbEntity
  8
0
100
AcDbBlockBegin
  2
*D3
 70
     1
 10
0.0
 20
0.0
 30
0.0
  3
*D3
  1

  0
LINE
  5
458
330
33A
100
AcDbEntity
  8
SUNPOU
  6
Continuous
 62
     4
100
AcDbLine
 10
322.2853596162788
 20
213.3363055265746
 30
0.0
 11
322.2853596162788
 21
123.190952804959
 31
0.0
  0
LINE
  5
459
330
33A
100
AcDbEntity
  8
SUNPOU
  6
Continuous
 62
     4
100
AcDbLine
 10
208.2855596162786
 20
213.3366055265746
 30
0.0
 11
208.2855596162786
 21
123.190952804959
 31
0.0
  0
LINE
  5
45A
330
33A
100
AcDbEntity
  8
SUNPOU
  6
Continuous
 62
     4
100
AcDbLine
 10
315.2853596162788
 20
126.190952804959
 30
0.0
 11
215.2855596162786
 21
126.190952804959
 31
0.0
  0
INSERT
  5
45B
330
33A
100
AcDbEntity
  8
SUNPOU
  6
Continuous
 62
     4
100
AcDbBlockReference
  2
_OPEN
 10
322.2853596162788
 20
126.190952804959
 30
0.0
 41
7.0
 42
7.0
 43
7.0
  0
INSERT
  5
45C
330
33A
100
AcDbEntity
  8
SUNPOU
  6
Continuous
 62
     4
100
AcDbBlockReference
  2
_OPEN
 10
208.2855596162786
 20
126.190952804959
 30
0.0
 41
7.0
 42
7.0
 43
7.0
 50
180.0
  0
MTEXT
  5
45D
330
33A
100
AcDbEntity
  8
SUNPOU
  6
Continuous
 62
     4
100
AcDbMText
 10
265.2854596162788
 20
131.190952804959
 30
0.0
 40
6.0
 41
0.0
 71
     5
 72
     5
  1
\A1;φ114
 73
     1
 44
1.0
1001
ACAD
1000
MTEXTBEGIN
1070
    73
1070
     1
1070
    44
1040
1.0
1070
    74
1070
     0
1000
MTEXTEND
1000
MTEXTBEGIN
1070
    73
1070
     1
1070
    44
1040
1.0
1070
    74
1070
     0
1000
MTEXTEND
1000
MTEXTBEGIN
1070
    73
1070
     1
1070
    44
1040
1.0
1070
    74
1070
     0
1000
MTEXTEND
1000
MTEXTBEGIN
1070
    73
1070
     1
1070
    44
1040
1.0
1070
    74
1070
     0
1000
MTEXTEND
  0
POINT
  5
45E
330
33A
100
AcDbEntity
  8
DEFPOINTS
  6
Continuous
 62
     0
100
AcDbPoint
 10
322.2853596162788
 20
219.3363055265746
 30
0.0
  0
POINT
  5
45F
330
33A
100
AcDbEntity
  8
DEFPOINTS
  6
Continuous
 62
     0
100
AcDbPoint
 10
208.2855596162786
 20
219.3366055265746
 30
0.0
  0
POINT
  5
460
330
33A
100
AcDbEntity
  8
DEFPOINTS
  6
Continuous
 62
     0
100
AcDbPoint
 10
208.2855596162786
 20
126.190952804959
 30
0.0
  0
ENDBLK
  5
3AD
330
33A
100
AcDbEntity
  8
0
100
AcDbBlockEnd
  0
BLOCK
  5
3AE
330
346
100
AcDbEntity
  8
0
100
AcDbBlockBegin
  2
*D4
 70
     1
 10
0.0
 20
0.0
 30
0.0
  3
*D4
  1

  0
LINE
  5
461
330
346
100
AcDbEntity
  8
SUNPOU
  6
Continuous
 62
     4
100
AcDbLine
 10
309.8853596162787
 20
174.3364055265745
 30
0.0
 11
309.8853596162787
 21
144.7519610205063
 31
0.0
  0
LINE
  5
462
330
346
100
AcDbEntity
  8
SUNPOU
  6
Continuous
 62
     4
100
AcDbLine
 10
220.6854596162787
 20
174.3366055265745
 30
0.0
 11
220.6854596162787
 21
144.7519610205063
 31
0.0
  0
LINE
  5
463
330
346
100
AcDbEntity
  8
SUNPOU
  6
Continuous
 62
     4
100
AcDbLine
 10
302.8853596162787
 20
147.7519610205063
 30
0.0
 11
227.6854596162786
 21
147.7519610205063
 31
0.0
  0
INSERT
  5
464
330
346
100
AcDbEntity
  8
SUNPOU
  6
Continuous
 62
     4
100
AcDbBlockReference
  2
_OPEN
 10
309.8853596162787
 20
147.7519610205063
 30
0.0
 41
7.0
 42
7.0
 43
7.0
  0
INSERT
  5
465
330
346
100
AcDbEntity
  8
SUNPOU
  6
Continuous
 62
     4
100
AcDbBlockReference
  2
_OPEN
 10
220.6854596162787
 20
147.7519610205063
 30
0.0
 41
7.0
 42
7.0
 43
7.0
 50
180.0
  0
MTEXT
  5
466
330
346
100
AcDbEntity
  8
SUNPOU
  6
Continuous
 62
     4
100
AcDbMText
 10
265.2854096162788
 20
152.7519610205063
 30
0.0
 40
6.0
 41
0.0
 71
     5
 72
     5
  1
\A1;φ89
 73
     1
 44
1.0
1001
ACAD
1000
MTEXTBEGIN
1070
    73
1070
     1
1070
    44
1040
1.0
1070
    74
1070
     0
1000
MTEXTEND
1000
MTEXTBEGIN
1070
    73
1070
     1
1070
    44
1040
1.0
1070
    74
1070
     0
1000
MTEXTEND
1000
MTEXTBEGIN
1070
    73
1070
     1
1070
    44
1040
1.0
1070
    74
1070
     0
1000
MTEXTEND
1000
MTEXTBEGIN
1070
    73
1070
     1
1070
    44
1040
1.0
1070
    74
1070
     0
1000
MTEXTEND
  0
POINT
  5
467
330
346
100
AcDbEntity
  8
DEFPOINTS
  6
Continuous
 62
     0
100
AcDbPoint
 10
309.8853596162787
 20
180.3364055265745
 30
0.0
  0
POINT
  5
468
330
346
100
AcDbEntity
  8
DEFPOINTS
  6
Continuous
 62
     0
100
AcDbPoint
 10
220.6854596162787
 20
180.3366055265746
 30
0.0
  0
POINT
  5
469
330
346
100
AcDbEntity
  8
DEFPOINTS
  6
Continuous
 62
     0
100
AcDbPoint
 10
220.6854596162787
 20
147.7519610205063
 30
0.0
  0
ENDBLK
  5
3B8
330
346
100
AcDbEntity
  8
0
100
AcDbBlockEnd
  0
BLOCK
  5
3B9
330
352
100
AcDbEntity
  8
0
100
AcDbBlockBegin
  2
*D5
 70
     1
 10
0.0
 20
0.0
 30
0.0
  3
*D5
  1

  0
LINE
  5
5D5
330
352
100
AcDbEntity
  8
SUNPOU
  6
Continuous
 62
     4
100
AcDbLine
 10
315.8853596162787
 20
180.3364055265745
 30
0.0
 11
410.2932465738853
 21
180.3364055265745
 31
0.0
  0
LINE
  5
5D6
330
352
100
AcDbEntity
  8
SUNPOU
  6
Continuous
 62
     4
100
AcDbLine
 10
407.2932465738853
 20
208.3363055265746
 30
0.0
 11
407.2932465738853
 21
187.3364055265746
 31
0.0
  0
INSERT
  5
5D7
330
352
100
AcDbEntity
  8
SUNPOU
  6
Continuous
 62
     4
100
AcDbBlockReference
  2
_OPEN
 10
407.2932465738853
 20
215.3363055265745
 30
0.0
 41
7.0
 42
7.0
 43
7.0
 50
90.0
  0
INSERT
  5
5D8
330
352
100
AcDbEntity
  8
SUNPOU
  6
Continuous
 62
     4
100
AcDbBlockReference
  2
_OPEN
 10
407.2932465738853
 20
180.3364055265745
 30
0.0
 41
7.0
 42
7.0
 43
7.0
 50
270.0
  0
MTEXT
  5
5D9
330
352
100
AcDbEntity
  8
SUNPOU
  6
Continuous
 62
     4
100
AcDbMText
 10
402.2932465738853
 20
197.8363555265746
 30
0.0
 40
6.0
 41
0.0
 71
     5
 72
     5
  1
\A1;35
 11
0.0000000000000001
 21
1.0
 31
0.0
 73
     1
 44
1.0
  0
POINT
  5
5DA
330
352
100
AcDbEntity
  8
DEFPOINTS
  6
Continuous
 62
     0
100
AcDbPoint
 10
321.7853596162788
 20
215.3363055265745
 30
0.0
  0
POINT
  5
5DB
330
352
100
AcDbEntity
  8
DEFPOINTS
  6
Continuous
 62
     0
100
AcDbPoint
 10
309.8853596162787
 20
180.3364055265745
 30
0.0
  0
POINT
  5
5DC
330
352
100
AcDbEntity
  8
DEFPOINTS
  6
Continuous
 62
     0
100
AcDbPoint
 10
407.2932465738853
 20
180.3364055265745
 30
0.0
  0
ENDBLK
  5
3C2
330
352
100
AcDbEntity
  8
0
100
AcDbBlockEnd
  0
BLOCK
  5
3C3
330
35D
100
AcDbEntity
  8
0
100
AcDbBlockBegin
  2
*D6
 70
     1
 10
0.0
 20
0.0
 30
0.0
  3
*D6
  1

  0
LINE
  5
472
330
35D
100
AcDbEntity
  8
SUNPOU
  6
Continuous
 62
     4
100
AcDbLine
 10
333.7853596162788
 20
259.3363055265746
 30
0.0
 11
410.2932465738853
 21
259.3363055265746
 31
0.0
  0
LINE
  5
473
330
35D
100
AcDbEntity
  8
SUNPOU
  6
Continuous
 62
     4
100
AcDbLine
 10
327.7853596162788
 20
215.3363055265745
 30
0.0
 11
410.2932465738853
 21
215.3363055265745
 31
0.0
  0
LINE
  5
474
330
35D
100
AcDbEntity
  8
SUNPOU
  6
Continuous
 62
     4
100
AcDbLine
 10
407.2932465738853
 20
252.3363055265746
 30
0.0
 11
407.2932465738853
 21
222.3363055265746
 31
0.0
  0
INSERT
  5
475
330
35D
100
AcDbEntity
  8
SUNPOU
  6
Continuous
 62
     4
100
AcDbBlockReference
  2
_OPEN
 10
407.2932465738853
 20
259.3363055265746
 30
0.0
 41
7.0
 42
7.0
 43
7.0
 50
90.0
  0
INSERT
  5
476
330
35D
100
AcDbEntity
  8
SUNPOU
  6
Continuous
 62
     4
100
AcDbBlockReference
  2
_OPEN
 10
407.2932465738853
 20
215.3363055265745
 30
0.0
 41
7.0
 42
7.0
 43
7.0
 50
270.0
  0
MTEXT
  5
477
330
35D
100
AcDbEntity
  8
SUNPOU
  6
Continuous
 62
     4
100
AcDbMText
 10
402.2932465738853
 20
237.3363055265746
 30
0.0
 40
6.0
 41
0.0
 71
     5
 72
     5
  1
\A1;44
 11
0.0000000000000001
 21
1.0
 31
0.0
 73
     1
 44
1.0
1001
ACAD
1000
MTEXTBEGIN
1070
    73
1070
     1
1070
    44
1040
1.0
1070
    74
1070
     0
1000
MTEXTEND
1000
MTEXTBEGIN
1070
    73
1070
     1
1070
    44
1040
1.0
1070
    74
1070
     0
1000
MTEXTEND
1000
MTEXTBEGIN
1070
    73
1070
     1
1070
    44
1040
1.0
1070
    74
1070
     0
1000
MTEXTEND
1000
MTEXTBEGIN
1070
    73
1070
     1
1070
    44
1040
1.0
1070
    74
1070
     0
1000
MTEXTEND
  0
POINT
  5
478
330
35D
100
AcDbEntity
  8
DEFPOINTS
  6
Continuous
 62
     0
100
AcDbPoint
 10
327.7853596162788
 20
259.3363055265746
 30
0.0
  0
POINT
  5
479
330
35D
100
AcDbEntity
  8
DEFPOINTS
  6
Continuous
 62
     0
100
AcDbPoint
 10
321.7853596162788
 20
215.3363055265745
 30
0.0
  0
POINT
  5
47A
330
35D
100
AcDbEntity
  8
DEFPOINTS
  6
Continuous
 62
     0
100
AcDbPoint
 10
407.2932465738853
 20
215.3363055265745
 30
0.0
  0
ENDBLK
  5
3CD
330
35D
100
AcDbEntity
  8
0
100
AcDbBlockEnd
  0
BLOCK
  5
3CE
330
369
100
AcDbEntity
  8
0
100
AcDbBlockBegin
  2
*D7
 70
     1
 10
0.0
 20
0.0
 30
0.0
  3
*D7
  1

  0
LINE
  5
47B
330
369
100
AcDbEntity
  8
SUNPOU
  6
Continuous
 62
     4
100
AcDbLine
 10
394.7856596162786
 20
403.3365055265748
 30
0.0
 11
394.7856596162786
 21
429.514069320913
 31
0.0
  0
LINE
  5
47C
330
369
100
AcDbEntity
  8
SUNPOU
  6
Continuous
 62
     4
100
AcDbLine
 10
135.7855296162788
 20
403.3367055265746
 30
0.0
 11
135.7855296162788
 21
429.514069320913
 31
0.0
  0
LINE
  5
47D
330
369
100
AcDbEntity
  8
SUNPOU
  6
Continuous
 62
     4
100
AcDbLine
 10
387.7856596162786
 20
426.5140693209128
 30
0.0
 11
142.7855296162788
 21
426.5140693209128
 31
0.0
  0
INSERT
  5
47E
330
369
100
AcDbEntity
  8
SUNPOU
  6
Continuous
 62
     4
100
AcDbBlockReference
  2
_OPEN
 10
394.7856596162786
 20
426.5140693209128
 30
0.0
 41
7.0
 42
7.0
 43
7.0
  0
INSERT
  5
47F
330
369
100
AcDbEntity
  8
SUNPOU
  6
Continuous
 62
     4
100
AcDbBlockReference
  2
_OPEN
 10
135.7855296162788
 20
426.5140693209128
 30
0.0
 41
7.0
 42
7.0
 43
7.0
 50
180.0
  0
MTEXT
  5
480
330
369
100
AcDbEntity
  8
SUNPOU
  6
Continuous
 62
     4
100
AcDbMText
 10
265.2855946162786
 20
431.5140693209128
 30
0.0
 40
6.0
 41
0.0
 71
     5
 72
     5
  1
\A1;259
 73
     1
 44
1.0
1001
ACAD
1000
MTEXTBEGIN
1070
    73
1070
     1
1070
    44
1040
1.0
1070
    74
1070
     0
1000
MTEXTEND
1000
MTEXTBEGIN
1070
    73
1070
     1
1070
    44
1040
1.0
1070
    74
1070
     0
1000
MTEXTEND
1000
MTEXTBEGIN
1070
    73
1070
     1
1070
    44
1040
1.0
1070
    74
1070
     0
1000
MTEXTEND
1000
MTEXTBEGIN
1070
    73
1070
     1
1070
    44
1040
1.0
1070
    74
1070
     0
1000
MTEXTEND
  0
POINT
  5
481
330
369
100
AcDbEntity
  8
DEFPOINTS
  6
Continuous
 62
     0
100
AcDbPoint
 10
394.7856596162786
 20
397.3365055265748
 30
0.0
  0
POINT
  5
482
330
369
100
AcDbEntity
  8
DEFPOINTS
  6
Continuous
 62
     0
100
AcDbPoint
 10
135.7855296162788
 20
397.3367055265747
 30
0.0
  0
POINT
  5
483
330
369
100
AcDbEntity
  8
DEFPOINTS
  6
Continuous
 62
     0
100
AcDbPoint
 10
135.7855296162788
 20
426.5140693209128
 30
0.0
  0
ENDBLK
  5
3D8
330
369
100
AcDbEntity
  8
0
100
AcDbBlockEnd
  0
BLOCK
  5
3D9
330
375
100
AcDbEntity
  8
0
100
AcDbBlockBegin
  2
*D8
 70
     1
 10
0.0
 20
0.0
 30
0.0
  3
*D8
  1

  0
LINE
  5
484
330
375
100
AcDbEntity
  8
SUNPOU
  6
Continuous
 62
     4
100
AcDbLine
 10
699.2859596162786
 20
403.3361055265747
 30
0.0
 11
699.2859596162786
 21
429.514069320913
 31
0.0
  0
LINE
  5
485
330
375
100
AcDbEntity
  8
SUNPOU
  6
Continuous
 62
     4
100
AcDbLine
 10
511.2858596162786
 20
403.3367055265746
 30
0.0
 11
511.2858596162786
 21
429.514069320913
 31
0.0
  0
LINE
  5
486
330
375
100
AcDbEntity
  8
SUNPOU
  6
Continuous
 62
     4
100
AcDbLine
 10
692.2859596162786
 20
426.5140693209128
 30
0.0
 11
518.2858596162787
 21
426.5140693209128
 31
0.0
  0
INSERT
  5
487
330
375
100
AcDbEntity
  8
SUNPOU
  6
Continuous
 62
     4
100
AcDbBlockReference
  2
_OPEN
 10
699.2859596162786
 20
426.5140693209128
 30
0.0
 41
7.0
 42
7.0
 43
7.0
  0
INSERT
  5
488
330
375
100
AcDbEntity
  8
SUNPOU
  6
Continuous
 62
     4
100
AcDbBlockReference
  2
_OPEN
 10
511.2858596162786
 20
426.5140693209128
 30
0.0
 41
7.0
 42
7.0
 43
7.0
 50
180.0
  0
MTEXT
  5
489
330
375
100
AcDbEntity
  8
SUNPOU
  6
Continuous
 62
     4
100
AcDbMText
 10
605.2859096162785
 20
431.5140693209128
 30
0.0
 40
6.0
 41
0.0
 71
     5
 72
     5
  1
\A1;188
 73
     1
 44
1.0
1001
ACAD
1000
MTEXTBEGIN
1070
    73
1070
     1
1070
    44
1040
1.0
1070
    74
1070
     0
1000
MTEXTEND
1000
MTEXTBEGIN
1070
    73
1070
     1
1070
    44
1040
1.0
1070
    74
1070
     0
1000
MTEXTEND
1000
MTEXTBEGIN
1070
    73
1070
     1
1070
    44
1040
1.0
1070
    74
1070
     0
1000
MTEXTEND
1000
MTEXTBEGIN
1070
    73
1070
     1
1070
    44
1040
1.0
1070
    74
1070
     0
1000
MTEXTEND
  0
POINT
  5
48A
330
375
100
AcDbEntity
  8
DEFPOINTS
  6
Continuous
 62
     0
100
AcDbPoint
 10
699.2859596162786
 20
397.3361055265748
 30
0.0
  0
POINT
  5
48B
330
375
100
AcDbEntity
  8
DEFPOINTS
  6
Continuous
 62
     0
100
AcDbPoint
 10
511.2858596162786
 20
397.3367055265747
 30
0.0
  0
POINT
  5
48C
330
375
100
AcDbEntity
  8
DEFPOINTS
  6
Continuous
 62
     0
100
AcDbPoint
 10
511.2858596162786
 20
426.5140693209128
 30
0.0
  0
ENDBLK
  5
3E3
330
375
100
AcDbEntity
  8
0
100
AcDbBlockEnd
  0
BLOCK
  5
3E4
330
381
100
AcDbEntity
  8
0
100
AcDbBlockBegin
  2
*D9
 70
     1
 10
0.0
 20
0.0
 30
0.0
  3
*D9
  1

  0
LINE
  5
48D
330
381
100
AcDbEntity
  8
SUNPOU
  6
Continuous
 62
     4
100
AcDbLine
 10
505.2858596162787
 20
397.3367055265747
 30
0.0
 11
484.8385477892507
 21
397.3367055265747
 31
0.0
  0
LINE
  5
48E
330
381
100
AcDbEntity
  8
SUNPOU
  6
Continuous
 62
     4
100
AcDbLine
 10
539.2856188046347
 20
293.3364055273721
 30
0.0
 11
484.8385477892507
 21
293.3364055273721
 31
0.0
  0
LINE
  5
48F
330
381
100
AcDbEntity
  8
SUNPOU
  6
Continuous
 62
     4
100
AcDbLine
 10
487.8385477892506
 20
390.3367055265746
 30
0.0
 11
487.8385477892506
 21
300.3364055273721
 31
0.0
  0
INSERT
  5
490
330
381
100
AcDbEntity
  8
SUNPOU
  6
Continuous
 62
     4
100
AcDbBlockReference
  2
_OPEN
 10
487.8385477892506
 20
397.3367055265747
 30
0.0
 41
7.0
 42
7.0
 43
7.0
 50
90.0
  0
INSERT
  5
491
330
381
100
AcDbEntity
  8
SUNPOU
  6
Continuous
 62
     4
100
AcDbBlockReference
  2
_OPEN
 10
487.8385477892506
 20
293.3364055273721
 30
0.0
 41
7.0
 42
7.0
 43
7.0
 50
270.0
  0
MTEXT
  5
492
330
381
100
AcDbEntity
  8
SUNPOU
  6
Continuous
 62
     4
100
AcDbMText
 10
482.8385477892506
 20
345.3365555269734
 30
0.0
 40
6.0
 41
0.0
 71
     5
 72
     5
  1
\A1;104
 11
0.0000000000000001
 21
1.0
 31
0.0
 73
     1
 44
1.0
1001
ACAD
1000
MTEXTBEGIN
1070
    73
1070
     1
1070
    44
1040
1.0
1070
    74
1070
     0
1000
MTEXTEND
1000
MTEXTBEGIN
1070
    73
1070
     1
1070
    44
1040
1.0
1070
    74
1070
     0
1000
MTEXTEND
1000
MTEXTBEGIN
1070
    73
1070
     1
1070
    44
1040
1.0
1070
    74
1070
     0
1000
MTEXTEND
1000
MTEXTBEGIN
1070
    73
1070
     1
1070
    44
1040
1.0
1070
    74
1070
     0
1000
MTEXTEND
  0
POINT
  5
493
330
381
100
AcDbEntity
  8
DEFPOINTS
  6
Continuous
 62
     0
100
AcDbPoint
 10
511.2858596162786
 20
397.3367055265747
 30
0.0
  0
POINT
  5
494
330
381
100
AcDbEntity
  8
DEFPOINTS
  6
Continuous
 62
     0
100
AcDbPoint
 10
545.2856188046347
 20
293.3364055273721
 30
0.0
  0
POINT
  5
495
330
381
100
AcDbEntity
  8
DEFPOINTS
  6
Continuous
 62
     0
100
AcDbPoint
 10
487.8385477892506
 20
293.3364055273721
 30
0.0
  0
ENDBLK
  5
3EE
330
381
100
AcDbEntity
  8
0
100
AcDbBlockEnd
  0
ENDSEC
  0
SECTION
  2
ENTITIES
  0
TEXT
  5
11A
330
1A
100
AcDbEntity
  8
ZUWAKU
 62
     7
 48
10.0
100
AcDbText
 10
795.5579444309237
 20
4.974918402528146
 30
0.0
 40
8.0
  1
A1
100
AcDbText
  0
LINE
  5
11B
330
1A
100
AcDbEntity
  8
ZUWAKU
 62
     7
 48
10.0
100
AcDbLine
 10
10.05047808566086
 20
25.78258628282264
 30
0.0
 11
806.0504780856609
 21
25.78258628282253
 31
0.0
  0
LINE
  5
11C
330
1A
100
AcDbEntity
  8
ZUWAKU
  6
Continuous
 62
     7
100
AcDbLine
 10
806.0504780856609
 20
563.7825862828226
 30
0.0
 11
10.05047808566086
 21
563.7825862828226
 31
0.0
  0
LINE
  5
11D
330
1A
100
AcDbEntity
  8
ZUWAKU
  6
Continuous
 62
     7
100
AcDbLine
 10
806.0504780856609
 20
13.78258628282265
 30
0.0
 11
10.05047808566086
 21
13.78258628282265
 31
0.0
  0
LINE
  5
11E
330
1A
100
AcDbEntity
  8
ZUWAKU
  6
Continuous
 62
     7
100
AcDbLine
 10
10.05047808566086
 20
563.7825862828226
 30
0.0
 11
10.05047808566086
 21
13.78258628282265
 31
0.0
  0
LINE
  5
11F
330
1A
100
AcDbEntity
  8
ZUWAKU
 62
     7
 48
10.0
100
AcDbLine
 10
44.55797523147839
 20
13.78258628282265
 30
0.0
 11
44.55797523147839
 21
25.78258628282264
 31
0.0
  0
TEXT
  5
120
330
1A
100
AcDbEntity
  8
ZUWAKU
 62
     7
100
AcDbText
 10
16.0567655118093
 20
15.52294263804401
 30
0.0
 40
8.0
  1
品 種
100
AcDbText
  0
LINE
  5
121
330
1A
100
AcDbEntity
  8
ZUWAKU
 62
     7
 48
10.0
100
AcDbLine
 10
276.1028387068254
 20
13.78258628282265
 30
0.0
 11
276.1028387068254
 21
25.78258628282261
 31
0.0
  0
LINE
  5
122
330
1A
100
AcDbEntity
  8
ZUWAKU
 62
     7
 48
10.0
100
AcDbLine
 10
209.5138526425484
 20
13.78258628282265
 30
0.0
 11
209.5138526425484
 21
25.78258628282263
 31
0.0
  0
TEXT
  5
123
330
1A
100
AcDbEntity
  8
ZUWAKU
 62
     7
100
AcDbText
 10
282.3131429914078
 20
15.64241700452384
 30
0.0
 40
8.0
  1
じょうご　Ｐ１５０－ＶＵＴ１００－ＶＵＴ７５（Ｓ）
100
AcDbText
  0
TEXT
  5
124
330
1A
100
AcDbEntity
  8
ZUWAKU
 62
     7
100
AcDbText
 10
215.4560837190755
 20
16.18358115302453
 30
0.0
 40
8.0
  1
品名・ｻ ｲ ｽﾞ
100
AcDbText
  0
TEXT
  5
125
330
1A
100
AcDbEntity
  8
ZUWAKU
 62
     7
100
AcDbText
 10
50.3519382305086
 20
16.10306189639755
 30
0.0
 40
8.0
  1
大型　のきとい
100
AcDbText
  0
LINE
  5
126
330
1A
100
AcDbEntity
  8
ZUWAKU
 62
     7
 48
10.0
100
AcDbLine
 10
768.7231079932794
 20
13.78258628282236
 30
0.0
 11
768.7231079932794
 21
25.78258628282254
 31
0.0
  0
LINE
  5
127
330
1A
100
AcDbEntity
  8
ZUWAKU
 62
     7
 48
10.0
100
AcDbLine
 10
733.8119002376946
 20
13.78258628282241
 30
0.0
 11
733.8119002376945
 21
25.78258628282254
 31
0.0
  0
TEXT
  5
128
330
1A
100
AcDbEntity
  8
ZUWAKU
 62
     7
100
AcDbText
 10
739.6955629973525
 20
15.24227755810852
 30
0.0
 40
8.0
  1
尺 度
100
AcDbText
  0
TEXT
  5
129
330
1A
100
AcDbEntity
  8
ZUWAKU
 62
     7
100
AcDbText
 10
779.7374630323227
 20
15.55488920081528
 30
0.0
 40
8.0
  1
1/2
100
AcDbText
  0
TEXT
  5
12A
330
1A
100
AcDbEntity
  8
ZUWAKU
 62
     7
100
AcDbText
 10
654.2531733678779
 20
15.90287984531518
 30
0.0
 40
8.0
  1
ＧＳ７９
100
AcDbText
  0
TEXT
  5
12B
330
1A
100
AcDbEntity
  8
ZUWAKU
 62
     7
100
AcDbText
 10
620.3363288383084
 20
15.6519090944263
 30
0.0
 40
8.0
  1
品 番
100
AcDbText
  0
LINE
  5
12C
330
1A
100
AcDbEntity
  8
ZUWAKU
 62
     7
 48
10.0
100
AcDbLine
 10
614.3351028194127
 20
13.78258628282232
 30
0.0
 11
614.3351028194127
 21
25.78258628282255
 31
0.0
  0
LINE
  5
12D
330
1A
100
AcDbEntity
  8
ZUWAKU
 62
     7
 48
10.0
100
AcDbLine
 10
648.7607587371021
 20
13.78258628282232
 30
0.0
 11
648.7607587371021
 21
25.78258628282255
 31
0.0
  0
TEXT
  5
12E
330
1A
100
AcDbEntity
  8
ZUWAKU
 62
     7
 48
10.0
100
AcDbText
 10
646.2758615931216
 20
4.949376903717847
 30
0.0
 40
8.0
  1
積水化学工業株式会社  建材
100
AcDbText
  0
LINE
  5
12F
330
1A
100
AcDbEntity
  8
ZUWAKU
  6
Continuous
 62
     7
100
AcDbLine
 10
806.0504780856609
 20
563.7825862828226
 30
0.0
 11
806.0504780856609
 21
13.78258628282265
 31
0.0
  0
DIMENSION
  5
27D
330
1A
100
AcDbEntity
  8
SUNPOU
  6
Continuous
100
AcDbDimension
  2
*D1
 10
430.8940142741708
 20
180.3364055265745
 30
0.0
 11
425.8940142741706
 21
288.8364555265748
 31
0.0
 70
    32
 71
     5
 42
-1.0
  3
STANDARD
100
AcDbAlignedDimension
 13
394.7856596162786
 23
397.3365055265748
 33
0.0
 14
309.8853596162787
 24
180.3364055265745
 34
0.0
 50
90.0
100
AcDbRotatedDimension
1001
ACAD
1000
DSTYLE
1002
{
1070
   140
1040
6.0
1070
    74
1070
     0
1070
   172
1070
     1
1070
    73
1070
     0
1070
   272
1070
     2
1070
    77
1070
     3
1070
   173
1070
     1
1070
   147
1040
2.0
1070
    42
1040
6.0
1070
    44
1040
3.0
1070
    43
1040
14.0
1070
   271
1070
     0
1070
   178
1070
     4
1070
   177
1070
     4
1070
   176
1070
     4
1070
   141
1040
150.0
1070
     7
1000
_OPEN
1070
     6
1000
_OPEN
1070
    41
1040
7.0
1002
}
  0
LINE
  5
27E
330
1A
100
AcDbEntity
  8
SEIHIN
  6
Continuous
 62
     3
100
AcDbLine
 10
382.7854596162787
 20
290.3366055265746
 30
0.0
 11
373.2710596162788
 21
284.6279055265747
 31
0.0
  0
LINE
  5
27F
330
1A
100
AcDbEntity
  8
SEIHIN
  6
Continuous
 62
     3
100
AcDbLine
 10
147.7855596162788
 20
290.3367055265746
 30
0.0
 11
157.3000596162786
 21
284.6280055265746
 31
0.0
  0
LINE
  5
280
330
1A
100
AcDbEntity
  8
CENTER_L
  6
CENTER
 62
     1
 48
5.0
100
AcDbLine
 10
265.2854603330371
 20
166.3372678581529
 30
0.0
 11
265.2855590341053
 21
411.3365142865348
 31
0.0
  0
DIMENSION
  5
281
330
1A
100
AcDbEntity
  8
SUNPOU
  6
Continuous
100
AcDbDimension
  2
*D2
 10
202.7856596162787
 20
101.934819605378
 30
0.0
 11
265.2855096162787
 21
106.934819605378
 31
0.0
 70
    32
  1
φ<>
 71
     5
 42
-1.0
  3
STANDARD
100
AcDbAlignedDimension
 13
327.7853596162788
 23
259.3363055265746
 33
0.0
 14
202.7856596162787
 24
259.3367055265746
 34
0.0
100
AcDbRotatedDimension
1001
ACAD
1000
DSTYLE
1002
{
1070
   140
1040
6.0
1070
    74
1070
     0
1070
   172
1070
     1
1070
    73
1070
     0
1070
   272
1070
     2
1070
    77
1070
     3
1070
   173
1070
     1
1070
   147
1040
2.0
1070
    42
1040
6.0
1070
    44
1040
3.0
1070
    43
1040
14.0
1070
   271
1070
     0
1070
   178
1070
     4
1070
   177
1070
     4
1070
   176
1070
     4
1070
   141
1040
150.0
1070
     7
1000
_OPEN
1070
     6
1000
_OPEN
1070
    41
1040
7.0
1002
}
  0
DIMENSION
  5
282
330
1A
100
AcDbEntity
  8
SUNPOU
  6
Continuous
100
AcDbDimension
  2
*D3
 10
208.2855596162786
 20
126.190952804959
 30
0.0
 11
265.2854596162788
 21
131.190952804959
 31
0.0
 70
    32
  1
φ<>
 71
     5
 42
-1.0
  3
STANDARD
100
AcDbAlignedDimension
 13
322.2853596162788
 23
219.3363055265746
 33
0.0
 14
208.2855596162786
 24
219.3366055265746
 34
0.0
100
AcDbRotatedDimension
1001
ACAD
1000
DSTYLE
1002
{
1070
   140
1040
6.0
1070
    74
1070
     0
1070
   172
1070
     1
1070
    73
1070
     0
1070
   272
1070
     2
1070
    77
1070
     3
1070
   173
1070
     1
1070
   147
1040
2.0
1070
    42
1040
6.0
1070
    44
1040
3.0
1070
    43
1040
14.0
1070
   271
1070
     0
1070
   178
1070
     4
1070
   177
1070
     4
1070
   176
1070
     4
1070
   141
1040
150.0
1070
     7
1000
_OPEN
1070
     6
1000
_OPEN
1070
    41
1040
7.0
1002
}
  0
DIMENSION
  5
283
330
1A
100
AcDbEntity
  8
SUNPOU
  6
Continuous
100
AcDbDimension
  2
*D4
 10
220.6854596162787
 20
147.7519610205063
 30
0.0
 11
265.2854096162788
 21
152.7519610205063
 31
0.0
 70
    32
  1
φ<>
 71
     5
 42
-1.0
  3
STANDARD
100
AcDbAlignedDimension
 13
309.8853596162787
 23
180.3364055265745
 33
0.0
 14
220.6854596162787
 24
180.3366055265746
 34
0.0
100
AcDbRotatedDimension
1001
ACAD
1000
DSTYLE
1002
{
1070
   140
1040
6.0
1070
    74
1070
     0
1070
   172
1070
     1
1070
    73
1070
     0
1070
   272
1070
     2
1070
    77
1070
     3
1070
   173
1070
     1
1070
   147
1040
2.0
1070
    42
1040
6.0
1070
    44
1040
3.0
1070
    43
1040
14.0
1070
   271
1070
     0
1070
   178
1070
     4
1070
   177
1070
     4
1070
   176
1070
     4
1070
   141
1040
150.0
1070
     7
1000
_OPEN
1070
     6
1000
_OPEN
1070
    41
1040
7.0
1002
}
  0
LINE
  5
284
330
1A
100
AcDbEntity
  8
SEIHIN
  6
Continuous
 62
     3
100
AcDbLine
 10
321.7853596162788
 20
215.3363055265745
 30
0.0
 11
265.2853596162789
 21
215.3365055265746
 31
0.0
  0
LINE
  5
285
330
1A
100
AcDbEntity
  8
SEIHIN
  6
Continuous
 62
     3
100
AcDbLine
 10
321.7853596162788
 20
219.3363055265746
 30
0.0
 11
208.7855596162787
 21
219.3366055265746
 31
0.0
  0
LINE
  5
286
330
1A
100
AcDbEntity
  8
SEIHIN
  6
Continuous
 62
     3
100
AcDbLine
 10
265.2852596162787
 20
180.3365055265746
 30
0.0
 11
309.8853596162787
 21
180.3364055265745
 31
0.0
  0
LINE
  5
287
330
1A
100
AcDbEntity
  8
SEIHIN
  6
Continuous
 62
     3
100
AcDbLine
 10
265.2855596162786
 20
284.3365055265747
 30
0.0
 11
372.7855596162788
 21
284.3365055265747
 31
0.0
  0
LINE
  5
288
330
1A
100
AcDbEntity
  8
SEIHIN
  6
Continuous
 62
     3
100
AcDbLine
 10
265.2854596162788
 20
279.3365055265746
 30
0.0
 11
372.7854596162786
 21
279.3365055265746
 31
0.0
  0
LINE
  5
289
330
1A
100
AcDbEntity
  8
SEIHIN
  6
Continuous
 62
     3
100
AcDbLine
 10
327.7853596162788
 20
269.3366055265746
 30
0.0
 11
265.2854596162788
 21
269.3365055265747
 31
0.0
  0
LINE
  5
28A
330
1A
100
AcDbEntity
  8
SEIHIN
  6
Continuous
 62
     3
100
AcDbLine
 10
202.7856596162787
 20
259.3367055265746
 30
0.0
 11
327.7853596162788
 21
259.3363055265746
 31
0.0
  0
LINE
  5
28B
330
1A
100
AcDbEntity
  8
SEIHIN
  6
Continuous
 62
     3
100
AcDbLine
 10
220.6854596162787
 20
180.3366055265746
 30
0.0
 11
220.6354596162788
 21
215.3366055265746
 31
0.0
  0
LINE
  5
28C
330
1A
100
AcDbEntity
  8
SEIHIN
  6
Continuous
 62
     3
100
AcDbLine
 10
265.2853596162789
 20
180.3365055265746
 30
0.0
 11
220.6854596162787
 21
180.3366055265746
 31
0.0
  0
LINE
  5
28D
330
1A
100
AcDbEntity
  8
SEIHIN
  6
Continuous
 62
     3
100
AcDbLine
 10
202.7856596162787
 20
269.3366055265746
 30
0.0
 11
265.2855596162786
 21
269.3365055265747
 31
0.0
  0
LINE
  5
28E
330
1A
100
AcDbEntity
  8
SEIHIN
  6
Continuous
 62
     3
100
AcDbLine
 10
208.7854596162788
 20
215.3366055265746
 30
0.0
 11
265.2855596162786
 21
215.3365055265746
 31
0.0
  0
LINE
  5
28F
330
1A
100
AcDbEntity
  8
SEIHIN
  6
Continuous
 62
     3
100
AcDbLine
 10
265.2855596162786
 20
284.3365055265747
 30
0.0
 11
157.7855596162786
 21
284.3367055265746
 31
0.0
  0
LINE
  5
290
330
1A
100
AcDbEntity
  8
SEIHIN
  6
Continuous
 62
     3
100
AcDbLine
 10
265.2855596162786
 20
279.3365055265746
 30
0.0
 11
157.7855596162786
 21
279.3367055265747
 31
0.0
  0
LINE
  5
291
330
1A
100
AcDbEntity
  8
SEIHIN
  6
Continuous
 62
     3
100
AcDbLine
 10
208.2356596162788
 20
259.3366055265746
 30
0.0
 11
208.2855596162786
 21
219.3366055265746
 31
0.0
  0
LINE
  5
292
330
1A
100
AcDbEntity
  8
SEIHIN
  6
Continuous
 62
     3
100
AcDbLine
 10
208.7854596162788
 20
215.3366055265746
 30
0.0
 11
208.7855596162787
 21
219.3366055265746
 31
0.0
  0
LINE
  5
293
330
1A
100
AcDbEntity
  8
SEIHIN
  6
Continuous
 62
     3
100
AcDbLine
 10
208.7855596162787
 20
219.3366055265746
 30
0.0
 11
208.2855596162786
 21
219.3366055265746
 31
0.0
  0
LINE
  5
294
330
1A
100
AcDbEntity
  8
SEIHIN
  6
Continuous
 62
     3
100
AcDbLine
 10
158.5685596162786
 20
279.1627055265746
 30
0.0
 11
194.9549596162788
 21
271.0768055265746
 31
0.0
  0
ARC
  5
295
330
1A
100
AcDbEntity
  8
SEIHIN
  6
Continuous
 62
     3
100
AcDbCircle
 10
156.7855554912956
 20
283.7705128120799
 30
0.0
 40
1.00000412500946
100
AcDbArc
 50
359.999582573022
 51
59.0358260409472
  0
ARC
  5
296
330
1A
100
AcDbEntity
  8
SEIHIN
  6
Continuous
 62
     3
100
AcDbCircle
 10
158.7855734760865
 20
280.1388882475638
 30
0.0
 40
1.000013859957116
100
AcDbArc
 50
179.9990099993278
 51
257.4664736336261
  0
LINE
  5
297
330
1A
100
AcDbEntity
  8
SEIHIN
  6
Continuous
 62
     3
100
AcDbLine
 10
157.7855596162786
 20
280.1389055265746
 30
0.0
 11
157.7855596162786
 21
283.7705055265746
 31
0.0
  0
ARC
  5
298
330
1A
100
AcDbEntity
  8
SEIHIN
  6
Continuous
 62
     3
100
AcDbCircle
 10
192.785645763798
 20
261.3149227952805
 30
0.0
 40
10.00001385249568
100
AcDbArc
 50
359.9999010577411
 51
77.47115549441565
  0
LINE
  5
299
330
1A
100
AcDbEntity
  8
SEIHIN
  6
Continuous
 62
     3
100
AcDbLine
 10
202.7856596162787
 20
259.3366055265746
 30
0.0
 11
202.7856596162787
 21
261.3149055265746
 31
0.0
  0
ARC
  5
29A
330
1A
100
AcDbEntity
  8
SEIHIN
  6
Continuous
 62
     3
100
AcDbCircle
 10
199.2855790209023
 20
279.5045900640901
 30
0.0
 40
1.000019411289291
100
AcDbArc
 50
179.993384615344
 51
199.0733412125771
  0
DIMENSION
  5
29B
330
1A
100
AcDbEntity
  8
SUNPOU
  6
Continuous
100
AcDbDimension
  2
*D5
 10
407.2932465738853
 20
180.3364055265745
 30
0.0
 11
402.2932465738853
 21
197.8363555265746
 31
0.0
 70
    32
 71
     5
 42
-1.0
  3
STANDARD
100
AcDbAlignedDimension
 13
321.7853596162788
 23
215.3363055265745
 33
0.0
 14
309.8853596162787
 24
180.3364055265745
 34
0.0
 50
90.0
100
AcDbRotatedDimension
1001
ACAD
1000
DSTYLE
1002
{
1070
   287
1070
     4
1070
   287
1070
     4
1070
   287
1070
     4
1070
   287
1070
     4
1070
   287
1070
     4
1070
    41
1040
7.0
1070
    42
1040
6.0
1070
    43
1040
14.0
1070
    44
1040
3.0
1070
    73
1070
     0
1070
    74
1070
     0
1070
    75
1070
     1
1070
    77
1070
     3
1070
   140
1040
6.0
1070
   141
1040
150.0
1070
   147
1040
2.0
1070
   172
1070
     1
1070
   173
1070
     1
1070
   176
1070
     4
1070
   177
1070
     4
1070
   178
1070
     4
1070
   271
1070
     0
1070
   272
1070
     2
1070
   279
1070
     1
1070
     6
1000
OPEN
1070
     7
1000
OPEN
1002
}
  0
LINE
  5
29C
330
1A
100
AcDbEntity
  8
SEIHIN
  6
Continuous
 62
     3
100
AcDbLine
 10
309.8853596162787
 20
180.3364055265745
 30
0.0
 11
309.9354596162788
 21
215.3364055265746
 31
0.0
  0
DIMENSION
  5
29D
330
1A
100
AcDbEntity
  8
SUNPOU
  6
Continuous
100
AcDbDimension
  2
*D6
 10
407.2932465738853
 20
215.3363055265745
 30
0.0
 11
402.2932465738853
 21
237.3363055265746
 31
0.0
 70
    32
 71
     5
 42
-1.0
  3
STANDARD
100
AcDbAlignedDimension
 13
327.7853596162788
 23
259.3363055265746
 33
0.0
 14
321.7853596162788
 24
215.3363055265745
 34
0.0
 50
90.0
100
AcDbRotatedDimension
1001
ACAD
1000
DSTYLE
1002
{
1070
   140
1040
6.0
1070
    74
1070
     0
1070
   172
1070
     1
1070
    73
1070
     0
1070
   272
1070
     2
1070
    77
1070
     3
1070
   173
1070
     1
1070
   147
1040
2.0
1070
    42
1040
6.0
1070
    44
1040
3.0
1070
    43
1040
14.0
1070
   271
1070
     0
1070
   178
1070
     4
1070
   177
1070
     4
1070
   176
1070
     4
1070
   141
1040
150.0
1070
     7
1000
_OPEN
1070
     6
1000
_OPEN
1070
    41
1040
7.0
1002
}
  0
LINE
  5
29E
330
1A
100
AcDbEntity
  8
SEIHIN
  6
Continuous
 62
     3
100
AcDbLine
 10
372.0024596162788
 20
279.1625055265746
 30
0.0
 11
335.6160596162788
 21
271.0767055265746
 31
0.0
  0
LINE
  5
29F
330
1A
100
AcDbEntity
  8
SEIHIN
  6
Continuous
 62
     3
100
AcDbLine
 10
322.3355596162789
 20
259.3363055265746
 30
0.0
 11
322.2853596162788
 21
219.3363055265746
 31
0.0
  0
LINE
  5
2A0
330
1A
100
AcDbEntity
  8
SEIHIN
  6
Continuous
 62
     3
100
AcDbLine
 10
321.7853596162788
 20
219.3363055265746
 30
0.0
 11
322.2853596162788
 21
219.3363055265746
 31
0.0
  0
LINE
  5
2A1
330
1A
100
AcDbEntity
  8
SEIHIN
  6
Continuous
 62
     3
100
AcDbLine
 10
321.7853596162788
 20
215.3363055265745
 30
0.0
 11
321.7853596162788
 21
219.3363055265746
 31
0.0
  0
ARC
  5
2A2
330
1A
100
AcDbEntity
  8
SEIHIN
  6
Continuous
 62
     3
100
AcDbCircle
 10
337.7853246595925
 20
261.3148619485134
 30
0.0
 40
9.999965043472805
100
AcDbArc
 50
102.5286201728162
 51
180.0003232750268
  0
LINE
  5
2A3
330
1A
100
AcDbEntity
  8
SEIHIN
  6
Continuous
 62
     3
100
AcDbLine
 10
327.7853596162788
 20
259.3366055265746
 30
0.0
 11
327.7853596162788
 21
261.3149055265746
 31
0.0
  0
ARC
  5
2A4
330
1A
100
AcDbEntity
  8
SEIHIN
  6
Continuous
 62
     3
100
AcDbCircle
 10
331.2854402116554
 20
279.5044900640902
 30
0.0
 40
1.000019411288964
100
AcDbArc
 50
340.9266587874245
 51
0.0066153846539548
  0
ARC
  5
2A5
330
1A
100
AcDbEntity
  8
SEIHIN
  6
Continuous
 62
     3
100
AcDbCircle
 10
373.7855637412618
 20
283.7704128120798
 30
0.0
 40
1.000004125009533
100
AcDbArc
 50
120.9641739590547
 51
180.0004174269815
  0
ARC
  5
2A6
330
1A
100
AcDbEntity
  8
SEIHIN
  6
Continuous
 62
     3
100
AcDbCircle
 10
371.7855566037878
 20
280.1387017712804
 30
0.0
 40
1.000003012497983
100
AcDbArc
 50
282.5271585023025
 51
0.0002151618697838
  0
LINE
  5
2A7
330
1A
100
AcDbEntity
  8
SEIHIN
  6
Continuous
 62
     3
100
AcDbLine
 10
372.7855596162788
 20
280.1387055265746
 30
0.0
 11
372.7855596162788
 21
283.7704055265746
 31
0.0
  0
DIMENSION
  5
2A8
330
1A
100
AcDbEntity
  8
SUNPOU
  6
Continuous
100
AcDbDimension
  2
*D7
 10
135.7855296162788
 20
426.5140693209128
 30
0.0
 11
265.2855946162786
 21
431.5140693209128
 31
0.0
 70
    32
 71
     5
 42
-1.0
  3
STANDARD
100
AcDbAlignedDimension
 13
394.7856596162786
 23
397.3365055265748
 33
0.0
 14
135.7855296162788
 24
397.3367055265747
 34
0.0
100
AcDbRotatedDimension
1001
ACAD
1000
DSTYLE
1002
{
1070
   140
1040
6.0
1070
    74
1070
     0
1070
   172
1070
     1
1070
    73
1070
     0
1070
   272
1070
     2
1070
    77
1070
     3
1070
   173
1070
     1
1070
   147
1040
2.0
1070
    42
1040
6.0
1070
    44
1040
3.0
1070
    43
1040
14.0
1070
   271
1070
     0
1070
   178
1070
     4
1070
   177
1070
     4
1070
   176
1070
     4
1070
   141
1040
150.0
1070
     7
1000
_OPEN
1070
     6
1000
_OPEN
1070
    41
1040
7.0
1002
}
  0
LINE
  5
2A9
330
1A
100
AcDbEntity
  8
SEIHIN
  6
Continuous
 62
     3
100
AcDbLine
 10
137.7116296162788
 20
384.3367055265746
 30
0.0
 11
265.2855596162786
 21
384.3367055265746
 31
0.0
  0
LINE
  5
2AA
330
1A
100
AcDbEntity
  8
SEIHIN
  6
Continuous
 62
     3
100
AcDbLine
 10
265.2857596162788
 20
397.3365055265748
 30
0.0
 11
135.7855296162788
 21
397.3367055265747
 31
0.0
  0
LINE
  5
2AB
330
1A
100
AcDbEntity
  8
SEIHIN
  6
Continuous
 62
     3
100
AcDbLine
 10
148.7138596162788
 20
290.3367055265746
 30
0.0
 11
265.2855596162786
 21
290.3365055265746
 31
0.0
  0
LINE
  5
2AC
330
1A
100
AcDbEntity
  8
SEIHIN
  6
Continuous
 62
     3
100
AcDbLine
 10
140.8546596162788
 20
383.4109055265747
 30
0.0
 11
147.7166596162786
 21
291.2624055265747
 31
0.0
  0
ARC
  5
2AD
330
1A
100
AcDbEntity
  8
SEIHIN
  6
Continuous
 62
     3
100
AcDbCircle
 10
148.7138789187987
 20
291.3366876087538
 30
0.0
 40
0.9999820823652903
100
AcDbArc
 50
184.2600500488758
 51
269.9988940272501
  0
LINE
  5
2AE
330
1A
100
AcDbEntity
  8
SEIHIN
  6
Continuous
 62
     3
100
AcDbLine
 10
135.7855296162788
 20
397.3367055265747
 30
0.0
 11
136.7145696162787
 21
385.2600055265746
 31
0.0
  0
ARC
  5
2AF
330
1A
100
AcDbEntity
  8
SEIHIN
  6
Continuous
 62
     3
100
AcDbCircle
 10
137.7116265025599
 20
385.3367084099662
 30
0.0
 40
1.000002883396496
100
AcDbArc
 50
184.3990595318414
 51
270.0001784024316
  0
ARC
  5
2B0
330
1A
100
AcDbEntity
  8
SEIHIN
  6
Continuous
 62
     3
100
AcDbCircle
 10
139.8574270585779
 20
383.3367171846106
 30
0.0
 40
0.999988342042964
100
AcDbArc
 50
4.254637490298823
 51
89.99928048835821
  0
LINE
  5
2B1
330
1A
100
AcDbEntity
  8
SEIHIN
  6
Continuous
 62
     3
100
AcDbLine
 10
265.2853596162789
 20
397.3365055265748
 30
0.0
 11
394.7856596162786
 21
397.3365055265748
 31
0.0
  0
LINE
  5
2B2
330
1A
100
AcDbEntity
  8
SEIHIN
  6
Continuous
 62
     3
100
AcDbLine
 10
392.8595596162788
 20
384.3366055265746
 30
0.0
 11
265.2856596162787
 21
384.3367055265746
 31
0.0
  0
LINE
  5
2B3
330
1A
100
AcDbEntity
  8
SEIHIN
  6
Continuous
 62
     3
100
AcDbLine
 10
381.8572596162788
 20
290.3366055265746
 30
0.0
 11
265.2854596162788
 21
290.3365055265746
 31
0.0
  0
LINE
  5
2B4
330
1A
100
AcDbEntity
  8
SEIHIN
  6
Continuous
 62
     3
100
AcDbLine
 10
389.7164596162788
 20
383.4108055265748
 30
0.0
 11
382.8544596162787
 21
291.2623055265746
 31
0.0
  0
ARC
  5
2B5
330
1A
100
AcDbEntity
  8
SEIHIN
  6
Continuous
 62
     3
100
AcDbCircle
 10
381.8572403137586
 20
291.3365876087535
 30
0.0
 40
0.9999820823651999
100
AcDbArc
 50
270.0011059727555
 51
355.7399499511295
  0
LINE
  5
2B6
330
1A
100
AcDbEntity
  8
SEIHIN
  6
Continuous
 62
     3
100
AcDbLine
 10
394.7856596162786
 20
397.3365055265748
 30
0.0
 11
393.8565596162788
 21
385.2599055265747
 31
0.0
  0
ARC
  5
2B7
330
1A
100
AcDbEntity
  8
SEIHIN
  6
Continuous
 62
     3
100
AcDbCircle
 10
392.8595304288818
 20
385.3365784983441
 30
0.0
 40
0.9999729721954864
100
AcDbArc
 50
270.0016723598654
 51
355.6025275425464
  0
ARC
  5
2B8
330
1A
100
AcDbEntity
  8
SEIHIN
  6
Continuous
 62
     3
100
AcDbCircle
 10
390.7137292060818
 20
383.3365772948717
 30
0.0
 40
1.00002823216529
100
AcDbArc
 50
89.998257673248
 51
175.7432407677835
  0
LINE
  5
2B9
330
1A
100
AcDbEntity
  8
SEIHIN
  6
Continuous
 62
     3
100
AcDbLine
 10
672.2856596162788
 20
284.3363055265746
 30
0.0
 11
681.8696596162787
 21
290.0866055265746
 31
0.0
  0
LINE
  5
2BA
330
1A
100
AcDbEntity
  8
SEIHIN
  6
Continuous
 62
     3
100
AcDbLine
 10
538.2855596162786
 20
284.3366055265746
 30
0.0
 11
528.7016596162787
 21
290.0871055265746
 31
0.0
  0
LINE
  5
2BB
330
1A
100
AcDbEntity
  8
CENTER_L
  6
CENTER
 62
     1
 48
5.0
100
AcDbLine
 10
605.2853596162788
 20
167.1618055265746
 30
0.0
 11
605.2854596162788
 21
310.3365055265745
 31
0.0
  0
LINE
  5
2BC
330
1A
100
AcDbEntity
  8
SEIHIN
  6
Continuous
 62
     3
100
AcDbLine
 10
538.2855596162786
 20
279.3366055265745
 30
0.0
 11
605.2856596162788
 21
279.3365055265746
 31
0.0
  0
LINE
  5
2BD
330
1A
100
AcDbEntity
  8
SEIHIN
  6
Continuous
 62
     3
100
AcDbLine
 10
538.2855596162786
 20
284.3366055265746
 30
0.0
 11
605.2856596162788
 21
284.3365055265747
 31
0.0
  0
LINE
  5
2BE
330
1A
100
AcDbEntity
  8
SEIHIN
  6
Continuous
 62
     3
100
AcDbLine
 10
548.7855596162789
 20
215.3366055265746
 30
0.0
 11
605.2855596162787
 21
215.3365055265746
 31
0.0
  0
LINE
  5
2BF
330
1A
100
AcDbEntity
  8
SEIHIN
  6
Continuous
 62
     3
100
AcDbLine
 10
661.7854596162787
 20
219.3363055265746
 30
0.0
 11
548.7855596162789
 21
219.3366055265746
 31
0.0
  0
LINE
  5
2C0
330
1A
100
AcDbEntity
  8
SEIHIN
  6
Continuous
 62
     3
100
AcDbLine
 10
548.2356596162786
 20
259.3366055265746
 30
0.0
 11
662.3355596162788
 21
259.3363055265746
 31
0.0
  0
LINE
  5
2C1
330
1A
100
AcDbEntity
  8
SEIHIN
  6
Continuous
 62
     3
100
AcDbLine
 10
548.2356596162786
 20
259.3366055265746
 30
0.0
 11
548.2855596162789
 21
219.3366055265746
 31
0.0
  0
LINE
  5
2C2
330
1A
100
AcDbEntity
  8
SEIHIN
  6
Continuous
 62
     3
100
AcDbLine
 10
548.7855596162789
 20
219.3366055265746
 30
0.0
 11
548.2855596162789
 21
219.3366055265746
 31
0.0
  0
LINE
  5
2C3
330
1A
100
AcDbEntity
  8
SEIHIN
  6
Continuous
 62
     3
100
AcDbLine
 10
548.7855596162789
 20
215.3366055265746
 30
0.0
 11
548.7855596162789
 21
219.3366055265746
 31
0.0
  0
LINE
  5
2C4
330
1A
100
AcDbEntity
  8
SEIHIN
  6
Continuous
 62
     3
100
AcDbLine
 10
542.7856596162788
 20
259.3366055265746
 30
0.0
 11
542.7856596162788
 21
267.1902055265746
 31
0.0
  0
LINE
  5
2C5
330
1A
100
AcDbEntity
  8
SEIHIN
  6
Continuous
 62
     3
100
AcDbLine
 10
548.2356596162786
 20
259.3366055265746
 30
0.0
 11
542.7856596162788
 21
259.3366055265746
 31
0.0
  0
LINE
  5
2C6
330
1A
100
AcDbEntity
  8
SEIHIN
  6
Continuous
 62
     3
100
AcDbLine
 10
538.2855596162786
 20
279.3366055265745
 30
0.0
 11
541.9048596162788
 21
271.2940055265746
 31
0.0
  0
ARC
  5
2C7
330
1A
100
AcDbEntity
  8
SEIHIN
  6
Continuous
 62
     3
100
AcDbCircle
 10
532.7856555584689
 20
267.1903244324378
 30
0.0
 40
10.0000040585169
100
AcDbArc
 50
359.9993187198645
 51
24.22795049087701
  0
ARC
  5
2C8
330
1A
100
AcDbEntity
  8
SEIHIN
  6
Continuous
 62
     3
100
AcDbCircle
 10
539.2855317680035
 20
279.5048712143844
 30
0.0
 40
0.9999721654513407
100
AcDbArc
 50
180.0094934765045
 51
199.0913231044048
  0
LINE
  5
2C9
330
1A
100
AcDbEntity
  8
SEIHIN
  6
Continuous
 62
     3
100
AcDbLine
 10
538.2855596162786
 20
284.3366055265746
 30
0.0
 11
538.2855596162786
 21
279.5047055265746
 31
0.0
  0
LINE
  5
2CA
330
1A
100
AcDbEntity
  8
SEIHIN
  6
Continuous
 62
     3
100
AcDbLine
 10
560.6854596162788
 20
180.3366055265746
 30
0.0
 11
560.6355596162785
 21
215.3366055265746
 31
0.0
  0
LINE
  5
2CB
330
1A
100
AcDbEntity
  8
SEIHIN
  6
Continuous
 62
     3
100
AcDbLine
 10
649.8853596162788
 20
180.3364055265745
 30
0.0
 11
649.9354596162787
 21
215.3364055265746
 31
0.0
  0
LINE
  5
2CC
330
1A
100
AcDbEntity
  8
SEIHIN
  6
Continuous
 62
     3
100
AcDbLine
 10
605.2853596162788
 20
180.3365055265746
 30
0.0
 11
649.8853596162788
 21
180.3364055265745
 31
0.0
  0
LINE
  5
2CD
330
1A
100
AcDbEntity
  8
SEIHIN
  6
Continuous
 62
     3
100
AcDbLine
 10
605.2854596162788
 20
180.3365055265746
 30
0.0
 11
560.6854596162788
 21
180.3366055265746
 31
0.0
  0
LINE
  5
2CE
330
1A
100
AcDbEntity
  8
SEIHIN
  6
Continuous
 62
     3
100
AcDbLine
 10
672.2856596162788
 20
279.3363055265746
 30
0.0
 11
605.2856596162788
 21
279.3365055265746
 31
0.0
  0
LINE
  5
2CF
330
1A
100
AcDbEntity
  8
SEIHIN
  6
Continuous
 62
     3
100
AcDbLine
 10
672.2856596162788
 20
284.3363055265746
 30
0.0
 11
605.2856596162788
 21
284.3365055265747
 31
0.0
  0
LINE
  5
2D0
330
1A
100
AcDbEntity
  8
SEIHIN
  6
Continuous
 62
     3
100
AcDbLine
 10
661.7854596162787
 20
215.3363055265745
 30
0.0
 11
605.2854596162788
 21
215.3365055265746
 31
0.0
  0
LINE
  5
2D1
330
1A
100
AcDbEntity
  8
SEIHIN
  6
Continuous
 62
     3
100
AcDbLine
 10
662.3355596162788
 20
259.3363055265746
 30
0.0
 11
662.2854596162787
 21
219.3363055265746
 31
0.0
  0
LINE
  5
2D2
330
1A
100
AcDbEntity
  8
SEIHIN
  6
Continuous
 62
     3
100
AcDbLine
 10
661.7854596162787
 20
219.3363055265746
 30
0.0
 11
662.2854596162787
 21
219.3363055265746
 31
0.0
  0
LINE
  5
2D3
330
1A
100
AcDbEntity
  8
SEIHIN
  6
Continuous
 62
     3
100
AcDbLine
 10
661.7854596162787
 20
215.3363055265745
 30
0.0
 11
661.7854596162787
 21
219.3363055265746
 31
0.0
  0
LINE
  5
2D4
330
1A
100
AcDbEntity
  8
SEIHIN
  6
Continuous
 62
     3
100
AcDbLine
 10
667.7855596162787
 20
259.3363055265746
 30
0.0
 11
667.7855596162787
 21
266.8951055265746
 31
0.0
  0
LINE
  5
2D5
330
1A
100
AcDbEntity
  8
SEIHIN
  6
Continuous
 62
     3
100
AcDbLine
 10
662.3355596162788
 20
259.3363055265746
 30
0.0
 11
667.7855596162787
 21
259.3363055265746
 31
0.0
  0
LINE
  5
2D6
330
1A
100
AcDbEntity
  8
SEIHIN
  6
Continuous
 62
     3
100
AcDbLine
 10
672.2856596162788
 20
279.3363055265746
 30
0.0
 11
668.6129596162787
 21
270.8780055265746
 31
0.0
  0
ARC
  5
2D7
330
1A
100
AcDbEntity
  8
SEIHIN
  6
Continuous
 62
     3
100
AcDbCircle
 10
677.7855417812474
 20
266.8950196715741
 30
0.0
 40
9.999982165337179
100
AcDbArc
 50
156.5287224236466
 51
179.9995080862044
  0
ARC
  5
2D8
330
1A
100
AcDbEntity
  8
SEIHIN
  6
Continuous
 62
     3
100
AcDbCircle
 10
671.2856874645543
 20
279.504471214384
 30
0.0
 40
0.9999721654512004
100
AcDbArc
 50
340.9086768956135
 51
359.9905065235154
  0
LINE
  5
2D9
330
1A
100
AcDbEntity
  8
SEIHIN
  6
Continuous
 62
     3
100
AcDbLine
 10
672.2856596162788
 20
284.3363055265746
 30
0.0
 11
672.2856596162788
 21
279.5043055265746
 31
0.0
  0
DIMENSION
  5
2DA
330
1A
100
AcDbEntity
  8
SUNPOU
  6
Continuous
100
AcDbDimension
  2
*D8
 10
511.2858596162786
 20
426.5140693209128
 30
0.0
 11
605.2859096162785
 21
431.5140693209128
 31
0.0
 70
    32
 71
     5
 42
-1.0
  3
STANDARD
100
AcDbAlignedDimension
 13
699.2859596162786
 23
397.3361055265748
 33
0.0
 14
511.2858596162786
 24
397.3367055265747
 34
0.0
100
AcDbRotatedDimension
1001
ACAD
1000
DSTYLE
1002
{
1070
   140
1040
6.0
1070
    74
1070
     0
1070
   172
1070
     1
1070
    73
1070
     0
1070
   272
1070
     2
1070
    77
1070
     3
1070
   173
1070
     1
1070
   147
1040
2.0
1070
    42
1040
6.0
1070
    44
1040
3.0
1070
    43
1040
14.0
1070
   271
1070
     0
1070
   178
1070
     4
1070
   177
1070
     4
1070
   176
1070
     4
1070
   141
1040
150.0
1070
     7
1000
_OPEN
1070
     6
1000
_OPEN
1070
    41
1040
7.0
1002
}
  0
LINE
  5
2DC
330
1A
100
AcDbEntity
  8
SEIHIN
  6
Continuous
 62
     3
100
AcDbLine
 10
675.6446113417961
 20
362.8365055273722
 30
0.0
 11
687.5358113417961
 21
362.8364055273721
 31
0.0
  0
LINE
  5
2DE
330
1A
100
AcDbEntity
  8
SEIHIN
  6
Continuous
 62
     3
100
AcDbLine
 10
663.7859596162786
 20
397.3362055265747
 30
0.0
 11
699.2859596162786
 21
397.3361055265748
 31
0.0
  0
LINE
  5
2DF
330
1A
100
AcDbEntity
  8
SEIHIN
  6
Continuous
 62
     3
100
AcDbLine
 10
675.0359596162788
 20
384.3362055265746
 30
0.0
 11
694.2859596162787
 21
384.3361055265745
 31
0.0
  0
LINE
  5
2E0
330
1A
100
AcDbEntity
  8
SEIHIN
  6
Continuous
 62
     3
100
AcDbLine
 10
605.2856596162788
 20
290.3365055265746
 30
0.0
 11
682.285659616279
 21
290.3362055265746
 31
0.0
  0
LINE
  5
2E1
330
1A
100
AcDbEntity
  8
SEIHIN
  6
Continuous
 62
     3
100
AcDbLine
 10
605.2856596162788
 20
290.3365055265746
 30
0.0
 11
528.2856596162787
 21
290.3367055265746
 31
0.0
  0
LINE
  5
2E2
330
1A
100
AcDbEntity
  8
SEIHIN
  6
Continuous
 62
     3
100
AcDbLine
 10
605.2856596162788
 20
293.3365055265746
 30
0.0
 11
544.8856596162786
 21
293.3366055265746
 31
0.0
  0
DIMENSION
  5
2E5
330
1A
100
AcDbEntity
  8
SUNPOU
  6
Continuous
100
AcDbDimension
  2
*D9
 10
487.8385477892506
 20
293.3364055273721
 30
0.0
 11
482.8385477892506
 21
345.3365555269734
 31
0.0
 70
    32
 71
     5
 42
-1.0
  3
STANDARD
100
AcDbAlignedDimension
 13
511.2858596162786
 23
397.3367055265747
 33
0.0
 14
545.2856188046347
 24
293.3364055273721
 34
0.0
 50
90.0
100
AcDbRotatedDimension
1001
ACAD
1000
DSTYLE
1002
{
1070
   140
1040
6.0
1070
    74
1070
     0
1070
   172
1070
     1
1070
    73
1070
     0
1070
   272
1070
     2
1070
    77
1070
     3
1070
   173
1070
     1
1070
   147
1040
2.0
1070
    42
1040
6.0
1070
    44
1040
3.0
1070
    43
1040
14.0
1070
   271
1070
     0
1070
   178
1070
     4
1070
   177
1070
     4
1070
   176
1070
     4
1070
   141
1040
150.0
1070
     7
1000
_OPEN
1070
     6
1000
_OPEN
1070
    41
1040
7.0
1002
}
  0
LINE
  5
2E7
330
1A
100
AcDbEntity
  8
SEIHIN
  6
Continuous
 62
     3
100
AcDbLine
 10
523.0358596162785
 20
384.3367055265746
 30
0.0
 11
523.0358596162785
 21
362.8364055273721
 31
0.0
  0
ARC
  5
2E8
330
1A
100
AcDbEntity
  8
SEIHIN
  6
Continuous
 62
     3
100
AcDbCircle
 10
535.5359199200196
 20
392.3366716278568
 30
0.0
 40
9.999966101463982
100
AcDbArc
 50
269.9996544838443
 51
350.9923033961749
  0
LINE
  5
2E9
330
1A
100
AcDbEntity
  8
SEIHIN
  6
Continuous
 62
     3
100
AcDbLine
 10
516.3973596162788
 20
383.4633055265748
 30
0.0
 11
528.2241596162788
 21
290.8179055265747
 31
0.0
  0
ARC
  5
2ED
330
1A
100
AcDbEntity
  8
SEIHIN
  6
Continuous
 62
     3
100
AcDbCircle
 10
529.2161361066763
 20
290.9446415153074
 30
0.0
 40
1.000027015206889
100
AcDbArc
 50
187.2750442912311
 51
239.0384593434268
  0
LINE
  5
2F0
330
1A
100
AcDbEntity
  8
SEIHIN
  6
Continuous
 62
     3
100
AcDbLine
 10
534.9271596162785
 20
362.8364055273721
 30
0.0
 11
523.0358596162785
 21
362.8364055273721
 31
0.0
  0
LINE
  5
2FB
330
1A
100
AcDbEntity
  8
SEIHIN
  6
Continuous
 62
     3
100
AcDbLine
 10
535.5358596162785
 20
384.3366055265746
 30
0.0
 11
516.2858596162785
 21
384.3366055265746
 31
0.0
  0
LINE
  5
2FC
330
1A
100
AcDbEntity
  8
SEIHIN
  6
Continuous
 62
     3
100
AcDbLine
 10
546.7859596162789
 20
397.3366055265746
 30
0.0
 11
511.2858596162786
 21
397.3367055265747
 31
0.0
  0
LINE
  5
2FD
330
1A
100
AcDbEntity
  8
SEIHIN
  6
Continuous
 62
     3
100
AcDbLine
 10
511.2858596162786
 20
397.3367055265747
 30
0.0
 11
512.2148596162786
 21
385.2600055265746
 31
0.0
  0
ARC
  5
2FE
330
1A
100
AcDbEntity
  8
SEIHIN
  6
Continuous
 62
     3
100
AcDbCircle
 10
515.4053856125807
 20
383.3366826370986
 30
0.0
 40
1.000022889813904
100
AcDbArc
 50
7.274317860026948
 51
90.00148944429707
  0
ARC
  5
2FF
330
1A
100
AcDbEntity
  8
SEIHIN
  6
Continuous
 62
     3
100
AcDbCircle
 10
513.2119349686421
 20
385.3367283510538
 30
0.0
 40
1.000022824782869
100
AcDbArc
 50
184.400117528326
 51
270.0014121733274
  0
LINE
  5
300
330
1A
100
AcDbEntity
  8
SEIHIN
  6
Continuous
 62
     3
100
AcDbLine
 10
513.2119596162787
 20
384.3367055265746
 30
0.0
 11
516.2858596162785
 21
384.3366055265746
 31
0.0
  0
LINE
  5
302
330
1A
100
AcDbEntity
  8
SEIHIN
  6
Continuous
 62
     3
100
AcDbLine
 10
546.7859596162789
 20
397.3367055265747
 30
0.0
 11
545.3274596162787
 21
390.3056055265747
 31
0.0
  0
LINE
  5
303
330
1A
100
AcDbEntity
  8
SEIHIN
  6
Continuous
 62
     3
100
AcDbLine
 10
535.5358596162785
 20
382.3367055265746
 30
0.0
 11
535.5358596162785
 21
384.3367055265746
 31
0.0
  0
ARC
  5
304
330
1A
100
AcDbEntity
  8
SEIHIN
  6
Continuous
 62
     3
100
AcDbCircle
 10
675.0359750649238
 20
392.3362913918048
 30
0.0
 40
9.999985865241979
100
AcDbArc
 50
185.0858732414178
 51
269.9999114856594
  0
LINE
  5
306
330
1A
100
AcDbEntity
  8
SEIHIN
  6
Continuous
 62
     3
100
AcDbLine
 10
605.2856596162788
 20
293.3364055265746
 30
0.0
 11
665.6856596162787
 21
293.3362055265746
 31
0.0
  0
LINE
  5
310
330
1A
100
AcDbEntity
  8
SEIHIN
  6
Continuous
 62
     3
100
AcDbLine
 10
663.7859596162786
 20
397.3363055265746
 30
0.0
 11
665.2444596162787
 21
390.3052055265748
 31
0.0
  0
LINE
  5
311
330
1A
100
AcDbEntity
  8
SEIHIN
  6
Continuous
 62
     3
100
AcDbLine
 10
675.0359596162788
 20
382.3363055265747
 30
0.0
 11
675.0359596162788
 21
384.3363055265747
 31
0.0
  0
LINE
  5
313
330
1A
100
AcDbEntity
  8
SEIHIN
  6
Continuous
 62
     3
100
AcDbLine
 10
687.5359596162787
 20
384.3362055265746
 30
0.0
 11
687.5358113417961
 21
362.8364055273721
 31
0.0
  0
LINE
  5
314
330
1A
100
AcDbEntity
  8
SEIHIN
  6
Continuous
 62
     3
100
AcDbLine
 10
694.1744596162786
 20
383.4627055265745
 30
0.0
 11
682.3470596162787
 21
290.8174055265746
 31
0.0
  0
ARC
  5
315
330
1A
100
AcDbEntity
  8
SEIHIN
  6
Continuous
 62
     3
100
AcDbCircle
 10
681.3551209851968
 20
290.9440463905486
 30
0.0
 40
0.9999774187890826
100
AcDbArc
 50
300.9673978249141
 51
352.7300875070003
  0
LINE
  5
31C
330
1A
100
AcDbEntity
  8
SEIHIN
  6
Continuous
 62
     3
100
AcDbLine
 10
697.3598596162786
 20
384.3361055265745
 30
0.0
 11
694.2859596162787
 21
384.3361055265745
 31
0.0
  0
ARC
  5
31D
330
1A
100
AcDbEntity
  8
SEIHIN
  6
Continuous
 62
     3
100
AcDbCircle
 10
695.1664336199768
 20
383.3360826370984
 30
0.0
 40
1.000022889813995
100
AcDbArc
 50
89.99851055570946
 51
172.725682139977
  0
LINE
  5
31E
330
1A
100
AcDbEntity
  8
SEIHIN
  6
Continuous
 62
     3
100
AcDbLine
 10
699.2859596162786
 20
397.3362055265747
 30
0.0
 11
698.3569596162786
 21
385.2594055265747
 31
0.0
  0
ARC
  5
31F
330
1A
100
AcDbEntity
  8
SEIHIN
  6
Continuous
 62
     3
100
AcDbCircle
 10
697.3598842639152
 20
385.3361283510536
 30
0.0
 40
1.000022824782862
100
AcDbArc
 50
269.998587826679
 51
355.5998824716868
  0
LINE
  5
516
330
1A
100
AcDbEntity
  8
NOKITOI
100
AcDbLine
 10
546.5826383491117
 20
293.3364055273721
 30
0.0
 11
663.9875992601568
 21
293.3364055273721
 31
0.0
  0
LINE
  5
517
330
1A
100
AcDbEntity
  8
NOKITOI
100
AcDbLine
 10
550.9943001961597
 20
294.9364055273722
 30
0.0
 11
659.5761903601568
 21
294.9364055273722
 31
0.0
  0
LINE
  5
518
330
1A
100
AcDbEntity
  8
NOKITOI
100
AcDbLine
 10
548.1395134937371
 20
294.1364055273721
 30
0.0
 11
662.4306314265766
 21
294.1364055273721
 31
0.0
  0
LINE
  5
519
330
1A
100
AcDbEntity
  8
NOKITOI
100
AcDbLine
 10
546.046093560157
 20
299.2162168273722
 30
0.0
 11
533.988817860157
 21
382.0524621273721
 31
0.0
  0
LINE
  5
51A
330
1A
100
AcDbEntity
  8
NOKITOI
100
AcDbLine
 10
545.098187360157
 20
294.6203489273721
 30
0.0
 11
535.1585101849646
 21
362.9082074377439
 31
0.0
  0
LINE
  5
51B
330
1A
100
AcDbEntity
  8
NOKITOI
100
AcDbLine
 10
545.6655830024295
 20
296.2763112005931
 30
0.0
 11
535.8254260108544
 21
363.8804432580836
 31
0.0
  0
ARC
  5
51C
330
1A
100
AcDbEntity
  8
NOKITOI
100
AcDbCircle
 10
550.9939545601569
 20
299.9364055273721
 30
0.0
 40
5.000000011946427
100
AcDbArc
 50
188.2815607810044
 51
270.0
  0
ARC
  5
51D
330
1A
100
AcDbEntity
  8
NOKITOI
100
AcDbCircle
 10
546.5825456601568
 20
294.8364055273721
 30
0.0
 40
1.50000000286374
100
AcDbArc
 50
188.2815604030129
 51
270.0
  0
ARC
  5
51E
330
1A
100
AcDbEntity
  8
NOKITOI
100
AcDbCircle
 10
546.5825456601568
 20
294.8364055273721
 30
0.0
 40
1.50000000286374
100
AcDbArc
 50
188.2815604030129
 51
270.0
  0
ARC
  5
51F
330
1A
100
AcDbEntity
  8
NOKITOI
100
AcDbCircle
 10
548.1395134937371
 20
296.6364055273721
 30
0.0
 40
2.5
100
AcDbArc
 50
188.2815602830579
 51
270.0
  0
LINE
  5
521
330
1A
100
AcDbEntity
  8
NOKITOI
100
AcDbLine
 10
532.6048464601568
 20
380.4524621273721
 30
0.0
 11
534.6135131601569
 21
366.6524621273722
 31
0.0
  0
LINE
  5
522
330
1A
100
AcDbEntity
  8
NOKITOI
100
AcDbLine
 10
523.7850724601567
 20
381.8364055273722
 30
0.0
 11
523.7850724601567
 21
364.8364055273721
 31
0.0
  0
LINE
  5
523
330
1A
100
AcDbEntity
  8
NOKITOI
100
AcDbLine
 10
525.385072460157
 20
380.2364055273721
 30
0.0
 11
525.385072460157
 21
366.4364055273721
 31
0.0
  0
LINE
  5
524
330
1A
100
AcDbEntity
  8
NOKITOI
100
AcDbLine
 10
525.1850724601569
 20
380.2364055273721
 30
0.0
 11
525.1850724601569
 21
366.4364055273721
 31
0.0
  0
LINE
  5
525
330
1A
100
AcDbEntity
  8
NOKITOI
100
AcDbLine
 10
526.885072460157
 20
364.7364055273721
 30
0.0
 11
534.8358538143314
 21
364.7364055273721
 31
0.0
  0
ARC
  5
526
330
1A
100
AcDbEntity
  8
NOKITOI
100
AcDbCircle
 10
533.1291548601569
 20
366.4364055273721
 30
0.0
 40
1.50000000286374
100
AcDbArc
 50
270.0
 51
8.281560403013019
  0
LINE
  5
527
330
1A
100
AcDbEntity
  8
NOKITOI
100
AcDbLine
 10
525.2850724601568
 20
363.336405527372
 30
0.0
 11
534.6636925601568
 21
363.336405527372
 31
0.0
  0
ARC
  5
528
330
1A
100
AcDbEntity
  8
NOKITOI
100
AcDbCircle
 10
525.2850724601568
 20
364.8364055273721
 30
0.0
 40
1.5
100
AcDbArc
 50
180.0
 51
270.0
  0
ARC
  5
529
330
1A
100
AcDbEntity
  8
NOKITOI
100
AcDbCircle
 10
526.885072460157
 20
366.4364055273721
 30
0.0
 40
1.7
100
AcDbArc
 50
180.0
 51
270.0
  0
LINE
  5
52A
330
1A
100
AcDbEntity
  8
NOKITOI
100
AcDbLine
 10
526.885072460157
 20
364.9364055273721
 30
0.0
 11
533.1291548601569
 21
364.9364055273721
 31
0.0
  0
ARC
  5
52B
330
1A
100
AcDbEntity
  8
NOKITOI
100
AcDbCircle
 10
526.885072460157
 20
366.4364055273721
 30
0.0
 40
1.5
100
AcDbArc
 50
180.0
 51
270.0
  0
ARC
  5
52C
330
1A
100
AcDbEntity
  8
NOKITOI
100
AcDbCircle
 10
534.6636925601568
 20
362.8364055273721
 30
0.0
 40
0.4999999961533241
100
AcDbArc
 50
8.281552843239406
 51
90.0
  0
ARC
  5
52D
330
1A
100
AcDbEntity
  8
NOKITOI
100
AcDbCircle
 10
534.8358538143314
 20
363.7364055273721
 30
0.0
 40
1.0
100
AcDbArc
 50
8.281560283057919
 51
90.0
  0
ARC
  5
52E
330
1A
100
AcDbEntity
  8
NOKITOI
100
AcDbCircle
 10
532.5044595601569
 20
381.8364055273722
 30
0.0
 40
1.50000000286374
100
AcDbArc
 50
8.281560403013019
 51
90.0
  0
ARC
  5
52F
330
1A
100
AcDbEntity
  8
NOKITOI
100
AcDbCircle
 10
525.2850724601568
 20
381.8364055273722
 30
0.0
 40
1.5
100
AcDbArc
 50
90.0
 51
180.0
  0
ARC
  5
530
330
1A
100
AcDbEntity
  8
NOKITOI
100
AcDbCircle
 10
526.885072460157
 20
380.2364055273721
 30
0.0
 40
1.7
100
AcDbArc
 50
90.0
 51
180.0
  0
LINE
  5
531
330
1A
100
AcDbEntity
  8
NOKITOI
100
AcDbLine
 10
526.885072460157
 20
383.3364055273721
 30
0.0
 11
531.120488160157
 21
383.3364055273721
 31
0.0
  0
ARC
  5
532
330
1A
100
AcDbEntity
  8
NOKITOI
100
AcDbCircle
 10
531.120488160157
 20
380.2364055273721
 30
0.0
 40
1.500000002863768
100
AcDbArc
 50
8.281560403013019
 51
90.0
  0
ARC
  5
533
330
1A
100
AcDbEntity
  8
NOKITOI
100
AcDbCircle
 10
531.120488160157
 20
380.2364055273721
 30
0.0
 40
1.700000002863768
100
AcDbArc
 50
8.281560403013019
 51
90.0
  0
LINE
  5
534
330
1A
100
AcDbEntity
  8
NOKITOI
100
AcDbLine
 10
526.885072460157
 20
381.7364055273721
 30
0.0
 11
531.120488160157
 21
381.7364055273721
 31
0.0
  0
LINE
  5
535
330
1A
100
AcDbEntity
  8
NOKITOI
100
AcDbLine
 10
526.885072460157
 20
381.9364055273721
 30
0.0
 11
531.120488160157
 21
381.9364055273721
 31
0.0
  0
ARC
  5
536
330
1A
100
AcDbEntity
  8
NOKITOI
100
AcDbCircle
 10
526.885072460157
 20
380.2364055273721
 30
0.0
 40
1.5
100
AcDbArc
 50
90.0
 51
180.0
  0
LINE
  5
537
330
1A
100
AcDbEntity
  8
NOKITOI
100
AcDbLine
 10
525.2850724601568
 20
383.3364055273721
 30
0.0
 11
532.5044595601569
 21
383.3364055273721
 31
0.0
  0
LINE
  5
538
330
1A
100
AcDbEntity
  8
NOKITOI
100
AcDbLine
 10
664.524051360157
 20
299.2162168273722
 30
0.0
 11
676.581327060157
 21
382.0524621273721
 31
0.0
  0
LINE
  5
539
330
1A
100
AcDbEntity
  8
NOKITOI
100
AcDbLine
 10
665.471957560157
 20
294.6203489273721
 30
0.0
 11
675.4116663143523
 21
362.9084243927279
 31
0.0
  0
LINE
  5
53A
330
1A
100
AcDbEntity
  8
NOKITOI
100
AcDbLine
 10
664.9045619178844
 20
296.2763112005931
 30
0.0
 11
674.7447189094596
 21
363.8804432580837
 31
0.0
  0
ARC
  5
53B
330
1A
100
AcDbEntity
  8
NOKITOI
100
AcDbCircle
 10
663.9875992601568
 20
294.8364055273721
 30
0.0
 40
1.50000000286374
100
AcDbArc
 50
270.0
 51
351.7184395969868
  0
ARC
  5
53C
330
1A
100
AcDbEntity
  8
NOKITOI
100
AcDbCircle
 10
659.5761903601568
 20
299.9364055273721
 30
0.0
 40
5.000000011946427
100
AcDbArc
 50
270.0
 51
351.7184392189953
  0
ARC
  5
53D
330
1A
100
AcDbEntity
  8
NOKITOI
100
AcDbCircle
 10
662.4306314265766
 20
296.6364055273721
 30
0.0
 40
2.5
100
AcDbArc
 50
270.0
 51
351.7184397169421
  0
LINE
  5
53E
330
1A
100
AcDbEntity
  8
NOKITOI
100
AcDbLine
 10
685.2850724601568
 20
383.3364055273721
 30
0.0
 11
678.065685360157
 21
383.3364055273721
 31
0.0
  0
LINE
  5
53F
330
1A
100
AcDbEntity
  8
NOKITOI
100
AcDbLine
 10
683.6850724601569
 20
381.7364055273721
 30
0.0
 11
679.449656760157
 21
381.7364055273721
 31
0.0
  0
LINE
  5
540
330
1A
100
AcDbEntity
  8
NOKITOI
100
AcDbLine
 10
683.6850724601569
 20
381.9364055273721
 30
0.0
 11
679.449656760157
 21
381.9364055273721
 31
0.0
  0
LINE
  5
541
330
1A
100
AcDbEntity
  8
NOKITOI
100
AcDbLine
 10
683.6850724601569
 20
364.9364055273721
 30
0.0
 11
677.4409901601569
 21
364.9364055273721
 31
0.0
  0
LINE
  5
542
330
1A
100
AcDbEntity
  8
NOKITOI
100
AcDbLine
 10
685.2850724601568
 20
363.336405527372
 30
0.0
 11
675.9064524126139
 21
363.336405527372
 31
0.0
  0
LINE
  5
543
330
1A
100
AcDbEntity
  8
NOKITOI
100
AcDbLine
 10
683.6850724601569
 20
364.7364055273721
 30
0.0
 11
675.7342911059825
 21
364.7364055273722
 31
0.0
  0
LINE
  5
544
330
1A
100
AcDbEntity
  8
NOKITOI
100
AcDbLine
 10
677.9652984601567
 20
380.4524621273721
 30
0.0
 11
675.9566318601569
 21
366.6524621273722
 31
0.0
  0
ARC
  5
545
330
1A
100
AcDbEntity
  8
NOKITOI
100
AcDbCircle
 10
675.9064524126139
 20
362.8364055273721
 30
0.0
 40
0.5
100
AcDbArc
 50
90.0
 51
171.718439716942
  0
ARC
  5
546
330
1A
100
AcDbEntity
  8
NOKITOI
100
AcDbCircle
 10
675.7342911059825
 20
363.7364055273721
 30
0.0
 40
1.0
100
AcDbArc
 50
90.0
 51
171.718439716942
  0
ARC
  5
547
330
1A
100
AcDbEntity
  8
NOKITOI
100
AcDbCircle
 10
677.4409901601569
 20
366.4364055273721
 30
0.0
 40
1.50000000286374
100
AcDbArc
 50
171.7184395969869
 51
270.0
  0
ARC
  5
548
330
1A
100
AcDbEntity
  8
NOKITOI
100
AcDbCircle
 10
679.449656760157
 20
380.2364055273721
 30
0.0
 40
1.50000000286374
100
AcDbArc
 50
90.0
 51
171.7184395969869
  0
ARC
  5
549
330
1A
100
AcDbEntity
  8
NOKITOI
100
AcDbCircle
 10
679.449656760157
 20
380.2364055273721
 30
0.0
 40
1.70000000286374
100
AcDbArc
 50
90.0
 51
171.7184395969869
  0
ARC
  5
54A
330
1A
100
AcDbEntity
  8
NOKITOI
100
AcDbCircle
 10
678.065685360157
 20
381.8364055273722
 30
0.0
 40
1.500000002863768
100
AcDbArc
 50
90.0
 51
171.7184395969869
  0
LINE
  5
54B
330
1A
100
AcDbEntity
  8
NOKITOI
100
AcDbLine
 10
686.7850724601567
 20
381.8364055273722
 30
0.0
 11
686.7850724601567
 21
364.8364055273721
 31
0.0
  0
LINE
  5
54C
330
1A
100
AcDbEntity
  8
NOKITOI
100
AcDbLine
 10
685.185072460157
 20
380.2364055273721
 30
0.0
 11
685.185072460157
 21
366.4364055273721
 31
0.0
  0
LINE
  5
54D
330
1A
100
AcDbEntity
  8
NOKITOI
100
AcDbLine
 10
685.3850724601571
 20
380.2364055273721
 30
0.0
 11
685.3850724601571
 21
366.4364055273721
 31
0.0
  0
LINE
  5
54E
330
1A
100
AcDbEntity
  8
NOKITOI
100
AcDbLine
 10
686.7850724601567
 20
369.3364055273721
 30
0.0
 11
686.7850724601567
 21
366.8364055273721
 31
0.0
  0
ARC
  5
54F
330
1A
100
AcDbEntity
  8
NOKITOI
100
AcDbCircle
 10
685.2850724601568
 20
364.8364055273721
 30
0.0
 40
1.5
100
AcDbArc
 50
270.0
 51
0.0
  0
ARC
  5
550
330
1A
100
AcDbEntity
  8
NOKITOI
100
AcDbCircle
 10
683.6850724601569
 20
366.4364055273721
 30
0.0
 40
1.5
100
AcDbArc
 50
270.0
 51
0.0
  0
ARC
  5
551
330
1A
100
AcDbEntity
  8
NOKITOI
100
AcDbCircle
 10
683.6850724601569
 20
366.4364055273721
 30
0.0
 40
1.7
100
AcDbArc
 50
270.0
 51
0.0
  0
ARC
  5
552
330
1A
100
AcDbEntity
  8
NOKITOI
100
AcDbCircle
 10
683.6850724601569
 20
380.2364055273721
 30
0.0
 40
1.5
100
AcDbArc
 50
0.0
 51
90.0
  0
ARC
  5
553
330
1A
100
AcDbEntity
  8
NOKITOI
100
AcDbCircle
 10
683.6850724601569
 20
380.2364055273721
 30
0.0
 40
1.7
100
AcDbArc
 50
0.0
 51
90.0
  0
ARC
  5
554
330
1A
100
AcDbEntity
  8
NOKITOI
100
AcDbCircle
 10
685.2850724601568
 20
381.8364055273722
 30
0.0
 40
1.5
100
AcDbArc
 50
0.0
 51
90.0
  0
LINE
  5
558
330
1A
100
AcDbEntity
  8
SEIHIN
100
AcDbLine
 10
534.9271596162785
 20
362.8364055273721
 30
0.0
 11
544.8856596162786
 21
293.3366055265746
 31
0.0
  0
LINE
  5
559
330
1A
100
AcDbEntity
  8
SEIHIN
100
AcDbLine
 10
665.6856596162787
 20
293.3362055265746
 30
0.0
 11
675.6446113417961
 21
362.8365055273722
 31
0.0
  0
VIEWPORT
  5
22
330
17
100
AcDbEntity
 67
     1
  8
0
100
AcDbViewport
 10
313.6808219178082
 20
148.5
 30
0.0
 40
627.3616438356165
 41
297.0
 68
     2
 69
     1
 12
313.6808219178082
 22
148.5
 13
0.0
 23
0.0
 14
1.0
 24
1.0
 15
10.0
 25
10.0
 16
0.0
 26
0.0
 36
1.0
 17
0.0
 27
0.0
 37
0.0
 42
50.0
 43
0.0
 44
0.0
 45
297.0
 50
0.0
 51
0.0
 72
   100
 90
    32768
  1

281
     0
 71
     1
 74
     0
110
0.0
120
0.0
130
0.0
111
1.0
121
0.0
131
0.0
112
0.0
122
1.0
132
0.0
 79
     0
146
0.0
  0
VIEWPORT
  5
64
330
17
100
AcDbEntity
 67
     1
  8
VIEWPORT
100
AcDbViewport
 10
210.0
 20
148.5
 30
0.0
 40
420.0
 41
297.0
 68
     1
 69
     2
 12
420.0
 22
297.0
 13
0.0
 23
0.0
 14
10.0
 24
10.0
 15
0.0
 25
0.0
 16
0.0
 26
0.0
 36
1.0
 17
0.0
 27
0.0
 37
0.0
 42
50.0
 43
0.0
 44
0.0
 45
605.8799999999997
 50
0.0
 51
0.0
 72
   100
 90
    32768
  1

281
     0
 71
     1
 74
     0
110
0.0
120
0.0
130
0.0
111
1.0
121
0.0
131
0.0
112
0.0
122
1.0
132
0.0
 79
     0
146
0.0
  0
ENDSEC
  0
SECTION
  2
OBJECTS
  0
DICTIONARY
  5
C
330
0
100
AcDbDictionary
281
     1
  3
ACAD_GROUP
350
D
  3
ACAD_LAYOUT
350
3F3
  3
ACAD_MLINESTYLE
350
E
  3
ACAD_PLOTSETTINGS
350
3F4
  3
ACAD_PLOTSTYLENAME
350
5E4
1001
ACAD
1000
TREAT_AS_HARD
1070
     0
  0
DICTIONARY
  5
42F
330
1A
100
AcDbDictionary
281
     1
  3
ACAD_LAYOUTSELFREF
350
5D4
1001
ACAD
1000
TREAT_AS_HARD
1070
     1
  0
DICTIONARY
  5
42D
330
17
100
AcDbDictionary
281
     1
  3
ACAD_LAYOUTSELFREF
350
5D3
1001
ACAD
1000
TREAT_AS_HARD
1070
     1
  0
DICTIONARY
  5
D
102
{ACAD_REACTORS
330
C
102
}
330
C
100
AcDbDictionary
281
     1
1001
ACAD
1000
TREAT_AS_HARD
1070
     0
  0
DICTIONARY
  5
3F3
102
{ACAD_REACTORS
330
C
102
}
330
C
100
AcDbDictionary
281
     1
  3
Model
350
5E6
  3
ﾚｲｱｳﾄ1
350
5E7
1001
ACAD
1000
TREAT_AS_HARD
1070
     0
  0
DICTIONARY
  5
E
102
{ACAD_REACTORS
330
C
102
}
330
C
100
AcDbDictionary
281
     1
  3
STANDARD
350
13
1001
ACAD
1000
TREAT_AS_HARD
1070
     0
  0
DICTIONARY
  5
3F4
102
{ACAD_REACTORS
330
C
102
}
330
C
100
AcDbDictionary
281
     1
1001
ACAD
1000
TREAT_AS_HARD
1070
     0
  0
ACDBDICTIONARYWDFLT
  5
5E4
102
{ACAD_REACTORS
330
C
102
}
330
C
100
AcDbDictionary
281
     1
  3
Normal
350
5E5
100
AcDbDictionaryWithDefault
340
5E5
  0
XRECORD
  5
5D4
102
{ACAD_REACTORS
330
42F
102
}
330
42F
100
AcDbXrecord
280
     1
340
1A
  0
XRECORD
  5
5D3
102
{ACAD_REACTORS
330
42D
102
}
330
42D
100
AcDbXrecord
280
     1
340
17
  0
LAYOUT
  5
5E6
102
{ACAD_REACTORS
330
3F3
102
}
330
3F3
100
AcDbPlotSettings
  1

  2
EPSON LP-9200C
  4

  6

 40
0.0
 41
0.0
 42
0.0
 43
0.0
 44
0.0
 45
0.0
 46
0.0
 47
0.0
 48
0.0
 49
0.0
140
0.0
141
0.0
142
1.0
143
1.0
 70
  1712
 72
     0
 73
     0
 74
     0
  7

 75
     0
147
1.0
148
0.0
149
0.0
100
AcDbLayout
  1
Model
 70
     1
 71
     0
 10
0.0
 20
0.0
 11
12.0
 21
9.0
 12
0.0
 22
0.0
 32
0.0
 14
0.0
 24
0.0
 34
0.0
 15
0.0
 25
0.0
 35
0.0
146
0.0
 13
0.0
 23
0.0
 33
0.0
 16
1.0
 26
0.0
 36
0.0
 17
0.0
 27
1.0
 37
0.0
 76
     0
330
1A
  0
LAYOUT
  5
5E7
102
{ACAD_REACTORS
330
3F3
102
}
330
3F3
100
AcDbPlotSettings
  1

  2
EPSON LP-9200C
  4

  6

 40
0.0
 41
0.0
 42
0.0
 43
0.0
 44
0.0
 45
0.0
 46
0.0
 47
0.0
 48
0.0
 49
0.0
140
0.0
141
0.0
142
1.0
143
1.0
 70
   688
 72
     0
 73
     0
 74
     5
  7

 75
    16
147
1.0
148
0.0
149
0.0
100
AcDbLayout
  1
ﾚｲｱｳﾄ1
 70
     1
 71
     1
 10
0.0
 20
0.0
 11
420.0
 21
297.0
 12
0.0
 22
0.0
 32
0.0
 14
0.0
 24
0.0
 34
0.0
 15
420.0
 25
297.0
 35
0.0
146
0.0
 13
0.0
 23
0.0
 33
0.0
 16
1.0
 26
0.0
 36
0.0
 17
0.0
 27
1.0
 37
0.0
 76
     0
330
17
331
64
  0
MLINESTYLE
  5
13
102
{ACAD_REACTORS
330
E
102
}
330
E
100
AcDbMlineStyle
  2
STANDARD
 70
     0
  3

 62
     0
 51
90.0
 52
90.0
 71
     2
 49
0.5
 62
   256
  6
BYLAYER
 49
-0.5
 62
   256
  6
BYLAYER
  0
ACDBPLACEHOLDER
  5
5E5
102
{ACAD_REACTORS
330
5E4
102
}
330
5E4
  0
ENDSEC
  0
EOF
