  0
SECTION
  2
HEADER
  9
$ACADVER
  1
AC1015
  9
$ACADMAINTVER
 70
     6
  9
$DWGCODEPAGE
  3
ANSI_932
  9
$INSBASE
 10
0.0
 20
0.0
 30
0.0
  9
$EXTMIN
 10
0.0000003933412245
 20
-0.0000003446635901
 30
0.0
  9
$EXTMAX
 10
797.6000003933414
 20
551.5999996553366
 30
0.0
  9
$LIMMIN
 10
0.0
 20
0.0
  9
$LIMMAX
 10
840.0
 20
594.0
  9
$ORTHOMODE
 70
     0
  9
$REGENMODE
 70
     1
  9
$FILLMODE
 70
     1
  9
$QTEXTMODE
 70
     0
  9
$MIRRTEXT
 70
     1
  9
$LTSCALE
 40
2.0
  9
$ATTMODE
 70
     1
  9
$TEXTSIZE
 40
5.0
  9
$TRACEWID
 40
1.0
  9
$TEXTSTYLE
  7
STANDARD
  9
$CLAYER
  8
SUNPOU
  9
$CELTYPE
  6
BYLAYER
  9
$CECOLOR
 62
   256
  9
$CELTSCALE
 40
1.0
  9
$DISPSILH
 70
     0
  9
$DIMSCALE
 40
1.0
  9
$DIMASZ
 40
7.0
  9
$DIMEXO
 40
6.0
  9
$DIMDLI
 40
14.0
  9
$DIMRND
 40
0.0
  9
$DIMDLE
 40
0.0
  9
$DIMEXE
 40
3.0
  9
$DIMTP
 40
0.0
  9
$DIMTM
 40
0.0
  9
$DIMTXT
 40
6.0
  9
$DIMCEN
 40
150.0
  9
$DIMTSZ
 40
0.0
  9
$DIMTOL
 70
     0
  9
$DIMLIM
 70
     0
  9
$DIMTIH
 70
     0
  9
$DIMTOH
 70
     0
  9
$DIMSE1
 70
     0
  9
$DIMSE2
 70
     0
  9
$DIMTAD
 70
     3
  9
$DIMZIN
 70
     0
  9
$DIMBLK
  1

  9
$DIMASO
 70
     1
  9
$DIMSHO
 70
     1
  9
$DIMPOST
  1

  9
$DIMAPOST
  1

  9
$DIMALT
 70
     0
  9
$DIMALTD
 70
     2
  9
$DIMALTF
 40
25.4
  9
$DIMLFAC
 40
1.0
  9
$DIMTOFL
 70
     1
  9
$DIMTVP
 40
0.0
  9
$DIMTIX
 70
     0
  9
$DIMSOXD
 70
     0
  9
$DIMSAH
 70
     1
  9
$DIMBLK1
  1
OPEN
  9
$DIMBLK2
  1
OPEN
  9
$DIMSTYLE
  2
STANDARD
  9
$DIMCLRD
 70
   256
  9
$DIMCLRE
 70
   256
  9
$DIMCLRT
 70
   256
  9
$DIMTFAC
 40
1.0
  9
$DIMGAP
 40
2.0
  9
$DIMJUST
 70
     0
  9
$DIMSD1
 70
     0
  9
$DIMSD2
 70
     0
  9
$DIMTOLJ
 70
     1
  9
$DIMTZIN
 70
     0
  9
$DIMALTZ
 70
     0
  9
$DIMALTTZ
 70
     0
  9
$DIMUPT
 70
     0
  9
$DIMDEC
 70
     0
  9
$DIMTDEC
 70
     0
  9
$DIMALTU
 70
     2
  9
$DIMALTTD
 70
     2
  9
$DIMTXSTY
  7
STANDARD
  9
$DIMAUNIT
 70
     0
  9
$DIMADEC
 70
     0
  9
$DIMALTRND
 40
0.0
  9
$DIMAZIN
 70
     0
  9
$DIMDSEP
 70
    46
  9
$DIMATFIT
 70
     3
  9
$DIMFRAC
 70
     0
  9
$DIMLDRBLK
  1
OPEN
  9
$DIMLUNIT
 70
     2
  9
$DIMLWD
 70
    -1
  9
$DIMLWE
 70
    -1
  9
$DIMTMOVE
 70
     2
  9
$LUNITS
 70
     2
  9
$LUPREC
 70
     4
  9
$SKETCHINC
 40
1.0
  9
$FILLETRAD
 40
0.5
  9
$AUNITS
 70
     0
  9
$AUPREC
 70
     0
  9
$MENU
  1
.
  9
$ELEVATION
 40
0.0
  9
$PELEVATION
 40
0.0
  9
$THICKNESS
 40
0.0
  9
$LIMCHECK
 70
     0
  9
$CHAMFERA
 40
20.0
  9
$CHAMFERB
 40
20.0
  9
$CHAMFERC
 40
40.0
  9
$CHAMFERD
 40
0.0
  9
$SKPOLY
 70
     0
  9
$TDCREATE
 40
2451159.855623148
  9
$TDUCREATE
 40
2451159.480623148
  9
$TDUPDATE
 40
2455609.395480521
  9
$TDUUPDATE
 40
2455609.020480521
  9
$TDINDWG
 40
0.1401660532
  9
$TDUSRTIMER
 40
0.1401660532
  9
$USRTIMER
 70
     1
  9
$ANGBASE
 50
0.0
  9
$ANGDIR
 70
     0
  9
$PDMODE
 70
     0
  9
$PDSIZE
 40
0.0
  9
$PLINEWID
 40
0.0
  9
$SPLFRAME
 70
     0
  9
$SPLINETYPE
 70
     6
  9
$SPLINESEGS
 70
     8
  9
$HANDSEED
  5
21AF
  9
$SURFTAB1
 70
     6
  9
$SURFTAB2
 70
     6
  9
$SURFTYPE
 70
     6
  9
$SURFU
 70
     6
  9
$SURFV
 70
     6
  9
$UCSBASE
  2

  9
$UCSNAME
  2

  9
$UCSORG
 10
0.0
 20
0.0
 30
0.0
  9
$UCSXDIR
 10
1.0
 20
0.0
 30
0.0
  9
$UCSYDIR
 10
0.0
 20
1.0
 30
0.0
  9
$UCSORTHOREF
  2

  9
$UCSORTHOVIEW
 70
     0
  9
$UCSORGTOP
 10
0.0
 20
0.0
 30
0.0
  9
$UCSORGBOTTOM
 10
0.0
 20
0.0
 30
0.0
  9
$UCSORGLEFT
 10
0.0
 20
0.0
 30
0.0
  9
$UCSORGRIGHT
 10
0.0
 20
0.0
 30
0.0
  9
$UCSORGFRONT
 10
0.0
 20
0.0
 30
0.0
  9
$UCSORGBACK
 10
0.0
 20
0.0
 30
0.0
  9
$PUCSBASE
  2

  9
$PUCSNAME
  2

  9
$PUCSORG
 10
0.0
 20
0.0
 30
0.0
  9
$PUCSXDIR
 10
1.0
 20
0.0
 30
0.0
  9
$PUCSYDIR
 10
0.0
 20
1.0
 30
0.0
  9
$PUCSORTHOREF
  2

  9
$PUCSORTHOVIEW
 70
     0
  9
$PUCSORGTOP
 10
0.0
 20
0.0
 30
0.0
  9
$PUCSORGBOTTOM
 10
0.0
 20
0.0
 30
0.0
  9
$PUCSORGLEFT
 10
0.0
 20
0.0
 30
0.0
  9
$PUCSORGRIGHT
 10
0.0
 20
0.0
 30
0.0
  9
$PUCSORGFRONT
 10
0.0
 20
0.0
 30
0.0
  9
$PUCSORGBACK
 10
0.0
 20
0.0
 30
0.0
  9
$USERI1
 70
     0
  9
$USERI2
 70
     0
  9
$USERI3
 70
     0
  9
$USERI4
 70
     0
  9
$USERI5
 70
     0
  9
$USERR1
 40
0.0
  9
$USERR2
 40
0.0
  9
$USERR3
 40
0.0
  9
$USERR4
 40
0.0
  9
$USERR5
 40
0.0
  9
$WORLDVIEW
 70
     1
  9
$SHADEDGE
 70
     3
  9
$SHADEDIF
 70
    70
  9
$TILEMODE
 70
     1
  9
$MAXACTVP
 70
    16
  9
$PINSBASE
 10
0.0
 20
0.0
 30
0.0
  9
$PLIMCHECK
 70
     0
  9
$PEXTMIN
 10
0.0
 20
0.0
 30
0.0
  9
$PEXTMAX
 10
420.0
 20
297.0
 30
0.0
  9
$PLIMMIN
 10
0.0
 20
0.0
  9
$PLIMMAX
 10
420.0
 20
297.0
  9
$UNITMODE
 70
     0
  9
$VISRETAIN
 70
     0
  9
$PLINEGEN
 70
     0
  9
$PSLTSCALE
 70
     1
  9
$TREEDEPTH
 70
  3020
  9
$CMLSTYLE
  2
STANDARD
  9
$CMLJUST
 70
     0
  9
$CMLSCALE
 40
1.0
  9
$PROXYGRAPHICS
 70
     1
  9
$MEASUREMENT
 70
     1
  9
$CELWEIGHT
370
    -1
  9
$ENDCAPS
280
     0
  9
$JOINSTYLE
280
     0
  9
$LWDISPLAY
290
     0
  9
$INSUNITS
 70
     0
  9
$HYPERLINKBASE
  1

  9
$STYLESHEET
  1
print.ctb
  9
$XEDIT
290
     1
  9
$CEPSNTYPE
380
     0
  9
$PSTYLEMODE
290
     1
  9
$FINGERPRINTGUID
  2
{844639E2-177E-11D4-932C-444553540000}
  9
$VERSIONGUID
  2
{413F2712-450A-4CAD-8321-FA7A4AE701A3}
  9
$EXTNAMES
290
     1
  9
$PSVPSCALE
 40
0.0
  9
$OLESTARTUP
290
     0
  0
ENDSEC
  0
SECTION
  2
CLASSES
  0
CLASS
  1
ACDBDICTIONARYWDFLT
  2
AcDbDictionaryWithDefault
  3
ObjectDBX Classes
 90
        0
280
     0
281
     0
  0
CLASS
  1
ACDBPLACEHOLDER
  2
AcDbPlaceHolder
  3
ObjectDBX Classes
 90
        0
280
     0
281
     0
  0
CLASS
  1
LAYOUT
  2
AcDbLayout
  3
ObjectDBX Classes
 90
        0
280
     0
281
     0
  0
CLASS
  1
DUMMY
  2
AcDbLongTransaction
  3
DUMMY
 90
        0
280
     0
281
     0
  0
CLASS
  1
LWPOLYLINE
  2
AcDbPolyline
  3
AutoCAD 2000
 90
        0
280
     0
281
     1
  0
CLASS
  1
HATCH
  2
AcDbHatch
  3
AutoCAD 2000
 90
        0
280
     0
281
     1
  0
CLASS
  1
XRECORD
  2
AcDbXrecord
  3
AutoCAD 2000
 90
        0
280
     0
281
     0
  0
CLASS
  1
DUMMY
  2
AcDbLongTransaction
  3
DUMMY
 90
        0
280
     0
281
     0
  0
CLASS
  1
LWPOLYLINE
  2
AcDbPolyline
  3
AutoCAD 2000
 90
        0
280
     0
281
     1
  0
CLASS
  1
HATCH
  2
AcDbHatch
  3
AutoCAD 2000
 90
        0
280
     0
281
     1
  0
CLASS
  1
XRECORD
  2
AcDbXrecord
  3
AutoCAD 2000
 90
        0
280
     0
281
     0
  0
CLASS
  1
DUMMY
  2
AcDbLongTransaction
  3
DUMMY
 90
        0
280
     0
281
     0
  0
CLASS
  1
LWPOLYLINE
  2
AcDbPolyline
  3
AutoCAD 2000
 90
        0
280
     0
281
     1
  0
CLASS
  1
HATCH
  2
AcDbHatch
  3
AutoCAD 2000
 90
        0
280
     0
281
     1
  0
CLASS
  1
XRECORD
  2
AcDbXrecord
  3
AutoCAD 2000
 90
        0
280
     0
281
     0
  0
CLASS
  1
DUMMY
  2
AcDbLongTransaction
  3
DUMMY
 90
        0
280
     0
281
     0
  0
CLASS
  1
LWPOLYLINE
  2
AcDbPolyline
  3
AutoCAD 2000
 90
        0
280
     0
281
     1
  0
CLASS
  1
HATCH
  2
AcDbHatch
  3
AutoCAD 2000
 90
        0
280
     0
281
     1
  0
CLASS
  1
XRECORD
  2
AcDbXrecord
  3
AutoCAD 2000
 90
        0
280
     0
281
     0
  0
CLASS
  1
DUMMY
  2
AcDbLongTransaction
  3
DUMMY
 90
        0
280
     0
281
     0
  0
CLASS
  1
LWPOLYLINE
  2
AcDbPolyline
  3
AutoCAD 2000
 90
        0
280
     0
281
     1
  0
CLASS
  1
HATCH
  2
AcDbHatch
  3
AutoCAD 2000
 90
        0
280
     0
281
     1
  0
CLASS
  1
XRECORD
  2
AcDbXrecord
  3
AutoCAD 2000
 90
        0
280
     0
281
     0
  0
CLASS
  1
DUMMY
  2
AcDbLongTransaction
  3
DUMMY
 90
        0
280
     0
281
     0
  0
CLASS
  1
LWPOLYLINE
  2
AcDbPolyline
  3
AutoCAD 2000
 90
        0
280
     0
281
     1
  0
CLASS
  1
HATCH
  2
AcDbHatch
  3
AutoCAD 2000
 90
        0
280
     0
281
     1
  0
CLASS
  1
XRECORD
  2
AcDbXrecord
  3
AutoCAD 2000
 90
        0
280
     0
281
     0
  0
ENDSEC
  0
SECTION
  2
TABLES
  0
TABLE
  2
VPORT
  5
8
330
0
100
AcDbSymbolTable
 70
     2
  0
VPORT
  5
21AE
330
8
100
AcDbSymbolTableRecord
100
AcDbViewportTableRecord
  2
*Active
 70
     0
 10
0.0
 20
0.0
 11
1.0
 21
1.0
 12
416.6567176410301
 22
292.0011430754674
 13
0.0
 23
0.0
 14
5.0
 24
5.0
 15
0.0
 25
0.0
 16
0.0
 26
0.0
 36
1.0
 17
0.0
 27
0.0
 37
0.0
 40
637.2409049745581
 41
1.651537335285505
 42
50.0
 43
0.0
 44
0.0
 50
0.0
 51
0.0
 71
     0
 72
   100
 73
     1
 74
     0
 75
     0
 76
     0
 77
     0
 78
     0
281
     0
 65
     1
110
0.0
120
0.0
130
0.0
111
1.0
121
0.0
131
0.0
112
0.0
122
1.0
132
0.0
 79
     0
146
0.0
  0
ENDTAB
  0
TABLE
  2
LTYPE
  5
5
330
0
100
AcDbSymbolTable
 70
     3
  0
LTYPE
  5
14
330
5
100
AcDbSymbolTableRecord
100
AcDbLinetypeTableRecord
  2
BYBLOCK
 70
     0
  3

 72
    65
 73
     0
 40
0.0
  0
LTYPE
  5
15
330
5
100
AcDbSymbolTableRecord
100
AcDbLinetypeTableRecord
  2
BYLAYER
 70
     0
  3

 72
    65
 73
     0
 40
0.0
  0
LTYPE
  5
16
330
5
100
AcDbSymbolTableRecord
100
AcDbLinetypeTableRecord
  2
CONTINUOUS
 70
     0
  3
Solid line
 72
    65
 73
     0
 40
0.0
  0
LTYPE
  5
115
330
5
100
AcDbSymbolTableRecord
100
AcDbLinetypeTableRecord
  2
PHANTOM
 70
     0
  3
______  __  __  ______  __  __  ______  __  __ 
 72
    65
 73
     6
 40
2.5
 49
1.25
 74
     0
 49
-0.25
 74
     0
 49
0.25
 74
     0
 49
-0.25
 74
     0
 49
0.25
 74
     0
 49
-0.25
 74
     0
  0
LTYPE
  5
135
330
5
100
AcDbSymbolTableRecord
100
AcDbLinetypeTableRecord
  2
CENTER
 70
     0
  3
____ _ ____ _ ____ _ ____ _ ____ _ ____ _ ____ 
 72
    65
 73
     4
 40
2.0
 49
1.25
 74
     0
 49
-0.25
 74
     0
 49
0.25
 74
     0
 49
-0.25
 74
     0
  0
ENDTAB
  0
TABLE
  2
LAYER
  5
2
330
0
100
AcDbSymbolTable
 70
     9
  0
LAYER
  5
F
330
2
100
AcDbSymbolTableRecord
100
AcDbLayerTableRecord
  2
0
 70
     0
 62
     7
  6
CONTINUOUS
370
    -3
390
C41
  0
LAYER
  5
62
330
2
100
AcDbSymbolTableRecord
100
AcDbLayerTableRecord
  2
VIEWPORT
 70
     0
 62
     7
  6
CONTINUOUS
370
    -3
390
C41
  0
LAYER
  5
65
330
2
100
AcDbSymbolTableRecord
100
AcDbLayerTableRecord
  2
ZUWAKU
 70
     0
 62
     7
  6
CONTINUOUS
370
    -3
390
C41
  0
LAYER
  5
143
330
2
100
AcDbSymbolTableRecord
100
AcDbLayerTableRecord
  2
NOKITOI
 70
     0
 62
     9
  6
PHANTOM
370
    -3
390
C41
  0
LAYER
  5
144
330
2
100
AcDbSymbolTableRecord
100
AcDbLayerTableRecord
  2
SEIHIN
 70
     0
 62
     3
  6
CONTINUOUS
370
    -3
390
C41
  0
LAYER
  5
3CD
330
2
100
AcDbSymbolTableRecord
100
AcDbLayerTableRecord
  2
CENTER L
 70
     0
 62
     1
  6
CENTER
370
    -3
390
C41
  0
LAYER
  5
3CE
330
2
100
AcDbSymbolTableRecord
100
AcDbLayerTableRecord
  2
SUNPOU
 70
     0
 62
     4
  6
CONTINUOUS
370
    -3
390
C41
  0
LAYER
  5
6E3
330
2
100
AcDbSymbolTableRecord
100
AcDbLayerTableRecord
  2
DEFPOINTS
 70
     0
 62
     7
  6
CONTINUOUS
290
     0
370
    -3
390
C41
  0
LAYER
  5
15FD
330
2
100
AcDbSymbolTableRecord
100
AcDbLayerTableRecord
  2
moji
 70
     0
 62
     2
  6
CONTINUOUS
370
    -3
390
C41
  0
ENDTAB
  0
TABLE
  2
STYLE
  5
3
330
0
100
AcDbSymbolTable
 70
     2
  0
STYLE
  5
10
330
3
100
AcDbSymbolTableRecord
100
AcDbTextStyleTableRecord
  2
STANDARD
 70
     0
 40
0.0
 41
1.0
 50
0.0
 71
     0
 42
5.0
  3
TXT
  4
a:\program files\autocad lt\ms\bigfont.shx
  0
STYLE
  5
15FE
330
3
100
AcDbSymbolTableRecord
100
AcDbTextStyleTableRecord
  2
ｽﾀｲﾙ1
 70
     0
 40
0.0
 41
1.0
 50
0.0
 71
     0
 42
2.5
  3
MS PGothic.ttf
  4

1001
ACAD
1000
MS PGothic
1071
    32818
  0
ENDTAB
  0
TABLE
  2
VIEW
  5
6
330
0
100
AcDbSymbolTable
 70
     0
  0
ENDTAB
  0
TABLE
  2
UCS
  5
7
330
0
100
AcDbSymbolTable
 70
     0
  0
ENDTAB
  0
TABLE
  2
APPID
  5
9
330
0
100
AcDbSymbolTable
 70
     1
  0
APPID
  5
11
330
9
100
AcDbSymbolTableRecord
100
AcDbRegAppTableRecord
  2
ACAD
 70
     0
  0
ENDTAB
  0
TABLE
  2
DIMSTYLE
  5
A
330
0
100
AcDbSymbolTable
 70
     1
100
AcDbDimStyleTable
  0
DIMSTYLE
105
1D
102
{ACAD_REACTORS
330
1D8A
330
1E38
330
1F57
330
1F59
330
1F5F
330
1F60
330
1F62
330
1F65
330
1FB6
330
1FB7
330
2002
330
200B
330
200C
330
201F
330
2022
330
2034
102
}
330
A
100
AcDbSymbolTableRecord
100
AcDbDimStyleTableRecord
  2
STANDARD
 70
     0
340
10
  0
ENDTAB
  0
TABLE
  2
BLOCK_RECORD
  5
1
330
0
100
AcDbSymbolTable
 70
    19
  0
BLOCK_RECORD
  5
1A
330
1
100
AcDbSymbolTableRecord
100
AcDbBlockTableRecord
  2
*MODEL_SPACE
340
C44
  0
BLOCK_RECORD
  5
17
330
1
100
AcDbSymbolTableRecord
100
AcDbBlockTableRecord
  2
*PAPER_SPACE
340
C45
  0
BLOCK_RECORD
  5
6D
330
1
100
AcDbSymbolTableRecord
100
AcDbBlockTableRecord
  2
_OPEN
340
0
102
{BLKREFS
331
2117
331
2118
331
2120
331
2121
331
2129
331
212A
331
2132
331
2133
331
213B
331
213C
331
2144
331
2145
331
214D
331
214E
331
2156
331
2157
331
215F
331
2160
331
216A
331
216B
331
2173
331
2174
331
217C
331
217D
331
2185
331
2186
331
218E
331
218F
331
2197
331
2198
331
21A2
331
21A3
331
1E2E
331
1EC2
331
1F69
331
1F6B
102
}
  0
BLOCK_RECORD
  5
19FB
330
1
100
AcDbSymbolTableRecord
100
AcDbBlockTableRecord
  2
A$C6DF3607B
340
0
102
{BLKREFS
331
1A5B
102
}
  0
BLOCK_RECORD
  5
1A5A
330
1
100
AcDbSymbolTableRecord
100
AcDbBlockTableRecord
  2
A$C3D91712F
340
0
102
{BLKREFS
331
1F5C
102
}
  0
BLOCK_RECORD
  5
2050
330
1
100
AcDbSymbolTableRecord
100
AcDbBlockTableRecord
  2
*D3
340
0
  0
BLOCK_RECORD
  5
205C
330
1
100
AcDbSymbolTableRecord
100
AcDbBlockTableRecord
  2
*D4
340
0
  0
BLOCK_RECORD
  5
2068
330
1
100
AcDbSymbolTableRecord
100
AcDbBlockTableRecord
  2
*D5
340
0
  0
BLOCK_RECORD
  5
2074
330
1
100
AcDbSymbolTableRecord
100
AcDbBlockTableRecord
  2
*D6
340
0
  0
BLOCK_RECORD
  5
2080
330
1
100
AcDbSymbolTableRecord
100
AcDbBlockTableRecord
  2
*D7
340
0
  0
BLOCK_RECORD
  5
208C
330
1
100
AcDbSymbolTableRecord
100
AcDbBlockTableRecord
  2
*D8
340
0
  0
BLOCK_RECORD
  5
2098
330
1
100
AcDbSymbolTableRecord
100
AcDbBlockTableRecord
  2
*D9
340
0
  0
BLOCK_RECORD
  5
20A4
330
1
100
AcDbSymbolTableRecord
100
AcDbBlockTableRecord
  2
*D10
340
0
  0
BLOCK_RECORD
  5
20B0
330
1
100
AcDbSymbolTableRecord
100
AcDbBlockTableRecord
  2
*D11
340
0
  0
BLOCK_RECORD
  5
20BC
330
1
100
AcDbSymbolTableRecord
100
AcDbBlockTableRecord
  2
*D12
340
0
  0
BLOCK_RECORD
  5
20CA
330
1
100
AcDbSymbolTableRecord
100
AcDbBlockTableRecord
  2
*D13
340
0
  0
BLOCK_RECORD
  5
20D6
330
1
100
AcDbSymbolTableRecord
100
AcDbBlockTableRecord
  2
*D14
340
0
  0
BLOCK_RECORD
  5
20E2
330
1
100
AcDbSymbolTableRecord
100
AcDbBlockTableRecord
  2
*D15
340
0
  0
BLOCK_RECORD
  5
20EE
330
1
100
AcDbSymbolTableRecord
100
AcDbBlockTableRecord
  2
*D16
340
0
  0
BLOCK_RECORD
  5
20FA
330
1
100
AcDbSymbolTableRecord
100
AcDbBlockTableRecord
  2
*D17
340
0
  0
BLOCK_RECORD
  5
2106
330
1
100
AcDbSymbolTableRecord
100
AcDbBlockTableRecord
  2
*D18
340
0
  0
ENDTAB
  0
ENDSEC
  0
SECTION
  2
BLOCKS
  0
BLOCK
  5
1B
330
1A
100
AcDbEntity
  8
0
100
AcDbBlockBegin
  2
*MODEL_SPACE
 70
     0
 71
     0
 10
0.0
 20
0.0
 30
0.0
  3
*MODEL_SPACE
  1

  0
ENDBLK
  5
1C
330
1A
100
AcDbEntity
  8
0
100
AcDbBlockEnd
  0
BLOCK
  5
18
330
17
100
AcDbEntity
 67
     1
  8
0
100
AcDbBlockBegin
  2
*PAPER_SPACE
 70
     0
 71
     0
 10
0.0
 20
0.0
 30
0.0
  3
*PAPER_SPACE
  1

  0
ENDBLK
  5
19
330
17
100
AcDbEntity
 67
     1
  8
0
100
AcDbBlockEnd
  0
BLOCK
  5
6E
330
6D
100
AcDbEntity
  8
0
100
AcDbBlockBegin
  2
_OPEN
 70
     0
 71
     0
 10
0.0
 20
0.0
 30
0.0
  3
_OPEN
  1

  0
LINE
  5
6F
330
6D
100
AcDbEntity
  8
0
  6
ByBlock
 62
     0
100
AcDbLine
 10
-1.0
 20
0.1666666666666667
 30
0.0
 11
0.0
 21
0.0
 31
0.0
  0
LINE
  5
70
330
6D
100
AcDbEntity
  8
0
  6
ByBlock
 62
     0
100
AcDbLine
 10
0.0
 20
0.0
 30
0.0
 11
-1.0
 21
-0.1666666666666667
 31
0.0
  0
LINE
  5
71
330
6D
100
AcDbEntity
  8
0
  6
ByBlock
 62
     0
100
AcDbLine
 10
0.0
 20
0.0
 30
0.0
 11
-1.0
 21
0.0
 31
0.0
  0
ENDBLK
  5
72
330
6D
100
AcDbEntity
  8
0
100
AcDbBlockEnd
  0
BLOCK
  5
1A58
330
19FB
100
AcDbEntity
  8
0
100
AcDbBlockBegin
  2
A$C6DF3607B
 70
     0
 71
     0
 10
0.0
 20
0.0
 30
0.0
  3
A$C6DF3607B
  1

  0
ARC
  5
19FC
330
19FB
100
AcDbEntity
  8
NOKITOI
  6
PHANTOM
 62
     8
 48
5.0
100
AcDbCircle
 10
10.29040352532718
 20
73.77665918252922
 30
0.0
 40
3.000000000000036
100
AcDbArc
 50
324.3087057504234
 51
8.07474083461601
  0
LINE
  5
19FD
330
19FB
100
AcDbEntity
  8
NOKITOI
  6
PHANTOM
 62
     8
 48
5.0
100
AcDbLine
 10
128.2146746422095
 20
51.3812109493922
 30
0.0
 11
128.2146504550051
 21
56.46197181825039
 31
0.0
  0
LINE
  5
19FE
330
19FB
100
AcDbEntity
  8
NOKITOI
  6
PHANTOM
 62
     8
 48
5.0
100
AcDbLine
 10
129.514643687523
 20
43.43077988857647
 30
0.0
 11
129.5146478915426
 21
57.00045563804088
 31
0.0
  0
LINE
  5
19FF
330
19FB
100
AcDbEntity
  8
NOKITOI
  6
PHANTOM
 62
     8
 48
5.0
100
AcDbLine
 10
123.5975513703806
 20
45.93237131561375
 30
0.0
 11
124.1698059918763
 21
58.41405249398702
 31
0.0
  0
LINE
  5
1A00
330
19FB
100
AcDbEntity
  8
NOKITOI
  6
PHANTOM
 62
     8
 48
5.0
100
AcDbLine
 10
122.5956619517938
 20
52.41177462278569
 30
0.0
 11
122.9405653832814
 21
60.00044135636381
 31
0.0
  0
LINE
  5
1A01
330
19FB
100
AcDbEntity
  8
NOKITOI
  6
PHANTOM
 62
     8
 48
5.0
100
AcDbLine
 10
122.2724523159559
 20
45.30042116109132
 30
0.0
 11
122.9188715876321
 21
59.52312808448005
 31
0.0
  0
LINE
  5
1A02
330
19FB
100
AcDbEntity
  8
NOKITOI
  6
PHANTOM
 62
     8
 48
5.0
100
AcDbLine
 10
20.13784077274352
 20
27.40670894420725
 30
0.0
 11
16.18876708195865
 21
55.61339806634123
 31
0.0
  0
LINE
  5
1A03
330
19FB
100
AcDbEntity
  8
NOKITOI
  6
PHANTOM
 62
     8
 48
5.0
100
AcDbLine
 10
21.42528460309597
 20
27.58695710210475
 30
0.0
 11
16.18146440634416
 21
65.04151047068126
 31
0.0
  0
LINE
  5
1A04
330
19FB
100
AcDbEntity
  8
NOKITOI
  6
PHANTOM
 62
     8
 48
5.0
100
AcDbLine
 10
35.794791149567
 20
1.30000947956944
 30
0.0
 11
117.4059277088054
 21
1.300397993270735
 31
0.0
  0
LINE
  5
1A05
330
19FB
100
AcDbEntity
  8
NOKITOI
  6
PHANTOM
 62
     8
 48
5.0
100
AcDbLine
 10
33.7495102438412
 20
-0.0000002571023288
 30
0.0
 11
119.6037632428688
 21
0.0004084561562649
 31
0.0
  0
LINE
  5
1A06
330
19FB
100
AcDbEntity
  8
NOKITOI
  6
PHANTOM
 62
     8
 48
5.0
100
AcDbLine
 10
31.7696030692515
 20
1.717148317474653
 30
0.0
 11
30.03760081640678
 21
13.84074986315983
 31
0.0
  0
LINE
  5
1A07
330
19FB
100
AcDbEntity
  8
NOKITOI
  6
PHANTOM
 62
     8
 48
5.0
100
AcDbLine
 10
32.82493041637542
 20
3.875731205022476
 30
0.0
 11
31.0605849818495
 21
16.15424608093684
 31
0.0
  0
ARC
  5
1A08
330
19FB
100
AcDbEntity
  8
NOKITOI
  6
PHANTOM
 62
     8
 48
5.0
100
AcDbCircle
 10
33.74950072274612
 20
1.999999742875161
 30
0.0
 40
2.000000000000059
100
AcDbArc
 50
188.1303747592974
 51
270.0002727592757
  0
ARC
  5
1A09
330
19FB
100
AcDbEntity
  8
NOKITOI
  6
PHANTOM
 62
     8
 48
5.0
100
AcDbCircle
 10
35.79477686792404
 20
4.300009479535447
 30
0.0
 40
2.99999999999991
100
AcDbArc
 50
188.1303764195606
 51
270.0002727592888
  0
ARC
  5
1A0A
330
19FB
100
AcDbEntity
  8
NOKITOI
  6
PHANTOM
 62
     8
 48
5.0
100
AcDbCircle
 10
37.46881022185437
 20
29.83312844914019
 30
0.0
 40
17.49999999999989
100
AcDbArc
 50
187.9698827592866
 51
244.2676227180992
  0
ARC
  5
1A0B
330
19FB
100
AcDbEntity
  8
NOKITOI
  6
PHANTOM
 62
     8
 48
5.0
100
AcDbCircle
 10
37.46881022185437
 20
29.83312844914019
 30
0.0
 40
16.19999999999994
100
AcDbArc
 50
187.9698827592866
 51
231.2685868059484
  0
ARC
  5
1A0C
330
19FB
100
AcDbEntity
  8
NOKITOI
  6
PHANTOM
 62
     8
 48
5.0
100
AcDbCircle
 10
30.76363501240428
 20
16.11157623623922
 30
0.0
 40
0.3000000000000004
100
AcDbArc
 50
8.177070333932466
 51
79.09679670050285
  0
ARC
  5
1A0D
330
19FB
100
AcDbEntity
  8
NOKITOI
  6
PHANTOM
 62
     8
 48
5.0
100
AcDbCircle
 10
27.9586194733937
 20
17.97579856725315
 30
0.0
 40
0.999999999999992
100
AcDbArc
 50
231.2685868059484
 51
259.0967967005029
  0
ARC
  5
1A0E
330
19FB
100
AcDbEntity
  8
NOKITOI
  6
PHANTOM
 62
     8
 48
5.0
100
AcDbCircle
 10
29.74061617125187
 20
13.79832203570857
 30
0.0
 40
0.2999999999999991
100
AcDbArc
 50
8.130376419557409
 51
64.26762271809918
  0
LINE
  5
1A0F
330
19FB
100
AcDbEntity
  8
NOKITOI
  6
PHANTOM
 62
     8
 48
5.0
100
AcDbLine
 10
27.76946913123049
 20
16.99385042806267
 30
0.0
 11
30.82038011505313
 21
16.40616067799635
 31
0.0
  0
LINE
  5
1A10
330
19FB
100
AcDbEntity
  8
NOKITOI
  6
PHANTOM
 62
     8
 48
5.0
100
AcDbLine
 10
121.6016911540796
 20
1.909602967408773
 30
0.0
 11
123.4930702655338
 21
43.63231217163491
 31
0.0
  0
LINE
  5
1A11
330
19FB
100
AcDbEntity
  8
NOKITOI
  6
PHANTOM
 62
     8
 48
5.0
100
AcDbLine
 10
120.4028196958152
 20
4.164189267704501
 30
0.0
 11
122.2724523159559
 21
45.30042116109132
 31
0.0
  0
ARC
  5
1A12
330
19FB
100
AcDbEntity
  8
NOKITOI
  6
PHANTOM
 62
     8
 48
5.0
100
AcDbCircle
 10
117.4059134271629
 20
4.300397993236402
 30
0.0
 40
2.999999999999661
100
AcDbArc
 50
270.0002727592757
 51
357.3977103715406
  0
ARC
  5
1A13
330
19FB
100
AcDbEntity
  8
NOKITOI
  6
PHANTOM
 62
     8
 48
5.0
100
AcDbCircle
 10
119.603753721774
 20
2.000408456133528
 30
0.0
 40
1.999999999999925
100
AcDbArc
 50
270.0002727592757
 51
357.3977107592921
  0
LINE
  5
1A14
330
19FB
100
AcDbEntity
  8
NOKITOI
  6
PHANTOM
 62
     8
 48
5.0
100
AcDbLine
 10
127.8100625650709
 20
43.60415660335514
 30
0.0
 11
129.5146481185466
 21
42.49999974289773
 31
0.0
  0
LINE
  5
1A15
330
19FB
100
AcDbEntity
  8
NOKITOI
  6
PHANTOM
 62
     8
 48
5.0
100
AcDbLine
 10
129.514643687523
 20
43.43077988857635
 30
0.0
 11
129.5146481185466
 21
42.49999974289773
 31
0.0
  0
ARC
  5
1A16
330
19FB
100
AcDbEntity
  8
NOKITOI
  6
PHANTOM
 62
     8
 48
5.0
100
AcDbCircle
 10
129.0146436875289
 20
43.43077750830253
 30
0.0
 40
0.4999999999999311
100
AcDbArc
 50
239.0365157592917
 51
0.0002727593017656
  0
ARC
  5
1A17
330
19FB
100
AcDbEntity
  8
NOKITOI
  6
PHANTOM
 62
     8
 48
5.0
100
AcDbCircle
 10
123.9925573055862
 20
43.60966936219097
 30
0.0
 40
0.499999999999965
100
AcDbArc
 50
90.00027275928873
 51
177.404437491292
  0
LINE
  5
1A18
330
19FB
100
AcDbEntity
  8
NOKITOI
  6
PHANTOM
 62
     8
 48
5.0
100
AcDbLine
 10
123.9925549253126
 20
44.10966936218529
 30
0.0
 11
127.0147097786899
 21
44.10968374929757
 31
0.0
  0
LINE
  5
1A19
330
19FB
100
AcDbEntity
  8
NOKITOI
  6
PHANTOM
 62
     8
 48
5.0
100
AcDbLine
 10
127.0147097786899
 20
44.10968374929757
 30
0.0
 11
123.5250042133898
 21
44.10968374929757
 31
0.0
  0
LINE
  5
1A1A
330
19FB
100
AcDbEntity
  8
NOKITOI
  6
PHANTOM
 62
     8
 48
5.0
100
AcDbLine
 10
127.0147097786899
 20
44.10968374929757
 30
0.0
 11
128.7573977286024
 21
43.00202928366593
 31
0.0
  0
LINE
  5
1A1B
330
19FB
100
AcDbEntity
  8
NOKITOI
  6
PHANTOM
 62
     8
 48
5.0
100
AcDbLine
 10
124.0970381286829
 20
45.40966985959733
 30
0.0
 11
127.9147035899673
 21
45.40968803377564
 31
0.0
  0
ARC
  5
1A1C
330
19FB
100
AcDbEntity
  8
NOKITOI
  6
PHANTOM
 62
     8
 48
5.0
100
AcDbCircle
 10
124.0970357484089
 20
45.90966985959165
 30
0.0
 40
0.4999999999999966
100
AcDbArc
 50
177.3977101688737
 51
270.0002727592888
  0
ARC
  5
1A1D
330
19FB
100
AcDbEntity
  8
NOKITOI
  6
PHANTOM
 62
     8
 48
5.0
100
AcDbCircle
 10
127.9147021618032
 20
45.70968803377195
 30
0.0
 40
0.299999999999716
100
AcDbArc
 50
270.0002727592888
 51
0.0002727593310776
  0
LINE
  5
1A1E
330
19FB
100
AcDbEntity
  8
NOKITOI
  6
PHANTOM
 62
     8
 48
5.0
100
AcDbLine
 10
128.2146746422095
 20
51.3812109493922
 30
0.0
 11
128.2147021617998
 21
45.70968946193648
 31
0.0
  0
ARC
  5
1A1F
330
19FB
100
AcDbEntity
  8
NOKITOI
  6
PHANTOM
 62
     8
 48
5.0
100
AcDbCircle
 10
9.217103878348212
 20
73.6243887463238
 30
0.0
 40
4.084047239721376
100
AcDbArc
 50
8.07474083461601
 51
65.56290547640806
  0
LINE
  5
1A20
330
19FB
100
AcDbEntity
  8
NOKITOI
  6
PHANTOM
 62
     8
 48
5.0
100
AcDbLine
 10
4.714548438332599
 20
77.89128675497381
 30
0.0
 11
4.714566839771464
 21
74.02588286696903
 31
0.0
  0
ARC
  5
1A21
330
19FB
100
AcDbEntity
  8
NOKITOI
  6
PHANTOM
 62
     8
 48
5.0
100
AcDbCircle
 10
2.976832985286023
 20
76.49985294462351
 30
0.0
 40
1.700000000000254
100
AcDbArc
 50
98.05602970221763
 51
187.125288759277
  0
ARC
  5
1A22
330
19FB
100
AcDbEntity
  8
NOKITOI
  6
PHANTOM
 62
     8
 48
5.0
100
AcDbCircle
 10
2.976832985286023
 20
76.49985294462351
 30
0.0
 40
3.000000000000204
100
AcDbArc
 50
98.09838408023845
 51
187.1252887592867
  0
ARC
  5
1A23
330
19FB
100
AcDbEntity
  8
NOKITOI
  6
PHANTOM
 62
     8
 48
5.0
100
AcDbCircle
 10
8.014546991360589
 20
74.28559468837636
 30
0.0
 40
1.5
100
AcDbArc
 50
80.27269634530323
 51
180.0
  0
ARC
  5
1A24
330
19FB
100
AcDbEntity
  8
NOKITOI
  6
PHANTOM
 62
     8
 48
5.0
100
AcDbCircle
 10
6.285356230304728
 20
54.22687237117862
 30
0.0
 40
11.90000000000003
100
AcDbArc
 50
69.37287935362224
 51
92.9999999999926
  0
LINE
  5
1A25
330
19FB
100
AcDbEntity
  8
NOKITOI
  6
PHANTOM
 62
     8
 48
5.0
100
AcDbLine
 10
4.235326354626864
 20
70.13390973264774
 30
0.0
 11
6.419470698961163
 21
73.14908414682316
 31
0.0
  0
ARC
  5
1A26
330
19FB
100
AcDbEntity
  8
NOKITOI
  6
PHANTOM
 62
     8
 48
5.0
100
AcDbCircle
 10
6.285356230304728
 20
54.22687237117862
 30
0.0
 40
10.00000000000008
100
AcDbArc
 50
7.969883756126735
 51
92.9999999999926
  0
LINE
  5
1A27
330
19FB
100
AcDbEntity
  8
NOKITOI
  6
PHANTOM
 62
     8
 48
5.0
100
AcDbLine
 10
1.51626550121307
 20
63.99065837684691
 30
0.0
 11
0.0000007567385865
 21
76.12773477326732
 31
0.0
  0
LINE
  5
1A28
330
19FB
100
AcDbEntity
  8
NOKITOI
  6
PHANTOM
 62
     8
 48
5.0
100
AcDbLine
 10
1.51626550121307
 20
63.99065837684691
 30
0.0
 11
5.761996667875224
 21
64.21316771872444
 31
0.0
  0
ARC
  5
1A29
330
19FB
100
AcDbEntity
  8
NOKITOI
  6
PHANTOM
 62
     8
 48
5.0
100
AcDbCircle
 10
4.214566839776921
 20
74.02588048669526
 30
0.0
 40
0.5000000000000315
100
AcDbArc
 50
324.0810261483387
 51
0.0002727592789674
  0
ARC
  5
1A2A
330
19FB
100
AcDbEntity
  8
NOKITOI
  6
PHANTOM
 62
     8
 48
5.0
100
AcDbCircle
 10
3.939876585704383
 20
68.7843527312881
 30
0.0
 40
0.9999999999999993
100
AcDbArc
 50
101.5576465781719
 51
187.1252891081787
  0
ARC
  5
1A2B
330
19FB
100
AcDbEntity
  8
NOKITOI
  6
PHANTOM
 62
     8
 48
5.0
100
AcDbCircle
 10
2.669428096177057
 20
71.89284252235962
 30
0.0
 40
0.5000000000000003
100
AcDbArc
 50
281.5576465781719
 51
324.081026148336
  0
LINE
  5
1A2C
330
19FB
100
AcDbEntity
  8
NOKITOI
  6
PHANTOM
 62
     8
 48
5.0
100
AcDbLine
 10
2.769604975040124
 20
71.40298071231388
 30
0.0
 11
2.45135841165677
 21
71.33789919998776
 31
0.0
  0
ARC
  5
1A2D
330
19FB
100
AcDbEntity
  8
NOKITOI
  6
PHANTOM
 62
     8
 48
5.0
100
AcDbCircle
 10
2.351181532793703
 20
71.82776101003344
 30
0.0
 40
0.4999999999999905
100
AcDbArc
 50
187.1209717742025
 51
281.5576465781719
  0
ARC
  5
1A2E
330
19FB
100
AcDbEntity
  8
NOKITOI
  6
PHANTOM
 62
     8
 48
5.0
100
AcDbCircle
 10
2.351181532793703
 20
71.82776101003344
 30
0.0
 40
0.4999999999999905
100
AcDbArc
 50
187.1209717742025
 51
281.5576465781719
  0
ARC
  5
1A2F
330
19FB
100
AcDbEntity
  8
NOKITOI
  6
PHANTOM
 62
     8
 48
5.0
100
AcDbCircle
 10
3.361599232417689
 20
70.787982802584
 30
0.0
 40
1.09142597774643
100
AcDbArc
 50
290.2590900096225
 51
323.1814341141131
  0
LINE
  5
1A30
330
19FB
100
AcDbEntity
  8
NOKITOI
  6
PHANTOM
 62
     8
 48
5.0
100
AcDbLine
 10
4.211124234085787
 20
66.03449739591429
 30
0.0
 11
5.6625583510139
 21
66.11056383475807
 31
0.0
  0
ARC
  5
1A31
330
19FB
100
AcDbEntity
  8
NOKITOI
  6
PHANTOM
 62
     8
 48
5.0
100
AcDbCircle
 10
4.158788277842973
 20
67.0331269306688
 30
0.0
 40
1.000000000000005
100
AcDbArc
 50
187.1252891081819
 51
273.0000000000056
  0
LINE
  5
1A32
330
19FB
100
AcDbEntity
  8
NOKITOI
  6
PHANTOM
 62
     8
 48
5.0
100
AcDbLine
 10
3.166510991613791
 20
66.90908747229503
 30
0.0
 11
2.947599299475201
 21
68.66031327291432
 31
0.0
  0
LINE
  5
1A33
330
19FB
100
AcDbEntity
  8
NOKITOI
  6
PHANTOM
 62
     8
 48
5.0
100
AcDbLine
 10
1.85503821779605
 20
71.76577866590924
 30
0.0
 11
1.289973738823733
 21
76.28888871839422
 31
0.0
  0
LINE
  5
1A34
330
19FB
100
AcDbEntity
  8
NOKITOI
  6
PHANTOM
 62
     8
 48
5.0
100
AcDbLine
 10
3.074351803777631
 20
71.59952223492121
 30
0.0
 11
4.619490547377723
 21
73.73256019925685
 31
0.0
  0
ARC
  5
1A35
330
19FB
100
AcDbEntity
  8
NOKITOI
  6
PHANTOM
 62
     8
 48
5.0
100
AcDbCircle
 10
14.75369025610587
 20
63.69990931311463
 30
0.0
 40
0.2999999999998296
100
AcDbArc
 50
7.969881501863628
 51
90.00027275924964
  0
LINE
  5
1A36
330
19FB
100
AcDbEntity
  8
NOKITOI
  6
PHANTOM
 62
     8
 48
5.0
100
AcDbLine
 10
15.22791759737163
 20
62.47636999742622
 30
0.0
 11
15.01461456900677
 21
63.99991055526044
 31
0.0
  0
LINE
  5
1A37
330
19FB
100
AcDbEntity
  8
NOKITOI
  6
PHANTOM
 62
     8
 48
5.0
100
AcDbLine
 10
13.53583546463017
 20
63.99990351546211
 30
0.0
 11
15.01461456900677
 21
63.99991055526044
 31
0.0
  0
ARC
  5
1A38
330
19FB
100
AcDbEntity
  8
NOKITOI
  6
PHANTOM
 62
     8
 48
5.0
100
AcDbCircle
 10
15.88436208136534
 20
64.99991469574627
 30
0.0
 40
0.2999999999996023
100
AcDbArc
 50
7.969884542966325
 51
90.00027275926269
  0
ARC
  5
1A39
330
19FB
100
AcDbEntity
  8
NOKITOI
  6
PHANTOM
 62
     8
 48
5.0
100
AcDbCircle
 10
10.8298287013107
 20
66.29989063341407
 30
0.0
 40
1.000000000000001
100
AcDbArc
 50
249.3728793536222
 51
270.0002727592757
  0
ARC
  5
1A3A
330
19FB
100
AcDbEntity
  8
NOKITOI
  6
PHANTOM
 62
     8
 48
5.0
100
AcDbCircle
 10
12.3179825773733
 20
63.89989771781427
 30
0.0
 40
0.099999999999981
100
AcDbArc
 50
90.00027275928873
 51
238.0500844895506
  0
LINE
  5
1A3B
330
19FB
100
AcDbEntity
  8
NOKITOI
  6
PHANTOM
 62
     8
 48
5.0
100
AcDbLine
 10
10.82983346185836
 20
65.29989063342532
 30
0.0
 11
15.88436065320127
 21
65.29991469574247
 31
0.0
  0
LINE
  5
1A3C
330
19FB
100
AcDbEntity
  8
NOKITOI
  6
PHANTOM
 62
     8
 48
5.0
100
AcDbLine
 10
12.31798210131854
 20
63.99989771781316
 30
0.0
 11
14.7536888279418
 21
63.99990931311106
 31
0.0
  0
ARC
  5
1A3D
330
19FB
100
AcDbEntity
  8
NOKITOI
  6
PHANTOM
 62
     8
 48
5.0
100
AcDbCircle
 10
15.30600850238909
 20
61.197369669517
 30
0.0
 40
0.1000000000000474
100
AcDbArc
 50
217.6942137014135
 51
7.969881501870078
  0
LINE
  5
1A3E
330
19FB
100
AcDbEntity
  8
NOKITOI
  6
PHANTOM
 62
     8
 48
5.0
100
AcDbLine
 10
15.40504261145122
 20
61.2112349225722
 30
0.0
 11
15.05079258329204
 21
63.74150507228023
 31
0.0
  0
ARC
  5
1A3F
330
19FB
100
AcDbEntity
  8
NOKITOI
  6
PHANTOM
 62
     8
 48
5.0
100
AcDbCircle
 10
6.285356230304728
 20
54.22687237117862
 30
0.0
 40
11.30000000000003
100
AcDbArc
 50
37.69421370141937
 51
58.05008448955056
  0
ARC
  5
1A40
330
19FB
100
AcDbEntity
  8
NOKITOI
  6
PHANTOM
 62
     8
 48
5.0
100
AcDbCircle
 10
9.217103878348212
 20
73.62438874632375
 30
0.0
 40
1.984047239721487
100
AcDbArc
 50
359.9999911171311
 51
64.8292325331936
  0
ARC
  5
1A41
330
19FB
100
AcDbEntity
  8
NOKITOI
  6
PHANTOM
 62
     8
 48
5.0
100
AcDbCircle
 10
9.635636478624633
 20
74.51499496262204
 30
0.0
 40
1.000000000000077
100
AcDbArc
 50
64.8292325331936
 51
80.27269634530323
  0
ARC
  5
1A42
330
19FB
100
AcDbEntity
  8
NOKITOI
  6
PHANTOM
 62
     8
 48
5.0
100
AcDbCircle
 10
6.014546991360589
 20
73.44240443426156
 30
0.0
 40
0.4999999999999855
100
AcDbArc
 50
324.081026148336
 51
0.0
  0
LINE
  5
1A43
330
19FB
100
AcDbEntity
  8
NOKITOI
  6
PHANTOM
 62
     8
 48
5.0
100
AcDbLine
 10
6.514546991360589
 20
74.28559468837636
 30
0.0
 11
6.514546991360589
 21
73.44240443426156
 31
0.0
  0
LINE
  5
1A44
330
19FB
100
AcDbEntity
  8
NOKITOI
  6
PHANTOM
 62
     8
 48
5.0
100
AcDbLine
 10
8.267985620718605
 20
75.76402928657444
 30
0.0
 11
9.804595564863462
 21
75.5006180280875
 31
0.0
  0
ARC
  5
1A45
330
19FB
100
AcDbEntity
  8
NOKITOI
  6
PHANTOM
 62
     8
 48
5.0
100
AcDbCircle
 10
11.9147478915437
 20
72.6098235557414
 30
0.0
 40
0.99999999999997
100
AcDbArc
 50
233.7824700684546
 51
324.3087057504162
  0
ARC
  5
1A46
330
19FB
100
AcDbEntity
  8
NOKITOI
  6
PHANTOM
 62
     8
 48
5.0
100
AcDbCircle
 10
11.50115111806952
 20
72.04507785281658
 30
0.0
 40
0.3000000000000114
100
AcDbArc
 50
180.0
 51
233.7824700684546
  0
LINE
  5
1A47
330
19FB
100
AcDbEntity
  8
NOKITOI
  6
PHANTOM
 62
     8
 48
5.0
100
AcDbLine
 10
11.9147478915437
 20
71.6098235557414
 30
0.0
 11
12.01474789154361
 21
71.6098235557414
 31
0.0
  0
LINE
  5
1A48
330
19FB
100
AcDbEntity
  8
NOKITOI
  6
PHANTOM
 62
     8
 48
5.0
100
AcDbLine
 10
11.20115111806956
 20
73.62438874632369
 30
0.0
 11
11.20115111806956
 21
72.04507785281658
 31
0.0
  0
ARC
  5
1A49
330
19FB
100
AcDbEntity
  8
NOKITOI
  6
PHANTOM
 62
     8
 48
5.0
100
AcDbCircle
 10
6.214539846639923
 20
79.69606008392481
 30
0.0
 40
0.2999999999999982
100
AcDbArc
 50
0.0002727593441052
 51
98.22733668820366
  0
LINE
  5
1A4A
330
19FB
100
AcDbEntity
  8
NOKITOI
  6
PHANTOM
 62
     8
 48
5.0
100
AcDbLine
 10
6.171609489442631
 20
79.99297250271343
 30
0.0
 11
2.554213188939116
 21
79.46993585722669
 31
0.0
  0
LINE
  5
1A4B
330
19FB
100
AcDbEntity
  8
NOKITOI
  6
PHANTOM
 62
     8
 48
5.0
100
AcDbLine
 10
4.1429978609616
 20
78.38613840861012
 30
0.0
 11
2.738592571013101
 21
78.18307649038559
 31
0.0
  0
ARC
  5
1A4C
330
19FB
100
AcDbEntity
  8
NOKITOI
  6
PHANTOM
 62
     8
 48
5.0
100
AcDbCircle
 10
4.214548438338284
 20
77.89128437470004
 30
0.0
 40
0.4999999999999978
100
AcDbArc
 50
0.0002727592789674
 51
98.22733668820366
  0
ARC
  5
1A4D
330
19FB
100
AcDbEntity
  8
NOKITOI
  6
PHANTOM
 62
     8
 48
5.0
100
AcDbCircle
 10
9.665567651501192
 20
74.61132271681879
 30
0.0
 40
3.000000000000007
100
AcDbArc
 50
65.56290547640806
 51
80.27269634529012
  0
LINE
  5
1A4E
330
19FB
100
AcDbEntity
  8
NOKITOI
  6
PHANTOM
 62
     8
 48
5.0
100
AcDbLine
 10
6.514539846637149
 20
79.69606142131863
 30
0.0
 11
6.514544984409781
 21
78.61682153244772
 31
0.0
  0
ARC
  5
1A4F
330
19FB
100
AcDbEntity
  8
NOKITOI
  6
PHANTOM
 62
     8
 48
5.0
100
AcDbCircle
 10
7.014544984404097
 20
78.61682391272143
 30
0.0
 40
0.4999999999999814
100
AcDbArc
 50
180.0002727592757
 51
260.2726963453033
  0
LINE
  5
1A50
330
19FB
100
AcDbEntity
  8
NOKITOI
  6
PHANTOM
 62
     8
 48
5.0
100
AcDbLine
 10
6.93006544128491
 20
78.1240123799887
 30
0.0
 11
10.17244491021745
 21
77.56819191321495
 31
0.0
  0
ARC
  5
1A51
330
19FB
100
AcDbEntity
  8
NOKITOI
  6
PHANTOM
 62
     8
 48
5.0
100
AcDbCircle
 10
124.469496618693
 20
58.40043162037364
 30
0.0
 40
0.2999999999997419
100
AcDbArc
 50
90.00027275926269
 51
177.397710168851
  0
LINE
  5
1A52
330
19FB
100
AcDbEntity
  8
NOKITOI
  6
PHANTOM
 62
     8
 48
5.0
100
AcDbLine
 10
124.469495190529
 20
58.70043162037052
 30
0.0
 11
125.9761621675666
 21
58.7004387929303
 31
0.0
  0
LINE
  5
1A53
330
19FB
100
AcDbEntity
  8
NOKITOI
  6
PHANTOM
 62
     8
 48
5.0
100
AcDbLine
 10
123.4183535848379
 20
60.00042661637519
 30
0.0
 11
126.5146336099338
 21
60.00044135636381
 31
0.0
  0
LINE
  5
1A54
330
19FB
100
AcDbEntity
  8
NOKITOI
  6
PHANTOM
 62
     8
 48
5.0
100
AcDbLine
 10
128.2146504550051
 20
56.46197181825039
 30
0.0
 11
125.9761621675666
 21
58.7004387929303
 31
0.0
  0
LINE
  5
1A55
330
19FB
100
AcDbEntity
  8
NOKITOI
  6
PHANTOM
 62
     8
 48
5.0
100
AcDbLine
 10
129.5146478915426
 20
57.00045563804088
 30
0.0
 11
126.5146336099338
 21
60.00044135636381
 31
0.0
  0
ARC
  5
1A56
330
19FB
100
AcDbEntity
  8
NOKITOI
  6
PHANTOM
 62
     8
 48
5.0
100
AcDbCircle
 10
123.4183559651119
 20
59.50042661638088
 30
0.0
 40
0.5000000000000734
100
AcDbArc
 50
90.00027275928873
 51
177.3977087835152
  0
LINE
  5
1A57
330
19FB
100
AcDbEntity
  8
NOKITOI
  6
PHANTOM
 62
     8
 48
5.0
100
AcDbLine
 10
126.5146336099338
 20
60.00044135636381
 30
0.0
 11
122.9405653832814
 21
60.00044135636381
 31
0.0
  0
ENDBLK
  5
1A59
330
19FB
100
AcDbEntity
  8
0
100
AcDbBlockEnd
  0
BLOCK
  5
1A5C
330
1A5A
100
AcDbEntity
  8
0
100
AcDbBlockBegin
  2
A$C3D91712F
 70
     0
 71
     0
 10
0.0
 20
0.0
 30
0.0
  3
A$C3D91712F
  1

  0
INSERT
  5
1A5B
330
1A5A
100
AcDbEntity
  8
SUNPOU
100
AcDbBlockReference
  2
A$C6DF3607B
 10
-0.0000002108174613
 20
0.0000000110870246
 30
0.0
  0
ENDBLK
  5
1A5D
330
1A5A
100
AcDbEntity
  8
0
100
AcDbBlockEnd
  0
BLOCK
  5
205A
330
2050
100
AcDbEntity
  8
0
100
AcDbBlockBegin
  2
*D3
 70
     1
 71
     0
 10
0.0
 20
0.0
 30
0.0
  3
*D3
  1

  0
LINE
  5
2114
330
2050
100
AcDbEntity
  8
SUNPOU
100
AcDbLine
 10
143.0312164078669
 20
265.5711220997935
 30
0.0
 11
143.0312164078669
 21
288.4073988259918
 31
0.0
  0
LINE
  5
2115
330
2050
100
AcDbEntity
  8
SUNPOU
100
AcDbLine
 10
333.0312164078664
 20
265.5711220997935
 30
0.0
 11
333.0312164078664
 21
288.4073988259918
 31
0.0
  0
LINE
  5
2116
330
2050
100
AcDbEntity
  8
SUNPOU
100
AcDbLine
 10
150.0312164078669
 20
285.4073988259918
 30
0.0
 11
326.0312164078664
 21
285.4073988259918
 31
0.0
  0
INSERT
  5
2117
330
2050
100
AcDbEntity
  8
SUNPOU
100
AcDbBlockReference
  2
_OPEN
 10
143.0312164078669
 20
285.4073988259918
 30
0.0
 41
7.0
 42
7.0
 43
7.0
 50
180.0
  0
INSERT
  5
2118
330
2050
100
AcDbEntity
  8
SUNPOU
100
AcDbBlockReference
  2
_OPEN
 10
333.0312164078664
 20
285.4073988259918
 30
0.0
 41
7.0
 42
7.0
 43
7.0
  0
MTEXT
  5
2119
330
2050
100
AcDbEntity
  8
SUNPOU
100
AcDbMText
 10
238.0312164078666
 20
290.4073988259918
 30
0.0
 40
6.0
 41
0.0
 71
     5
 72
     1
  1
\A1;190
 73
     1
 44
1.0
  0
POINT
  5
211A
330
2050
100
AcDbEntity
  8
DEFPOINTS
 62
     0
100
AcDbPoint
 10
143.0312164078669
 20
259.5711220997935
 30
0.0
  0
POINT
  5
211B
330
2050
100
AcDbEntity
  8
DEFPOINTS
 62
     0
100
AcDbPoint
 10
333.0312164078664
 20
259.5711220997935
 30
0.0
  0
POINT
  5
211C
330
2050
100
AcDbEntity
  8
DEFPOINTS
 62
     0
100
AcDbPoint
 10
333.0312164078664
 20
285.4073988259918
 30
0.0
  0
ENDBLK
  5
205B
330
2050
100
AcDbEntity
  8
0
100
AcDbBlockEnd
  0
BLOCK
  5
2066
330
205C
100
AcDbEntity
  8
0
100
AcDbBlockBegin
  2
*D4
 70
     1
 71
     0
 10
0.0
 20
0.0
 30
0.0
  3
*D4
  1

  0
LINE
  5
211D
330
205C
100
AcDbEntity
  8
SUNPOU
100
AcDbLine
 10
195.19566943919
 20
341.7594291213244
 30
0.0
 11
195.19566943919
 21
328.0609127965586
 31
0.0
  0
LINE
  5
211E
330
205C
100
AcDbEntity
  8
SUNPOU
100
AcDbLine
 10
280.19566943919
 20
341.7594291213244
 30
0.0
 11
280.19566943919
 21
328.0609127965586
 31
0.0
  0
LINE
  5
211F
330
205C
100
AcDbEntity
  8
SUNPOU
100
AcDbLine
 10
202.19566943919
 20
331.0609127965586
 30
0.0
 11
273.19566943919
 21
331.0609127965586
 31
0.0
  0
INSERT
  5
2120
330
205C
100
AcDbEntity
  8
SUNPOU
100
AcDbBlockReference
  2
_OPEN
 10
195.19566943919
 20
331.0609127965586
 30
0.0
 41
7.0
 42
7.0
 43
7.0
 50
180.0
  0
INSERT
  5
2121
330
205C
100
AcDbEntity
  8
SUNPOU
100
AcDbBlockReference
  2
_OPEN
 10
280.19566943919
 20
331.0609127965586
 30
0.0
 41
7.0
 42
7.0
 43
7.0
  0
MTEXT
  5
2122
330
205C
100
AcDbEntity
  8
SUNPOU
100
AcDbMText
 10
237.69566943919
 20
336.0609127965586
 30
0.0
 40
6.0
 41
0.0
 71
     5
 72
     1
  1
\A1;85
 73
     1
 44
1.0
  0
POINT
  5
2123
330
205C
100
AcDbEntity
  8
DEFPOINTS
 62
     0
100
AcDbPoint
 10
195.19566943919
 20
347.7594291213244
 30
0.0
  0
POINT
  5
2124
330
205C
100
AcDbEntity
  8
DEFPOINTS
 62
     0
100
AcDbPoint
 10
280.19566943919
 20
347.7594291213244
 30
0.0
  0
POINT
  5
2125
330
205C
100
AcDbEntity
  8
DEFPOINTS
 62
     0
100
AcDbPoint
 10
280.19566943919
 20
331.0609127965586
 30
0.0
  0
ENDBLK
  5
2067
330
205C
100
AcDbEntity
  8
0
100
AcDbBlockEnd
  0
BLOCK
  5
2072
330
2068
100
AcDbEntity
  8
0
100
AcDbBlockBegin
  2
*D5
 70
     1
 71
     0
 10
0.0
 20
0.0
 30
0.0
  3
*D5
  1

  0
LINE
  5
2126
330
2068
100
AcDbEntity
  8
SUNPOU
100
AcDbLine
 10
646.9957075739865
 20
238.5238396663813
 30
0.0
 11
675.3882216289635
 21
238.5238396663813
 31
0.0
  0
LINE
  5
2127
330
2068
100
AcDbEntity
  8
SUNPOU
100
AcDbLine
 10
617.2847656746862
 20
110.3238396663812
 30
0.0
 11
675.3882216289635
 21
110.3238396663812
 31
0.0
  0
LINE
  5
2128
330
2068
100
AcDbEntity
  8
SUNPOU
100
AcDbLine
 10
672.3882216289635
 20
231.5238396663813
 30
0.0
 11
672.3882216289635
 21
117.3238396663812
 31
0.0
  0
INSERT
  5
2129
330
2068
100
AcDbEntity
  8
SUNPOU
100
AcDbBlockReference
  2
_OPEN
 10
672.3882216289635
 20
238.5238396663813
 30
0.0
 41
7.0
 42
7.0
 43
7.0
 50
90.0
  0
INSERT
  5
212A
330
2068
100
AcDbEntity
  8
SUNPOU
100
AcDbBlockReference
  2
_OPEN
 10
672.3882216289635
 20
110.3238396663812
 30
0.0
 41
7.0
 42
7.0
 43
7.0
 50
270.0
  0
MTEXT
  5
212B
330
2068
100
AcDbEntity
  8
SUNPOU
100
AcDbMText
 10
667.3882216289635
 20
174.4238396663814
 30
0.0
 40
6.0
 41
0.0
 71
     5
 72
     1
  1
\A1;128
 11
6.123031769111886E-17
 21
1.0
 31
0.0
 73
     1
 44
1.0
  0
POINT
  5
212C
330
2068
100
AcDbEntity
  8
DEFPOINTS
 62
     0
100
AcDbPoint
 10
640.9957075739865
 20
238.5238396663813
 30
0.0
  0
POINT
  5
212D
330
2068
100
AcDbEntity
  8
DEFPOINTS
 62
     0
100
AcDbPoint
 10
611.2847656746862
 20
110.3238396663812
 30
0.0
  0
POINT
  5
212E
330
2068
100
AcDbEntity
  8
DEFPOINTS
 62
     0
100
AcDbPoint
 10
672.3882216289635
 20
110.3238396663812
 30
0.0
  0
ENDBLK
  5
2073
330
2068
100
AcDbEntity
  8
0
100
AcDbBlockEnd
  0
BLOCK
  5
207E
330
2074
100
AcDbEntity
  8
0
100
AcDbBlockBegin
  2
*D6
 70
     1
 71
     0
 10
0.0
 20
0.0
 30
0.0
  3
*D6
  1

  0
LINE
  5
212F
330
2074
100
AcDbEntity
  8
SUNPOU
 62
     4
370
    -2
100
AcDbLine
 10
547.0845656747183
 20
110.3237996664837
 30
0.0
 11
547.0845656747183
 21
59.21628823767227
 31
0.0
  0
LINE
  5
2130
330
2074
100
AcDbEntity
  8
SUNPOU
 62
     4
370
    -2
100
AcDbLine
 10
617.0847656746864
 20
110.3236296663812
 30
0.0
 11
617.0847656746864
 21
59.21628823767227
 31
0.0
  0
LINE
  5
2131
330
2074
100
AcDbEntity
  8
SUNPOU
 62
     4
370
    -2
100
AcDbLine
 10
554.0845656747183
 20
62.21628823767227
 30
0.0
 11
610.0847656746864
 21
62.21628823767227
 31
0.0
  0
INSERT
  5
2132
330
2074
100
AcDbEntity
  8
SUNPOU
 62
     4
370
    -2
100
AcDbBlockReference
  2
_OPEN
 10
547.0845656747183
 20
62.21628823767227
 30
0.0
 41
7.0
 42
7.0
 43
7.0
 50
180.0
  0
INSERT
  5
2133
330
2074
100
AcDbEntity
  8
SUNPOU
 62
     4
370
    -2
100
AcDbBlockReference
  2
_OPEN
 10
617.0847656746864
 20
62.21628823767227
 30
0.0
 41
7.0
 42
7.0
 43
7.0
  0
MTEXT
  5
2134
330
2074
100
AcDbEntity
  8
SUNPOU
 62
     4
100
AcDbMText
 10
582.0846656747024
 20
67.21628823767227
 30
0.0
 40
6.0
 41
0.0
 71
     5
 72
     1
  1
\A1;\U+25A170
 73
     1
 44
1.0
  0
POINT
  5
2135
330
2074
100
AcDbEntity
  8
DEFPOINTS
 62
     0
100
AcDbPoint
 10
547.0845656747183
 20
116.3237996664837
 30
0.0
  0
POINT
  5
2136
330
2074
100
AcDbEntity
  8
DEFPOINTS
 62
     0
100
AcDbPoint
 10
617.0847656746864
 20
116.3236296663812
 30
0.0
  0
POINT
  5
2137
330
2074
100
AcDbEntity
  8
DEFPOINTS
 62
     0
100
AcDbPoint
 10
617.0847656746864
 20
62.21628823767227
 30
0.0
  0
ENDBLK
  5
207F
330
2074
100
AcDbEntity
  8
0
100
AcDbBlockEnd
  0
BLOCK
  5
208A
330
2080
100
AcDbEntity
  8
0
100
AcDbBlockBegin
  2
*D7
 70
     1
 71
     0
 10
0.0
 20
0.0
 30
0.0
  3
*D7
  1

  0
LINE
  5
2138
330
2080
100
AcDbEntity
  8
SUNPOU
100
AcDbLine
 10
634.9957075739865
 20
244.5238396663813
 30
0.0
 11
634.9957075739865
 21
288.4073988259918
 31
0.0
  0
LINE
  5
2139
330
2080
100
AcDbEntity
  8
SUNPOU
100
AcDbLine
 10
498.8125796595728
 20
264.3238396663813
 30
0.0
 11
498.8125796595728
 21
288.4073988259918
 31
0.0
  0
LINE
  5
213A
330
2080
100
AcDbEntity
  8
SUNPOU
100
AcDbLine
 10
627.9957075739865
 20
285.4073988259918
 30
0.0
 11
505.8125796595728
 21
285.4073988259918
 31
0.0
  0
INSERT
  5
213B
330
2080
100
AcDbEntity
  8
SUNPOU
100
AcDbBlockReference
  2
_OPEN
 10
634.9957075739865
 20
285.4073988259918
 30
0.0
 41
7.0
 42
7.0
 43
7.0
  0
INSERT
  5
213C
330
2080
100
AcDbEntity
  8
SUNPOU
100
AcDbBlockReference
  2
_OPEN
 10
498.8125796595728
 20
285.4073988259918
 30
0.0
 41
7.0
 42
7.0
 43
7.0
 50
180.0
  0
MTEXT
  5
213D
330
2080
100
AcDbEntity
  8
SUNPOU
100
AcDbMText
 10
566.9041436167796
 20
290.4073988259918
 30
0.0
 40
6.0
 41
0.0
 71
     5
 72
     1
  1
\A1;136
 73
     1
 44
1.0
  0
POINT
  5
213E
330
2080
100
AcDbEntity
  8
DEFPOINTS
 62
     0
100
AcDbPoint
 10
634.9957075739865
 20
238.5238396663813
 30
0.0
  0
POINT
  5
213F
330
2080
100
AcDbEntity
  8
DEFPOINTS
 62
     0
100
AcDbPoint
 10
498.8125796595728
 20
258.3238396663813
 30
0.0
  0
POINT
  5
2140
330
2080
100
AcDbEntity
  8
DEFPOINTS
 62
     0
100
AcDbPoint
 10
498.8125796595728
 20
285.4073988259918
 30
0.0
  0
ENDBLK
  5
208B
330
2080
100
AcDbEntity
  8
0
100
AcDbBlockEnd
  0
BLOCK
  5
2096
330
208C
100
AcDbEntity
  8
0
100
AcDbBlockBegin
  2
*D8
 70
     1
 71
     0
 10
0.0
 20
0.0
 30
0.0
  3
*D8
  1

  0
LINE
  5
2141
330
208C
100
AcDbEntity
  8
SUNPOU
100
AcDbLine
 10
526.4532680628925
 20
154.0238396663812
 30
0.0
 11
463.9873339131642
 21
154.0238396663812
 31
0.0
  0
LINE
  5
2142
330
208C
100
AcDbEntity
  8
SUNPOU
100
AcDbLine
 10
546.8847656746862
 20
110.3238396663812
 30
0.0
 11
463.9873339131641
 21
110.3238396663812
 31
0.0
  0
LINE
  5
2143
330
208C
100
AcDbEntity
  8
SUNPOU
100
AcDbLine
 10
466.9873339131642
 20
147.0238396663812
 30
0.0
 11
466.9873339131641
 21
117.3238396663812
 31
0.0
  0
INSERT
  5
2144
330
208C
100
AcDbEntity
  8
SUNPOU
100
AcDbBlockReference
  2
_OPEN
 10
466.9873339131642
 20
154.0238396663812
 30
0.0
 41
7.0
 42
7.0
 43
7.0
 50
90.0
  0
INSERT
  5
2145
330
208C
100
AcDbEntity
  8
SUNPOU
100
AcDbBlockReference
  2
_OPEN
 10
466.9873339131641
 20
110.3238396663812
 30
0.0
 41
7.0
 42
7.0
 43
7.0
 50
270.0
  0
MTEXT
  5
2146
330
208C
100
AcDbEntity
  8
SUNPOU
100
AcDbMText
 10
461.9873339131641
 20
132.1738396663813
 30
0.0
 40
6.0
 41
0.0
 71
     5
 72
     1
  1
\A1;44
 11
6.123031769111886E-17
 21
1.0
 31
0.0
 73
     1
 44
1.0
  0
POINT
  5
2147
330
208C
100
AcDbEntity
  8
DEFPOINTS
 62
     0
100
AcDbPoint
 10
532.4532680628925
 20
154.0238396663812
 30
0.0
  0
POINT
  5
2148
330
208C
100
AcDbEntity
  8
DEFPOINTS
 62
     0
100
AcDbPoint
 10
552.8847656746862
 20
110.3238396663812
 30
0.0
  0
POINT
  5
2149
330
208C
100
AcDbEntity
  8
DEFPOINTS
 62
     0
100
AcDbPoint
 10
466.9873339131641
 20
110.3238396663812
 30
0.0
  0
ENDBLK
  5
2097
330
208C
100
AcDbEntity
  8
0
100
AcDbBlockEnd
  0
BLOCK
  5
20A2
330
2098
100
AcDbEntity
  8
0
100
AcDbBlockBegin
  2
*D9
 70
     1
 71
     0
 10
0.0
 20
0.0
 30
0.0
  3
*D9
  1

  0
LINE
  5
214A
330
2098
100
AcDbEntity
  8
SUNPOU
100
AcDbLine
 10
492.8125796595728
 20
258.3238396663813
 30
0.0
 11
447.0904229898193
 21
258.3238396663813
 31
0.0
  0
LINE
  5
214B
330
2098
100
AcDbEntity
  8
SUNPOU
100
AcDbLine
 10
540.8847656746862
 20
110.3238396663812
 30
0.0
 11
447.0904229898192
 21
110.3238396663812
 31
0.0
  0
LINE
  5
214C
330
2098
100
AcDbEntity
  8
SUNPOU
100
AcDbLine
 10
450.0904229898193
 20
251.3238396663813
 30
0.0
 11
450.0904229898192
 21
117.3238396663812
 31
0.0
  0
INSERT
  5
214D
330
2098
100
AcDbEntity
  8
SUNPOU
100
AcDbBlockReference
  2
_OPEN
 10
450.0904229898193
 20
258.3238396663813
 30
0.0
 41
7.0
 42
7.0
 43
7.0
 50
90.0
  0
INSERT
  5
214E
330
2098
100
AcDbEntity
  8
SUNPOU
100
AcDbBlockReference
  2
_OPEN
 10
450.0904229898192
 20
110.3238396663812
 30
0.0
 41
7.0
 42
7.0
 43
7.0
 50
270.0
  0
MTEXT
  5
214F
330
2098
100
AcDbEntity
  8
SUNPOU
100
AcDbMText
 10
445.0904229898192
 20
184.3238396663813
 30
0.0
 40
6.0
 41
0.0
 71
     5
 72
     1
  1
\A1;148
 11
6.123031769111886E-17
 21
1.0
 31
0.0
 73
     1
 44
1.0
  0
POINT
  5
2150
330
2098
100
AcDbEntity
  8
DEFPOINTS
 62
     0
100
AcDbPoint
 10
498.8125796595728
 20
258.3238396663813
 30
0.0
  0
POINT
  5
2151
330
2098
100
AcDbEntity
  8
DEFPOINTS
 62
     0
100
AcDbPoint
 10
546.8847656746862
 20
110.3238396663812
 30
0.0
  0
POINT
  5
2152
330
2098
100
AcDbEntity
  8
DEFPOINTS
 62
     0
100
AcDbPoint
 10
450.0904229898192
 20
110.3238396663812
 30
0.0
  0
ENDBLK
  5
20A3
330
2098
100
AcDbEntity
  8
0
100
AcDbBlockEnd
  0
BLOCK
  5
20AE
330
20A4
100
AcDbEntity
  8
0
100
AcDbBlockBegin
  2
*D10
 70
     1
 71
     0
 10
0.0
 20
0.0
 30
0.0
  3
*D10
  1

  0
LINE
  5
2153
330
20A4
100
AcDbEntity
  8
SUNPOU
100
AcDbLine
 10
532.4532680628925
 20
154.0238396663812
 30
0.0
 11
463.9873339131641
 21
154.0238396663812
 31
0.0
  0
LINE
  5
2154
330
20A4
100
AcDbEntity
  8
SUNPOU
100
AcDbLine
 10
492.8125796595728
 20
258.3238396663813
 30
0.0
 11
463.9873339131641
 21
258.3238396663813
 31
0.0
  0
LINE
  5
2155
330
20A4
100
AcDbEntity
  8
SUNPOU
100
AcDbLine
 10
466.9873339131641
 20
161.0238396663812
 30
0.0
 11
466.9873339131641
 21
251.3238396663813
 31
0.0
  0
INSERT
  5
2156
330
20A4
100
AcDbEntity
  8
SUNPOU
100
AcDbBlockReference
  2
_OPEN
 10
466.9873339131641
 20
154.0238396663812
 30
0.0
 41
7.0
 42
7.0
 43
7.0
 50
270.0
  0
INSERT
  5
2157
330
20A4
100
AcDbEntity
  8
SUNPOU
100
AcDbBlockReference
  2
_OPEN
 10
466.9873339131641
 20
258.3238396663813
 30
0.0
 41
7.0
 42
7.0
 43
7.0
 50
90.0
  0
MTEXT
  5
2158
330
20A4
100
AcDbEntity
  8
SUNPOU
100
AcDbMText
 10
461.987333913164
 20
206.1738396663813
 30
0.0
 40
6.0
 41
0.0
 71
     5
 72
     1
  1
\A1;104
 11
6.123031769111886E-17
 21
1.0
 31
0.0
 73
     1
 44
1.0
  0
POINT
  5
2159
330
20A4
100
AcDbEntity
  8
DEFPOINTS
 62
     0
100
AcDbPoint
 10
538.4532680628925
 20
154.0238396663812
 30
0.0
  0
POINT
  5
215A
330
20A4
100
AcDbEntity
  8
DEFPOINTS
 62
     0
100
AcDbPoint
 10
498.8125796595728
 20
258.3238396663813
 30
0.0
  0
POINT
  5
215B
330
20A4
100
AcDbEntity
  8
DEFPOINTS
 62
     0
100
AcDbPoint
 10
466.9873339131641
 20
258.3238396663813
 30
0.0
  0
ENDBLK
  5
20AF
330
20A4
100
AcDbEntity
  8
0
100
AcDbBlockEnd
  0
BLOCK
  5
20BA
330
20B0
100
AcDbEntity
  8
0
100
AcDbBlockBegin
  2
*D11
 70
     1
 71
     0
 10
0.0
 20
0.0
 30
0.0
  3
*D11
  1

  0
LINE
  5
215C
330
20B0
100
AcDbEntity
  8
SUNPOU
100
AcDbLine
 10
630.711718846786
 20
174.0238396663812
 30
0.0
 11
658.6003870524587
 21
174.0238396663812
 31
0.0
  0
LINE
  5
215D
330
20B0
100
AcDbEntity
  8
SUNPOU
100
AcDbLine
 10
640.9957075739865
 20
238.5238396663813
 30
0.0
 11
658.6003870524587
 21
238.5238396663813
 31
0.0
  0
LINE
  5
215E
330
20B0
100
AcDbEntity
  8
SUNPOU
100
AcDbLine
 10
655.6003870524587
 20
181.0238396663812
 30
0.0
 11
655.6003870524587
 21
231.5238396663813
 31
0.0
  0
INSERT
  5
215F
330
20B0
100
AcDbEntity
  8
SUNPOU
100
AcDbBlockReference
  2
_OPEN
 10
655.6003870524587
 20
174.0238396663812
 30
0.0
 41
7.0
 42
7.0
 43
7.0
 50
270.0
  0
INSERT
  5
2160
330
20B0
100
AcDbEntity
  8
SUNPOU
100
AcDbBlockReference
  2
_OPEN
 10
655.6003870524587
 20
238.5238396663813
 30
0.0
 41
7.0
 42
7.0
 43
7.0
 50
90.0
  0
MTEXT
  5
2161
330
20B0
100
AcDbEntity
  8
SUNPOU
100
AcDbMText
 10
650.6003870524587
 20
206.2738396663814
 30
0.0
 40
6.0
 41
0.0
 71
     5
 72
     1
  1
\A1;65
 11
6.123031769111886E-17
 21
1.0
 31
0.0
 73
     1
 44
1.0
  0
POINT
  5
2162
330
20B0
100
AcDbEntity
  8
DEFPOINTS
 62
     0
100
AcDbPoint
 10
624.711718846786
 20
174.0238396663812
 30
0.0
  0
POINT
  5
2163
330
20B0
100
AcDbEntity
  8
DEFPOINTS
 62
     0
100
AcDbPoint
 10
634.9957075739865
 20
238.5238396663813
 30
0.0
  0
POINT
  5
2164
330
20B0
100
AcDbEntity
  8
DEFPOINTS
 62
     0
100
AcDbPoint
 10
655.6003870524587
 20
238.5238396663813
 30
0.0
  0
ENDBLK
  5
20BB
330
20B0
100
AcDbEntity
  8
0
100
AcDbBlockEnd
  0
BLOCK
  5
20C8
330
20BC
100
AcDbEntity
  8
0
100
AcDbBlockBegin
  2
*D12
 70
     1
 71
     0
 10
0.0
 20
0.0
 30
0.0
  3
*D12
  1

  0
LINE
  5
2165
330
20BC
100
AcDbEntity
  8
SUNPOU
100
AcDbLine
 10
582.0847656746862
 20
156.3321326497298
 30
0.0
 11
582.0847656746862
 21
213.2757339699017
 31
0.0
  0
LINE
  5
2166
330
20BC
100
AcDbEntity
  8
SUNPOU
100
AcDbLine
 10
579.483908468452
 20
194.892424012446
 30
0.0
 11
579.483908468452
 21
213.2757339699017
 31
0.0
  0
LINE
  5
2167
330
20BC
100
AcDbEntity
  8
SUNPOU
100
AcDbLine
 10
589.0847656746862
 20
210.2757339699017
 30
0.0
 11
596.0847656746862
 21
210.2757339699017
 31
0.0
  0
LINE
  5
2168
330
20BC
100
AcDbEntity
  8
SUNPOU
100
AcDbLine
 10
572.483908468452
 20
210.2757339699017
 30
0.0
 11
557.483908468452
 21
210.2757339699017
 31
0.0
  0
LINE
  5
2169
330
20BC
100
AcDbEntity
  8
SUNPOU
100
AcDbLine
 10
582.0847656746862
 20
210.2757339699017
 30
0.0
 11
579.483908468452
 21
210.2757339699017
 31
0.0
  0
INSERT
  5
216A
330
20BC
100
AcDbEntity
  8
SUNPOU
100
AcDbBlockReference
  2
_OPEN
 10
582.0847656746862
 20
210.2757339699017
 30
0.0
 41
7.0
 42
7.0
 43
7.0
 50
180.0
  0
INSERT
  5
216B
330
20BC
100
AcDbEntity
  8
SUNPOU
100
AcDbBlockReference
  2
_OPEN
 10
579.483908468452
 20
210.2757339699017
 30
0.0
 41
7.0
 42
7.0
 43
7.0
  0
MTEXT
  5
216C
330
20BC
100
AcDbEntity
  8
SUNPOU
100
AcDbMText
 10
561.483908468452
 20
215.2757339699017
 30
0.0
 40
6.0
 41
0.0
 71
     5
 72
     1
  1
\A1;3
 73
     1
 44
1.0
  0
POINT
  5
216D
330
20BC
100
AcDbEntity
  8
DEFPOINTS
 62
     0
100
AcDbPoint
 10
582.0847656746862
 20
150.3321326497298
 30
0.0
  0
POINT
  5
216E
330
20BC
100
AcDbEntity
  8
DEFPOINTS
 62
     0
100
AcDbPoint
 10
579.483908468452
 20
188.892424012446
 30
0.0
  0
POINT
  5
216F
330
20BC
100
AcDbEntity
  8
DEFPOINTS
 62
     0
100
AcDbPoint
 10
579.483908468452
 20
210.2757339699017
 30
0.0
  0
ENDBLK
  5
20C9
330
20BC
100
AcDbEntity
  8
0
100
AcDbBlockEnd
  0
BLOCK
  5
20D4
330
20CA
100
AcDbEntity
  8
0
100
AcDbBlockBegin
  2
*D13
 70
     1
 71
     0
 10
0.0
 20
0.0
 30
0.0
  3
*D13
  1

  0
LINE
  5
2170
330
20CA
100
AcDbEntity
  8
SUNPOU
 62
     4
370
    -2
100
AcDbLine
 10
530.6116922931437
 20
453.2854054052098
 30
0.0
 11
530.6116922931437
 21
489.7506008261465
 31
0.0
  0
LINE
  5
2171
330
20CA
100
AcDbEntity
  8
SUNPOU
 62
     4
370
    -2
100
AcDbLine
 10
600.6116922931437
 20
453.2854054052098
 30
0.0
 11
600.6116922931437
 21
489.7506008261465
 31
0.0
  0
LINE
  5
2172
330
20CA
100
AcDbEntity
  8
SUNPOU
 62
     4
370
    -2
100
AcDbLine
 10
534.1116922931437
 20
488.2506008261465
 30
0.0
 11
597.1116922931437
 21
488.2506008261465
 31
0.0
  0
INSERT
  5
2173
330
20CA
100
AcDbEntity
  8
SUNPOU
 62
     4
370
    -2
100
AcDbBlockReference
  2
_OPEN
 10
530.6116922931437
 20
488.2506008261465
 30
0.0
 41
3.5
 42
3.5
 43
3.5
 50
180.0
  0
INSERT
  5
2174
330
20CA
100
AcDbEntity
  8
SUNPOU
 62
     4
370
    -2
100
AcDbBlockReference
  2
_OPEN
 10
600.6116922931437
 20
488.2506008261465
 30
0.0
 41
3.5
 42
3.5
 43
3.5
  0
MTEXT
  5
2175
330
20CA
100
AcDbEntity
  8
SUNPOU
 62
     4
100
AcDbMText
 10
565.6116922931437
 20
492.2506008261465
 30
0.0
 40
6.0
 41
0.0
 71
     5
 72
     1
  1
\A1;70
 73
     1
 44
1.0
  0
POINT
  5
2176
330
20CA
100
AcDbEntity
  8
DEFPOINTS
 62
     0
100
AcDbPoint
 10
530.6116922931437
 20
450.2854054052098
 30
0.0
  0
POINT
  5
2177
330
20CA
100
AcDbEntity
  8
DEFPOINTS
 62
     0
100
AcDbPoint
 10
600.6116922931437
 20
450.2854054052098
 30
0.0
  0
POINT
  5
2178
330
20CA
100
AcDbEntity
  8
DEFPOINTS
 62
     0
100
AcDbPoint
 10
600.6116922931437
 20
488.2506008261465
 30
0.0
  0
ENDBLK
  5
20D5
330
20CA
100
AcDbEntity
  8
0
100
AcDbBlockEnd
  0
BLOCK
  5
20E0
330
20D6
100
AcDbEntity
  8
0
100
AcDbBlockBegin
  2
*D14
 70
     1
 71
     0
 10
0.0
 20
0.0
 30
0.0
  3
*D14
  1

  0
LINE
  5
2179
330
20D6
100
AcDbEntity
  8
SUNPOU
 62
     4
370
    -2
100
AcDbLine
 10
603.6116922931437
 20
450.2854054052098
 30
0.0
 11
615.8716755349431
 21
450.2854054052098
 31
0.0
  0
LINE
  5
217A
330
20D6
100
AcDbEntity
  8
SUNPOU
 62
     4
370
    -2
100
AcDbLine
 10
591.2597831592437
 20
432.2854054052097
 30
0.0
 11
615.8716755349431
 21
432.2854054052097
 31
0.0
  0
LINE
  5
217B
330
20D6
100
AcDbEntity
  8
SUNPOU
 62
     4
370
    -2
100
AcDbLine
 10
614.3716755349431
 20
446.7854054052098
 30
0.0
 11
614.3716755349431
 21
435.7854054052097
 31
0.0
  0
INSERT
  5
217C
330
20D6
100
AcDbEntity
  8
SUNPOU
 62
     4
370
    -2
100
AcDbBlockReference
  2
_OPEN
 10
614.3716755349431
 20
450.2854054052098
 30
0.0
 41
3.5
 42
3.5
 43
3.5
 50
90.0
  0
INSERT
  5
217D
330
20D6
100
AcDbEntity
  8
SUNPOU
 62
     4
370
    -2
100
AcDbBlockReference
  2
_OPEN
 10
614.3716755349431
 20
432.2854054052097
 30
0.0
 41
3.5
 42
3.5
 43
3.5
 50
270.0
  0
MTEXT
  5
217E
330
20D6
100
AcDbEntity
  8
SUNPOU
 62
     4
100
AcDbMText
 10
610.3716755349429
 20
441.2854054052098
 30
0.0
 40
6.0
 41
0.0
 71
     5
 72
     1
  1
\A1;18
 11
6.123031769111886E-17
 21
1.0
 31
0.0
 73
     1
 44
1.0
  0
POINT
  5
217F
330
20D6
100
AcDbEntity
  8
DEFPOINTS
 62
     0
100
AcDbPoint
 10
600.6116922931437
 20
450.2854054052098
 30
0.0
  0
POINT
  5
2180
330
20D6
100
AcDbEntity
  8
DEFPOINTS
 62
     0
100
AcDbPoint
 10
588.2597831592437
 20
432.2854054052097
 30
0.0
  0
POINT
  5
2181
330
20D6
100
AcDbEntity
  8
DEFPOINTS
 62
     0
100
AcDbPoint
 10
614.3716755349431
 20
432.2854054052097
 30
0.0
  0
ENDBLK
  5
20E1
330
20D6
100
AcDbEntity
  8
0
100
AcDbBlockEnd
  0
BLOCK
  5
20EC
330
20E2
100
AcDbEntity
  8
0
100
AcDbBlockBegin
  2
*D15
 70
     1
 71
     0
 10
0.0
 20
0.0
 30
0.0
  3
*D15
  1

  0
LINE
  5
2182
330
20E2
100
AcDbEntity
  8
SUNPOU
 62
     4
370
    -2
100
AcDbLine
 10
561.6116922931437
 20
460.2854054052098
 30
0.0
 11
628.8148895007613
 21
460.2854054052098
 31
0.0
  0
LINE
  5
2183
330
20E2
100
AcDbEntity
  8
SUNPOU
 62
     4
370
    -2
100
AcDbLine
 10
568.6116922931437
 20
430.2854054052098
 30
0.0
 11
628.8148895007613
 21
430.2854054052098
 31
0.0
  0
LINE
  5
2184
330
20E2
100
AcDbEntity
  8
SUNPOU
 62
     4
370
    -2
100
AcDbLine
 10
627.3148895007613
 20
456.7854054052098
 30
0.0
 11
627.3148895007613
 21
433.7854054052098
 31
0.0
  0
INSERT
  5
2185
330
20E2
100
AcDbEntity
  8
SUNPOU
 62
     4
370
    -2
100
AcDbBlockReference
  2
_OPEN
 10
627.3148895007613
 20
460.2854054052098
 30
0.0
 41
3.5
 42
3.5
 43
3.5
 50
90.0
  0
INSERT
  5
2186
330
20E2
100
AcDbEntity
  8
SUNPOU
 62
     4
370
    -2
100
AcDbBlockReference
  2
_OPEN
 10
627.3148895007613
 20
430.2854054052098
 30
0.0
 41
3.5
 42
3.5
 43
3.5
 50
270.0
  0
MTEXT
  5
2187
330
20E2
100
AcDbEntity
  8
SUNPOU
 62
     4
100
AcDbMText
 10
623.3148895007612
 20
445.2854054052098
 30
0.0
 40
6.0
 41
0.0
 71
     5
 72
     1
  1
\A1;30
 11
6.123031769111886E-17
 21
1.0
 31
0.0
 73
     1
 44
1.0
  0
POINT
  5
2188
330
20E2
100
AcDbEntity
  8
DEFPOINTS
 62
     0
100
AcDbPoint
 10
558.6116922931437
 20
460.2854054052098
 30
0.0
  0
POINT
  5
2189
330
20E2
100
AcDbEntity
  8
DEFPOINTS
 62
     0
100
AcDbPoint
 10
565.6116922931437
 20
430.2854054052098
 30
0.0
  0
POINT
  5
218A
330
20E2
100
AcDbEntity
  8
DEFPOINTS
 62
     0
100
AcDbPoint
 10
627.3148895007613
 20
430.2854054052098
 30
0.0
  0
ENDBLK
  5
20ED
330
20E2
100
AcDbEntity
  8
0
100
AcDbBlockEnd
  0
BLOCK
  5
20F8
330
20EE
100
AcDbEntity
  8
0
100
AcDbBlockBegin
  2
*D16
 70
     1
 71
     0
 10
0.0
 20
0.0
 30
0.0
  3
*D16
  1

  0
LINE
  5
218B
330
20EE
100
AcDbEntity
  8
SUNPOU
 62
     4
370
    -2
100
AcDbLine
 10
555.6116922931437
 20
460.2854054052098
 30
0.0
 11
555.6116922931437
 21
473.8672851621869
 31
0.0
  0
LINE
  5
218C
330
20EE
100
AcDbEntity
  8
SUNPOU
 62
     4
370
    -2
100
AcDbLine
 10
575.6116922931437
 20
460.2854054052098
 30
0.0
 11
575.6116922931437
 21
473.8672851621869
 31
0.0
  0
LINE
  5
218D
330
20EE
100
AcDbEntity
  8
SUNPOU
 62
     4
370
    -2
100
AcDbLine
 10
559.1116922931437
 20
472.3672851621869
 30
0.0
 11
572.1116922931437
 21
472.3672851621869
 31
0.0
  0
INSERT
  5
218E
330
20EE
100
AcDbEntity
  8
SUNPOU
 62
     4
370
    -2
100
AcDbBlockReference
  2
_OPEN
 10
555.6116922931437
 20
472.3672851621869
 30
0.0
 41
3.5
 42
3.5
 43
3.5
 50
180.0
  0
INSERT
  5
218F
330
20EE
100
AcDbEntity
  8
SUNPOU
 62
     4
370
    -2
100
AcDbBlockReference
  2
_OPEN
 10
575.6116922931437
 20
472.3672851621869
 30
0.0
 41
3.5
 42
3.5
 43
3.5
  0
MTEXT
  5
2190
330
20EE
100
AcDbEntity
  8
SUNPOU
 62
     4
100
AcDbMText
 10
565.6116922931437
 20
476.3672851621869
 30
0.0
 40
6.0
 41
0.0
 71
     5
 72
     1
  1
\A1;20
 73
     1
 44
1.0
  0
POINT
  5
2191
330
20EE
100
AcDbEntity
  8
DEFPOINTS
 62
     0
100
AcDbPoint
 10
555.6116922931437
 20
457.2854054052098
 30
0.0
  0
POINT
  5
2192
330
20EE
100
AcDbEntity
  8
DEFPOINTS
 62
     0
100
AcDbPoint
 10
575.6116922931437
 20
457.2854054052098
 30
0.0
  0
POINT
  5
2193
330
20EE
100
AcDbEntity
  8
DEFPOINTS
 62
     0
100
AcDbPoint
 10
575.6116922931437
 20
472.3672851621869
 30
0.0
  0
ENDBLK
  5
20F9
330
20EE
100
AcDbEntity
  8
0
100
AcDbBlockEnd
  0
BLOCK
  5
2104
330
20FA
100
AcDbEntity
  8
0
100
AcDbBlockBegin
  2
*D17
 70
     1
 71
     0
 10
0.0
 20
0.0
 30
0.0
  3
*D17
  1

  0
LINE
  5
2194
330
20FA
100
AcDbEntity
  8
SUNPOU
 62
     4
370
    -2
100
AcDbLine
 10
585.6116922931437
 20
453.2854054052098
 30
0.0
 11
585.6116922931437
 21
473.8672851621869
 31
0.0
  0
LINE
  5
2195
330
20FA
100
AcDbEntity
  8
SUNPOU
 62
     4
370
    -2
100
AcDbLine
 10
600.6116922931437
 20
453.2854054052098
 30
0.0
 11
600.6116922931437
 21
473.8672851621869
 31
0.0
  0
LINE
  5
2196
330
20FA
100
AcDbEntity
  8
SUNPOU
 62
     4
370
    -2
100
AcDbLine
 10
589.1116922931437
 20
472.3672851621869
 30
0.0
 11
597.1116922931437
 21
472.3672851621869
 31
0.0
  0
INSERT
  5
2197
330
20FA
100
AcDbEntity
  8
SUNPOU
 62
     4
370
    -2
100
AcDbBlockReference
  2
_OPEN
 10
585.6116922931437
 20
472.3672851621869
 30
0.0
 41
3.5
 42
3.5
 43
3.5
 50
180.0
  0
INSERT
  5
2198
330
20FA
100
AcDbEntity
  8
SUNPOU
 62
     4
370
    -2
100
AcDbBlockReference
  2
_OPEN
 10
600.6116922931437
 20
472.3672851621869
 30
0.0
 41
3.5
 42
3.5
 43
3.5
  0
MTEXT
  5
2199
330
20FA
100
AcDbEntity
  8
SUNPOU
 62
     4
100
AcDbMText
 10
593.1116922931437
 20
476.3672851621869
 30
0.0
 40
6.0
 41
0.0
 71
     5
 72
     1
  1
\A1;15
 73
     1
 44
1.0
  0
POINT
  5
219A
330
20FA
100
AcDbEntity
  8
DEFPOINTS
 62
     0
100
AcDbPoint
 10
585.6116922931437
 20
450.2854054052098
 30
0.0
  0
POINT
  5
219B
330
20FA
100
AcDbEntity
  8
DEFPOINTS
 62
     0
100
AcDbPoint
 10
600.6116922931437
 20
450.2854054052098
 30
0.0
  0
POINT
  5
219C
330
20FA
100
AcDbEntity
  8
DEFPOINTS
 62
     0
100
AcDbPoint
 10
600.6116922931437
 20
472.3672851621869
 30
0.0
  0
ENDBLK
  5
2105
330
20FA
100
AcDbEntity
  8
0
100
AcDbBlockEnd
  0
BLOCK
  5
2112
330
2106
100
AcDbEntity
  8
0
100
AcDbBlockBegin
  2
*D18
 70
     1
 71
     0
 10
0.0
 20
0.0
 30
0.0
  3
*D18
  1

  0
LINE
  5
219D
330
2106
100
AcDbEntity
  8
SUNPOU
 62
     4
370
    -2
100
AcDbLine
 10
652.2070764990158
 20
461.7854054052098
 30
0.0
 11
652.2070764990158
 21
473.8672851621869
 31
0.0
  0
LINE
  5
219E
330
2106
100
AcDbEntity
  8
SUNPOU
 62
     4
370
    -2
100
AcDbLine
 10
660.207076499016
 20
451.7854054052097
 30
0.0
 11
660.207076499016
 21
473.8672851621869
 31
0.0
  0
LINE
  5
219F
330
2106
100
AcDbEntity
  8
SUNPOU
 62
     4
370
    -2
100
AcDbLine
 10
648.7070764990158
 20
472.3672851621869
 30
0.0
 11
645.2070764990158
 21
472.3672851621869
 31
0.0
  0
LINE
  5
21A0
330
2106
100
AcDbEntity
  8
SUNPOU
 62
     4
370
    -2
100
AcDbLine
 10
663.707076499016
 20
472.3672851621869
 30
0.0
 11
667.207076499016
 21
472.3672851621869
 31
0.0
  0
LINE
  5
21A1
330
2106
100
AcDbEntity
  8
SUNPOU
 62
     4
370
    -2
100
AcDbLine
 10
652.2070764990158
 20
472.3672851621869
 30
0.0
 11
660.207076499016
 21
472.3672851621869
 31
0.0
  0
INSERT
  5
21A2
330
2106
100
AcDbEntity
  8
SUNPOU
 62
     4
370
    -2
100
AcDbBlockReference
  2
_OPEN
 10
652.2070764990158
 20
472.3672851621869
 30
0.0
 41
3.5
 42
3.5
 43
3.5
  0
INSERT
  5
21A3
330
2106
100
AcDbEntity
  8
SUNPOU
 62
     4
370
    -2
100
AcDbBlockReference
  2
_OPEN
 10
660.207076499016
 20
472.3672851621869
 30
0.0
 41
3.5
 42
3.5
 43
3.5
 50
180.0
  0
MTEXT
  5
21A4
330
2106
100
AcDbEntity
  8
SUNPOU
 62
     4
100
AcDbMText
 10
656.2070764990159
 20
476.3672851621869
 30
0.0
 40
6.0
 41
0.0
 71
     5
 72
     1
  1
\A1;8
 73
     1
 44
1.0
  0
POINT
  5
21A5
330
2106
100
AcDbEntity
  8
DEFPOINTS
 62
     0
100
AcDbPoint
 10
652.2070764990158
 20
458.7854054052098
 30
0.0
  0
POINT
  5
21A6
330
2106
100
AcDbEntity
  8
DEFPOINTS
 62
     0
100
AcDbPoint
 10
660.207076499016
 20
448.7854054052097
 30
0.0
  0
POINT
  5
21A7
330
2106
100
AcDbEntity
  8
DEFPOINTS
 62
     0
100
AcDbPoint
 10
660.207076499016
 20
472.3672851621869
 30
0.0
  0
ENDBLK
  5
2113
330
2106
100
AcDbEntity
  8
0
100
AcDbBlockEnd
  0
ENDSEC
  0
SECTION
  2
ENTITIES
  0
TEXT
  5
9DF
330
1A
100
AcDbEntity
  8
SUNPOU
100
AcDbText
 10
676.296058680618
 20
45.3789568130245
 30
0.0
 40
6.0
  1
※a　軒樋の差込寸法を示す
100
AcDbText
  0
TEXT
  5
9E0
330
1A
100
AcDbEntity
  8
SUNPOU
100
AcDbText
 10
676.296058680618
 20
36.49396567134897
 30
0.0
 40
6.0
  1
※b　角々エルボの差込寸法を示す
100
AcDbText
  0
TEXT
  5
EDF
330
1A
100
AcDbEntity
  8
SUNPOU
 62
     4
100
AcDbText
 10
544.754825136059
 20
405.4713357348927
 30
0.0
 40
6.0
  1
洋風じょうご用ストッパー２個入り
100
AcDbText
  0
LINE
  5
18CA
330
1A
100
AcDbEntity
  8
ZUWAKU
100
AcDbLine
 10
208.6466016834092
 20
15.19999965533645
 30
0.0
 11
447.4243643643326
 21
15.19999965533644
 31
0.0
  0
LINE
  5
18CB
330
1A
100
AcDbEntity
  8
ZUWAKU
100
AcDbLine
 10
208.6466016834092
 20
15.59999965533644
 30
0.0
 11
447.4243643643326
 21
15.59999965533645
 31
0.0
  0
LINE
  5
18CC
330
1A
100
AcDbEntity
  8
ZUWAKU
100
AcDbLine
 10
208.6466016834092
 20
15.39999965533644
 30
0.0
 11
447.4243643643326
 21
15.39999965533644
 31
0.0
  0
LINE
  5
18CD
330
1A
100
AcDbEntity
  8
ZUWAKU
100
AcDbLine
 10
0.0000003933412245
 20
30.79999965533642
 30
0.0
 11
797.4000003933411
 21
30.79999965533642
 31
0.0
  0
LINE
  5
18CE
330
1A
100
AcDbEntity
  8
ZUWAKU
100
AcDbLine
 10
0.0000003933412245
 20
30.59999965533642
 30
0.0
 11
797.4000003933411
 21
30.59999965533642
 31
0.0
  0
LINE
  5
18CF
330
1A
100
AcDbEntity
  8
ZUWAKU
100
AcDbLine
 10
0.0000003933412245
 20
30.39999965533642
 30
0.0
 11
797.4000003933411
 21
30.39999965533642
 31
0.0
  0
LINE
  5
18D0
330
1A
100
AcDbEntity
  8
ZUWAKU
100
AcDbLine
 10
0.0000003933412245
 20
30.19999965533641
 30
0.0
 11
797.4000003933411
 21
30.19999965533641
 31
0.0
  0
LINE
  5
18D1
330
1A
100
AcDbEntity
  8
ZUWAKU
100
AcDbLine
 10
0.0000003933412245
 20
29.99999965533641
 30
0.0
 11
797.4000003933411
 21
29.99999965533641
 31
0.0
  0
LWPOLYLINE
  5
18D2
330
1A
100
AcDbEntity
  8
ZUWAKU
100
AcDbPolyline
 90
        4
 70
     1
 43
0.0
 10
0.2000003933411563
 20
551.3999996553365
 10
0.2000003933411563
 20
0.1999996553364554
 10
797.4000003933411
 20
0.1999996553364785
 10
797.4000003933413
 20
551.3999996553365
  0
LWPOLYLINE
  5
18D3
330
1A
100
AcDbEntity
  8
ZUWAKU
100
AcDbPolyline
 90
        4
 70
     1
 43
0.0
 10
0.6000003933411335
 20
550.9999996553365
 10
0.6000003933411335
 20
0.5999996553364326
 10
797.0000003933415
 20
0.5999996553364788
 10
797.0000003933412
 20
550.9999996553365
  0
LWPOLYLINE
  5
18D4
330
1A
100
AcDbEntity
  8
ZUWAKU
100
AcDbPolyline
 90
        4
 70
     1
 43
0.0
 10
0.0000003933412245
 20
551.5999996553364
 10
0.0000003933412245
 20
-0.0000003446635901
 10
797.6000003933414
 20
-0.0000003446635226
 10
797.6000003933414
 20
551.5999996553366
  0
LWPOLYLINE
  5
18D5
330
1A
100
AcDbEntity
  8
ZUWAKU
100
AcDbPolyline
 90
        4
 70
     1
 43
0.0
 10
0.4000003933412017
 20
551.1999996553365
 10
0.4000003933412017
 20
0.3999996553365008
 10
797.2000003933413
 20
0.3999996553364777
 10
797.2000003933413
 20
551.1999996553365
  0
LWPOLYLINE
  5
18D6
330
1A
100
AcDbEntity
  8
ZUWAKU
100
AcDbPolyline
 90
        4
 70
     1
 43
0.0
 10
0.800000393341179
 20
550.7999996553365
 10
0.800000393341179
 20
0.7999996553364781
 10
796.8000003933412
 20
0.7999996553364781
 10
796.8000003933412
 20
550.7999996553365
  0
TEXT
  5
18D7
330
1A
100
AcDbEntity
  8
moji
100
AcDbText
 10
92.95778998151036
 20
12.74117778561117
 30
0.0
 40
6.0
  1
アーバントップΣ９０
 41
0.9
  7
ｽﾀｲﾙ1
100
AcDbText
  0
HATCH
  5
18D8
330
1A
100
AcDbEntity
  8
ZUWAKU
100
AcDbHatch
 10
0.0
 20
0.0
 30
0.0
210
0.0
220
0.0
230
1.0
  2
ANSI37
 70
     0
 71
     0
 91
        8
 92
        7
 72
     1
 73
     1
 93
       24
 10
14.50226305446108
 20
17.64484813631999
 42
-0.1989123673796348
 10
14.09221254812235
 20
18.63479762998104
 42
0.0
 10
14.09221254812235
 20
19.92499965533642
 42
-0.4142135623730912
 10
14.61721254812233
 20
20.44999965533641
 42
0.0
 10
17.59221254812223
 20
20.44999965533641
 42
0.4142135623731546
 10
18.11721254812233
 20
20.9749996553364
 42
0.0
 10
18.11721254812233
 20
22.72499965533642
 42
0.4142135623731586
 10
17.59221254812223
 20
23.24999965533642
 42
0.0
 10
14.09221254812235
 20
23.24999965533642
 42
0.4142135623730928
 10
11.29221254812239
 20
20.44999965533644
 42
0.0
 10
11.29221254812239
 20
18.63479762998117
 42
0.1989123673796619
 10
12.52236406713882
 20
15.66494914899757
 42
0.0
 10
15.4321620417835
 20
12.75515117435291
 42
-0.1989123673796613
 10
15.84221254812235
 20
11.76520168069172
 42
0.0
 10
15.84221254812235
 20
10.4749996553364
 42
-0.4142135623730911
 10
15.31721254812237
 20
9.949999655336413
 42
0.0
 10
12.34221254812246
 20
9.949999655336413
 42
0.4142135623731526
 10
11.81721254812237
 20
9.424999655336425
 42
0.0
 10
11.81721254812237
 20
7.674999655336404
 42
0.4142135623731526
 10
12.34221254812246
 20
7.149999655336416
 42
0.0
 10
15.84221254812235
 20
7.149999655336416
 42
0.4142135623731044
 10
18.64221254812242
 20
9.949999655336391
 42
0.0
 10
18.64221254812242
 20
11.76520168069166
 42
0.1989123673796604
 10
17.41206102910587
 20
14.7350501616752
 42
0.0
 97
        0
 92
        7
 72
     1
 73
     1
 93
       16
 10
23.54221254812239
 20
19.04999965533642
 42
-0.4142135623730935
 10
24.94221254812237
 20
20.44999965533641
 42
0.0
 10
26.86721254812233
 20
20.44999965533641
 42
0.4142135623731546
 10
27.39221254812242
 20
20.9749996553364
 42
0.0
 10
27.39221254812242
 20
22.72499965533642
 42
0.4142135623730952
 10
26.86721254812244
 20
23.24999965533642
 42
0.0
 10
24.94221254812226
 20
23.24999965533637
 42
0.4142135623730892
 10
20.74221254812233
 20
19.04999965533635
 42
0.0
 10
20.74221254812233
 20
11.34999965533644
 42
0.4142135623730969
 10
24.94221254812237
 20
7.149999655336416
 42
0.0
 10
26.86721254812233
 20
7.149999655336416
 42
0.4142135623731526
 10
27.39221254812242
 20
7.674999655336404
 42
0.0
 10
27.39221254812242
 20
9.424999655336425
 42
0.414213562373089
 10
26.86721254812244
 20
9.949999655336413
 42
0.0
 10
24.94221254812237
 20
9.949999655336413
 42
-0.4142135623730928
 10
23.54221254812239
 20
11.3499996553364
 42
0.0
 97
        0
 92
        7
 72
     1
 73
     1
 93
        2
 10
24.24221254812233
 20
15.19999965533641
 42
1.0
 10
27.74221254812233
 20
15.19999965533641
 42
1.0
 97
        0
 92
        7
 72
     1
 73
     1
 93
       26
 10
37.31485903030034
 20
19.20504684889984
 42
0.0
 10
38.37649866343816
 20
22.56690568716943
 42
0.5069206636600134
 10
37.8758677642428
 20
23.24999965533642
 42
0.0
 10
36.17697838463357
 20
23.24999965533642
 42
0.3272098845218764
 10
35.67634748543821
 20
22.88309362350339
 42
0.0
 10
33.80807761080644
 20
16.96690568716949
 42
-0.3272098845219541
 10
33.30744671161096
 20
16.59999965533641
 42
0.0
 10
33.16721254812251
 20
16.59999965533641
 42
-0.4142135623731526
 10
32.64221254812242
 20
17.1249996553364
 42
0.0
 10
32.64221254812242
 20
22.72499965533642
 42
0.4142135623730952
 10
32.11721254812244
 20
23.24999965533642
 42
0.0
 10
30.36721254812233
 20
23.24999965533642
 42
0.4142135623730872
 10
29.84221254812235
 20
22.72499965533643
 42
0.0
 10
29.84221254812235
 20
7.674999655336404
 42
0.414213562373089
 10
30.36721254812233
 20
7.149999655336416
 42
0.0
 10
32.11721254812233
 20
7.149999655336416
 42
0.4142135623731526
 10
32.64221254812242
 20
7.674999655336404
 42
0.0
 10
32.64221254812242
 20
13.27499965533643
 42
-0.4142135623731526
 10
33.16721254812251
 20
13.79999965533641
 42
0.0
 10
33.30744671161108
 20
13.79999965533641
 42
-0.3272098845218915
 10
33.80807761080644
 20
13.43309362350334
 42
0.0
 10
35.67634748543821
 20
7.516905687169487
 42
0.3272098845218902
 10
36.17697838463357
 20
7.149999655336416
 42
0.0
 10
37.8758677642428
 20
7.149999655336416
 42
0.5069206636600334
 10
38.37649866343816
 20
7.833093623503423
 42
0.0
 10
36.0501072849645
 20
15.19999965533655
 42
0.0
 97
        0
 92
        7
 72
     1
 73
     1
 93
        8
 10
43.49221254812233
 20
22.72499965533643
 42
0.4142135623731546
 10
42.96721254812223
 20
23.24999965533642
 42
0.0
 10
41.21721254812246
 20
23.24999965533642
 42
0.4142135623731506
 10
40.69221254812237
 20
22.72499965533643
 42
0.0
 10
40.69221254812237
 20
7.674999655336404
 42
0.4142135623731526
 10
41.21721254812246
 20
7.149999655336416
 42
0.0
 10
42.96721254812223
 20
7.149999655336416
 42
0.4142135623731526
 10
43.49221254812233
 20
7.674999655336404
 42
0.0
 97
        0
 92
        7
 72
     1
 73
     1
 93
       24
 10
48.39221254812242
 20
19.92499965533642
 42
-0.4142135623731547
 10
48.91721254812251
 20
20.44999965533641
 42
0.0
 10
51.89221254812242
 20
20.44999965533641
 42
0.4142135623730911
 10
52.41721254812239
 20
20.9749996553364
 42
0.0
 10
52.41721254812239
 20
22.72499965533642
 42
0.4142135623730952
 10
51.89221254812242
 20
23.24999965533642
 42
0.0
 10
48.39221254812242
 20
23.24999965533642
 42
0.4142135623731048
 10
45.59221254812235
 20
20.44999965533644
 42
0.0
 10
45.59221254812235
 20
18.63479762998117
 42
0.1989123673796613
 10
46.82236406713889
 20
15.66494914899762
 42
0.0
 10
49.73216204178357
 20
12.75515117435295
 42
-0.1989123673796402
 10
50.14221254812242
 20
11.76520168069188
 42
0.0
 10
50.14221254812242
 20
10.4749996553364
 42
-0.4142135623730911
 10
49.61721254812244
 20
9.949999655336413
 42
0.0
 10
46.64221254812242
 20
9.949999655336413
 42
0.4142135623731526
 10
46.11721254812233
 20
9.424999655336425
 42
0.0
 10
46.11721254812233
 20
7.674999655336404
 42
0.414213562373089
 10
46.6422125481223
 20
7.149999655336416
 42
0.0
 10
50.14221254812242
 20
7.149999655336416
 42
0.4142135623730925
 10
52.94221254812237
 20
9.949999655336391
 42
0.0
 10
52.94221254812237
 20
11.76520168069166
 42
0.1989123673796675
 10
51.71206102910583
 20
14.73505016167532
 42
0.0
 10
48.80226305446126
 20
17.64484813631983
 42
-0.1989123673796653
 10
48.39221254812242
 20
18.634797629981
 42
0.0
 97
        0
 92
        7
 72
     1
 73
     1
 93
       16
 10
57.84221254812235
 20
22.7249996553364
 42
0.414213562373103
 10
57.31721254812237
 20
23.24999965533642
 42
0.0
 10
55.56721254812237
 20
23.24999965533642
 42
0.4142135623730872
 10
55.04221254812239
 20
22.72499965533643
 42
0.0
 10
55.04221254812239
 20
9.949999655336391
 42
0.4142135623730925
 10
57.84221254812235
 20
7.149999655336416
 42
0.0
 10
61.34221254812235
 20
7.149999655336416
 42
0.4142135623731044
 10
64.14221254812242
 20
9.949999655336391
 42
0.0
 10
64.14221254812242
 20
22.72499965533642
 42
0.4142135623730952
 10
63.61721254812244
 20
23.24999965533642
 42
0.0
 10
61.86721254812233
 20
23.24999965533642
 42
0.4142135623730872
 10
61.34221254812235
 20
22.72499965533643
 42
0.0
 10
61.34221254812235
 20
10.99999965533639
 42
-0.414213562373088
 10
60.29221254812239
 20
9.949999655336413
 42
0.0
 10
58.89221254812242
 20
9.949999655336413
 42
-0.4142135623731197
 10
57.84221254812235
 20
10.99999965533639
 42
0.0
 97
        0
 92
        7
 72
     1
 73
     1
 93
        8
 10
69.04221254812239
 20
22.72499965533643
 42
0.4142135623730872
 10
68.51721254812242
 20
23.24999965533642
 42
0.0
 10
66.76721254812242
 20
23.24999965533642
 42
0.4142135623731506
 10
66.24221254812233
 20
22.72499965533643
 42
0.0
 10
66.24221254812233
 20
7.674999655336404
 42
0.414213562373089
 10
66.7672125481223
 20
7.149999655336416
 42
0.0
 10
68.51721254812242
 20
7.149999655336416
 42
0.414213562373089
 10
69.04221254812239
 20
7.674999655336404
 42
0.0
 97
        0
 75
     0
 76
     1
 52
0.0
 41
0.2
 77
     0
 78
     2
 53
45.0
 43
-900.9423039413377
 44
-13.20000034466352
 45
-0.4490128060534576
 46
0.4490128060534577
 79
     0
 53
135.0
 43
-900.9423039413377
 44
-13.20000034466352
 45
-0.4490128060534577
 46
-0.4490128060534576
 79
     0
 47
0.057451373970553
 98
        8
 10
16.07985535636453
 20
15.16717330122197
 10
22.40451539978039
 20
18.84406183778742
 10
25.16436827900088
 20
15.51188130140713
 10
30.91406037497836
 20
16.20129730177791
 10
41.83847241229796
 20
16.66090956931953
 10
46.89820128847077
 20
19.41857597174362
 10
56.55768636574157
 20
18.72915757043143
 10
67.82708001296396
 20
19.18876983797304
  0
LINE
  5
18D9
330
1A
100
AcDbEntity
  8
ZUWAKU
100
AcDbLine
 10
24.94221254812237
 20
23.24999965533637
 30
0.0
 11
26.86721254812233
 21
23.24999965533642
 31
0.0
  0
LINE
  5
18DA
330
1A
100
AcDbEntity
  8
ZUWAKU
100
AcDbLine
 10
26.86721254812233
 20
20.44999965533641
 30
0.0
 11
24.94221254812237
 21
20.44999965533641
 31
0.0
  0
LINE
  5
18DB
330
1A
100
AcDbEntity
  8
ZUWAKU
100
AcDbLine
 10
24.94221254812237
 20
9.949999655336413
 30
0.0
 11
26.86721254812233
 21
9.949999655336413
 31
0.0
  0
LINE
  5
18DC
330
1A
100
AcDbEntity
  8
ZUWAKU
100
AcDbLine
 10
26.86721254812233
 20
7.149999655336416
 30
0.0
 11
24.94221254812237
 21
7.149999655336416
 31
0.0
  0
CIRCLE
  5
18DD
330
1A
100
AcDbEntity
  8
ZUWAKU
100
AcDbCircle
 10
25.99221254812233
 20
15.19999965533641
 30
0.0
 40
1.75
  0
ARC
  5
18DE
330
1A
100
AcDbEntity
  8
ZUWAKU
100
AcDbCircle
 10
15.49221254812233
 20
18.63479762998112
 30
0.0
 40
1.4
100
AcDbArc
 50
180.0000000000016
 51
224.9999999999988
  0
LINE
  5
18DF
330
1A
100
AcDbEntity
  8
ZUWAKU
100
AcDbLine
 10
23.54221254812239
 20
19.04999965533641
 30
0.0
 11
23.54221254812239
 21
11.34999965533642
 31
0.0
  0
LINE
  5
18E0
330
1A
100
AcDbEntity
  8
ZUWAKU
100
AcDbLine
 10
20.74221254812233
 20
11.34999965533642
 30
0.0
 11
20.74221254812233
 21
19.04999965533637
 31
0.0
  0
ARC
  5
18E1
330
1A
100
AcDbEntity
  8
ZUWAKU
100
AcDbCircle
 10
15.49221254812233
 20
18.63479762998112
 30
0.0
 40
4.199999999999999
100
AcDbArc
 50
180.0
 51
225.0
  0
ARC
  5
18E2
330
1A
100
AcDbEntity
  8
ZUWAKU
100
AcDbCircle
 10
15.84221254812235
 20
9.949999655336413
 30
0.0
 40
2.8
100
AcDbArc
 50
270.0
 51
0.0
  0
ARC
  5
18E3
330
1A
100
AcDbEntity
  8
ZUWAKU
100
AcDbCircle
 10
24.94221254812237
 20
11.34999965533642
 30
0.0
 40
4.199999999999999
100
AcDbArc
 50
180.0
 51
270.0
  0
ARC
  5
18E4
330
1A
100
AcDbEntity
  8
ZUWAKU
100
AcDbCircle
 10
14.44221254812237
 20
11.76520168069172
 30
0.0
 40
4.199999999999999
100
AcDbArc
 50
0.0
 51
45.0
  0
LINE
  5
18E5
330
1A
100
AcDbEntity
  8
ZUWAKU
100
AcDbLine
 10
17.41206102910587
 20
14.73505016167524
 30
0.0
 11
14.5022630544612
 21
17.64484813631992
 31
0.0
  0
LINE
  5
18E6
330
1A
100
AcDbEntity
  8
ZUWAKU
100
AcDbLine
 10
15.84221254812235
 20
10.47499965533642
 30
0.0
 11
15.84221254812235
 21
11.76520168069176
 31
0.0
  0
ARC
  5
18E7
330
1A
100
AcDbEntity
  8
ZUWAKU
100
AcDbCircle
 10
15.31721254812237
 20
10.47499965533642
 30
0.0
 40
0.5249999999999999
100
AcDbArc
 50
270.0
 51
0.0
  0
ARC
  5
18E8
330
1A
100
AcDbEntity
  8
ZUWAKU
100
AcDbCircle
 10
14.44221254812237
 20
11.76520168069176
 30
0.0
 40
1.4
100
AcDbArc
 50
0.0
 51
45.0
  0
LINE
  5
18E9
330
1A
100
AcDbEntity
  8
ZUWAKU
100
AcDbLine
 10
11.81721254812237
 20
7.674999655336414
 30
0.0
 11
11.81721254812237
 21
9.424999655336414
 31
0.0
  0
ARC
  5
18EA
330
1A
100
AcDbEntity
  8
ZUWAKU
100
AcDbCircle
 10
12.34221254812235
 20
7.674999655336414
 30
0.0
 40
0.5249999999999999
100
AcDbArc
 50
180.0
 51
270.0
  0
ARC
  5
18EB
330
1A
100
AcDbEntity
  8
ZUWAKU
100
AcDbCircle
 10
12.34221254812235
 20
9.424999655336414
 30
0.0
 40
0.5249999999999999
100
AcDbArc
 50
90.0
 51
180.0
  0
LINE
  5
18EC
330
1A
100
AcDbEntity
  8
ZUWAKU
100
AcDbLine
 10
12.34221254812235
 20
7.149999655336416
 30
0.0
 11
15.84221254812235
 21
7.149999655336416
 31
0.0
  0
LINE
  5
18ED
330
1A
100
AcDbEntity
  8
ZUWAKU
100
AcDbLine
 10
12.34221254812235
 20
9.949999655336413
 30
0.0
 11
15.31721254812237
 21
9.949999655336413
 31
0.0
  0
LINE
  5
18EE
330
1A
100
AcDbEntity
  8
ZUWAKU
100
AcDbLine
 10
12.52236406713882
 20
15.66494914899759
 30
0.0
 11
15.4321620417835
 21
12.75515117435293
 31
0.0
  0
LINE
  5
18EF
330
1A
100
AcDbEntity
  8
ZUWAKU
100
AcDbLine
 10
18.64221254812242
 20
9.949999655336413
 30
0.0
 11
18.64221254812242
 21
11.76520168069176
 31
0.0
  0
ARC
  5
18F0
330
1A
100
AcDbEntity
  8
ZUWAKU
100
AcDbCircle
 10
24.94221254812237
 20
11.34999965533642
 30
0.0
 40
1.4
100
AcDbArc
 50
180.0
 51
270.0
  0
ARC
  5
18F1
330
1A
100
AcDbEntity
  8
ZUWAKU
100
AcDbCircle
 10
17.59221254812235
 20
22.72499965533641
 30
0.0
 40
0.5249999999999999
100
AcDbArc
 50
0.0
 51
90.0
  0
ARC
  5
18F2
330
1A
100
AcDbEntity
  8
ZUWAKU
100
AcDbCircle
 10
17.59221254812235
 20
20.97499965533641
 30
0.0
 40
0.5249999999999999
100
AcDbArc
 50
270.0
 51
0.0
  0
LINE
  5
18F3
330
1A
100
AcDbEntity
  8
ZUWAKU
100
AcDbLine
 10
14.09221254812235
 20
23.24999965533642
 30
0.0
 11
17.59221254812235
 21
23.24999965533642
 31
0.0
  0
ARC
  5
18F4
330
1A
100
AcDbEntity
  8
ZUWAKU
100
AcDbCircle
 10
14.61721254812233
 20
19.92499965533641
 30
0.0
 40
0.5249999999999999
100
AcDbArc
 50
90.0
 51
180.0
  0
LINE
  5
18F5
330
1A
100
AcDbEntity
  8
ZUWAKU
100
AcDbLine
 10
14.09221254812235
 20
19.92499965533641
 30
0.0
 11
14.09221254812235
 21
18.63479762998107
 31
0.0
  0
LINE
  5
18F6
330
1A
100
AcDbEntity
  8
ZUWAKU
100
AcDbLine
 10
17.59221254812235
 20
20.44999965533641
 30
0.0
 11
14.61721254812233
 21
20.44999965533641
 31
0.0
  0
LINE
  5
18F7
330
1A
100
AcDbEntity
  8
ZUWAKU
100
AcDbLine
 10
11.29221254812239
 20
20.44999965533641
 30
0.0
 11
11.29221254812239
 21
18.63479762998107
 31
0.0
  0
ARC
  5
18F8
330
1A
100
AcDbEntity
  8
ZUWAKU
100
AcDbCircle
 10
14.09221254812235
 20
20.44999965533641
 30
0.0
 40
2.8
100
AcDbArc
 50
90.0
 51
180.0
  0
LINE
  5
18F9
330
1A
100
AcDbEntity
  8
ZUWAKU
100
AcDbLine
 10
18.11721254812233
 20
22.72499965533641
 30
0.0
 11
18.11721254812233
 21
20.97499965533641
 31
0.0
  0
ARC
  5
18FA
330
1A
100
AcDbEntity
  8
ZUWAKU
100
AcDbCircle
 10
24.94221254812237
 20
19.04999965533641
 30
0.0
 40
1.4
100
AcDbArc
 50
90.0
 51
180.0
  0
ARC
  5
18FB
330
1A
100
AcDbEntity
  8
ZUWAKU
100
AcDbCircle
 10
24.94221254812237
 20
19.04999965533637
 30
0.0
 40
4.199999999999999
100
AcDbArc
 50
90.0
 51
180.0
  0
LINE
  5
18FC
330
1A
100
AcDbEntity
  8
ZUWAKU
100
AcDbLine
 10
79.32662994132943
 20
29.99999965533641
 30
0.0
 11
79.32662994132966
 21
0.7999996553364781
 31
0.0
  0
LINE
  5
18FD
330
1A
100
AcDbEntity
  8
ZUWAKU
100
AcDbLine
 10
79.52662994132948
 20
29.99999965533641
 30
0.0
 11
79.5266299413297
 21
0.7999996553364781
 31
0.0
  0
LINE
  5
18FE
330
1A
100
AcDbEntity
  8
ZUWAKU
100
AcDbLine
 10
79.12662994132961
 20
29.99999965533641
 30
0.0
 11
79.12662994132961
 21
0.7999996553364781
 31
0.0
  0
LINE
  5
18FF
330
1A
100
AcDbEntity
  8
ZUWAKU
100
AcDbLine
 10
64.14221254812242
 20
9.949999655336413
 30
0.0
 11
64.14221254812242
 21
22.72499965533641
 31
0.0
  0
LINE
  5
1900
330
1A
100
AcDbEntity
  8
ZUWAKU
100
AcDbLine
 10
61.34221254812235
 20
22.72499965533641
 30
0.0
 11
61.34221254812235
 21
10.99999965533641
 31
0.0
  0
LINE
  5
1901
330
1A
100
AcDbEntity
  8
ZUWAKU
100
AcDbLine
 10
69.04221254812239
 20
7.674999655336414
 30
0.0
 11
69.04221254812239
 21
22.72499965533641
 31
0.0
  0
LINE
  5
1902
330
1A
100
AcDbEntity
  8
ZUWAKU
100
AcDbLine
 10
66.24221254812233
 20
22.72499965533641
 30
0.0
 11
66.24221254812233
 21
7.674999655336414
 31
0.0
  0
ARC
  5
1903
330
1A
100
AcDbEntity
  8
ZUWAKU
100
AcDbCircle
 10
49.79221254812239
 20
18.63479762998112
 30
0.0
 40
1.4
100
AcDbArc
 50
180.0000000000016
 51
224.9999999999988
  0
ARC
  5
1904
330
1A
100
AcDbEntity
  8
ZUWAKU
100
AcDbCircle
 10
49.79221254812239
 20
18.63479762998112
 30
0.0
 40
4.199999999999999
100
AcDbArc
 50
180.0
 51
225.0
  0
LINE
  5
1905
330
1A
100
AcDbEntity
  8
ZUWAKU
100
AcDbLine
 10
37.31485903030034
 20
19.20504684889984
 30
0.0
 11
36.0501072849645
 21
15.19999965533643
 31
0.0
  0
LINE
  5
1906
330
1A
100
AcDbEntity
  8
ZUWAKU
100
AcDbLine
 10
40.69221254812237
 20
22.72499965533641
 30
0.0
 11
40.69221254812237
 21
7.674999655336414
 31
0.0
  0
LINE
  5
1907
330
1A
100
AcDbEntity
  8
ZUWAKU
100
AcDbLine
 10
43.49221254812233
 20
7.674999655336414
 30
0.0
 11
43.49221254812233
 21
22.72499965533641
 31
0.0
  0
LINE
  5
1908
330
1A
100
AcDbEntity
  8
ZUWAKU
100
AcDbLine
 10
55.04221254812239
 20
22.72499965533641
 30
0.0
 11
55.04221254812239
 21
9.949999655336413
 31
0.0
  0
LINE
  5
1909
330
1A
100
AcDbEntity
  8
ZUWAKU
100
AcDbLine
 10
57.84221254812235
 20
10.99999965533641
 30
0.0
 11
57.84221254812235
 21
22.72499965533641
 31
0.0
  0
LINE
  5
190A
330
1A
100
AcDbEntity
  8
ZUWAKU
100
AcDbLine
 10
32.64221254812242
 20
17.12499965533642
 30
0.0
 11
32.64221254812242
 21
22.72499965533641
 31
0.0
  0
LINE
  5
190B
330
1A
100
AcDbEntity
  8
ZUWAKU
100
AcDbLine
 10
29.84221254812235
 20
22.72499965533641
 30
0.0
 11
29.84221254812235
 21
7.674999655336414
 31
0.0
  0
LINE
  5
190C
330
1A
100
AcDbEntity
  8
ZUWAKU
100
AcDbLine
 10
35.67634748543821
 20
22.88309362350339
 30
0.0
 11
33.80807761080644
 21
16.96690568716944
 31
0.0
  0
LINE
  5
190D
330
1A
100
AcDbEntity
  8
ZUWAKU
100
AcDbLine
 10
60.29221254812239
 20
9.949999655336413
 30
0.0
 11
58.89221254812242
 21
9.949999655336413
 31
0.0
  0
LINE
  5
190E
330
1A
100
AcDbEntity
  8
ZUWAKU
100
AcDbLine
 10
57.84221254812235
 20
7.149999655336416
 30
0.0
 11
61.34221254812235
 21
7.149999655336416
 31
0.0
  0
LINE
  5
190F
330
1A
100
AcDbEntity
  8
ZUWAKU
100
AcDbLine
 10
41.21721254812235
 20
7.149999655336416
 30
0.0
 11
42.96721254812235
 21
7.149999655336416
 31
0.0
  0
LINE
  5
1910
330
1A
100
AcDbEntity
  8
ZUWAKU
100
AcDbLine
 10
35.67634748543821
 20
7.516905687169441
 30
0.0
 11
33.80807761080644
 21
13.43309362350338
 31
0.0
  0
ARC
  5
1911
330
1A
100
AcDbEntity
  8
ZUWAKU
100
AcDbCircle
 10
33.30744671161108
 20
17.12499965533642
 30
0.0
 40
0.5249999999999999
100
AcDbArc
 50
270.0
 51
342.474431626277
  0
LINE
  5
1912
330
1A
100
AcDbEntity
  8
ZUWAKU
100
AcDbLine
 10
33.30744671161108
 20
16.59999965533641
 30
0.0
 11
33.16721254812239
 21
16.59999965533641
 31
0.0
  0
LINE
  5
1913
330
1A
100
AcDbEntity
  8
ZUWAKU
100
AcDbLine
 10
33.16721254812239
 20
13.79999965533641
 30
0.0
 11
33.30744671161108
 21
13.79999965533641
 31
0.0
  0
ARC
  5
1914
330
1A
100
AcDbEntity
  8
ZUWAKU
100
AcDbCircle
 10
33.16721254812239
 20
17.12499965533642
 30
0.0
 40
0.5249999999999999
100
AcDbArc
 50
180.0
 51
270.0
  0
LINE
  5
1915
330
1A
100
AcDbEntity
  8
ZUWAKU
100
AcDbLine
 10
30.36721254812233
 20
7.149999655336416
 30
0.0
 11
32.11721254812233
 21
7.149999655336416
 31
0.0
  0
ARC
  5
1916
330
1A
100
AcDbEntity
  8
ZUWAKU
100
AcDbCircle
 10
32.11721254812233
 20
7.674999655336414
 30
0.0
 40
0.5249999999999999
100
AcDbArc
 50
270.0
 51
0.0
  0
LINE
  5
1917
330
1A
100
AcDbEntity
  8
ZUWAKU
100
AcDbLine
 10
32.64221254812242
 20
7.674999655336414
 30
0.0
 11
32.64221254812242
 21
13.27499965533642
 31
0.0
  0
LINE
  5
1918
330
1A
100
AcDbEntity
  8
ZUWAKU
100
AcDbLine
 10
27.39221254812242
 20
9.424999655336414
 30
0.0
 11
27.39221254812242
 21
7.674999655336414
 31
0.0
  0
ARC
  5
1919
330
1A
100
AcDbEntity
  8
ZUWAKU
100
AcDbCircle
 10
26.86721254812233
 20
7.674999655336414
 30
0.0
 40
0.5249999999999999
100
AcDbArc
 50
270.0
 51
0.0
  0
ARC
  5
191A
330
1A
100
AcDbEntity
  8
ZUWAKU
100
AcDbCircle
 10
26.86721254812233
 20
9.424999655336414
 30
0.0
 40
0.5249999999999999
100
AcDbArc
 50
0.0
 51
90.0
  0
ARC
  5
191B
330
1A
100
AcDbEntity
  8
ZUWAKU
100
AcDbCircle
 10
30.36721254812233
 20
7.674999655336414
 30
0.0
 40
0.5249999999999999
100
AcDbArc
 50
180.0
 51
270.0
  0
ARC
  5
191C
330
1A
100
AcDbEntity
  8
ZUWAKU
100
AcDbCircle
 10
33.30744671161108
 20
13.27499965533642
 30
0.0
 40
0.5249999999999999
100
AcDbArc
 50
17.52556837372303
 51
90.0
  0
ARC
  5
191D
330
1A
100
AcDbEntity
  8
ZUWAKU
100
AcDbCircle
 10
33.16721254812239
 20
13.27499965533642
 30
0.0
 40
0.5249999999999999
100
AcDbArc
 50
90.0
 51
180.0
  0
ARC
  5
191E
330
1A
100
AcDbEntity
  8
ZUWAKU
100
AcDbCircle
 10
41.21721254812235
 20
7.674999655336414
 30
0.0
 40
0.5249999999999999
100
AcDbArc
 50
180.0
 51
270.0
  0
LINE
  5
191F
330
1A
100
AcDbEntity
  8
ZUWAKU
100
AcDbLine
 10
36.17697838463369
 20
7.149999655336416
 30
0.0
 11
37.87586776424269
 21
7.149999655336416
 31
0.0
  0
ARC
  5
1920
330
1A
100
AcDbEntity
  8
ZUWAKU
100
AcDbCircle
 10
37.87586776424269
 20
7.674999655336414
 30
0.0
 40
0.5249999999999999
100
AcDbArc
 50
270.0
 51
17.52556837372303
  0
LINE
  5
1921
330
1A
100
AcDbEntity
  8
ZUWAKU
100
AcDbLine
 10
38.37649866343816
 20
7.833093623503387
 30
0.0
 11
36.0501072849645
 21
15.19999965533643
 31
0.0
  0
ARC
  5
1922
330
1A
100
AcDbEntity
  8
ZUWAKU
100
AcDbCircle
 10
36.17697838463369
 20
7.674999655336414
 30
0.0
 40
0.5249999999999999
100
AcDbArc
 50
197.525568373723
 51
270.0
  0
ARC
  5
1923
330
1A
100
AcDbEntity
  8
ZUWAKU
100
AcDbCircle
 10
57.84221254812235
 20
9.949999655336413
 30
0.0
 40
2.8
100
AcDbArc
 50
180.0
 51
270.0
  0
ARC
  5
1924
330
1A
100
AcDbEntity
  8
ZUWAKU
100
AcDbCircle
 10
50.14221254812242
 20
9.949999655336413
 30
0.0
 40
2.8
100
AcDbArc
 50
270.0
 51
0.0
  0
LINE
  5
1925
330
1A
100
AcDbEntity
  8
ZUWAKU
100
AcDbLine
 10
51.71206102910594
 20
14.73505016167524
 30
0.0
 11
48.80226305446115
 21
17.64484813631992
 31
0.0
  0
LINE
  5
1926
330
1A
100
AcDbEntity
  8
ZUWAKU
100
AcDbLine
 10
50.14221254812242
 20
10.47499965533642
 30
0.0
 11
50.14221254812242
 21
11.76520168069176
 31
0.0
  0
ARC
  5
1927
330
1A
100
AcDbEntity
  8
ZUWAKU
100
AcDbCircle
 10
48.74221254812233
 20
11.76520168069176
 30
0.0
 40
1.4
100
AcDbArc
 50
0.0
 51
45.0
  0
ARC
  5
1928
330
1A
100
AcDbEntity
  8
ZUWAKU
100
AcDbCircle
 10
49.61721254812233
 20
10.47499965533642
 30
0.0
 40
0.5249999999999999
100
AcDbArc
 50
270.0
 51
0.0
  0
LINE
  5
1929
330
1A
100
AcDbEntity
  8
ZUWAKU
100
AcDbLine
 10
46.11721254812233
 20
7.674999655336414
 30
0.0
 11
46.11721254812233
 21
9.424999655336414
 31
0.0
  0
ARC
  5
192A
330
1A
100
AcDbEntity
  8
ZUWAKU
100
AcDbCircle
 10
46.64221254812242
 20
7.674999655336414
 30
0.0
 40
0.5249999999999999
100
AcDbArc
 50
180.0
 51
270.0
  0
ARC
  5
192B
330
1A
100
AcDbEntity
  8
ZUWAKU
100
AcDbCircle
 10
42.96721254812235
 20
7.674999655336414
 30
0.0
 40
0.5249999999999999
100
AcDbArc
 50
270.0
 51
0.0
  0
ARC
  5
192C
330
1A
100
AcDbEntity
  8
ZUWAKU
100
AcDbCircle
 10
46.64221254812242
 20
9.424999655336414
 30
0.0
 40
0.5249999999999999
100
AcDbArc
 50
90.0
 51
180.0
  0
LINE
  5
192D
330
1A
100
AcDbEntity
  8
ZUWAKU
100
AcDbLine
 10
46.64221254812242
 20
9.949999655336413
 30
0.0
 11
49.61721254812233
 21
9.949999655336413
 31
0.0
  0
LINE
  5
192E
330
1A
100
AcDbEntity
  8
ZUWAKU
100
AcDbLine
 10
46.64221254812242
 20
7.149999655336416
 30
0.0
 11
50.14221254812242
 21
7.149999655336416
 31
0.0
  0
LINE
  5
192F
330
1A
100
AcDbEntity
  8
ZUWAKU
100
AcDbLine
 10
46.82236406713889
 20
15.66494914899759
 30
0.0
 11
49.73216204178357
 21
12.75515117435293
 31
0.0
  0
LINE
  5
1930
330
1A
100
AcDbEntity
  8
ZUWAKU
100
AcDbLine
 10
52.94221254812237
 20
9.949999655336413
 30
0.0
 11
52.94221254812237
 21
11.76520168069176
 31
0.0
  0
ARC
  5
1931
330
1A
100
AcDbEntity
  8
ZUWAKU
100
AcDbCircle
 10
48.74221254812233
 20
11.76520168069172
 30
0.0
 40
4.199999999999999
100
AcDbArc
 50
0.0
 51
45.0
  0
ARC
  5
1932
330
1A
100
AcDbEntity
  8
ZUWAKU
100
AcDbCircle
 10
58.89221254812242
 20
10.99999965533641
 30
0.0
 40
1.05
100
AcDbArc
 50
180.0
 51
270.0
  0
ARC
  5
1933
330
1A
100
AcDbEntity
  8
ZUWAKU
100
AcDbCircle
 10
61.34221254812235
 20
9.949999655336413
 30
0.0
 40
2.8
100
AcDbArc
 50
270.0
 51
0.0
  0
LINE
  5
1934
330
1A
100
AcDbEntity
  8
ZUWAKU
100
AcDbLine
 10
66.76721254812242
 20
7.149999655336416
 30
0.0
 11
68.51721254812242
 21
7.149999655336416
 31
0.0
  0
ARC
  5
1935
330
1A
100
AcDbEntity
  8
ZUWAKU
100
AcDbCircle
 10
66.76721254812242
 20
7.674999655336414
 30
0.0
 40
0.5249999999999999
100
AcDbArc
 50
180.0
 51
270.0
  0
ARC
  5
1936
330
1A
100
AcDbEntity
  8
ZUWAKU
100
AcDbCircle
 10
60.29221254812239
 20
10.99999965533641
 30
0.0
 40
1.05
100
AcDbArc
 50
270.0
 51
0.0
  0
ARC
  5
1937
330
1A
100
AcDbEntity
  8
ZUWAKU
100
AcDbCircle
 10
68.51721254812242
 20
7.674999655336414
 30
0.0
 40
0.5249999999999999
100
AcDbArc
 50
270.0
 51
0.0
  0
LINE
  5
1938
330
1A
100
AcDbEntity
  8
ZUWAKU
100
AcDbLine
 10
42.96721254812235
 20
23.24999965533642
 30
0.0
 11
41.21721254812235
 21
23.24999965533642
 31
0.0
  0
ARC
  5
1939
330
1A
100
AcDbEntity
  8
ZUWAKU
100
AcDbCircle
 10
32.11721254812233
 20
22.72499965533641
 30
0.0
 40
0.5249999999999999
100
AcDbArc
 50
0.0
 51
90.0
  0
LINE
  5
193A
330
1A
100
AcDbEntity
  8
ZUWAKU
100
AcDbLine
 10
32.11721254812233
 20
23.24999965533642
 30
0.0
 11
30.36721254812233
 21
23.24999965533642
 31
0.0
  0
ARC
  5
193B
330
1A
100
AcDbEntity
  8
ZUWAKU
100
AcDbCircle
 10
26.86721254812233
 20
22.72499965533641
 30
0.0
 40
0.5249999999999999
100
AcDbArc
 50
0.0
 51
90.0
  0
ARC
  5
193C
330
1A
100
AcDbEntity
  8
ZUWAKU
100
AcDbCircle
 10
30.36721254812233
 20
22.72499965533641
 30
0.0
 40
0.5249999999999999
100
AcDbArc
 50
90.0
 51
180.0
  0
ARC
  5
193D
330
1A
100
AcDbEntity
  8
ZUWAKU
100
AcDbCircle
 10
26.86721254812233
 20
20.97499965533641
 30
0.0
 40
0.5249999999999999
100
AcDbArc
 50
270.0
 51
0.0
  0
LINE
  5
193E
330
1A
100
AcDbEntity
  8
ZUWAKU
100
AcDbLine
 10
27.39221254812242
 20
22.72499965533641
 30
0.0
 11
27.39221254812242
 21
20.97499965533641
 31
0.0
  0
ARC
  5
193F
330
1A
100
AcDbEntity
  8
ZUWAKU
100
AcDbCircle
 10
41.21721254812235
 20
22.72499965533641
 30
0.0
 40
0.5249999999999999
100
AcDbArc
 50
90.0
 51
180.0
  0
LINE
  5
1940
330
1A
100
AcDbEntity
  8
ZUWAKU
100
AcDbLine
 10
36.17697838463369
 20
23.24999965533642
 30
0.0
 11
37.87586776424269
 21
23.24999965533642
 31
0.0
  0
ARC
  5
1941
330
1A
100
AcDbEntity
  8
ZUWAKU
100
AcDbCircle
 10
37.87586776424269
 20
22.72499965533641
 30
0.0
 40
0.5249999999999999
100
AcDbArc
 50
342.474431626277
 51
90.0
  0
LINE
  5
1942
330
1A
100
AcDbEntity
  8
ZUWAKU
100
AcDbLine
 10
38.37649866343816
 20
22.56690568716945
 30
0.0
 11
37.31485903030034
 21
19.20504684889984
 31
0.0
  0
ARC
  5
1943
330
1A
100
AcDbEntity
  8
ZUWAKU
100
AcDbCircle
 10
36.17697838463369
 20
22.72499965533641
 30
0.0
 40
0.5249999999999999
100
AcDbArc
 50
90.0
 51
162.474431626277
  0
LINE
  5
1944
330
1A
100
AcDbEntity
  8
ZUWAKU
100
AcDbLine
 10
48.39221254812242
 20
23.24999965533642
 30
0.0
 11
51.89221254812242
 21
23.24999965533642
 31
0.0
  0
LINE
  5
1945
330
1A
100
AcDbEntity
  8
ZUWAKU
100
AcDbLine
 10
51.89221254812242
 20
20.44999965533641
 30
0.0
 11
48.91721254812239
 21
20.44999965533641
 31
0.0
  0
ARC
  5
1946
330
1A
100
AcDbEntity
  8
ZUWAKU
100
AcDbCircle
 10
48.91721254812239
 20
19.92499965533641
 30
0.0
 40
0.5249999999999999
100
AcDbArc
 50
90.0
 51
180.0
  0
LINE
  5
1947
330
1A
100
AcDbEntity
  8
ZUWAKU
100
AcDbLine
 10
48.39221254812242
 20
19.92499965533641
 30
0.0
 11
48.39221254812242
 21
18.63479762998107
 31
0.0
  0
ARC
  5
1948
330
1A
100
AcDbEntity
  8
ZUWAKU
100
AcDbCircle
 10
42.96721254812235
 20
22.72499965533641
 30
0.0
 40
0.5249999999999999
100
AcDbArc
 50
0.0
 51
90.0
  0
LINE
  5
1949
330
1A
100
AcDbEntity
  8
ZUWAKU
100
AcDbLine
 10
45.59221254812235
 20
20.44999965533641
 30
0.0
 11
45.59221254812235
 21
18.63479762998107
 31
0.0
  0
ARC
  5
194A
330
1A
100
AcDbEntity
  8
ZUWAKU
100
AcDbCircle
 10
48.39221254812242
 20
20.44999965533641
 30
0.0
 40
2.8
100
AcDbArc
 50
90.0
 51
180.0
  0
ARC
  5
194B
330
1A
100
AcDbEntity
  8
ZUWAKU
100
AcDbCircle
 10
57.31721254812237
 20
22.72499965533641
 30
0.0
 40
0.5249999999999999
100
AcDbArc
 50
0.0
 51
90.0
  0
ARC
  5
194C
330
1A
100
AcDbEntity
  8
ZUWAKU
100
AcDbCircle
 10
55.56721254812237
 20
22.72499965533641
 30
0.0
 40
0.5249999999999999
100
AcDbArc
 50
90.0
 51
180.0
  0
LINE
  5
194D
330
1A
100
AcDbEntity
  8
ZUWAKU
100
AcDbLine
 10
57.31721254812237
 20
23.24999965533642
 30
0.0
 11
55.56721254812237
 21
23.24999965533642
 31
0.0
  0
ARC
  5
194E
330
1A
100
AcDbEntity
  8
ZUWAKU
100
AcDbCircle
 10
51.89221254812242
 20
22.72499965533641
 30
0.0
 40
0.5249999999999999
100
AcDbArc
 50
0.0
 51
90.0
  0
ARC
  5
194F
330
1A
100
AcDbEntity
  8
ZUWAKU
100
AcDbCircle
 10
51.89221254812242
 20
20.97499965533641
 30
0.0
 40
0.5249999999999999
100
AcDbArc
 50
270.0
 51
0.0
  0
LINE
  5
1950
330
1A
100
AcDbEntity
  8
ZUWAKU
100
AcDbLine
 10
52.41721254812239
 20
22.72499965533641
 30
0.0
 11
52.41721254812239
 21
20.97499965533641
 31
0.0
  0
LINE
  5
1951
330
1A
100
AcDbEntity
  8
ZUWAKU
100
AcDbLine
 10
68.51721254812242
 20
23.24999965533642
 30
0.0
 11
66.76721254812242
 21
23.24999965533642
 31
0.0
  0
ARC
  5
1952
330
1A
100
AcDbEntity
  8
ZUWAKU
100
AcDbCircle
 10
66.76721254812242
 20
22.72499965533641
 30
0.0
 40
0.5249999999999999
100
AcDbArc
 50
90.0
 51
180.0
  0
ARC
  5
1953
330
1A
100
AcDbEntity
  8
ZUWAKU
100
AcDbCircle
 10
63.61721254812233
 20
22.72499965533641
 30
0.0
 40
0.5249999999999999
100
AcDbArc
 50
0.0
 51
90.0
  0
LINE
  5
1954
330
1A
100
AcDbEntity
  8
ZUWAKU
100
AcDbLine
 10
63.61721254812233
 20
23.24999965533642
 30
0.0
 11
61.86721254812233
 21
23.24999965533642
 31
0.0
  0
ARC
  5
1955
330
1A
100
AcDbEntity
  8
ZUWAKU
100
AcDbCircle
 10
61.86721254812233
 20
22.72499965533641
 30
0.0
 40
0.5249999999999999
100
AcDbArc
 50
90.0
 51
180.0
  0
ARC
  5
1956
330
1A
100
AcDbEntity
  8
ZUWAKU
100
AcDbCircle
 10
68.51721254812242
 20
22.72499965533641
 30
0.0
 40
0.5249999999999999
100
AcDbArc
 50
0.0
 51
90.0
  0
TEXT
  5
1957
330
1A
100
AcDbEntity
  8
moji
100
AcDbText
 10
239.8272030741923
 20
3.204920712743832
 30
0.0
 40
5.6
  1
Σ９０－Ｙ６０・ＵＴ６０
 41
0.9
  7
ｽﾀｲﾙ1
100
AcDbText
  0
TEXT
  5
1958
330
1A
100
AcDbEntity
  8
moji
100
AcDbText
 10
239.8272030741923
 20
18.0049207127438
 30
0.0
 40
5.6
  1
洋風じょうご
 41
0.9
  7
ｽﾀｲﾙ1
100
AcDbText
  0
LINE
  5
1959
330
1A
100
AcDbEntity
  8
ZUWAKU
100
AcDbLine
 10
208.2466016834092
 20
29.99999965533641
 30
0.0
 11
208.2466016834092
 21
0.7999996553364781
 31
0.0
  0
LINE
  5
195A
330
1A
100
AcDbEntity
  8
ZUWAKU
100
AcDbLine
 10
208.646601683409
 20
29.99999965533641
 30
0.0
 11
208.6466016834092
 21
0.7999996553364781
 31
0.0
  0
LINE
  5
195B
330
1A
100
AcDbEntity
  8
ZUWAKU
100
AcDbLine
 10
208.446601683409
 20
29.99999965533641
 30
0.0
 11
208.4466016834092
 21
0.7999996553364781
 31
0.0
  0
TEXT
  5
195C
330
1A
100
AcDbEntity
  8
ZUWAKU
100
AcDbText
 10
209.7240467056188
 20
9.655356193722028
 30
0.0
 40
4.0
  1
サイズ
 41
0.9
  7
ｽﾀｲﾙ1
100
AcDbText
  0
TEXT
  5
195D
330
1A
100
AcDbEntity
  8
ZUWAKU
100
AcDbText
 10
209.7240467056186
 20
24.05535619372199
 30
0.0
 40
4.0
  1
品名
 41
0.9
  7
ｽﾀｲﾙ1
100
AcDbText
  0
LINE
  5
195E
330
1A
100
AcDbEntity
  8
ZUWAKU
100
AcDbLine
 10
648.8172029035454
 20
15.19999965533644
 30
0.0
 11
697.2490109418825
 21
15.19999965533645
 31
0.0
  0
LINE
  5
195F
330
1A
100
AcDbEntity
  8
ZUWAKU
100
AcDbLine
 10
648.8172029035457
 20
15.39999965533645
 30
0.0
 11
697.2490109418825
 21
15.39999965533644
 31
0.0
  0
LINE
  5
1960
330
1A
100
AcDbEntity
  8
ZUWAKU
100
AcDbLine
 10
648.8172029035454
 20
15.59999965533644
 30
0.0
 11
697.2490109418825
 21
15.59999965533644
 31
0.0
  0
TEXT
  5
1961
330
1A
100
AcDbEntity
  8
ZUWAKU
100
AcDbText
 10
658.2039380806436
 20
18.0049207127438
 30
0.0
 40
5.6
  1
　　．　　．　　
 41
0.9
  7
ｽﾀｲﾙ1
100
AcDbText
  0
LINE
  5
1962
330
1A
100
AcDbEntity
  8
ZUWAKU
100
AcDbLine
 10
505.1991798914821
 20
15.19999965533645
 30
0.0
 11
552.5269561594537
 21
15.19999965533645
 31
0.0
  0
LINE
  5
1963
330
1A
100
AcDbEntity
  8
ZUWAKU
100
AcDbLine
 10
505.1991798914821
 20
15.39999965533644
 30
0.0
 11
552.5269561594537
 21
15.39999965533644
 31
0.0
  0
LINE
  5
1964
330
1A
100
AcDbEntity
  8
ZUWAKU
100
AcDbLine
 10
505.1991798914821
 20
15.59999965533644
 30
0.0
 11
552.5269561594537
 21
15.59999965533644
 31
0.0
  0
TEXT
  5
1965
330
1A
100
AcDbEntity
  8
moji
100
AcDbText
 10
464.5946263965802
 20
11.9426173769964
 30
0.0
 40
5.6
  1
ＧＴ５９□
 41
0.9
  7
ｽﾀｲﾙ1
100
AcDbText
  0
LINE
  5
1966
330
1A
100
AcDbEntity
  8
ZUWAKU
100
AcDbLine
 10
447.6243643643325
 20
29.99999965533641
 30
0.0
 11
447.6243643643327
 21
0.7999996553364781
 31
0.0
  0
LINE
  5
1967
330
1A
100
AcDbEntity
  8
ZUWAKU
100
AcDbLine
 10
447.8243643643325
 20
29.99999965533641
 30
0.0
 11
447.8243643643327
 21
0.7999996553364781
 31
0.0
  0
LINE
  5
1968
330
1A
100
AcDbEntity
  8
ZUWAKU
100
AcDbLine
 10
447.4243643643326
 20
29.99999965533641
 30
0.0
 11
447.4243643643326
 21
0.7999996553364781
 31
0.0
  0
TEXT
  5
1969
330
1A
100
AcDbEntity
  8
moji
100
AcDbText
 10
528.0409083656541
 20
18.0049207127438
 30
0.0
 40
5.6
  1
Ａ３
 41
0.9
  7
ｽﾀｲﾙ1
100
AcDbText
  0
LINE
  5
196A
330
1A
100
AcDbEntity
  8
ZUWAKU
100
AcDbLine
 10
504.9991798914821
 20
29.99999965533641
 30
0.0
 11
504.9991798914823
 21
0.7999996553364781
 31
0.0
  0
LINE
  5
196B
330
1A
100
AcDbEntity
  8
ZUWAKU
100
AcDbLine
 10
505.1991798914821
 20
29.99999965533641
 30
0.0
 11
505.1991798914823
 21
0.7999996553364781
 31
0.0
  0
LINE
  5
196C
330
1A
100
AcDbEntity
  8
ZUWAKU
100
AcDbLine
 10
504.7991798914823
 20
29.99999965533641
 30
0.0
 11
504.7991798914823
 21
0.7999996553364781
 31
0.0
  0
TEXT
  5
196D
330
1A
100
AcDbEntity
  8
ZUWAKU
100
AcDbText
 10
462.6937620488484
 20
2.614070566475903
 30
0.0
 40
3.0
  1
□には色品番が入ります
 41
0.9
  7
ｽﾀｲﾙ1
100
AcDbText
  0
TEXT
  5
196E
330
1A
100
AcDbEntity
  8
ZUWAKU
100
AcDbText
 10
506.676624913692
 20
9.655356193722028
 30
0.0
 40
4.0
  1
縮尺
 41
0.9
  7
ｽﾀｲﾙ1
100
AcDbText
  0
TEXT
  5
196F
330
1A
100
AcDbEntity
  8
moji
100
AcDbText
 10
528.0409083656541
 20
3.204920712743832
 30
0.0
 40
5.6
  1
１/２
 41
0.9
  7
ｽﾀｲﾙ1
100
AcDbText
  0
TEXT
  5
1970
330
1A
100
AcDbEntity
  8
ZUWAKU
100
AcDbText
 10
449.3018093865421
 20
24.05535619372199
 30
0.0
 40
4.0
  1
品番
 41
0.9
  7
ｽﾀｲﾙ1
100
AcDbText
  0
TEXT
  5
1971
330
1A
100
AcDbEntity
  8
ZUWAKU
100
AcDbText
 10
506.6766249136917
 20
24.05535619372199
 30
0.0
 40
4.0
  1
用紙
 41
0.9
  7
ｽﾀｲﾙ1
100
AcDbText
  0
LINE
  5
1972
330
1A
100
AcDbEntity
  8
ZUWAKU
100
AcDbLine
 10
648.6172029035456
 20
29.99999965533641
 30
0.0
 11
648.6172029035458
 21
0.7999996553364781
 31
0.0
  0
LINE
  5
1973
330
1A
100
AcDbEntity
  8
ZUWAKU
100
AcDbLine
 10
648.8172029035457
 20
29.99999965533641
 30
0.0
 11
648.8172029035459
 21
0.7999996553364781
 31
0.0
  0
LINE
  5
1974
330
1A
100
AcDbEntity
  8
ZUWAKU
100
AcDbLine
 10
648.4172029035458
 20
29.99999965533641
 30
0.0
 11
648.4172029035458
 21
0.7999996553364781
 31
0.0
  0
LINE
  5
1975
330
1A
100
AcDbEntity
  8
ZUWAKU
100
AcDbLine
 10
552.7269561594535
 20
29.99999965533641
 30
0.0
 11
552.7269561594537
 21
0.7999996553364781
 31
0.0
  0
LINE
  5
1976
330
1A
100
AcDbEntity
  8
ZUWAKU
100
AcDbLine
 10
552.9269561594535
 20
29.99999965533641
 30
0.0
 11
552.9269561594538
 21
0.7999996553364781
 31
0.0
  0
LINE
  5
1977
330
1A
100
AcDbEntity
  8
ZUWAKU
100
AcDbLine
 10
552.5269561594537
 20
29.99999965533641
 30
0.0
 11
552.5269561594537
 21
0.7999996553364781
 31
0.0
  0
TEXT
  5
1978
330
1A
100
AcDbEntity
  8
ZUWAKU
100
AcDbText
 10
650.2946479257553
 20
24.05535619372199
 30
0.0
 40
4.0
  1
DATE
 41
0.9
  7
ｽﾀｲﾙ1
100
AcDbText
  0
LINE
  5
1979
330
1A
100
AcDbEntity
  8
ZUWAKU
100
AcDbLine
 10
697.2490109418825
 20
29.99999965533641
 30
0.0
 11
697.2490109418825
 21
0.7999996553364781
 31
0.0
  0
LINE
  5
197A
330
1A
100
AcDbEntity
  8
ZUWAKU
100
AcDbLine
 10
697.4490109418825
 20
29.99999965533641
 30
0.0
 11
697.4490109418825
 21
0.7999996553364781
 31
0.0
  0
LINE
  5
197B
330
1A
100
AcDbEntity
  8
ZUWAKU
100
AcDbLine
 10
697.6490109418824
 20
29.99999965533641
 30
0.0
 11
697.6490109418826
 21
0.7999996553364781
 31
0.0
  0
LINE
  5
197C
330
1A
100
AcDbEntity
  8
ZUWAKU
100
AcDbLine
 10
697.8490109418824
 20
29.99999965533641
 30
0.0
 11
697.8490109418826
 21
0.7999996553364781
 31
0.0
  0
TEXT
  5
197D
330
1A
100
AcDbEntity
  8
ZUWAKU
100
AcDbText
 10
708.528084585585
 20
17.55383899102321
 30
0.0
 40
6.0
  1
積水化学工業株式会社
 41
0.9
  7
ｽﾀｲﾙ1
100
AcDbText
  0
TEXT
  5
197E
330
1A
100
AcDbEntity
  8
ZUWAKU
100
AcDbText
 10
708.528084585585
 20
6.648839969190476
 30
0.0
 40
6.0
  1
建材事業部
 41
0.9
  7
ｽﾀｲﾙ1
100
AcDbText
  0
LINE
  5
1D84
330
1A
100
AcDbEntity
  8
SEIHIN
  6
Continuous
 62
     3
 48
5.0
100
AcDbLine
 10
152.0312164078669
 20
259.5711220997935
 30
0.0
 11
143.0312164078669
 21
259.5711220997935
 31
0.0
  0
LINE
  5
1D85
330
1A
100
AcDbEntity
  8
SEIHIN
  6
Continuous
 62
     3
 48
5.0
100
AcDbLine
 10
238.0312164078666
 20
237.0557105897934
 30
0.0
 11
143.0312164078669
 21
237.0557105897934
 31
0.0
  0
LINE
  5
1D86
330
1A
100
AcDbEntity
  8
SEIHIN
  6
Continuous
 62
     3
 48
5.0
100
AcDbLine
 10
143.0312164078669
 20
258.5557105897934
 30
0.0
 11
238.0312164078666
 21
258.5557105897934
 31
0.0
  0
LINE
  5
1D87
330
1A
100
AcDbEntity
  8
SEIHIN
  6
Continuous
 62
     3
 48
5.0
100
AcDbLine
 10
238.0312164078666
 20
257.4353792222933
 30
0.0
 11
143.0312164078669
 21
257.4353792222933
 31
0.0
  0
LINE
  5
1D88
330
1A
100
AcDbEntity
  8
SEIHIN
  6
Continuous
 62
     3
 48
5.0
100
AcDbLine
 10
238.0312164078666
 20
189.1235933934935
 30
0.0
 11
143.0312164078669
 21
189.1235933934935
 31
0.0
  0
LINE
  5
1D89
330
1A
100
AcDbEntity
  8
SEIHIN
  6
Continuous
 62
     3
 48
5.0
100
AcDbLine
 10
238.0312164078666
 20
174.2557105897934
 30
0.0
 11
143.0312164078669
 21
174.2557105897934
 31
0.0
  0
DIMENSION
  5
1D8A
330
1A
100
AcDbEntity
  8
SUNPOU
100
AcDbDimension
  2
*D3
 10
333.0312164078664
 20
285.4073988259918
 30
0.0
 11
238.0312164078666
 21
290.4073988259918
 31
0.0
 70
    32
 71
     5
 42
189.9999999999996
  3
STANDARD
100
AcDbAlignedDimension
 13
143.0312164078669
 23
259.5711220997935
 33
0.0
 14
333.0312164078664
 24
259.5711220997935
 34
0.0
100
AcDbRotatedDimension
1001
ACAD
1000
DSTYLE
1002
{
1070
    41
1040
7.0
1070
    42
1040
6.0
1070
    43
1040
14.0
1070
    44
1040
3.0
1070
    73
1070
     0
1070
    74
1070
     0
1070
    77
1070
     3
1070
   140
1040
6.0
1070
   141
1040
150.0
1070
   147
1040
2.0
1070
   172
1070
     1
1070
   173
1070
     1
1070
   176
1070
   256
1070
   177
1070
   256
1070
   178
1070
   256
1070
   271
1070
     0
1070
   272
1070
     0
1070
   341
1005
6D
1070
     6
1000
OPEN
1070
     7
1000
OPEN
1070
   371
1070
    -1
1070
   372
1070
    -1
1002
}
  0
LINE
  5
1D8B
330
1A
100
AcDbEntity
  8
SEIHIN
  6
Continuous
 62
     3
 48
5.0
100
AcDbLine
 10
143.0312164078669
 20
203.8090112803934
 30
0.0
 11
143.0312164078669
 21
196.4663023369434
 31
0.0
  0
LINE
  5
1D8C
330
1A
100
AcDbEntity
  8
SEIHIN
  6
Continuous
 62
     3
 48
5.0
100
AcDbLine
 10
143.0312164078669
 20
182.5482306354435
 30
0.0
 11
143.0312164078669
 21
175.9728678773934
 31
0.0
  0
LINE
  5
1D8D
330
1A
100
AcDbEntity
  8
SEIHIN
  6
Continuous
 62
     3
 48
5.0
100
AcDbLine
 10
143.0312164078669
 20
174.2557105897934
 30
0.0
 11
143.0312164078669
 21
175.1142892335934
 31
0.0
  0
LINE
  5
1D8E
330
1A
100
AcDbEntity
  8
SEIHIN
  6
Continuous
 62
     3
 48
5.0
100
AcDbLine
 10
143.0312164078669
 20
175.1142892335934
 30
0.0
 11
143.0312164078669
 21
175.9728678773934
 31
0.0
  0
LINE
  5
1D8F
330
1A
100
AcDbEntity
  8
SEIHIN
  6
Continuous
 62
     3
 48
5.0
100
AcDbLine
 10
143.0312164078669
 20
196.4663023369434
 30
0.0
 11
143.0312164078669
 21
189.1235933934935
 31
0.0
  0
LINE
  5
1D90
330
1A
100
AcDbEntity
  8
SEIHIN
  6
Continuous
 62
     3
 48
5.0
100
AcDbLine
 10
143.0312164078669
 20
189.1235933934935
 30
0.0
 11
143.0312164078669
 21
182.5482306354435
 31
0.0
  0
LINE
  5
1D91
330
1A
100
AcDbEntity
  8
SEIHIN
  6
Continuous
 62
     3
 48
5.0
100
AcDbLine
 10
143.0312164078669
 20
247.6853792222933
 30
0.0
 11
143.0312164078669
 21
237.9353792222933
 31
0.0
  0
LINE
  5
1D92
330
1A
100
AcDbEntity
  8
SEIHIN
  6
Continuous
 62
     3
 48
5.0
100
AcDbLine
 10
143.0312164078669
 20
231.5216874796934
 30
0.0
 11
143.0312164078669
 21
217.6653493800434
 31
0.0
  0
LINE
  5
1D93
330
1A
100
AcDbEntity
  8
SEIHIN
  6
Continuous
 62
     3
 48
5.0
100
AcDbLine
 10
143.0312164078669
 20
217.6653493800434
 30
0.0
 11
143.0312164078669
 21
203.8090112803934
 31
0.0
  0
LINE
  5
1D94
330
1A
100
AcDbEntity
  8
SEIHIN
  6
Continuous
 62
     3
 48
5.0
100
AcDbLine
 10
143.0312164078669
 20
237.0557105897934
 30
0.0
 11
143.0312164078669
 21
234.2886990347434
 31
0.0
  0
LINE
  5
1D95
330
1A
100
AcDbEntity
  8
SEIHIN
  6
Continuous
 62
     3
 48
5.0
100
AcDbLine
 10
143.0312164078669
 20
234.2886990347434
 30
0.0
 11
143.0312164078669
 21
231.5216874796934
 31
0.0
  0
LINE
  5
1D96
330
1A
100
AcDbEntity
  8
SEIHIN
  6
Continuous
 62
     3
 48
5.0
100
AcDbLine
 10
143.0312164078669
 20
237.0557105897934
 30
0.0
 11
143.0312164078669
 21
237.4955449060434
 31
0.0
  0
LINE
  5
1D97
330
1A
100
AcDbEntity
  8
SEIHIN
  6
Continuous
 62
     3
 48
5.0
100
AcDbLine
 10
143.0312164078669
 20
237.4955449060434
 30
0.0
 11
143.0312164078669
 21
237.9353792222933
 31
0.0
  0
LINE
  5
1D98
330
1A
100
AcDbEntity
  8
SEIHIN
  6
Continuous
 62
     3
 48
5.0
100
AcDbLine
 10
143.0312164078669
 20
259.3449698381933
 30
0.0
 11
143.0312164078669
 21
258.9503402139933
 31
0.0
  0
LINE
  5
1D99
330
1A
100
AcDbEntity
  8
SEIHIN
  6
Continuous
 62
     3
 48
5.0
100
AcDbLine
 10
143.0312164078669
 20
257.9955449060433
 30
0.0
 11
143.0312164078669
 21
258.5557105897934
 31
0.0
  0
LINE
  5
1D9A
330
1A
100
AcDbEntity
  8
SEIHIN
  6
Continuous
 62
     3
 48
5.0
100
AcDbLine
 10
143.0312164078669
 20
257.4353792222933
 30
0.0
 11
143.0312164078669
 21
257.9955449060433
 31
0.0
  0
LINE
  5
1D9B
330
1A
100
AcDbEntity
  8
SEIHIN
  6
Continuous
 62
     3
 48
5.0
100
AcDbLine
 10
143.0312164078669
 20
258.9503402139933
 30
0.0
 11
143.0312164078669
 21
258.5557105897934
 31
0.0
  0
LINE
  5
1D9C
330
1A
100
AcDbEntity
  8
SEIHIN
  6
Continuous
 62
     3
 48
5.0
100
AcDbLine
 10
143.0312164078669
 20
257.4353792222933
 30
0.0
 11
143.0312164078669
 21
247.6853792222933
 31
0.0
  0
LINE
  5
1D9D
330
1A
100
AcDbEntity
  8
SEIHIN
  6
Continuous
 62
     3
 48
5.0
100
AcDbLine
 10
143.0312164078669
 20
259.3449698381933
 30
0.0
 11
143.0312164078669
 21
259.4580459689934
 31
0.0
  0
LINE
  5
1D9E
330
1A
100
AcDbEntity
  8
SEIHIN
  6
Continuous
 62
     3
 48
5.0
100
AcDbLine
 10
143.0312164078669
 20
259.4580459689934
 30
0.0
 11
143.0312164078669
 21
259.5711220997935
 31
0.0
  0
LINE
  5
1D9F
330
1A
100
AcDbEntity
  8
CENTER L
  6
CENTER
 62
     1
 48
5.0
100
AcDbLine
 10
238.0312164078669
 20
95.87368037405508
 30
0.0
 11
238.0312164078669
 21
270.7302811482139
 31
0.0
  0
LINE
  5
1DA0
330
1A
100
AcDbEntity
  8
SEIHIN
  6
Continuous
 62
     3
 48
5.0
100
AcDbLine
 10
333.0312164078664
 20
189.1235933934935
 30
0.0
 11
238.0312164078666
 21
189.1235933934935
 31
0.0
  0
LINE
  5
1DA1
330
1A
100
AcDbEntity
  8
SEIHIN
  6
Continuous
 62
     3
 48
5.0
100
AcDbLine
 10
333.0312164078664
 20
174.2557105897934
 30
0.0
 11
238.0312164078666
 21
174.2557105897934
 31
0.0
  0
LINE
  5
1DA2
330
1A
100
AcDbEntity
  8
SEIHIN
  6
Continuous
 62
     3
 48
5.0
100
AcDbLine
 10
333.0312164078664
 20
237.0557105897934
 30
0.0
 11
238.0312164078666
 21
237.0557105897934
 31
0.0
  0
LINE
  5
1DA3
330
1A
100
AcDbEntity
  8
SEIHIN
  6
Continuous
 62
     3
 48
5.0
100
AcDbLine
 10
238.0312164078666
 20
258.5557105897934
 30
0.0
 11
333.0312164078664
 21
258.5557105897934
 31
0.0
  0
LINE
  5
1DA4
330
1A
100
AcDbEntity
  8
SEIHIN
  6
Continuous
 62
     3
 48
5.0
100
AcDbLine
 10
333.0312164078664
 20
257.4353792222933
 30
0.0
 11
238.0312164078666
 21
257.4353792222933
 31
0.0
  0
LINE
  5
1DA5
330
1A
100
AcDbEntity
  8
SEIHIN
  6
Continuous
 62
     3
 48
5.0
100
AcDbLine
 10
288.8890807840667
 20
154.2557105897934
 30
0.0
 11
238.0312164078168
 21
154.2557105897934
 31
0.0
  0
LINE
  5
1DA6
330
1A
100
AcDbEntity
  8
SEIHIN
100
AcDbLine
 10
208.8309164079168
 20
110.5555605897934
 30
0.0
 11
238.0309164079168
 21
110.5556805897934
 31
0.0
  0
LINE
  5
1DA7
330
1A
100
AcDbEntity
  8
SEIHIN
100
AcDbLine
 10
238.0309164079168
 20
116.5557305897934
 30
0.0
 11
203.0310164079168
 21
116.5555405897934
 31
0.0
  0
LINE
  5
1DA8
330
1A
100
AcDbEntity
  8
SEIHIN
100
AcDbLine
 10
267.2312164079168
 20
110.5557105897934
 30
0.0
 11
208.8312164079167
 21
110.5557105897934
 31
0.0
  0
LINE
  5
1DA9
330
1A
100
AcDbEntity
  8
SEIHIN
100
AcDbLine
 10
208.8312164079167
 20
110.5557105897934
 30
0.0
 11
267.2312164079168
 21
110.5557105897934
 31
0.0
  0
LINE
  5
1DAA
330
1A
100
AcDbEntity
  8
SEIHIN
  6
Continuous
 62
     3
 48
5.0
100
AcDbLine
 10
238.0312164078168
 20
154.2557105897934
 30
0.0
 11
187.1733520315665
 21
154.2557105897934
 31
0.0
  0
LINE
  5
1DAB
330
1A
100
AcDbEntity
  8
SEIHIN
  6
Continuous
 62
     3
 48
5.0
100
AcDbLine
 10
185.2179212185665
 20
154.4096063323934
 30
0.0
 11
183.3106396018666
 21
154.8675041360934
 31
0.0
  0
LINE
  5
1DAC
330
1A
100
AcDbEntity
  8
SEIHIN
  6
Continuous
 62
     3
100
AcDbLine
 10
210.2103966474566
 20
131.0869305897934
 30
0.0
 11
208.8957966474567
 21
153.9557305897934
 31
0.0
  0
LINE
  5
1DAD
330
1A
100
AcDbEntity
  8
SEIHIN
  6
Continuous
 62
     3
100
AcDbLine
 10
199.8808966474566
 20
153.9557305897934
 30
0.0
 11
201.2252966474565
 21
130.5703305897934
 31
0.0
  0
ARC
  5
1DAE
330
1A
100
AcDbEntity
  8
SEIHIN
  6
Continuous
 62
     3
100
AcDbCircle
 10
301.0604966474565
 20
136.3095305897934
 30
0.0
 40
99.99998000000001
100
AcDbArc
 50
183.2900690000003
 51
191.3929150000003
  0
ARC
  5
1DAF
330
1A
100
AcDbEntity
  8
SEIHIN
  6
Continuous
 62
     3
100
AcDbCircle
 10
301.0604966474565
 20
136.3095305897934
 30
0.0
 40
90.99997900000001
100
AcDbArc
 50
183.2900189999994
 51
192.5372139999999
  0
LINE
  5
1DB0
330
1A
100
AcDbEntity
  8
SEIHIN
100
AcDbLine
 10
208.831116407917
 20
110.5555605897934
 30
0.0
 11
208.8312164079167
 21
116.5558005897934
 31
0.0
  0
LINE
  5
1DB1
330
1A
100
AcDbEntity
  8
SEIHIN
  6
Continuous
 62
     3
 48
5.0
100
AcDbLine
 10
187.1733520315665
 20
154.2557105897934
 30
0.0
 11
185.2179212185665
 21
154.4096063323934
 31
0.0
  0
LINE
  5
1DB2
330
1A
100
AcDbEntity
  8
SEIHIN
  6
Continuous
 62
     3
 48
5.0
100
AcDbLine
 10
183.3106396018666
 20
154.8675041360934
 30
0.0
 11
181.4984707847666
 21
155.6181290374934
 31
0.0
  0
LINE
  5
1DB3
330
1A
100
AcDbEntity
  8
SEIHIN
  6
Continuous
 62
     3
 48
5.0
100
AcDbLine
 10
171.2634494548668
 20
164.9879436368434
 30
0.0
 11
164.1923816429667
 21
172.0590114486934
 31
0.0
  0
LINE
  5
1DB4
330
1A
100
AcDbEntity
  8
SEIHIN
  6
Continuous
 62
     3
 48
5.0
100
AcDbLine
 10
164.1923816429667
 20
172.0590114486934
 30
0.0
 11
164.1088150960668
 21
172.1412814706934
 31
0.0
  0
LINE
  5
1DB5
330
1A
100
AcDbEntity
  8
SEIHIN
  6
Continuous
 62
     3
 48
5.0
100
AcDbLine
 10
164.1088150960668
 20
172.1412814706934
 30
0.0
 11
164.0239724540666
 21
172.2222348545934
 31
0.0
  0
LINE
  5
1DB6
330
1A
100
AcDbEntity
  8
SEIHIN
  6
Continuous
 62
     3
 48
5.0
100
AcDbLine
 10
164.0239724540666
 20
172.2222348545934
 30
0.0
 11
162.6988134537664
 21
173.2160462610934
 31
0.0
  0
LINE
  5
1DB7
330
1A
100
AcDbEntity
  8
SEIHIN
  6
Continuous
 62
     3
 48
5.0
100
AcDbLine
 10
158.8890807840667
 20
174.2557105897934
 30
0.0
 11
158.9084005528666
 21
174.2557040414934
 31
0.0
  0
LINE
  5
1DB8
330
1A
100
AcDbEntity
  8
SEIHIN
  6
Continuous
 62
     3
 48
5.0
100
AcDbLine
 10
158.9032127090668
 20
174.2556972756935
 30
0.0
 11
158.8890807840667
 21
174.2557105897934
 31
0.0
  0
LINE
  5
1DB9
330
1A
100
AcDbEntity
  8
SEIHIN
  6
Continuous
 62
     3
 48
5.0
100
AcDbLine
 10
160.5521425528668
 20
174.0690016104934
 30
0.0
 11
158.9032127090668
 21
174.2556972756935
 31
0.0
  0
LINE
  5
1DBA
330
1A
100
AcDbEntity
  8
SEIHIN
  6
Continuous
 62
     3
 48
5.0
100
AcDbLine
 10
162.6988134537664
 20
173.2160462610934
 30
0.0
 11
160.5521425528668
 21
174.0690016104934
 31
0.0
  0
LINE
  5
1DBB
330
1A
100
AcDbEntity
  8
SEIHIN
  6
Continuous
 62
     3
 48
5.0
100
AcDbLine
 10
178.3345172667669
 20
157.9168758249934
 30
0.0
 11
171.2634494548668
 21
164.9879436368434
 31
0.0
  0
LINE
  5
1DBC
330
1A
100
AcDbEntity
  8
SEIHIN
  6
Continuous
 62
     3
 48
5.0
100
AcDbLine
 10
181.4984707847666
 20
155.6181290374934
 30
0.0
 11
179.8260363778668
 21
156.6429981601934
 31
0.0
  0
LINE
  5
1DBD
330
1A
100
AcDbEntity
  8
SEIHIN
  6
Continuous
 62
     3
 48
5.0
100
AcDbLine
 10
179.8260363778668
 20
156.6429981601934
 30
0.0
 11
178.3345172667669
 21
157.9168758249934
 31
0.0
  0
LINE
  5
1DBE
330
1A
100
AcDbEntity
  8
SEIHIN
100
AcDbLine
 10
238.0312164079168
 20
116.5557305897934
 30
0.0
 11
273.0312164079168
 21
116.5555005897934
 31
0.0
  0
LINE
  5
1DBF
330
1A
100
AcDbEntity
  8
SEIHIN
100
AcDbLine
 10
267.2313164079168
 20
110.5555605897934
 30
0.0
 11
238.0312164079168
 21
110.5557105897934
 31
0.0
  0
LINE
  5
1DC0
330
1A
100
AcDbEntity
  8
SEIHIN
100
AcDbLine
 10
238.0315164079167
 20
116.5557305897934
 30
0.0
 11
273.0314164079169
 21
116.5555405897934
 31
0.0
  0
LINE
  5
1DC1
330
1A
100
AcDbEntity
  8
SEIHIN
100
AcDbLine
 10
267.2315164079167
 20
110.5555605897934
 30
0.0
 11
238.0315164079167
 21
110.5556805897934
 31
0.0
  0
LINE
  5
1DC2
330
1A
100
AcDbEntity
  8
SEIHIN
  6
Continuous
 62
     3
100
AcDbLine
 10
276.1809966474565
 20
153.9557305897934
 30
0.0
 11
274.8365966474565
 21
130.5703305897934
 31
0.0
  0
LINE
  5
1DC3
330
1A
100
AcDbEntity
  8
SEIHIN
  6
Continuous
 62
     3
100
AcDbLine
 10
265.8513966474567
 20
131.0868305897934
 30
0.0
 11
267.1660966474566
 21
153.9557305897934
 31
0.0
  0
ARC
  5
1DC4
330
1A
100
AcDbEntity
  8
SEIHIN
  6
Continuous
 62
     3
100
AcDbCircle
 10
175.0013966474565
 20
136.3096305897934
 30
0.0
 40
91.00000899999999
100
AcDbArc
 50
347.4626629999995
 51
356.7097919999999
  0
ARC
  5
1DC5
330
1A
100
AcDbEntity
  8
SEIHIN
  6
Continuous
 62
     3
100
AcDbCircle
 10
175.0013966474565
 20
136.3096305897934
 30
0.0
 40
99.999942
100
AcDbArc
 50
348.6067930000008
 51
356.7096989999997
  0
LINE
  5
1DC6
330
1A
100
AcDbEntity
  8
SEIHIN
100
AcDbLine
 10
267.2311164079168
 20
110.5555605897934
 30
0.0
 11
267.2311164079168
 21
116.5558005897934
 31
0.0
  0
LINE
  5
1DC7
330
1A
100
AcDbEntity
  8
SEIHIN
100
AcDbLine
 10
267.2313164079168
 20
110.5555605897934
 30
0.0
 11
267.2312164079168
 21
116.5558005897934
 31
0.0
  0
LINE
  5
1DC8
330
1A
100
AcDbEntity
  8
SEIHIN
  6
Continuous
 62
     3
 48
5.0
100
AcDbLine
 10
161.0312164078669
 20
259.3449698381933
 30
0.0
 11
161.0312164078669
 21
258.9503402139933
 31
0.0
  0
LINE
  5
1DC9
330
1A
100
AcDbEntity
  8
SEIHIN
  6
Continuous
 62
     3
 48
5.0
100
AcDbLine
 10
161.0312164078669
 20
258.9503402139933
 30
0.0
 11
161.0312164078669
 21
258.5557105897934
 31
0.0
  0
LINE
  5
1DCA
330
1A
100
AcDbEntity
  8
SEIHIN
  6
Continuous
 62
     3
 48
5.0
100
AcDbLine
 10
161.0312164078669
 20
259.5711220997935
 30
0.0
 11
152.0312164078669
 21
259.5711220997935
 31
0.0
  0
LINE
  5
1DCB
330
1A
100
AcDbEntity
  8
SEIHIN
  6
Continuous
 62
     3
 48
5.0
100
AcDbLine
 10
161.0312164078669
 20
259.5711220997935
 30
0.0
 11
161.0312164078669
 21
259.4580459689934
 31
0.0
  0
LINE
  5
1DCC
330
1A
100
AcDbEntity
  8
SEIHIN
  6
Continuous
 62
     3
 48
5.0
100
AcDbLine
 10
161.0312164078669
 20
259.4580459689934
 30
0.0
 11
161.0312164078669
 21
259.3449698381933
 31
0.0
  0
LINE
  5
1DCD
330
1A
100
AcDbEntity
  8
SEIHIN
  6
Continuous
 62
     3
 48
5.0
100
AcDbLine
 10
333.0312164078664
 20
203.8090112803934
 30
0.0
 11
333.0312164078664
 21
196.4663023369434
 31
0.0
  0
LINE
  5
1DCE
330
1A
100
AcDbEntity
  8
SEIHIN
  6
Continuous
 62
     3
 48
5.0
100
AcDbLine
 10
292.7517932137666
 20
154.8675041360934
 30
0.0
 11
290.8445115970667
 21
154.4096063323934
 31
0.0
  0
LINE
  5
1DCF
330
1A
100
AcDbEntity
  8
SEIHIN
  6
Continuous
 62
     3
 48
5.0
100
AcDbLine
 10
290.8445115970667
 20
154.4096063323934
 30
0.0
 11
288.8890807840667
 21
154.2557105897934
 31
0.0
  0
LINE
  5
1DD0
330
1A
100
AcDbEntity
  8
SEIHIN
  6
Continuous
 62
     3
 48
5.0
100
AcDbLine
 10
315.5102902627664
 20
174.0690016104934
 30
0.0
 11
313.3636193618668
 21
173.2160462610934
 31
0.0
  0
LINE
  5
1DD1
330
1A
100
AcDbEntity
  8
SEIHIN
  6
Continuous
 62
     3
 48
5.0
100
AcDbLine
 10
297.7279155489664
 20
157.9168758249934
 30
0.0
 11
296.2363964377664
 21
156.6429981601934
 31
0.0
  0
LINE
  5
1DD2
330
1A
100
AcDbEntity
  8
SEIHIN
  6
Continuous
 62
     3
 48
5.0
100
AcDbLine
 10
294.5639620308666
 20
155.6181290374934
 30
0.0
 11
292.7517932137666
 21
154.8675041360934
 31
0.0
  0
LINE
  5
1DD3
330
1A
100
AcDbEntity
  8
SEIHIN
  6
Continuous
 62
     3
 48
5.0
100
AcDbLine
 10
296.2363964377664
 20
156.6429981601934
 30
0.0
 11
294.5639620308666
 21
155.6181290374934
 31
0.0
  0
LINE
  5
1DD4
330
1A
100
AcDbEntity
  8
SEIHIN
  6
Continuous
 62
     3
 48
5.0
100
AcDbLine
 10
311.8700511726665
 20
172.0590114486934
 30
0.0
 11
304.7989833608167
 21
164.9879436368434
 31
0.0
  0
LINE
  5
1DD5
330
1A
100
AcDbEntity
  8
SEIHIN
  6
Continuous
 62
     3
 48
5.0
100
AcDbLine
 10
297.7279155489664
 20
157.9168758249934
 30
0.0
 11
297.6781061822667
 21
157.9147224890934
 31
0.0
  0
LINE
  5
1DD6
330
1A
100
AcDbEntity
  8
SEIHIN
  6
Continuous
 62
     3
 48
5.0
100
AcDbLine
 10
304.7989833608167
 20
164.9879436368434
 30
0.0
 11
297.7279155489664
 21
157.9168758249934
 31
0.0
  0
LINE
  5
1DD7
330
1A
100
AcDbEntity
  8
SEIHIN
  6
Continuous
 62
     3
 48
5.0
100
AcDbLine
 10
313.3636193618668
 20
173.2160462610934
 30
0.0
 11
312.0384603615667
 21
172.2222348545934
 31
0.0
  0
LINE
  5
1DD8
330
1A
100
AcDbEntity
  8
SEIHIN
  6
Continuous
 62
     3
 48
5.0
100
AcDbLine
 10
312.0384603615667
 20
172.2222348545934
 30
0.0
 11
311.9536177195664
 21
172.1412814706934
 31
0.0
  0
LINE
  5
1DD9
330
1A
100
AcDbEntity
  8
SEIHIN
  6
Continuous
 62
     3
 48
5.0
100
AcDbLine
 10
311.9536177195664
 20
172.1412814706934
 30
0.0
 11
311.8700511726665
 21
172.0590114486934
 31
0.0
  0
LINE
  5
1DDA
330
1A
100
AcDbEntity
  8
SEIHIN
  6
Continuous
 62
     3
 48
5.0
100
AcDbLine
 10
333.0312164078664
 20
182.5482306354435
 30
0.0
 11
333.0312164078664
 21
175.9728678773934
 31
0.0
  0
LINE
  5
1DDB
330
1A
100
AcDbEntity
  8
SEIHIN
  6
Continuous
 62
     3
 48
5.0
100
AcDbLine
 10
317.1733520315665
 20
174.2557105897934
 30
0.0
 11
317.1592201066665
 21
174.2556972756935
 31
0.0
  0
LINE
  5
1DDC
330
1A
100
AcDbEntity
  8
SEIHIN
  6
Continuous
 62
     3
 48
5.0
100
AcDbLine
 10
317.1592201066665
 20
174.2556972756935
 30
0.0
 11
315.5102902627664
 21
174.0690016104934
 31
0.0
  0
LINE
  5
1DDD
330
1A
100
AcDbEntity
  8
SEIHIN
  6
Continuous
 62
     3
 48
5.0
100
AcDbLine
 10
317.1540322627666
 20
174.2557040414934
 30
0.0
 11
317.1733520315665
 21
174.2557105897934
 31
0.0
  0
LINE
  5
1DDE
330
1A
100
AcDbEntity
  8
SEIHIN
  6
Continuous
 62
     3
 48
5.0
100
AcDbLine
 10
333.0312164078664
 20
175.9728678773934
 30
0.0
 11
333.0312164078664
 21
175.1142892335934
 31
0.0
  0
LINE
  5
1DDF
330
1A
100
AcDbEntity
  8
SEIHIN
  6
Continuous
 62
     3
 48
5.0
100
AcDbLine
 10
333.0312164078664
 20
175.1142892335934
 30
0.0
 11
333.0312164078664
 21
174.2557105897934
 31
0.0
  0
LINE
  5
1DE0
330
1A
100
AcDbEntity
  8
SEIHIN
  6
Continuous
 62
     3
 48
5.0
100
AcDbLine
 10
333.0312164078664
 20
196.4663023369434
 30
0.0
 11
333.0312164078664
 21
189.1235933934935
 31
0.0
  0
LINE
  5
1DE1
330
1A
100
AcDbEntity
  8
SEIHIN
  6
Continuous
 62
     3
 48
5.0
100
AcDbLine
 10
333.0312164078664
 20
189.1235933934935
 30
0.0
 11
333.0312164078664
 21
182.5482306354435
 31
0.0
  0
LINE
  5
1DE2
330
1A
100
AcDbEntity
  8
SEIHIN
  6
Continuous
 62
     3
 48
5.0
100
AcDbLine
 10
333.0312164078664
 20
247.6853792222933
 30
0.0
 11
333.0312164078664
 21
237.9353792222933
 31
0.0
  0
LINE
  5
1DE3
330
1A
100
AcDbEntity
  8
SEIHIN
  6
Continuous
 62
     3
 48
5.0
100
AcDbLine
 10
333.0312164078664
 20
231.5216874796934
 30
0.0
 11
333.0312164078664
 21
217.6653493800434
 31
0.0
  0
LINE
  5
1DE4
330
1A
100
AcDbEntity
  8
SEIHIN
  6
Continuous
 62
     3
 48
5.0
100
AcDbLine
 10
333.0312164078664
 20
217.6653493800434
 30
0.0
 11
333.0312164078664
 21
203.8090112803934
 31
0.0
  0
LINE
  5
1DE5
330
1A
100
AcDbEntity
  8
SEIHIN
  6
Continuous
 62
     3
 48
5.0
100
AcDbLine
 10
333.0312164078664
 20
237.0557105897934
 30
0.0
 11
333.0312164078664
 21
234.2886990347434
 31
0.0
  0
LINE
  5
1DE6
330
1A
100
AcDbEntity
  8
SEIHIN
  6
Continuous
 62
     3
 48
5.0
100
AcDbLine
 10
333.0312164078664
 20
234.2886990347434
 30
0.0
 11
333.0312164078664
 21
231.5216874796934
 31
0.0
  0
LINE
  5
1DE7
330
1A
100
AcDbEntity
  8
SEIHIN
  6
Continuous
 62
     3
 48
5.0
100
AcDbLine
 10
333.0312164078664
 20
237.9353792222933
 30
0.0
 11
333.0312164078664
 21
237.4955449060434
 31
0.0
  0
LINE
  5
1DE8
330
1A
100
AcDbEntity
  8
SEIHIN
  6
Continuous
 62
     3
 48
5.0
100
AcDbLine
 10
333.0312164078664
 20
237.4955449060434
 30
0.0
 11
333.0312164078664
 21
237.0557105897934
 31
0.0
  0
LINE
  5
1DE9
330
1A
100
AcDbEntity
  8
SEIHIN
  6
Continuous
 62
     3
 48
5.0
100
AcDbLine
 10
333.0312164078664
 20
259.5711220997935
 30
0.0
 11
324.0312164078664
 21
259.5711220997935
 31
0.0
  0
LINE
  5
1DEA
330
1A
100
AcDbEntity
  8
SEIHIN
  6
Continuous
 62
     3
 48
5.0
100
AcDbLine
 10
315.0312164078664
 20
259.3449698381933
 30
0.0
 11
315.0312164078664
 21
258.9503402139933
 31
0.0
  0
LINE
  5
1DEB
330
1A
100
AcDbEntity
  8
SEIHIN
  6
Continuous
 62
     3
 48
5.0
100
AcDbLine
 10
315.0312164078664
 20
258.9503402139933
 30
0.0
 11
315.0312164078664
 21
258.5557105897934
 31
0.0
  0
LINE
  5
1DEC
330
1A
100
AcDbEntity
  8
SEIHIN
  6
Continuous
 62
     3
 48
5.0
100
AcDbLine
 10
324.0312164078664
 20
259.5711220997935
 30
0.0
 11
315.0312164078664
 21
259.5711220997935
 31
0.0
  0
LINE
  5
1DED
330
1A
100
AcDbEntity
  8
SEIHIN
  6
Continuous
 62
     3
 48
5.0
100
AcDbLine
 10
315.0312164078664
 20
259.3449698381933
 30
0.0
 11
315.0312164078664
 21
259.4580459689934
 31
0.0
  0
LINE
  5
1DEE
330
1A
100
AcDbEntity
  8
SEIHIN
  6
Continuous
 62
     3
 48
5.0
100
AcDbLine
 10
315.0312164078664
 20
259.4580459689934
 30
0.0
 11
315.0312164078664
 21
259.5711220997935
 31
0.0
  0
LINE
  5
1DEF
330
1A
100
AcDbEntity
  8
SEIHIN
  6
Continuous
 62
     3
 48
5.0
100
AcDbLine
 10
333.0312164078664
 20
259.3449698381933
 30
0.0
 11
333.0312164078664
 21
258.9503402139933
 31
0.0
  0
LINE
  5
1DF0
330
1A
100
AcDbEntity
  8
SEIHIN
  6
Continuous
 62
     3
 48
5.0
100
AcDbLine
 10
333.0312164078664
 20
258.5557105897934
 30
0.0
 11
333.0312164078664
 21
257.9955449060433
 31
0.0
  0
LINE
  5
1DF1
330
1A
100
AcDbEntity
  8
SEIHIN
  6
Continuous
 62
     3
 48
5.0
100
AcDbLine
 10
333.0312164078664
 20
257.9955449060433
 30
0.0
 11
333.0312164078664
 21
257.4353792222933
 31
0.0
  0
LINE
  5
1DF2
330
1A
100
AcDbEntity
  8
SEIHIN
  6
Continuous
 62
     3
 48
5.0
100
AcDbLine
 10
333.0312164078664
 20
258.9503402139933
 30
0.0
 11
333.0312164078664
 21
258.5557105897934
 31
0.0
  0
LINE
  5
1DF3
330
1A
100
AcDbEntity
  8
SEIHIN
  6
Continuous
 62
     3
 48
5.0
100
AcDbLine
 10
333.0312164078664
 20
257.4353792222933
 30
0.0
 11
333.0312164078664
 21
247.6853792222933
 31
0.0
  0
LINE
  5
1DF4
330
1A
100
AcDbEntity
  8
SEIHIN
  6
Continuous
 62
     3
 48
5.0
100
AcDbLine
 10
333.0312164078664
 20
259.5711220997935
 30
0.0
 11
333.0312164078664
 21
259.4580459689934
 31
0.0
  0
LINE
  5
1DF5
330
1A
100
AcDbEntity
  8
SEIHIN
  6
Continuous
 62
     3
 48
5.0
100
AcDbLine
 10
333.0312164078664
 20
259.4580459689934
 30
0.0
 11
333.0312164078664
 21
259.3449698381933
 31
0.0
  0
LINE
  5
1DF6
330
1A
100
AcDbEntity
  8
SEIHIN
  6
Continuous
 62
     3
 48
5.0
100
AcDbLine
 10
151.6956694391902
 20
365.3776698138891
 30
0.0
 11
142.6956694391902
 21
365.3776698138896
 31
0.0
  0
LINE
  5
1DF7
330
1A
100
AcDbEntity
  8
SEIHIN
  6
Continuous
 62
     3
 48
5.0
100
AcDbLine
 10
142.6956694391902
 20
369.7053958534892
 30
0.0
 11
151.6956694391902
 21
369.7053958534887
 31
0.0
  0
LINE
  5
1DF8
330
1A
100
AcDbEntity
  8
SEIHIN
  6
Continuous
 62
     3
 48
5.0
100
AcDbLine
 10
151.6956694391907
 20
369.1038170369889
 30
0.0
 11
142.6956694391905
 21
369.1038170369896
 31
0.0
  0
LINE
  5
1DF9
330
1A
100
AcDbEntity
  8
SEIHIN
  6
Continuous
 62
     3
 48
5.0
100
AcDbLine
 10
142.6956694391902
 20
378.7942492796893
 30
0.0
 11
190.1956694391902
 21
378.7942492796893
 31
0.0
  0
LINE
  5
1DFA
330
1A
100
AcDbEntity
  8
SEIHIN
  6
Continuous
 62
     3
 48
5.0
100
AcDbLine
 10
142.6956694391905
 20
374.8791834740889
 30
0.0
 11
190.1956694391902
 21
374.8791834740891
 31
0.0
  0
LINE
  5
1DFB
330
1A
100
AcDbEntity
  8
SEIHIN
  6
Continuous
 62
     3
 48
5.0
100
AcDbLine
 10
190.1956694391902
 20
354.8848725284893
 30
0.0
 11
142.6956694391902
 21
354.8848725284896
 31
0.0
  0
LINE
  5
1DFC
330
1A
100
AcDbEntity
  8
SEIHIN
  6
Continuous
 62
     3
 48
5.0
100
AcDbLine
 10
142.6956694391905
 20
390.4323616298893
 30
0.0
 11
152.6956694391905
 21
390.4323616298893
 31
0.0
  0
LINE
  5
1DFD
330
1A
100
AcDbEntity
  8
SEIHIN
  6
Continuous
 62
     3
 48
5.0
100
AcDbLine
 10
142.6956694391902
 20
388.6776698138891
 30
0.0
 11
190.1956694391902
 21
388.6776698138892
 31
0.0
  0
LINE
  5
1DFE
330
1A
100
AcDbEntity
  8
SEIHIN
  6
Continuous
 62
     3
 48
5.0
100
AcDbLine
 10
151.6956694391902
 20
479.389468919389
 30
0.0
 11
142.69566943919
 21
479.3894689193886
 31
0.0
  0
LINE
  5
1DFF
330
1A
100
AcDbEntity
  8
SEIHIN
  6
Continuous
 62
     3
 48
5.0
100
AcDbLine
 10
237.6956694391898
 20
490.9394689193894
 30
0.0
 11
142.69566943919
 21
490.9394689193895
 31
0.0
  0
LINE
  5
1E00
330
1A
100
AcDbEntity
  8
SEIHIN
  6
Continuous
 62
     3
 48
5.0
100
AcDbLine
 10
142.6956694391902
 20
480.2644689193891
 30
0.0
 11
142.69566943919
 21
479.3894689193886
 31
0.0
  0
LINE
  5
1E01
330
1A
100
AcDbEntity
  8
SEIHIN
  6
Continuous
 62
     3
 48
5.0
100
AcDbLine
 10
142.6956694391902
 20
383.7359595467892
 30
0.0
 11
142.6956694391902
 21
388.6776698138891
 31
0.0
  0
LINE
  5
1E02
330
1A
100
AcDbEntity
  8
SEIHIN
  6
Continuous
 62
     3
 48
5.0
100
AcDbLine
 10
142.6956694391902
 20
365.3776698138896
 30
0.0
 11
142.6956694391905
 21
360.6312711711892
 31
0.0
  0
LINE
  5
1E03
330
1A
100
AcDbEntity
  8
SEIHIN
  6
Continuous
 62
     3
 48
5.0
100
AcDbLine
 10
142.6956694391907
 20
355.8848725284889
 30
0.0
 11
142.6956694391905
 21
355.3848725284891
 31
0.0
  0
LINE
  5
1E04
330
1A
100
AcDbEntity
  8
SEIHIN
  6
Continuous
 62
     3
 48
5.0
100
AcDbLine
 10
142.6956694391905
 20
355.3848725284891
 30
0.0
 11
142.6956694391902
 21
354.8848725284896
 31
0.0
  0
LINE
  5
1E05
330
1A
100
AcDbEntity
  8
SEIHIN
  6
Continuous
 62
     3
 48
5.0
100
AcDbLine
 10
142.6956694391905
 20
360.6312711711892
 30
0.0
 11
142.6956694391907
 21
355.8848725284889
 31
0.0
  0
LINE
  5
1E06
330
1A
100
AcDbEntity
  8
SEIHIN
  6
Continuous
 62
     3
 48
5.0
100
AcDbLine
 10
142.6956694391905
 20
374.8791834740889
 30
0.0
 11
142.6956694391902
 21
376.8367163768891
 31
0.0
  0
LINE
  5
1E07
330
1A
100
AcDbEntity
  8
SEIHIN
  6
Continuous
 62
     3
 48
5.0
100
AcDbLine
 10
142.6956694391902
 20
369.580314781189
 30
0.0
 11
142.6956694391902
 21
369.455233708889
 31
0.0
  0
LINE
  5
1E08
330
1A
100
AcDbEntity
  8
SEIHIN
  6
Continuous
 62
     3
 48
5.0
100
AcDbLine
 10
142.6956694391902
 20
369.7053958534892
 30
0.0
 11
142.6956694391902
 21
369.580314781189
 31
0.0
  0
LINE
  5
1E09
330
1A
100
AcDbEntity
  8
SEIHIN
  6
Continuous
 62
     3
 48
5.0
100
AcDbLine
 10
142.6956694391902
 20
369.2795253729392
 30
0.0
 11
142.6956694391905
 21
369.1038170369896
 31
0.0
  0
LINE
  5
1E0A
330
1A
100
AcDbEntity
  8
SEIHIN
  6
Continuous
 62
     3
 48
5.0
100
AcDbLine
 10
142.6956694391902
 20
369.455233708889
 30
0.0
 11
142.6956694391902
 21
369.2795253729392
 31
0.0
  0
LINE
  5
1E0B
330
1A
100
AcDbEntity
  8
SEIHIN
  6
Continuous
 62
     3
 48
5.0
100
AcDbLine
 10
142.6956694391902
 20
366.5491386606394
 30
0.0
 11
142.6956694391902
 21
365.3776698138896
 31
0.0
  0
LINE
  5
1E0C
330
1A
100
AcDbEntity
  8
SEIHIN
  6
Continuous
 62
     3
 48
5.0
100
AcDbLine
 10
142.6956694391902
 20
367.7206075073892
 30
0.0
 11
142.6956694391902
 21
366.5491386606394
 31
0.0
  0
LINE
  5
1E0D
330
1A
100
AcDbEntity
  8
SEIHIN
  6
Continuous
 62
     3
 48
5.0
100
AcDbLine
 10
142.6956694391902
 20
368.4122122721893
 30
0.0
 11
142.6956694391902
 21
367.7206075073892
 31
0.0
  0
LINE
  5
1E0E
330
1A
100
AcDbEntity
  8
SEIHIN
  6
Continuous
 62
     3
 48
5.0
100
AcDbLine
 10
142.6956694391905
 20
369.1038170369896
 30
0.0
 11
142.6956694391902
 21
368.4122122721893
 31
0.0
  0
LINE
  5
1E0F
330
1A
100
AcDbEntity
  8
SEIHIN
  6
Continuous
 62
     3
 48
5.0
100
AcDbLine
 10
142.6956694391902
 20
372.292289663789
 30
0.0
 11
142.6956694391905
 21
374.8791834740889
 31
0.0
  0
LINE
  5
1E10
330
1A
100
AcDbEntity
  8
SEIHIN
  6
Continuous
 62
     3
 48
5.0
100
AcDbLine
 10
142.6956694391902
 20
369.7053958534892
 30
0.0
 11
142.6956694391902
 21
372.292289663789
 31
0.0
  0
LINE
  5
1E11
330
1A
100
AcDbEntity
  8
SEIHIN
  6
Continuous
 62
     3
 48
5.0
100
AcDbLine
 10
142.6956694391902
 20
376.8367163768891
 30
0.0
 11
142.6956694391902
 21
378.7942492796893
 31
0.0
  0
LINE
  5
1E12
330
1A
100
AcDbEntity
  8
SEIHIN
  6
Continuous
 62
     3
 48
5.0
100
AcDbLine
 10
142.6956694391902
 20
378.7942492796893
 30
0.0
 11
142.6956694391902
 21
383.7359595467892
 31
0.0
  0
LINE
  5
1E13
330
1A
100
AcDbEntity
  8
SEIHIN
  6
Continuous
 62
     3
 48
5.0
100
AcDbLine
 10
142.6956694391902
 20
392.4122606172892
 30
0.0
 11
142.69566943919
 21
435.3393444588393
 31
0.0
  0
LINE
  5
1E14
330
1A
100
AcDbEntity
  8
SEIHIN
  6
Continuous
 62
     3
 48
5.0
100
AcDbLine
 10
142.6956694391902
 20
388.6776698138891
 30
0.0
 11
142.6956694391902
 21
389.5550157218892
 31
0.0
  0
LINE
  5
1E15
330
1A
100
AcDbEntity
  8
SEIHIN
  6
Continuous
 62
     3
 48
5.0
100
AcDbLine
 10
142.6956694391905
 20
391.4223111235892
 30
0.0
 11
142.6956694391905
 21
390.4323616298893
 31
0.0
  0
LINE
  5
1E16
330
1A
100
AcDbEntity
  8
SEIHIN
  6
Continuous
 62
     3
 48
5.0
100
AcDbLine
 10
142.6956694391902
 20
392.4122606172892
 30
0.0
 11
142.6956694391905
 21
391.4223111235892
 31
0.0
  0
LINE
  5
1E17
330
1A
100
AcDbEntity
  8
SEIHIN
  6
Continuous
 62
     3
 48
5.0
100
AcDbLine
 10
142.6956694391902
 20
389.5550157218892
 30
0.0
 11
142.6956694391905
 21
390.4323616298893
 31
0.0
  0
LINE
  5
1E18
330
1A
100
AcDbEntity
  8
SEIHIN
  6
Continuous
 62
     3
 48
5.0
100
AcDbLine
 10
142.69566943919
 20
435.3393444588393
 30
0.0
 11
142.69566943919
 21
478.2664283003894
 31
0.0
  0
LINE
  5
1E19
330
1A
100
AcDbEntity
  8
SEIHIN
  6
Continuous
 62
     3
 48
5.0
100
AcDbLine
 10
142.69566943919
 20
478.827948609889
 30
0.0
 11
142.69566943919
 21
479.3894689193886
 31
0.0
  0
LINE
  5
1E1A
330
1A
100
AcDbEntity
  8
SEIHIN
  6
Continuous
 62
     3
 48
5.0
100
AcDbLine
 10
142.69566943919
 20
478.2664283003894
 30
0.0
 11
142.69566943919
 21
478.827948609889
 31
0.0
  0
LINE
  5
1E1B
330
1A
100
AcDbEntity
  8
SEIHIN
  6
Continuous
 62
     3
 48
5.0
100
AcDbLine
 10
142.69566943919
 20
485.5394689193894
 30
0.0
 11
142.6956694391902
 21
481.1394689193896
 31
0.0
  0
LINE
  5
1E1C
330
1A
100
AcDbEntity
  8
SEIHIN
  6
Continuous
 62
     3
 48
5.0
100
AcDbLine
 10
142.69566943919
 20
489.9394689193893
 30
0.0
 11
142.69566943919
 21
485.5394689193894
 31
0.0
  0
LINE
  5
1E1D
330
1A
100
AcDbEntity
  8
SEIHIN
  6
Continuous
 62
     3
 48
5.0
100
AcDbLine
 10
142.69566943919
 20
490.4394689193894
 30
0.0
 11
142.69566943919
 21
489.9394689193893
 31
0.0
  0
LINE
  5
1E1E
330
1A
100
AcDbEntity
  8
SEIHIN
  6
Continuous
 62
     3
 48
5.0
100
AcDbLine
 10
142.69566943919
 20
490.9394689193895
 30
0.0
 11
142.69566943919
 21
490.4394689193894
 31
0.0
  0
LINE
  5
1E1F
330
1A
100
AcDbEntity
  8
SEIHIN
  6
Continuous
 62
     3
 48
5.0
100
AcDbLine
 10
142.6956694391902
 20
481.1394689193896
 30
0.0
 11
142.6956694391902
 21
480.2644689193891
 31
0.0
  0
LINE
  5
1E20
330
1A
100
AcDbEntity
  8
SEIHIN
  6
Continuous
 62
     3
 48
5.0
100
AcDbLine
 10
162.69566943919
 20
480.2643694399894
 30
0.0
 11
162.69566943919
 21
479.2653988701893
 31
0.0
  0
LINE
  5
1E21
330
1A
100
AcDbEntity
  8
SEIHIN
  6
Continuous
 62
     3
 48
5.0
100
AcDbLine
 10
160.6956694391902
 20
480.2644689193891
 30
0.0
 11
160.6956694391905
 21
479.3894689193894
 31
0.0
  0
LINE
  5
1E22
330
1A
100
AcDbEntity
  8
SEIHIN
  6
Continuous
 62
     3
 48
5.0
100
AcDbLine
 10
179.7667359379901
 20
479.4024754371894
 30
0.0
 11
172.6956655648899
 21
479.7235712464896
 31
0.0
  0
LINE
  5
1E23
330
1A
100
AcDbEntity
  8
SEIHIN
  6
Continuous
 62
     3
 48
5.0
100
AcDbLine
 10
236.69566860469
 20
480.1776710953894
 30
0.0
 11
236.69566902194
 21
477.6069796256392
 31
0.0
  0
LINE
  5
1E24
330
1A
100
AcDbEntity
  8
SEIHIN
  6
Continuous
 62
     3
 48
5.0
100
AcDbLine
 10
238.69567027369
 20
480.1776710953894
 30
0.0
 11
238.69566985644
 21
477.6069796256392
 31
0.0
  0
LINE
  5
1E25
330
1A
100
AcDbEntity
  8
SEIHIN
  6
Continuous
 62
     3
 48
5.0
100
AcDbLine
 10
295.6246029403899
 20
479.4024754371895
 30
0.0
 11
302.6956733134901
 21
479.7235712464897
 31
0.0
  0
LINE
  5
1E26
330
1A
100
AcDbEntity
  8
SEIHIN
  6
Continuous
 62
     3
 48
5.0
100
AcDbLine
 10
312.69566943919
 20
480.2643694399895
 30
0.0
 11
312.69566943919
 21
479.2653988701894
 31
0.0
  0
LINE
  5
1E27
330
1A
100
AcDbEntity
  8
SEIHIN
  6
Continuous
 62
     3
 48
5.0
100
AcDbLine
 10
314.6956694391898
 20
480.2644689193892
 30
0.0
 11
314.6956694391895
 21
479.3894689193895
 31
0.0
  0
LINE
  5
1E28
330
1A
100
AcDbEntity
  8
SEIHIN
  6
Continuous
 62
     3
 48
5.0
100
AcDbLine
 10
332.6956694391898
 20
480.2644689193892
 30
0.0
 11
332.69566943919
 21
479.3894689193887
 31
0.0
  0
ARC
  5
1E29
330
1A
100
AcDbEntity
  8
SEIHIN
  6
Continuous
 62
     3
 48
5.0
100
AcDbCircle
 10
237.6956694391898
 20
438.0285270200893
 30
0.0
 40
35.59999999999991
100
AcDbArc
 50
0.0000000000004071
 51
88.39035626450614
  0
ARC
  5
1E2A
330
1A
100
AcDbEntity
  8
SEIHIN
  6
Continuous
 62
     3
 48
5.0
100
AcDbCircle
 10
237.6956694391902
 20
438.0285270200893
 30
0.0
 40
35.59999999999991
100
AcDbArc
 50
91.60964373549386
 51
180.0
  0
LINE
  5
1E2B
330
1A
100
AcDbEntity
  8
CENTER L
  6
PHANTOM
 62
     4
 48
5.0
100
AcDbLine
 10
195.19566943919
 20
347.7594291213244
 30
0.0
 11
195.1956694391898
 21
488.439468919389
 31
0.0
  0
LINE
  5
1E2C
330
1A
100
AcDbEntity
  8
CENTER L
  6
PHANTOM
 62
     4
 48
5.0
100
AcDbLine
 10
280.19566943919
 20
347.7594291213245
 30
0.0
 11
280.1956694391898
 21
488.4394689193885
 31
0.0
  0
LINE
  5
1E2D
330
1A
100
AcDbEntity
  8
CENTER L
  6
CENTER
 62
     1
 48
5.0
100
AcDbLine
 10
237.69566943919
 20
348.72423749458
 30
0.0
 11
237.6956694391898
 21
498.0606512108051
 31
0.0
  0
INSERT
  5
1E2E
330
1A
100
AcDbEntity
  8
SUNPOU
100
AcDbBlockReference
  2
_OPEN
 10
280.19566943919
 20
331.0609127965586
 30
0.0
 41
7.0
 42
7.0
 43
7.0
 50
180.0
  0
LINE
  5
1E2F
330
1A
100
AcDbEntity
  8
SEIHIN
  6
Continuous
 62
     3
 48
5.0
100
AcDbLine
 10
275.1956723668612
 20
357.2746407296895
 30
0.0
 11
312.6956752945324
 21
357.2746407296895
 31
0.0
  0
LINE
  5
1E30
330
1A
100
AcDbEntity
  8
SEIHIN
  6
Continuous
 62
     3
 48
5.0
100
AcDbLine
 10
237.69566943919
 20
354.8848725284893
 30
0.0
 11
285.19566943919
 21
354.8848725284895
 31
0.0
  0
LINE
  5
1E31
330
1A
100
AcDbEntity
  8
SEIHIN
  6
Continuous
 62
     3
 48
5.0
100
AcDbLine
 10
285.19566943919
 20
374.8791834740892
 30
0.0
 11
237.6956694391902
 21
374.8791834740894
 31
0.0
  0
LINE
  5
1E32
330
1A
100
AcDbEntity
  8
SEIHIN
  6
Continuous
 62
     3
 48
5.0
100
AcDbLine
 10
285.19566943919
 20
378.7942492796894
 30
0.0
 11
237.69566943919
 21
378.7942492796894
 31
0.0
  0
LINE
  5
1E33
330
1A
100
AcDbEntity
  8
SEIHIN
  6
Continuous
 62
     3
 48
5.0
100
AcDbLine
 10
276.1956723598403
 20
360.4637797977891
 30
0.0
 11
314.6956752804902
 21
360.4637797977892
 31
0.0
  0
LINE
  5
1E34
330
1A
100
AcDbEntity
  8
SEIHIN
  6
Continuous
 62
     3
 48
5.0
100
AcDbLine
 10
288.55354001799
 20
396.5652700569895
 30
0.0
 11
263.62460514584
 21
396.5652700569895
 31
0.0
  0
LINE
  5
1E35
330
1A
100
AcDbEntity
  8
SEIHIN
  6
Continuous
 62
     3
 48
5.0
100
AcDbLine
 10
309.49566943919
 20
390.4323616298892
 30
0.0
 11
273.5956694391901
 21
390.4323616298894
 31
0.0
  0
LINE
  5
1E36
330
1A
100
AcDbEntity
  8
SEIHIN
  6
Continuous
 62
     3
 48
5.0
100
AcDbLine
 10
285.19566943919
 20
388.6776698138892
 30
0.0
 11
237.6956694391898
 21
388.6776698138893
 31
0.0
  0
LINE
  5
1E37
330
1A
100
AcDbEntity
  8
SEIHIN
  6
Continuous
 62
     3
 48
5.0
100
AcDbLine
 10
288.55354001799
 20
479.2694751228892
 30
0.0
 11
263.6246051458398
 21
479.2694751228893
 31
0.0
  0
DIMENSION
  5
1E38
330
1A
100
AcDbEntity
  8
SUNPOU
100
AcDbDimension
  2
*D4
 10
280.19566943919
 20
331.0609127965586
 30
0.0
 11
237.69566943919
 21
336.0609127965586
 31
0.0
 70
    32
 71
     5
 42
84.99999999999997
  3
STANDARD
100
AcDbAlignedDimension
 13
195.19566943919
 23
347.7594291213244
 33
0.0
 14
280.19566943919
 24
347.7594291213244
 34
0.0
100
AcDbRotatedDimension
1001
ACAD
1000
DSTYLE
1002
{
1070
    41
1040
7.0
1070
    42
1040
6.0
1070
    43
1040
14.0
1070
    44
1040
3.0
1070
    73
1070
     0
1070
    74
1070
     0
1070
    77
1070
     3
1070
   140
1040
6.0
1070
   141
1040
150.0
1070
   147
1040
2.0
1070
   172
1070
     1
1070
   173
1070
     1
1070
   176
1070
   256
1070
   177
1070
   256
1070
   178
1070
   256
1070
   271
1070
     0
1070
   272
1070
     0
1070
   341
1005
6D
1070
     6
1000
OPEN
1070
     7
1000
OPEN
1070
   371
1070
    -1
1070
   372
1070
    -1
1002
}
  0
LINE
  5
1E39
330
1A
100
AcDbEntity
  8
SEIHIN
  6
Continuous
 62
     3
 48
5.0
100
AcDbLine
 10
237.6956694391902
 20
354.8848725284893
 30
0.0
 11
190.1956694391902
 21
354.8848725284893
 31
0.0
  0
LINE
  5
1E3A
330
1A
100
AcDbEntity
  8
SEIHIN
  6
Continuous
 62
     3
 48
5.0
100
AcDbLine
 10
237.69566943919
 20
360.463779797789
 30
0.0
 11
199.1956665185399
 21
360.4637797977892
 31
0.0
  0
LINE
  5
1E3B
330
1A
100
AcDbEntity
  8
SEIHIN
  6
Continuous
 62
     3
 48
5.0
100
AcDbLine
 10
237.69566943919
 20
357.2746407296896
 30
0.0
 11
200.1956665115191
 21
357.2746407296896
 31
0.0
  0
LINE
  5
1E3C
330
1A
100
AcDbEntity
  8
SEIHIN
  6
Continuous
 62
     3
 48
5.0
100
AcDbLine
 10
190.1956694391902
 20
378.7942492796893
 30
0.0
 11
237.6956694391902
 21
378.7942492796894
 31
0.0
  0
LINE
  5
1E3D
330
1A
100
AcDbEntity
  8
SEIHIN
  6
Continuous
 62
     3
 48
5.0
100
AcDbLine
 10
190.1956694391902
 20
374.8791834740891
 30
0.0
 11
237.69566943919
 21
374.8791834740894
 31
0.0
  0
LINE
  5
1E3E
330
1A
100
AcDbEntity
  8
SEIHIN
  6
Continuous
 62
     3
 48
5.0
100
AcDbLine
 10
200.1956665115191
 20
357.2746407296896
 30
0.0
 11
162.6956635838479
 21
357.2746407296893
 31
0.0
  0
LINE
  5
1E3F
330
1A
100
AcDbEntity
  8
SEIHIN
  6
Continuous
 62
     3
 48
5.0
100
AcDbLine
 10
199.1956665185399
 20
360.4637797977892
 30
0.0
 11
160.69566359789
 21
360.4637797977892
 31
0.0
  0
LINE
  5
1E40
330
1A
100
AcDbEntity
  8
SEIHIN
  6
Continuous
 62
     3
 48
5.0
100
AcDbLine
 10
160.6956694391905
 20
365.3776698138886
 30
0.0
 11
160.6956665115197
 21
362.3261562312048
 31
0.0
  0
LINE
  5
1E41
330
1A
100
AcDbEntity
  8
SEIHIN
  6
Continuous
 62
     3
 48
5.0
100
AcDbLine
 10
160.6956665115197
 20
362.3261562312048
 30
0.0
 11
160.6956635838488
 21
359.2746426485213
 31
0.0
  0
ARC
  5
1E42
330
1A
100
AcDbEntity
  8
SEIHIN
  6
Continuous
 62
     3
 48
5.0
100
AcDbCircle
 10
162.6956635838479
 20
359.2746407296894
 30
0.0
 40
2.000000000000011
100
AcDbArc
 50
179.9999450295153
 51
224.9999725147656
  0
ARC
  5
1E43
330
1A
100
AcDbEntity
  8
SEIHIN
  6
Continuous
 62
     3
 48
5.0
100
AcDbCircle
 10
162.6956635838479
 20
359.2746407296894
 30
0.0
 40
2.000000000000005
100
AcDbArc
 50
224.9999725147656
 51
270.0
  0
LINE
  5
1E44
330
1A
100
AcDbEntity
  8
SEIHIN
  6
Continuous
 62
     3
 48
5.0
100
AcDbLine
 10
160.6956694391905
 20
365.3776698138886
 30
0.0
 11
151.6956694391902
 21
365.3776698138891
 31
0.0
  0
LINE
  5
1E45
330
1A
100
AcDbEntity
  8
SEIHIN
  6
Continuous
 62
     3
 48
5.0
100
AcDbLine
 10
151.6956694391902
 20
369.7053958534887
 30
0.0
 11
160.6956694391907
 21
369.7053958534885
 31
0.0
  0
LINE
  5
1E46
330
1A
100
AcDbEntity
  8
SEIHIN
  6
Continuous
 62
     3
 48
5.0
100
AcDbLine
 10
160.6956694391907
 20
369.1038170369885
 30
0.0
 11
151.6956694391907
 21
369.1038170369889
 31
0.0
  0
LINE
  5
1E47
330
1A
100
AcDbEntity
  8
SEIHIN
  6
Continuous
 62
     3
 48
5.0
100
AcDbLine
 10
160.6956694391902
 20
369.4552337088892
 30
0.0
 11
160.6956694391905
 21
369.5803147811888
 31
0.0
  0
LINE
  5
1E48
330
1A
100
AcDbEntity
  8
SEIHIN
  6
Continuous
 62
     3
 48
5.0
100
AcDbLine
 10
160.6956694391905
 20
369.2795253729387
 30
0.0
 11
160.6956694391907
 21
369.1038170369885
 31
0.0
  0
LINE
  5
1E49
330
1A
100
AcDbEntity
  8
SEIHIN
  6
Continuous
 62
     3
 48
5.0
100
AcDbLine
 10
160.6956694391902
 20
369.4552337088892
 30
0.0
 11
160.6956694391905
 21
369.2795253729387
 31
0.0
  0
LINE
  5
1E4A
330
1A
100
AcDbEntity
  8
SEIHIN
  6
Continuous
 62
     3
 48
5.0
100
AcDbLine
 10
160.6956694391905
 20
366.5491386606387
 30
0.0
 11
160.6956694391905
 21
365.3776698138886
 31
0.0
  0
LINE
  5
1E4B
330
1A
100
AcDbEntity
  8
SEIHIN
  6
Continuous
 62
     3
 48
5.0
100
AcDbLine
 10
160.6956694391905
 20
367.7206075073889
 30
0.0
 11
160.6956694391905
 21
366.5491386606387
 31
0.0
  0
LINE
  5
1E4C
330
1A
100
AcDbEntity
  8
SEIHIN
  6
Continuous
 62
     3
 48
5.0
100
AcDbLine
 10
160.6956694391907
 20
368.4122122721886
 30
0.0
 11
160.6956694391907
 21
369.1038170369885
 31
0.0
  0
LINE
  5
1E4D
330
1A
100
AcDbEntity
  8
SEIHIN
  6
Continuous
 62
     3
 48
5.0
100
AcDbLine
 10
160.6956694391905
 20
367.7206075073889
 30
0.0
 11
160.6956694391907
 21
368.4122122721886
 31
0.0
  0
LINE
  5
1E4E
330
1A
100
AcDbEntity
  8
SEIHIN
  6
Continuous
 62
     3
 48
5.0
100
AcDbLine
 10
160.6956694391905
 20
369.5803147811888
 30
0.0
 11
160.6956694391907
 21
369.7053958534885
 31
0.0
  0
LINE
  5
1E4F
330
1A
100
AcDbEntity
  8
SUNPOU
100
AcDbLine
 10
280.19566943919
 20
341.7594291213244
 30
0.0
 11
280.19566943919
 21
328.0609127965586
 31
0.0
  0
LINE
  5
1E50
330
1A
100
AcDbEntity
  8
SEIHIN
  6
Continuous
 62
     3
 48
5.0
100
AcDbLine
 10
237.6956694391902
 20
357.2746407296896
 30
0.0
 11
275.1956723668612
 21
357.2746407296895
 31
0.0
  0
LINE
  5
1E51
330
1A
100
AcDbEntity
  8
SEIHIN
  6
Continuous
 62
     3
 48
5.0
100
AcDbLine
 10
237.6956694391902
 20
360.4637797977891
 30
0.0
 11
276.1956723598403
 21
360.4637797977891
 31
0.0
  0
ARC
  5
1E52
330
1A
100
AcDbEntity
  8
SEIHIN
  6
Continuous
 62
     3
 48
5.0
100
AcDbCircle
 10
237.6956694391902
 20
438.0285270200893
 30
0.0
 40
31.36666666669936
100
AcDbArc
 50
180.0
 51
270.0
  0
ARC
  5
1E53
330
1A
100
AcDbEntity
  8
SEIHIN
  6
Continuous
 62
     3
 48
5.0
100
AcDbCircle
 10
237.6956694391902
 20
438.0285270200893
 30
0.0
 40
26.69999999999931
100
AcDbArc
 50
180.0000000000004
 51
270.0
  0
ARC
  5
1E54
330
1A
100
AcDbEntity
  8
SEIHIN
  6
Continuous
 62
     3
 48
5.0
100
AcDbCircle
 10
237.6956694391902
 20
438.0285270200893
 30
0.0
 40
29.15000000000003
100
AcDbArc
 50
180.0000000000004
 51
270.0
  0
ARC
  5
1E55
330
1A
100
AcDbEntity
  8
SEIHIN
  6
Continuous
 62
     3
 48
5.0
100
AcDbCircle
 10
237.6956694391902
 20
438.0285270200893
 30
0.0
 40
35.59999999999918
100
AcDbArc
 50
180.0
 51
268.3903562645062
  0
LINE
  5
1E56
330
1A
100
AcDbEntity
  8
CENTER L
  6
CENTER
 62
     1
 48
5.0
100
AcDbLine
 10
279.6348226249773
 20
438.0285270200894
 30
0.0
 11
194.8207221949754
 21
438.0285270200888
 31
0.0
  0
LINE
  5
1E57
330
1A
100
AcDbEntity
  8
SEIHIN
  6
Continuous
 62
     3
 48
5.0
100
AcDbLine
 10
211.7667337325402
 20
479.2694751228893
 30
0.0
 11
236.6956686046904
 21
479.2694751228896
 31
0.0
  0
ARC
  5
1E58
330
1A
100
AcDbEntity
  8
SEIHIN
  6
Continuous
 62
     3
 48
5.0
100
AcDbCircle
 10
237.6956694391902
 20
438.0285270200893
 30
0.0
 40
31.36666666669998
100
AcDbArc
 50
90.0
 51
180.0
  0
ARC
  5
1E59
330
1A
100
AcDbEntity
  8
SEIHIN
  6
Continuous
 62
     3
 48
5.0
100
AcDbCircle
 10
237.6956694391902
 20
438.0285270200893
 30
0.0
 40
26.70000000000005
100
AcDbArc
 50
90.0
 51
180.0000000000004
  0
ARC
  5
1E5A
330
1A
100
AcDbEntity
  8
SEIHIN
  6
Continuous
 62
     3
 48
5.0
100
AcDbCircle
 10
237.6956694391902
 20
438.0285270200893
 30
0.0
 40
29.14999999999998
100
AcDbArc
 50
90.0
 51
180.0000000000004
  0
LINE
  5
1E5B
330
1A
100
AcDbEntity
  8
SEIHIN
  6
Continuous
 62
     3
 48
5.0
100
AcDbLine
 10
190.1956694391902
 20
388.6776698138892
 30
0.0
 11
237.6956694391905
 21
388.6776698138893
 31
0.0
  0
LINE
  5
1E5C
330
1A
100
AcDbEntity
  8
SEIHIN
  6
Continuous
 62
     3
 48
5.0
100
AcDbLine
 10
201.7956694391901
 20
390.4323616298893
 30
0.0
 11
237.6956694391902
 21
390.4323616298896
 31
0.0
  0
LINE
  5
1E5D
330
1A
100
AcDbEntity
  8
SEIHIN
  6
Continuous
 62
     3
 48
5.0
100
AcDbLine
 10
211.7667337325402
 20
396.5652700569895
 30
0.0
 11
236.6956686046902
 21
396.5652700569895
 31
0.0
  0
LINE
  5
1E5E
330
1A
100
AcDbEntity
  8
SEIHIN
  6
Continuous
 62
     3
 48
5.0
100
AcDbLine
 10
186.8377988603903
 20
396.5652700569894
 30
0.0
 11
186.83779886039
 21
437.9173725899393
 31
0.0
  0
LINE
  5
1E5F
330
1A
100
AcDbEntity
  8
SEIHIN
  6
Continuous
 62
     3
 48
5.0
100
AcDbLine
 10
162.6956694391902
 20
392.4122606172892
 30
0.0
 11
162.69566943919
 21
435.3393444588392
 31
0.0
  0
LINE
  5
1E60
330
1A
100
AcDbEntity
  8
SEIHIN
  6
Continuous
 62
     3
 48
5.0
100
AcDbLine
 10
181.2821095255904
 20
396.3245119954894
 30
0.0
 11
183.0109720495908
 21
396.4565251078888
 31
0.0
  0
LINE
  5
1E61
330
1A
100
AcDbEntity
  8
SEIHIN
  6
Continuous
 62
     3
 48
5.0
100
AcDbLine
 10
165.8956694391903
 20
390.4323616298891
 30
0.0
 11
201.7956694391901
 21
390.4323616298893
 31
0.0
  0
LINE
  5
1E62
330
1A
100
AcDbEntity
  8
SEIHIN
  6
Continuous
 62
     3
 48
5.0
100
AcDbLine
 10
165.6245951917902
 20
394.126546015989
 30
0.0
 11
172.6956655648901
 21
395.1366994585891
 31
0.0
  0
LINE
  5
1E63
330
1A
100
AcDbEntity
  8
SEIHIN
  6
Continuous
 62
     3
 48
5.0
100
AcDbLine
 10
152.6956694391905
 20
390.4323616298893
 30
0.0
 11
162.6956694391905
 21
390.4323616298893
 31
0.0
  0
LINE
  5
1E64
330
1A
100
AcDbEntity
  8
SEIHIN
  6
Continuous
 62
     3
 48
5.0
100
AcDbLine
 10
165.6956694391905
 20
393.0114989195897
 30
0.0
 11
165.6956694391905
 21
392.4188782865894
 31
0.0
  0
LINE
  5
1E65
330
1A
100
AcDbEntity
  8
SEIHIN
  6
Continuous
 62
     3
 48
5.0
100
AcDbLine
 10
165.4367660549902
 20
394.1004056538897
 30
0.0
 11
165.6245951917902
 21
394.126546015989
 31
0.0
  0
LINE
  5
1E66
330
1A
100
AcDbEntity
  8
SEIHIN
  6
Continuous
 62
     3
 48
5.0
100
AcDbLine
 10
165.2441983488903
 20
394.0749805476887
 30
0.0
 11
165.4367660549902
 21
394.1004056538897
 31
0.0
  0
LINE
  5
1E67
330
1A
100
AcDbEntity
  8
SEIHIN
  6
Continuous
 62
     3
 48
5.0
100
AcDbLine
 10
165.0470261839903
 20
394.0502855982899
 30
0.0
 11
165.2441983488903
 21
394.0749805476887
 31
0.0
  0
LINE
  5
1E68
330
1A
100
AcDbEntity
  8
SEIHIN
  6
Continuous
 62
     3
 48
5.0
100
AcDbLine
 10
163.1327932146904
 20
393.5458812918887
 30
0.0
 11
162.6956676510905
 21
393.384594848389
 31
0.0
  0
LINE
  5
1E69
330
1A
100
AcDbEntity
  8
SEIHIN
  6
Continuous
 62
     3
 48
5.0
100
AcDbLine
 10
165.0470261839903
 20
394.0502855982899
 30
0.0
 11
163.1327932146904
 21
393.5458812918887
 31
0.0
  0
LINE
  5
1E6A
330
1A
100
AcDbEntity
  8
SEIHIN
  6
Continuous
 62
     3
 48
5.0
100
AcDbLine
 10
165.7183383968898
 20
393.16223972109
 30
0.0
 11
165.6956737306903
 21
393.0114995743893
 31
0.0
  0
LINE
  5
1E6B
330
1A
100
AcDbEntity
  8
SEIHIN
  6
Continuous
 62
     3
 48
5.0
100
AcDbLine
 10
165.7635038164902
 20
393.2523433174888
 30
0.0
 11
165.7183383968898
 21
393.16223972109
 31
0.0
  0
LINE
  5
1E6C
330
1A
100
AcDbEntity
  8
SEIHIN
  6
Continuous
 62
     3
 48
5.0
100
AcDbLine
 10
164.2295857337902
 20
393.252343317489
 30
0.0
 11
165.7635038164902
 21
393.2523433174888
 31
0.0
  0
LINE
  5
1E6D
330
1A
100
AcDbEntity
  8
SEIHIN
  6
Continuous
 62
     3
 48
5.0
100
AcDbLine
 10
162.6956676510902
 20
393.2523433174893
 30
0.0
 11
164.2295857337902
 21
393.252343317489
 31
0.0
  0
LINE
  5
1E6E
330
1A
100
AcDbEntity
  8
SEIHIN
  6
Continuous
 62
     3
 48
5.0
100
AcDbLine
 10
165.8929800060908
 20
390.4335688855887
 30
0.0
 11
165.89566221509
 21
390.432361891489
 31
0.0
  0
LINE
  5
1E6F
330
1A
100
AcDbEntity
  8
SEIHIN
  6
Continuous
 62
     3
 48
5.0
100
AcDbLine
 10
165.7475446728902
 20
390.5054073836889
 30
0.0
 11
165.8929800060908
 21
390.4335688855887
 31
0.0
  0
LINE
  5
1E70
330
1A
100
AcDbEntity
  8
SEIHIN
  6
Continuous
 62
     3
 48
5.0
100
AcDbLine
 10
162.6956694391902
 20
391.4223111235893
 30
0.0
 11
162.6956694391902
 21
392.4122606172892
 31
0.0
  0
LINE
  5
1E71
330
1A
100
AcDbEntity
  8
SEIHIN
  6
Continuous
 62
     3
 48
5.0
100
AcDbLine
 10
162.6956694391905
 20
390.4323616298893
 30
0.0
 11
162.6956694391902
 21
391.4223111235893
 31
0.0
  0
LINE
  5
1E72
330
1A
100
AcDbEntity
  8
SEIHIN
  6
Continuous
 62
     3
 48
5.0
100
AcDbLine
 10
165.6956694391905
 20
391.1941170487391
 30
0.0
 11
165.6956694391905
 21
390.5619764438892
 31
0.0
  0
LINE
  5
1E73
330
1A
100
AcDbEntity
  8
SEIHIN
  6
Continuous
 62
     3
 48
5.0
100
AcDbLine
 10
165.6956694391905
 20
391.826257653589
 30
0.0
 11
165.6956694391905
 21
391.1941170487391
 31
0.0
  0
LINE
  5
1E74
330
1A
100
AcDbEntity
  8
SEIHIN
  6
Continuous
 62
     3
 48
5.0
100
AcDbLine
 10
164.1956706908903
 20
390.7490972484894
 30
0.0
 11
162.6956676510905
 21
390.7490972484893
 31
0.0
  0
LINE
  5
1E75
330
1A
100
AcDbEntity
  8
SEIHIN
  6
Continuous
 62
     3
 48
5.0
100
AcDbLine
 10
165.6956737306901
 20
390.7490972484894
 30
0.0
 11
164.1956706908903
 21
390.7490972484894
 31
0.0
  0
LINE
  5
1E76
330
1A
100
AcDbEntity
  8
SEIHIN
  6
Continuous
 62
     3
 48
5.0
100
AcDbLine
 10
165.6956694391905
 20
392.4188782865894
 30
0.0
 11
165.6956694391905
 21
391.826257653589
 31
0.0
  0
LINE
  5
1E77
330
1A
100
AcDbEntity
  8
SEIHIN
  6
Continuous
 62
     3
 48
5.0
100
AcDbLine
 10
165.6956737306903
 20
390.5619759168889
 30
0.0
 11
165.7475446728902
 21
390.5054073836889
 31
0.0
  0
LINE
  5
1E78
330
1A
100
AcDbEntity
  8
SEIHIN
  6
Continuous
 62
     3
 48
5.0
100
AcDbLine
 10
172.6956655648901
 20
395.1366994585891
 30
0.0
 11
179.7667359379903
 21
396.1468529011893
 31
0.0
  0
LINE
  5
1E79
330
1A
100
AcDbEntity
  8
SEIHIN
  6
Continuous
 62
     3
 48
5.0
100
AcDbLine
 10
179.7667359379903
 20
396.1468529011893
 30
0.0
 11
181.2821095255904
 21
396.3245119954894
 31
0.0
  0
LINE
  5
1E7A
330
1A
100
AcDbEntity
  8
SEIHIN
  6
Continuous
 62
     3
 48
5.0
100
AcDbLine
 10
186.8377988603903
 20
396.5652700569894
 30
0.0
 11
211.7667337325402
 21
396.5652700569895
 31
0.0
  0
LINE
  5
1E7B
330
1A
100
AcDbEntity
  8
SEIHIN
  6
Continuous
 62
     3
 48
5.0
100
AcDbLine
 10
184.8869090345903
 20
396.5378221179892
 30
0.0
 11
186.8377988603903
 21
396.5652700569894
 31
0.0
  0
LINE
  5
1E7C
330
1A
100
AcDbEntity
  8
SEIHIN
  6
Continuous
 62
     3
 48
5.0
100
AcDbLine
 10
183.0109720495908
 20
396.4565251078888
 30
0.0
 11
184.8869090345903
 21
396.5378221179892
 31
0.0
  0
LINE
  5
1E7D
330
1A
100
AcDbEntity
  8
SEIHIN
  6
Continuous
 62
     3
 48
5.0
100
AcDbLine
 10
183.0109720495896
 20
479.304042091589
 30
0.0
 11
181.2821095255902
 21
479.3460037614899
 31
0.0
  0
LINE
  5
1E7E
330
1A
100
AcDbEntity
  8
SEIHIN
  6
Continuous
 62
     3
 48
5.0
100
AcDbLine
 10
162.69566943919
 20
435.3393444588392
 30
0.0
 11
162.6956694391902
 21
478.2664283003892
 31
0.0
  0
LINE
  5
1E7F
330
1A
100
AcDbEntity
  8
SEIHIN
  6
Continuous
 62
     3
 48
5.0
100
AcDbLine
 10
160.6956694391905
 20
479.3894689193894
 30
0.0
 11
151.6956694391902
 21
479.389468919389
 31
0.0
  0
LINE
  5
1E80
330
1A
100
AcDbEntity
  8
SEIHIN
  6
Continuous
 62
     3
 48
5.0
100
AcDbLine
 10
162.69566943919
 20
479.2653988701893
 30
0.0
 11
162.6956694391902
 21
478.2664283003892
 31
0.0
  0
LINE
  5
1E81
330
1A
100
AcDbEntity
  8
SEIHIN
  6
Continuous
 62
     3
 48
5.0
100
AcDbLine
 10
181.2821095255902
 20
479.3460037614899
 30
0.0
 11
179.7667359379901
 21
479.4024754371894
 31
0.0
  0
LINE
  5
1E82
330
1A
100
AcDbEntity
  8
SEIHIN
  6
Continuous
 62
     3
 48
5.0
100
AcDbLine
 10
186.83779886039
 20
437.9173725899393
 30
0.0
 11
186.83779886039
 21
479.2694751228891
 31
0.0
  0
LINE
  5
1E83
330
1A
100
AcDbEntity
  8
SEIHIN
  6
Continuous
 62
     3
 48
5.0
100
AcDbLine
 10
186.83779886039
 20
479.2694751228891
 30
0.0
 11
211.7667337325402
 21
479.2694751228893
 31
0.0
  0
LINE
  5
1E84
330
1A
100
AcDbEntity
  8
SEIHIN
  6
Continuous
 62
     3
 48
5.0
100
AcDbLine
 10
184.88690903459
 20
479.2781997527895
 30
0.0
 11
183.0109720495896
 21
479.304042091589
 31
0.0
  0
LINE
  5
1E85
330
1A
100
AcDbEntity
  8
SEIHIN
  6
Continuous
 62
     3
 48
5.0
100
AcDbLine
 10
186.83779886039
 20
479.2694751228891
 30
0.0
 11
184.88690903459
 21
479.2781997527895
 31
0.0
  0
ARC
  5
1E86
330
1A
100
AcDbEntity
  8
SEIHIN
  6
Continuous
 62
     3
 48
5.0
100
AcDbCircle
 10
237.6956694391898
 20
438.0285270200893
 30
0.0
 40
35.59999999999918
100
AcDbArc
 50
271.6096437354938
 51
0.0000000000004071
  0
ARC
  5
1E87
330
1A
100
AcDbEntity
  8
SEIHIN
  6
Continuous
 62
     3
 48
5.0
100
AcDbCircle
 10
237.6956694391898
 20
438.0285270200893
 30
0.0
 40
29.15000000000003
100
AcDbArc
 50
270.0
 51
359.9999999999996
  0
ARC
  5
1E88
330
1A
100
AcDbEntity
  8
SEIHIN
  6
Continuous
 62
     3
 48
5.0
100
AcDbCircle
 10
237.6956694391898
 20
438.0285270200893
 30
0.0
 40
26.69999999999931
100
AcDbArc
 50
270.0
 51
359.9999999999996
  0
ARC
  5
1E89
330
1A
100
AcDbEntity
  8
SEIHIN
  6
Continuous
 62
     3
 48
5.0
100
AcDbCircle
 10
237.6956694391898
 20
438.0285270200893
 30
0.0
 40
31.36666666669936
100
AcDbArc
 50
270.0
 51
0.0
  0
LINE
  5
1E8A
330
1A
100
AcDbEntity
  8
SEIHIN
  6
Continuous
 62
     3
 48
5.0
100
AcDbLine
 10
263.62460514584
 20
396.5652700569895
 30
0.0
 11
238.69567027369
 21
396.5652700569895
 31
0.0
  0
LINE
  5
1E8B
330
1A
100
AcDbEntity
  8
SEIHIN
  6
Continuous
 62
     3
 48
5.0
100
AcDbLine
 10
273.5956694391901
 20
390.4323616298894
 30
0.0
 11
237.69566943919
 21
390.4323616298896
 31
0.0
  0
LINE
  5
1E8C
330
1A
100
AcDbEntity
  8
SEIHIN
  6
Continuous
 62
     3
 48
5.0
100
AcDbLine
 10
236.69566943919
 20
397.1671565097894
 30
0.0
 11
236.6956694391902
 21
398.6520807502397
 31
0.0
  0
LINE
  5
1E8D
330
1A
100
AcDbEntity
  8
SEIHIN
  6
Continuous
 62
     3
 48
5.0
100
AcDbLine
 10
238.6956694391902
 20
397.1671565097894
 30
0.0
 11
238.69566943919
 21
398.6520807502397
 31
0.0
  0
LINE
  5
1E8E
330
1A
100
AcDbEntity
  8
SEIHIN
  6
Continuous
 62
     3
 48
5.0
100
AcDbLine
 10
237.19566943919
 20
392.4122606172891
 30
0.0
 11
236.6956694391898
 21
392.4122606172894
 31
0.0
  0
LINE
  5
1E8F
330
1A
100
AcDbEntity
  8
SEIHIN
  6
Continuous
 62
     3
 48
5.0
100
AcDbLine
 10
236.69566943919
 20
397.1671565097894
 30
0.0
 11
236.6956694391898
 21
394.7897085635394
 31
0.0
  0
LINE
  5
1E90
330
1A
100
AcDbEntity
  8
SEIHIN
  6
Continuous
 62
     3
 48
5.0
100
AcDbLine
 10
236.6956694391898
 20
394.7897085635394
 30
0.0
 11
236.6956694391898
 21
392.4122606172895
 31
0.0
  0
LINE
  5
1E91
330
1A
100
AcDbEntity
  8
SEIHIN
  6
Continuous
 62
     3
 48
5.0
100
AcDbLine
 10
237.6956694391902
 20
392.4122606172887
 30
0.0
 11
236.6956694391898
 21
392.4122606172895
 31
0.0
  0
LINE
  5
1E92
330
1A
100
AcDbEntity
  8
SEIHIN
  6
Continuous
 62
     3
 48
5.0
100
AcDbLine
 10
237.69566943919
 20
392.4122606172887
 30
0.0
 11
238.6956694391905
 21
392.4122606172895
 31
0.0
  0
LINE
  5
1E93
330
1A
100
AcDbEntity
  8
SEIHIN
  6
Continuous
 62
     3
 48
5.0
100
AcDbLine
 10
238.6956694391905
 20
394.7897085635394
 30
0.0
 11
238.6956694391905
 21
392.4122606172895
 31
0.0
  0
LINE
  5
1E94
330
1A
100
AcDbEntity
  8
SEIHIN
  6
Continuous
 62
     3
 48
5.0
100
AcDbLine
 10
238.6956694391902
 20
397.1671565097894
 30
0.0
 11
238.6956694391905
 21
394.7897085635394
 31
0.0
  0
LINE
  5
1E95
330
1A
100
AcDbEntity
  8
SEIHIN
  6
Continuous
 62
     3
 48
5.0
100
AcDbLine
 10
238.1956694391902
 20
392.4122606172891
 30
0.0
 11
238.6956694391905
 21
392.4122606172894
 31
0.0
  0
LINE
  5
1E96
330
1A
100
AcDbEntity
  8
SEIHIN
  6
Continuous
 62
     3
 48
5.0
100
AcDbLine
 10
236.6956686046904
 20
402.6267904843894
 30
0.0
 11
236.6956690219404
 21
401.3818977375397
 31
0.0
  0
LINE
  5
1E97
330
1A
100
AcDbEntity
  8
SEIHIN
  6
Continuous
 62
     3
 48
5.0
100
AcDbLine
 10
238.6956702736898
 20
402.6267904843894
 30
0.0
 11
238.6956698564398
 21
401.3818977375397
 31
0.0
  0
LINE
  5
1E98
330
1A
100
AcDbEntity
  8
SEIHIN
  6
Continuous
 62
     3
 48
5.0
100
AcDbLine
 10
237.19566902194
 20
402.6267904843892
 30
0.0
 11
237.6956694391898
 21
402.6267904843891
 31
0.0
  0
LINE
  5
1E99
330
1A
100
AcDbEntity
  8
SEIHIN
  6
Continuous
 62
     3
 48
5.0
100
AcDbLine
 10
236.6956686046904
 20
402.6267904843894
 30
0.0
 11
237.19566902194
 21
402.6267904843892
 31
0.0
  0
LINE
  5
1E9A
330
1A
100
AcDbEntity
  8
SEIHIN
  6
Continuous
 62
     3
 48
5.0
100
AcDbLine
 10
238.6956702736898
 20
402.6267904843894
 30
0.0
 11
238.1956698564403
 21
402.6267904843892
 31
0.0
  0
LINE
  5
1E9B
330
1A
100
AcDbEntity
  8
SEIHIN
  6
Continuous
 62
     3
 48
5.0
100
AcDbLine
 10
238.1956698564403
 20
402.6267904843892
 30
0.0
 11
237.6956694391905
 21
402.6267904843891
 31
0.0
  0
LINE
  5
1E9C
330
1A
100
AcDbEntity
  8
SEIHIN
  6
Continuous
 62
     3
 48
5.0
100
AcDbLine
 10
236.6956690219404
 20
401.3818977375397
 30
0.0
 11
236.6956694391905
 21
400.13700499069
 31
0.0
  0
LINE
  5
1E9D
330
1A
100
AcDbEntity
  8
SEIHIN
  6
Continuous
 62
     3
 48
5.0
100
AcDbLine
 10
236.6956694391902
 20
398.6520807502397
 30
0.0
 11
236.6956694391905
 21
400.13700499069
 31
0.0
  0
LINE
  5
1E9E
330
1A
100
AcDbEntity
  8
SEIHIN
  6
Continuous
 62
     3
 48
5.0
100
AcDbLine
 10
237.1956694391902
 20
400.1370049906896
 30
0.0
 11
236.6956694391905
 21
400.13700499069
 31
0.0
  0
LINE
  5
1E9F
330
1A
100
AcDbEntity
  8
SEIHIN
  6
Continuous
 62
     3
 48
5.0
100
AcDbLine
 10
237.69566943919
 20
400.1370049906893
 30
0.0
 11
237.1956694391902
 21
400.1370049906896
 31
0.0
  0
LINE
  5
1EA0
330
1A
100
AcDbEntity
  8
SEIHIN
  6
Continuous
 62
     3
 48
5.0
100
AcDbLine
 10
237.6956694391902
 20
400.1370049906893
 30
0.0
 11
238.19566943919
 21
400.1370049906896
 31
0.0
  0
LINE
  5
1EA1
330
1A
100
AcDbEntity
  8
SEIHIN
  6
Continuous
 62
     3
 48
5.0
100
AcDbLine
 10
238.19566943919
 20
400.1370049906896
 30
0.0
 11
238.6956694391898
 21
400.13700499069
 31
0.0
  0
LINE
  5
1EA2
330
1A
100
AcDbEntity
  8
SEIHIN
  6
Continuous
 62
     3
 48
5.0
100
AcDbLine
 10
238.69566943919
 20
398.6520807502397
 30
0.0
 11
238.6956694391898
 21
400.13700499069
 31
0.0
  0
LINE
  5
1EA3
330
1A
100
AcDbEntity
  8
SEIHIN
  6
Continuous
 62
     3
 48
5.0
100
AcDbLine
 10
238.6956698564398
 20
401.3818977375397
 30
0.0
 11
238.6956694391898
 21
400.13700499069
 31
0.0
  0
LINE
  5
1EA4
330
1A
100
AcDbEntity
  8
SEIHIN
  6
Continuous
 62
     3
 48
5.0
100
AcDbLine
 10
263.6246051458398
 20
479.2694751228893
 30
0.0
 11
238.6956702736896
 21
479.2694751228896
 31
0.0
  0
ARC
  5
1EA5
330
1A
100
AcDbEntity
  8
SEIHIN
  6
Continuous
 62
     3
 48
5.0
100
AcDbCircle
 10
237.6956694391898
 20
438.0285270200893
 30
0.0
 40
29.14999999999998
100
AcDbArc
 50
359.9999999999996
 51
90.0
  0
ARC
  5
1EA6
330
1A
100
AcDbEntity
  8
SEIHIN
  6
Continuous
 62
     3
 48
5.0
100
AcDbCircle
 10
237.6956694391898
 20
438.0285270200893
 30
0.0
 40
26.70000000000005
100
AcDbArc
 50
359.9999999999996
 51
90.0
  0
ARC
  5
1EA7
330
1A
100
AcDbEntity
  8
SEIHIN
  6
Continuous
 62
     3
 48
5.0
100
AcDbCircle
 10
237.6956694391898
 20
438.0285270200893
 30
0.0
 40
31.36666666669998
100
AcDbArc
 50
0.0
 51
90.0
  0
LINE
  5
1EA8
330
1A
100
AcDbEntity
  8
SEIHIN
  6
Continuous
 62
     3
 48
5.0
100
AcDbLine
 10
236.69566943919
 20
473.5378323011894
 30
0.0
 11
236.69566943919
 21
475.0362881558891
 31
0.0
  0
LINE
  5
1EA9
330
1A
100
AcDbEntity
  8
SEIHIN
  6
Continuous
 62
     3
 48
5.0
100
AcDbLine
 10
236.69566943919
 20
472.0393764464897
 30
0.0
 11
236.69566943919
 21
473.5378323011894
 31
0.0
  0
LINE
  5
1EAA
330
1A
100
AcDbEntity
  8
SEIHIN
  6
Continuous
 62
     3
 48
5.0
100
AcDbLine
 10
236.6956690219398
 20
471.6323416081394
 30
0.0
 11
236.6956686046897
 21
471.2253067697891
 31
0.0
  0
LINE
  5
1EAB
330
1A
100
AcDbEntity
  8
SEIHIN
  6
Continuous
 62
     3
 48
5.0
100
AcDbLine
 10
236.69566943919
 20
472.0393764464897
 30
0.0
 11
236.6956690219398
 21
471.6323416081394
 31
0.0
  0
LINE
  5
1EAC
330
1A
100
AcDbEntity
  8
SEIHIN
  6
Continuous
 62
     3
 48
5.0
100
AcDbLine
 10
236.69566902194
 20
477.6069796256392
 30
0.0
 11
236.69566943919
 21
475.0362881558891
 31
0.0
  0
LINE
  5
1EAD
330
1A
100
AcDbEntity
  8
SEIHIN
  6
Continuous
 62
     3
 48
5.0
100
AcDbLine
 10
237.1956690219398
 20
471.2253067697893
 30
0.0
 11
236.6956686046897
 21
471.2253067697891
 31
0.0
  0
LINE
  5
1EAE
330
1A
100
AcDbEntity
  8
SEIHIN
  6
Continuous
 62
     3
 48
5.0
100
AcDbLine
 10
237.6956694391895
 20
471.2253067697894
 30
0.0
 11
237.1956690219398
 21
471.2253067697893
 31
0.0
  0
LINE
  5
1EAF
330
1A
100
AcDbEntity
  8
SEIHIN
  6
Continuous
 62
     3
 48
5.0
100
AcDbLine
 10
237.19566943919
 20
475.0362881558895
 30
0.0
 11
236.69566943919
 21
475.0362881558891
 31
0.0
  0
LINE
  5
1EB0
330
1A
100
AcDbEntity
  8
SEIHIN
  6
Continuous
 62
     3
 48
5.0
100
AcDbLine
 10
237.6956694391898
 20
475.03628815589
 30
0.0
 11
237.19566943919
 21
475.0362881558895
 31
0.0
  0
LINE
  5
1EB1
330
1A
100
AcDbEntity
  8
SEIHIN
  6
Continuous
 62
     3
 48
5.0
100
AcDbLine
 10
237.19566943919
 20
472.0393764464895
 30
0.0
 11
237.69566943919
 21
472.0393764464893
 31
0.0
  0
LINE
  5
1EB2
330
1A
100
AcDbEntity
  8
SEIHIN
  6
Continuous
 62
     3
 48
5.0
100
AcDbLine
 10
236.69566943919
 20
472.0393764464897
 30
0.0
 11
237.19566943919
 21
472.0393764464895
 31
0.0
  0
LINE
  5
1EB3
330
1A
100
AcDbEntity
  8
SEIHIN
  6
Continuous
 62
     3
 48
5.0
100
AcDbLine
 10
238.69566943919
 20
472.0393764464897
 30
0.0
 11
238.19566943919
 21
472.0393764464895
 31
0.0
  0
LINE
  5
1EB4
330
1A
100
AcDbEntity
  8
SEIHIN
  6
Continuous
 62
     3
 48
5.0
100
AcDbLine
 10
238.19566943919
 20
472.0393764464895
 30
0.0
 11
237.69566943919
 21
472.0393764464893
 31
0.0
  0
LINE
  5
1EB5
330
1A
100
AcDbEntity
  8
SEIHIN
  6
Continuous
 62
     3
 48
5.0
100
AcDbLine
 10
237.6956694391902
 20
475.03628815589
 30
0.0
 11
238.19566943919
 21
475.0362881558895
 31
0.0
  0
LINE
  5
1EB6
330
1A
100
AcDbEntity
  8
SEIHIN
  6
Continuous
 62
     3
 48
5.0
100
AcDbLine
 10
238.19566943919
 20
475.0362881558895
 30
0.0
 11
238.69566943919
 21
475.0362881558891
 31
0.0
  0
LINE
  5
1EB7
330
1A
100
AcDbEntity
  8
SEIHIN
  6
Continuous
 62
     3
 48
5.0
100
AcDbLine
 10
237.6956694391905
 20
471.2253067697894
 30
0.0
 11
238.1956698564403
 21
471.2253067697893
 31
0.0
  0
LINE
  5
1EB8
330
1A
100
AcDbEntity
  8
SEIHIN
  6
Continuous
 62
     3
 48
5.0
100
AcDbLine
 10
238.1956698564403
 20
471.2253067697893
 30
0.0
 11
238.6956702736903
 21
471.2253067697891
 31
0.0
  0
LINE
  5
1EB9
330
1A
100
AcDbEntity
  8
SEIHIN
  6
Continuous
 62
     3
 48
5.0
100
AcDbLine
 10
238.69566985644
 20
477.6069796256392
 30
0.0
 11
238.69566943919
 21
475.0362881558891
 31
0.0
  0
LINE
  5
1EBA
330
1A
100
AcDbEntity
  8
SEIHIN
  6
Continuous
 62
     3
 48
5.0
100
AcDbLine
 10
238.69566943919
 20
472.0393764464897
 30
0.0
 11
238.6956698564403
 21
471.6323416081394
 31
0.0
  0
LINE
  5
1EBB
330
1A
100
AcDbEntity
  8
SEIHIN
  6
Continuous
 62
     3
 48
5.0
100
AcDbLine
 10
238.6956698564403
 20
471.6323416081394
 30
0.0
 11
238.6956702736903
 21
471.2253067697891
 31
0.0
  0
LINE
  5
1EBC
330
1A
100
AcDbEntity
  8
SEIHIN
  6
Continuous
 62
     3
 48
5.0
100
AcDbLine
 10
238.69566943919
 20
472.0393764464897
 30
0.0
 11
238.69566943919
 21
473.5378323011894
 31
0.0
  0
LINE
  5
1EBD
330
1A
100
AcDbEntity
  8
SEIHIN
  6
Continuous
 62
     3
 48
5.0
100
AcDbLine
 10
238.69566943919
 20
473.5378323011894
 30
0.0
 11
238.69566943919
 21
475.0362881558891
 31
0.0
  0
LINE
  5
1EBE
330
1A
100
AcDbEntity
  8
SEIHIN
  6
Continuous
 62
     3
 48
5.0
100
AcDbLine
 10
332.69566943919
 20
383.7359595467893
 30
0.0
 11
332.69566943919
 21
388.6776698138892
 31
0.0
  0
LINE
  5
1EBF
330
1A
100
AcDbEntity
  8
SUNPOU
100
AcDbLine
 10
332.69566943919
 20
348.8848725284897
 30
0.0
 11
332.69566943919
 21
328.0609127965586
 31
0.0
  0
MTEXT
  5
1EC0
330
1A
100
AcDbEntity
  8
SUNPOU
100
AcDbMText
 10
306.44566943919
 20
336.0609127965586
 30
0.0
 40
6.0
 41
0.0
 71
     5
 72
     5
  1
\U+203Ba53
 73
     1
 44
1.0
  0
LINE
  5
1EC1
330
1A
100
AcDbEntity
  8
SUNPOU
100
AcDbLine
 10
287.19566943919
 20
331.0609127965586
 30
0.0
 11
325.69566943919
 21
331.0609127965586
 31
0.0
  0
INSERT
  5
1EC2
330
1A
100
AcDbEntity
  8
SUNPOU
100
AcDbBlockReference
  2
_OPEN
 10
332.69566943919
 20
331.0609127965586
 30
0.0
 41
7.0
 42
7.0
 43
7.0
  0
LINE
  5
1EC3
330
1A
100
AcDbEntity
  8
SEIHIN
  6
Continuous
 62
     3
 48
5.0
100
AcDbLine
 10
332.6956694391898
 20
374.8791834740891
 30
0.0
 11
285.19566943919
 21
374.8791834740892
 31
0.0
  0
LINE
  5
1EC4
330
1A
100
AcDbEntity
  8
SEIHIN
  6
Continuous
 62
     3
 48
5.0
100
AcDbLine
 10
332.69566943919
 20
378.7942492796894
 30
0.0
 11
285.19566943919
 21
378.7942492796894
 31
0.0
  0
ARC
  5
1EC5
330
1A
100
AcDbEntity
  8
SEIHIN
  6
Continuous
 62
     3
 48
5.0
100
AcDbCircle
 10
312.6956752945324
 20
359.2746407296896
 30
0.0
 40
2.000000000000005
100
AcDbArc
 50
270.0
 51
315.0000274852364
  0
LINE
  5
1EC6
330
1A
100
AcDbEntity
  8
SEIHIN
  6
Continuous
 62
     3
 48
5.0
100
AcDbLine
 10
285.19566943919
 20
354.8848725284895
 30
0.0
 11
332.69566943919
 21
354.8848725284897
 31
0.0
  0
LINE
  5
1EC7
330
1A
100
AcDbEntity
  8
SEIHIN
  6
Continuous
 62
     3
 48
5.0
100
AcDbLine
 10
332.69566943919
 20
365.3776698138898
 30
0.0
 11
332.6956694391898
 21
360.6312711711894
 31
0.0
  0
LINE
  5
1EC8
330
1A
100
AcDbEntity
  8
SEIHIN
  6
Continuous
 62
     3
 48
5.0
100
AcDbLine
 10
314.6956694391898
 20
365.3776698138887
 30
0.0
 11
314.6956723668605
 21
362.326156231205
 31
0.0
  0
LINE
  5
1EC9
330
1A
100
AcDbEntity
  8
SEIHIN
  6
Continuous
 62
     3
 48
5.0
100
AcDbLine
 10
314.6956723668605
 20
362.326156231205
 30
0.0
 11
314.6956752945314
 21
359.2746426485214
 31
0.0
  0
ARC
  5
1ECA
330
1A
100
AcDbEntity
  8
SEIHIN
  6
Continuous
 62
     3
 48
5.0
100
AcDbCircle
 10
312.6956752945324
 20
359.2746407296896
 30
0.0
 40
2.000000000000011
100
AcDbArc
 50
315.0000274852364
 51
0.0000549704851026
  0
LINE
  5
1ECB
330
1A
100
AcDbEntity
  8
SEIHIN
  6
Continuous
 62
     3
 48
5.0
100
AcDbLine
 10
332.6956694391898
 20
355.3848725284894
 30
0.0
 11
332.69566943919
 21
354.8848725284897
 31
0.0
  0
LINE
  5
1ECC
330
1A
100
AcDbEntity
  8
SEIHIN
  6
Continuous
 62
     3
 48
5.0
100
AcDbLine
 10
332.6956694391895
 20
355.884872528489
 30
0.0
 11
332.6956694391898
 21
355.3848725284894
 31
0.0
  0
LINE
  5
1ECD
330
1A
100
AcDbEntity
  8
SEIHIN
  6
Continuous
 62
     3
 48
5.0
100
AcDbLine
 10
332.6956694391898
 20
360.6312711711894
 30
0.0
 11
332.6956694391895
 21
355.884872528489
 31
0.0
  0
LINE
  5
1ECE
330
1A
100
AcDbEntity
  8
SEIHIN
  6
Continuous
 62
     3
 48
5.0
100
AcDbLine
 10
323.6956694391895
 20
369.1038170369891
 30
0.0
 11
332.6956694391898
 21
369.1038170369898
 31
0.0
  0
LINE
  5
1ECF
330
1A
100
AcDbEntity
  8
SEIHIN
  6
Continuous
 62
     3
 48
5.0
100
AcDbLine
 10
332.69566943919
 20
369.7053958534893
 30
0.0
 11
323.69566943919
 21
369.7053958534889
 31
0.0
  0
LINE
  5
1ED0
330
1A
100
AcDbEntity
  8
SEIHIN
  6
Continuous
 62
     3
 48
5.0
100
AcDbLine
 10
323.69566943919
 20
365.3776698138893
 30
0.0
 11
332.69566943919
 21
365.3776698138898
 31
0.0
  0
LINE
  5
1ED1
330
1A
100
AcDbEntity
  8
SEIHIN
  6
Continuous
 62
     3
 48
5.0
100
AcDbLine
 10
314.6956694391895
 20
369.1038170369886
 30
0.0
 11
323.6956694391895
 21
369.1038170369891
 31
0.0
  0
LINE
  5
1ED2
330
1A
100
AcDbEntity
  8
SEIHIN
  6
Continuous
 62
     3
 48
5.0
100
AcDbLine
 10
323.69566943919
 20
369.7053958534889
 30
0.0
 11
314.6956694391895
 21
369.7053958534887
 31
0.0
  0
LINE
  5
1ED3
330
1A
100
AcDbEntity
  8
SEIHIN
  6
Continuous
 62
     3
 48
5.0
100
AcDbLine
 10
314.6956694391898
 20
365.3776698138887
 30
0.0
 11
323.69566943919
 21
365.3776698138893
 31
0.0
  0
LINE
  5
1ED4
330
1A
100
AcDbEntity
  8
SEIHIN
  6
Continuous
 62
     3
 48
5.0
100
AcDbLine
 10
314.6956694391898
 20
369.5803147811889
 30
0.0
 11
314.6956694391895
 21
369.7053958534887
 31
0.0
  0
LINE
  5
1ED5
330
1A
100
AcDbEntity
  8
SEIHIN
  6
Continuous
 62
     3
 48
5.0
100
AcDbLine
 10
314.6956694391898
 20
367.720607507389
 30
0.0
 11
314.6956694391895
 21
368.4122122721888
 31
0.0
  0
LINE
  5
1ED6
330
1A
100
AcDbEntity
  8
SEIHIN
  6
Continuous
 62
     3
 48
5.0
100
AcDbLine
 10
314.6956694391895
 20
368.4122122721888
 30
0.0
 11
314.6956694391895
 21
369.1038170369886
 31
0.0
  0
LINE
  5
1ED7
330
1A
100
AcDbEntity
  8
SEIHIN
  6
Continuous
 62
     3
 48
5.0
100
AcDbLine
 10
314.6956694391898
 20
367.720607507389
 30
0.0
 11
314.6956694391898
 21
366.5491386606389
 31
0.0
  0
LINE
  5
1ED8
330
1A
100
AcDbEntity
  8
SEIHIN
  6
Continuous
 62
     3
 48
5.0
100
AcDbLine
 10
314.6956694391898
 20
366.5491386606389
 30
0.0
 11
314.6956694391898
 21
365.3776698138887
 31
0.0
  0
LINE
  5
1ED9
330
1A
100
AcDbEntity
  8
SEIHIN
  6
Continuous
 62
     3
 48
5.0
100
AcDbLine
 10
314.69566943919
 20
369.4552337088894
 30
0.0
 11
314.6956694391898
 21
369.2795253729389
 31
0.0
  0
LINE
  5
1EDA
330
1A
100
AcDbEntity
  8
SEIHIN
  6
Continuous
 62
     3
 48
5.0
100
AcDbLine
 10
314.6956694391898
 20
369.2795253729389
 30
0.0
 11
314.6956694391895
 21
369.1038170369886
 31
0.0
  0
LINE
  5
1EDB
330
1A
100
AcDbEntity
  8
SEIHIN
  6
Continuous
 62
     3
 48
5.0
100
AcDbLine
 10
314.69566943919
 20
369.4552337088894
 30
0.0
 11
314.6956694391898
 21
369.5803147811889
 31
0.0
  0
LINE
  5
1EDC
330
1A
100
AcDbEntity
  8
SEIHIN
  6
Continuous
 62
     3
 48
5.0
100
AcDbLine
 10
332.6956694391898
 20
374.8791834740891
 30
0.0
 11
332.69566943919
 21
376.8367163768892
 31
0.0
  0
LINE
  5
1EDD
330
1A
100
AcDbEntity
  8
SEIHIN
  6
Continuous
 62
     3
 48
5.0
100
AcDbLine
 10
332.6956694391898
 20
369.1038170369898
 30
0.0
 11
332.69566943919
 21
368.4122122721896
 31
0.0
  0
LINE
  5
1EDE
330
1A
100
AcDbEntity
  8
SEIHIN
  6
Continuous
 62
     3
 48
5.0
100
AcDbLine
 10
332.69566943919
 20
368.4122122721896
 30
0.0
 11
332.69566943919
 21
367.7206075073895
 31
0.0
  0
LINE
  5
1EDF
330
1A
100
AcDbEntity
  8
SEIHIN
  6
Continuous
 62
     3
 48
5.0
100
AcDbLine
 10
332.69566943919
 20
367.7206075073895
 30
0.0
 11
332.69566943919
 21
366.5491386606396
 31
0.0
  0
LINE
  5
1EE0
330
1A
100
AcDbEntity
  8
SEIHIN
  6
Continuous
 62
     3
 48
5.0
100
AcDbLine
 10
332.69566943919
 20
366.5491386606396
 30
0.0
 11
332.69566943919
 21
365.3776698138898
 31
0.0
  0
LINE
  5
1EE1
330
1A
100
AcDbEntity
  8
SEIHIN
  6
Continuous
 62
     3
 48
5.0
100
AcDbLine
 10
332.69566943919
 20
369.4552337088892
 30
0.0
 11
332.69566943919
 21
369.2795253729394
 31
0.0
  0
LINE
  5
1EE2
330
1A
100
AcDbEntity
  8
SEIHIN
  6
Continuous
 62
     3
 48
5.0
100
AcDbLine
 10
332.69566943919
 20
369.2795253729394
 30
0.0
 11
332.6956694391898
 21
369.1038170369898
 31
0.0
  0
LINE
  5
1EE3
330
1A
100
AcDbEntity
  8
SEIHIN
  6
Continuous
 62
     3
 48
5.0
100
AcDbLine
 10
332.69566943919
 20
369.7053958534893
 30
0.0
 11
332.69566943919
 21
369.5803147811891
 31
0.0
  0
LINE
  5
1EE4
330
1A
100
AcDbEntity
  8
SEIHIN
  6
Continuous
 62
     3
 48
5.0
100
AcDbLine
 10
332.69566943919
 20
369.5803147811891
 30
0.0
 11
332.69566943919
 21
369.4552337088892
 31
0.0
  0
LINE
  5
1EE5
330
1A
100
AcDbEntity
  8
SEIHIN
  6
Continuous
 62
     3
 48
5.0
100
AcDbLine
 10
332.69566943919
 20
372.2922896637892
 30
0.0
 11
332.6956694391898
 21
374.8791834740891
 31
0.0
  0
LINE
  5
1EE6
330
1A
100
AcDbEntity
  8
SEIHIN
  6
Continuous
 62
     3
 48
5.0
100
AcDbLine
 10
332.69566943919
 20
369.7053958534893
 30
0.0
 11
332.69566943919
 21
372.2922896637892
 31
0.0
  0
LINE
  5
1EE7
330
1A
100
AcDbEntity
  8
SEIHIN
  6
Continuous
 62
     3
 48
5.0
100
AcDbLine
 10
332.69566943919
 20
378.7942492796894
 30
0.0
 11
332.69566943919
 21
383.7359595467893
 31
0.0
  0
LINE
  5
1EE8
330
1A
100
AcDbEntity
  8
SEIHIN
  6
Continuous
 62
     3
 48
5.0
100
AcDbLine
 10
332.69566943919
 20
376.8367163768892
 30
0.0
 11
332.69566943919
 21
378.7942492796894
 31
0.0
  0
LINE
  5
1EE9
330
1A
100
AcDbEntity
  8
SEIHIN
  6
Continuous
 62
     3
 48
5.0
100
AcDbLine
 10
312.69566943919
 20
392.4122606172894
 30
0.0
 11
312.69566943919
 21
435.3393444588393
 31
0.0
  0
LINE
  5
1EEA
330
1A
100
AcDbEntity
  8
SEIHIN
  6
Continuous
 62
     3
 48
5.0
100
AcDbLine
 10
288.55354001799
 20
396.5652700569895
 30
0.0
 11
288.55354001799
 21
437.9173725899393
 31
0.0
  0
LINE
  5
1EEB
330
1A
100
AcDbEntity
  8
SEIHIN
  6
Continuous
 62
     3
 48
5.0
100
AcDbLine
 10
332.69566943919
 20
392.4122606172894
 30
0.0
 11
332.69566943919
 21
435.3393444588394
 31
0.0
  0
LINE
  5
1EEC
330
1A
100
AcDbEntity
  8
SEIHIN
  6
Continuous
 62
     3
 48
5.0
100
AcDbLine
 10
332.69566943919
 20
388.6776698138892
 30
0.0
 11
285.19566943919
 21
388.6776698138892
 31
0.0
  0
LINE
  5
1EED
330
1A
100
AcDbEntity
  8
SEIHIN
  6
Continuous
 62
     3
 48
5.0
100
AcDbLine
 10
322.6956694391898
 20
390.4323616298894
 30
0.0
 11
312.6956694391898
 21
390.4323616298894
 31
0.0
  0
LINE
  5
1EEE
330
1A
100
AcDbEntity
  8
SEIHIN
  6
Continuous
 62
     3
 48
5.0
100
AcDbLine
 10
302.6956733134901
 20
395.1366994585893
 30
0.0
 11
295.6246029403899
 21
396.1468529011894
 31
0.0
  0
LINE
  5
1EEF
330
1A
100
AcDbEntity
  8
SEIHIN
  6
Continuous
 62
     3
 48
5.0
100
AcDbLine
 10
290.50442984379
 20
396.5378221179892
 30
0.0
 11
288.55354001799
 21
396.5652700569895
 31
0.0
  0
LINE
  5
1EF0
330
1A
100
AcDbEntity
  8
SEIHIN
  6
Continuous
 62
     3
 48
5.0
100
AcDbLine
 10
292.3803668287895
 20
396.4565251078889
 30
0.0
 11
290.50442984379
 21
396.5378221179892
 31
0.0
  0
LINE
  5
1EF1
330
1A
100
AcDbEntity
  8
SEIHIN
  6
Continuous
 62
     3
 48
5.0
100
AcDbLine
 10
294.1092293527898
 20
396.3245119954895
 30
0.0
 11
292.3803668287895
 21
396.4565251078889
 31
0.0
  0
LINE
  5
1EF2
330
1A
100
AcDbEntity
  8
SEIHIN
  6
Continuous
 62
     3
 48
5.0
100
AcDbLine
 10
295.6246029403899
 20
396.1468529011894
 30
0.0
 11
294.1092293527898
 21
396.3245119954895
 31
0.0
  0
LINE
  5
1EF3
330
1A
100
AcDbEntity
  8
SEIHIN
  6
Continuous
 62
     3
 48
5.0
100
AcDbLine
 10
309.76674368659
 20
394.1265460159891
 30
0.0
 11
302.6956733134901
 21
395.1366994585893
 31
0.0
  0
LINE
  5
1EF4
330
1A
100
AcDbEntity
  8
SEIHIN
  6
Continuous
 62
     3
 48
5.0
100
AcDbLine
 10
309.6956651476899
 20
390.561975916889
 30
0.0
 11
309.64379420549
 21
390.505407383689
 31
0.0
  0
LINE
  5
1EF5
330
1A
100
AcDbEntity
  8
SEIHIN
  6
Continuous
 62
     3
 48
5.0
100
AcDbLine
 10
309.6956694391898
 20
392.4188782865895
 30
0.0
 11
309.6956694391898
 21
391.8262576535891
 31
0.0
  0
LINE
  5
1EF6
330
1A
100
AcDbEntity
  8
SEIHIN
  6
Continuous
 62
     3
 48
5.0
100
AcDbLine
 10
309.6956651476901
 20
390.7490972484895
 30
0.0
 11
311.19566818749
 21
390.7490972484895
 31
0.0
  0
LINE
  5
1EF7
330
1A
100
AcDbEntity
  8
SEIHIN
  6
Continuous
 62
     3
 48
5.0
100
AcDbLine
 10
311.19566818749
 20
390.7490972484895
 30
0.0
 11
312.6956712272898
 21
390.7490972484894
 31
0.0
  0
LINE
  5
1EF8
330
1A
100
AcDbEntity
  8
SEIHIN
  6
Continuous
 62
     3
 48
5.0
100
AcDbLine
 10
309.6956694391898
 20
391.8262576535891
 30
0.0
 11
309.6956694391898
 21
391.1941170487392
 31
0.0
  0
LINE
  5
1EF9
330
1A
100
AcDbEntity
  8
SEIHIN
  6
Continuous
 62
     3
 48
5.0
100
AcDbLine
 10
309.6956694391898
 20
391.1941170487392
 30
0.0
 11
309.6956694391898
 21
390.5619764438893
 31
0.0
  0
LINE
  5
1EFA
330
1A
100
AcDbEntity
  8
SEIHIN
  6
Continuous
 62
     3
 48
5.0
100
AcDbLine
 10
312.6956694391898
 20
390.4323616298894
 30
0.0
 11
312.69566943919
 21
391.4223111235894
 31
0.0
  0
LINE
  5
1EFB
330
1A
100
AcDbEntity
  8
SEIHIN
  6
Continuous
 62
     3
 48
5.0
100
AcDbLine
 10
312.69566943919
 20
391.4223111235894
 30
0.0
 11
312.69566943919
 21
392.4122606172894
 31
0.0
  0
LINE
  5
1EFC
330
1A
100
AcDbEntity
  8
SEIHIN
  6
Continuous
 62
     3
 48
5.0
100
AcDbLine
 10
309.64379420549
 20
390.505407383689
 30
0.0
 11
309.4983588722894
 21
390.4335688855888
 31
0.0
  0
LINE
  5
1EFD
330
1A
100
AcDbEntity
  8
SEIHIN
  6
Continuous
 62
     3
 48
5.0
100
AcDbLine
 10
309.4983588722894
 20
390.4335688855888
 30
0.0
 11
309.4956766632902
 21
390.4323618914891
 31
0.0
  0
LINE
  5
1EFE
330
1A
100
AcDbEntity
  8
SEIHIN
  6
Continuous
 62
     3
 48
5.0
100
AcDbLine
 10
312.69567122729
 20
393.2523433174894
 30
0.0
 11
311.16175314459
 21
393.2523433174891
 31
0.0
  0
LINE
  5
1EFF
330
1A
100
AcDbEntity
  8
SEIHIN
  6
Continuous
 62
     3
 48
5.0
100
AcDbLine
 10
311.16175314459
 20
393.2523433174891
 30
0.0
 11
309.62783506189
 21
393.2523433174889
 31
0.0
  0
LINE
  5
1F00
330
1A
100
AcDbEntity
  8
SEIHIN
  6
Continuous
 62
     3
 48
5.0
100
AcDbLine
 10
309.62783506189
 20
393.2523433174889
 30
0.0
 11
309.6730004814904
 21
393.1622397210902
 31
0.0
  0
LINE
  5
1F01
330
1A
100
AcDbEntity
  8
SEIHIN
  6
Continuous
 62
     3
 48
5.0
100
AcDbLine
 10
309.6730004814904
 20
393.1622397210902
 30
0.0
 11
309.6956651476899
 21
393.0114995743894
 31
0.0
  0
LINE
  5
1F02
330
1A
100
AcDbEntity
  8
SEIHIN
  6
Continuous
 62
     3
 48
5.0
100
AcDbLine
 10
310.3443126943899
 20
394.05028559829
 30
0.0
 11
312.2585456636899
 21
393.5458812918888
 31
0.0
  0
LINE
  5
1F03
330
1A
100
AcDbEntity
  8
SEIHIN
  6
Continuous
 62
     3
 48
5.0
100
AcDbLine
 10
312.2585456636899
 20
393.5458812918888
 30
0.0
 11
312.6956712272898
 21
393.3845948483892
 31
0.0
  0
LINE
  5
1F04
330
1A
100
AcDbEntity
  8
SEIHIN
  6
Continuous
 62
     3
 48
5.0
100
AcDbLine
 10
310.3443126943899
 20
394.05028559829
 30
0.0
 11
310.14714052949
 21
394.0749805476888
 31
0.0
  0
LINE
  5
1F05
330
1A
100
AcDbEntity
  8
SEIHIN
  6
Continuous
 62
     3
 48
5.0
100
AcDbLine
 10
310.14714052949
 20
394.0749805476888
 30
0.0
 11
309.95457282339
 21
394.1004056538898
 31
0.0
  0
LINE
  5
1F06
330
1A
100
AcDbEntity
  8
SEIHIN
  6
Continuous
 62
     3
 48
5.0
100
AcDbLine
 10
309.95457282339
 20
394.1004056538898
 30
0.0
 11
309.76674368659
 21
394.1265460159891
 31
0.0
  0
LINE
  5
1F07
330
1A
100
AcDbEntity
  8
SEIHIN
  6
Continuous
 62
     3
 48
5.0
100
AcDbLine
 10
309.6956694391898
 20
393.0114989195898
 30
0.0
 11
309.6956694391898
 21
392.4188782865895
 31
0.0
  0
LINE
  5
1F08
330
1A
100
AcDbEntity
  8
SEIHIN
  6
Continuous
 62
     3
 48
5.0
100
AcDbLine
 10
332.6956694391898
 20
390.4323616298894
 30
0.0
 11
322.6956694391898
 21
390.4323616298894
 31
0.0
  0
LINE
  5
1F09
330
1A
100
AcDbEntity
  8
SEIHIN
  6
Continuous
 62
     3
 48
5.0
100
AcDbLine
 10
332.69566943919
 20
388.6776698138892
 30
0.0
 11
332.69566943919
 21
389.5550157218893
 31
0.0
  0
LINE
  5
1F0A
330
1A
100
AcDbEntity
  8
SEIHIN
  6
Continuous
 62
     3
 48
5.0
100
AcDbLine
 10
332.69566943919
 20
389.5550157218893
 30
0.0
 11
332.6956694391898
 21
390.4323616298894
 31
0.0
  0
LINE
  5
1F0B
330
1A
100
AcDbEntity
  8
SEIHIN
  6
Continuous
 62
     3
 48
5.0
100
AcDbLine
 10
332.69566943919
 20
392.4122606172894
 30
0.0
 11
332.6956694391898
 21
391.4223111235894
 31
0.0
  0
LINE
  5
1F0C
330
1A
100
AcDbEntity
  8
SEIHIN
  6
Continuous
 62
     3
 48
5.0
100
AcDbLine
 10
332.6956694391898
 20
391.4223111235894
 30
0.0
 11
332.6956694391898
 21
390.4323616298894
 31
0.0
  0
LINE
  5
1F0D
330
1A
100
AcDbEntity
  8
SEIHIN
  6
Continuous
 62
     3
 48
5.0
100
AcDbLine
 10
288.55354001799
 20
437.9173725899393
 30
0.0
 11
288.55354001799
 21
479.2694751228892
 31
0.0
  0
LINE
  5
1F0E
330
1A
100
AcDbEntity
  8
SEIHIN
  6
Continuous
 62
     3
 48
5.0
100
AcDbLine
 10
312.69566943919
 20
435.3393444588393
 30
0.0
 11
312.6956694391898
 21
478.2664283003893
 31
0.0
  0
LINE
  5
1F0F
330
1A
100
AcDbEntity
  8
SEIHIN
  6
Continuous
 62
     3
 48
5.0
100
AcDbLine
 10
288.55354001799
 20
479.2694751228892
 30
0.0
 11
290.50442984379
 21
479.2781997527895
 31
0.0
  0
LINE
  5
1F10
330
1A
100
AcDbEntity
  8
SEIHIN
  6
Continuous
 62
     3
 48
5.0
100
AcDbLine
 10
290.50442984379
 20
479.2781997527895
 30
0.0
 11
292.3803668287904
 21
479.3040420915891
 31
0.0
  0
LINE
  5
1F11
330
1A
100
AcDbEntity
  8
SEIHIN
  6
Continuous
 62
     3
 48
5.0
100
AcDbLine
 10
292.3803668287904
 20
479.3040420915891
 30
0.0
 11
294.1092293527898
 21
479.34600376149
 31
0.0
  0
LINE
  5
1F12
330
1A
100
AcDbEntity
  8
SEIHIN
  6
Continuous
 62
     3
 48
5.0
100
AcDbLine
 10
294.1092293527898
 20
479.34600376149
 30
0.0
 11
295.6246029403899
 21
479.4024754371895
 31
0.0
  0
LINE
  5
1F13
330
1A
100
AcDbEntity
  8
SEIHIN
  6
Continuous
 62
     3
 48
5.0
100
AcDbLine
 10
312.69566943919
 20
479.2653988701894
 30
0.0
 11
312.6956694391898
 21
478.2664283003893
 31
0.0
  0
LINE
  5
1F14
330
1A
100
AcDbEntity
  8
SEIHIN
  6
Continuous
 62
     3
 48
5.0
100
AcDbLine
 10
332.69566943919
 20
435.3393444588394
 30
0.0
 11
332.69566943919
 21
478.2664283003895
 31
0.0
  0
LINE
  5
1F15
330
1A
100
AcDbEntity
  8
SEIHIN
  6
Continuous
 62
     3
 48
5.0
100
AcDbLine
 10
323.6956694391898
 20
479.3894689193891
 30
0.0
 11
332.69566943919
 21
479.3894689193887
 31
0.0
  0
LINE
  5
1F16
330
1A
100
AcDbEntity
  8
SEIHIN
  6
Continuous
 62
     3
 48
5.0
100
AcDbLine
 10
314.6956694391895
 20
479.3894689193895
 30
0.0
 11
323.6956694391898
 21
479.3894689193891
 31
0.0
  0
LINE
  5
1F17
330
1A
100
AcDbEntity
  8
SEIHIN
  6
Continuous
 62
     3
 48
5.0
100
AcDbLine
 10
332.69566943919
 20
478.8279486098891
 30
0.0
 11
332.69566943919
 21
479.3894689193887
 31
0.0
  0
LINE
  5
1F18
330
1A
100
AcDbEntity
  8
SEIHIN
  6
Continuous
 62
     3
 48
5.0
100
AcDbLine
 10
332.69566943919
 20
478.2664283003895
 30
0.0
 11
332.69566943919
 21
478.8279486098891
 31
0.0
  0
LINE
  5
1F19
330
1A
100
AcDbEntity
  8
SEIHIN
  6
Continuous
 62
     3
 48
5.0
100
AcDbLine
 10
237.6956694391898
 20
488.4394689193886
 30
0.0
 11
313.69566943919
 21
488.4394689193894
 31
0.0
  0
LINE
  5
1F1A
330
1A
100
AcDbEntity
  8
SEIHIN
  6
Continuous
 62
     3
 48
5.0
100
AcDbLine
 10
276.1956723598403
 20
483.4728989805896
 30
0.0
 11
314.6956752804902
 21
483.4728989805897
 31
0.0
  0
LINE
  5
1F1B
330
1A
100
AcDbEntity
  8
SEIHIN
  6
Continuous
 62
     3
 48
5.0
100
AcDbLine
 10
237.6956694391898
 20
490.9394689193892
 30
0.0
 11
332.69566943919
 21
490.9394689193897
 31
0.0
  0
LINE
  5
1F1C
330
1A
100
AcDbEntity
  8
SEIHIN
  6
Continuous
 62
     3
 48
5.0
100
AcDbLine
 10
237.6956694391898
 20
488.4394689193887
 30
0.0
 11
161.69566943919
 21
488.4394689193892
 31
0.0
  0
LINE
  5
1F1D
330
1A
100
AcDbEntity
  8
SEIHIN
  6
Continuous
 62
     3
 48
5.0
100
AcDbLine
 10
237.6956694391895
 20
483.4728989805895
 30
0.0
 11
199.1956665185397
 21
483.4728989805895
 31
0.0
  0
LINE
  5
1F1E
330
1A
100
AcDbEntity
  8
SEIHIN
  6
Continuous
 62
     3
 48
5.0
100
AcDbLine
 10
199.1956665185397
 20
483.4728989805895
 30
0.0
 11
160.6956635978898
 21
483.4728989805896
 31
0.0
  0
LINE
  5
1F1F
330
1A
100
AcDbEntity
  8
SEIHIN
  6
Continuous
 62
     3
 48
5.0
100
AcDbLine
 10
172.6956655648899
 20
479.7235712464896
 30
0.0
 11
165.6245951917898
 21
480.0446670557898
 31
0.0
  0
LINE
  5
1F20
330
1A
100
AcDbEntity
  8
SEIHIN
  6
Continuous
 62
     3
 48
5.0
100
AcDbLine
 10
150.6956694391902
 20
481.139468919389
 30
0.0
 11
150.69566943919
 21
484.6291824843888
 31
0.0
  0
LINE
  5
1F21
330
1A
100
AcDbEntity
  8
SEIHIN
  6
Continuous
 62
     3
 48
5.0
100
AcDbLine
 10
152.69566943919
 20
481.1394689193888
 30
0.0
 11
152.69566943919
 21
484.6291824843889
 31
0.0
  0
LINE
  5
1F22
330
1A
100
AcDbEntity
  8
SEIHIN
  6
Continuous
 62
     3
 48
5.0
100
AcDbLine
 10
151.69566943919
 20
489.0994689193893
 30
0.0
 11
150.6956694391902
 21
489.099468919389
 31
0.0
  0
LINE
  5
1F23
330
1A
100
AcDbEntity
  8
SEIHIN
  6
Continuous
 62
     3
 48
5.0
100
AcDbLine
 10
152.6956694391898
 20
489.0994689193895
 30
0.0
 11
151.69566943919
 21
489.0994689193893
 31
0.0
  0
LINE
  5
1F24
330
1A
100
AcDbEntity
  8
SEIHIN
  6
Continuous
 62
     3
 48
5.0
100
AcDbLine
 10
152.6956694391898
 20
488.6091824843892
 30
0.0
 11
152.6956694391898
 21
489.0994689193895
 31
0.0
  0
LINE
  5
1F25
330
1A
100
AcDbEntity
  8
SEIHIN
  6
Continuous
 62
     3
 48
5.0
100
AcDbLine
 10
150.6956694391902
 20
489.099468919389
 30
0.0
 11
150.69566943919
 21
488.6091824843888
 31
0.0
  0
LINE
  5
1F26
330
1A
100
AcDbEntity
  8
SEIHIN
  6
Continuous
 62
     3
 48
5.0
100
AcDbLine
 10
150.69566943919
 20
484.6291824843888
 30
0.0
 11
150.69566943919
 21
488.1188960493886
 31
0.0
  0
LINE
  5
1F27
330
1A
100
AcDbEntity
  8
SEIHIN
  6
Continuous
 62
     3
 48
5.0
100
AcDbLine
 10
152.69566943919
 20
484.6291824843889
 30
0.0
 11
152.6956694391898
 21
488.118896049389
 31
0.0
  0
LINE
  5
1F28
330
1A
100
AcDbEntity
  8
SEIHIN
  6
Continuous
 62
     3
 48
5.0
100
AcDbLine
 10
152.6956694391898
 20
488.118896049389
 30
0.0
 11
152.6956694391898
 21
488.6091824843892
 31
0.0
  0
LINE
  5
1F29
330
1A
100
AcDbEntity
  8
SEIHIN
  6
Continuous
 62
     3
 48
5.0
100
AcDbLine
 10
150.69566943919
 20
488.6091824843888
 30
0.0
 11
150.69566943919
 21
488.1188960493886
 31
0.0
  0
LINE
  5
1F2A
330
1A
100
AcDbEntity
  8
SEIHIN
  6
Continuous
 62
     3
 48
5.0
100
AcDbLine
 10
151.69566943919
 20
481.1394689193889
 30
0.0
 11
150.6956694391902
 21
481.139468919389
 31
0.0
  0
LINE
  5
1F2B
330
1A
100
AcDbEntity
  8
SEIHIN
  6
Continuous
 62
     3
 48
5.0
100
AcDbLine
 10
152.69566943919
 20
481.1394689193888
 30
0.0
 11
151.69566943919
 21
481.1394689193889
 31
0.0
  0
LINE
  5
1F2C
330
1A
100
AcDbEntity
  8
SEIHIN
  6
Continuous
 62
     3
 48
5.0
100
AcDbLine
 10
160.69566943919
 20
484.289468919389
 30
0.0
 11
160.6956694391902
 21
481.1394689193887
 31
0.0
  0
ARC
  5
1F2D
330
1A
100
AcDbEntity
  8
SEIHIN
  6
Continuous
 62
     3
 48
5.0
100
AcDbCircle
 10
161.69566943919
 20
487.4394689193893
 30
0.0
 40
1.0
100
AcDbArc
 50
135.0000000000095
 51
180.0000000000033
  0
LINE
  5
1F2E
330
1A
100
AcDbEntity
  8
SEIHIN
  6
Continuous
 62
     3
 48
5.0
100
AcDbLine
 10
160.69566943919
 20
487.4394689193892
 30
0.0
 11
160.69566943919
 21
484.289468919389
 31
0.0
  0
ARC
  5
1F2F
330
1A
100
AcDbEntity
  8
SEIHIN
  6
Continuous
 62
     3
 48
5.0
100
AcDbCircle
 10
161.69566943919
 20
487.4394689193893
 30
0.0
 40
1.000000000000008
100
AcDbArc
 50
90.0
 51
135.0000000000095
  0
LINE
  5
1F30
330
1A
100
AcDbEntity
  8
SEIHIN
  6
Continuous
 62
     3
 48
5.0
100
AcDbLine
 10
163.7506996658904
 20
480.1115248407891
 30
0.0
 11
162.69566765109
 21
480.13688289189
 31
0.0
  0
LINE
  5
1F31
330
1A
100
AcDbEntity
  8
SEIHIN
  6
Continuous
 62
     3
 48
5.0
100
AcDbLine
 10
164.7316580084901
 20
480.080642184289
 30
0.0
 11
163.7506996658904
 21
480.1115248407891
 31
0.0
  0
LINE
  5
1F32
330
1A
100
AcDbEntity
  8
SEIHIN
  6
Continuous
 62
     3
 48
5.0
100
AcDbLine
 10
165.6245951917898
 20
480.0446670557898
 30
0.0
 11
164.7316580084901
 21
480.080642184289
 31
0.0
  0
LINE
  5
1F33
330
1A
100
AcDbEntity
  8
SEIHIN
  6
Continuous
 62
     3
 48
5.0
100
AcDbLine
 10
162.69566943919
 20
480.2643694399894
 30
0.0
 11
161.6956665185399
 21
480.2643696082394
 31
0.0
  0
LINE
  5
1F34
330
1A
100
AcDbEntity
  8
SEIHIN
  6
Continuous
 62
     3
 48
5.0
100
AcDbLine
 10
160.6956694391902
 20
481.1394689193887
 30
0.0
 11
160.6956694391902
 21
480.2644689193891
 31
0.0
  0
LINE
  5
1F35
330
1A
100
AcDbEntity
  8
SEIHIN
  6
Continuous
 62
     3
 48
5.0
100
AcDbLine
 10
161.6956665185399
 20
480.2643696082394
 30
0.0
 11
160.6956635978898
 21
480.2643697764894
 31
0.0
  0
LINE
  5
1F36
330
1A
100
AcDbEntity
  8
SEIHIN
  6
Continuous
 62
     3
 48
5.0
100
AcDbLine
 10
237.6956694391905
 20
483.4728989805895
 30
0.0
 11
276.1956723598403
 21
483.4728989805896
 31
0.0
  0
LINE
  5
1F37
330
1A
100
AcDbEntity
  8
SEIHIN
  6
Continuous
 62
     3
 48
5.0
100
AcDbLine
 10
237.1956690219398
 20
480.1776710953894
 30
0.0
 11
236.69566860469
 21
480.1776710953894
 31
0.0
  0
LINE
  5
1F38
330
1A
100
AcDbEntity
  8
SEIHIN
  6
Continuous
 62
     3
 48
5.0
100
AcDbLine
 10
237.6956694391898
 20
480.1776710953895
 30
0.0
 11
237.1956690219398
 21
480.1776710953894
 31
0.0
  0
LINE
  5
1F39
330
1A
100
AcDbEntity
  8
SEIHIN
  6
Continuous
 62
     3
 48
5.0
100
AcDbLine
 10
237.6956694391902
 20
480.1776710953895
 30
0.0
 11
238.1956698564403
 21
480.1776710953894
 31
0.0
  0
LINE
  5
1F3A
330
1A
100
AcDbEntity
  8
SEIHIN
  6
Continuous
 62
     3
 48
5.0
100
AcDbLine
 10
238.1956698564403
 20
480.1776710953894
 30
0.0
 11
238.69567027369
 21
480.1776710953894
 31
0.0
  0
ARC
  5
1F3B
330
1A
100
AcDbEntity
  8
SEIHIN
  6
Continuous
 62
     3
 48
5.0
100
AcDbCircle
 10
313.69566943919
 20
487.4394689193894
 30
0.0
 40
1.000000000000008
100
AcDbArc
 50
44.9999999999905
 51
90.0
  0
LINE
  5
1F3C
330
1A
100
AcDbEntity
  8
SEIHIN
  6
Continuous
 62
     3
 48
5.0
100
AcDbLine
 10
313.6956723598401
 20
480.2643696082395
 30
0.0
 11
314.6956752804902
 21
480.2643697764895
 31
0.0
  0
LINE
  5
1F3D
330
1A
100
AcDbEntity
  8
SEIHIN
  6
Continuous
 62
     3
 48
5.0
100
AcDbLine
 10
302.6956733134901
 20
479.7235712464897
 30
0.0
 11
309.7667436865903
 21
480.0446670557899
 31
0.0
  0
LINE
  5
1F3E
330
1A
100
AcDbEntity
  8
SEIHIN
  6
Continuous
 62
     3
 48
5.0
100
AcDbLine
 10
312.69566943919
 20
480.2643694399895
 30
0.0
 11
313.6956723598401
 21
480.2643696082395
 31
0.0
  0
LINE
  5
1F3F
330
1A
100
AcDbEntity
  8
SEIHIN
  6
Continuous
 62
     3
 48
5.0
100
AcDbLine
 10
309.7667436865903
 20
480.0446670557899
 30
0.0
 11
310.6596808698899
 21
480.0806421842891
 31
0.0
  0
LINE
  5
1F40
330
1A
100
AcDbEntity
  8
SEIHIN
  6
Continuous
 62
     3
 48
5.0
100
AcDbLine
 10
310.6596808698899
 20
480.0806421842891
 30
0.0
 11
311.6406392124896
 21
480.1115248407892
 31
0.0
  0
LINE
  5
1F41
330
1A
100
AcDbEntity
  8
SEIHIN
  6
Continuous
 62
     3
 48
5.0
100
AcDbLine
 10
311.6406392124896
 20
480.1115248407892
 30
0.0
 11
312.69567122729
 21
480.1368828918901
 31
0.0
  0
LINE
  5
1F42
330
1A
100
AcDbEntity
  8
SEIHIN
  6
Continuous
 62
     3
 48
5.0
100
AcDbLine
 10
314.69566943919
 20
484.2894689193891
 30
0.0
 11
314.6956694391898
 21
481.1394689193888
 31
0.0
  0
LINE
  5
1F43
330
1A
100
AcDbEntity
  8
SEIHIN
  6
Continuous
 62
     3
 48
5.0
100
AcDbLine
 10
314.69566943919
 20
487.4394689193893
 30
0.0
 11
314.69566943919
 21
484.2894689193891
 31
0.0
  0
ARC
  5
1F44
330
1A
100
AcDbEntity
  8
SEIHIN
  6
Continuous
 62
     3
 48
5.0
100
AcDbCircle
 10
313.69566943919
 20
487.4394689193894
 30
0.0
 40
1.0
100
AcDbArc
 50
359.9999999999968
 51
44.9999999999905
  0
LINE
  5
1F45
330
1A
100
AcDbEntity
  8
SEIHIN
  6
Continuous
 62
     3
 48
5.0
100
AcDbLine
 10
314.6956694391898
 20
481.1394689193888
 30
0.0
 11
314.6956694391898
 21
480.2644689193892
 31
0.0
  0
LINE
  5
1F46
330
1A
100
AcDbEntity
  8
SEIHIN
  6
Continuous
 62
     3
 48
5.0
100
AcDbLine
 10
322.69566943919
 20
481.139468919389
 30
0.0
 11
322.69566943919
 21
484.6291824843891
 31
0.0
  0
LINE
  5
1F47
330
1A
100
AcDbEntity
  8
SEIHIN
  6
Continuous
 62
     3
 48
5.0
100
AcDbLine
 10
324.6956694391898
 20
481.1394689193892
 30
0.0
 11
324.69566943919
 21
484.629182484389
 31
0.0
  0
LINE
  5
1F48
330
1A
100
AcDbEntity
  8
SEIHIN
  6
Continuous
 62
     3
 48
5.0
100
AcDbLine
 10
324.69566943919
 20
488.609182484389
 30
0.0
 11
324.69566943919
 21
488.1188960493888
 31
0.0
  0
LINE
  5
1F49
330
1A
100
AcDbEntity
  8
SEIHIN
  6
Continuous
 62
     3
 48
5.0
100
AcDbLine
 10
322.6956694391902
 20
488.1188960493892
 30
0.0
 11
322.6956694391902
 21
488.6091824843894
 31
0.0
  0
LINE
  5
1F4A
330
1A
100
AcDbEntity
  8
SEIHIN
  6
Continuous
 62
     3
 48
5.0
100
AcDbLine
 10
322.69566943919
 20
484.6291824843891
 30
0.0
 11
322.6956694391902
 21
488.1188960493892
 31
0.0
  0
LINE
  5
1F4B
330
1A
100
AcDbEntity
  8
SEIHIN
  6
Continuous
 62
     3
 48
5.0
100
AcDbLine
 10
324.69566943919
 20
484.629182484389
 30
0.0
 11
324.69566943919
 21
488.1188960493888
 31
0.0
  0
LINE
  5
1F4C
330
1A
100
AcDbEntity
  8
SEIHIN
  6
Continuous
 62
     3
 48
5.0
100
AcDbLine
 10
324.6956694391898
 20
489.0994689193892
 30
0.0
 11
324.69566943919
 21
488.609182484389
 31
0.0
  0
LINE
  5
1F4D
330
1A
100
AcDbEntity
  8
SEIHIN
  6
Continuous
 62
     3
 48
5.0
100
AcDbLine
 10
322.6956694391902
 20
488.6091824843894
 30
0.0
 11
322.6956694391902
 21
489.0994689193897
 31
0.0
  0
LINE
  5
1F4E
330
1A
100
AcDbEntity
  8
SEIHIN
  6
Continuous
 62
     3
 48
5.0
100
AcDbLine
 10
322.6956694391902
 20
489.0994689193897
 30
0.0
 11
323.69566943919
 21
489.0994689193894
 31
0.0
  0
LINE
  5
1F4F
330
1A
100
AcDbEntity
  8
SEIHIN
  6
Continuous
 62
     3
 48
5.0
100
AcDbLine
 10
323.69566943919
 20
489.0994689193894
 30
0.0
 11
324.6956694391898
 21
489.0994689193892
 31
0.0
  0
LINE
  5
1F50
330
1A
100
AcDbEntity
  8
SEIHIN
  6
Continuous
 62
     3
 48
5.0
100
AcDbLine
 10
322.69566943919
 20
481.139468919389
 30
0.0
 11
323.69566943919
 21
481.1394689193891
 31
0.0
  0
LINE
  5
1F51
330
1A
100
AcDbEntity
  8
SEIHIN
  6
Continuous
 62
     3
 48
5.0
100
AcDbLine
 10
323.69566943919
 20
481.1394689193891
 30
0.0
 11
324.6956694391898
 21
481.1394689193892
 31
0.0
  0
LINE
  5
1F52
330
1A
100
AcDbEntity
  8
SEIHIN
  6
Continuous
 62
     3
 48
5.0
100
AcDbLine
 10
332.69566943919
 20
485.5394689193896
 30
0.0
 11
332.6956694391898
 21
481.1394689193897
 31
0.0
  0
LINE
  5
1F53
330
1A
100
AcDbEntity
  8
SEIHIN
  6
Continuous
 62
     3
 48
5.0
100
AcDbLine
 10
332.69566943919
 20
490.9394689193897
 30
0.0
 11
332.69566943919
 21
490.4394689193896
 31
0.0
  0
LINE
  5
1F54
330
1A
100
AcDbEntity
  8
SEIHIN
  6
Continuous
 62
     3
 48
5.0
100
AcDbLine
 10
332.69566943919
 20
490.4394689193896
 30
0.0
 11
332.69566943919
 21
489.9394689193895
 31
0.0
  0
LINE
  5
1F55
330
1A
100
AcDbEntity
  8
SEIHIN
  6
Continuous
 62
     3
 48
5.0
100
AcDbLine
 10
332.69566943919
 20
489.9394689193895
 30
0.0
 11
332.69566943919
 21
485.5394689193896
 31
0.0
  0
LINE
  5
1F56
330
1A
100
AcDbEntity
  8
SEIHIN
  6
Continuous
 62
     3
 48
5.0
100
AcDbLine
 10
332.6956694391898
 20
481.1394689193897
 30
0.0
 11
332.6956694391898
 21
480.2644689193892
 31
0.0
  0
DIMENSION
  5
1F57
330
1A
100
AcDbEntity
  8
SUNPOU
100
AcDbDimension
  2
*D5
 10
672.3882216289635
 20
110.3238396663812
 30
0.0
 11
667.3882216289635
 21
174.4238396663814
 31
0.0
 70
    32
 71
     5
 42
128.2000000000002
  3
STANDARD
100
AcDbAlignedDimension
 13
640.9957075739865
 23
238.5238396663813
 33
0.0
 14
611.2847656746862
 24
110.3238396663812
 34
0.0
 50
90.0
100
AcDbRotatedDimension
1001
ACAD
1000
DSTYLE
1002
{
1070
    41
1040
7.0
1070
    42
1040
6.0
1070
    43
1040
14.0
1070
    44
1040
3.0
1070
    73
1070
     0
1070
    74
1070
     0
1070
    77
1070
     3
1070
   140
1040
6.0
1070
   141
1040
150.0
1070
   147
1040
2.0
1070
   172
1070
     1
1070
   173
1070
     1
1070
   176
1070
   256
1070
   177
1070
   256
1070
   178
1070
   256
1070
   271
1070
     0
1070
   272
1070
     0
1070
   341
1005
6D
1070
     6
1000
OPEN
1070
     7
1000
OPEN
1070
   371
1070
    -1
1070
   372
1070
    -1
1002
}
  0
LINE
  5
1F58
330
1A
100
AcDbEntity
  8
SUNPOU
 62
     4
100
AcDbLine
 10
482.4786829056288
 20
109.3236696663812
 30
0.0
 11
482.4786829056288
 21
102.3236696663812
 31
0.0
  0
DIMENSION
  5
1F59
330
1A
100
AcDbEntity
  8
SUNPOU
100
AcDbDimension
  2
*D6
 10
617.0847656746864
 20
62.21628823767227
 30
0.0
 11
582.0846656747024
 21
67.21628823767227
 31
0.0
 70
    32
  1
\U+25A1<>
 71
     5
 42
70.00019999996812
  3
STANDARD
100
AcDbAlignedDimension
 13
547.0845656747183
 23
116.3237996664837
 33
0.0
 14
617.0847656746864
 24
116.3236296663812
 34
0.0
100
AcDbRotatedDimension
1001
ACAD
1000
DSTYLE
1002
{
1070
    41
1040
7.0
1070
    42
1040
6.0
1070
    43
1040
14.0
1070
    44
1040
3.0
1070
    73
1070
     0
1070
    74
1070
     0
1070
    77
1070
     3
1070
   140
1040
6.0
1070
   141
1040
150.0
1070
   147
1040
2.0
1070
   172
1070
     1
1070
   173
1070
     1
1070
   176
1070
     4
1070
   177
1070
     4
1070
   178
1070
     4
1070
   271
1070
     0
1070
   272
1070
     2
1070
   341
1005
6D
1070
     6
1000
OPEN
1070
     7
1000
OPEN
1002
}
  0
LINE
  5
1F5A
330
1A
100
AcDbEntity
  8
CENTER L
  6
CENTER
 62
     1
 48
5.0
100
AcDbLine
 10
582.0847656746862
 20
150.3321326497298
 30
0.0
 11
582.0847656746862
 21
95.87368037405503
 31
0.0
  0
MTEXT
  5
1F5B
330
1A
100
AcDbEntity
  8
SUNPOU
 62
     4
100
AcDbMText
 10
474.9850730108101
 20
92.00217124637811
 30
0.0
 40
6.0
 41
0.0
 71
     5
 72
     5
  1
\U+203Bｂ10
 11
6.123031769111886E-17
 21
1.0
 31
0.0
 73
     1
 44
1.0
  0
INSERT
  5
1F5C
330
1A
100
AcDbEntity
  8
SUNPOU
100
AcDbBlockReference
  2
A$C3D91712F
 10
502.8072719359145
 20
176.5236355557672
 30
0.0
  0
LINE
  5
1F5D
330
1A
100
AcDbEntity
  8
SEIHIN
  6
Continuous
 62
     3
 48
5.0
100
AcDbLine
 10
534.3002607675862
 20
174.0238396663812
 30
0.0
 11
579.5059898071861
 21
174.0238396663812
 31
0.0
  0
LINE
  5
1F5E
330
1A
100
AcDbEntity
  8
SEIHIN
  6
Continuous
 62
     3
 48
5.0
100
AcDbLine
 10
536.4684992718862
 20
176.5238396663813
 30
0.0
 11
579.483908468452
 21
176.5238396663812
 31
0.0
  0
DIMENSION
  5
1F5F
330
1A
100
AcDbEntity
  8
SUNPOU
100
AcDbDimension
  2
*D7
 10
498.8125796595728
 20
285.4073988259918
 30
0.0
 11
566.9041436167796
 21
290.4073988259918
 31
0.0
 70
    32
 71
     5
 42
136.1831279144137
  3
STANDARD
100
AcDbAlignedDimension
 13
634.9957075739865
 23
238.5238396663813
 33
0.0
 14
498.8125796595728
 24
258.3238396663813
 34
0.0
100
AcDbRotatedDimension
1001
ACAD
1000
DSTYLE
1002
{
1070
    41
1040
7.0
1070
    42
1040
6.0
1070
    43
1040
14.0
1070
    44
1040
3.0
1070
    73
1070
     0
1070
    74
1070
     0
1070
    77
1070
     3
1070
   140
1040
6.0
1070
   141
1040
150.0
1070
   147
1040
2.0
1070
   172
1070
     1
1070
   173
1070
     1
1070
   176
1070
   256
1070
   177
1070
   256
1070
   178
1070
   256
1070
   271
1070
     0
1070
   272
1070
     0
1070
   341
1005
6D
1070
     6
1000
OPEN
1070
     7
1000
OPEN
1070
   371
1070
    -1
1070
   372
1070
    -1
1002
}
  0
DIMENSION
  5
1F60
330
1A
100
AcDbEntity
  8
SUNPOU
100
AcDbDimension
  2
*D8
 10
466.9873339131641
 20
110.3238396663812
 30
0.0
 11
461.9873339131641
 21
132.1738396663813
 31
0.0
 70
    32
 71
     5
 42
43.7
  3
STANDARD
100
AcDbAlignedDimension
 13
532.4532680628925
 23
154.0238396663812
 33
0.0
 14
552.8847656746862
 24
110.3238396663812
 34
0.0
 50
90.0
100
AcDbRotatedDimension
1001
ACAD
1000
DSTYLE
1002
{
1070
    41
1040
7.0
1070
    42
1040
6.0
1070
    43
1040
14.0
1070
    44
1040
3.0
1070
    73
1070
     0
1070
    74
1070
     0
1070
    77
1070
     3
1070
   140
1040
6.0
1070
   141
1040
150.0
1070
   147
1040
2.0
1070
   172
1070
     1
1070
   173
1070
     1
1070
   176
1070
   256
1070
   177
1070
   256
1070
   178
1070
   256
1070
   271
1070
     0
1070
   272
1070
     0
1070
   341
1005
6D
1070
     6
1000
OPEN
1070
     7
1000
OPEN
1070
   371
1070
    -1
1070
   372
1070
    -1
1002
}
  0
LINE
  5
1F61
330
1A
100
AcDbEntity
  8
SEIHIN
  6
Continuous
 62
     3
 48
5.0
100
AcDbLine
 10
540.187861258386
 20
154.0238396663812
 30
0.0
 11
581.995692709786
 21
154.0238396663812
 31
0.0
  0
DIMENSION
  5
1F62
330
1A
100
AcDbEntity
  8
SUNPOU
100
AcDbDimension
  2
*D9
 10
450.0904229898192
 20
110.3238396663812
 30
0.0
 11
445.0904229898192
 21
184.3238396663813
 31
0.0
 70
    32
 71
     5
 42
148.0000000000002
  3
STANDARD
100
AcDbAlignedDimension
 13
498.8125796595728
 23
258.3238396663813
 33
0.0
 14
546.8847656746862
 24
110.3238396663812
 34
0.0
 50
90.0
100
AcDbRotatedDimension
1001
ACAD
1000
DSTYLE
1002
{
1070
    41
1040
7.0
1070
    42
1040
6.0
1070
    43
1040
14.0
1070
    44
1040
3.0
1070
    73
1070
     0
1070
    74
1070
     0
1070
    77
1070
     3
1070
   140
1040
6.0
1070
   141
1040
150.0
1070
   147
1040
2.0
1070
   172
1070
     1
1070
   173
1070
     1
1070
   176
1070
   256
1070
   177
1070
   256
1070
   178
1070
   256
1070
   271
1070
     0
1070
   272
1070
     0
1070
   341
1005
6D
1070
     6
1000
OPEN
1070
     7
1000
OPEN
1070
   371
1070
    -1
1070
   372
1070
    -1
1002
}
  0
ARC
  5
1F63
330
1A
100
AcDbEntity
  8
SEIHIN
  6
Continuous
 62
     3
 48
5.0
100
AcDbCircle
 10
540.1801791372861
 20
206.3606023761812
 30
0.0
 40
20.00000000000009
100
AcDbArc
 50
187.9999999999986
 51
214.4306772468487
  0
ARC
  5
1F64
330
1A
100
AcDbEntity
  8
SEIHIN
  6
Continuous
 62
     3
 48
5.0
100
AcDbCircle
 10
540.1801791372861
 20
206.3606023761812
 30
0.0
 40
17.50000000000006
100
AcDbArc
 50
187.999999999999
 51
216.4088046688975
  0
DIMENSION
  5
1F65
330
1A
100
AcDbEntity
  8
SUNPOU
100
AcDbDimension
  2
*D10
 10
466.9873339131641
 20
258.3238396663813
 30
0.0
 11
461.987333913164
 21
206.1738396663813
 31
0.0
 70
    32
 71
     5
 42
104.3000000000002
  3
STANDARD
100
AcDbAlignedDimension
 13
538.4532680628925
 23
154.0238396663812
 33
0.0
 14
498.8125796595728
 24
258.3238396663813
 34
0.0
 50
90.0
100
AcDbRotatedDimension
1001
ACAD
1000
DSTYLE
1002
{
1070
    41
1040
7.0
1070
    42
1040
6.0
1070
    43
1040
14.0
1070
    44
1040
3.0
1070
    73
1070
     0
1070
    74
1070
     0
1070
    77
1070
     3
1070
   140
1040
6.0
1070
   141
1040
150.0
1070
   147
1040
2.0
1070
   172
1070
     1
1070
   173
1070
     1
1070
   176
1070
   256
1070
   177
1070
   256
1070
   178
1070
   256
1070
   271
1070
     0
1070
   272
1070
     0
1070
   341
1005
6D
1070
     6
1000
OPEN
1070
     7
1000
OPEN
1070
   371
1070
    -1
1070
   372
1070
    -1
1002
}
  0
ARC
  5
1F66
330
1A
100
AcDbEntity
  8
SEIHIN
  6
Continuous
 62
     3
 48
5.0
100
AcDbCircle
 10
540.187861258386
 20
156.0238396663812
 30
0.0
 40
1.99999999999992
100
AcDbArc
 50
188.1301023542021
 51
229.0650511770985
  0
LINE
  5
1F67
330
1A
100
AcDbEntity
  8
SUNPOU
 62
     4
100
AcDbLine
 10
539.5908445164594
 20
126.3240994837933
 30
0.0
 11
479.4786829056288
 21
126.3240994837933
 31
0.0
  0
LINE
  5
1F68
330
1A
100
AcDbEntity
  8
SUNPOU
 62
     4
100
AcDbLine
 10
541.0845656746863
 20
116.3236696663812
 30
0.0
 11
479.4786829056288
 21
116.3236696663812
 31
0.0
  0
INSERT
  5
1F69
330
1A
100
AcDbEntity
  8
SUNPOU
 62
     4
100
AcDbBlockReference
  2
_OPEN
 10
482.4786829056288
 20
126.3240994837933
 30
0.0
 41
7.0
 42
7.0
 43
7.0
 50
270.0
  0
LINE
  5
1F6A
330
1A
100
AcDbEntity
  8
SUNPOU
 62
     4
100
AcDbLine
 10
482.4786829056288
 20
116.3236696663812
 30
0.0
 11
482.4786829056288
 21
126.3240994837933
 31
0.0
  0
INSERT
  5
1F6B
330
1A
100
AcDbEntity
  8
SUNPOU
 62
     4
100
AcDbBlockReference
  2
_OPEN
 10
482.4786829056288
 20
116.3236696663812
 30
0.0
 41
7.0
 42
7.0
 43
7.0
 50
90.0
  0
LINE
  5
1F6C
330
1A
100
AcDbEntity
  8
SUNPOU
 62
     4
100
AcDbLine
 10
482.4786829056288
 20
133.3240994837933
 30
0.0
 11
482.4786829056288
 21
140.3240994837933
 31
0.0
  0
ARC
  5
1F6D
330
1A
100
AcDbEntity
  8
SEIHIN
  6
Continuous
 62
     3
 48
5.0
100
AcDbCircle
 10
540.187861258386
 20
156.0238396663812
 30
0.0
 40
1.999999999999974
100
AcDbArc
 50
229.0650511770985
 51
270.0
  0
ARC
  5
1F6E
330
1A
100
AcDbEntity
  8
SEIHIN
  6
Continuous
 62
     3
 48
5.0
100
AcDbCircle
 10
536.4684992718862
 20
178.5238396663813
 30
0.0
 40
2.000000000000032
100
AcDbArc
 50
188.1301023542017
 51
229.0650511770985
  0
LINE
  5
1F6F
330
1A
100
AcDbEntity
  8
SEIHIN
  6
Continuous
 62
     3
 48
5.0
100
AcDbLine
 10
531.3810242434361
 20
182.3163597119313
 30
0.0
 11
532.320361780286
 21
175.7409969538813
 31
0.0
  0
LINE
  5
1F70
330
1A
100
AcDbEntity
  8
SEIHIN
  6
Continuous
 62
     3
 48
5.0
100
AcDbLine
 10
536.758469898336
 20
165.8874435633312
 30
0.0
 11
535.7483173537862
 21
172.9585113751812
 31
0.0
  0
LINE
  5
1F71
330
1A
100
AcDbEntity
  8
SEIHIN
  6
Continuous
 62
     3
 48
5.0
100
AcDbLine
 10
537.955165707986
 20
157.5105660994812
 30
0.0
 11
536.758469898336
 21
165.8874435633312
 31
0.0
  0
LINE
  5
1F72
330
1A
100
AcDbEntity
  8
SEIHIN
  6
Continuous
 62
     3
 48
5.0
100
AcDbLine
 10
538.1791413366861
 20
155.9427516002812
 30
0.0
 11
538.0937800347861
 21
156.5402620871812
 31
0.0
  0
LINE
  5
1F73
330
1A
100
AcDbEntity
  8
SEIHIN
  6
Continuous
 62
     3
 48
5.0
100
AcDbLine
 10
538.207963907686
 20
155.7409973282812
 30
0.0
 11
538.1791413366861
 21
155.9427516002812
 31
0.0
  0
LINE
  5
1F74
330
1A
100
AcDbEntity
  8
SEIHIN
  6
Continuous
 62
     3
 48
5.0
100
AcDbLine
 10
538.0937800347861
 20
156.5402620871812
 30
0.0
 11
537.955165707986
 21
157.5105660994812
 31
0.0
  0
ARC
  5
1F75
330
1A
100
AcDbEntity
  8
SEIHIN
  6
Continuous
 62
     3
 48
5.0
100
AcDbCircle
 10
536.4684992718862
 20
178.5238396663813
 30
0.0
 40
2.000000000000048
100
AcDbArc
 50
229.0650511770985
 51
270.0
  0
LINE
  5
1F76
330
1A
100
AcDbEntity
  8
SEIHIN
  6
Continuous
 62
     3
 48
5.0
100
AcDbLine
 10
535.718780809586
 20
173.1652603883812
 30
0.0
 11
535.5566263734861
 21
173.5848696370812
 31
0.0
  0
ARC
  5
1F77
330
1A
100
AcDbEntity
  8
SEIHIN
  6
Continuous
 62
     3
 48
5.0
100
AcDbCircle
 10
534.3002607675862
 20
176.0238396663812
 30
0.0
 40
2.000000000000032
100
AcDbArc
 50
188.1301023542017
 51
229.0650511770985
  0
ARC
  5
1F78
330
1A
100
AcDbEntity
  8
SEIHIN
  6
Continuous
 62
     3
 48
5.0
100
AcDbCircle
 10
534.3002607675862
 20
176.0238396663812
 30
0.0
 40
2.000000000000048
100
AcDbArc
 50
229.0650511770985
 51
270.0
  0
LINE
  5
1F79
330
1A
100
AcDbEntity
  8
SEIHIN
  6
Continuous
 62
     3
 48
5.0
100
AcDbLine
 10
534.7288333415861
 20
174.0238392193812
 30
0.0
 11
534.7388916253863
 21
174.0238280434812
 31
0.0
  0
LINE
  5
1F7A
330
1A
100
AcDbEntity
  8
SEIHIN
  6
Continuous
 62
     3
 48
5.0
100
AcDbLine
 10
534.7324505984861
 20
174.0238317687812
 30
0.0
 11
534.7288333415861
 21
174.0238392193812
 31
0.0
  0
LINE
  5
1F7B
330
1A
100
AcDbEntity
  8
SEIHIN
  6
Continuous
 62
     3
 48
5.0
100
AcDbLine
 10
535.1179995178861
 20
173.9450083513812
 30
0.0
 11
534.7324505984861
 21
174.0238317687812
 31
0.0
  0
LINE
  5
1F7C
330
1A
100
AcDbEntity
  8
SEIHIN
  6
Continuous
 62
     3
 48
5.0
100
AcDbLine
 10
535.5566263734861
 20
173.5848696370812
 30
0.0
 11
535.1179995178861
 21
173.9450083513812
 31
0.0
  0
LINE
  5
1F7D
330
1A
100
AcDbEntity
  8
SEIHIN
  6
Continuous
 62
     3
 48
5.0
100
AcDbLine
 10
535.7334286510861
 20
173.0627217729812
 30
0.0
 11
535.718780809586
 21
173.1652603883812
 31
0.0
  0
LINE
  5
1F7E
330
1A
100
AcDbEntity
  8
SEIHIN
  6
Continuous
 62
     3
 48
5.0
100
AcDbLine
 10
535.7483186363861
 20
172.9585105020812
 30
0.0
 11
535.7334286510861
 21
173.0627217729812
 31
0.0
  0
ARC
  5
1F7F
330
1A
100
AcDbEntity
  8
SEIHIN
  6
Continuous
 62
     3
 48
5.0
100
AcDbCircle
 10
540.1801791372861
 20
206.3606023761812
 30
0.0
 40
20.00000000000005
100
AcDbArc
 50
214.4306772468487
 51
240.8613544937007
  0
ARC
  5
1F80
330
1A
100
AcDbEntity
  8
SEIHIN
  6
Continuous
 62
     3
 48
5.0
100
AcDbCircle
 10
540.1801791372861
 20
206.3606023761812
 30
0.0
 40
17.5
100
AcDbArc
 50
216.4088046688975
 51
244.8176093378041
  0
LINE
  5
1F81
330
1A
100
AcDbEntity
  8
SEIHIN
  6
Continuous
 62
     3
 48
5.0
100
AcDbLine
 10
532.7339084684861
 20
190.5238396663812
 30
0.0
 11
533.7339084684454
 21
183.5238396663812
 31
0.0
  0
LINE
  5
1F82
330
1A
100
AcDbEntity
  8
SEIHIN
  6
Continuous
 62
     3
 48
5.0
100
AcDbLine
 10
533.7339084684454
 20
183.5238396663812
 30
0.0
 11
534.4886002844824
 21
178.2409969539066
 31
0.0
  0
LINE
  5
1F83
330
1A
100
AcDbEntity
  8
SEIHIN
  6
Continuous
 62
     3
 48
5.0
100
AcDbLine
 10
530.4416867065861
 20
188.8917224699813
 30
0.0
 11
531.3810242434361
 21
182.3163597119313
 31
0.0
  0
LINE
  5
1F84
330
1A
100
AcDbEntity
  8
SEIHIN
  6
Continuous
 62
     3
 48
5.0
100
AcDbLine
 10
501.9055039514915
 20
253.5831769313371
 30
0.0
 11
502.7163929595401
 21
246.8933426150982
 31
0.0
  0
LINE
  5
1F85
330
1A
100
AcDbEntity
  8
SEIHIN
  6
Continuous
 62
     3
 48
5.0
100
AcDbLine
 10
498.9483774010873
 20
257.2035082988682
 30
0.0
 11
500.130195582886
 21
247.4535082988814
 31
0.0
  0
ARC
  5
1F86
330
1A
100
AcDbEntity
  8
SEIHIN
  6
Continuous
 62
     3
 48
5.0
100
AcDbCircle
 10
509.242311348386
 20
229.3238396663812
 30
0.0
 40
7.5
100
AcDbArc
 50
52.59825069269348
 51
90.0
  0
ARC
  5
1F87
330
1A
100
AcDbEntity
  8
SEIHIN
  6
Continuous
 62
     3
 48
5.0
100
AcDbCircle
 10
509.242311348386
 20
229.3238396663812
 30
0.0
 40
10.00000000000004
100
AcDbArc
 50
52.11566383539702
 51
90.0
  0
LINE
  5
1F88
330
1A
100
AcDbEntity
  8
SEIHIN
  6
Continuous
 62
     3
 48
5.0
100
AcDbLine
 10
502.7163929595401
 20
246.8933426150982
 30
0.0
 11
503.5272819675888
 21
240.2035082988592
 31
0.0
  0
LINE
  5
1F89
330
1A
100
AcDbEntity
  8
SEIHIN
  6
Continuous
 62
     3
 48
5.0
100
AcDbLine
 10
502.3047475467861
 20
236.8238396663813
 30
0.0
 11
505.773529447586
 21
236.8238396663813
 31
0.0
  0
ARC
  5
1F8A
330
1A
100
AcDbEntity
  8
SEIHIN
  6
Continuous
 62
     3
 48
5.0
100
AcDbCircle
 10
502.3047475467861
 20
237.8238396663813
 30
0.0
 40
1.000000000000018
100
AcDbArc
 50
228.4556135594996
 51
270.0
  0
ARC
  5
1F8B
330
1A
100
AcDbEntity
  8
SEIHIN
  6
Continuous
 62
     3
 48
5.0
100
AcDbCircle
 10
502.3047475467861
 20
237.8238396663813
 30
0.0
 40
0.9999999999999651
100
AcDbArc
 50
186.911227119
 51
228.4556135594996
  0
LINE
  5
1F8C
330
1A
100
AcDbEntity
  8
SEIHIN
  6
Continuous
 62
     3
 48
5.0
100
AcDbLine
 10
500.130195582886
 20
247.4535082988814
 30
0.0
 11
501.3120137646861
 21
237.7035082988813
 31
0.0
  0
ARC
  5
1F8D
330
1A
100
AcDbEntity
  8
SEIHIN
  6
Continuous
 62
     3
 48
5.0
100
AcDbCircle
 10
504.520015749586
 20
240.3238396663813
 30
0.0
 40
1.000000000000018
100
AcDbArc
 50
228.4556135594996
 51
270.0
  0
ARC
  5
1F8E
330
1A
100
AcDbEntity
  8
SEIHIN
  6
Continuous
 62
     3
 48
5.0
100
AcDbCircle
 10
504.5200157496222
 20
240.3238396663813
 30
0.0
 40
1.000000000000018
100
AcDbArc
 50
228.4556135596037
 51
270.0
  0
LINE
  5
1F8F
330
1A
100
AcDbEntity
  8
SEIHIN
  6
Continuous
 62
     3
 48
5.0
100
AcDbLine
 10
504.5200157496222
 20
239.3238396663813
 30
0.0
 11
506.8811635490042
 21
239.3238396663813
 31
0.0
  0
LINE
  5
1F90
330
1A
100
AcDbEntity
  8
SEIHIN
  6
Continuous
 62
     3
 48
5.0
100
AcDbLine
 10
506.8811635490042
 20
239.3238396663813
 30
0.0
 11
509.242311348386
 21
239.3238396663813
 31
0.0
  0
LINE
  5
1F91
330
1A
100
AcDbEntity
  8
SEIHIN
  6
Continuous
 62
     3
 48
5.0
100
AcDbLine
 10
505.773529447586
 20
236.8238396663813
 30
0.0
 11
509.242311348386
 21
236.8238396663813
 31
0.0
  0
ARC
  5
1F92
330
1A
100
AcDbEntity
  8
SEIHIN
  6
Continuous
 62
     3
 48
5.0
100
AcDbCircle
 10
504.520015749586
 20
240.3238396663813
 30
0.0
 40
1.000000000000078
100
AcDbArc
 50
186.9112271189992
 51
228.4556135594996
  0
ARC
  5
1F93
330
1A
100
AcDbEntity
  8
SEIHIN
  6
Continuous
 62
     3
 48
5.0
100
AcDbCircle
 10
504.5200157496222
 20
240.3238396663813
 30
0.0
 40
1.000000000000023
100
AcDbArc
 50
186.9112271191899
 51
228.4556135596037
  0
LINE
  5
1F94
330
1A
100
AcDbEntity
  8
SEIHIN
  6
Continuous
 62
     3
 48
5.0
100
AcDbLine
 10
516.4800551175863
 20
231.2898165562813
 30
0.0
 11
518.4274364400362
 21
217.4334784566312
 31
0.0
  0
LINE
  5
1F95
330
1A
100
AcDbEntity
  8
SEIHIN
  6
Continuous
 62
     3
 48
5.0
100
AcDbLine
 10
518.9354221286862
 20
231.7822138042812
 30
0.0
 11
520.8929550314861
 21
217.8536434568313
 31
0.0
  0
LINE
  5
1F96
330
1A
100
AcDbEntity
  8
SEIHIN
  6
Continuous
 62
     3
 48
5.0
100
AcDbLine
 10
518.4274364400362
 20
217.4334784566312
 30
0.0
 11
520.3748177624862
 21
203.5771403569812
 31
0.0
  0
LINE
  5
1F97
330
1A
100
AcDbEntity
  8
SEIHIN
  6
Continuous
 62
     3
 48
5.0
100
AcDbLine
 10
520.8929550314861
 20
217.8536434568313
 30
0.0
 11
522.8504879342861
 21
203.9250731093813
 31
0.0
  0
ARC
  5
1F98
330
1A
100
AcDbEntity
  8
SEIHIN
  6
Continuous
 62
     3
 48
5.0
100
AcDbCircle
 10
509.242311348386
 20
229.3238396663812
 30
0.0
 40
10.00000000000001
100
AcDbArc
 50
14.23132767080175
 51
52.11566383539702
  0
ARC
  5
1F99
330
1A
100
AcDbEntity
  8
SEIHIN
  6
Continuous
 62
     3
 48
5.0
100
AcDbCircle
 10
509.242311348386
 20
229.3238396663812
 30
0.0
 40
7.499999999999966
100
AcDbArc
 50
15.19650138539819
 51
52.59825069269348
  0
ARC
  5
1F9A
330
1A
100
AcDbEntity
  8
SEIHIN
  6
Continuous
 62
     3
 48
5.0
100
AcDbCircle
 10
509.230283687386
 20
259.8196916406812
 30
0.0
 40
4.999999999999909
100
AcDbArc
 50
272.3340135846053
 51
302.1603027500301
  0
ARC
  5
1F9B
330
1A
100
AcDbEntity
  8
SEIHIN
  6
Continuous
 62
     3
 48
5.0
100
AcDbCircle
 10
509.5600453020861
 20
261.8215659991813
 30
0.0
 40
3.499999999999903
100
AcDbArc
 50
288.6169918216401
 51
309.2993189486795
  0
ARC
  5
1F9C
330
1A
100
AcDbEntity
  8
SEIHIN
  6
Continuous
 62
     3
 48
5.0
100
AcDbCircle
 10
503.8909715155583
 20
253.8238396663813
 30
0.0
 40
1.999999999999995
100
AcDbArc
 50
89.9999837961615
 51
138.4556054576724
  0
ARC
  5
1F9D
330
1A
100
AcDbEntity
  8
SEIHIN
  6
Continuous
 62
     3
 48
5.0
100
AcDbCircle
 10
503.8909715155583
 20
253.8238396663813
 30
0.0
 40
2.00000000000008
100
AcDbArc
 50
89.99998379614847
 51
138.4556054576724
  0
LINE
  5
1F9E
330
1A
100
AcDbEntity
  8
SEIHIN
  6
Continuous
 62
     3
 48
5.0
100
AcDbLine
 10
504.687509825786
 20
258.3238396663813
 30
0.0
 11
499.9411111830862
 21
258.3238396663813
 31
0.0
  0
ARC
  5
1F9F
330
1A
100
AcDbEntity
  8
SEIHIN
  6
Continuous
 62
     3
 48
5.0
100
AcDbCircle
 10
503.8909715155583
 20
253.8238396663813
 30
0.0
 40
2.000000000000026
100
AcDbArc
 50
138.4556054576724
 51
186.9112271191906
  0
ARC
  5
1FA0
330
1A
100
AcDbEntity
  8
SEIHIN
  6
Continuous
 62
     3
 48
5.0
100
AcDbCircle
 10
503.8909715155583
 20
253.8238396663813
 30
0.0
 40
1.99999999999995
100
AcDbArc
 50
138.4556054576724
 51
186.9112271191902
  0
ARC
  5
1FA1
330
1A
100
AcDbEntity
  8
SEIHIN
  6
Continuous
 62
     3
 48
5.0
100
AcDbCircle
 10
499.9411111830862
 20
257.3238396663814
 30
0.0
 40
1.000000000000021
100
AcDbArc
 50
138.4556135595039
 51
186.911227119
  0
ARC
  5
1FA2
330
1A
100
AcDbEntity
  8
SEIHIN
  6
Continuous
 62
     3
 48
5.0
100
AcDbCircle
 10
499.9411111830862
 20
257.3238396663814
 30
0.0
 40
0.9999999999999716
100
AcDbArc
 50
90.0
 51
138.4556135595039
  0
ARC
  5
1FA3
330
1A
100
AcDbEntity
  8
SEIHIN
  6
Continuous
 62
     3
 48
5.0
100
AcDbCircle
 10
509.5600453020861
 20
261.8215659991813
 30
0.0
 40
3.499999999999924
100
AcDbArc
 50
267.934664694604
 51
288.6169918216401
  0
LINE
  5
1FA4
330
1A
100
AcDbEntity
  8
SEIHIN
  6
Continuous
 62
     3
 48
5.0
100
AcDbLine
 10
509.4339073240863
 20
255.8238380987814
 30
0.0
 11
509.4339078962862
 21
255.3238388825814
 31
0.0
  0
LINE
  5
1FA5
330
1A
100
AcDbEntity
  8
SEIHIN
  6
Continuous
 62
     3
 48
5.0
100
AcDbLine
 10
509.4339078962862
 20
255.3238388825814
 30
0.0
 11
509.4339084684862
 21
254.8238396663814
 31
0.0
  0
LINE
  5
1FA6
330
1A
100
AcDbEntity
  8
SEIHIN
  6
Continuous
 62
     3
 48
5.0
100
AcDbLine
 10
506.6624397026326
 20
255.8238388825814
 30
0.0
 11
503.8909720811791
 21
255.8238396663813
 31
0.0
  0
LINE
  5
1FA7
330
1A
100
AcDbEntity
  8
SEIHIN
  6
Continuous
 62
     3
 48
5.0
100
AcDbLine
 10
509.4339073240863
 20
255.8238380987814
 30
0.0
 11
506.6624397026326
 21
255.8238388825814
 31
0.0
  0
LINE
  5
1FA8
330
1A
100
AcDbEntity
  8
SEIHIN
  6
Continuous
 62
     3
 48
5.0
100
AcDbLine
 10
509.4339084684862
 20
258.3238396663813
 30
0.0
 11
504.687509825786
 21
258.3238396663813
 31
0.0
  0
ARC
  5
1FA9
330
1A
100
AcDbEntity
  8
SEIHIN
  6
Continuous
 62
     3
 48
5.0
100
AcDbCircle
 10
512.4102178362698
 20
258.3392511763394
 30
0.0
 40
0.9999999999999668
100
AcDbArc
 50
41.42366562880815
 51
85.3614922887333
  0
ARC
  5
1FAA
330
1A
100
AcDbEntity
  8
SEIHIN
  6
Continuous
 62
     3
 48
5.0
100
AcDbCircle
 10
512.4102178362859
 20
258.3392511763814
 30
0.0
 40
1.000000000000026
100
AcDbArc
 50
41.42366562500346
 51
85.36132351038812
  0
ARC
  5
1FAB
330
1A
100
AcDbEntity
  8
SEIHIN
  6
Continuous
 62
     3
 48
5.0
100
AcDbCircle
 10
512.761634508086
 20
257.9409789482813
 30
0.0
 40
1.000000000000042
100
AcDbArc
 50
6.704904456630469
 51
41.42366562500346
  0
ARC
  5
1FAC
330
1A
100
AcDbEntity
  8
SEIHIN
  6
Continuous
 62
     3
 48
5.0
100
AcDbCircle
 10
512.7616345081528
 20
257.9409789482587
 30
0.0
 40
0.9999999999999899
100
AcDbArc
 50
6.705128772139162
 51
41.42366562880815
  0
ARC
  5
1FAD
330
1A
100
AcDbEntity
  8
SEIHIN
  6
Continuous
 62
     3
 48
5.0
100
AcDbCircle
 10
509.230283687386
 20
259.8196916406812
 30
0.0
 40
4.999999999999914
100
AcDbArc
 50
302.1603027500301
 51
331.9865919154599
  0
ARC
  5
1FAE
330
1A
100
AcDbEntity
  8
SEIHIN
  6
Continuous
 62
     3
 48
5.0
100
AcDbCircle
 10
512.761634508086
 20
257.9409789482813
 30
0.0
 40
0.9999999999999829
100
AcDbArc
 50
331.9861432882638
 51
6.704904456630469
  0
ARC
  5
1FAF
330
1A
100
AcDbEntity
  8
SEIHIN
  6
Continuous
 62
     3
 48
5.0
100
AcDbCircle
 10
512.7616345081528
 20
257.9409789482587
 30
0.0
 40
0.9999999999999991
100
AcDbArc
 50
331.9865919154596
 51
6.705128772139162
  0
LINE
  5
1FB0
330
1A
100
AcDbEntity
  8
SEIHIN
  6
Continuous
 62
     3
 48
5.0
100
AcDbLine
 10
513.3357640275324
 20
258.8017366994357
 30
0.0
 11
513.160055691591
 21
259.000872813476
 31
0.0
  0
LINE
  5
1FB1
330
1A
100
AcDbEntity
  8
SEIHIN
  6
Continuous
 62
     3
 48
5.0
100
AcDbLine
 10
513.5114723634738
 20
258.6026005853954
 30
0.0
 11
513.3357640275324
 21
258.8017366994357
 31
0.0
  0
ARC
  5
1FB2
330
1A
100
AcDbEntity
  8
SEIHIN
  6
Continuous
 62
     3
 48
5.0
100
AcDbCircle
 10
512.4102178362859
 20
258.3392511763814
 30
0.0
 40
0.999999999999997
100
AcDbArc
 50
85.36132351038812
 51
129.2989813957883
  0
ARC
  5
1FB3
330
1A
100
AcDbEntity
  8
SEIHIN
  6
Continuous
 62
     3
 48
5.0
100
AcDbCircle
 10
512.4102178362698
 20
258.3392511763394
 30
0.0
 40
0.9999999999999774
100
AcDbArc
 50
85.3614922887333
 51
129.2993189486794
  0
LINE
  5
1FB4
330
1A
100
AcDbEntity
  8
SEIHIN
  6
Continuous
 62
     3
 48
5.0
100
AcDbLine
 10
627.5755348195862
 20
195.0011581723312
 30
0.0
 11
628.4414096527862
 21
214.0692026544812
 31
0.0
  0
LINE
  5
1FB5
330
1A
100
AcDbEntity
  8
SEIHIN
  6
Continuous
 62
     3
 48
5.0
100
AcDbLine
 10
625.1322956614426
 20
196.3078619074765
 30
0.0
 11
626.0306828543858
 21
216.0918841485718
 31
0.0
  0
DIMENSION
  5
1FB6
330
1A
100
AcDbEntity
  8
SUNPOU
100
AcDbDimension
  2
*D11
 10
655.6003870524587
 20
238.5238396663813
 30
0.0
 11
650.6003870524587
 21
206.2738396663814
 31
0.0
 70
    32
 71
     5
 42
64.50000000000009
  3
STANDARD
100
AcDbAlignedDimension
 13
624.711718846786
 23
174.0238396663812
 33
0.0
 14
634.9957075739865
 24
238.5238396663813
 34
0.0
 50
90.0
100
AcDbRotatedDimension
1001
ACAD
1000
DSTYLE
1002
{
1070
    41
1040
7.0
1070
    42
1040
6.0
1070
    43
1040
14.0
1070
    44
1040
3.0
1070
    73
1070
     0
1070
    74
1070
     0
1070
    77
1070
     3
1070
   140
1040
6.0
1070
   141
1040
150.0
1070
   147
1040
2.0
1070
   172
1070
     1
1070
   173
1070
     1
1070
   176
1070
   256
1070
   177
1070
   256
1070
   178
1070
   256
1070
   271
1070
     0
1070
   272
1070
     0
1070
   341
1005
6D
1070
     6
1000
OPEN
1070
     7
1000
OPEN
1070
   371
1070
    -1
1070
   372
1070
    -1
1002
}
  0
DIMENSION
  5
1FB7
330
1A
100
AcDbEntity
  8
SUNPOU
100
AcDbDimension
  2
*D12
 10
579.483908468452
 20
210.2757339699017
 30
0.0
 11
561.483908468452
 21
215.2757339699017
 31
0.0
 70
    32
 71
     5
 42
2.600857206234196
  3
STANDARD
100
AcDbAlignedDimension
 13
582.0847656746862
 23
150.3321326497298
 33
0.0
 14
579.483908468452
 24
188.892424012446
 34
0.0
100
AcDbRotatedDimension
1001
ACAD
1000
DSTYLE
1002
{
1070
    41
1040
7.0
1070
    42
1040
6.0
1070
    43
1040
14.0
1070
    44
1040
3.0
1070
    73
1070
     0
1070
    74
1070
     0
1070
    77
1070
     3
1070
   140
1040
6.0
1070
   141
1040
150.0
1070
   147
1040
2.0
1070
   172
1070
     1
1070
   173
1070
     1
1070
   176
1070
   256
1070
   177
1070
   256
1070
   178
1070
   256
1070
   271
1070
     0
1070
   272
1070
     0
1070
   341
1005
6D
1070
     6
1000
OPEN
1070
     7
1000
OPEN
1070
   371
1070
    -1
1070
   372
1070
    -1
1002
}
  0
LINE
  5
1FB8
330
1A
100
AcDbEntity
  8
SEIHIN
100
AcDbLine
 10
617.0110478108388
 20
116.3240496690996
 30
0.0
 11
547.010747051736
 21
116.3236696663812
 31
0.0
  0
LINE
  5
1FB9
330
1A
100
AcDbEntity
  8
SEIHIN
100
AcDbLine
 10
611.210947051736
 20
110.3238396663812
 30
0.0
 11
552.8109470517359
 21
110.3238396663812
 31
0.0
  0
LINE
  5
1FBA
330
1A
100
AcDbEntity
  8
SEIHIN
100
AcDbLine
 10
611.210947051736
 20
110.3238396663812
 30
0.0
 11
552.8109470517359
 21
110.3238396663812
 31
0.0
  0
ARC
  5
1FBB
330
1A
100
AcDbEntity
  8
SEIHIN
  6
Continuous
 62
     3
100
AcDbCircle
 10
518.9814272912756
 20
136.0777596680098
 30
0.0
 40
91.00000899999999
100
AcDbArc
 50
347.4626629999995
 51
356.7097919999999
  0
LINE
  5
1FBC
330
1A
100
AcDbEntity
  8
SEIHIN
  6
Continuous
 62
     3
 48
5.0
100
AcDbLine
 10
579.5059898071861
 20
174.0238396663812
 30
0.0
 11
624.711718846786
 21
174.0238396663812
 31
0.0
  0
LINE
  5
1FBD
330
1A
100
AcDbEntity
  8
SEIHIN
  6
Continuous
 62
     3
 48
5.0
100
AcDbLine
 10
579.483908468452
 20
176.5238396663812
 30
0.0
 11
622.3226669549863
 21
176.5238396663812
 31
0.0
  0
LINE
  5
1FBE
330
1A
100
AcDbEntity
  8
SEIHIN
  6
Continuous
 62
     3
 48
5.0
100
AcDbLine
 10
581.995692709786
 20
154.0238396663812
 30
0.0
 11
623.803524161186
 21
154.0238396663812
 31
0.0
  0
LINE
  5
1FBF
330
1A
100
AcDbEntity
  8
SEIHIN
  6
Continuous
 62
     3
100
AcDbLine
 10
543.8609272912756
 20
153.7238596680098
 30
0.0
 11
545.2053272912756
 21
130.3384596680097
 31
0.0
  0
LINE
  5
1FC0
330
1A
100
AcDbEntity
  8
SEIHIN
  6
Continuous
 62
     3
100
AcDbLine
 10
554.1904272912757
 20
130.8550596680098
 30
0.0
 11
552.8758272912758
 21
153.7238596680098
 31
0.0
  0
ARC
  5
1FC1
330
1A
100
AcDbEntity
  8
SEIHIN
  6
Continuous
 62
     3
100
AcDbCircle
 10
645.0405272912756
 20
136.0776596680097
 30
0.0
 40
90.99997900000001
100
AcDbArc
 50
183.2900189999994
 51
192.5372139999999
  0
ARC
  5
1FC2
330
1A
100
AcDbEntity
  8
SEIHIN
  6
Continuous
 62
     3
100
AcDbCircle
 10
645.0405272912756
 20
136.0776596680097
 30
0.0
 40
99.99998000000001
100
AcDbArc
 50
183.2900690000003
 51
191.3929150000003
  0
LINE
  5
1FC3
330
1A
100
AcDbEntity
  8
SEIHIN
100
AcDbLine
 10
552.8108470517361
 20
110.3236896663812
 30
0.0
 11
552.8109470517359
 21
116.3239296663812
 31
0.0
  0
LINE
  5
1FC4
330
1A
100
AcDbEntity
  8
CENTER L
  6
CENTER
 62
     1
 48
5.0
100
AcDbLine
 10
579.483908468452
 20
188.892424012446
 30
0.0
 11
579.483908468452
 21
167.3903162914437
 31
0.0
  0
ARC
  5
1FC5
330
1A
100
AcDbEntity
  8
SEIHIN
  6
Continuous
 62
     3
 48
5.0
100
AcDbCircle
 10
623.803524161186
 20
156.0238396663812
 30
0.0
 40
2.000000000000011
100
AcDbArc
 50
313.7000000000053
 51
357.400000000002
  0
LINE
  5
1FC6
330
1A
100
AcDbEntity
  8
SEIHIN
  6
Continuous
 62
     3
100
AcDbLine
 10
609.8314272912758
 20
130.8549596680097
 30
0.0
 11
611.1461272912757
 21
153.7238596680098
 31
0.0
  0
LINE
  5
1FC7
330
1A
100
AcDbEntity
  8
SEIHIN
  6
Continuous
 62
     3
100
AcDbLine
 10
620.1610272912756
 20
153.7238596680098
 30
0.0
 11
618.8166272912756
 21
130.3384596680097
 31
0.0
  0
ARC
  5
1FC8
330
1A
100
AcDbEntity
  8
SEIHIN
  6
Continuous
 62
     3
100
AcDbCircle
 10
518.9814272912756
 20
136.0777596680098
 30
0.0
 40
99.999942
100
AcDbArc
 50
348.6067930000008
 51
356.7096989999997
  0
LINE
  5
1FC9
330
1A
100
AcDbEntity
  8
SEIHIN
100
AcDbLine
 10
611.210847051736
 20
110.3236896663812
 30
0.0
 11
611.210847051736
 21
116.3239296663812
 31
0.0
  0
ARC
  5
1FCA
330
1A
100
AcDbEntity
  8
SEIHIN
  6
Continuous
 62
     3
 48
5.0
100
AcDbCircle
 10
623.803524161186
 20
156.0238396663812
 30
0.0
 40
2.0
100
AcDbArc
 50
270.0
 51
313.7000000000053
  0
ARC
  5
1FCB
330
1A
100
AcDbEntity
  8
SEIHIN
  6
Continuous
 62
     3
 48
5.0
100
AcDbCircle
 10
622.3226669549863
 20
178.5238396663813
 30
0.0
 40
2.000000000000052
100
AcDbArc
 50
313.7000000000053
 51
357.4000000000003
  0
LINE
  5
1FCC
330
1A
100
AcDbEntity
  8
SEIHIN
  6
Continuous
 62
     3
 48
5.0
100
AcDbLine
 10
626.7096599863862
 20
175.9331136901812
 30
0.0
 11
627.5755348195862
 21
195.0011581723312
 31
0.0
  0
ARC
  5
1FCD
330
1A
100
AcDbEntity
  8
SEIHIN
  6
Continuous
 62
     3
 48
5.0
100
AcDbCircle
 10
624.711718846786
 20
176.0238396663812
 30
0.0
 40
2.0
100
AcDbArc
 50
270.0
 51
313.7000000000053
  0
LINE
  5
1FCE
330
1A
100
AcDbEntity
  8
SEIHIN
  6
Continuous
 62
     3
 48
5.0
100
AcDbLine
 10
625.8106276928861
 20
156.1348685462812
 30
0.0
 11
625.801463478786
 21
155.9331142742812
 31
0.0
  0
ARC
  5
1FCF
330
1A
100
AcDbEntity
  8
SEIHIN
  6
Continuous
 62
     3
 48
5.0
100
AcDbCircle
 10
622.3226669549863
 20
178.5238396663813
 30
0.0
 40
2.000000000000057
100
AcDbArc
 50
270.0
 51
313.7000000000053
  0
LINE
  5
1FD0
330
1A
100
AcDbEntity
  8
SEIHIN
  6
Continuous
 62
     3
 48
5.0
100
AcDbLine
 10
626.5833080555863
 20
173.1506281113812
 30
0.0
 11
626.2622127451864
 21
166.0795602995312
 31
0.0
  0
LINE
  5
1FD1
330
1A
100
AcDbEntity
  8
SEIHIN
  6
Continuous
 62
     3
 48
5.0
100
AcDbLine
 10
626.2622127451864
 20
166.0795602995312
 30
0.0
 11
625.9411174347861
 21
159.0084924876812
 31
0.0
  0
LINE
  5
1FD2
330
1A
100
AcDbEntity
  8
SEIHIN
  6
Continuous
 62
     3
 48
5.0
100
AcDbLine
 10
625.9411171614861
 20
159.0084941525812
 30
0.0
 11
625.8818217157859
 21
157.7026830453812
 31
0.0
  0
LINE
  5
1FD3
330
1A
100
AcDbEntity
  8
SEIHIN
  6
Continuous
 62
     3
 48
5.0
100
AcDbLine
 10
625.8818217157859
 20
157.7026830453812
 30
0.0
 11
625.8106276928861
 21
156.1348685462812
 31
0.0
  0
ARC
  5
1FD4
330
1A
100
AcDbEntity
  8
SEIHIN
  6
Continuous
 62
     3
 48
5.0
100
AcDbCircle
 10
624.711718846786
 20
176.0238396663812
 30
0.0
 40
2.000000000000011
100
AcDbArc
 50
313.7000000000053
 51
357.400000000002
  0
LINE
  5
1FD5
330
1A
100
AcDbEntity
  8
SEIHIN
  6
Continuous
 62
     3
 48
5.0
100
AcDbLine
 10
626.6369566857861
 20
174.3320734639812
 30
0.0
 11
626.5833087801861
 21
173.1506274480812
 31
0.0
  0
LINE
  5
1FD6
330
1A
100
AcDbEntity
  8
SEIHIN
  6
Continuous
 62
     3
 48
5.0
100
AcDbLine
 10
626.6768210171863
 20
175.2099679250812
 30
0.0
 11
626.6369566857861
 21
174.3320734639812
 31
0.0
  0
LINE
  5
1FD7
330
1A
100
AcDbEntity
  8
SEIHIN
  6
Continuous
 62
     3
 48
5.0
100
AcDbLine
 10
626.7013706802859
 20
175.7505746025812
 30
0.0
 11
626.6768210171863
 21
175.2099679250812
 31
0.0
  0
LINE
  5
1FD8
330
1A
100
AcDbEntity
  8
SEIHIN
  6
Continuous
 62
     3
 48
5.0
100
AcDbLine
 10
626.7096594511863
 20
175.9331138272812
 30
0.0
 11
626.7013706802859
 21
175.7505746025812
 31
0.0
  0
LINE
  5
1FD9
330
1A
100
AcDbEntity
  8
SEIHIN
  6
Continuous
 62
     3
 48
5.0
100
AcDbLine
 10
624.3206080945838
 20
178.4331136901265
 30
0.0
 11
625.1322956614426
 21
196.3078619074765
 31
0.0
  0
LINE
  5
1FDA
330
1A
100
AcDbEntity
  8
SEIHIN
  6
Continuous
 62
     3
 48
5.0
100
AcDbLine
 10
634.9957075739862
 20
218.0238396663812
 30
0.0
 11
634.9957075739862
 21
227.7738396663813
 31
0.0
  0
LINE
  5
1FDB
330
1A
100
AcDbEntity
  8
SEIHIN
  6
Continuous
 62
     3
 48
5.0
100
AcDbLine
 10
632.4957075739862
 20
218.5238396663812
 30
0.0
 11
632.4957075739862
 21
226.7738396663813
 31
0.0
  0
ARC
  5
1FDC
330
1A
100
AcDbEntity
  8
SEIHIN
  6
Continuous
 62
     3
 48
5.0
100
AcDbCircle
 10
631.9957075739862
 20
218.0238396663812
 30
0.0
 40
3.0
100
AcDbArc
 50
270.0
 51
315.0000000000078
  0
ARC
  5
1FDD
330
1A
100
AcDbEntity
  8
SEIHIN
  6
Continuous
 62
     3
 48
5.0
100
AcDbCircle
 10
627.529138709072
 20
216.0238396663812
 30
0.0
 40
1.5
100
AcDbArc
 50
90.0
 51
133.7000000000597
  0
ARC
  5
1FDE
330
1A
100
AcDbEntity
  8
SEIHIN
  6
Continuous
 62
     3
 48
5.0
100
AcDbCircle
 10
627.5291387090861
 20
216.0238396663812
 30
0.0
 40
1.5
100
AcDbArc
 50
90.0
 51
133.7000000000053
  0
ARC
  5
1FDF
330
1A
100
AcDbEntity
  8
SEIHIN
  6
Continuous
 62
     3
 48
5.0
100
AcDbCircle
 10
627.5291387090861
 20
216.0238396663812
 30
0.0
 40
1.499999999999999
100
AcDbArc
 50
133.7000000000053
 51
177.3999999999999
  0
ARC
  5
1FE0
330
1A
100
AcDbEntity
  8
SEIHIN
  6
Continuous
 62
     3
 48
5.0
100
AcDbCircle
 10
627.529138709072
 20
216.0238396663812
 30
0.0
 40
1.50000000000002
100
AcDbArc
 50
133.7000000000597
 51
177.4000000001287
  0
LINE
  5
1FE1
330
1A
100
AcDbEntity
  8
SEIHIN
  6
Continuous
 62
     3
 48
5.0
100
AcDbLine
 10
629.5124231415289
 20
217.5238396663812
 30
0.0
 11
631.4957075739862
 21
217.5238396663812
 31
0.0
  0
LINE
  5
1FE2
330
1A
100
AcDbEntity
  8
SEIHIN
  6
Continuous
 62
     3
 48
5.0
100
AcDbLine
 10
627.529138709072
 20
217.5238396663812
 30
0.0
 11
629.5124231415289
 21
217.5238396663812
 31
0.0
  0
ARC
  5
1FE3
330
1A
100
AcDbEntity
  8
SEIHIN
  6
Continuous
 62
     3
 48
5.0
100
AcDbCircle
 10
631.4957075739862
 20
218.5238396663812
 30
0.0
 40
1.0
100
AcDbArc
 50
314.9999999999916
 51
0.0
  0
ARC
  5
1FE4
330
1A
100
AcDbEntity
  8
SEIHIN
  6
Continuous
 62
     3
 48
5.0
100
AcDbCircle
 10
631.4957075739862
 20
218.5238396663812
 30
0.0
 40
1.000000000000008
100
AcDbArc
 50
270.0
 51
314.9999999999916
  0
ARC
  5
1FE5
330
1A
100
AcDbEntity
  8
SEIHIN
  6
Continuous
 62
     3
 48
5.0
100
AcDbCircle
 10
631.4957075739862
 20
218.5238396663812
 30
0.0
 40
1.0
100
AcDbArc
 50
270.0
 51
314.9999999999916
  0
ARC
  5
1FE6
330
1A
100
AcDbEntity
  8
SEIHIN
  6
Continuous
 62
     3
 48
5.0
100
AcDbCircle
 10
631.4957075739862
 20
218.5238396663812
 30
0.0
 40
1.000000000000008
100
AcDbArc
 50
314.9999999999916
 51
0.0
  0
LINE
  5
1FE7
330
1A
100
AcDbEntity
  8
SEIHIN
  6
Continuous
 62
     3
 48
5.0
100
AcDbLine
 10
630.7180438982864
 20
215.0238396663812
 30
0.0
 11
631.9957075739862
 21
215.0238396663812
 31
0.0
  0
ARC
  5
1FE8
330
1A
100
AcDbEntity
  8
SEIHIN
  6
Continuous
 62
     3
 48
5.0
100
AcDbCircle
 10
629.4403802225861
 20
214.0238396663812
 30
0.0
 40
1.0
100
AcDbArc
 50
90.0
 51
133.7000000000053
  0
ARC
  5
1FE9
330
1A
100
AcDbEntity
  8
SEIHIN
  6
Continuous
 62
     3
 48
5.0
100
AcDbCircle
 10
629.4403802225861
 20
214.0238396663812
 30
0.0
 40
0.9999999999999867
100
AcDbArc
 50
133.7000000000053
 51
177.3999999999987
  0
LINE
  5
1FEA
330
1A
100
AcDbEntity
  8
SEIHIN
  6
Continuous
 62
     3
 48
5.0
100
AcDbLine
 10
629.4403802225861
 20
215.0238396663812
 30
0.0
 11
630.7180438982864
 21
215.0238396663812
 31
0.0
  0
ARC
  5
1FEB
330
1A
100
AcDbEntity
  8
SEIHIN
  6
Continuous
 62
     3
 48
5.0
100
AcDbCircle
 10
631.9957075739862
 20
218.0238396663812
 30
0.0
 40
2.999999999999984
100
AcDbArc
 50
315.0000000000078
 51
0.0000000000012213
  0
LINE
  5
1FEC
330
1A
100
AcDbEntity
  8
SEIHIN
  6
Continuous
 62
     3
 48
5.0
100
AcDbLine
 10
629.5957075739862
 20
238.5238396663813
 30
0.0
 11
625.1957075739861
 21
238.5238396663813
 31
0.0
  0
ARC
  5
1FED
330
1A
100
AcDbEntity
  8
SEIHIN
  6
Continuous
 62
     3
 48
5.0
100
AcDbCircle
 10
632.006118673286
 20
233.1101255384813
 30
0.0
 40
8.700000000000083
100
AcDbArc
 50
115.2025193712026
 51
141.5182013250993
  0
LINE
  5
1FEE
330
1A
100
AcDbEntity
  8
SEIHIN
  6
Continuous
 62
     3
 48
5.0
100
AcDbLine
 10
628.3457082811647
 20
236.0238398675313
 30
0.0
 11
625.1957089244861
 21
236.0238400686813
 31
0.0
  0
ARC
  5
1FEF
330
1A
100
AcDbEntity
  8
SEIHIN
  6
Continuous
 62
     3
 48
5.0
100
AcDbCircle
 10
625.1957075739861
 20
236.7738396663813
 30
0.0
 40
1.75
100
AcDbArc
 50
180.0
 51
270.0
  0
LINE
  5
1FF0
330
1A
100
AcDbEntity
  8
SEIHIN
  6
Continuous
 62
     3
 48
5.0
100
AcDbLine
 10
625.1957082492359
 20
235.5238398675313
 30
0.0
 11
625.1957089244861
 21
236.0238400686813
 31
0.0
  0
LINE
  5
1FF1
330
1A
100
AcDbEntity
  8
SEIHIN
  6
Continuous
 62
     3
 48
5.0
100
AcDbLine
 10
625.1957075739861
 20
235.0238396663813
 30
0.0
 11
625.1957082492359
 21
235.5238398675313
 31
0.0
  0
ARC
  5
1FF2
330
1A
100
AcDbEntity
  8
SEIHIN
  6
Continuous
 62
     3
 48
5.0
100
AcDbCircle
 10
625.1957075739861
 20
236.7738396663813
 30
0.0
 40
1.75
100
AcDbArc
 50
90.0
 51
180.0
  0
ARC
  5
1FF3
330
1A
100
AcDbEntity
  8
SEIHIN
  6
Continuous
 62
     3
 48
5.0
100
AcDbCircle
 10
631.4957075739862
 20
235.0238396663813
 30
0.0
 40
1.000000000000008
100
AcDbArc
 50
45.00000000000835
 51
90.0
  0
ARC
  5
1FF4
330
1A
100
AcDbEntity
  8
SEIHIN
  6
Continuous
 62
     3
 48
5.0
100
AcDbCircle
 10
631.4957075739862
 20
235.0238396663813
 30
0.0
 40
1.000000000000002
100
AcDbArc
 50
44.9999981706236
 51
89.99999634125111
  0
LINE
  5
1FF5
330
1A
100
AcDbEntity
  8
SEIHIN
  6
Continuous
 62
     3
 48
5.0
100
AcDbLine
 10
634.9957075739862
 20
227.7738396663813
 30
0.0
 11
634.9957075739865
 21
238.5238396663813
 31
0.0
  0
ARC
  5
1FF6
330
1A
100
AcDbEntity
  8
SEIHIN
  6
Continuous
 62
     3
 48
5.0
100
AcDbCircle
 10
631.4957075739862
 20
235.0238396663813
 30
0.0
 40
0.9999999999999684
100
AcDbArc
 50
0.0
 51
44.9999981706236
  0
ARC
  5
1FF7
330
1A
100
AcDbEntity
  8
SEIHIN
  6
Continuous
 62
     3
 48
5.0
100
AcDbCircle
 10
631.4957075739862
 20
235.0238396663813
 30
0.0
 40
1.0
100
AcDbArc
 50
0.0
 51
45.00000000000835
  0
LINE
  5
1FF8
330
1A
100
AcDbEntity
  8
SEIHIN
  6
Continuous
 62
     3
 48
5.0
100
AcDbLine
 10
632.4957075739862
 20
226.7738396663813
 30
0.0
 11
632.4957075739862
 21
235.0238396663813
 31
0.0
  0
ARC
  5
1FF9
330
1A
100
AcDbEntity
  8
SEIHIN
  6
Continuous
 62
     3
 48
5.0
100
AcDbCircle
 10
633.9957075739862
 20
237.5238396663813
 30
0.0
 40
1.000000000000008
100
AcDbArc
 50
45.00000000000835
 51
90.0
  0
LINE
  5
1FFA
330
1A
100
AcDbEntity
  8
SEIHIN
  6
Continuous
 62
     3
 48
5.0
100
AcDbLine
 10
634.9957075739865
 20
238.5238396663813
 30
0.0
 11
629.5957075739862
 21
238.5238396663813
 31
0.0
  0
ARC
  5
1FFB
330
1A
100
AcDbEntity
  8
SEIHIN
  6
Continuous
 62
     3
 48
5.0
100
AcDbCircle
 10
632.006118673286
 20
233.1101255384813
 30
0.0
 40
8.700000000000093
100
AcDbArc
 50
88.88683741729467
 51
115.2025193712026
  0
ARC
  5
1FFC
330
1A
100
AcDbEntity
  8
SEIHIN
  6
Continuous
 62
     3
 48
5.0
100
AcDbCircle
 10
632.1557075739861
 20
240.8086723598813
 30
0.0
 40
1.0
100
AcDbArc
 50
0.0
 51
44.44341870865066
  0
ARC
  5
1FFD
330
1A
100
AcDbEntity
  8
SEIHIN
  6
Continuous
 62
     3
 48
5.0
100
AcDbCircle
 10
632.1557075739861
 20
240.8086723598813
 30
0.0
 40
0.9999999999999991
100
AcDbArc
 50
44.44341870865066
 51
88.8868374173077
  0
LINE
  5
1FFE
330
1A
100
AcDbEntity
  8
SEIHIN
  6
Continuous
 62
     3
 48
5.0
100
AcDbLine
 10
633.1557078212859
 20
239.6662559535313
 30
0.0
 11
633.1557080685861
 21
238.5238395471812
 31
0.0
  0
LINE
  5
1FFF
330
1A
100
AcDbEntity
  8
SEIHIN
  6
Continuous
 62
     3
 48
5.0
100
AcDbLine
 10
633.1557075739861
 20
240.8086723598813
 30
0.0
 11
633.1557078212859
 21
239.6662559535313
 31
0.0
  0
LINE
  5
2000
330
1A
100
AcDbEntity
  8
SEIHIN
  6
Continuous
 62
     3
 48
5.0
100
AcDbLine
 10
631.4957076378432
 20
236.0238396663813
 30
0.0
 11
628.3457082811647
 21
236.0238398675313
 31
0.0
  0
ARC
  5
2001
330
1A
100
AcDbEntity
  8
SEIHIN
  6
Continuous
 62
     3
 48
5.0
100
AcDbCircle
 10
633.9957075739862
 20
237.5238396663813
 30
0.0
 40
1.0
100
AcDbArc
 50
0.0
 51
45.00000000000835
  0
DIMENSION
  5
2002
330
1A
100
AcDbEntity
  8
SUNPOU
 62
     4
 48
5.0
100
AcDbDimension
  2
*D13
 10
600.6116922931437
 20
488.2506008261465
 30
0.0
 11
565.6116922931437
 21
492.2506008261465
 31
0.0
 70
    32
 71
     5
 42
70.0
  3
STANDARD
100
AcDbAlignedDimension
 13
530.6116922931437
 23
450.2854054052098
 33
0.0
 14
600.6116922931437
 24
450.2854054052098
 34
0.0
100
AcDbRotatedDimension
1001
ACAD
1000
DSTYLE
1002
{
1070
    41
1040
3.5
1070
    42
1040
3.0
1070
    43
1040
7.0
1070
    44
1040
1.5
1070
    73
1070
     0
1070
    74
1070
     0
1070
    77
1070
     3
1070
   140
1040
6.0
1070
   141
1040
7.0
1070
   147
1040
1.0
1070
   172
1070
     1
1070
   173
1070
     1
1070
   176
1070
     4
1070
   177
1070
     4
1070
   178
1070
     4
1070
   271
1070
     0
1070
   272
1070
     2
1070
     6
1000
OPEN
1070
     7
1000
OPEN
1002
}
  0
LINE
  5
2003
330
1A
100
AcDbEntity
  8
SEIHIN
100
AcDbLine
 10
544.1116922931437
 20
450.2854054052098
 30
0.0
 11
530.6116922931437
 21
450.2854054052098
 31
0.0
  0
ARC
  5
2004
330
1A
100
AcDbEntity
  8
SEIHIN
100
AcDbCircle
 10
543.6116922931437
 20
434.2854054052098
 30
0.0
 40
2.0
100
AcDbArc
 50
270.0
 51
0.0
  0
ARC
  5
2005
330
1A
100
AcDbEntity
  8
SEIHIN
100
AcDbCircle
 10
542.9636014270438
 20
442.2854054052097
 30
0.0
 40
9.999999999999998
100
AcDbArc
 50
197.3540246363016
 51
270.0
  0
LINE
  5
2006
330
1A
100
AcDbEntity
  8
SEIHIN
100
AcDbLine
 10
543.6116922931437
 20
432.2854054052098
 30
0.0
 11
542.9636014270438
 21
432.2854054052098
 31
0.0
  0
LINE
  5
2007
330
1A
100
AcDbEntity
  8
SEIHIN
100
AcDbLine
 10
533.4188016466437
 20
439.3026554738097
 30
0.0
 11
530.6116922931437
 21
448.2854054052098
 31
0.0
  0
LINE
  5
2008
330
1A
100
AcDbEntity
  8
SEIHIN
100
AcDbLine
 10
530.6116922931437
 20
448.2854054052098
 30
0.0
 11
530.6116922931437
 21
450.2854054052098
 31
0.0
  0
ARC
  5
2009
330
1A
100
AcDbEntity
  8
SEIHIN
100
AcDbCircle
 10
531.6116922931437
 20
449.2854054052098
 30
0.0
 40
1.0
100
AcDbArc
 50
90.0
 51
93.03947777139152
  0
DIMENSION
  5
200B
330
1A
100
AcDbEntity
  8
SUNPOU
 62
     4
 48
5.0
100
AcDbDimension
  2
*D14
 10
614.3716755349431
 20
432.2854054052097
 30
0.0
 11
610.3716755349429
 21
441.2854054052098
 31
0.0
 70
    32
 71
     5
 42
18.00000000000006
  3
STANDARD
100
AcDbAlignedDimension
 13
600.6116922931437
 23
450.2854054052098
 33
0.0
 14
588.2597831592437
 24
432.2854054052097
 34
0.0
 50
90.0
100
AcDbRotatedDimension
1001
ACAD
1000
DSTYLE
1002
{
1070
    41
1040
3.5
1070
    42
1040
3.0
1070
    43
1040
7.0
1070
    44
1040
1.5
1070
    73
1070
     0
1070
    74
1070
     0
1070
    77
1070
     3
1070
   140
1040
6.0
1070
   141
1040
7.0
1070
   147
1040
1.0
1070
   172
1070
     1
1070
   173
1070
     1
1070
   176
1070
     4
1070
   177
1070
     4
1070
   178
1070
     4
1070
   271
1070
     0
1070
   272
1070
     2
1070
     6
1000
OPEN
1070
     7
1000
OPEN
1002
}
  0
DIMENSION
  5
200C
330
1A
100
AcDbEntity
  8
SUNPOU
 62
     4
 48
5.0
100
AcDbDimension
  2
*D15
 10
627.3148895007613
 20
430.2854054052098
 30
0.0
 11
627.3148895007612
 21
445.2854054052098
 31
0.0
 70
   160
 71
     5
 42
30.0
  3
STANDARD
100
AcDbAlignedDimension
 13
558.6116922931437
 23
460.2854054052098
 33
0.0
 14
565.6116922931437
 24
430.2854054052098
 34
0.0
 50
90.0
100
AcDbRotatedDimension
1001
ACAD
1000
DSTYLE
1002
{
1070
    41
1040
3.5
1070
    42
1040
3.0
1070
    43
1040
7.0
1070
    44
1040
1.5
1070
    73
1070
     0
1070
    74
1070
     0
1070
    77
1070
     3
1070
   140
1040
6.0
1070
   141
1040
7.0
1070
   147
1040
1.0
1070
   172
1070
     1
1070
   173
1070
     1
1070
   176
1070
     4
1070
   177
1070
     4
1070
   178
1070
     4
1070
   271
1070
     0
1070
   272
1070
     2
1070
     6
1000
OPEN
1070
     7
1000
OPEN
1002
}
  0
ARC
  5
200D
330
1A
100
AcDbEntity
  8
SEIHIN
100
AcDbCircle
 10
587.6116922931437
 20
434.2854054052098
 30
0.0
 40
2.0
100
AcDbArc
 50
180.0
 51
270.0
  0
ARC
  5
200E
330
1A
100
AcDbEntity
  8
SEIHIN
100
AcDbCircle
 10
588.2597831592437
 20
442.2854054052097
 30
0.0
 40
9.999999999999972
100
AcDbArc
 50
270.0
 51
342.6459753636984
  0
ARC
  5
200F
330
1A
100
AcDbEntity
  8
SEIHIN
100
AcDbCircle
 10
563.6116922931437
 20
438.2854054052097
 30
0.0
 40
8.0
100
AcDbArc
 50
180.0
 51
270.0
  0
ARC
  5
2010
330
1A
100
AcDbEntity
  8
SEIHIN
100
AcDbCircle
 10
567.6116922931437
 20
438.2854054052097
 30
0.0
 40
7.999999999999972
100
AcDbArc
 50
270.0
 51
0.0
  0
LINE
  5
2011
330
1A
100
AcDbEntity
  8
CENTER L
  6
CENTER
 62
     1
 48
5.0
100
AcDbLine
 10
565.6116922931437
 20
462.3295385394557
 30
0.0
 11
565.6116922931437
 21
428.2546751514776
 31
0.0
  0
LINE
  5
2012
330
1A
100
AcDbEntity
  8
SEIHIN
100
AcDbLine
 10
567.6116922931437
 20
430.2854054052098
 30
0.0
 11
563.6116922931437
 21
430.2854054052098
 31
0.0
  0
LINE
  5
2013
330
1A
100
AcDbEntity
  8
SEIHIN
100
AcDbLine
 10
588.2597831592437
 20
432.2854054052098
 30
0.0
 11
587.6116922931437
 21
432.2854054052098
 31
0.0
  0
ARC
  5
2014
330
1A
100
AcDbEntity
  8
SEIHIN
100
AcDbCircle
 10
576.6116922931437
 20
450.2854054052098
 30
0.0
 40
1.0
100
AcDbArc
 50
180.0
 51
270.0
  0
LINE
  5
2015
330
1A
100
AcDbEntity
  8
SEIHIN
100
AcDbLine
 10
575.6116922931437
 20
448.2854054052098
 30
0.0
 11
585.6116922931437
 21
448.2854054052098
 31
0.0
  0
LINE
  5
2016
330
1A
100
AcDbEntity
  8
SEIHIN
100
AcDbLine
 10
555.6116922931437
 20
438.2854054052097
 30
0.0
 11
555.6116922931437
 21
457.2854054052098
 31
0.0
  0
LINE
  5
2017
330
1A
100
AcDbEntity
  8
SEIHIN
100
AcDbLine
 10
575.6116922931437
 20
457.2854054052098
 30
0.0
 11
575.6116922931437
 21
438.2854054052097
 31
0.0
  0
LINE
  5
2018
330
1A
100
AcDbEntity
  8
SEIHIN
100
AcDbLine
 10
545.6116922931437
 20
450.2854054052098
 30
0.0
 11
545.6116922931437
 21
434.2854054052098
 31
0.0
  0
LINE
  5
2019
330
1A
100
AcDbEntity
  8
SEIHIN
100
AcDbLine
 10
546.6116922931437
 20
449.2854054052098
 30
0.0
 11
554.6116922931437
 21
449.2854054052098
 31
0.0
  0
LINE
  5
201A
330
1A
100
AcDbEntity
  8
SEIHIN
100
AcDbLine
 10
545.6116922931437
 20
448.2854054052098
 30
0.0
 11
555.6116922931437
 21
448.2854054052098
 31
0.0
  0
LINE
  5
201B
330
1A
100
AcDbEntity
  8
SEIHIN
100
AcDbLine
 10
544.1116922931437
 20
450.2854054052098
 30
0.0
 11
545.6116922931437
 21
450.2854054052098
 31
0.0
  0
ARC
  5
201C
330
1A
100
AcDbEntity
  8
SEIHIN
100
AcDbCircle
 10
546.6116922931437
 20
450.2854054052098
 30
0.0
 40
1.0
100
AcDbArc
 50
180.0
 51
270.0
  0
ARC
  5
201D
330
1A
100
AcDbEntity
  8
SEIHIN
100
AcDbCircle
 10
554.6116922931437
 20
450.2854054052098
 30
0.0
 40
1.0
100
AcDbArc
 50
270.0
 51
0.0
  0
LINE
  5
201E
330
1A
100
AcDbEntity
  8
SEIHIN
100
AcDbLine
 10
558.6116922931437
 20
460.2854054052098
 30
0.0
 11
572.6116922931437
 21
460.2854054052098
 31
0.0
  0
DIMENSION
  5
201F
330
1A
100
AcDbEntity
  8
SUNPOU
 62
     4
 48
5.0
100
AcDbDimension
  2
*D16
 10
575.6116922931437
 20
472.3672851621869
 30
0.0
 11
565.6116922931437
 21
476.3672851621869
 31
0.0
 70
    32
 71
     5
 42
20.0
  3
STANDARD
100
AcDbAlignedDimension
 13
555.6116922931437
 23
457.2854054052098
 33
0.0
 14
575.6116922931437
 24
457.2854054052098
 34
0.0
100
AcDbRotatedDimension
1001
ACAD
1000
DSTYLE
1002
{
1070
    41
1040
3.5
1070
    42
1040
3.0
1070
    43
1040
7.0
1070
    44
1040
1.5
1070
    73
1070
     0
1070
    74
1070
     0
1070
    77
1070
     3
1070
   140
1040
6.0
1070
   141
1040
7.0
1070
   147
1040
1.0
1070
   172
1070
     1
1070
   173
1070
     1
1070
   176
1070
     4
1070
   177
1070
     4
1070
   178
1070
     4
1070
   271
1070
     0
1070
   272
1070
     2
1070
     6
1000
OPEN
1070
     7
1000
OPEN
1002
}
  0
ARC
  5
2020
330
1A
100
AcDbEntity
  8
SEIHIN
100
AcDbCircle
 10
558.6116922931437
 20
457.2854054052098
 30
0.0
 40
3.0
100
AcDbArc
 50
90.0
 51
180.0
  0
ARC
  5
2021
330
1A
100
AcDbEntity
  8
SEIHIN
100
AcDbCircle
 10
572.6116922931437
 20
457.2854054052098
 30
0.0
 40
3.0
100
AcDbArc
 50
0.0
 51
90.0
  0
DIMENSION
  5
2022
330
1A
100
AcDbEntity
  8
SUNPOU
 62
     4
 48
5.0
100
AcDbDimension
  2
*D17
 10
600.6116922931437
 20
472.3672851621869
 30
0.0
 11
593.1116922931437
 21
476.3672851621869
 31
0.0
 70
    32
 71
     5
 42
15.0
  3
STANDARD
100
AcDbAlignedDimension
 13
585.6116922931437
 23
450.2854054052098
 33
0.0
 14
600.6116922931437
 24
450.2854054052098
 34
0.0
100
AcDbRotatedDimension
1001
ACAD
1000
DSTYLE
1002
{
1070
    41
1040
3.5
1070
    42
1040
3.0
1070
    43
1040
7.0
1070
    44
1040
1.5
1070
    73
1070
     0
1070
    74
1070
     0
1070
    77
1070
     3
1070
   140
1040
6.0
1070
   141
1040
7.0
1070
   147
1040
1.0
1070
   172
1070
     1
1070
   173
1070
     1
1070
   176
1070
     4
1070
   177
1070
     4
1070
   178
1070
     4
1070
   271
1070
     0
1070
   272
1070
     2
1070
     6
1000
OPEN
1070
     7
1000
OPEN
1002
}
  0
LINE
  5
2023
330
1A
100
AcDbEntity
  8
SEIHIN
100
AcDbLine
 10
600.6116922931437
 20
450.2854054052098
 30
0.0
 11
587.1116922931437
 21
450.2854054052098
 31
0.0
  0
LINE
  5
2024
330
1A
100
AcDbEntity
  8
SEIHIN
100
AcDbLine
 10
585.6116922931437
 20
434.2854054052098
 30
0.0
 11
585.6116922931437
 21
450.2854054052098
 31
0.0
  0
ARC
  5
2025
330
1A
100
AcDbEntity
  8
SEIHIN
100
AcDbCircle
 10
584.6116922931437
 20
450.2854054052098
 30
0.0
 40
1.0
100
AcDbArc
 50
270.0
 51
0.0
  0
LINE
  5
2026
330
1A
100
AcDbEntity
  8
SEIHIN
100
AcDbLine
 10
576.6116922931437
 20
449.2854054052098
 30
0.0
 11
584.6116922931437
 21
449.2854054052098
 31
0.0
  0
LINE
  5
2027
330
1A
100
AcDbEntity
  8
SEIHIN
100
AcDbLine
 10
585.6116922931437
 20
450.2854054052098
 30
0.0
 11
587.1116922931437
 21
450.2854054052098
 31
0.0
  0
LINE
  5
2028
330
1A
100
AcDbEntity
  8
SEIHIN
100
AcDbLine
 10
600.6116922931437
 20
448.2854054052098
 30
0.0
 11
597.8045829395437
 21
439.3026554738097
 31
0.0
  0
ARC
  5
2029
330
1A
100
AcDbEntity
  8
SEIHIN
100
AcDbCircle
 10
599.6116922931437
 20
449.2854054052098
 30
0.0
 40
0.9999999999999191
100
AcDbArc
 50
86.96052222859544
 51
90.0
  0
LINE
  5
202A
330
1A
100
AcDbEntity
  8
SEIHIN
100
AcDbLine
 10
600.6116922931437
 20
450.2854054052098
 30
0.0
 11
600.6116922931437
 21
448.2854054052098
 31
0.0
  0
LINE
  5
202B
330
1A
100
AcDbEntity
  8
SEIHIN
100
AcDbLine
 10
653.7070764990158
 20
439.3026554738098
 30
0.0
 11
653.7070764990158
 21
432.2854054052098
 31
0.0
  0
LINE
  5
202C
330
1A
100
AcDbEntity
  8
SEIHIN
100
AcDbLine
 10
654.207076499016
 20
439.3026554738098
 30
0.0
 11
654.207076499016
 21
432.2854054052098
 31
0.0
  0
LINE
  5
202D
330
1A
100
AcDbEntity
  8
SEIHIN
100
AcDbLine
 10
652.207076499016
 20
431.7854054052098
 30
0.0
 11
652.207076499016
 21
433.7854054052098
 31
0.0
  0
LINE
  5
202E
330
1A
100
AcDbEntity
  8
SEIHIN
100
AcDbLine
 10
654.207076499016
 20
436.2854054052096
 30
0.0
 11
654.207076499016
 21
432.2854054052096
 31
0.0
  0
LINE
  5
202F
330
1A
100
AcDbEntity
  8
SEIHIN
100
AcDbLine
 10
654.207076499016
 20
430.2854054052098
 30
0.0
 11
653.7070764990158
 21
430.2854054052098
 31
0.0
  0
ARC
  5
2030
330
1A
100
AcDbEntity
  8
SEIHIN
100
AcDbCircle
 10
653.7070764990158
 20
431.7854054052098
 30
0.0
 40
1.499999999999886
100
AcDbArc
 50
180.0
 51
270.0
  0
LINE
  5
2031
330
1A
100
AcDbEntity
  8
SEIHIN
100
AcDbLine
 10
654.207076499016
 20
432.2854054052098
 30
0.0
 11
654.207076499016
 21
430.2854054052098
 31
0.0
  0
LINE
  5
2032
330
1A
100
AcDbEntity
  8
SEIHIN
100
AcDbLine
 10
653.7070764990158
 20
432.2854054052098
 30
0.0
 11
653.7070764990158
 21
430.2854054052098
 31
0.0
  0
LINE
  5
2033
330
1A
100
AcDbEntity
  8
SEIHIN
100
AcDbLine
 10
654.207076499016
 20
432.2854054052096
 30
0.0
 11
654.207076499016
 21
430.2854054052096
 31
0.0
  0
DIMENSION
  5
2034
330
1A
100
AcDbEntity
  8
SUNPOU
 62
     4
 48
5.0
100
AcDbDimension
  2
*D18
 10
660.207076499016
 20
472.3672851621869
 30
0.0
 11
656.2070764990159
 21
476.3672851621869
 31
0.0
 70
    32
 71
     5
 42
8.000000000000227
  3
STANDARD
100
AcDbAlignedDimension
 13
652.2070764990158
 23
458.7854054052098
 33
0.0
 14
660.207076499016
 24
448.7854054052097
 34
0.0
100
AcDbRotatedDimension
1001
ACAD
1000
DSTYLE
1002
{
1070
    41
1040
3.5
1070
    42
1040
3.0
1070
    43
1040
7.0
1070
    44
1040
1.5
1070
    73
1070
     0
1070
    74
1070
     0
1070
    77
1070
     3
1070
   140
1040
6.0
1070
   141
1040
7.0
1070
   147
1040
1.0
1070
   172
1070
     1
1070
   173
1070
     1
1070
   176
1070
     4
1070
   177
1070
     4
1070
   178
1070
     4
1070
   271
1070
     0
1070
   272
1070
     2
1070
     6
1000
OPEN
1070
     7
1000
OPEN
1002
}
  0
LINE
  5
2035
330
1A
100
AcDbEntity
  8
SEIHIN
100
AcDbLine
 10
652.207076499016
 20
450.2854054052098
 30
0.0
 11
652.207076499016
 21
457.2854054052098
 31
0.0
  0
LINE
  5
2036
330
1A
100
AcDbEntity
  8
SEIHIN
100
AcDbLine
 10
654.207076499016
 20
457.2854054052098
 30
0.0
 11
654.207076499016
 21
450.7854054052098
 31
0.0
  0
LINE
  5
2037
330
1A
100
AcDbEntity
  8
SEIHIN
100
AcDbLine
 10
654.207076499016
 20
458.2854054052098
 30
0.0
 11
654.207076499016
 21
450.2854054052098
 31
0.0
  0
LINE
  5
2038
330
1A
100
AcDbEntity
  8
SEIHIN
100
AcDbLine
 10
652.207076499016
 20
450.2854054052098
 30
0.0
 11
659.207076499016
 21
450.2854054052098
 31
0.0
  0
LINE
  5
2039
330
1A
100
AcDbEntity
  8
SEIHIN
100
AcDbLine
 10
659.207076499016
 20
448.2854054052098
 30
0.0
 11
654.207076499016
 21
448.2854054052098
 31
0.0
  0
LINE
  5
203A
330
1A
100
AcDbEntity
  8
SEIHIN
100
AcDbLine
 10
655.9834561168161
 20
444.2056601829097
 30
0.0
 11
655.6570764990158
 21
448.2854054052098
 31
0.0
  0
LINE
  5
203B
330
1A
100
AcDbEntity
  8
SEIHIN
100
AcDbLine
 10
658.1570764990158
 20
448.2854054052098
 30
0.0
 11
658.1570764990158
 21
443.2854054052098
 31
0.0
  0
LINE
  5
203C
330
1A
100
AcDbEntity
  8
SEIHIN
100
AcDbLine
 10
658.1570764990161
 20
448.2854054052096
 30
0.0
 11
658.1570764990161
 21
443.2854054052096
 31
0.0
  0
LINE
  5
203D
330
1A
100
AcDbEntity
  8
SEIHIN
100
AcDbLine
 10
653.7070764990158
 20
448.2854054052098
 30
0.0
 11
653.7070764990158
 21
439.3026554738098
 31
0.0
  0
LINE
  5
203E
330
1A
100
AcDbEntity
  8
SEIHIN
100
AcDbLine
 10
654.207076499016
 20
439.3026554738098
 30
0.0
 11
654.207076499016
 21
448.2854054052098
 31
0.0
  0
LINE
  5
203F
330
1A
100
AcDbEntity
  8
SEIHIN
100
AcDbLine
 10
652.207076499016
 20
439.7500679635098
 30
0.0
 11
652.207076499016
 21
450.2839986425097
 31
0.0
  0
LINE
  5
2040
330
1A
100
AcDbEntity
  8
SEIHIN
100
AcDbLine
 10
658.1570764990158
 20
443.2854054052098
 30
0.0
 11
656.9802713953161
 21
443.2854054052098
 31
0.0
  0
ARC
  5
2041
330
1A
100
AcDbEntity
  8
SEIHIN
100
AcDbCircle
 10
656.9802713953161
 20
444.2854054052098
 30
0.0
 40
1.000000000000008
100
AcDbArc
 50
184.5739212599011
 51
270.0
  0
LINE
  5
2042
330
1A
100
AcDbEntity
  8
SEIHIN
100
AcDbLine
 10
652.207076499016
 20
433.7854054052098
 30
0.0
 11
652.207076499016
 21
439.7500679635098
 31
0.0
  0
LINE
  5
2043
330
1A
100
AcDbEntity
  8
SEIHIN
100
AcDbLine
 10
652.207076499016
 20
450.2839986425097
 30
0.0
 11
652.207076499016
 21
450.2854054052098
 31
0.0
  0
LINE
  5
2044
330
1A
100
AcDbEntity
  8
SEIHIN
100
AcDbLine
 10
654.207076499016
 20
448.2854054052098
 30
0.0
 11
653.7070764990158
 21
448.2854054052098
 31
0.0
  0
LINE
  5
2045
330
1A
100
AcDbEntity
  8
SEIHIN
100
AcDbLine
 10
660.207076499016
 20
449.2854054052098
 30
0.0
 11
660.207076499016
 21
448.2854054052098
 31
0.0
  0
LINE
  5
2046
330
1A
100
AcDbEntity
  8
SEIHIN
100
AcDbLine
 10
660.207076499016
 20
448.2854054052098
 30
0.0
 11
659.207076499016
 21
448.2854054052098
 31
0.0
  0
ARC
  5
2047
330
1A
100
AcDbEntity
  8
SEIHIN
100
AcDbCircle
 10
659.207076499016
 20
449.2854054052098
 30
0.0
 40
1.0
100
AcDbArc
 50
0.0
 51
90.0
  0
LINE
  5
2048
330
1A
100
AcDbEntity
  8
SEIHIN
100
AcDbLine
 10
660.207076499016
 20
448.2854054052096
 30
0.0
 11
659.207076499016
 21
448.2854054052096
 31
0.0
  0
LINE
  5
2049
330
1A
100
AcDbEntity
  8
SEIHIN
100
AcDbLine
 10
660.207076499016
 20
449.2854054052098
 30
0.0
 11
660.207076499016
 21
448.2854054052096
 31
0.0
  0
LINE
  5
204A
330
1A
100
AcDbEntity
  8
SEIHIN
100
AcDbLine
 10
654.207076499016
 20
460.2854054052098
 30
0.0
 11
654.207076499016
 21
458.2854054052098
 31
0.0
  0
ARC
  5
204B
330
1A
100
AcDbEntity
  8
SEIHIN
100
AcDbCircle
 10
653.7070764990158
 20
458.7854054052098
 30
0.0
 40
1.5
100
AcDbArc
 50
90.0
 51
180.0
  0
LINE
  5
204C
330
1A
100
AcDbEntity
  8
SEIHIN
100
AcDbLine
 10
653.7070764990158
 20
460.2854054052098
 30
0.0
 11
654.207076499016
 21
460.2854054052098
 31
0.0
  0
LINE
  5
204D
330
1A
100
AcDbEntity
  8
SEIHIN
100
AcDbLine
 10
653.707076499016
 20
460.2854054052098
 30
0.0
 11
654.207076499016
 21
460.2854054052098
 31
0.0
  0
LINE
  5
204E
330
1A
100
AcDbEntity
  8
SEIHIN
100
AcDbLine
 10
652.207076499016
 20
457.2854054052098
 30
0.0
 11
652.207076499016
 21
458.7854054052098
 31
0.0
  0
LINE
  5
204F
330
1A
100
AcDbEntity
  8
SEIHIN
100
AcDbLine
 10
654.207076499016
 20
460.2854054052098
 30
0.0
 11
654.207076499016
 21
457.2854054052098
 31
0.0
  0
VIEWPORT
  5
22
330
17
100
AcDbEntity
 67
     1
  8
0
100
AcDbViewport
 10
313.6808219178083
 20
148.5
 30
0.0
 40
627.3616438356165
 41
297.0
 68
     2
 69
     1
 12
313.6808219178083
 22
148.5
 13
0.0
 23
0.0
 14
1.0
 24
1.0
 15
10.0
 25
10.0
 16
0.0
 26
0.0
 36
1.0
 17
0.0
 27
0.0
 37
0.0
 42
50.0
 43
0.0
 44
0.0
 45
297.0
 50
0.0
 51
0.0
 72
   100
 90
    32768
  1

281
     0
 71
     1
 74
     0
110
0.0
120
0.0
130
0.0
111
1.0
121
0.0
131
0.0
112
0.0
122
1.0
132
0.0
 79
     0
146
0.0
  0
VIEWPORT
  5
64
330
17
100
AcDbEntity
 67
     1
  8
VIEWPORT
100
AcDbViewport
 10
210.0
 20
148.5
 30
0.0
 40
420.0
 41
297.0
 68
     1
 69
     2
 12
420.0
 22
297.0
 13
0.0
 23
0.0
 14
10.0
 24
10.0
 15
0.0
 25
0.0
 16
0.0
 26
0.0
 36
1.0
 17
0.0
 27
0.0
 37
0.0
 42
50.0
 43
0.0
 44
0.0
 45
605.8799999999999
 50
0.0
 51
0.0
 72
   100
 90
    32768
  1

281
     0
 71
     1
 74
     0
110
0.0
120
0.0
130
0.0
111
1.0
121
0.0
131
0.0
112
0.0
122
1.0
132
0.0
 79
     0
146
0.0
  0
ENDSEC
  0
SECTION
  2
OBJECTS
  0
DICTIONARY
  5
C
330
0
100
AcDbDictionary
281
     1
  3
ACAD_GROUP
350
D
  3
ACAD_LAYOUT
350
C42
  3
ACAD_MLINESTYLE
350
E
  3
ACAD_PLOTSETTINGS
350
C43
  3
ACAD_PLOTSTYLENAME
350
C40
  0
DICTIONARY
  5
D
102
{ACAD_REACTORS
330
C
102
}
330
C
100
AcDbDictionary
281
     1
  0
DICTIONARY
  5
C42
102
{ACAD_REACTORS
330
C
102
}
330
C
100
AcDbDictionary
281
     1
  3
Model
350
C44
  3
ﾚｲｱｳﾄ1
350
C45
  0
DICTIONARY
  5
E
102
{ACAD_REACTORS
330
C
102
}
330
C
100
AcDbDictionary
281
     1
  3
STANDARD
350
13
  0
DICTIONARY
  5
C43
102
{ACAD_REACTORS
330
C
102
}
330
C
100
AcDbDictionary
281
     1
  0
ACDBDICTIONARYWDFLT
  5
C40
102
{ACAD_REACTORS
330
C
102
}
330
C
100
AcDbDictionary
281
     1
  3
Normal
350
C41
100
AcDbDictionaryWithDefault
340
C41
1001
ACAD
1000
TREAT_AS_HARD
1070
     0
1000
TREAT_AS_HARD
1070
     0
1000
TREAT_AS_HARD
1070
     0
1000
TREAT_AS_HARD
1070
     0
1000
TREAT_AS_HARD
1070
     0
1000
TREAT_AS_HARD
1070
     0
  0
LAYOUT
  5
C44
102
{ACAD_REACTORS
330
C42
102
}
330
C42
100
AcDbPlotSettings
  1

  2
Acrobat PDFWriter
  4
A3
  6

 40
7.143749713897705
 41
7.14375638961792
 42
7.143768310546875
 43
7.14373779296875
 44
297.1270751953125
 45
420.1583251953125
 46
0.0
 47
0.0
 48
0.0
 49
0.0
140
0.0
141
0.0
142
1.0
143
2.0
 70
 28336
 72
     1
 73
     1
 74
     2
  7
print.ctb
 75
    17
147
0.5
148
0.0
149
0.0
100
AcDbLayout
  1
Model
 70
     1
 71
     0
 10
0.0
 20
0.0
 11
12.0
 21
9.0
 12
0.0
 22
0.0
 32
0.0
 14
0.0
 24
0.0
 34
0.0
 15
0.0
 25
0.0
 35
0.0
146
0.0
 13
0.0
 23
0.0
 33
0.0
 16
1.0
 26
0.0
 36
0.0
 17
0.0
 27
1.0
 37
0.0
 76
     0
330
1A
  0
LAYOUT
  5
C45
102
{ACAD_REACTORS
330
C42
102
}
330
C42
100
AcDbPlotSettings
  1

  2
Canon LBP-A404 LIPS3
  4

  6

 40
0.0
 41
0.0
 42
0.0
 43
0.0
 44
0.0
 45
0.0
 46
0.0
 47
0.0
 48
0.0
 49
0.0
140
0.0
141
0.0
142
1.0
143
1.0
 70
   688
 72
     0
 73
     0
 74
     5
  7

 75
    16
147
1.0
148
0.0
149
0.0
100
AcDbLayout
  1
ﾚｲｱｳﾄ1
 70
     1
 71
     1
 10
0.0
 20
0.0
 11
420.0
 21
297.0
 12
0.0
 22
0.0
 32
0.0
 14
0.0
 24
0.0
 34
0.0
 15
420.0
 25
297.0
 35
0.0
146
0.0
 13
0.0
 23
0.0
 33
0.0
 16
1.0
 26
0.0
 36
0.0
 17
0.0
 27
1.0
 37
0.0
 76
     0
330
17
331
64
  0
MLINESTYLE
  5
13
102
{ACAD_REACTORS
330
E
102
}
330
E
100
AcDbMlineStyle
  2
STANDARD
 70
     0
  3

 62
     0
 51
90.0
 52
90.0
 71
     2
 49
0.5
 62
   256
  6
BYLAYER
 49
-0.5
 62
   256
  6
BYLAYER
  0
ACDBPLACEHOLDER
  5
C41
102
{ACAD_REACTORS
330
C40
102
}
330
C40
  0
ENDSEC
  0
EOF
